0
SECTION
2
HEADER
9
$ACADVER
1
AC1015
9
$DWGCODEPAGE
3
ANSI_1252
9
$HANDSEED
5
298
9
$ANGBASE
50
0
9
$ANGDIR
70
0
9
$ATTMODE
70
1
9
$AUNITS
70
0
9
$AUPREC
70
0
9
$CECOLOR
62
256
9
$CELTSCALE
40
1
9
$CELTYPE
6
ByLayer
9
$CELWEIGHT
370
18
9
$CLAYER
8
0
9
$CMLJUST
70
0
9
$CMLSCALE
40
1
9
$CMLSTYLE
2
Standard
9
$DIMSTYLE
2
Standard
9
$TEXTSIZE
40
0.2
9
$TEXTSTYLE
7
Standard
9
$LUNITS
70
2
9
$LUPREC
70
4
9
$EXTNAMES
290
1
9
$INSUNITS
70
4
9
$LTSCALE
40
1
9
$LWDISPLAY
290
1
9
$PDMODE
70
0
9
$PDSIZE
40
0
9
$PLINEGEN
70
0
0
ENDSEC
0
SECTION
2
CLASSES
0
CLASS
1
RASTERVARIABLES
2
AcDbRasterVariables
3
ISM
90
0
280
0
281
0
0
ENDSEC
0
SECTION
2
TABLES
0
TABLE
2
VPORT
5
28e
100
AcDbSymbolTable
0
VPORT
5
1
100
AcDbSymbolTableRecord
100
AcDbViewportTableRecord
2
*Active
70
0
10
0
20
0
11
1
21
1
12
-1
22
1
13
0
23
0
14
0.5
24
0.5
15
10
25
10
16
0
26
0
36
1
17
0
27
0
37
0
0
ENDTAB
0
TABLE
2
LTYPE
5
28f
100
AcDbSymbolTable
0
LTYPE
5
14
100
AcDbSymbolTableRecord
100
AcDbLinetypeTableRecord
70
0
2
ByBlock
3

72
65
73
0
40
0
0
LTYPE
5
15
100
AcDbSymbolTableRecord
100
AcDbLinetypeTableRecord
70
0
2
ByLayer
3

72
65
73
0
40
0
0
LTYPE
5
16
100
AcDbSymbolTableRecord
100
AcDbLinetypeTableRecord
70
0
2
Continuous
3
Solid line
72
65
73
0
40
0
0
LTYPE
5
6E
100
AcDbSymbolTableRecord
100
AcDbLinetypeTableRecord
70
0
2
CENTER
3
____ _ ____ _ ____ _ ____
72
65
73
4
40
47.5
49
22
74
0
49
-8.5
74
0
49
8.5
74
0
49
-8.5
74
0
0
LTYPE
5
6F
100
AcDbSymbolTableRecord
100
AcDbLinetypeTableRecord
70
0
2
DASHED
3
__ __ __ __ __ __ __ __ __
72
65
73
2
40
25.72
49
12.86
74
0
49
-12.86
74
0
0
ENDTAB
0
TABLE
2
LAYER
5
290
100
AcDbSymbolTable
0
LAYER
5
10
100
AcDbSymbolTableRecord
100
AcDbLayerTableRecord
2
0
70
0
62
7
6
Continuous
290
1
370
-3
390
0
0
LAYER
5
71
100
AcDbSymbolTableRecord
100
AcDbLayerTableRecord
2
81
70
0
62
-3
6
Continuous
290
1
370
-3
390
0
0
LAYER
5
73
100
AcDbSymbolTableRecord
100
AcDbLayerTableRecord
2
80
70
0
62
-6
6
Continuous
290
1
370
-3
390
0
0
LAYER
5
75
100
AcDbSymbolTableRecord
100
AcDbLayerTableRecord
2
1
70
0
62
4
6
Continuous
290
1
370
-3
390
0
0
LAYER
5
C1
100
AcDbSymbolTableRecord
100
AcDbLayerTableRecord
2
4
70
0
62
-2
6
CENTER
290
1
370
-3
390
0
0
LAYER
5
16A
100
AcDbSymbolTableRecord
100
AcDbLayerTableRecord
2
Defpoints
70
0
62
7
6
Continuous
290
0
370
-3
390
0
0
LAYER
5
179
100
AcDbSymbolTableRecord
100
AcDbLayerTableRecord
2
2
70
0
62
7
6
Continuous
290
1
370
-3
390
0
0
LAYER
5
27a
100
AcDbSymbolTableRecord
100
AcDbLayerTableRecord
2
SK1
70
0
62
4
6
Continuous
290
1
370
-3
390
0
0
LAYER
5
27b
100
AcDbSymbolTableRecord
100
AcDbLayerTableRecord
2
SK4
70
0
62
2
6
CENTER
290
1
370
-3
390
0
0
LAYER
5
27c
100
AcDbSymbolTableRecord
100
AcDbLayerTableRecord
2
SK2
70
0
62
7
6
Continuous
290
1
370
-3
390
0
0
LAYER
5
27d
100
AcDbSymbolTableRecord
100
AcDbLayerTableRecord
2
SK6
70
0
62
5
6
Continuous
290
1
370
-3
390
0
0
ENDTAB
0
TABLE
2
STYLE
5
291
100
AcDbSymbolTable
0
STYLE
5
11
100
AcDbSymbolTableRecord
100
AcDbTextStyleTableRecord
2
Standard
3
txt
70
0
71
0
40
0
41
1
42
0
50
0
0
STYLE
5
15B
100
AcDbSymbolTableRecord
100
AcDbTextStyleTableRecord
2
iso_b_vert
3
simplex.shx
70
0
71
0
40
0
41
1
42
0
50
0
0
STYLE
5
15C
100
AcDbSymbolTableRecord
100
AcDbTextStyleTableRecord
2
DWGDirectTextStyle
3
simplex
70
0
71
0
40
0
41
1
42
0
50
0
0
ENDTAB
0
TABLE
2
DIMSTYLE
5
292
100
AcDbSymbolTable
100
AcDbDimStyleTable
0
DIMSTYLE
105
27
100
AcDbSymbolTableRecord
100
AcDbDimStyleTableRecord
2
Standard
70
0
3
<>
41
0.18
42
0.0625
44
0.18
140
0.18
147
0.09
73
0
74
0
77
1
271
2
275
0
278
52
280
0
340
11
0
ENDTAB
0
TABLE
2
VIEW
5
293
100
AcDbSymbolTable
0
ENDTAB
0
TABLE
2
UCS
5
294
100
AcDbSymbolTable
0
ENDTAB
0
TABLE
2
APPID
5
295
100
AcDbSymbolTable
0
APPID
5
12
100
AcDbSymbolTableRecord
100
AcDbRegAppTableRecord
2
ACAD
70
0
0
APPID
5
15F
100
AcDbSymbolTableRecord
100
AcDbRegAppTableRecord
2
ACAD_DSTYLE_DIMBREAK
70
0
0
APPID
5
239
100
AcDbSymbolTableRecord
100
AcDbRegAppTableRecord
2
ACAD_DSTYLE_DIM_LINETYPE
70
0
0
APPID
5
23A
100
AcDbSymbolTableRecord
100
AcDbRegAppTableRecord
2
ACAD_DSTYLE_DIM_EXT1_LINETYPE
70
0
0
APPID
5
23B
100
AcDbSymbolTableRecord
100
AcDbRegAppTableRecord
2
ACAD_DSTYLE_DIM_EXT2_LINETYPE
70
0
0
APPID
5
276
100
AcDbSymbolTableRecord
100
AcDbRegAppTableRecord
2
ACAD_MLEADERVER
70
0
0
ENDTAB
0
TABLE
2
BLOCK_RECORD
5
296
100
AcDbSymbolTable
0
BLOCK_RECORD
5
1F
100
AcDbSymbolTableRecord
100
AcDbBlockTableRecord
2
*Model_Space
340
0
70
0
0
BLOCK_RECORD
5
1B
100
AcDbSymbolTableRecord
100
AcDbBlockTableRecord
2
*Paper_Space
340
0
70
0
0
BLOCK_RECORD
5
23
100
AcDbSymbolTableRecord
100
AcDbBlockTableRecord
2
*Paper_Space0
340
0
70
0
0
BLOCK_RECORD
5
161
100
AcDbSymbolTableRecord
100
AcDbBlockTableRecord
2
_Closed
340
0
70
0
0
BLOCK_RECORD
5
16B
100
AcDbSymbolTableRecord
100
AcDbBlockTableRecord
2
*D2
340
0
70
0
0
BLOCK_RECORD
5
17A
100
AcDbSymbolTableRecord
100
AcDbBlockTableRecord
2
_U0
340
0
70
0
0
BLOCK_RECORD
5
18B
100
AcDbSymbolTableRecord
100
AcDbBlockTableRecord
2
*D4
340
0
70
0
0
BLOCK_RECORD
5
198
100
AcDbSymbolTableRecord
100
AcDbBlockTableRecord
2
_U1
340
0
70
0
0
BLOCK_RECORD
5
1A8
100
AcDbSymbolTableRecord
100
AcDbBlockTableRecord
2
*D6
340
0
70
0
0
BLOCK_RECORD
5
1B4
100
AcDbSymbolTableRecord
100
AcDbBlockTableRecord
2
_U2
340
0
70
0
0
BLOCK_RECORD
5
1C4
100
AcDbSymbolTableRecord
100
AcDbBlockTableRecord
2
*D8
340
0
70
0
0
BLOCK_RECORD
5
1D0
100
AcDbSymbolTableRecord
100
AcDbBlockTableRecord
2
_U3
340
0
70
0
0
BLOCK_RECORD
5
1E0
100
AcDbSymbolTableRecord
100
AcDbBlockTableRecord
2
*D10
340
0
70
0
0
BLOCK_RECORD
5
1EE
100
AcDbSymbolTableRecord
100
AcDbBlockTableRecord
2
_U4
340
0
70
0
0
BLOCK_RECORD
5
1FF
100
AcDbSymbolTableRecord
100
AcDbBlockTableRecord
2
*D12
340
0
70
0
0
BLOCK_RECORD
5
20D
100
AcDbSymbolTableRecord
100
AcDbBlockTableRecord
2
_U5
340
0
70
0
0
ENDTAB
0
ENDSEC
0
SECTION
2
BLOCKS
0
BLOCK
5
20
100
AcDbEntity
8
0
100
AcDbBlockBegin
2
*Model_Space
70
0
10
0
20
0
30
0
3
*Model_Space
0
ENDBLK
5
21
100
AcDbEntity
8
0
100
AcDbBlockEnd
0
BLOCK
5
1C
100
AcDbEntity
8
0
100
AcDbBlockBegin
2
*Paper_Space
70
0
10
0
20
0
30
0
3
*Paper_Space
0
ENDBLK
5
1D
100
AcDbEntity
8
0
100
AcDbBlockEnd
0
BLOCK
5
24
100
AcDbEntity
8
0
100
AcDbBlockBegin
2
*Paper_Space0
70
0
10
0
20
0
30
0
3
*Paper_Space0
0
ENDBLK
5
25
100
AcDbEntity
8
0
100
AcDbBlockEnd
0
BLOCK
5
162
100
AcDbEntity
8
0
100
AcDbBlockBegin
2
_Closed
70
0
10
0
20
0
30
0
3
_Closed
0
LINE
5
164
100
AcDbEntity
8
0
62
256
6
ByLayer
370
-2
48
1
60
0
100
AcDbLine
10
-1
20
0.166667
30
0
11
0
21
0
31
0
39
0
210
0
220
0
230
1
0
LINE
5
165
100
AcDbEntity
8
0
62
256
6
ByLayer
370
-2
48
1
60
0
100
AcDbLine
10
0
20
0
30
0
11
-1
21
-0.166667
31
0
39
0
210
0
220
0
230
1
0
LINE
5
166
100
AcDbEntity
8
0
62
256
6
ByLayer
370
-2
48
1
60
0
100
AcDbLine
10
-1
20
0.166667
30
0
11
-1
21
-0.166667
31
0
39
0
210
0
220
0
230
1
0
LINE
5
167
100
AcDbEntity
8
0
62
256
6
ByLayer
370
-2
48
1
60
0
100
AcDbLine
10
0
20
0
30
0
11
-1
21
0
31
0
39
0
210
0
220
0
230
1
0
ENDBLK
5
163
100
AcDbEntity
8
0
100
AcDbBlockEnd
0
BLOCK
5
16C
100
AcDbEntity
8
0
100
AcDbBlockBegin
2
*D2
70
1
10
0
20
0
30
0
3
*D2
0
LINE
5
16E
100
AcDbEntity
8
0
62
256
6
ByLayer
370
-2
48
1
60
0
100
AcDbLine
10
22.089
20
-6.604
30
0
11
48.573375
21
-6.604
31
0
39
0
210
0
220
0
230
1
0
LINE
5
16F
100
AcDbEntity
8
0
62
256
6
ByLayer
370
-2
48
1
60
0
100
AcDbLine
10
22.089
20
6.604
30
0
11
48.573375
21
6.604
31
0
39
0
210
0
220
0
230
1
0
LINE
5
170
100
AcDbEntity
8
0
62
256
6
ByLayer
370
-2
48
1
60
0
100
AcDbLine
10
45.398375
20
6.604
30
0
11
45.398375
21
44.43686
31
0
39
0
210
0
220
0
230
1
0
LINE
5
171
100
AcDbEntity
8
0
62
256
6
ByLayer
370
-2
48
1
60
0
100
AcDbLine
10
45.398375
20
-9.779
30
0
11
45.398375
21
-12.954
31
0
39
0
210
0
220
0
230
1
0
LINE
5
172
100
AcDbEntity
8
0
62
256
6
ByLayer
370
-2
48
1
60
0
100
AcDbLine
10
45.398375
20
9.779
30
0
11
45.398375
21
12.954
31
0
39
0
210
0
220
0
230
1
0
SOLID
5
173
100
AcDbEntity
8
0
62
256
6
ByLayer
370
-1
48
1
60
0
100
AcDbTrace
10
45.927542
20
-9.779
30
0
11
44.869208
21
-9.779
31
0
12
45.398375
22
-6.604
32
0
13
45.398375
23
-6.604
33
0
39
0
210
0
220
0
230
1
0
SOLID
5
174
100
AcDbEntity
8
0
62
256
6
ByLayer
370
-1
48
1
60
0
100
AcDbTrace
10
44.869208
20
9.779
30
0
11
45.927542
21
9.779
31
0
12
45.398375
22
6.604
32
0
13
45.398375
23
6.604
33
0
39
0
210
0
220
0
230
1
0
MTEXT
5
175
100
AcDbEntity
8
0
62
256
6
ByLayer
370
18
48
1
60
0
100
AcDbMText
10
36.004625
20
29.257395
30
0
210
0
220
0
230
1
1
\A1;13.21
40
4.5
41
0
44
1
50
90
71
5
72
5
7
iso_b_vert
0
POINT
5
176
100
AcDbEntity
8
Defpoints
62
0
6
ByLayer
370
-1
48
1
60
0
100
AcDbPoint
10
20.5015
20
-6.604
30
0
39
0
210
0
220
0
230
1
50
360
0
POINT
5
177
100
AcDbEntity
8
Defpoints
62
0
6
ByLayer
370
-1
48
1
60
0
100
AcDbPoint
10
20.5015
20
6.604
30
0
39
0
210
0
220
0
230
1
50
360
0
POINT
5
178
100
AcDbEntity
8
Defpoints
62
0
6
ByLayer
370
-1
48
1
60
0
100
AcDbPoint
10
45.398375
20
6.604
30
0
39
0
210
0
220
0
230
1
50
360
0
ENDBLK
5
16D
100
AcDbEntity
8
0
100
AcDbBlockEnd
0
BLOCK
5
186
100
AcDbEntity
8
0
100
AcDbBlockBegin
2
_U0
70
0
10
0
20
0
30
0
3
_U0
0
MTEXT
5
17B
100
AcDbEntity
8
2
62
256
6
ByLayer
370
18
48
1
60
0
100
AcDbMText
10
43.316529
20
17.859375
30
0
210
0
220
0
230
1
1
%%c
40
3.175
41
0
44
1.084337
50
90
71
7
72
5
7
iso_b_vert
0
MTEXT
5
17C
100
AcDbEntity
8
2
62
256
6
ByLayer
370
18
48
1
60
0
100
AcDbMText
10
43.717953
20
27.444
30
0
210
0
220
0
230
1
1
\W0.7778;13.21
40
4.5
41
0
44
1.084337
50
90
71
7
72
5
7
iso_b_vert
0
LINE
5
17D
100
AcDbEntity
8
2
62
256
6
ByLayer
370
13
48
1
60
0
100
AcDbLine
10
22.089
20
-6.604
30
0
11
48.573375
21
-6.604
31
0
39
0
210
0
220
0
230
1
0
LINE
5
17E
100
AcDbEntity
8
2
62
256
6
ByLayer
370
13
48
1
60
0
100
AcDbLine
10
22.089
20
6.604
30
0
11
48.573375
21
6.604
31
0
39
0
210
0
220
0
230
1
0
LINE
5
17F
100
AcDbEntity
8
2
62
256
6
ByLayer
370
13
48
1
60
0
100
AcDbLine
10
45.398375
20
-6.604
30
0
11
45.398375
21
40.798291
31
0
39
0
210
0
220
0
230
1
0
LINE
5
180
100
AcDbEntity
8
2
62
256
6
ByLayer
370
13
48
1
60
0
100
AcDbLine
10
45.398375
20
-6.604
30
0
11
44.980378
21
-3.429002
31
0
39
0
210
0
220
0
230
1
0
LINE
5
181
100
AcDbEntity
8
2
62
256
6
ByLayer
370
13
48
1
60
0
100
AcDbLine
10
45.398375
20
-6.604
30
0
11
45.816372
21
-3.428998
31
0
39
0
210
0
220
0
230
1
0
LINE
5
182
100
AcDbEntity
8
2
62
256
6
ByLayer
370
13
48
1
60
0
100
AcDbLine
10
44.980378
20
-3.429002
30
0
11
45.816372
21
-3.428998
31
0
39
0
210
0
220
0
230
1
0
LINE
5
183
100
AcDbEntity
8
2
62
256
6
ByLayer
370
13
48
1
60
0
100
AcDbLine
10
45.398375
20
6.604
30
0
11
45.816372
21
3.429002
31
0
39
0
210
0
220
0
230
1
0
LINE
5
184
100
AcDbEntity
8
2
62
256
6
ByLayer
370
13
48
1
60
0
100
AcDbLine
10
45.398375
20
6.604
30
0
11
44.980378
21
3.428998
31
0
39
0
210
0
220
0
230
1
0
LINE
5
185
100
AcDbEntity
8
2
62
256
6
ByLayer
370
13
48
1
60
0
100
AcDbLine
10
45.816372
20
3.429002
30
0
11
44.980378
21
3.428998
31
0
39
0
210
0
220
0
230
1
0
ENDBLK
5
187
100
AcDbEntity
8
0
100
AcDbBlockEnd
0
BLOCK
5
18C
100
AcDbEntity
8
0
100
AcDbBlockBegin
2
*D4
70
1
10
0
20
0
30
0
3
*D4
0
LINE
5
18E
100
AcDbEntity
8
0
62
256
6
ByLayer
370
-2
48
1
60
0
100
AcDbLine
10
20.5015
20
-8.1915
30
0
11
20.5015
21
-34.279
31
0
39
0
210
0
220
0
230
1
0
LINE
5
18F
100
AcDbEntity
8
0
62
256
6
ByLayer
370
-2
48
1
60
0
100
AcDbLine
10
-0.0013
20
-1.5875
30
0
11
-0.0013
21
-34.279
31
0
39
0
210
0
220
0
230
1
0
LINE
5
190
100
AcDbEntity
8
0
62
256
6
ByLayer
370
-2
48
1
60
0
100
AcDbLine
10
23.6765
20
-31.104
30
0
11
26.8515
21
-31.104
31
0
39
0
210
0
220
0
230
1
0
LINE
5
191
100
AcDbEntity
8
0
62
256
6
ByLayer
370
-2
48
1
60
0
100
AcDbLine
10
-3.1763
20
-31.104
30
0
11
-6.3513
21
-31.104
31
0
39
0
210
0
220
0
230
1
0
SOLID
5
192
100
AcDbEntity
8
0
62
256
6
ByLayer
370
-1
48
1
60
0
100
AcDbTrace
10
23.6765
20
-30.574833
30
0
11
23.6765
21
-31.633167
31
0
12
20.5015
22
-31.104
32
0
13
20.5015
23
-31.104
33
0
39
0
210
0
220
0
230
1
0
SOLID
5
193
100
AcDbEntity
8
0
62
256
6
ByLayer
370
-1
48
1
60
0
100
AcDbTrace
10
-3.1763
20
-31.633167
30
0
11
-3.1763
21
-30.574833
31
0
12
-0.0013
22
-31.104
32
0
13
-0.0013
23
-31.104
33
0
39
0
210
0
220
0
230
1
0
MTEXT
5
194
100
AcDbEntity
8
0
62
256
6
ByLayer
370
18
48
1
60
0
100
AcDbMText
10
10.2501
20
-21.71025
30
0
210
0
220
0
230
1
1
\A1;20.5
40
4.5
41
0
44
1
50
0
71
5
72
5
7
iso_b_vert
0
POINT
5
195
100
AcDbEntity
8
Defpoints
62
0
6
ByLayer
370
-1
48
1
60
0
100
AcDbPoint
10
20.5015
20
-6.604
30
0
39
0
210
0
220
0
230
1
50
360
0
POINT
5
196
100
AcDbEntity
8
Defpoints
62
0
6
ByLayer
370
-1
48
1
60
0
100
AcDbPoint
10
-0.0013
20
0
30
0
39
0
210
0
220
0
230
1
50
360
0
POINT
5
197
100
AcDbEntity
8
Defpoints
62
0
6
ByLayer
370
-1
48
1
60
0
100
AcDbPoint
10
-0.0013
20
-31.104
30
0
39
0
210
0
220
0
230
1
50
360
0
ENDBLK
5
18D
100
AcDbEntity
8
0
100
AcDbBlockEnd
0
BLOCK
5
1A3
100
AcDbEntity
8
0
100
AcDbBlockBegin
2
_U1
70
0
10
0
20
0
30
0
3
_U1
0
MTEXT
5
199
100
AcDbEntity
8
SK2
62
256
6
ByLayer
370
18
48
1
60
0
100
AcDbMText
10
4.23121
20
-29.776328
30
0
210
0
220
0
230
1
1
\W0.8668;20.5
40
4.5
41
0
44
1.084337
50
0
71
7
72
5
7
iso_b_vert
0
LINE
5
19A
100
AcDbEntity
8
SK2
62
256
6
ByLayer
370
13
48
1
60
0
100
AcDbLine
10
20.5015
20
-8.1915
30
0
11
20.5015
21
-34.279
31
0
39
0
210
0
220
0
230
1
0
LINE
5
19B
100
AcDbEntity
8
SK2
62
256
6
ByLayer
370
13
48
1
60
0
100
AcDbLine
10
-0.0013
20
-1.5875
30
0
11
-0.0013
21
-34.279
31
0
39
0
210
0
220
0
230
1
0
LINE
5
19C
100
AcDbEntity
8
SK2
62
256
6
ByLayer
370
13
48
1
60
0
100
AcDbLine
10
31.7515
20
-31.104
30
0
11
-11.2513
21
-31.104
31
0
39
0
210
0
220
0
230
1
0
LINE
5
19D
100
AcDbEntity
8
SK2
62
256
6
ByLayer
370
13
48
1
60
0
100
AcDbLine
10
20.5015
20
-31.104
30
0
11
23.676498
21
-30.686003
31
0
39
0
210
0
220
0
230
1
0
LINE
5
19E
100
AcDbEntity
8
SK2
62
256
6
ByLayer
370
13
48
1
60
0
100
AcDbLine
10
20.5015
20
-31.104
30
0
11
23.676502
21
-31.521997
31
0
39
0
210
0
220
0
230
1
0
LINE
5
19F
100
AcDbEntity
8
SK2
62
256
6
ByLayer
370
13
48
1
60
0
100
AcDbLine
10
23.676498
20
-30.686003
30
0
11
23.676502
21
-31.521997
31
0
39
0
210
0
220
0
230
1
0
LINE
5
1A0
100
AcDbEntity
8
SK2
62
256
6
ByLayer
370
13
48
1
60
0
100
AcDbLine
10
-0.0013
20
-31.104
30
0
11
-3.176298
21
-31.521997
31
0
39
0
210
0
220
0
230
1
0
LINE
5
1A1
100
AcDbEntity
8
SK2
62
256
6
ByLayer
370
13
48
1
60
0
100
AcDbLine
10
-0.0013
20
-31.104
30
0
11
-3.176302
21
-30.686003
31
0
39
0
210
0
220
0
230
1
0
LINE
5
1A2
100
AcDbEntity
8
SK2
62
256
6
ByLayer
370
13
48
1
60
0
100
AcDbLine
10
-3.176298
20
-31.521997
30
0
11
-3.176302
21
-30.686003
31
0
39
0
210
0
220
0
230
1
0
ENDBLK
5
1A4
100
AcDbEntity
8
0
100
AcDbBlockEnd
0
BLOCK
5
1A9
100
AcDbEntity
8
0
100
AcDbBlockBegin
2
*D6
70
1
10
0
20
0
30
0
3
*D6
0
LINE
5
1AB
100
AcDbEntity
8
0
62
256
6
ByLayer
370
-2
48
1
60
0
100
AcDbLine
10
-52.7
20
9.52225
30
0
11
-52.7
21
30.279
31
0
39
0
210
0
220
0
230
1
0
LINE
5
1AC
100
AcDbEntity
8
0
62
256
6
ByLayer
370
-2
48
1
60
0
100
AcDbLine
10
20.5015
20
8.1915
30
0
11
20.5015
21
30.279
31
0
39
0
210
0
220
0
230
1
0
LINE
5
1AD
100
AcDbEntity
8
0
62
256
6
ByLayer
370
-2
48
1
60
0
100
AcDbLine
10
-49.525
20
27.104
30
0
11
17.3265
21
27.104
31
0
39
0
210
0
220
0
230
1
0
SOLID
5
1AE
100
AcDbEntity
8
0
62
256
6
ByLayer
370
-1
48
1
60
0
100
AcDbTrace
10
-49.525
20
27.633167
30
0
11
-49.525
21
26.574833
31
0
12
-52.7
22
27.104
32
0
13
-52.7
23
27.104
33
0
39
0
210
0
220
0
230
1
0
SOLID
5
1AF
100
AcDbEntity
8
0
62
256
6
ByLayer
370
-1
48
1
60
0
100
AcDbTrace
10
17.3265
20
26.574833
30
0
11
17.3265
21
27.633167
31
0
12
20.5015
22
27.104
32
0
13
20.5015
23
27.104
33
0
39
0
210
0
220
0
230
1
0
MTEXT
5
1B0
100
AcDbEntity
8
0
62
256
6
ByLayer
370
18
48
1
60
0
100
AcDbMText
10
-16.09925
20
36.49775
30
0
210
0
220
0
230
1
1
\A1;73.2
40
4.5
41
0
44
1
50
0
71
5
72
5
7
iso_b_vert
0
POINT
5
1B1
100
AcDbEntity
8
Defpoints
62
0
6
ByLayer
370
-1
48
1
60
0
100
AcDbPoint
10
-52.7
20
7.93475
30
0
39
0
210
0
220
0
230
1
50
360
0
POINT
5
1B2
100
AcDbEntity
8
Defpoints
62
0
6
ByLayer
370
-1
48
1
60
0
100
AcDbPoint
10
20.5015
20
6.604
30
0
39
0
210
0
220
0
230
1
50
360
0
POINT
5
1B3
100
AcDbEntity
8
Defpoints
62
0
6
ByLayer
370
-1
48
1
60
0
100
AcDbPoint
10
20.5015
20
27.104
30
0
39
0
210
0
220
0
230
1
50
360
0
ENDBLK
5
1AA
100
AcDbEntity
8
0
100
AcDbBlockEnd
0
BLOCK
5
1BF
100
AcDbEntity
8
0
100
AcDbBlockBegin
2
_U2
70
0
10
0
20
0
30
0
3
_U2
0
MTEXT
5
1B5
100
AcDbEntity
8
2
62
256
6
ByLayer
370
18
48
1
60
0
100
AcDbMText
10
-22.11814
20
28.431672
30
0
210
0
220
0
230
1
1
\W0.8668;73.2
40
4.5
41
0
44
1.084337
50
0
71
7
72
5
7
iso_b_vert
0
LINE
5
1B6
100
AcDbEntity
8
2
62
256
6
ByLayer
370
13
48
1
60
0
100
AcDbLine
10
-52.7
20
9.52225
30
0
11
-52.7
21
30.279
31
0
39
0
210
0
220
0
230
1
0
LINE
5
1B7
100
AcDbEntity
8
2
62
256
6
ByLayer
370
13
48
1
60
0
100
AcDbLine
10
20.5015
20
8.1915
30
0
11
20.5015
21
30.279
31
0
39
0
210
0
220
0
230
1
0
LINE
5
1B8
100
AcDbEntity
8
2
62
256
6
ByLayer
370
13
48
1
60
0
100
AcDbLine
10
-52.7
20
27.104
30
0
11
20.5015
21
27.104
31
0
39
0
210
0
220
0
230
1
0
LINE
5
1B9
100
AcDbEntity
8
2
62
256
6
ByLayer
370
13
48
1
60
0
100
AcDbLine
10
-52.7
20
27.104
30
0
11
-49.525002
21
27.521997
31
0
39
0
210
0
220
0
230
1
0
LINE
5
1BA
100
AcDbEntity
8
2
62
256
6
ByLayer
370
13
48
1
60
0
100
AcDbLine
10
-52.7
20
27.104
30
0
11
-49.524998
21
26.686003
31
0
39
0
210
0
220
0
230
1
0
LINE
5
1BB
100
AcDbEntity
8
2
62
256
6
ByLayer
370
13
48
1
60
0
100
AcDbLine
10
-49.525002
20
27.521997
30
0
11
-49.524998
21
26.686003
31
0
39
0
210
0
220
0
230
1
0
LINE
5
1BC
100
AcDbEntity
8
2
62
256
6
ByLayer
370
13
48
1
60
0
100
AcDbLine
10
20.5015
20
27.104
30
0
11
17.326502
21
26.686003
31
0
39
0
210
0
220
0
230
1
0
LINE
5
1BD
100
AcDbEntity
8
2
62
256
6
ByLayer
370
13
48
1
60
0
100
AcDbLine
10
20.5015
20
27.104
30
0
11
17.326498
21
27.521997
31
0
39
0
210
0
220
0
230
1
0
LINE
5
1BE
100
AcDbEntity
8
2
62
256
6
ByLayer
370
13
48
1
60
0
100
AcDbLine
10
17.326502
20
26.686003
30
0
11
17.326498
21
27.521997
31
0
39
0
210
0
220
0
230
1
0
ENDBLK
5
1C0
100
AcDbEntity
8
0
100
AcDbBlockEnd
0
BLOCK
5
1C5
100
AcDbEntity
8
0
100
AcDbBlockBegin
2
*D8
70
1
10
0
20
0
30
0
3
*D8
0
LINE
5
1C7
100
AcDbEntity
8
0
62
256
6
ByLayer
370
-2
48
1
60
0
100
AcDbLine
10
-52.7
20
9.52225
30
0
11
-52.7
21
20.279
31
0
39
0
210
0
220
0
230
1
0
LINE
5
1C8
100
AcDbEntity
8
0
62
256
6
ByLayer
370
-2
48
1
60
0
100
AcDbLine
10
12.5625
20
10.2375
30
0
11
12.5625
21
20.279
31
0
39
0
210
0
220
0
230
1
0
LINE
5
1C9
100
AcDbEntity
8
0
62
256
6
ByLayer
370
-2
48
1
60
0
100
AcDbLine
10
-49.525
20
17.104
30
0
11
9.3875
21
17.104
31
0
39
0
210
0
220
0
230
1
0
SOLID
5
1CA
100
AcDbEntity
8
0
62
256
6
ByLayer
370
-1
48
1
60
0
100
AcDbTrace
10
-49.525
20
17.633167
30
0
11
-49.525
21
16.574833
31
0
12
-52.7
22
17.104
32
0
13
-52.7
23
17.104
33
0
39
0
210
0
220
0
230
1
0
SOLID
5
1CB
100
AcDbEntity
8
0
62
256
6
ByLayer
370
-1
48
1
60
0
100
AcDbTrace
10
9.3875
20
16.574833
30
0
11
9.3875
21
17.633167
31
0
12
12.5625
22
17.104
32
0
13
12.5625
23
17.104
33
0
39
0
210
0
220
0
230
1
0
MTEXT
5
1CC
100
AcDbEntity
8
0
62
256
6
ByLayer
370
18
48
1
60
0
100
AcDbMText
10
-20.06875
20
26.49775
30
0
210
0
220
0
230
1
1
\A1;65.26
40
4.5
41
0
44
1
50
0
71
5
72
5
7
iso_b_vert
0
POINT
5
1CD
100
AcDbEntity
8
Defpoints
62
0
6
ByLayer
370
-1
48
1
60
0
100
AcDbPoint
10
-52.7
20
7.93475
30
0
39
0
210
0
220
0
230
1
50
360
0
POINT
5
1CE
100
AcDbEntity
8
Defpoints
62
0
6
ByLayer
370
-1
48
1
60
0
100
AcDbPoint
10
12.5625
20
8.65
30
0
39
0
210
0
220
0
230
1
50
360
0
POINT
5
1CF
100
AcDbEntity
8
Defpoints
62
0
6
ByLayer
370
-1
48
1
60
0
100
AcDbPoint
10
12.5625
20
17.104
30
0
39
0
210
0
220
0
230
1
50
360
0
ENDBLK
5
1C6
100
AcDbEntity
8
0
100
AcDbBlockEnd
0
BLOCK
5
1DB
100
AcDbEntity
8
0
100
AcDbBlockBegin
2
_U3
70
0
10
0
20
0
30
0
3
_U3
0
MTEXT
5
1D1
100
AcDbEntity
8
SK2
62
256
6
ByLayer
370
18
48
1
60
0
100
AcDbMText
10
-28.070922
20
18.431672
30
0
210
0
220
0
230
1
1
\W0.8825;65.26
40
4.5
41
0
44
1.084337
50
0
71
7
72
5
7
iso_b_vert
0
LINE
5
1D2
100
AcDbEntity
8
SK2
62
256
6
ByLayer
370
13
48
1
60
0
100
AcDbLine
10
-52.7
20
9.52225
30
0
11
-52.7
21
20.279
31
0
39
0
210
0
220
0
230
1
0
LINE
5
1D3
100
AcDbEntity
8
SK2
62
256
6
ByLayer
370
13
48
1
60
0
100
AcDbLine
10
12.5625
20
10.2375
30
0
11
12.5625
21
20.279
31
0
39
0
210
0
220
0
230
1
0
LINE
5
1D4
100
AcDbEntity
8
SK2
62
256
6
ByLayer
370
13
48
1
60
0
100
AcDbLine
10
-52.7
20
17.104
30
0
11
12.5625
21
17.104
31
0
39
0
210
0
220
0
230
1
0
LINE
5
1D5
100
AcDbEntity
8
SK2
62
256
6
ByLayer
370
13
48
1
60
0
100
AcDbLine
10
-52.7
20
17.104
30
0
11
-49.525002
21
17.521997
31
0
39
0
210
0
220
0
230
1
0
LINE
5
1D6
100
AcDbEntity
8
SK2
62
256
6
ByLayer
370
13
48
1
60
0
100
AcDbLine
10
-52.7
20
17.104
30
0
11
-49.524998
21
16.686003
31
0
39
0
210
0
220
0
230
1
0
LINE
5
1D7
100
AcDbEntity
8
SK2
62
256
6
ByLayer
370
13
48
1
60
0
100
AcDbLine
10
-49.525002
20
17.521997
30
0
11
-49.524998
21
16.686003
31
0
39
0
210
0
220
0
230
1
0
LINE
5
1D8
100
AcDbEntity
8
SK2
62
256
6
ByLayer
370
13
48
1
60
0
100
AcDbLine
10
12.5625
20
17.104
30
0
11
9.387502
21
16.686003
31
0
39
0
210
0
220
0
230
1
0
LINE
5
1D9
100
AcDbEntity
8
SK2
62
256
6
ByLayer
370
13
48
1
60
0
100
AcDbLine
10
12.5625
20
17.104
30
0
11
9.387498
21
17.521997
31
0
39
0
210
0
220
0
230
1
0
LINE
5
1DA
100
AcDbEntity
8
SK2
62
256
6
ByLayer
370
13
48
1
60
0
100
AcDbLine
10
9.387502
20
16.686003
30
0
11
9.387498
21
17.521997
31
0
39
0
210
0
220
0
230
1
0
ENDBLK
5
1DC
100
AcDbEntity
8
0
100
AcDbBlockEnd
0
BLOCK
5
1E1
100
AcDbEntity
8
0
100
AcDbBlockBegin
2
*D10
70
1
10
0
20
0
30
0
3
*D10
0
LINE
5
1E3
100
AcDbEntity
8
0
62
256
6
ByLayer
370
-2
48
1
60
0
100
AcDbLine
10
14.15
20
-8.65
30
0
11
59.4265
21
-8.65
31
0
39
0
210
0
220
0
230
1
0
LINE
5
1E4
100
AcDbEntity
8
0
62
256
6
ByLayer
370
-2
48
1
60
0
100
AcDbLine
10
14.15
20
8.65
30
0
11
59.4265
21
8.65
31
0
39
0
210
0
220
0
230
1
0
LINE
5
1E5
100
AcDbEntity
8
0
62
256
6
ByLayer
370
-2
48
1
60
0
100
AcDbLine
10
56.2515
20
8.65
30
0
11
56.2515
21
43.730716
31
0
39
0
210
0
220
0
230
1
0
LINE
5
1E6
100
AcDbEntity
8
0
62
256
6
ByLayer
370
-2
48
1
60
0
100
AcDbLine
10
56.2515
20
-11.825
30
0
11
56.2515
21
-15
31
0
39
0
210
0
220
0
230
1
0
LINE
5
1E7
100
AcDbEntity
8
0
62
256
6
ByLayer
370
-2
48
1
60
0
100
AcDbLine
10
56.2515
20
11.825
30
0
11
56.2515
21
15
31
0
39
0
210
0
220
0
230
1
0
SOLID
5
1E8
100
AcDbEntity
8
0
62
256
6
ByLayer
370
-1
48
1
60
0
100
AcDbTrace
10
56.780667
20
-11.825
30
0
11
55.722333
21
-11.825
31
0
12
56.2515
22
-8.65
32
0
13
56.2515
23
-8.65
33
0
39
0
210
0
220
0
230
1
0
SOLID
5
1E9
100
AcDbEntity
8
0
62
256
6
ByLayer
370
-1
48
1
60
0
100
AcDbTrace
10
55.722333
20
11.825
30
0
11
56.780667
21
11.825
31
0
12
56.2515
22
8.65
32
0
13
56.2515
23
8.65
33
0
39
0
210
0
220
0
230
1
0
MTEXT
5
1EA
100
AcDbEntity
8
0
62
256
6
ByLayer
370
18
48
1
60
0
100
AcDbMText
10
46.85775
20
30.051251
30
0
210
0
220
0
230
1
1
\A1;17.3
40
4.5
41
0
44
1
50
90
71
5
72
5
7
iso_b_vert
0
POINT
5
1EB
100
AcDbEntity
8
Defpoints
62
0
6
ByLayer
370
-1
48
1
60
0
100
AcDbPoint
10
12.5625
20
-8.65
30
0
39
0
210
0
220
0
230
1
50
360
0
POINT
5
1EC
100
AcDbEntity
8
Defpoints
62
0
6
ByLayer
370
-1
48
1
60
0
100
AcDbPoint
10
12.5625
20
8.65
30
0
39
0
210
0
220
0
230
1
50
360
0
POINT
5
1ED
100
AcDbEntity
8
Defpoints
62
0
6
ByLayer
370
-1
48
1
60
0
100
AcDbPoint
10
56.2515
20
8.65
30
0
39
0
210
0
220
0
230
1
50
360
0
ENDBLK
5
1E2
100
AcDbEntity
8
0
100
AcDbBlockEnd
0
BLOCK
5
1FA
100
AcDbEntity
8
0
100
AcDbBlockBegin
2
_U4
70
0
10
0
20
0
30
0
3
_U4
0
MTEXT
5
1EF
100
AcDbEntity
8
SK2
62
256
6
ByLayer
370
18
48
1
60
0
100
AcDbMText
10
54.169654
20
19.905375
30
0
210
0
220
0
230
1
1
%%c
40
3.175
41
0
44
1.084337
50
90
71
7
72
5
7
iso_b_vert
0
MTEXT
5
1F0
100
AcDbEntity
8
SK2
62
256
6
ByLayer
370
18
48
1
60
0
100
AcDbMText
10
54.571078
20
29.49
30
0
210
0
220
0
230
1
1
\W0.7689;17.3
40
4.5
41
0
44
1.084337
50
90
71
7
72
5
7
iso_b_vert
0
LINE
5
1F1
100
AcDbEntity
8
SK2
62
256
6
ByLayer
370
13
48
1
60
0
100
AcDbLine
10
14.15
20
-8.65
30
0
11
59.4265
21
-8.65
31
0
39
0
210
0
220
0
230
1
0
LINE
5
1F2
100
AcDbEntity
8
SK2
62
256
6
ByLayer
370
13
48
1
60
0
100
AcDbLine
10
14.15
20
8.65
30
0
11
59.4265
21
8.65
31
0
39
0
210
0
220
0
230
1
0
LINE
5
1F3
100
AcDbEntity
8
SK2
62
256
6
ByLayer
370
13
48
1
60
0
100
AcDbLine
10
56.2515
20
-8.65
30
0
11
56.2515
21
40.340003
31
0
39
0
210
0
220
0
230
1
0
LINE
5
1F4
100
AcDbEntity
8
SK2
62
256
6
ByLayer
370
13
48
1
60
0
100
AcDbLine
10
56.2515
20
-8.65
30
0
11
55.833503
21
-5.475002
31
0
39
0
210
0
220
0
230
1
0
LINE
5
1F5
100
AcDbEntity
8
SK2
62
256
6
ByLayer
370
13
48
1
60
0
100
AcDbLine
10
56.2515
20
-8.65
30
0
11
56.669497
21
-5.474998
31
0
39
0
210
0
220
0
230
1
0
LINE
5
1F6
100
AcDbEntity
8
SK2
62
256
6
ByLayer
370
13
48
1
60
0
100
AcDbLine
10
55.833503
20
-5.475002
30
0
11
56.669497
21
-5.474998
31
0
39
0
210
0
220
0
230
1
0
LINE
5
1F7
100
AcDbEntity
8
SK2
62
256
6
ByLayer
370
13
48
1
60
0
100
AcDbLine
10
56.2515
20
8.65
30
0
11
56.669497
21
5.475002
31
0
39
0
210
0
220
0
230
1
0
LINE
5
1F8
100
AcDbEntity
8
SK2
62
256
6
ByLayer
370
13
48
1
60
0
100
AcDbLine
10
56.2515
20
8.65
30
0
11
55.833503
21
5.474998
31
0
39
0
210
0
220
0
230
1
0
LINE
5
1F9
100
AcDbEntity
8
SK2
62
256
6
ByLayer
370
13
48
1
60
0
100
AcDbLine
10
56.669497
20
5.475002
30
0
11
55.833503
21
5.474998
31
0
39
0
210
0
220
0
230
1
0
ENDBLK
5
1FB
100
AcDbEntity
8
0
100
AcDbBlockEnd
0
BLOCK
5
200
100
AcDbEntity
8
0
100
AcDbBlockBegin
2
*D12
70
1
10
0
20
0
30
0
3
*D12
0
LINE
5
202
100
AcDbEntity
8
0
62
256
6
ByLayer
370
-2
48
1
60
0
100
AcDbLine
10
-54.2875
20
7.93475
30
0
11
-80.978125
21
7.93475
31
0
39
0
210
0
220
0
230
1
0
LINE
5
203
100
AcDbEntity
8
0
62
256
6
ByLayer
370
-2
48
1
60
0
100
AcDbLine
10
-54.2875
20
-7.93475
30
0
11
-80.978125
21
-7.93475
31
0
39
0
210
0
220
0
230
1
0
LINE
5
204
100
AcDbEntity
8
0
62
256
6
ByLayer
370
-2
48
1
60
0
100
AcDbLine
10
-77.803125
20
7.93475
30
0
11
-77.803125
21
47.141605
31
0
39
0
210
0
220
0
230
1
0
LINE
5
205
100
AcDbEntity
8
0
62
256
6
ByLayer
370
-2
48
1
60
0
100
AcDbLine
10
-77.803125
20
11.10975
30
0
11
-77.803125
21
14.28475
31
0
39
0
210
0
220
0
230
1
0
LINE
5
206
100
AcDbEntity
8
0
62
256
6
ByLayer
370
-2
48
1
60
0
100
AcDbLine
10
-77.803125
20
-11.10975
30
0
11
-77.803125
21
-14.28475
31
0
39
0
210
0
220
0
230
1
0
SOLID
5
207
100
AcDbEntity
8
0
62
256
6
ByLayer
370
-1
48
1
60
0
100
AcDbTrace
10
-78.332292
20
11.10975
30
0
11
-77.273958
21
11.10975
31
0
12
-77.803125
22
7.93475
32
0
13
-77.803125
23
7.93475
33
0
39
0
210
0
220
0
230
1
0
SOLID
5
208
100
AcDbEntity
8
0
62
256
6
ByLayer
370
-1
48
1
60
0
100
AcDbTrace
10
-77.273958
20
-11.10975
30
0
11
-78.332292
21
-11.10975
31
0
12
-77.803125
22
-7.93475
32
0
13
-77.803125
23
-7.93475
33
0
39
0
210
0
220
0
230
1
0
MTEXT
5
209
100
AcDbEntity
8
0
62
256
6
ByLayer
370
18
48
1
60
0
100
AcDbMText
10
-87.196875
20
31.319284
30
0
210
0
220
0
230
1
1
\A1;15.87
40
4.5
41
0
44
1
50
90
71
5
72
5
7
iso_b_vert
0
POINT
5
20A
100
AcDbEntity
8
Defpoints
62
0
6
ByLayer
370
-1
48
1
60
0
100
AcDbPoint
10
-52.7
20
7.93475
30
0
39
0
210
0
220
0
230
1
50
360
0
POINT
5
20B
100
AcDbEntity
8
Defpoints
62
0
6
ByLayer
370
-1
48
1
60
0
100
AcDbPoint
10
-52.7
20
-7.93475
30
0
39
0
210
0
220
0
230
1
50
360
0
POINT
5
20C
100
AcDbEntity
8
Defpoints
62
0
6
ByLayer
370
-1
48
1
60
0
100
AcDbPoint
10
-77.803125
20
-7.93475
30
0
39
0
210
0
220
0
230
1
50
360
0
ENDBLK
5
201
100
AcDbEntity
8
0
100
AcDbBlockEnd
0
BLOCK
5
219
100
AcDbEntity
8
0
100
AcDbBlockBegin
2
_U5
70
0
10
0
20
0
30
0
3
_U5
0
MTEXT
5
20E
100
AcDbEntity
8
SK2
62
256
6
ByLayer
370
18
48
1
60
0
100
AcDbMText
10
-79.884971
20
19.190125
30
0
210
0
220
0
230
1
1
%%c
40
3.175
41
0
44
1.084337
50
90
71
7
72
5
7
iso_b_vert
0
MTEXT
5
20F
100
AcDbEntity
8
SK2
62
256
6
ByLayer
370
18
48
1
60
0
100
AcDbMText
10
-79.483547
20
28.77475
30
0
210
0
220
0
230
1
1
\W0.8033;15.87
40
4.5
41
0
44
1.084337
50
90
71
7
72
5
7
iso_b_vert
0
LINE
5
210
100
AcDbEntity
8
SK2
62
256
6
ByLayer
370
13
48
1
60
0
100
AcDbLine
10
-54.2875
20
7.93475
30
0
11
-80.978125
21
7.93475
31
0
39
0
210
0
220
0
230
1
0
LINE
5
211
100
AcDbEntity
8
SK2
62
256
6
ByLayer
370
13
48
1
60
0
100
AcDbLine
10
-54.2875
20
-7.93475
30
0
11
-80.978125
21
-7.93475
31
0
39
0
210
0
220
0
230
1
0
LINE
5
212
100
AcDbEntity
8
SK2
62
256
6
ByLayer
370
13
48
1
60
0
100
AcDbLine
10
-77.803125
20
-7.93475
30
0
11
-77.803125
21
43.591318
31
0
39
0
210
0
220
0
230
1
0
LINE
5
213
100
AcDbEntity
8
SK2
62
256
6
ByLayer
370
13
48
1
60
0
100
AcDbLine
10
-77.803125
20
7.93475
30
0
11
-77.385128
21
4.759752
31
0
39
0
210
0
220
0
230
1
0
LINE
5
214
100
AcDbEntity
8
SK2
62
256
6
ByLayer
370
13
48
1
60
0
100
AcDbLine
10
-77.803125
20
7.93475
30
0
11
-78.221122
21
4.759748
31
0
39
0
210
0
220
0
230
1
0
LINE
5
215
100
AcDbEntity
8
SK2
62
256
6
ByLayer
370
13
48
1
60
0
100
AcDbLine
10
-77.385128
20
4.759752
30
0
11
-78.221122
21
4.759748
31
0
39
0
210
0
220
0
230
1
0
LINE
5
216
100
AcDbEntity
8
SK2
62
256
6
ByLayer
370
13
48
1
60
0
100
AcDbLine
10
-77.803125
20
-7.93475
30
0
11
-78.221122
21
-4.759752
31
0
39
0
210
0
220
0
230
1
0
LINE
5
217
100
AcDbEntity
8
SK2
62
256
6
ByLayer
370
13
48
1
60
0
100
AcDbLine
10
-77.803125
20
-7.93475
30
0
11
-77.385128
21
-4.759748
31
0
39
0
210
0
220
0
230
1
0
LINE
5
218
100
AcDbEntity
8
SK2
62
256
6
ByLayer
370
13
48
1
60
0
100
AcDbLine
10
-78.221122
20
-4.759752
30
0
11
-77.385128
21
-4.759748
31
0
39
0
210
0
220
0
230
1
0
ENDBLK
5
21A
100
AcDbEntity
8
0
100
AcDbBlockEnd
0
ENDSEC
0
SECTION
2
ENTITIES
0
ARC
5
CB
100
AcDbEntity
8
1
62
256
6
ByLayer
370
13
48
1
60
0
100
AcDbCircle
39
0
10
3.533477
20
-8.138029
30
0
40
1
210
0
220
0
230
1
100
AcDbArc
50
82.874984
51
90
0
ARC
5
CC
100
AcDbEntity
8
1
62
256
6
ByLayer
370
13
48
1
60
0
100
AcDbCircle
39
0
10
3.533477
20
8.138029
30
0
40
1
210
0
220
0
230
1
100
AcDbArc
50
270
51
277.125016
0
ARC
5
CD
100
AcDbEntity
8
1
62
256
6
ByLayer
370
13
48
1
60
0
100
AcDbCircle
39
0
10
1.003827
20
-7.638029
30
0
40
0.5
210
0
220
0
230
1
100
AcDbArc
50
90
51
135
0
ARC
5
CE
100
AcDbEntity
8
1
62
256
6
ByLayer
370
13
48
1
60
0
100
AcDbCircle
39
0
10
1.003827
20
7.638029
30
0
40
0.5
210
0
220
0
230
1
100
AcDbArc
50
225
51
270
0
ARC
5
CF
100
AcDbEntity
8
SK2
62
256
6
ByLayer
370
13
48
1
60
0
100
AcDbCircle
39
0
10
20.5015
20
6.604
30
0
40
12.0788335235022
210
0
220
0
230
1
100
AcDbArc
50
90
51
165
0
ELLIPSE
5
D0
100
AcDbEntity
8
1
62
256
6
ByLayer
370
18
48
1
60
0
100
AcDbEllipse
10
15.248695
20
3.37983
30
0
11
0.649340140727211
21
-1.11355614323678
31
0
210
0
220
0
230
1
40
0.992404
41
-0.783491887770843
42
0.263705663425756
0
ELLIPSE
5
D1
100
AcDbEntity
8
1
62
256
6
ByLayer
370
18
48
1
60
0
100
AcDbEllipse
10
15.248695
20
3.37983
30
0
11
0.649340140727211
21
-1.11355614323678
31
0
210
0
220
0
230
1
40
0.992404
41
0.263705663425756
42
1.31090321462236
0
ELLIPSE
5
D2
100
AcDbEntity
8
1
62
256
6
ByLayer
370
18
48
1
60
0
100
AcDbEllipse
10
15.248695
20
3.37983
30
0
11
0.649340140727211
21
-1.11355614323678
31
0
210
0
220
0
230
1
40
0.992404
41
-2.87788699016404
42
-1.83068943896745
0
ELLIPSE
5
D3
100
AcDbEntity
8
1
62
256
6
ByLayer
370
18
48
1
60
0
100
AcDbEllipse
10
15.248695
20
3.37983
30
0
11
0.649340140727211
21
-1.11355614323678
31
0
210
0
220
0
230
1
40
0.992404
41
-1.83068943896745
42
-0.783491887770843
0
ELLIPSE
5
D4
100
AcDbEntity
8
1
62
256
6
ByLayer
370
18
48
1
60
0
100
AcDbEllipse
10
15.248695
20
3.37983
30
0
11
0.649340140727211
21
-1.11355614323678
31
0
210
0
220
0
230
1
40
0.992404
41
1.31090321462236
42
2.35810076581895
0
ELLIPSE
5
D5
100
AcDbEntity
8
1
62
256
6
ByLayer
370
18
48
1
60
0
100
AcDbEllipse
10
15.248695
20
3.37983
30
0
11
0.649340140727211
21
-1.11355614323678
31
0
210
0
220
0
230
1
40
0.992404
41
2.35810076581895
42
-2.87788699016404
0
ELLIPSE
5
D6
100
AcDbEntity
8
1
62
256
6
ByLayer
370
18
48
1
60
0
100
AcDbEllipse
10
15.115852
20
3.302366
30
0
11
-0.500914499778239
21
0.859020386202747
31
0
210
0
220
0
230
1
40
0.992404
41
-1.30709066336915
42
-0.259893112172554
0
ELLIPSE
5
D7
100
AcDbEntity
8
1
62
256
6
ByLayer
370
18
48
1
60
0
100
AcDbEllipse
10
15.910882
20
4.110462
30
0
11
0.214389418991998
21
-0.213047682840602
31
0
210
0
220
0
230
1
40
0.483898
41
-2.85525609251622
42
-1.56837143195192
0
ELLIPSE
5
D8
100
AcDbEntity
8
1
62
256
6
ByLayer
370
18
48
1
60
0
100
AcDbEllipse
10
16.21516
20
3.010648
30
0
11
0.0743551470203748
21
0.291940673076583
31
0
210
0
220
0
230
1
40
0.487066
41
0.27904254256552
42
1.56592720312883
0
ELLIPSE
5
D9
100
AcDbEntity
8
1
62
256
6
ByLayer
370
18
48
1
60
0
100
AcDbEllipse
10
16.21516
20
3.010648
30
0
11
0.07435514702028
21
0.291940673077538
31
0
210
0
220
0
230
1
40
0.487066
41
1.56592720312614
42
2.85281186368651
0
ELLIPSE
5
DA
100
AcDbEntity
8
1
62
256
6
ByLayer
370
18
48
1
60
0
100
AcDbEllipse
10
14.811574
20
4.40218
30
0
11
0.289780518740037
21
0.078618224468308
31
0
210
0
220
0
230
1
40
0.490332
41
-2.85523608432702
42
-1.56835142376476
0
ELLIPSE
5
DB
100
AcDbEntity
8
1
62
256
6
ByLayer
370
18
48
1
60
0
100
AcDbEllipse
10
15.115852
20
3.302366
30
0
11
-0.500914499778239
21
0.859020386202747
31
0
210
0
220
0
230
1
40
0.992404
41
-2.35428821456574
42
-1.30709066336915
0
ELLIPSE
5
DC
100
AcDbEntity
8
1
62
256
6
ByLayer
370
18
48
1
60
0
100
AcDbEllipse
10
15.910882
20
4.110462
30
0
11
0.214389418992831
21
-0.213047682839732
31
0
210
0
220
0
230
1
40
0.483898
41
-1.5683714319609
42
-0.281486771396321
0
ELLIPSE
5
DD
100
AcDbEntity
8
1
62
256
6
ByLayer
370
18
48
1
60
0
100
AcDbEllipse
10
15.248695
20
3.37983
30
0
11
-0.705229585367593
21
1.20940118733291
31
0
210
0
220
0
230
1
40
0.992404
41
0
42
6.28318530717959
0
ELLIPSE
5
DE
100
AcDbEntity
8
1
62
256
6
ByLayer
370
18
48
1
60
0
100
AcDbEllipse
10
15.22081
20
3.36357
30
0
11
-1.05784437805139
21
1.81410178099936
31
0
210
0
220
0
230
1
40
0.992404
41
0
42
6.28318530717959
0
ELLIPSE
5
DF
100
AcDbEntity
8
1
62
256
6
ByLayer
370
18
48
1
60
0
100
AcDbEllipse
10
15.246439
20
3.378515
30
0
11
1.16264111860662
21
-1.99381815292392
31
0
210
0
220
0
230
1
40
0.992404
41
0
42
6.28318530717959
0
ELLIPSE
5
E0
100
AcDbEntity
8
1
62
256
6
ByLayer
370
18
48
1
60
0
100
AcDbEllipse
10
15.3992
20
4.403947
30
0
11
0.290990241687417
21
-0.0779579845979667
31
0
210
0
220
0
230
1
40
0.487094
41
-0.156003478909163
42
2.42910868187188
0
ELLIPSE
5
E1
100
AcDbEntity
8
1
62
256
6
ByLayer
370
18
48
1
60
0
100
AcDbEllipse
10
15.115852
20
3.302366
30
0
11
-0.500914499778239
21
0.859020386202747
31
0
210
0
220
0
230
1
40
0.992404
41
3.04786032674591
42
-2.35428821456574
0
ELLIPSE
5
E2
100
AcDbEntity
8
1
62
256
6
ByLayer
370
18
48
1
60
0
100
AcDbEllipse
10
15.115852
20
3.302366
30
0
11
-0.500914499778239
21
0.859020386202747
31
0
210
0
220
0
230
1
40
0.992404
41
-0.259893112172548
42
0.474928992773609
0
ELLIPSE
5
E3
100
AcDbEntity
8
1
62
256
6
ByLayer
370
18
48
1
60
0
100
AcDbEllipse
10
15.115852
20
3.302366
30
0
11
0.500914499778238
21
-0.859020386202747
31
0
210
0
220
0
230
1
40
0.992404
41
-2.18446226615934
42
-1.55516222388762
0
ELLIPSE
5
E4
100
AcDbEntity
8
1
62
256
6
ByLayer
370
18
48
1
60
0
100
AcDbEllipse
10
16.209596
20
3.60051
30
0
11
0.0809310005282237
21
-0.291212875420955
31
0
210
0
220
0
230
1
40
0.483885
41
0.404664892337541
42
-2.98311255966875
0
ELLIPSE
5
E5
100
AcDbEntity
8
1
62
256
6
ByLayer
370
18
48
1
60
0
100
AcDbEllipse
10
14.811574
20
4.40218
30
0
11
0.289780518741325
21
0.0786182244684668
31
0
210
0
220
0
230
1
40
0.490332
41
-1.56835142376335
42
-1.01615573370113
0
ELLIPSE
5
E6
100
AcDbEntity
8
1
62
256
6
ByLayer
370
18
48
1
60
0
100
AcDbEllipse
10
15.115852
20
3.302366
30
0
11
-0.500914499778239
21
0.859020386202747
31
0
210
0
220
0
230
1
40
0.992404
41
2.17155244503169
42
2.81292797498927
0
ELLIPSE
5
E7
100
AcDbEntity
8
1
62
256
6
ByLayer
370
18
48
1
60
0
100
AcDbEllipse
10
15.42013
20
2.202552
30
0
11
0.289780518739497
21
0.0786182244688756
31
0
210
0
220
0
230
1
40
0.490332
41
2.12543659820706
42
2.86012589038328
0
ELLIPSE
5
E8
100
AcDbEntity
8
1
62
256
6
ByLayer
370
18
48
1
60
0
100
AcDbEllipse
10
15.926248
20
2.498929
30
0
11
0.210318485646052
21
0.214295025728695
31
0
210
0
220
0
230
1
40
0.490317
41
-1.82539519676294
42
0.158395772588014
0
ELLIPSE
5
E9
100
AcDbEntity
8
1
62
256
6
ByLayer
370
18
48
1
60
0
100
AcDbEllipse
10
14.305456
20
4.105803
30
0
11
0.210318485646048
21
0.214295025728702
31
0
210
0
220
0
230
1
40
0.490317
41
-0.163350351007001
42
1.01835145205899
0
ELLIPSE
5
EA
100
AcDbEntity
8
1
62
256
6
ByLayer
370
18
48
1
60
0
100
AcDbEllipse
10
15.142421
20
3.317859
30
0
11
-1.05784437805139
21
1.81410178099937
31
0
210
0
220
0
230
1
40
0.992404
41
1.04619052137782
42
-3.14155266730593
0
ELLIPSE
5
EB
100
AcDbEntity
8
1
62
256
6
ByLayer
370
18
48
1
60
0
100
AcDbEllipse
10
15.142421
20
3.317859
30
0
11
-1.05784437805139
21
1.81410178099937
31
0
210
0
220
0
230
1
40
0.992404
41
0
42
1.04619068040331
0
ELLIPSE
5
EC
100
AcDbEntity
8
1
62
256
6
ByLayer
370
18
48
1
60
0
100
AcDbEllipse
10
15.146211
20
3.320069
30
0
11
-1.08322183348448
21
1.85762168624593
31
0
210
0
220
0
230
1
40
0.992404
41
1.04619050769074
42
-2.50753997552244
0
ELLIPSE
5
ED
100
AcDbEntity
8
1
62
256
6
ByLayer
370
18
48
1
60
0
100
AcDbEllipse
10
15.146211
20
3.320069
30
0
11
-1.08322183348448
21
1.85762168624593
31
0
210
0
220
0
230
1
40
0.992404
41
-0.634070602331212
42
-2.08097468736062E-16
0
ELLIPSE
5
EE
100
AcDbEntity
8
1
62
256
6
ByLayer
370
18
48
1
60
0
100
AcDbEllipse
10
15.146211
20
3.320069
30
0
11
-1.08322183348448
21
1.85762168624593
31
0
210
0
220
0
230
1
40
0.992404
41
0
42
1.04619083772877
0
ELLIPSE
5
EF
100
AcDbEntity
8
1
62
256
6
ByLayer
370
18
48
1
60
0
100
AcDbEllipse
10
15.176097
20
3.337497
30
0
11
-1.13932620207428
21
1.95383530432847
31
0
210
0
220
0
230
1
40
0.992404
41
2.54227588619924
42
-1.97850028567201E-16
0
ELLIPSE
5
F0
100
AcDbEntity
8
1
62
256
6
ByLayer
370
18
48
1
60
0
100
AcDbEllipse
10
15.176097
20
3.337497
30
0
11
-1.13932620207428
21
1.95383530432847
31
0
210
0
220
0
230
1
40
0.992404
41
0
42
0.599299020433764
0
ELLIPSE
5
F1
100
AcDbEntity
8
SK1
62
256
6
ByLayer
370
13
48
1
60
0
100
AcDbEllipse
10
-27.387605
20
0
30
0
11
8.07446026138554
21
9.45886978930851E-15
31
0
210
0
220
0
230
1
40
0.982697
41
2.44481073899962
42
-2.44481073899962
0
ELLIPSE
5
F2
100
AcDbEntity
8
SK1
62
256
6
ByLayer
370
13
48
1
60
0
100
AcDbEllipse
10
-29.587395
20
0
30
0
11
8.07446026138566
21
9.45886978930864E-15
31
0
210
0
220
0
230
1
40
0.982697
41
-0.69678191459018
42
0.696781914590173
0
ELLIPSE
5
F3
100
AcDbEntity
8
1
62
256
6
ByLayer
370
13
48
1
60
0
100
AcDbEllipse
10
15.11033
20
9.822614
30
0
11
6.04482501743651
21
-10.366295891425
31
0
210
0
220
0
230
1
40
0.992404
41
-1.40319934818245
42
-0.521692499971669
0
ELLIPSE
5
F4
100
AcDbEntity
8
1
62
256
6
ByLayer
370
13
48
1
60
0
100
AcDbEllipse
10
14.910079
20
-3.254241
30
0
11
16.2385640954901
21
7.47329279781937
31
0
210
0
220
0
230
1
40
0.004497
41
-1.76840149811352
42
-1.47982910225576
0
ELLIPSE
5
F5
100
AcDbEntity
8
1
62
256
6
ByLayer
370
13
48
1
60
0
100
AcDbEllipse
10
12.547186
20
8.669712
30
0
11
0.997305176461088
21
-0.764463891480296
31
0
210
0
220
0
230
1
40
0.989394
41
-2.01683397326651
42
-1.64598148071113
0
ELLIPSE
5
F6
100
AcDbEntity
8
1
62
256
6
ByLayer
370
13
48
1
60
0
100
AcDbEllipse
10
17.588143
20
-1.723053
30
0
11
0.505353798949762
21
1.16843376331183
31
0
210
0
220
0
230
1
40
0.639876
41
1.80137423440865
42
2.39598251330489
0
ELLIPSE
5
F7
100
AcDbEntity
8
1
62
256
6
ByLayer
370
13
48
1
60
0
100
AcDbEllipse
10
27.993113
20
2.76667
30
0
11
22.1352208190252
21
10.1870808886018
31
0
210
0
220
0
230
1
40
0.004808
41
-3.04128859379906
42
-2.41814932248214
0
ELLIPSE
5
F8
100
AcDbEntity
8
1
62
256
6
ByLayer
370
13
48
1
60
0
100
AcDbEllipse
10
10.551243
20
1.366248
30
0
11
-0.755603127179563
21
1.29578698642812
31
0
210
0
220
0
230
1
40
0.992404
41
0.00190627562662994
42
2.79400220911389
0
ELLIPSE
5
F9
100
AcDbEntity
8
1
62
256
6
ByLayer
370
13
48
1
60
0
100
AcDbEllipse
10
17.506624
20
-1.770589
30
0
11
0.704050873952232
21
0.710149538398145
31
0
210
0
220
0
230
1
40
0.032067
41
1.86062685577494
42
2.64374909036029
0
ELLIPSE
5
FA
100
AcDbEntity
8
1
62
256
6
ByLayer
370
13
48
1
60
0
100
AcDbEllipse
10
10.306813
20
1.223716
30
0
11
-0.757816536490082
21
1.29449376090508
31
0
210
0
220
0
230
1
40
0.614746
41
-0.807144653293501
42
-0.119368880906967
0
ELLIPSE
5
FB
100
AcDbEntity
8
1
62
256
6
ByLayer
370
13
48
1
60
0
100
AcDbEllipse
10
-1.661529
20
-0.592918
30
0
11
7.81167656308902
21
3.32738666346355
31
0
210
0
220
0
230
1
40
0.176641
41
-0.299807240922342
42
0.389343649079595
0
ELLIPSE
5
FC
100
AcDbEntity
8
1
62
256
6
ByLayer
370
13
48
1
60
0
100
AcDbEllipse
10
17.627285
20
-2.03273
30
0
11
-0.869739589516644
21
-0.400329975674266
31
0
210
0
220
0
230
1
40
0.011948
41
0.206960625606294
42
0.467805042169302
0
ELLIPSE
5
FD
100
AcDbEntity
8
1
62
256
6
ByLayer
370
13
48
1
60
0
100
AcDbEllipse
10
15.11033
20
9.822614
30
0
11
6.04482501743651
21
-10.366295891425
31
0
210
0
220
0
230
1
40
0.992404
41
-1.85928874840593
42
-1.49026216025755
0
ELLIPSE
5
FE
100
AcDbEntity
8
1
62
256
6
ByLayer
370
13
48
1
60
0
100
AcDbEllipse
10
25.550261
20
2.466679
30
0
11
20.6407867160897
21
9.57079851172344
31
0
210
0
220
0
230
1
40
0.113308
41
2.34354392796445
42
-2.86741672299329
0
ELLIPSE
5
FF
100
AcDbEntity
8
1
62
256
6
ByLayer
370
13
48
1
60
0
100
AcDbEllipse
10
11.558753
20
5.234479
30
0
11
-0.503735418119709
21
0.863857990952079
31
0
210
0
220
0
230
1
40
0.992404
41
-0.285560833010977
42
-0.0620002523189555
0
ELLIPSE
5
100
100
AcDbEntity
8
1
62
256
6
ByLayer
370
13
48
1
60
0
100
AcDbEllipse
10
15.436818
20
-2.030329
30
0
11
-0.00584834008679886
21
1.99999144921128
31
0
210
0
220
0
230
1
40
0.106658
41
1.63249524834209
42
1.69132109168474
0
ELLIPSE
5
101
100
AcDbEntity
8
1
62
256
6
ByLayer
370
13
48
1
60
0
100
AcDbEllipse
10
14.40382
20
-2.03335
30
0
11
4.50790052533577
21
1.94834853396227
31
0
210
0
220
0
230
1
40
0.111915
41
-1.43598785910563
42
-1.37716201469623
0
ELLIPSE
5
102
100
AcDbEntity
8
1
62
256
6
ByLayer
370
13
48
1
60
0
100
AcDbEllipse
10
11.665027
20
5.29645
30
0
11
0.503735418119709
21
-0.863857990952079
31
0
210
0
220
0
230
1
40
0.992404
41
2.94817673729289
42
-1.37937075012551
0
ELLIPSE
5
103
100
AcDbEntity
8
1
62
256
6
ByLayer
370
13
48
1
60
0
100
AcDbEllipse
10
17.592261
20
-1.941591
30
0
11
-0.876345501120259
21
-0.438866903699604
31
0
210
0
220
0
230
1
40
0.268394
41
-0.0731460728278013
42
0.264218256323142
0
POINT
5
70
100
AcDbEntity
8
81
62
256
6
ByLayer
370
18
48
1
60
0
100
AcDbPoint
10
20.5015
20
6.604
30
0
39
0
210
0
220
0
230
1
50
360
0
POINT
5
72
100
AcDbEntity
8
80
62
256
6
ByLayer
370
18
48
1
60
0
100
AcDbPoint
10
0
20
0
30
0
39
0
210
0
220
0
230
1
50
360
0
POINT
5
74
100
AcDbEntity
8
1
62
256
6
ByLayer
370
18
48
1
60
1
100
AcDbPoint
10
20.5015
20
-6.604
30
0
39
0
210
0
220
0
230
1
50
360
0
POINT
5
76
100
AcDbEntity
8
1
62
256
6
ByLayer
370
18
48
1
60
1
100
AcDbPoint
10
20.5015
20
6.604
30
0
39
0
210
0
220
0
230
1
50
360
0
POINT
5
77
100
AcDbEntity
8
1
62
256
6
ByLayer
370
18
48
1
60
1
100
AcDbPoint
10
20.5015
20
-6.604
30
0
39
0
210
0
220
0
230
1
50
360
0
POINT
5
78
100
AcDbEntity
8
1
62
256
6
ByLayer
370
18
48
1
60
1
100
AcDbPoint
10
-0.0013
20
0
30
0
39
0
210
0
220
0
230
1
50
360
0
POINT
5
79
100
AcDbEntity
8
1
62
256
6
ByLayer
370
18
48
1
60
1
100
AcDbPoint
10
-52.7
20
7.93475
30
0
39
0
210
0
220
0
230
1
50
360
0
POINT
5
7A
100
AcDbEntity
8
1
62
256
6
ByLayer
370
18
48
1
60
1
100
AcDbPoint
10
20.5015
20
6.604
30
0
39
0
210
0
220
0
230
1
50
360
0
POINT
5
7B
100
AcDbEntity
8
1
62
256
6
ByLayer
370
18
48
1
60
1
100
AcDbPoint
10
-52.7
20
7.93475
30
0
39
0
210
0
220
0
230
1
50
360
0
POINT
5
7C
100
AcDbEntity
8
1
62
256
6
ByLayer
370
18
48
1
60
1
100
AcDbPoint
10
12.5625
20
8.65
30
0
39
0
210
0
220
0
230
1
50
360
0
POINT
5
7D
100
AcDbEntity
8
1
62
256
6
ByLayer
370
18
48
1
60
1
100
AcDbPoint
10
12.5625
20
-8.65
30
0
39
0
210
0
220
0
230
1
50
360
0
POINT
5
7E
100
AcDbEntity
8
1
62
256
6
ByLayer
370
18
48
1
60
1
100
AcDbPoint
10
12.5625
20
8.65
30
0
39
0
210
0
220
0
230
1
50
360
0
POINT
5
7F
100
AcDbEntity
8
1
62
256
6
ByLayer
370
18
48
1
60
1
100
AcDbPoint
10
-52.7
20
7.93475
30
0
39
0
210
0
220
0
230
1
50
360
0
POINT
5
80
100
AcDbEntity
8
1
62
256
6
ByLayer
370
18
48
1
60
1
100
AcDbPoint
10
-52.7
20
-7.93475
30
0
39
0
210
0
220
0
230
1
50
360
0
SPLINE
5
104
100
AcDbEntity
8
1
62
256
6
ByLayer
370
18
48
1
60
0
100
AcDbSpline
70
4
71
3
72
8
73
4
40
0
40
0
40
0
40
0
40
1
40
1
40
1
40
1
41
1
10
14.2391031611033
20
3.95067448032089
30
0
41
1
10
14.2433660455567
20
3.94567851672119
30
0
41
1
10
14.2476298691659
20
3.94068191617038
30
0
41
1
10
14.2518946801872
20
3.93568464649448
30
0
0
SPLINE
5
105
100
AcDbEntity
8
1
62
256
6
ByLayer
370
18
48
1
60
0
100
AcDbSpline
70
4
71
3
72
8
73
4
40
0
40
0
40
0
40
0
40
1
40
1
40
1
40
1
41
1
10
16.2322005079003
20
3.95464327113643
30
0
41
1
10
16.225393098787
20
3.95277674564272
30
0
41
1
10
16.2185848760565
20
3.95091007868558
30
0
41
1
10
16.2117757987232
20
3.94904326331874
30
0
0
SPLINE
5
106
100
AcDbEntity
8
1
62
256
6
ByLayer
370
18
48
1
60
0
100
AcDbSpline
70
4
71
3
72
8
73
4
40
0
40
0
40
0
40
0
40
1
40
1
40
1
40
1
41
1
10
16.2421198397769
20
2.7995579052926
30
0
41
1
10
16.2370700644294
20
2.80409501475464
30
0
41
1
10
16.232019753753
20
2.80863299664844
30
0
41
1
10
16.2269688809312
20
2.8131718956501
30
0
0
SPLINE
5
107
100
AcDbEntity
8
1
62
256
6
ByLayer
370
18
48
1
60
0
100
AcDbSpline
70
4
71
3
72
16
73
12
40
0
40
0
40
0
40
0
40
0.125
40
0.125
40
0.25
40
0.25
40
0.5
40
0.5
40
0.75
40
0.75
40
1
40
1
40
1
40
1
41
1
10
16.3913063650806
20
3.37955455376422
30
0
41
1
10
16.4067203462106
20
3.37924732565543
30
0
41
1
10
16.4220662688205
20
3.38313273141992
30
0
41
1
10
16.449058447731
20
3.3991705046663
30
0
41
1
10
16.4605415371626
20
3.41113372023207
30
0
41
1
10
16.4875310125776
20
3.45200651827565
30
0
41
1
10
16.4965072977613
20
3.48502089953749
30
0
41
1
10
16.5053872909743
20
3.5510313112089
30
0
41
1
10
16.5051840742661
20
3.58474130557491
30
0
41
1
10
16.4987515552694
20
3.65127016536627
30
0
41
1
10
16.4924584741777
20
3.68422252525156
30
0
41
1
10
16.4835456816237
20
3.71643784735795
30
0
0
SPLINE
5
108
100
AcDbEntity
8
1
62
256
6
ByLayer
370
18
48
1
60
0
100
AcDbSpline
70
4
71
3
72
8
73
4
40
0
40
0
40
0
40
0
40
1
40
1
40
1
40
1
41
1
10
15.2306921685635
20
4.53020155865056
30
0
41
1
10
15.2285410893506
20
4.52356849662601
30
0
41
1
10
15.2263899337629
20
4.51693453844655
30
0
41
1
10
15.2242386983512
20
4.51029963874095
30
0
0
SPLINE
5
109
100
AcDbEntity
8
1
62
256
6
ByLayer
370
18
48
1
60
0
100
AcDbSpline
70
4
71
3
72
8
73
4
40
0
40
0
40
0
40
0
40
1
40
1
40
1
40
1
41
1
10
15.7996834755693
20
4.35759659550837
30
0
41
1
10
15.8016277776416
20
4.36428640812991
30
0
41
1
10
15.8035720343109
20
4.37097527009118
30
0
41
1
10
15.8055162473587
20
4.37766322720591
30
0
0
SPLINE
5
10A
100
AcDbEntity
8
1
62
256
6
ByLayer
370
18
48
1
60
0
100
AcDbSpline
70
4
71
3
72
8
73
4
40
0
40
0
40
0
40
0
40
1
40
1
40
1
40
1
41
1
10
16.3710534593443
20
3.37333356176538
30
0
41
1
10
16.3778052594905
20
3.37540740573999
30
0
41
1
10
16.3845562145613
20
3.37748106686806
30
0
41
1
10
16.3913063650806
20
3.37955455376422
30
0
0
SPLINE
5
10B
100
AcDbEntity
8
1
62
256
6
ByLayer
370
18
48
1
60
0
100
AcDbSpline
70
4
71
3
72
16
73
12
40
0
40
0
40
0
40
0
40
0.125
40
0.125
40
0.25
40
0.25
40
0.5
40
0.5
40
0.75
40
0.75
40
1
40
1
40
1
40
1
41
1
10
15.8264016181619
20
2.37700751936504
30
0
41
1
10
15.8339241828732
20
2.36449866292546
30
0
41
1
10
15.8450297476313
20
2.35411815665484
30
0
41
1
10
15.872504278113
20
2.34042594692917
30
0
41
1
10
15.8886275937532
20
2.33715326436064
30
0
41
1
10
15.9375276120892
20
2.33583824172777
30
0
41
1
10
15.970546241863
20
2.34512128416617
30
0
41
1
10
16.0319824878594
20
2.37113828284987
30
0
41
1
10
16.0609621001373
20
2.3883093920696
30
0
41
1
10
16.1151065628132
20
2.42721607853983
30
0
41
1
10
16.140354365911
20
2.44906915748109
30
0
41
1
10
16.1636420709385
20
2.47273958671684
30
0
0
SPLINE
5
10C
100
AcDbEntity
8
1
62
256
6
ByLayer
370
18
48
1
60
0
100
AcDbSpline
70
4
71
3
72
18
73
14
40
0
40
0
40
0
40
0
40
0.25
40
0.25
40
0.5
40
0.5
40
0.625
40
0.625
40
0.75
40
0.75
40
0.875
40
0.875
40
1
40
1
40
1
40
1
41
1
10
16.1636420709385
20
2.47273958671684
30
0
41
1
10
16.1869187172719
20
2.49639877551311
30
0
41
1
10
16.2082196114296
20
2.52185032640264
30
0
41
1
10
16.2457268072691
20
2.5760946913496
30
0
41
1
10
16.2619882028862
20
2.60485804222753
30
0
41
1
10
16.2797711500753
20
2.6502893465192
30
0
41
1
10
16.2845362070117
20
2.6657304759791
30
0
41
1
10
16.2906232145305
20
2.69691812798629
30
0
41
1
10
16.291977234753
20
2.71298013916217
30
0
41
1
10
16.2889984244559
20
2.74386656190845
30
0
41
1
10
16.2845486327973
20
2.75888018105934
30
0
41
1
10
16.2679724513403
20
2.78401670595127
30
0
41
1
10
16.2560843000879
20
2.79358750077725
30
0
41
1
10
16.2421198397769
20
2.7995579052926
30
0
0
SPLINE
5
10D
100
AcDbEntity
8
1
62
256
6
ByLayer
370
18
48
1
60
0
100
AcDbSpline
70
4
71
3
72
8
73
4
40
0
40
0
40
0
40
0
40
1
40
1
40
1
40
1
41
1
10
14.6680617967841
20
4.3586913048153
30
0
41
1
10
14.6636473296105
20
4.36353645879933
30
0
41
1
10
14.6592338747427
20
4.36838096896105
30
0
41
1
10
14.6548213827182
20
4.37322486624845
30
0
0
SPLINE
5
10E
100
AcDbEntity
8
1
62
256
6
ByLayer
370
18
48
1
60
0
100
AcDbSpline
70
4
71
3
72
8
73
4
40
0
40
0
40
0
40
0
40
1
40
1
40
1
40
1
41
1
10
14.2490224929798
20
2.79558911447705
30
0
41
1
10
14.2550430111991
20
2.7969967858331
30
0
41
1
10
14.2610647468624
20
2.79840483413324
30
0
41
1
10
14.2670877623952
20
2.79981327882584
30
0
0
SPLINE
5
10F
100
AcDbEntity
8
1
62
256
6
ByLayer
370
18
48
1
60
0
100
AcDbSpline
70
4
71
3
72
18
73
14
40
0
40
0
40
0
40
0
40
0.25
40
0.25
40
0.5
40
0.5
40
0.625
40
0.625
40
0.75
40
0.75
40
0.875
40
0.875
40
1
40
1
40
1
40
1
41
1
10
16.4835456816237
20
3.71643784735795
30
0
41
1
10
16.4746371215111
20
3.74863787128894
30
0
41
1
10
16.463122875565
20
3.78007449468072
30
0
41
1
10
16.4344840910819
20
3.84032946669228
30
0
41
1
10
16.4174169281528
20
3.86917808646058
30
0
41
1
10
16.3862855530343
20
3.90802981347116
30
0
41
1
10
16.375028568433
20
3.92014817449442
30
0
41
1
10
16.3503998830104
20
3.94163233220971
30
0
41
1
10
16.3367636867115
20
3.95119025484672
30
0
41
1
10
16.3075225356564
20
3.96486665860385
30
0
41
1
10
16.2916844647788
20
3.96898610254479
30
0
41
1
10
16.2601913219725
20
3.9682179254101
30
0
41
1
10
16.2451574662223
20
3.96324256467912
30
0
41
1
10
16.2322005079003
20
3.95464327113643
30
0
0
SPLINE
5
110
100
AcDbEntity
8
1
62
256
6
ByLayer
370
18
48
1
60
0
100
AcDbSpline
70
4
71
3
72
18
73
14
40
0
40
0
40
0
40
0
40
0.125
40
0.125
40
0.249999999999999
40
0.249999999999999
40
0.5
40
0.5
40
0.75
40
0.75
40
0.875
40
0.875
40
1
40
1
40
1
40
1
41
1
10
16.2117757987232
20
3.94904326331874
30
0
41
1
10
16.1866955054665
20
3.9421671074808
30
0
41
1
10
16.1600192797323
20
3.94364902275444
30
0
41
1
10
16.1076744869288
20
3.95449520280309
30
0
41
1
10
16.0820225281146
20
3.96404594291931
30
0
41
1
10
16.0081356885803
20
4.00005597809633
30
0
41
1
10
15.9627317190769
20
4.03380778074333
30
0
41
1
10
15.8834360282335
20
4.11241793844962
30
0
41
1
10
15.8495686564218
20
4.1572626966408
30
0
41
1
10
15.8137477067339
20
4.22997934203465
30
0
41
1
10
15.8043084159639
20
4.25518489291565
30
0
41
1
10
15.7937732360438
20
4.30674397530126
30
0
41
1
10
15.7925257061397
20
4.3329686650257
30
0
41
1
10
15.7996834755693
20
4.35759659550837
30
0
0
SPLINE
5
111
100
AcDbEntity
8
1
62
256
6
ByLayer
370
18
48
1
60
0
100
AcDbSpline
70
4
71
3
72
16
73
12
40
0
40
0
40
0
40
0
40
0.125
40
0.125
40
0.25
40
0.25
40
0.5
40
0.5
40
0.75
40
0.75
40
1
40
1
40
1
40
1
41
1
10
15.8055162473587
20
4.37766322720591
30
0
41
1
10
15.8143030390441
20
4.39038696940159
30
0
41
1
10
15.819436165839
20
4.40517347549439
30
0
41
1
10
15.8205389625794
20
4.43582779482253
30
0
41
1
10
15.8165831003203
20
4.45146276128042
30
0
41
1
10
15.7963436489174
20
4.49462503376884
30
0
41
1
10
15.7729615793777
20
4.51874139412601
30
0
41
1
10
15.7213592491161
20
4.55929106122656
30
0
41
1
10
15.6924626156401
20
4.57599683354229
30
0
41
1
10
15.6322573899338
20
4.60383578629836
30
0
41
1
10
15.6007986979105
20
4.61498299538061
30
0
41
1
10
15.568598200329
20
4.62352788825126
30
0
0
SPLINE
5
112
100
AcDbEntity
8
1
62
256
6
ByLayer
370
18
48
1
60
0
100
AcDbSpline
70
4
71
3
72
18
73
14
40
0
40
0
40
0
40
0
40
0.25
40
0.25
40
0.5
40
0.5
40
0.625
40
0.625
40
0.75
40
0.75
40
0.875
40
0.875
40
1
40
1
40
1
40
1
41
1
10
15.568598200329
20
4.62352788825126
30
0
41
1
10
15.5364129938831
20
4.63206872338597
30
0
41
1
10
15.5035158627667
20
4.63800598504724
30
0
41
1
10
15.4369983008787
20
4.64379991437423
30
0
41
1
10
15.4033848347621
20
4.6437190471222
30
0
41
1
10
15.3537542669978
20
4.63672181067915
30
0
41
1
10
15.3374452224621
20
4.63323168420831
30
0
41
1
10
15.3060073781525
20
4.6231070868819
30
0
41
1
10
15.2905739418746
20
4.61634454673211
30
0
41
1
10
15.2632013304067
20
4.59848710341382
30
0
41
1
10
15.2511340464276
20
4.58719698494662
30
0
41
1
10
15.2346186864145
20
4.56036021997943
30
0
41
1
10
15.2305804555954
20
4.54529361184308
30
0
41
1
10
15.2306921685635
20
4.53020155865056
30
0
0
SPLINE
5
113
100
AcDbEntity
8
1
62
256
6
ByLayer
370
18
48
1
60
0
100
AcDbSpline
70
4
71
3
72
16
73
12
40
0
40
0
40
0
40
0
40
0.125
40
0.125
40
0.25
40
0.25
40
0.5
40
0.5
40
0.75
40
0.75
40
1
40
1
40
1
40
1
41
1
10
14.0899166357995
20
3.37067783184926
30
0
41
1
10
14.076293405203
20
3.37202928768781
30
0
41
1
10
14.062733020479
20
3.36918507003867
30
0
41
1
10
14.0389111381919
20
3.35499596950456
30
0
41
1
10
14.0287967766593
20
3.34383089058588
30
0
41
1
10
14.0051494842803
20
3.30490699616624
30
0
41
1
10
13.9974937491975
20
3.27266265797189
30
0
41
1
10
13.9905216010281
20
3.20776475452615
30
0
41
1
10
13.9912972087564
20
3.17438853449903
30
0
41
1
10
13.9984732396859
20
3.1082932335776
30
0
41
1
10
14.00493070511
20
3.07543672996877
30
0
41
1
10
14.013843497664
20
3.04322140786238
30
0
0
SPLINE
5
114
100
AcDbEntity
8
1
62
256
6
ByLayer
370
18
48
1
60
0
100
AcDbSpline
70
4
71
3
72
18
73
14
40
0
40
0
40
0
40
0
40
0.25
40
0.25
40
0.5
40
0.5
40
0.625
40
0.625
40
0.75
40
0.75
40
0.875
40
0.875
40
1
40
1
40
1
40
1
41
1
10
14.013843497664
20
3.04322140786238
30
0
41
1
10
14.0227520577765
20
3.01102138393139
30
0
41
1
10
14.0341023216974
20
2.97948913885767
30
0
41
1
10
14.06199794305
20
2.91880081137077
30
0
41
1
10
14.078495290838
20
2.88961991931774
30
0
41
1
10
14.1081941750433
20
2.84993287398316
30
0
41
1
10
14.1188771536486
20
2.83747979689156
30
0
41
1
10
14.142061536335
20
2.81515343310724
30
0
41
1
10
14.1548112931208
20
2.80507860724839
30
0
41
1
10
14.1818319027562
20
2.790107354833
30
0
41
1
10
14.1963119641135
20
2.78519602437751
30
0
41
1
10
14.2246083095919
20
2.78410007563102
30
0
41
1
10
14.2378571126997
20
2.78803453120327
30
0
41
1
10
14.2490224929798
20
2.79558911447705
30
0
0
SPLINE
5
115
100
AcDbEntity
8
1
62
256
6
ByLayer
370
18
48
1
60
0
100
AcDbSpline
70
4
71
3
72
8
73
4
40
0
40
0
40
0
40
0
40
1
40
1
40
1
40
1
41
1
10
15.8108017643343
20
2.39016523732929
30
0
41
1
10
15.8160022933084
20
2.38577845401949
30
0
41
1
10
15.8212022352434
20
2.38139256251478
30
0
41
1
10
15.8264016181619
20
2.37700751936504
30
0
0
SPLINE
5
116
100
AcDbEntity
8
1
62
256
6
ByLayer
370
18
48
1
60
0
100
AcDbSpline
70
4
71
3
72
8
73
4
40
0
40
0
40
0
40
0
40
1
40
1
40
1
40
1
41
1
10
14.107810101774
20
3.3755229803792
30
0
41
1
10
14.1018443634284
20
3.37390750707883
30
0
41
1
10
14.0958798954249
20
3.3722924646078
30
0
41
1
10
14.0899166357995
20
3.37067783184926
30
0
0
SPLINE
5
117
100
AcDbEntity
8
1
62
256
6
ByLayer
370
18
48
1
60
0
100
AcDbSpline
70
4
71
3
72
18
73
14
40
0
40
0
40
0
40
0
40
0.125
40
0.125
40
0.250000000000001
40
0.250000000000001
40
0.500000000000001
40
0.500000000000001
40
0.75
40
0.75
40
0.875
40
0.875
40
1
40
1
40
1
40
1
41
1
10
15.2242386983512
20
4.51029963874095
30
0
41
1
10
15.2163149206721
20
4.48586090465116
30
0
41
1
10
15.2005617354672
20
4.46416356276563
30
0
41
1
10
15.1631080059416
20
4.4254265637164
30
0
41
1
10
15.1412615302945
20
4.40849176528022
30
0
41
1
10
15.0714399752956
20
4.36376009616404
30
0
41
1
10
15.0191191520552
20
4.34179722601158
30
0
41
1
10
14.9121020306942
20
4.31262229137562
30
0
41
1
10
14.8574300978473
20
4.30542417235731
30
0
41
1
10
14.7792168543494
20
4.30977604009334
30
0
41
1
10
14.7537299824791
20
4.31378480837512
30
0
41
1
10
14.7062656720067
20
4.32941921304666
30
0
41
1
10
14.6843132520671
20
4.3408543156128
30
0
41
1
10
14.6680617967841
20
4.3586913048153
30
0
0
SPLINE
5
118
100
AcDbEntity
8
1
62
256
6
ByLayer
370
18
48
1
60
0
100
AcDbSpline
70
4
71
3
72
16
73
12
40
0
40
0
40
0
40
0
40
0.125
40
0.125
40
0.25
40
0.25
40
0.5
40
0.5
40
0.75
40
0.75
40
1
40
1
40
1
40
1
41
1
10
14.6548213827182
20
4.37322486624845
30
0
41
1
10
14.6490895685404
20
4.38677795041778
30
0
41
1
10
14.6397695416682
20
4.39819964480375
30
0
41
1
10
14.6154653078099
20
4.41374052724166
30
0
41
1
10
14.6007107200687
20
4.41781134645731
30
0
41
1
10
14.5551528847688
20
4.42107527271415
30
0
41
1
10
14.5234548050958
20
4.41256227334321
30
0
41
1
10
14.4639264041431
20
4.38765778288519
30
0
41
1
10
14.4355191828853
20
4.37082044800437
30
0
41
1
10
14.3821182321421
20
4.33234732040401
30
0
41
1
10
14.3570348133766
20
4.31059009773924
30
0
41
1
10
14.3337471083491
20
4.28691966850346
30
0
0
SPLINE
5
119
100
AcDbEntity
8
1
62
256
6
ByLayer
370
18
48
1
60
0
100
AcDbSpline
70
4
71
3
72
18
73
14
40
0
40
0
40
0
40
0
40
0.25
40
0.25
40
0.5
40
0.5
40
0.625
40
0.625
40
0.75
40
0.75
40
0.875
40
0.875
40
1
40
1
40
1
40
1
41
1
10
14.3337471083491
20
4.28691966850346
30
0
41
1
10
14.3104704620158
20
4.26326047970721
30
0
41
1
10
14.2890055858329
20
4.23771330713572
30
0
41
1
10
14.2507552268627
20
4.18303558671346
30
0
41
1
10
14.2339240161047
20
4.15393996355078
30
0
41
1
10
14.2147085780022
20
4.10767334093515
30
0
41
1
10
14.2093695150699
20
4.09189749540687
30
0
41
1
10
14.2018382048149
20
4.05986763733068
30
0
41
1
10
14.1995977450793
20
4.04328872293294
30
0
41
1
10
14.2003560139567
20
4.0111074515284
30
0
41
1
10
14.203447796095
20
3.99530194586299
30
0
41
1
10
14.2168271802242
20
3.96830129508987
30
0
41
1
10
14.2269302788341
20
3.95768959510514
30
0
41
1
10
14.2391031611033
20
3.95067448032089
30
0
0
SPLINE
5
11A
100
AcDbEntity
8
1
62
256
6
ByLayer
370
18
48
1
60
0
100
AcDbSpline
70
4
71
3
72
18
73
14
40
0
40
0
40
0
40
0
40
0.125000000000001
40
0.125000000000001
40
0.250000000000001
40
0.250000000000001
40
0.5
40
0.5
40
0.75
40
0.75
40
0.875
40
0.875
40
1
40
1
40
1
40
1
41
1
10
16.2269688809312
20
2.8131718956501
30
0
41
1
10
16.2083646904698
20
2.82989030145629
30
0
41
1
10
16.1961631910644
20
2.85232405990712
30
0
41
1
10
16.1790675669641
20
2.90062170899969
30
0
41
1
10
16.1743426731375
20
2.92657111809817
30
0
41
1
10
16.168063631956
20
3.0060219300903
30
0
41
1
10
16.1742283664532
20
3.06129802490153
30
0
41
1
10
16.2019495051852
20
3.169082947097
30
0
41
1
10
16.2235064875072
20
3.22156457842516
30
0
41
1
10
16.2681103352322
20
3.29121896392101
30
0
41
1
10
16.2850756115344
20
3.3129508756515
30
0
41
1
10
16.324212986646
20
3.35016323144228
30
0
41
1
10
16.3461973274855
20
3.36569889572493
30
0
41
1
10
16.3710534593443
20
3.37333356176538
30
0
0
SPLINE
5
11B
100
AcDbEntity
8
1
62
256
6
ByLayer
370
18
48
1
60
0
100
AcDbSpline
70
4
71
3
72
18
73
14
40
0
40
0
40
0
40
0
40
0.125000000000001
40
0.125000000000001
40
0.250000000000001
40
0.250000000000001
40
0.500000000000001
40
0.500000000000001
40
0.75
40
0.75
40
0.875
40
0.875
40
1
40
1
40
1
40
1
41
1
10
14.2518946801872
20
3.93568464649448
30
0
41
1
10
14.267603520881
20
3.91727789579698
30
0
41
1
10
14.2772481025343
20
3.8933531399295
30
0
41
1
10
14.2899346049897
20
3.84248443082635
30
0
41
1
10
14.2928206774973
20
3.81546276282001
30
0
41
1
10
14.2946722053866
20
3.7334301662257
30
0
41
1
10
14.2870032324097
20
3.67727691543806
30
0
41
1
10
14.2592815101067
20
3.56949165294898
30
0
41
1
10
14.2392293703584
20
3.5178875298582
30
0
41
1
10
14.1990486304633
20
3.45081236003838
30
0
41
1
10
14.183918744565
20
3.43015070657046
30
0
41
1
10
14.1491978585719
20
3.39551370693314
30
0
41
1
10
14.1297724193404
20
3.38147019689916
30
0
41
1
10
14.107810101774
20
3.3755229803792
30
0
0
SPLINE
5
11C
100
AcDbEntity
8
1
62
256
6
ByLayer
370
18
48
1
60
0
100
AcDbSpline
70
4
71
3
72
16
73
12
40
0
40
0
40
0
40
0
40
0.124999999999999
40
0.124999999999999
40
0.249999999999998
40
0.249999999999998
40
0.499999999999998
40
0.499999999999998
40
0.749999999999999
40
0.749999999999999
40
1
40
1
40
1
40
1
41
1
10
15.2505308323166
20
2.2200308269629
30
0
41
1
10
15.2524332442194
20
2.20598997233839
30
0
41
1
10
15.2501544713488
20
2.19196102773304
30
0
41
1
10
15.2370018776643
20
2.1671942649476
30
0
41
1
10
15.2263018648756
20
2.15660980779441
30
0
41
1
10
15.1885460607163
20
2.13167326323844
30
0
41
1
10
15.1568081297895
20
2.12330430637428
30
0
41
1
10
15.0926624695539
20
2.11508891690701
30
0
41
1
10
15.0595305464359
20
2.11532903461594
30
0
41
1
10
14.993764575107
20
2.12154932028719
30
0
41
1
10
14.9609914765402
20
2.12758647409839
30
0
41
1
10
14.9287909789587
20
2.13613136696904
30
0
0
SPLINE
5
11D
100
AcDbEntity
8
1
62
256
6
ByLayer
370
18
48
1
60
0
100
AcDbSpline
70
4
71
3
72
8
73
4
40
0
40
0
40
0
40
0
40
1
40
1
40
1
40
1
41
1
10
14.6757067535214
20
2.37256915840757
30
0
41
1
10
14.6768640756752
20
2.37879826138464
30
0
41
1
10
14.6780218452773
20
2.3850285046889
30
0
41
1
10
14.679180085549
20
2.39125994663621
30
0
0
SPLINE
5
11E
100
AcDbEntity
8
1
62
256
6
ByLayer
370
18
48
1
60
0
100
AcDbSpline
70
4
71
3
72
16
73
12
40
0
40
0
40
0
40
0
40
0.25
40
0.25
40
0.5
40
0.5
40
0.749999999999999
40
0.749999999999999
40
0.875
40
0.875
40
1
40
1
40
1
40
1
41
1
10
14.9287909789587
20
2.13613136696904
30
0
41
1
10
14.8965943722179
20
2.14467522734577
30
0
41
1
10
14.8649975685644
20
2.15571510406974
30
0
41
1
10
14.8040183083311
20
2.18313211413368
30
0
41
1
10
14.7746140951015
20
2.19945837662976
30
0
41
1
10
14.7209876564732
20
2.23897947493416
30
0
41
1
10
14.696478163294
20
2.26205251702396
30
0
41
1
10
14.6727028158595
20
2.30358792483764
30
0
41
1
10
14.6674299244854
20
2.31839031762988
30
0
41
1
10
14.6653661011695
20
2.34706098367704
30
0
41
1
10
14.6687132754837
20
2.360893922923
30
0
41
1
10
14.6757067535214
20
2.37256915840757
30
0
0
SPLINE
5
11F
100
AcDbEntity
8
1
62
256
6
ByLayer
370
18
48
1
60
0
100
AcDbSpline
70
4
71
3
72
18
73
14
40
0
40
0
40
0
40
0
40
0.125
40
0.125
40
0.25
40
0.25
40
0.499999999999999
40
0.499999999999999
40
0.749999999999999
40
0.749999999999999
40
0.874999999999999
40
0.874999999999999
40
1
40
1
40
1
40
1
41
1
10
15.8108017643343
20
2.39016523732929
30
0
41
1
10
15.7915352522554
20
2.40641704825961
30
0
41
1
10
15.7667430615996
20
2.4163827616535
30
0
41
1
10
15.7152059623957
20
2.42930744299713
30
0
41
1
10
15.6877189623799
20
2.43226498471088
30
0
41
1
10
15.6055008000856
20
2.4340139014669
30
0
41
1
10
15.5495800970215
20
2.42603899860956
30
0
41
1
10
15.4424268138779
20
2.39689944922244
30
0
41
1
10
15.3915228147183
20
2.37580329904247
30
0
41
1
10
15.3260677043612
20
2.33366641678342
30
0
41
1
10
15.3060417039418
20
2.31781950353286
30
0
41
1
10
15.2728727803068
20
2.28156048872771
30
0
41
1
10
15.2596561269302
20
2.26132012480932
30
0
41
1
10
15.2546248627672
20
2.23855690340363
30
0
0
SPLINE
5
120
100
AcDbEntity
8
1
62
256
6
ByLayer
370
18
48
1
60
0
100
AcDbSpline
70
4
71
3
72
8
73
4
40
0
40
0
40
0
40
0
40
1
40
1
40
1
40
1
41
1
10
15.2546248627672
20
2.23855690340363
30
0
41
1
10
15.253259689156
20
2.23238037437227
30
0
41
1
10
15.2518950206355
20
2.22620503484981
30
0
41
1
10
15.2505308323166
20
2.2200308269629
30
0
0
SPLINE
5
121
100
AcDbEntity
8
1
62
256
6
ByLayer
370
18
48
1
60
0
100
AcDbSpline
70
4
71
3
72
20
73
16
40
0
40
0
40
0
40
0
40
0.125
40
0.125
40
0.25
40
0.25
40
0.5
40
0.5
40
0.625
40
0.625
40
0.75
40
0.75
40
0.875
40
0.875
40
1
40
1
40
1
40
1
41
1
10
14.679180085549
20
2.39125994663621
30
0
41
1
10
14.6834507293805
20
2.41423641340467
30
0
41
1
10
14.6796254875713
20
2.43898357346777
30
0
41
1
10
14.6646795823722
20
2.48792660637338
30
0
41
1
10
14.6533741942181
20
2.51213866785633
30
0
41
1
10
14.6129548630861
20
2.58251506075763
30
0
41
1
10
14.5774894169997
20
2.62651906650589
30
0
41
1
10
14.5179071710822
20
2.68549725991679
30
0
41
1
10
14.4972416997018
20
2.70365870303507
30
0
41
1
10
14.4542176613684
20
2.73690759370308
30
0
41
1
10
14.4316189773388
20
2.75214819295189
30
0
41
1
10
14.3853882698257
20
2.77786664423698
30
0
41
1
10
14.3617363949513
20
2.78845691087238
30
0
41
1
10
14.3136749434087
20
2.80198804623402
30
0
41
1
10
14.2893587965715
20
2.80502122154383
30
0
41
1
10
14.2670877623952
20
2.79981327882584
30
0
0
SPLINE
5
122
100
AcDbEntity
8
1
62
256
6
ByLayer
370
18
48
1
60
0
100
AcDbSpline
70
4
71
3
72
10
73
6
40
0
40
0
40
0
40
0
40
0.375000000000405
40
0.750000000000811
40
1
40
1
40
1
40
1
41
1
10
14.5419179502702
20
0.63952688906565
30
0
41
1
10
14.7258967890987
20
0.590705299761822
30
0
41
1
10
15.1017812094189
20
0.523891498829926
30
0
41
1
10
15.6076953852571
20
0.519681679555305
30
0
41
1
10
15.9177144062259
20
0.560948202558933
30
0
41
1
10
16.0398371070477
20
0.584265377809601
30
0
0
SPLINE
5
123
100
AcDbEntity
8
1
62
256
6
ByLayer
370
18
48
1
60
0
100
AcDbSpline
70
4
71
3
72
17
73
13
40
0
40
0
40
0
40
0
40
0.0625
40
0.125
40
0.25
40
0.375
40
0.5
40
0.625
40
0.75
40
0.875
40
0.9375
40
1
40
1
40
1
40
1
41
1
10
10.5458025440418
20
-0.0301646350979183
30
0
41
1
10
10.5205946824601
20
-0.0234753447797118
30
0
41
1
10
10.4708176103005
20
-0.0076145474833993
30
0
41
1
10
10.3747733991576
20
0.0337246173571941
30
0
41
1
10
10.2630534950328
20
0.102720806984053
30
0
41
1
10
10.1474860642987
20
0.210075070284859
30
0
41
1
10
10.0548552422736
20
0.337858999031823
30
0
41
1
10
9.98872127497805
20
0.481161828544089
30
0
41
1
10
9.95162367160606
20
0.634476911645976
30
0
41
1
10
9.94610041364496
20
0.76567204106783
30
0
41
1
10
9.95702862333178
20
0.869665369655678
30
0
41
1
10
9.96754600134523
20
0.92084031480087
30
0
41
1
10
9.97404307820358
20
0.946099183154161
30
0
0
SPLINE
5
124
100
AcDbEntity
8
1
62
256
6
ByLayer
370
18
48
1
60
0
100
AcDbSpline
70
4
71
3
72
8
73
4
40
0
40
0
40
0
40
0
40
1
40
1
40
1
40
1
41
1
10
9.97404309569288
20
0.946099193439125
30
0
41
1
10
10.2801194980917
20
2.13604102770398
30
0
41
1
10
10.5861959004822
20
3.32598286193687
30
0
41
1
10
10.8922723028891
20
4.5159246962333
30
0
0
SPLINE
5
125
100
AcDbEntity
8
1
62
256
6
ByLayer
370
18
48
1
60
0
100
AcDbSpline
70
4
71
3
72
8
73
4
40
0
40
0
40
0
40
0
40
1
40
1
40
1
40
1
41
1
10
12.7793330655206
20
8.65319470630277
30
0
41
1
10
13.3372359089686
20
7.8263843759124
30
0
41
1
10
13.8951387524166
20
6.99957404552202
30
0
41
1
10
14.4530415958647
20
6.17276371513162
30
0
0
SPLINE
5
126
100
AcDbEntity
8
1
62
256
6
ByLayer
370
18
48
1
60
0
100
AcDbSpline
70
4
71
3
72
8
73
4
40
0
40
0
40
0
40
0
40
1
40
1
40
1
40
1
41
1
10
19.5580967975573
20
2.21631607200976
30
0
41
1
10
19.0320298664516
20
2.3619274337137
30
0
41
1
10
18.505962935346
20
2.50753879541764
30
0
41
1
10
17.9798960042402
20
2.65315015712159
30
0
0
SPLINE
5
127
100
AcDbEntity
8
1
62
256
6
ByLayer
370
18
48
1
60
0
100
AcDbSpline
70
4
71
3
72
10
73
6
40
0
40
0
40
0
40
0
40
0.375000000000406
40
0.750000000000812
40
1
40
1
40
1
40
1
41
1
10
15.9509607526438
20
6.11750220387589
30
0
41
1
10
15.7669819138152
20
6.16632379317971
30
0
41
1
10
15.3910974934951
20
6.23313759411161
30
0
41
1
10
14.885183317657
20
6.23734741338626
30
0
41
1
10
14.5751642966881
20
6.19608089038263
30
0
41
1
10
14.4530415958663
20
6.17276371513196
30
0
0
SPLINE
5
128
100
AcDbEntity
8
1
62
256
6
ByLayer
370
18
48
1
60
0
100
AcDbSpline
70
4
71
3
72
10
73
6
40
0
40
0
40
0
40
0
40
0.249999999999985
40
0.624999999999992
40
1
40
1
40
1
40
1
41
1
10
13.2088080769417
20
1.33552208479367
30
0
41
1
10
13.304095698137
20
1.25451176657271
30
0
41
1
10
13.5546242211534
20
1.06449540824866
30
0
41
1
10
13.9979141273874
20
0.816819455483994
30
0
41
1
10
14.3579391114517
20
0.688348478364844
30
0
41
1
10
14.5419179502811
20
0.639526889062779
30
0
0
SPLINE
5
129
100
AcDbEntity
8
1
62
256
6
ByLayer
370
18
48
1
60
0
100
AcDbSpline
70
4
71
3
72
8
73
4
40
0
40
0
40
0
40
0
40
1
40
1
40
1
40
1
41
1
10
19.9045665389181
20
6.76240539305132
30
0
41
1
10
19.0310679012695
20
6.31543926475015
30
0
41
1
10
18.1575692636209
20
5.86847313644901
30
0
41
1
10
17.2840706259723
20
5.42150700814787
30
0
0
SPLINE
5
12A
100
AcDbEntity
8
1
62
256
6
ByLayer
370
18
48
1
60
0
100
AcDbSpline
70
4
71
3
72
8
73
4
40
0
40
0
40
0
40
0
40
1
40
1
40
1
40
1
41
1
10
14.1084192982289
20
-0.975559281434471
30
0
41
1
10
14.252918848913
20
-0.437197224602045
30
0
41
1
10
14.397418399597
20
0.101164832230381
30
0
41
1
10
14.5419179502811
20
0.639526889062779
30
0
0
SPLINE
5
12B
100
AcDbEntity
8
1
62
256
6
ByLayer
370
18
48
1
60
0
100
AcDbSpline
70
4
71
3
72
8
73
4
40
0
40
0
40
0
40
0
40
1
40
1
40
1
40
1
41
1
10
10.5458025615284
20
-0.0301646248082648
30
0
41
1
10
11.4334710666661
20
0.425064278392398
30
0
41
1
10
12.3211395718039
20
0.880293181593032
30
0
41
1
10
13.2088080769417
20
1.3355220847937
30
0
0
SPLINE
5
12C
100
AcDbEntity
8
1
62
256
6
ByLayer
370
18
48
1
60
0
100
AcDbSpline
70
4
71
3
72
17
73
13
40
0
40
0
40
0
40
0
40
0.0625
40
0.125
40
0.25
40
0.375
40
0.5
40
0.625
40
0.75
40
0.875
40
0.9375
40
1
40
1
40
1
40
1
41
1
10
19.9045665910621
20
6.76240542355052
30
0
41
1
10
19.9297744526438
20
6.75571613323231
30
0
41
1
10
19.9795515248033
20
6.739855335936
30
0
41
1
10
20.0755957359463
20
6.69851617109541
30
0
41
1
10
20.187315640071
20
6.62951998146852
30
0
41
1
10
20.3028830708051
20
6.52216571816771
30
0
41
1
10
20.3955138928302
20
6.39438178942075
30
0
41
1
10
20.4616478601257
20
6.25107895990845
30
0
41
1
10
20.4987454634977
20
6.09776387680657
30
0
41
1
10
20.5042687214588
20
5.96656874738471
30
0
41
1
10
20.4933405117719
20
5.86257541879687
30
0
41
1
10
20.4828231337585
20
5.81140047365167
30
0
41
1
10
20.4763260569001
20
5.78614160529838
30
0
0
SPLINE
5
12D
100
AcDbEntity
8
1
62
256
6
ByLayer
370
18
48
1
60
0
100
AcDbSpline
70
4
71
3
72
8
73
4
40
0
40
0
40
0
40
0
40
1
40
1
40
1
40
1
41
1
10
12.7793330655169
20
8.65319470630374
30
0
41
1
10
13.9668719777505
20
8.33806315409498
30
0
41
1
10
15.1544108899523
20
8.02293160189467
30
0
41
1
10
16.3419498022175
20
7.70780004967753
30
0
0
SPLINE
5
12E
100
AcDbEntity
8
1
62
256
6
ByLayer
370
18
48
1
60
0
100
AcDbSpline
70
4
71
3
72
8
73
4
40
0
40
0
40
0
40
0
40
1
40
1
40
1
40
1
41
1
10
17.6710360349259
20
-1.92095393805971
30
0
41
1
10
17.127303058967
20
-1.08588083276982
30
0
41
1
10
16.5835700830081
20
-0.250807727479952
30
0
41
1
10
16.0398371070493
20
0.584265377809913
30
0
0
SPLINE
5
12F
100
AcDbEntity
8
1
62
256
6
ByLayer
370
18
48
1
60
0
100
AcDbSpline
70
4
71
3
72
8
73
4
40
0
40
0
40
0
40
0
40
1
40
1
40
1
40
1
41
1
10
14.1084192982289
20
-0.975559281434471
30
0
41
1
10
12.9208803859638
20
-0.660427729217332
30
0
41
1
10
11.733341473762
20
-0.345296177017019
30
0
41
1
10
10.5458025615284
20
-0.0301646248082648
30
0
0
SPLINE
5
130
100
AcDbEntity
8
1
62
256
6
ByLayer
370
18
48
1
60
0
100
AcDbSpline
70
4
71
3
72
8
73
4
40
0
40
0
40
0
40
0
40
1
40
1
40
1
40
1
41
1
10
10.8922723028891
20
4.5159246962333
30
0
41
1
10
11.198348705296
20
5.70586653052976
30
0
41
1
10
11.5044251076866
20
6.89580836476262
30
0
41
1
10
11.8105015100854
20
8.08575019902744
30
0
0
SPLINE
5
131
100
AcDbEntity
8
1
62
256
6
ByLayer
370
18
48
1
60
0
100
AcDbSpline
70
4
71
3
72
8
73
4
40
0
40
0
40
0
40
0
40
1
40
1
40
1
40
1
41
1
10
9.97404309569384
20
0.946099193442819
30
0
41
1
10
10.8053179793664
20
1.49761867949363
30
0
41
1
10
11.6365928630389
20
2.04913816554443
30
0
41
1
10
12.4678677467114
20
2.60065765159524
30
0
0
SPLINE
5
132
100
AcDbEntity
8
1
62
256
6
ByLayer
370
18
48
1
60
0
100
AcDbSpline
70
4
71
3
72
8
73
4
40
0
40
0
40
0
40
0
40
1
40
1
40
1
40
1
41
1
10
15.9509607526438
20
6.11750220387589
30
0
41
1
10
16.081290435835
20
6.64760148580976
30
0
41
1
10
16.2116201190262
20
7.17770076774366
30
0
41
1
10
16.3419498022175
20
7.70780004967753
30
0
0
SPLINE
5
133
100
AcDbEntity
8
1
62
256
6
ByLayer
370
18
48
1
60
0
100
AcDbSpline
70
4
71
3
72
8
73
4
40
0
40
0
40
0
40
0
40
1
40
1
40
1
40
1
41
1
10
18.6398675903611
20
-1.35350943078438
30
0
41
1
10
18.1916921403624
20
-0.462468295828217
30
0
41
1
10
17.7435166903636
20
0.42857283912798
30
0
41
1
10
17.2953412403649
20
1.31961397408418
30
0
0
SPLINE
5
134
100
AcDbEntity
8
1
62
256
6
ByLayer
370
18
48
1
60
0
100
AcDbSpline
70
4
71
3
72
8
73
4
40
0
40
0
40
0
40
0
40
1
40
1
40
1
40
1
41
1
10
16.3419498022175
20
7.70780004967753
30
0
41
1
10
17.5294887144827
20
7.39266849746039
30
0
41
1
10
18.7170276266845
20
7.07753694526011
30
0
41
1
10
19.9045665389181
20
6.76240539305132
30
0
0
SPLINE
5
135
100
AcDbEntity
8
1
62
256
6
ByLayer
370
18
48
1
60
0
100
AcDbSpline
70
4
71
3
72
10
73
6
40
0
40
0
40
0
40
0
40
0.375000000000406
40
0.750000000000812
40
1
40
1
40
1
40
1
41
1
10
12.5129826986737
20
4.10387893581995
30
0
41
1
10
12.4655639736721
20
3.91952782556481
30
0
41
1
10
12.4014936246105
20
3.54266427082445
30
0
41
1
10
12.4006568890857
20
3.03486340574227
30
0
41
1
10
12.44382701688
20
2.72339726417942
30
0
41
1
10
12.4678677467111
20
2.60065765159683
30
0
0
SPLINE
5
136
100
AcDbEntity
8
1
62
256
6
ByLayer
370
18
48
1
60
0
100
AcDbSpline
70
4
71
3
72
10
73
6
40
0
40
0
40
0
40
0
40
0.375000000000406
40
0.750000000000812
40
1
40
1
40
1
40
1
41
1
10
17.9798960042403
20
2.65315015712159
30
0
41
1
10
18.0273147292419
20
2.83750126737672
30
0
41
1
10
18.0913850783035
20
3.21436482211709
30
0
41
1
10
18.0922218138283
20
3.72216568719927
30
0
41
1
10
18.049051686034
20
4.03363182876211
30
0
41
1
10
18.0250109562029
20
4.1563714413447
30
0
0
SPLINE
5
137
100
AcDbEntity
8
1
62
256
6
ByLayer
370
18
48
1
60
0
100
AcDbSpline
70
4
71
3
72
8
73
4
40
0
40
0
40
0
40
0
40
1
40
1
40
1
40
1
41
1
10
20.4763260047527
20
5.78614157480024
30
0
41
1
10
19.6592209885693
20
5.24288486364892
30
0
41
1
10
18.8421159723859
20
4.69962815249761
30
0
41
1
10
18.0250109562026
20
4.15637144134629
30
0
0
SPLINE
5
138
100
AcDbEntity
8
1
62
256
6
ByLayer
370
18
48
1
60
0
100
AcDbSpline
70
4
71
3
72
10
73
6
40
0
40
0
40
0
40
0
40
0.249999999999984
40
0.624999999999992
40
1
40
1
40
1
40
1
41
1
10
13.197537462549
20
5.43741511885736
30
0
41
1
10
13.1174613737712
20
5.34230449116242
30
0
41
1
10
12.9298156638487
20
5.09208885050231
30
0
41
1
10
12.686004440828
20
4.6487649693745
30
0
41
1
10
12.5604014236708
20
4.28823004606519
30
0
41
1
10
12.5129826986709
20
4.10387893580909
30
0
0
SPLINE
5
139
100
AcDbEntity
8
1
62
256
6
ByLayer
370
18
48
1
60
0
100
AcDbSpline
70
4
71
3
72
8
73
4
40
0
40
0
40
0
40
0
40
1
40
1
40
1
40
1
41
1
10
19.5580967975573
20
2.21631607200976
30
0
41
1
10
19.2520203951504
20
1.02637423771333
30
0
41
1
10
18.9459439927599
20
-0.163567596519556
30
0
41
1
10
18.6398675903611
20
-1.35350943078438
30
0
0
SPLINE
5
13A
100
AcDbEntity
8
1
62
256
6
ByLayer
370
18
48
1
60
0
100
AcDbSpline
70
4
71
3
72
29
73
25
40
0
40
0
40
0
40
0
40
0.125000000000944
40
0.171875000000893
40
0.218750000000841
40
0.242187500000815
40
0.265625000000789
40
0.277343750000776
40
0.289062500000763
40
0.312500000000737
40
0.359375000000686
40
0.406250000000634
40
0.50000000000053
40
0.593750000000427
40
0.640625000000375
40
0.687500000000323
40
0.710937500000298
40
0.722656250000285
40
0.734375000000272
40
0.757812500000246
40
0.78125000000022
40
0.828125000000168
40
0.875000000000116
40
1
40
1
40
1
40
1
41
1
10
16.0398371070477
20
0.584265377809572
30
0
41
1
10
16.1008984574594
20
0.595923965435077
30
0
41
1
10
16.1842098772996
20
0.614295655499546
30
0
41
1
10
16.2888390433346
20
0.641710703309371
30
0
41
1
10
16.3444520549792
20
0.657560678876877
30
0
41
1
10
16.3886656356668
20
0.670941733177244
30
0
41
1
10
16.4161780726948
20
0.679586547118106
30
0
41
1
10
16.4381102395798
20
0.686658323686572
30
0
41
1
10
16.460015538495
20
0.693934613954013
30
0
41
1
10
16.4983005926998
20
0.707360953844017
30
0
41
1
10
16.5527411652905
20
0.728482193420433
30
0
41
1
10
16.6388775243013
20
0.766456426122943
30
0
41
1
10
16.7439053032635
20
0.821631923504668
30
0
41
1
10
16.8434042479054
20
0.886247746296021
30
0
41
1
10
16.9186597563361
20
0.942800722872363
30
0
41
1
10
16.9637119685697
20
0.979952363247719
30
0
41
1
10
16.994150097719
20
1.0067771549808
30
0
41
1
10
17.0112117721164
20
1.02232381089775
30
0
41
1
10
17.0281082157468
20
1.03799394707971
30
0
41
1
10
17.0491063450646
20
1.05776176512938
30
0
41
1
10
17.0824050630492
20
1.08977965292385
30
0
41
1
10
17.1234334277935
20
1.1305325182193
30
0
41
1
10
17.1985260145382
20
1.20838047601703
30
0
41
1
10
17.2553031959761
20
1.2720586602367
30
0
41
1
10
17.295341240365
20
1.31961397408418
30
0
0
SPLINE
5
13B
100
AcDbEntity
8
1
62
256
6
ByLayer
370
18
48
1
60
0
100
AcDbSpline
70
4
71
3
72
29
73
25
40
0
40
0
40
0
40
0
40
0.125000000000946
40
0.171875000000894
40
0.218750000000842
40
0.242187500000817
40
0.265625000000791
40
0.277343750000778
40
0.289062500000765
40
0.312500000000739
40
0.359375000000687
40
0.406250000000635
40
0.500000000000532
40
0.593750000000428
40
0.640625000000376
40
0.687500000000324
40
0.710937500000298
40
0.722656250000285
40
0.734375000000272
40
0.757812500000247
40
0.781250000000221
40
0.828125000000169
40
0.875000000000117
40
1
40
1
40
1
40
1
41
1
10
12.4678677467111
20
2.60065765159683
30
0
41
1
10
12.4798881116268
20
2.53928784530473
30
0
41
1
10
12.4987442216937
20
2.45553921429283
30
0
41
1
10
12.5267514617055
20
2.35033214589697
30
0
41
1
10
12.5429114392068
20
2.29440348225913
30
0
41
1
10
12.5565360454933
20
2.2499337750979
30
0
41
1
10
12.5653312265515
20
2.22225984799363
30
0
41
1
10
12.5725221995924
20
2.20019774864838
30
0
41
1
10
12.5799167459396
20
2.1781612617408
30
0
41
1
10
12.5935471256059
20
2.13964221697958
30
0
41
1
10
12.6149509439058
20
2.08485544780763
30
0
41
1
10
12.6533552978751
20
1.9981410983865
30
0
41
1
10
12.7090221877131
20
1.89234968194108
30
0
41
1
10
12.7740575340514
20
1.7920453748321
30
0
41
1
10
12.8308991925027
20
1.716129760401
30
0
41
1
10
12.8682113728271
20
1.6706604992431
30
0
41
1
10
12.8951382025383
20
1.63992916004253
30
0
41
1
10
12.9107401525566
20
1.62269974369949
30
0
41
1
10
12.9264640261892
20
1.6056353639859
30
0
41
1
10
12.946297532309
20
1.58442658236669
30
0
41
1
10
12.978417090521
20
1.55078936553707
30
0
41
1
10
13.0192903729079
20
1.50933528128027
30
0
41
1
10
13.0973465789012
20
1.43344188529994
30
0
41
1
10
13.161164266344
20
1.37602724390413
30
0
41
1
10
13.2088080769417
20
1.33552208479364
30
0
0
SPLINE
5
13C
100
AcDbEntity
8
1
62
256
6
ByLayer
370
18
48
1
60
0
100
AcDbSpline
70
4
71
3
72
29
73
25
40
0
40
0
40
0
40
0
40
0.125000000000945
40
0.171875000000894
40
0.218750000000842
40
0.242187500000816
40
0.26562500000079
40
0.277343750000777
40
0.289062500000764
40
0.312500000000738
40
0.359375000000687
40
0.406250000000635
40
0.500000000000531
40
0.593750000000427
40
0.640625000000376
40
0.687500000000324
40
0.710937500000298
40
0.722656250000285
40
0.734375000000272
40
0.757812500000246
40
0.78125000000022
40
0.828125000000168
40
0.875000000000117
40
1
40
1
40
1
40
1
41
1
10
14.4530415958663
20
6.17276371513196
30
0
41
1
10
14.3919802454546
20
6.16110512750649
30
0
41
1
10
14.3086688256144
20
6.14273343744199
30
0
41
1
10
14.2040396595793
20
6.11531838963217
30
0
41
1
10
14.1484266479348
20
6.09946841406469
30
0
41
1
10
14.1042130672471
20
6.08608735976429
30
0
41
1
10
14.0767006302191
20
6.07744254582346
30
0
41
1
10
14.0547684633343
20
6.07037076925496
30
0
41
1
10
14.032863164419
20
6.06309447898752
30
0
41
1
10
13.9945781102141
20
6.04966813909752
30
0
41
1
10
13.9401375376235
20
6.0285468995211
30
0
41
1
10
13.8540011786127
20
5.99057266681859
30
0
41
1
10
13.7489733996505
20
5.93539716943687
30
0
41
1
10
13.6494744550086
20
5.87078134664552
30
0
41
1
10
13.5742189465778
20
5.81422837006917
30
0
41
1
10
13.5291667343443
20
5.77707672969382
30
0
41
1
10
13.498728605195
20
5.75025193796074
30
0
41
1
10
13.4816669307975
20
5.73470528204379
30
0
41
1
10
13.4647704871672
20
5.71903514586182
30
0
41
1
10
13.4437723578494
20
5.69926732781215
30
0
41
1
10
13.4104736398647
20
5.66724944001768
30
0
41
1
10
13.3694452751205
20
5.62649657472224
30
0
41
1
10
13.2943526883757
20
5.54864861692451
30
0
41
1
10
13.237575506938
20
5.48497043270487
30
0
41
1
10
13.197537462549
20
5.43741511885739
30
0
0
SPLINE
5
13D
100
AcDbEntity
8
1
62
256
6
ByLayer
370
18
48
1
60
0
100
AcDbSpline
70
4
71
3
72
8
73
4
40
0
40
0
40
0
40
0
40
1
40
1
40
1
40
1
41
1
10
10.8922723028891
20
4.5159246962333
30
0
41
1
10
11.432509101484
20
4.37857610942885
30
0
41
1
10
11.9727459000789
20
4.2412275226244
30
0
41
1
10
12.5129826986737
20
4.10387893581995
30
0
0
SPLINE
5
13E
100
AcDbEntity
8
1
62
256
6
ByLayer
370
18
48
1
60
0
100
AcDbSpline
70
4
71
3
72
29
73
25
40
0
40
0
40
0
40
0
40
0.125000000000945
40
0.171875000000893
40
0.218750000000841
40
0.242187500000815
40
0.26562500000079
40
0.277343750000777
40
0.289062500000764
40
0.312500000000738
40
0.359375000000686
40
0.406250000000634
40
0.50000000000053
40
0.593750000000427
40
0.640625000000375
40
0.687500000000323
40
0.710937500000297
40
0.722656250000284
40
0.734375000000271
40
0.757812500000245
40
0.781250000000219
40
0.828125000000168
40
0.875000000000116
40
1
40
1
40
1
40
1
41
1
10
18.0250109562029
20
4.1563714413447
30
0
41
1
10
18.0129905912872
20
4.21774124763681
30
0
41
1
10
17.9941344812203
20
4.30148987864871
30
0
41
1
10
17.9661272412085
20
4.40669694704457
30
0
41
1
10
17.9499672637072
20
4.46262561068241
30
0
41
1
10
17.9363426574207
20
4.50709531784363
30
0
41
1
10
17.9275474763625
20
4.53476924494791
30
0
41
1
10
17.9203565033216
20
4.55683134429316
30
0
41
1
10
17.9129619569744
20
4.57886783120074
30
0
41
1
10
17.8993315773081
20
4.61738687596196
30
0
41
1
10
17.8779277590082
20
4.67217364513391
30
0
41
1
10
17.839523405039
20
4.75888799455504
30
0
41
1
10
17.7838565152008
20
4.86467941100048
30
0
41
1
10
17.7188211688626
20
4.96498371810947
30
0
41
1
10
17.6619795104113
20
5.04089933254056
30
0
41
1
10
17.6246673300869
20
5.08636859369844
30
0
41
1
10
17.5977405003758
20
5.11709993289901
30
0
41
1
10
17.5821385503575
20
5.13432934924205
30
0
41
1
10
17.5664146767247
20
5.15139372895564
30
0
41
1
10
17.546581170605
20
5.17260251057485
30
0
41
1
10
17.514461612393
20
5.20623972740447
30
0
41
1
10
17.4735883300062
20
5.24769381166126
30
0
41
1
10
17.3955321240128
20
5.32358720764159
30
0
41
1
10
17.3317144365699
20
5.3810018490374
30
0
41
1
10
17.2840706259723
20
5.4215070081479
30
0
0
SPLINE
5
13F
100
AcDbEntity
8
1
62
256
6
ByLayer
370
18
48
1
60
0
100
AcDbSpline
70
4
71
3
72
10
73
6
40
0
40
0
40
0
40
0
40
0.249999999999984
40
0.624999999999992
40
1
40
1
40
1
40
1
41
1
10
17.2840706259723
20
5.4215070081479
30
0
41
1
10
17.188783004777
20
5.50251732636883
30
0
41
1
10
16.9382544817606
20
5.69253368469288
30
0
41
1
10
16.4949645755266
20
5.94020963745754
30
0
41
1
10
16.1349395914623
20
6.06868061457669
30
0
41
1
10
15.9509607526329
20
6.11750220387879
30
0
0
SPLINE
5
140
100
AcDbEntity
8
1
62
256
6
ByLayer
370
18
48
1
60
0
100
AcDbSpline
70
4
71
3
72
10
73
6
40
0
40
0
40
0
40
0
40
0.249999999999985
40
0.624999999999992
40
1
40
1
40
1
40
1
41
1
10
17.295341240365
20
1.31961397408418
30
0
41
1
10
17.3754173291427
20
1.41472460177911
30
0
41
1
10
17.5630630390653
20
1.66494024243926
30
0
41
1
10
17.806874262086
20
2.10826412356704
30
0
41
1
10
17.9324772792432
20
2.46879904687634
30
0
41
1
10
17.9798960042431
20
2.65315015713247
30
0
0
SPLINE
5
141
100
AcDbEntity
8
1
62
256
6
ByLayer
370
18
48
1
60
0
100
AcDbSpline
70
4
71
3
72
17
73
13
40
0
40
0
40
0
40
0
40
0.0625
40
0.125
40
0.25
40
0.375
40
0.5
40
0.625
40
0.75
40
0.875
40
0.9375
40
1
40
1
40
1
40
1
41
1
10
11.8105015068646
20
8.08575024421461
30
0
41
1
10
11.816998583723
20
8.11100911256779
30
0
41
1
10
11.8324699427772
20
8.16086930857654
30
0
41
1
10
11.8730176856902
20
8.25700265906443
30
0
41
1
10
11.9410153651796
20
8.36868748681027
30
0
41
1
10
12.0472026495346
20
8.48397984653687
30
0
41
1
10
12.1738956854572
20
8.57611321688279
30
0
41
1
10
12.3162256343265
20
8.64154646740454
30
0
41
1
10
12.4687232215795
20
8.67776702190625
30
0
41
1
10
12.5993928184882
20
8.68244053279292
30
0
41
1
10
12.7030711547214
20
8.67078083484338
30
0
41
1
10
12.754125200719
20
8.65988404181169
30
0
41
1
10
12.7793330623007
20
8.65319475149346
30
0
0
SPLINE
5
142
100
AcDbEntity
8
1
62
256
6
ByLayer
370
18
48
1
60
0
100
AcDbSpline
70
4
71
3
72
8
73
4
40
0
40
0
40
0
40
0
40
1
40
1
40
1
40
1
41
1
10
11.8105015100854
20
8.08575019902744
30
0
41
1
10
12.2728468275733
20
7.20297183897077
30
0
41
1
10
12.7351921450612
20
6.32019347891406
30
0
41
1
10
13.1975374625491
20
5.43741511885739
30
0
0
SPLINE
5
143
100
AcDbEntity
8
1
62
256
6
ByLayer
370
18
48
1
60
0
100
AcDbSpline
70
4
71
3
72
8
73
4
40
0
40
0
40
0
40
0
40
1
40
1
40
1
40
1
41
1
10
17.6710360349296
20
-1.92095393806068
30
0
41
1
10
16.4834971226959
20
-1.60582238585189
30
0
41
1
10
15.2959582104941
20
-1.29069083365161
30
0
41
1
10
14.1084192982289
20
-0.975559281434471
30
0
0
SPLINE
5
144
100
AcDbEntity
8
1
62
256
6
ByLayer
370
18
48
1
60
0
100
AcDbSpline
70
4
71
3
72
17
73
13
40
0
40
0
40
0
40
0
40
0.0625
40
0.125
40
0.25
40
0.375
40
0.5
40
0.625
40
0.75
40
0.875
40
0.9375
40
1
40
1
40
1
40
1
41
1
10
18.6398676282392
20
-1.35350945576204
30
0
41
1
10
18.6333705513808
20
-1.37876832411521
30
0
41
1
10
18.6178991923266
20
-1.42862852012397
30
0
41
1
10
18.5773514494136
20
-1.52476187061188
30
0
41
1
10
18.5093537699243
20
-1.63644669835773
30
0
41
1
10
18.4031664855692
20
-1.75173905808433
30
0
41
1
10
18.2764734496466
20
-1.84387242843025
30
0
41
1
10
18.1341435007772
20
-1.909305678952
30
0
41
1
10
17.9816459135242
20
-1.9455262334537
30
0
41
1
10
17.8509763166155
20
-1.95019974434041
30
0
41
1
10
17.7472979803823
20
-1.93854004639087
30
0
41
1
10
17.6962439343847
20
-1.92764325335915
30
0
41
1
10
17.671036072803
20
-1.92095396304094
30
0
0
SPLINE
5
145
100
AcDbEntity
8
1
62
256
6
ByLayer
370
18
48
1
60
0
100
AcDbSpline
70
4
71
3
72
8
73
4
40
0
40
0
40
0
40
0
40
1
40
1
40
1
40
1
41
1
10
20.4763260047536
20
5.78614157480393
30
0
41
1
10
20.1702496023548
20
4.59619974053911
30
0
41
1
10
19.8641731999642
20
3.40625790630622
30
0
41
1
10
19.5580967975573
20
2.21631607200976
30
0
0
SPLINE
5
146
100
AcDbEntity
8
1
62
256
6
ByLayer
370
13
48
1
60
0
100
AcDbSpline
70
4
71
3
72
18
73
14
40
0
40
0
40
0
40
0
40
0.047109265249684
40
0.047109265249684
40
0.285331948937263
40
0.285331948937263
40
0.523554632624842
40
0.523554632624842
40
0.761777316312421
40
0.761777316312421
40
0.880888658156211
40
0.880888658156211
40
1
40
1
40
1
40
1
41
1
10
3.65485757596207
20
3.19960544039279
30
0
41
1
10
3.67539379193596
20
3.19833044778537
30
0
41
1
10
3.69641571209968
20
3.1968043986343
30
0
41
1
10
3.82612065866982
20
3.18624933827536
30
0
41
1
10
3.94562420390986
20
3.17191656221272
30
0
41
1
10
4.20212399747692
20
3.1375824775825
30
0
41
1
10
4.33546456251037
20
3.11802658496157
30
0
41
1
10
4.61048512568192
20
3.07862763258029
30
0
41
1
10
4.75216472420283
20
3.05857927882619
30
0
41
1
10
4.97092207505909
20
3.03306054111258
30
0
41
1
10
5.04452529316649
20
3.02538482674851
30
0
41
1
10
5.19259932582872
20
3.01365314513353
30
0
41
1
10
5.26715690473117
20
3.0095019202418
30
0
41
1
10
5.34240948681804
20
3.00921076342334
30
0
0
SPLINE
5
147
100
AcDbEntity
8
1
62
256
6
ByLayer
370
13
48
1
60
0
100
AcDbSpline
70
4
71
3
72
22
73
18
40
0
40
0
40
0
40
0
40
0.056611636309153
40
0.056611636309153
40
0.185216701882386
40
0.185216701882386
40
0.31382176745562
40
0.31382176745562
40
0.442426833028853
40
0.442426833028853
40
0.571031898602086
40
0.571031898602086
40
0.69963696417532
40
0.69963696417532
40
0.956847095321793
40
0.956847095321793
40
1
40
1
40
1
40
1
41
1
10
10.3966470853735
20
2.60805727321997
30
0
41
1
10
10.3829785814599
20
2.61668331887211
30
0
41
1
10
10.3700432615767
20
2.62516233492576
30
0
41
1
10
10.3305172050476
20
2.65224891129344
30
0
41
1
10
10.30705599059
20
2.67025703472703
30
0
41
1
10
10.2687338870935
20
2.70554066609927
30
0
41
1
10
10.2545161156338
20
2.72224184390245
30
0
41
1
10
10.2359114383456
20
2.75504827852603
30
0
41
1
10
10.2315594013417
20
2.7713430275883
30
0
41
1
10
10.2334451705929
20
2.80379644829617
30
0
41
1
10
10.2395362049388
20
2.81993572904193
30
0
41
1
10
10.2618038843658
20
2.85348505397266
30
0
41
1
10
10.2781637492569
20
2.87096601587817
30
0
41
1
10
10.3397142506658
20
2.92474172489114
30
0
41
1
10
10.3987729575838
20
2.96395267559529
30
0
41
1
10
10.4797859551345
20
3.01152445036954
30
0
41
1
10
10.4917607980984
20
3.01842341614341
30
0
41
1
10
10.5040335006624
20
3.02536504264907
30
0
0
SPLINE
5
148
100
AcDbEntity
8
1
62
256
6
ByLayer
370
13
48
1
60
0
100
AcDbSpline
70
4
71
2
72
6
73
3
40
0
40
0
40
0
40
1
40
1
40
1
41
0.500000059460857
10
3.52812528769102
20
7.02090457170153
30
0
41
0.499999940539143
10
3.53080089303129
20
7.02095773482125
30
0
41
0.500000059460857
10
3.53347655330985
20
7.02101087400964
30
0
0
SPLINE
5
149
100
AcDbEntity
8
1
62
256
6
ByLayer
370
13
48
1
60
0
100
AcDbSpline
70
4
71
3
72
8
73
4
40
0
40
0
40
0
40
0
40
1
40
1
40
1
40
1
41
1
10
10.3643652022427
20
-2.54020586378979
30
0
41
1
10
10.6629549854808
20
-2.85073273907193
30
0
41
1
10
10.9913536237753
20
-3.14526691125391
30
0
41
1
10
11.3601476354341
20
-3.4181286236379
30
0
0
SPLINE
5
14A
100
AcDbEntity
8
1
62
256
6
ByLayer
370
13
48
1
60
0
100
AcDbSpline
70
4
71
3
72
16
73
12
40
0
40
0
40
0
40
0
40
0.25
40
0.25
40
0.5
40
0.5
40
0.624999999999999
40
0.624999999999999
40
0.75
40
0.75
40
1
40
1
40
1
40
1
41
1
10
1.9452861409365
20
6.1870084497582
30
0
41
1
10
2.0349142128274
20
6.00991176505349
30
0
41
1
10
2.13239940424313
20
5.81342086737661
30
0
41
1
10
2.34790213218332
20
5.38616199668215
30
0
41
1
10
2.46590869631632
20
5.15536786752028
30
0
41
1
10
2.66267656750705
20
4.78563506494092
30
0
41
1
10
2.73180877922545
20
4.65803709898063
30
0
41
1
10
2.87549018971623
20
4.39887580269337
30
0
41
1
10
2.95018354566474
20
4.26702562590685
30
0
41
1
10
3.18350708248874
20
3.86555327923378
30
0
41
1
10
3.35136837253697
20
3.59002718525306
30
0
41
1
10
3.53347655331009
20
3.30866680384872
30
0
0
SPLINE
5
14B
100
AcDbEntity
8
1
62
256
6
ByLayer
370
13
48
1
60
0
100
AcDbSpline
70
4
71
3
72
8
73
4
40
0
40
0
40
0
40
0
40
1
40
1
40
1
40
1
41
1
10
16.5058986471837
20
-2.60271658884776
30
0
41
1
10
16.4776653445372
20
-2.61918488320086
30
0
41
1
10
16.4485923982209
20
-2.63430031447558
30
0
41
1
10
16.418688262024
20
-2.64807762900966
30
0
0
SPLINE
5
14C
100
AcDbEntity
8
1
62
256
6
ByLayer
370
13
48
1
60
0
100
AcDbSpline
70
4
71
3
72
8
73
4
40
0
40
0
40
0
40
0
40
1
40
1
40
1
40
1
41
1
10
11.4345046678432
20
8.10937194827045
30
0
41
1
10
11.4276372723465
20
8.1141480580749
30
0
41
1
10
11.422467172649
20
8.11633519033526
30
0
41
1
10
11.418752737777
20
8.1159146446287
30
0
0
SPLINE
5
14D
100
AcDbEntity
8
1
62
256
6
ByLayer
370
13
48
1
60
0
100
AcDbSpline
70
4
71
3
72
8
73
4
40
0
40
0
40
0
40
0
40
1
40
1
40
1
40
1
41
1
10
3.65751128789907
20
7.03139851893314
30
0
41
1
10
6.2461079838788
20
7.41476772142843
30
0
41
1
10
8.83918229956726
20
7.77077614008647
30
0
41
1
10
11.4345046678428
20
8.10929568675269
30
0
0
SPLINE
5
14E
100
AcDbEntity
8
1
62
256
6
ByLayer
370
13
48
1
60
0
100
AcDbSpline
70
4
71
3
72
8
73
4
40
0
40
0
40
0
40
0
40
1
40
1
40
1
40
1
41
1
10
16.8531467114153
20
-2.39473493732658
30
0
41
1
10
16.860863367689
20
-2.39140184394344
30
0
41
1
10
16.8688786740158
20
-2.38774964461876
30
0
41
1
10
16.877160638349
20
-2.38375530370303
30
0
0
SPLINE
5
14F
100
AcDbEntity
8
1
62
256
6
ByLayer
370
13
48
1
60
0
100
AcDbSpline
70
4
71
3
72
26
73
22
40
0
40
0
40
0
40
0
40
0.062499999999999
40
0.062499999999999
40
0.124999999999998
40
0.124999999999998
40
0.187499999999997
40
0.187499999999997
40
0.249999999999996
40
0.249999999999996
40
0.312499999999995
40
0.312499999999995
40
0.374999999999994
40
0.374999999999994
40
0.499999999999995
40
0.499999999999995
40
0.624999999999996
40
0.624999999999996
40
0.749999999999997
40
0.749999999999997
40
1
40
1
40
1
40
1
41
1
10
11.3601476354341
20
-3.4181286236379
30
0
41
1
10
11.3858179656069
20
-3.43724797764636
30
0
41
1
10
11.4206338768681
20
-3.45068492346954
30
0
41
1
10
11.5049792675753
20
-3.46841685907393
30
0
41
1
10
11.5545502275787
20
-3.47268607581168
30
0
41
1
10
11.6666512333877
20
-3.47317266276971
30
0
41
1
10
11.7283639591082
20
-3.46935524691113
30
0
41
1
10
11.8594033264415
20
-3.45516541408094
30
0
41
1
10
11.9290185386686
20
-3.44478189302777
30
0
41
1
10
12.0752722265496
20
-3.41837535010057
30
0
41
1
10
12.1522090764179
20
-3.40227696162435
30
0
41
1
10
12.3110484088202
20
-3.36533555989527
30
0
41
1
10
12.3923999531716
20
-3.34463715232928
30
0
41
1
10
12.6413802999149
20
-3.27686194127696
30
0
41
1
10
12.8138917638874
20
-3.22415479411552
30
0
41
1
10
13.1692160687336
20
-3.10686167277933
30
0
41
1
10
13.3529742158759
20
-3.04187427502546
30
0
41
1
10
13.7217256160625
20
-2.90468331314114
30
0
41
1
10
13.9074097023275
20
-2.83227826036233
30
0
41
1
10
14.4676152791503
20
-2.60588172132037
30
0
41
1
10
14.8452724499787
20
-2.44276020945267
30
0
41
1
10
15.225754547689
20
-2.27141347927909
30
0
0
SPLINE
5
150
100
AcDbEntity
8
1
62
256
6
ByLayer
370
13
48
1
60
0
100
AcDbSpline
70
4
71
3
72
9
73
5
40
0
40
0
40
0
40
0
40
0.5
40
1
40
1
40
1
40
1
41
1
10
3.53347655330987
20
7.02101087400968
30
0
41
1
10
3.55414902104502
20
7.02142143366359
30
0
41
1
10
3.59549394459646
20
7.02355759277413
30
0
41
1
10
3.63683884419134
20
7.02833694573786
30
0
41
1
10
3.65751128789907
20
7.03139851893314
30
0
0
SPLINE
5
151
100
AcDbEntity
8
1
62
256
6
ByLayer
370
13
48
1
60
0
100
AcDbSpline
70
4
71
3
72
18
73
14
40
0
40
0
40
0
40
0
40
0.137549977479924
40
0.137549977479924
40
0.275099954959847
40
0.275099954959847
40
0.550199909919694
40
0.550199909919694
40
0.687749887399615
40
0.687749887399615
40
0.825299864879536
40
0.825299864879536
40
1
40
1
40
1
40
1
41
1
10
5.97528002615422
20
2.17852239442016
30
0
41
1
10
5.93317192498256
20
2.12301445755622
30
0
41
1
10
5.89626782613038
20
2.06486541429649
30
0
41
1
10
5.82719365153122
20
1.94684315160279
30
0
41
1
10
5.79500109100934
20
1.88665327460643
30
0
41
1
10
5.70315901973049
20
1.70772674164149
30
0
41
1
10
5.64820813243142
20
1.59109692814064
30
0
41
1
10
5.56884352597774
20
1.42372311771302
30
0
41
1
10
5.54297955831942
20
1.36916662691993
30
0
41
1
10
5.49190642184027
20
1.2630313932421
30
0
41
1
10
5.46665005962001
20
1.21136641874671
30
0
41
1
10
5.4108848632431
20
1.10070726065189
30
0
41
1
10
5.38056798541862
20
1.04295644663085
30
0
41
1
10
5.35074709197153
20
0.989960259189047
30
0
0
SPLINE
5
152
100
AcDbEntity
8
1
62
256
6
ByLayer
370
13
48
1
60
0
100
AcDbSpline
70
4
71
3
72
8
73
4
40
0
40
0
40
0
40
0
40
1
40
1
40
1
40
1
41
1
10
11.4345046678432
20
8.10937194827045
30
0
41
1
10
11.4345353782649
20
8.10935058990449
30
0
41
1
10
11.4345661250458
20
8.10932917838497
30
0
41
1
10
11.434596908233
20
8.10930771370235
30
0
0
SPLINE
5
153
100
AcDbEntity
8
1
62
256
6
ByLayer
370
13
48
1
60
0
100
AcDbSpline
70
4
71
3
72
8
73
4
40
0
40
0
40
0
40
0
40
1
40
1
40
1
40
1
41
1
10
3.53347655330998
20
3.30866680384875
30
0
41
1
10
3.57445226557798
20
3.24535859889556
30
0
41
1
10
3.61581355747808
20
3.18294163348472
30
0
41
1
10
3.65751128789907
20
3.12149642183826
30
0
0
SPLINE
5
154
100
AcDbEntity
8
1
62
256
6
ByLayer
370
13
48
1
60
0
100
AcDbSpline
70
4
71
3
72
8
73
4
40
0
40
0
40
0
40
0
40
1
40
1
40
1
40
1
41
1
10
17.283591212495
20
-1.95190718224208
30
0
41
1
10
17.3014038875609
20
-1.91360958822517
30
0
41
1
10
17.3173684260809
20
-1.87300780434711
30
0
41
1
10
17.3309507212629
20
-1.83113778714315
30
0
0
SPLINE
5
155
100
AcDbEntity
8
1
62
256
6
ByLayer
370
13
48
1
60
0
100
AcDbSpline
70
4
71
3
72
29
73
25
40
0
40
0
40
0
40
0
40
0.125000000000007
40
0.125000000000007
40
0.187500000000007
40
0.187500000000007
40
0.250000000000008
40
0.250000000000008
40
0.375000000000006
40
0.375000000000006
40
0.437500000000005
40
0.437500000000005
40
0.500000000000004
40
0.562500000000003
40
0.562500000000003
40
0.625000000000002
40
0.625000000000002
40
0.750000000000001
40
0.750000000000001
40
0.812500000000001
40
0.812500000000001
40
0.875000000000001
40
0.875000000000001
40
1
40
1
40
1
40
1
41
1
10
3.52812528768988
20
7.02090457170149
30
0
41
1
10
3.38942608663063
20
7.01814867862558
30
0
41
1
10
3.25445760914863
20
7.01287113957628
30
0
41
1
10
3.05863112318104
20
7.000465789858
30
0
41
1
10
2.99440997311939
20
6.99556944224656
30
0
41
1
10
2.86818164771495
20
6.98396503144701
30
0
41
1
10
2.80589811032826
20
6.97720928826189
30
0
41
1
10
2.62732332973161
20
6.95424679445657
30
0
41
1
10
2.51776901189072
20
6.93530282598226
30
0
41
1
10
2.36812822530834
20
6.89939674093432
30
0
41
1
10
2.32040578089999
20
6.88605470410539
30
0
41
1
10
2.23211491756791
20
6.8569810723609
30
0
41
1
10
2.15087940453503
20
6.82556835465979
30
0
41
1
10
2.08337090457405
20
6.78897102688873
30
0
41
1
10
2.0227468419879
20
6.74946914986239
30
0
41
1
10
1.99574816786935
20
6.72810958349893
30
0
41
1
10
1.92684110459993
20
6.66066854631453
30
0
41
1
10
1.89641791303774
20
6.61113515412134
30
0
41
1
10
1.87212535531131
20
6.52933787858137
30
0
41
1
10
1.86764772746778
20
6.5007302100091
30
0
41
1
10
1.86572475606209
20
6.4421869106711
30
0
41
1
10
1.86821691127614
20
6.41211515222946
30
0
41
1
10
1.88531035904282
20
6.31953518581039
30
0
41
1
10
1.90966931553368
20
6.25431942826285
30
0
41
1
10
1.9452861409365
20
6.1870084497582
30
0
0
SPLINE
5
156
100
AcDbEntity
8
1
62
256
6
ByLayer
370
13
48
1
60
0
100
AcDbSpline
70
4
71
3
72
10
73
6
40
0
40
0
40
0
40
0
40
0.5
40
0.5
40
1
40
1
40
1
40
1
41
1
10
11.4345046678433
20
-4.93930909642415
30
0
41
1
10
11.4853585833171
20
-4.91623971916465
30
0
41
1
10
11.537419164799
20
-4.89255482398201
30
0
41
1
10
11.6442064798371
20
-4.84382503476311
30
0
41
1
10
11.6994405021443
20
-4.81854738306936
30
0
41
1
10
11.7550504754872
20
-4.79301527780061
30
0
0
SPLINE
5
157
100
AcDbEntity
8
1
62
256
6
ByLayer
370
13
48
1
60
0
100
AcDbSpline
70
4
71
3
72
14
73
10
40
0
40
0
40
0
40
0
40
0.25
40
0.25
40
0.5
40
0.5
40
0.75
40
0.75
40
1
40
1
40
1
40
1
41
1
10
16.877160638349
20
-2.38375530370303
30
0
41
1
10
16.9069473315739
20
-2.36938936312359
30
0
41
1
10
16.9398118845279
20
-2.35080844331057
30
0
41
1
10
17.0094904336004
20
-2.30269969839412
30
0
41
1
10
17.0467842832255
20
-2.27267448478369
30
0
41
1
10
17.1198677475445
20
-2.20146553018114
30
0
41
1
10
17.1559446954421
20
-2.16023364126727
30
0
41
1
10
17.2247430736975
20
-2.06402526618262
30
0
41
1
10
17.2563989255968
20
-2.01037112211438
30
0
41
1
10
17.283591212495
20
-1.95190718224208
30
0
0
SPLINE
5
158
100
AcDbEntity
8
1
62
256
6
ByLayer
370
13
48
1
60
0
100
AcDbSpline
70
4
71
3
72
9
73
5
40
0
40
0
40
0
40
0
40
0.5
40
1
40
1
40
1
40
1
41
1
10
11.4345969082101
20
8.1093077136988
30
0
41
1
10
11.4345815347663
20
8.10930570993119
30
0
41
1
10
11.4345507879279
20
8.10930170167259
30
0
41
1
10
11.434520041188
20
8.1092976919671
30
0
41
1
10
11.4345046678426
20
8.10929568675266
30
0
0
SPLINE
5
159
100
AcDbEntity
8
1
62
256
6
ByLayer
370
13
48
1
60
0
100
AcDbSpline
70
4
71
3
72
22
73
18
40
0
40
0
40
0
40
0
40
0.250000000000004
40
0.250000000000004
40
0.312500000000003
40
0.312500000000003
40
0.375000000000003
40
0.375000000000003
40
0.500000000000002
40
0.500000000000002
40
0.625000000000002
40
0.625000000000002
40
0.750000000000001
40
0.750000000000001
40
0.875000000000001
40
0.875000000000001
40
1
40
1
40
1
40
1
41
1
10
3.65751128789907
20
3.12149642183826
30
0
41
1
10
4.04255091105671
20
2.55410724026129
30
0
41
1
10
4.47253230830529
20
1.98755266113824
30
0
41
1
10
5.07278174861142
20
1.29926174790319
30
0
41
1
10
5.19596971199911
20
1.16257781390897
30
0
41
1
10
5.44879155291653
20
0.891572656234217
30
0
41
1
10
5.57869453206604
20
0.756985771024148
30
0
41
1
10
5.97623956945182
20
0.359461346861423
30
0
41
1
10
6.25103894977298
20
0.103340894094373
30
0
41
1
10
6.82060504968672
20
-0.389589426787182
30
0
41
1
10
7.11607445291611
20
-0.626905670991221
30
0
41
1
10
7.72372042231001
20
-1.07777947791638
30
0
41
1
10
8.03566918281416
20
-1.29127617414522
30
0
41
1
10
8.67621510574509
20
-1.69361945512423
30
0
41
1
10
9.00551258053935
20
-1.88278284605448
30
0
41
1
10
9.67561049886666
20
-2.23251719646325
30
0
41
1
10
10.0168429195624
20
-2.39343268609431
30
0
41
1
10
10.3643652022427
20
-2.54020586378982
30
0
0
LINE
5
81
100
AcDbEntity
8
1
62
256
6
ByLayer
370
18
48
1
60
0
100
AcDbLine
10
15.680757
20
4.304913
30
0
11
15.676104
21
4.285534
31
0
39
0
210
0
220
0
230
1
0
LINE
5
82
100
AcDbEntity
8
1
62
256
6
ByLayer
370
18
48
1
60
0
100
AcDbLine
10
16.103389
20
2.74111
30
0
11
16.226969
21
2.813172
31
0
39
0
210
0
220
0
230
1
0
LINE
5
83
100
AcDbEntity
8
1
62
256
6
ByLayer
370
18
48
1
60
0
100
AcDbLine
10
16.103389
20
2.74111
30
0
11
16.11736
21
2.726808
31
0
39
0
210
0
220
0
230
1
0
LINE
5
84
100
AcDbEntity
8
1
62
256
6
ByLayer
370
18
48
1
60
0
100
AcDbLine
10
14.530062
20
4.300475
30
0
11
14.544482
21
4.286629
31
0
39
0
210
0
220
0
230
1
0
LINE
5
85
100
AcDbEntity
8
1
62
256
6
ByLayer
370
18
48
1
60
0
100
AcDbLine
10
16.088196
20
3.876981
30
0
11
16.107441
21
3.881893
31
0
39
0
210
0
220
0
230
1
0
LINE
5
86
100
AcDbEntity
8
1
62
256
6
ByLayer
370
18
48
1
60
0
100
AcDbLine
10
16.11736
20
2.726808
30
0
11
16.24212
21
2.799558
31
0
39
0
210
0
220
0
230
1
0
LINE
5
87
100
AcDbEntity
8
1
62
256
6
ByLayer
370
18
48
1
60
0
100
AcDbLine
10
15.680757
20
4.304913
30
0
11
15.805516
21
4.377663
31
0
39
0
210
0
220
0
230
1
0
LINE
5
88
100
AcDbEntity
8
1
62
256
6
ByLayer
370
18
48
1
60
0
100
AcDbLine
10
15.676104
20
4.285534
30
0
11
15.799683
21
4.357597
31
0
39
0
210
0
220
0
230
1
0
LINE
5
89
100
AcDbEntity
8
1
62
256
6
ByLayer
370
18
48
1
60
0
100
AcDbLine
10
14.530062
20
4.300475
30
0
11
14.654821
21
4.373225
31
0
39
0
210
0
220
0
230
1
0
LINE
5
8A
100
AcDbEntity
8
1
62
256
6
ByLayer
370
18
48
1
60
0
100
AcDbLine
10
14.544482
20
4.286629
30
0
11
14.668062
21
4.358691
31
0
39
0
210
0
220
0
230
1
0
LINE
5
8B
100
AcDbEntity
8
1
62
256
6
ByLayer
370
18
48
1
60
0
100
AcDbLine
10
16.088196
20
3.876981
30
0
11
16.211776
21
3.949043
31
0
39
0
210
0
220
0
230
1
0
LINE
5
8C
100
AcDbEntity
8
1
62
256
6
ByLayer
370
18
48
1
60
0
100
AcDbLine
10
16.107441
20
3.881893
30
0
11
16.232201
21
3.954643
31
0
39
0
210
0
220
0
230
1
0
LINE
5
8D
100
AcDbEntity
8
1
62
256
6
ByLayer
370
18
48
1
60
0
100
AcDbLine
10
15.131045
20
2.166495
30
0
11
15.125771
21
2.147281
31
0
39
0
210
0
220
0
230
1
0
LINE
5
8E
100
AcDbEntity
8
1
62
256
6
ByLayer
370
18
48
1
60
0
100
AcDbLine
10
15.131045
20
2.166495
30
0
11
15.254625
21
2.238557
31
0
39
0
210
0
220
0
230
1
0
LINE
5
8F
100
AcDbEntity
8
1
62
256
6
ByLayer
370
18
48
1
60
0
100
AcDbLine
10
15.125771
20
2.147281
30
0
11
15.250531
21
2.220031
31
0
39
0
210
0
220
0
230
1
0
LINE
5
90
100
AcDbEntity
8
1
62
256
6
ByLayer
370
18
48
1
60
0
100
AcDbLine
10
14.016182
20
3.322092
30
0
11
14.10781
21
3.375523
31
0
39
0
210
0
220
0
230
1
0
LINE
5
91
100
AcDbEntity
8
1
62
256
6
ByLayer
370
18
48
1
60
0
100
AcDbLine
10
14.08468
20
5.132021
30
0
11
14.084576
21
5.131961
31
0
39
0
210
0
220
0
230
1
0
LINE
5
92
100
AcDbEntity
8
1
62
256
6
ByLayer
370
18
48
1
60
0
100
AcDbLine
10
14.022706
20
3.331486
30
0
11
14.089917
21
3.370678
31
0
39
0
210
0
220
0
230
1
0
LINE
5
93
100
AcDbEntity
8
SK1
62
256
6
ByLayer
370
13
48
1
60
0
100
AcDbLine
10
-23.395
20
-5.09215
30
0
11
-33.58
21
-5.09215
31
0
39
0
210
0
220
0
230
1
0
LINE
5
95
100
AcDbEntity
8
SK1
62
256
6
ByLayer
370
13
48
1
60
0
100
AcDbLine
10
-33.58
20
-5.09215
30
0
11
-33.58
21
5.09215
31
0
39
0
210
0
220
0
230
1
0
LINE
5
96
100
AcDbEntity
8
SK1
62
256
6
ByLayer
370
13
48
1
60
0
100
AcDbLine
10
-51.7
20
7.93475
30
0
11
-51.7
21
-7.93475
31
0
39
0
210
0
220
0
230
1
0
LINE
5
97
100
AcDbEntity
8
SK1
62
256
6
ByLayer
370
13
48
1
60
0
100
AcDbLine
10
-52.7
20
6.93475
30
0
11
-52.7
21
-6.93475
31
0
39
0
210
0
220
0
230
1
0
LINE
5
98
100
AcDbEntity
8
SK1
62
256
6
ByLayer
370
13
48
1
60
0
100
AcDbLine
10
-33.58
20
5.09215
30
0
11
-23.395
21
5.09215
31
0
39
0
210
0
220
0
230
1
0
LINE
5
99
100
AcDbEntity
8
SK1
62
256
6
ByLayer
370
13
48
1
60
0
100
AcDbLine
10
-23.395
20
-5.09215
30
0
11
-23.395
21
5.09215
31
0
39
0
210
0
220
0
230
1
0
LINE
5
9A
100
AcDbEntity
8
1
62
256
6
ByLayer
370
13
48
1
60
0
100
AcDbLine
10
3.533477
20
7.021011
30
0
11
3.533477
21
7.138029
31
0
39
0
210
0
220
0
230
1
0
LINE
5
9B
100
AcDbEntity
8
1
62
256
6
ByLayer
370
13
48
1
60
0
100
AcDbLine
10
3.533477
20
-7.138029
30
0
11
3.533477
21
3.308667
31
0
39
0
210
0
220
0
230
1
0
LINE
5
9C
100
AcDbEntity
8
1
62
256
6
ByLayer
370
13
48
1
60
0
100
AcDbLine
10
11.434505
20
8.109296
30
0
11
11.434505
21
8.109372
31
0
39
0
210
0
220
0
230
1
0
LINE
5
9D
100
AcDbEntity
8
1
62
256
6
ByLayer
370
13
48
1
60
0
100
AcDbLine
10
16.607794
20
-1.638811
30
0
11
15.485233
21
-2.153507
31
0
39
0
210
0
220
0
230
1
0
LINE
5
9E
100
AcDbEntity
8
1
62
256
6
ByLayer
370
13
48
1
60
0
100
AcDbLine
10
1.003827
20
7.138029
30
0
11
1.003827
21
-7.138029
31
0
39
0
210
0
220
0
230
1
0
LINE
5
9F
100
AcDbEntity
8
1
62
256
6
ByLayer
370
13
48
1
60
0
100
AcDbLine
10
5.974053
20
-7.379865
30
0
11
16.777088
21
-2.426653
31
0
39
0
210
0
220
0
230
1
0
LINE
5
A0
100
AcDbEntity
8
1
62
256
6
ByLayer
370
13
48
1
60
0
100
AcDbLine
10
-4.275
20
-7.93475
30
0
11
-4.275
21
7.93475
31
0
39
0
210
0
220
0
230
1
0
LINE
5
A1
100
AcDbEntity
8
1
62
256
6
ByLayer
370
13
48
1
60
0
100
AcDbLine
10
0.650274
20
7.284476
30
0
11
0.650274
21
-7.284476
31
0
39
0
210
0
220
0
230
1
0
LINE
5
A2
100
AcDbEntity
8
1
62
256
6
ByLayer
370
13
48
1
60
0
100
AcDbLine
10
9.79319
20
2.660604
30
0
11
10.525342
21
3.089425
31
0
39
0
210
0
220
0
230
1
0
LINE
5
A3
100
AcDbEntity
8
1
62
256
6
ByLayer
370
13
48
1
60
0
100
AcDbLine
10
16.418688
20
-2.648078
30
0
11
16.853147
21
-2.394735
31
0
39
0
210
0
220
0
230
1
0
LINE
5
A4
100
AcDbEntity
8
1
62
256
6
ByLayer
370
13
48
1
60
0
100
AcDbLine
10
3.657511
20
3.121496
30
0
11
3.657511
21
-7.145752
31
0
39
0
210
0
220
0
230
1
0
LINE
5
A5
100
AcDbEntity
8
1
62
256
6
ByLayer
370
13
48
1
60
0
100
AcDbLine
10
3.657511
20
7.145752
30
0
11
3.657511
21
7.031399
31
0
39
0
210
0
220
0
230
1
0
LINE
5
A6
100
AcDbEntity
8
1
62
256
6
ByLayer
370
13
48
1
60
0
100
AcDbLine
10
15.22427
20
-2.154271
30
0
11
15.485233
21
-2.153507
31
0
39
0
210
0
220
0
230
1
0
LINE
5
A7
100
AcDbEntity
8
1
62
256
6
ByLayer
370
13
48
1
60
0
100
AcDbLine
10
0
20
7.93475
30
0
11
0
21
-7.93475
31
0
39
0
210
0
220
0
230
1
0
LINE
5
A8
100
AcDbEntity
8
SK1
62
256
6
ByLayer
370
13
48
1
60
0
100
AcDbLine
10
-4.275
20
-7.93475
30
0
11
-4.275
21
7.93475
31
0
39
0
210
0
220
0
230
1
0
LINE
5
A9
100
AcDbEntity
8
81
62
256
6
ByLayer
370
18
48
1
60
0
100
AcDbLine
10
20.5015
20
6.604
30
0
11
25.5015
21
6.604
31
0
39
0
210
0
220
0
230
1
0
LINE
5
AA
100
AcDbEntity
8
SK4
62
256
6
ByLayer
370
18
48
0.05
60
0
100
AcDbLine
10
-57.7
20
0
30
0
11
25.5015
21
0
31
0
39
0
210
0
220
0
230
1
0
LINE
5
AC
100
AcDbEntity
8
80
62
256
6
ByLayer
370
18
48
1
60
0
100
AcDbLine
10
0
20
0
30
0
11
-5
21
0
31
0
39
0
210
0
220
0
230
1
0
LINE
5
AD
100
AcDbEntity
8
1
62
256
6
ByLayer
370
13
48
1
60
0
100
AcDbLine
10
-4.275
20
-7.93475
30
0
11
0
21
-7.93475
31
0
39
0
210
0
220
0
230
1
0
LINE
5
AE
100
AcDbEntity
8
1
62
256
6
ByLayer
370
13
48
1
60
0
100
AcDbLine
10
0
20
7.93475
30
0
11
-4.275
21
7.93475
31
0
39
0
210
0
220
0
230
1
0
LINE
5
AF
100
AcDbEntity
8
1
62
256
6
ByLayer
370
18
48
1
60
0
100
AcDbLine
10
16.342734
20
3.360695
30
0
11
16.220759
21
3.289568
31
0
39
0
210
0
220
0
230
1
0
LINE
5
B0
100
AcDbEntity
8
1
62
256
6
ByLayer
370
18
48
1
60
0
100
AcDbLine
10
14.984834
20
4.31547
30
0
11
15.101385
21
4.383433
31
0
39
0
210
0
220
0
230
1
0
LINE
5
B1
100
AcDbEntity
8
1
62
256
6
ByLayer
370
18
48
1
60
0
100
AcDbLine
10
15.363398
20
2.357213
30
0
11
15.24687
21
2.289263
31
0
39
0
210
0
220
0
230
1
0
LINE
5
B2
100
AcDbEntity
8
1
62
256
6
ByLayer
370
18
48
1
60
0
100
AcDbLine
10
14.010945
20
3.315164
30
0
11
14.132921
21
3.386291
31
0
39
0
210
0
220
0
230
1
0
LINE
5
B3
100
AcDbEntity
8
1
62
256
6
ByLayer
370
18
48
1
60
0
100
AcDbLine
10
16.200265
20
1.503757
30
0
11
16.278655
21
1.549468
31
0
39
0
210
0
220
0
230
1
0
LINE
5
B4
100
AcDbEntity
8
1
62
256
6
ByLayer
370
18
48
1
60
0
100
AcDbLine
10
14.162966
20
5.177672
30
0
11
14.084576
21
5.131961
31
0
39
0
210
0
220
0
230
1
0
LINE
5
B5
100
AcDbEntity
8
1
62
256
6
ByLayer
370
13
48
1
60
0
100
AcDbLine
10
16.505416
20
-2.602977
30
0
11
16.926989
21
-2.357149
31
0
39
0
210
0
220
0
230
1
0
LINE
5
B6
100
AcDbEntity
8
1
62
256
6
ByLayer
370
13
48
1
60
0
100
AcDbLine
10
1.003827
20
-7.138029
30
0
11
3.533477
21
-7.138029
31
0
39
0
210
0
220
0
230
1
0
LINE
5
B7
100
AcDbEntity
8
1
62
256
6
ByLayer
370
13
48
1
60
0
100
AcDbLine
10
3.533477
20
7.138029
30
0
11
1.003827
21
7.138029
31
0
39
0
210
0
220
0
230
1
0
LINE
5
B8
100
AcDbEntity
8
1
62
256
6
ByLayer
370
13
48
1
60
0
100
AcDbLine
10
0.650274
20
7.284476
30
0
11
0
21
7.93475
31
0
39
0
210
0
220
0
230
1
0
LINE
5
B9
100
AcDbEntity
8
1
62
256
6
ByLayer
370
13
48
1
60
0
100
AcDbLine
10
0
20
-7.93475
30
0
11
0.650274
21
-7.284476
31
0
39
0
210
0
220
0
230
1
0
LINE
5
BA
100
AcDbEntity
8
SK1
62
256
6
ByLayer
370
13
48
1
60
0
100
AcDbLine
10
-52.7
20
-6.93475
30
0
11
-51.7
21
-7.93475
31
0
39
0
210
0
220
0
230
1
0
LINE
5
BB
100
AcDbEntity
8
SK1
62
256
6
ByLayer
370
13
48
1
60
0
100
AcDbLine
10
-51.7
20
7.93475
30
0
11
-52.7
21
6.93475
31
0
39
0
210
0
220
0
230
1
0
LINE
5
BC
100
AcDbEntity
8
SK1
62
256
6
ByLayer
370
13
48
1
60
0
100
AcDbLine
10
-51.7
20
-7.93475
30
0
11
-4.275
21
-7.93475
31
0
39
0
210
0
220
0
230
1
0
LINE
5
BD
100
AcDbEntity
8
SK1
62
256
6
ByLayer
370
13
48
1
60
0
100
AcDbLine
10
-4.275
20
7.93475
30
0
11
-51.7
21
7.93475
31
0
39
0
210
0
220
0
230
1
0
LINE
5
BE
100
AcDbEntity
8
1
62
256
6
ByLayer
370
13
48
1
60
0
100
AcDbLine
10
3.657511
20
-7.145752
30
0
11
5.434111
21
-7.367827
31
0
39
0
210
0
220
0
230
1
0
LINE
5
BF
100
AcDbEntity
8
1
62
256
6
ByLayer
370
13
48
1
60
0
100
AcDbLine
10
11.423497
20
8.1165
30
0
11
3.657511
21
7.145752
31
0
39
0
210
0
220
0
230
1
0
LINE
5
C0
100
AcDbEntity
8
4
62
256
6
ByLayer
370
18
48
0.05
60
0
100
AcDbLine
10
0
20
0
30
0
11
25.5015
21
0
31
0
39
0
210
0
220
0
230
1
0
LINE
5
C2
100
AcDbEntity
8
SK2
62
256
6
ByLayer
370
13
48
1
60
0
100
AcDbLine
10
11.820242
20
8.930136
30
0
11
5.767428
21
10.551983
31
0
39
0
210
0
220
0
230
1
0
LINE
5
C4
100
AcDbEntity
8
SK2
62
256
6
ByLayer
370
13
48
1
60
0
100
AcDbLine
10
20.5015
20
8.1915
30
0
11
20.5015
21
21.857834
31
0
39
0
210
0
220
0
230
1
0
LINE
5
C5
100
AcDbEntity
8
1
62
256
6
ByLayer
370
13
48
1
60
0
100
AcDbLine
10
8.834243
20
9.730232
30
0
11
9.458653
21
12.871163
31
0
39
0
210
0
220
0
230
1
0
LINE
5
C6
100
AcDbEntity
8
1
62
256
6
ByLayer
370
13
48
1
60
0
100
AcDbLine
10
8.834243
20
9.730232
30
0
11
10.250311
21
12.602532
31
0
39
0
210
0
220
0
230
1
0
LINE
5
C7
100
AcDbEntity
8
1
62
256
6
ByLayer
370
13
48
1
60
0
100
AcDbLine
10
9.458653
20
12.871163
30
0
11
10.250311
21
12.602532
31
0
39
0
210
0
220
0
230
1
0
LINE
5
C8
100
AcDbEntity
8
1
62
256
6
ByLayer
370
13
48
1
60
0
100
AcDbLine
10
20.5015
20
18.682834
30
0
11
17.360569
21
18.058423
31
0
39
0
210
0
220
0
230
1
0
LINE
5
C9
100
AcDbEntity
8
1
62
256
6
ByLayer
370
13
48
1
60
0
100
AcDbLine
10
20.5015
20
18.682834
30
0
11
17.305981
21
18.892632
31
0
39
0
210
0
220
0
230
1
0
LINE
5
CA
100
AcDbEntity
8
1
62
256
6
ByLayer
370
13
48
1
60
0
100
AcDbLine
10
17.360569
20
18.058423
30
0
11
17.305981
21
18.892632
31
0
39
0
210
0
220
0
230
1
0
MTEXT
5
15A
100
AcDbEntity
8
SK2
62
256
6
ByLayer
370
18
48
1
60
0
100
AcDbMText
10
8.956694
20
14.408136
30
0
210
0
220
0
230
1
1
\W0.9771;75%%d
40
4.5
41
0
44
1.084337
50
37.4999999999999
71
7
72
5
7
iso_b_vert
0
MTEXT
5
15D
100
AcDbEntity
8
SK6
62
256
6
ByLayer
370
18
48
1
60
0
100
AcDbMText
10
-114.887403
20
-19.447475
30
0
210
0
220
0
230
1
1
\W0.7472;A495-013M16-7509L
40
4
41
0
44
1.084337
50
89.9999999999998
71
7
72
5
7
iso_b_vert
0
DIMENSION
5
160
100
AcDbEntity
8
2
62
256
6
ByLayer
370
18
48
1
60
0
100
AcDbDimension
2
_U0
10
45.398375
20
6.604
30
0
11
45.398375
21
29.257395
31
0
70
32
71
1
72
1
41
1
210
0
220
0
230
1
3
Standard
100
AcDbAlignedDimension
13
20.5015
23
-6.604
33
0
14
20.5015
24
6.604
34
0
50
90
100
AcDbRotatedDimension
1001
ACAD
1000
DSTYLE
1002
{
1070
   371
1070
    13
1070
   372
1070
    13
1070
   170
1070
     0
1070
   144
1040
1.0
1070
   277
1070
     2
1070
   284
1070
     8
1070
   278
1070
    46
1070
   146
1040
0.777778
1070
   345
1005
16
1070
   347
1005
16
1070
   346
1005
16
1070
   344
1005
161
1070
   343
1005
161
1070
   172
1070
     1
1070
    76
1070
     0
1070
    75
1070
     0
1070
   282
1070
     0
1070
   281
1070
     0
1070
    71
1070
     0
1070
    74
1070
     0
1070
   279
1070
     0
1070
   173
1070
     1
1070
   340
1005
15B
1070
   271
1070
     2
1070
   272
1070
     2
1070
    77
1070
     1
1070
    73
1070
     0
1070
   171
1070
     3
1070
   274
1070
     4
1070
   177
1070
   150
1070
   176
1070
     9
1070
   178
1070
    43
1070
    78
1070
     8
1070
    48
1040
-0.1
1070
    41
1040
3.175
1070
   147
1040
2.25
1070
    42
1040
1.5875
1070
    44
1040
3.175
1070
   140
1040
4.5
1002
}
1001
ACAD_DSTYLE_DIM_LINETYPE
1070
   380
1005
16
1001
ACAD_DSTYLE_DIM_EXT1_LINETYPE
1070
   381
1005
16
1001
ACAD_DSTYLE_DIM_EXT2_LINETYPE
1070
   382
1005
16
0
DIMENSION
5
188
100
AcDbEntity
8
SK2
62
256
6
ByLayer
370
18
48
1
60
0
100
AcDbDimension
2
_U1
10
-0.0013
20
-31.104
30
0
11
10.2501
21
-31.104
31
0
70
32
71
1
72
1
41
1
210
0
220
0
230
1
3
Standard
100
AcDbAlignedDimension
13
20.5015
23
-6.604
33
0
14
-0.0013
24
0
34
0
50
0
100
AcDbRotatedDimension
1001
ACAD
1000
DSTYLE
1002
{
1070
   371
1070
    13
1070
   372
1070
    13
1070
   170
1070
     0
1070
   144
1040
1.0
1070
   277
1070
     2
1070
   284
1070
     8
1070
   278
1070
    46
1070
   146
1040
0.777778
1070
   345
1005
16
1070
   347
1005
16
1070
   346
1005
16
1070
   344
1005
161
1070
   343
1005
161
1070
   172
1070
     1
1070
    76
1070
     0
1070
    75
1070
     0
1070
   282
1070
     0
1070
   281
1070
     0
1070
    71
1070
     0
1070
    74
1070
     0
1070
   279
1070
     0
1070
   173
1070
     1
1070
   340
1005
15B
1070
   271
1070
     2
1070
   272
1070
     2
1070
    77
1070
     1
1070
    73
1070
     1
1070
   171
1070
     3
1070
   274
1070
     4
1070
   177
1070
   150
1070
   176
1070
     9
1070
   178
1070
    43
1070
    78
1070
     8
1070
    48
1040
-0.1
1070
    41
1040
3.175
1070
   147
1040
2.25
1070
    42
1040
1.5875
1070
    44
1040
3.175
1070
   140
1040
4.5
1002
}
1001
ACAD_DSTYLE_DIM_LINETYPE
1070
   380
1005
16
1001
ACAD_DSTYLE_DIM_EXT1_LINETYPE
1070
   381
1005
16
1001
ACAD_DSTYLE_DIM_EXT2_LINETYPE
1070
   382
1005
16
0
DIMENSION
5
1A5
100
AcDbEntity
8
2
62
256
6
ByLayer
370
18
48
1
60
0
100
AcDbDimension
2
_U2
10
20.5015
20
27.104
30
0
11
-16.09925
21
27.104
31
0
70
32
71
1
72
1
41
1
210
0
220
0
230
1
3
Standard
100
AcDbAlignedDimension
13
-52.7
23
7.93475
33
0
14
20.5015
24
6.604
34
0
50
0
100
AcDbRotatedDimension
1001
ACAD
1000
DSTYLE
1002
{
1070
   371
1070
    13
1070
   372
1070
    13
1070
   170
1070
     0
1070
   144
1040
1.0
1070
   277
1070
     2
1070
   284
1070
     8
1070
   278
1070
    46
1070
   146
1040
0.777778
1070
   345
1005
16
1070
   347
1005
16
1070
   346
1005
16
1070
   344
1005
161
1070
   343
1005
161
1070
   172
1070
     1
1070
    76
1070
     0
1070
    75
1070
     0
1070
   282
1070
     0
1070
   281
1070
     0
1070
    71
1070
     0
1070
    74
1070
     0
1070
   279
1070
     0
1070
   173
1070
     1
1070
   340
1005
15B
1070
   271
1070
     2
1070
   272
1070
     2
1070
    77
1070
     1
1070
    73
1070
     1
1070
   171
1070
     3
1070
   274
1070
     4
1070
   177
1070
   150
1070
   176
1070
     9
1070
   178
1070
    43
1070
    78
1070
     8
1070
    48
1040
-0.1
1070
    41
1040
3.175
1070
   147
1040
2.25
1070
    42
1040
1.5875
1070
    44
1040
3.175
1070
   140
1040
4.5
1002
}
1001
ACAD_DSTYLE_DIM_LINETYPE
1070
   380
1005
16
1001
ACAD_DSTYLE_DIM_EXT1_LINETYPE
1070
   381
1005
16
1001
ACAD_DSTYLE_DIM_EXT2_LINETYPE
1070
   382
1005
16
0
DIMENSION
5
1C1
100
AcDbEntity
8
SK2
62
256
6
ByLayer
370
18
48
1
60
0
100
AcDbDimension
2
_U3
10
12.5625
20
17.104
30
0
11
-20.06875
21
17.104
31
0
70
32
71
1
72
1
41
1
210
0
220
0
230
1
3
Standard
100
AcDbAlignedDimension
13
-52.7
23
7.93475
33
0
14
12.5625
24
8.65
34
0
50
0
100
AcDbRotatedDimension
1001
ACAD
1000
DSTYLE
1002
{
1070
   371
1070
    13
1070
   372
1070
    13
1070
   170
1070
     0
1070
   144
1040
1.0
1070
   277
1070
     2
1070
   284
1070
     8
1070
   278
1070
    46
1070
   146
1040
0.777778
1070
   345
1005
16
1070
   347
1005
16
1070
   346
1005
16
1070
   344
1005
161
1070
   343
1005
161
1070
   172
1070
     1
1070
    76
1070
     0
1070
    75
1070
     0
1070
   282
1070
     0
1070
   281
1070
     0
1070
    71
1070
     0
1070
    74
1070
     0
1070
   279
1070
     0
1070
   173
1070
     1
1070
   340
1005
15B
1070
   271
1070
     2
1070
   272
1070
     2
1070
    77
1070
     1
1070
    73
1070
     1
1070
   171
1070
     3
1070
   274
1070
     4
1070
   177
1070
   150
1070
   176
1070
     9
1070
   178
1070
    43
1070
    78
1070
     8
1070
    48
1040
-0.1
1070
    41
1040
3.175
1070
   147
1040
2.25
1070
    42
1040
1.5875
1070
    44
1040
3.175
1070
   140
1040
4.5
1002
}
1001
ACAD_DSTYLE_DIM_LINETYPE
1070
   380
1005
16
1001
ACAD_DSTYLE_DIM_EXT1_LINETYPE
1070
   381
1005
16
1001
ACAD_DSTYLE_DIM_EXT2_LINETYPE
1070
   382
1005
16
0
DIMENSION
5
1DD
100
AcDbEntity
8
SK2
62
256
6
ByLayer
370
18
48
1
60
0
100
AcDbDimension
2
_U4
10
56.2515
20
8.65
30
0
11
56.2515
21
30.051251
31
0
70
32
71
1
72
1
41
1
210
0
220
0
230
1
3
Standard
100
AcDbAlignedDimension
13
12.5625
23
-8.65
33
0
14
12.5625
24
8.65
34
0
50
90
100
AcDbRotatedDimension
1001
ACAD
1000
DSTYLE
1002
{
1070
   371
1070
    13
1070
   372
1070
    13
1070
   170
1070
     0
1070
   144
1040
1.0
1070
   277
1070
     2
1070
   284
1070
     8
1070
   278
1070
    46
1070
   146
1040
0.777778
1070
   345
1005
16
1070
   347
1005
16
1070
   346
1005
16
1070
   344
1005
161
1070
   343
1005
161
1070
   172
1070
     1
1070
    76
1070
     0
1070
    75
1070
     0
1070
   282
1070
     0
1070
   281
1070
     0
1070
    71
1070
     0
1070
    74
1070
     0
1070
   279
1070
     0
1070
   173
1070
     1
1070
   340
1005
15B
1070
   271
1070
     2
1070
   272
1070
     2
1070
    77
1070
     1
1070
    73
1070
     0
1070
   171
1070
     3
1070
   274
1070
     4
1070
   177
1070
   150
1070
   176
1070
     9
1070
   178
1070
    43
1070
    78
1070
     8
1070
    48
1040
-0.1
1070
    41
1040
3.175
1070
   147
1040
2.25
1070
    42
1040
1.5875
1070
    44
1040
3.175
1070
   140
1040
4.5
1002
}
1001
ACAD_DSTYLE_DIM_LINETYPE
1070
   380
1005
16
1001
ACAD_DSTYLE_DIM_EXT1_LINETYPE
1070
   381
1005
16
1001
ACAD_DSTYLE_DIM_EXT2_LINETYPE
1070
   382
1005
16
0
DIMENSION
5
1FC
100
AcDbEntity
8
SK2
62
256
6
ByLayer
370
18
48
1
60
0
100
AcDbDimension
2
_U5
10
-77.803125
20
-7.93475
30
0
11
-77.803125
21
31.319284
31
0
70
32
71
1
72
1
41
1
210
0
220
0
230
1
3
Standard
100
AcDbAlignedDimension
13
-52.7
23
7.93475
33
0
14
-52.7
24
-7.93475
34
0
50
90
100
AcDbRotatedDimension
1001
ACAD
1000
DSTYLE
1002
{
1070
   371
1070
    13
1070
   372
1070
    13
1070
   170
1070
     0
1070
   144
1040
1.0
1070
   277
1070
     2
1070
   284
1070
     8
1070
   278
1070
    46
1070
   146
1040
0.777778
1070
   345
1005
16
1070
   347
1005
16
1070
   346
1005
16
1070
   344
1005
161
1070
   343
1005
161
1070
   172
1070
     1
1070
    76
1070
     0
1070
    75
1070
     0
1070
   282
1070
     0
1070
   281
1070
     0
1070
    71
1070
     0
1070
    74
1070
     0
1070
   279
1070
     0
1070
   173
1070
     1
1070
   340
1005
15B
1070
   271
1070
     2
1070
   272
1070
     2
1070
    77
1070
     1
1070
    73
1070
     0
1070
   171
1070
     3
1070
   274
1070
     4
1070
   177
1070
   150
1070
   176
1070
     9
1070
   178
1070
    43
1070
    78
1070
     8
1070
    48
1040
-0.1
1070
    41
1040
3.175
1070
   147
1040
2.25
1070
    42
1040
1.5875
1070
    44
1040
3.175
1070
   140
1040
4.5
1002
}
1001
ACAD_DSTYLE_DIM_LINETYPE
1070
   380
1005
16
1001
ACAD_DSTYLE_DIM_EXT1_LINETYPE
1070
   381
1005
16
1001
ACAD_DSTYLE_DIM_EXT2_LINETYPE
1070
   382
1005
16
0
ENDSEC
0
SECTION
2
OBJECTS
0
DICTIONARY
5
28b
330
0
100
AcDbDictionary
280
0
281
1
3
ACAD_GROUP
350
28c
3
ACAD_MLINESTYLE
350
28d
0
DICTIONARY
5
28c
330
0
100
AcDbDictionary
280
0
281
1
0
DICTIONARY
5
28d
330
0
100
AcDbDictionary
280
0
281
1
3
Standard
350
18
0
MLINESTYLE
5
18
330
28d
100
AcDbMlineStyle
2
Standard
70
0
3

62
256
51
90
52
90
71
2
49
-0.5
62
256
6
ByLayer
49
0.5
62
256
6
ByLayer
0
RASTERVARIABLES
5
279
330

100
AcDbRasterVariables
90
0
70
1
71
1
72
1
0
ENDSEC
0
EOF
