0
SECTION
2
HEADER
9
$ACADVER
1
AC1015
9
$DWGCODEPAGE
3
ANSI_1252
9
$HANDSEED
5
28b
9
$ANGBASE
50
0
9
$ANGDIR
70
0
9
$ATTMODE
70
1
9
$AUNITS
70
0
9
$AUPREC
70
0
9
$CECOLOR
62
256
9
$CELTSCALE
40
1
9
$CELTYPE
6
ByLayer
9
$CELWEIGHT
370
18
9
$CLAYER
8
0
9
$CMLJUST
70
0
9
$CMLSCALE
40
1
9
$CMLSTYLE
2
Standard
9
$DIMSTYLE
2
Standard
9
$TEXTSIZE
40
0.2
9
$TEXTSTYLE
7
Standard
9
$LUNITS
70
2
9
$LUPREC
70
4
9
$EXTNAMES
290
1
9
$INSUNITS
70
4
9
$LTSCALE
40
1
9
$LWDISPLAY
290
1
9
$PDMODE
70
0
9
$PDSIZE
40
0
9
$PLINEGEN
70
0
0
ENDSEC
0
SECTION
2
CLASSES
0
CLASS
1
RASTERVARIABLES
2
AcDbRasterVariables
3
ISM
90
0
280
0
281
0
0
ENDSEC
0
SECTION
2
TABLES
0
TABLE
2
VPORT
5
281
100
AcDbSymbolTable
0
VPORT
5
1
100
AcDbSymbolTableRecord
100
AcDbViewportTableRecord
2
*Active
70
0
10
0
20
0
11
1
21
1
12
-1
22
1
13
0
23
0
14
0.5
24
0.5
15
10
25
10
16
0
26
0
36
1
17
0
27
0
37
0
0
ENDTAB
0
TABLE
2
LTYPE
5
282
100
AcDbSymbolTable
0
LTYPE
5
14
100
AcDbSymbolTableRecord
100
AcDbLinetypeTableRecord
70
0
2
ByBlock
3

72
65
73
0
40
0
0
LTYPE
5
15
100
AcDbSymbolTableRecord
100
AcDbLinetypeTableRecord
70
0
2
ByLayer
3

72
65
73
0
40
0
0
LTYPE
5
16
100
AcDbSymbolTableRecord
100
AcDbLinetypeTableRecord
70
0
2
Continuous
3
Solid line
72
65
73
0
40
0
0
LTYPE
5
6E
100
AcDbSymbolTableRecord
100
AcDbLinetypeTableRecord
70
0
2
CENTER
3
____ _ ____ _ ____ _ ____
72
65
73
4
40
47.5
49
22
74
0
49
-8.5
74
0
49
8.5
74
0
49
-8.5
74
0
0
LTYPE
5
6F
100
AcDbSymbolTableRecord
100
AcDbLinetypeTableRecord
70
0
2
DASHED
3
__ __ __ __ __ __ __ __ __
72
65
73
2
40
25.72
49
12.86
74
0
49
-12.86
74
0
0
ENDTAB
0
TABLE
2
LAYER
5
283
100
AcDbSymbolTable
0
LAYER
5
10
100
AcDbSymbolTableRecord
100
AcDbLayerTableRecord
2
0
70
0
62
7
6
Continuous
290
1
370
-3
390
0
0
LAYER
5
71
100
AcDbSymbolTableRecord
100
AcDbLayerTableRecord
2
81
70
0
62
-3
6
Continuous
290
1
370
-3
390
0
0
LAYER
5
73
100
AcDbSymbolTableRecord
100
AcDbLayerTableRecord
2
80
70
0
62
-6
6
Continuous
290
1
370
-3
390
0
0
LAYER
5
75
100
AcDbSymbolTableRecord
100
AcDbLayerTableRecord
2
1
70
0
62
4
6
Continuous
290
1
370
-3
390
0
0
LAYER
5
BE
100
AcDbSymbolTableRecord
100
AcDbLayerTableRecord
2
4
70
0
62
-2
6
CENTER
290
1
370
-3
390
0
0
LAYER
5
15E
100
AcDbSymbolTableRecord
100
AcDbLayerTableRecord
2
Defpoints
70
0
62
7
6
Continuous
290
0
370
-3
390
0
0
LAYER
5
16D
100
AcDbSymbolTableRecord
100
AcDbLayerTableRecord
2
2
70
0
62
7
6
Continuous
290
1
370
-3
390
0
0
LAYER
5
26d
100
AcDbSymbolTableRecord
100
AcDbLayerTableRecord
2
SK1
70
0
62
4
6
Continuous
290
1
370
-3
390
0
0
LAYER
5
26e
100
AcDbSymbolTableRecord
100
AcDbLayerTableRecord
2
SK4
70
0
62
2
6
CENTER
290
1
370
-3
390
0
0
LAYER
5
26f
100
AcDbSymbolTableRecord
100
AcDbLayerTableRecord
2
SK2
70
0
62
7
6
Continuous
290
1
370
-3
390
0
0
LAYER
5
270
100
AcDbSymbolTableRecord
100
AcDbLayerTableRecord
2
SK6
70
0
62
5
6
Continuous
290
1
370
-3
390
0
0
ENDTAB
0
TABLE
2
STYLE
5
284
100
AcDbSymbolTable
0
STYLE
5
11
100
AcDbSymbolTableRecord
100
AcDbTextStyleTableRecord
2
Standard
3
txt
70
0
71
0
40
0
41
1
42
0
50
0
0
STYLE
5
14F
100
AcDbSymbolTableRecord
100
AcDbTextStyleTableRecord
2
iso_b_vert
3
simplex.shx
70
0
71
0
40
0
41
1
42
0
50
0
0
STYLE
5
150
100
AcDbSymbolTableRecord
100
AcDbTextStyleTableRecord
2
DWGDirectTextStyle
3
simplex
70
0
71
0
40
0
41
1
42
0
50
0
0
ENDTAB
0
TABLE
2
DIMSTYLE
5
285
100
AcDbSymbolTable
100
AcDbDimStyleTable
0
DIMSTYLE
105
27
100
AcDbSymbolTableRecord
100
AcDbDimStyleTableRecord
2
Standard
70
0
3
<>
41
0.18
42
0.0625
44
0.18
140
0.18
147
0.09
73
0
74
0
77
1
271
2
275
0
278
52
280
0
340
11
0
ENDTAB
0
TABLE
2
VIEW
5
286
100
AcDbSymbolTable
0
ENDTAB
0
TABLE
2
UCS
5
287
100
AcDbSymbolTable
0
ENDTAB
0
TABLE
2
APPID
5
288
100
AcDbSymbolTable
0
APPID
5
12
100
AcDbSymbolTableRecord
100
AcDbRegAppTableRecord
2
ACAD
70
0
0
APPID
5
153
100
AcDbSymbolTableRecord
100
AcDbRegAppTableRecord
2
ACAD_DSTYLE_DIMBREAK
70
0
0
APPID
5
22C
100
AcDbSymbolTableRecord
100
AcDbRegAppTableRecord
2
ACAD_DSTYLE_DIM_LINETYPE
70
0
0
APPID
5
22D
100
AcDbSymbolTableRecord
100
AcDbRegAppTableRecord
2
ACAD_DSTYLE_DIM_EXT1_LINETYPE
70
0
0
APPID
5
22E
100
AcDbSymbolTableRecord
100
AcDbRegAppTableRecord
2
ACAD_DSTYLE_DIM_EXT2_LINETYPE
70
0
0
APPID
5
269
100
AcDbSymbolTableRecord
100
AcDbRegAppTableRecord
2
ACAD_MLEADERVER
70
0
0
ENDTAB
0
TABLE
2
BLOCK_RECORD
5
289
100
AcDbSymbolTable
0
BLOCK_RECORD
5
1F
100
AcDbSymbolTableRecord
100
AcDbBlockTableRecord
2
*Model_Space
340
0
70
0
0
BLOCK_RECORD
5
1B
100
AcDbSymbolTableRecord
100
AcDbBlockTableRecord
2
*Paper_Space
340
0
70
0
0
BLOCK_RECORD
5
23
100
AcDbSymbolTableRecord
100
AcDbBlockTableRecord
2
*Paper_Space0
340
0
70
0
0
BLOCK_RECORD
5
155
100
AcDbSymbolTableRecord
100
AcDbBlockTableRecord
2
_Closed
340
0
70
0
0
BLOCK_RECORD
5
15F
100
AcDbSymbolTableRecord
100
AcDbBlockTableRecord
2
*D2
340
0
70
0
0
BLOCK_RECORD
5
16E
100
AcDbSymbolTableRecord
100
AcDbBlockTableRecord
2
_U0
340
0
70
0
0
BLOCK_RECORD
5
17F
100
AcDbSymbolTableRecord
100
AcDbBlockTableRecord
2
*D4
340
0
70
0
0
BLOCK_RECORD
5
18C
100
AcDbSymbolTableRecord
100
AcDbBlockTableRecord
2
_U1
340
0
70
0
0
BLOCK_RECORD
5
19C
100
AcDbSymbolTableRecord
100
AcDbBlockTableRecord
2
*D6
340
0
70
0
0
BLOCK_RECORD
5
1A8
100
AcDbSymbolTableRecord
100
AcDbBlockTableRecord
2
_U2
340
0
70
0
0
BLOCK_RECORD
5
1B8
100
AcDbSymbolTableRecord
100
AcDbBlockTableRecord
2
*D8
340
0
70
0
0
BLOCK_RECORD
5
1C4
100
AcDbSymbolTableRecord
100
AcDbBlockTableRecord
2
_U3
340
0
70
0
0
BLOCK_RECORD
5
1D4
100
AcDbSymbolTableRecord
100
AcDbBlockTableRecord
2
*D10
340
0
70
0
0
BLOCK_RECORD
5
1E1
100
AcDbSymbolTableRecord
100
AcDbBlockTableRecord
2
_U4
340
0
70
0
0
BLOCK_RECORD
5
1F2
100
AcDbSymbolTableRecord
100
AcDbBlockTableRecord
2
*D12
340
0
70
0
0
BLOCK_RECORD
5
200
100
AcDbSymbolTableRecord
100
AcDbBlockTableRecord
2
_U5
340
0
70
0
0
ENDTAB
0
ENDSEC
0
SECTION
2
BLOCKS
0
BLOCK
5
20
100
AcDbEntity
8
0
100
AcDbBlockBegin
2
*Model_Space
70
0
10
0
20
0
30
0
3
*Model_Space
0
ENDBLK
5
21
100
AcDbEntity
8
0
100
AcDbBlockEnd
0
BLOCK
5
1C
100
AcDbEntity
8
0
100
AcDbBlockBegin
2
*Paper_Space
70
0
10
0
20
0
30
0
3
*Paper_Space
0
ENDBLK
5
1D
100
AcDbEntity
8
0
100
AcDbBlockEnd
0
BLOCK
5
24
100
AcDbEntity
8
0
100
AcDbBlockBegin
2
*Paper_Space0
70
0
10
0
20
0
30
0
3
*Paper_Space0
0
ENDBLK
5
25
100
AcDbEntity
8
0
100
AcDbBlockEnd
0
BLOCK
5
156
100
AcDbEntity
8
0
100
AcDbBlockBegin
2
_Closed
70
0
10
0
20
0
30
0
3
_Closed
0
LINE
5
158
100
AcDbEntity
8
0
62
256
6
ByLayer
370
-2
48
1
60
0
100
AcDbLine
10
-1
20
0.166667
30
0
11
0
21
0
31
0
39
0
210
0
220
0
230
1
0
LINE
5
159
100
AcDbEntity
8
0
62
256
6
ByLayer
370
-2
48
1
60
0
100
AcDbLine
10
0
20
0
30
0
11
-1
21
-0.166667
31
0
39
0
210
0
220
0
230
1
0
LINE
5
15A
100
AcDbEntity
8
0
62
256
6
ByLayer
370
-2
48
1
60
0
100
AcDbLine
10
-1
20
0.166667
30
0
11
-1
21
-0.166667
31
0
39
0
210
0
220
0
230
1
0
LINE
5
15B
100
AcDbEntity
8
0
62
256
6
ByLayer
370
-2
48
1
60
0
100
AcDbLine
10
0
20
0
30
0
11
-1
21
0
31
0
39
0
210
0
220
0
230
1
0
ENDBLK
5
157
100
AcDbEntity
8
0
100
AcDbBlockEnd
0
BLOCK
5
160
100
AcDbEntity
8
0
100
AcDbBlockBegin
2
*D2
70
1
10
0
20
0
30
0
3
*D2
0
LINE
5
162
100
AcDbEntity
8
0
62
256
6
ByLayer
370
-2
48
1
60
0
100
AcDbLine
10
22.089
20
-6.604
30
0
11
48.573375
21
-6.604
31
0
39
0
210
0
220
0
230
1
0
LINE
5
163
100
AcDbEntity
8
0
62
256
6
ByLayer
370
-2
48
1
60
0
100
AcDbLine
10
22.089
20
6.604
30
0
11
48.573375
21
6.604
31
0
39
0
210
0
220
0
230
1
0
LINE
5
164
100
AcDbEntity
8
0
62
256
6
ByLayer
370
-2
48
1
60
0
100
AcDbLine
10
45.398375
20
6.604
30
0
11
45.398375
21
44.43686
31
0
39
0
210
0
220
0
230
1
0
LINE
5
165
100
AcDbEntity
8
0
62
256
6
ByLayer
370
-2
48
1
60
0
100
AcDbLine
10
45.398375
20
-9.779
30
0
11
45.398375
21
-12.954
31
0
39
0
210
0
220
0
230
1
0
LINE
5
166
100
AcDbEntity
8
0
62
256
6
ByLayer
370
-2
48
1
60
0
100
AcDbLine
10
45.398375
20
9.779
30
0
11
45.398375
21
12.954
31
0
39
0
210
0
220
0
230
1
0
SOLID
5
167
100
AcDbEntity
8
0
62
256
6
ByLayer
370
-1
48
1
60
0
100
AcDbTrace
10
45.927542
20
-9.779
30
0
11
44.869208
21
-9.779
31
0
12
45.398375
22
-6.604
32
0
13
45.398375
23
-6.604
33
0
39
0
210
0
220
0
230
1
0
SOLID
5
168
100
AcDbEntity
8
0
62
256
6
ByLayer
370
-1
48
1
60
0
100
AcDbTrace
10
44.869208
20
9.779
30
0
11
45.927542
21
9.779
31
0
12
45.398375
22
6.604
32
0
13
45.398375
23
6.604
33
0
39
0
210
0
220
0
230
1
0
MTEXT
5
169
100
AcDbEntity
8
0
62
256
6
ByLayer
370
18
48
1
60
0
100
AcDbMText
10
36.004625
20
29.257395
30
0
210
0
220
0
230
1
1
\A1;13.21
40
4.5
41
0
44
1
50
90
71
5
72
5
7
iso_b_vert
0
POINT
5
16A
100
AcDbEntity
8
Defpoints
62
0
6
ByLayer
370
-1
48
1
60
0
100
AcDbPoint
10
20.5015
20
-6.604
30
0
39
0
210
0
220
0
230
1
50
360
0
POINT
5
16B
100
AcDbEntity
8
Defpoints
62
0
6
ByLayer
370
-1
48
1
60
0
100
AcDbPoint
10
20.5015
20
6.604
30
0
39
0
210
0
220
0
230
1
50
360
0
POINT
5
16C
100
AcDbEntity
8
Defpoints
62
0
6
ByLayer
370
-1
48
1
60
0
100
AcDbPoint
10
45.398375
20
6.604
30
0
39
0
210
0
220
0
230
1
50
360
0
ENDBLK
5
161
100
AcDbEntity
8
0
100
AcDbBlockEnd
0
BLOCK
5
17A
100
AcDbEntity
8
0
100
AcDbBlockBegin
2
_U0
70
0
10
0
20
0
30
0
3
_U0
0
MTEXT
5
16F
100
AcDbEntity
8
2
62
256
6
ByLayer
370
18
48
1
60
0
100
AcDbMText
10
43.316529
20
17.859375
30
0
210
0
220
0
230
1
1
%%c
40
3.175
41
0
44
1.084337
50
90
71
7
72
5
7
iso_b_vert
0
MTEXT
5
170
100
AcDbEntity
8
2
62
256
6
ByLayer
370
18
48
1
60
0
100
AcDbMText
10
43.717953
20
27.444
30
0
210
0
220
0
230
1
1
\W0.7778;13.21
40
4.5
41
0
44
1.084337
50
90
71
7
72
5
7
iso_b_vert
0
LINE
5
171
100
AcDbEntity
8
2
62
256
6
ByLayer
370
13
48
1
60
0
100
AcDbLine
10
22.089
20
-6.604
30
0
11
48.573375
21
-6.604
31
0
39
0
210
0
220
0
230
1
0
LINE
5
172
100
AcDbEntity
8
2
62
256
6
ByLayer
370
13
48
1
60
0
100
AcDbLine
10
22.089
20
6.604
30
0
11
48.573375
21
6.604
31
0
39
0
210
0
220
0
230
1
0
LINE
5
173
100
AcDbEntity
8
2
62
256
6
ByLayer
370
13
48
1
60
0
100
AcDbLine
10
45.398375
20
-6.604
30
0
11
45.398375
21
40.798291
31
0
39
0
210
0
220
0
230
1
0
LINE
5
174
100
AcDbEntity
8
2
62
256
6
ByLayer
370
13
48
1
60
0
100
AcDbLine
10
45.398375
20
-6.604
30
0
11
44.980378
21
-3.429002
31
0
39
0
210
0
220
0
230
1
0
LINE
5
175
100
AcDbEntity
8
2
62
256
6
ByLayer
370
13
48
1
60
0
100
AcDbLine
10
45.398375
20
-6.604
30
0
11
45.816372
21
-3.428998
31
0
39
0
210
0
220
0
230
1
0
LINE
5
176
100
AcDbEntity
8
2
62
256
6
ByLayer
370
13
48
1
60
0
100
AcDbLine
10
44.980378
20
-3.429002
30
0
11
45.816372
21
-3.428998
31
0
39
0
210
0
220
0
230
1
0
LINE
5
177
100
AcDbEntity
8
2
62
256
6
ByLayer
370
13
48
1
60
0
100
AcDbLine
10
45.398375
20
6.604
30
0
11
45.816372
21
3.429002
31
0
39
0
210
0
220
0
230
1
0
LINE
5
178
100
AcDbEntity
8
2
62
256
6
ByLayer
370
13
48
1
60
0
100
AcDbLine
10
45.398375
20
6.604
30
0
11
44.980378
21
3.428998
31
0
39
0
210
0
220
0
230
1
0
LINE
5
179
100
AcDbEntity
8
2
62
256
6
ByLayer
370
13
48
1
60
0
100
AcDbLine
10
45.816372
20
3.429002
30
0
11
44.980378
21
3.428998
31
0
39
0
210
0
220
0
230
1
0
ENDBLK
5
17B
100
AcDbEntity
8
0
100
AcDbBlockEnd
0
BLOCK
5
180
100
AcDbEntity
8
0
100
AcDbBlockBegin
2
*D4
70
1
10
0
20
0
30
0
3
*D4
0
LINE
5
182
100
AcDbEntity
8
0
62
256
6
ByLayer
370
-2
48
1
60
0
100
AcDbLine
10
20.5015
20
-8.1915
30
0
11
20.5015
21
-34.279
31
0
39
0
210
0
220
0
230
1
0
LINE
5
183
100
AcDbEntity
8
0
62
256
6
ByLayer
370
-2
48
1
60
0
100
AcDbLine
10
-0.0013
20
-1.5875
30
0
11
-0.0013
21
-34.279
31
0
39
0
210
0
220
0
230
1
0
LINE
5
184
100
AcDbEntity
8
0
62
256
6
ByLayer
370
-2
48
1
60
0
100
AcDbLine
10
23.6765
20
-31.104
30
0
11
26.8515
21
-31.104
31
0
39
0
210
0
220
0
230
1
0
LINE
5
185
100
AcDbEntity
8
0
62
256
6
ByLayer
370
-2
48
1
60
0
100
AcDbLine
10
-3.1763
20
-31.104
30
0
11
-6.3513
21
-31.104
31
0
39
0
210
0
220
0
230
1
0
SOLID
5
186
100
AcDbEntity
8
0
62
256
6
ByLayer
370
-1
48
1
60
0
100
AcDbTrace
10
23.6765
20
-30.574833
30
0
11
23.6765
21
-31.633167
31
0
12
20.5015
22
-31.104
32
0
13
20.5015
23
-31.104
33
0
39
0
210
0
220
0
230
1
0
SOLID
5
187
100
AcDbEntity
8
0
62
256
6
ByLayer
370
-1
48
1
60
0
100
AcDbTrace
10
-3.1763
20
-31.633167
30
0
11
-3.1763
21
-30.574833
31
0
12
-0.0013
22
-31.104
32
0
13
-0.0013
23
-31.104
33
0
39
0
210
0
220
0
230
1
0
MTEXT
5
188
100
AcDbEntity
8
0
62
256
6
ByLayer
370
18
48
1
60
0
100
AcDbMText
10
10.2501
20
-21.71025
30
0
210
0
220
0
230
1
1
\A1;20.5
40
4.5
41
0
44
1
50
0
71
5
72
5
7
iso_b_vert
0
POINT
5
189
100
AcDbEntity
8
Defpoints
62
0
6
ByLayer
370
-1
48
1
60
0
100
AcDbPoint
10
20.5015
20
-6.604
30
0
39
0
210
0
220
0
230
1
50
360
0
POINT
5
18A
100
AcDbEntity
8
Defpoints
62
0
6
ByLayer
370
-1
48
1
60
0
100
AcDbPoint
10
-0.0013
20
0
30
0
39
0
210
0
220
0
230
1
50
360
0
POINT
5
18B
100
AcDbEntity
8
Defpoints
62
0
6
ByLayer
370
-1
48
1
60
0
100
AcDbPoint
10
-0.0013
20
-31.104
30
0
39
0
210
0
220
0
230
1
50
360
0
ENDBLK
5
181
100
AcDbEntity
8
0
100
AcDbBlockEnd
0
BLOCK
5
197
100
AcDbEntity
8
0
100
AcDbBlockBegin
2
_U1
70
0
10
0
20
0
30
0
3
_U1
0
MTEXT
5
18D
100
AcDbEntity
8
SK2
62
256
6
ByLayer
370
18
48
1
60
0
100
AcDbMText
10
4.23121
20
-29.776328
30
0
210
0
220
0
230
1
1
\W0.8668;20.5
40
4.5
41
0
44
1.084337
50
0
71
7
72
5
7
iso_b_vert
0
LINE
5
18E
100
AcDbEntity
8
SK2
62
256
6
ByLayer
370
13
48
1
60
0
100
AcDbLine
10
20.5015
20
-8.1915
30
0
11
20.5015
21
-34.279
31
0
39
0
210
0
220
0
230
1
0
LINE
5
18F
100
AcDbEntity
8
SK2
62
256
6
ByLayer
370
13
48
1
60
0
100
AcDbLine
10
-0.0013
20
-1.5875
30
0
11
-0.0013
21
-34.279
31
0
39
0
210
0
220
0
230
1
0
LINE
5
190
100
AcDbEntity
8
SK2
62
256
6
ByLayer
370
13
48
1
60
0
100
AcDbLine
10
31.7515
20
-31.104
30
0
11
-11.2513
21
-31.104
31
0
39
0
210
0
220
0
230
1
0
LINE
5
191
100
AcDbEntity
8
SK2
62
256
6
ByLayer
370
13
48
1
60
0
100
AcDbLine
10
20.5015
20
-31.104
30
0
11
23.676498
21
-30.686003
31
0
39
0
210
0
220
0
230
1
0
LINE
5
192
100
AcDbEntity
8
SK2
62
256
6
ByLayer
370
13
48
1
60
0
100
AcDbLine
10
20.5015
20
-31.104
30
0
11
23.676502
21
-31.521997
31
0
39
0
210
0
220
0
230
1
0
LINE
5
193
100
AcDbEntity
8
SK2
62
256
6
ByLayer
370
13
48
1
60
0
100
AcDbLine
10
23.676498
20
-30.686003
30
0
11
23.676502
21
-31.521997
31
0
39
0
210
0
220
0
230
1
0
LINE
5
194
100
AcDbEntity
8
SK2
62
256
6
ByLayer
370
13
48
1
60
0
100
AcDbLine
10
-0.0013
20
-31.104
30
0
11
-3.176298
21
-31.521997
31
0
39
0
210
0
220
0
230
1
0
LINE
5
195
100
AcDbEntity
8
SK2
62
256
6
ByLayer
370
13
48
1
60
0
100
AcDbLine
10
-0.0013
20
-31.104
30
0
11
-3.176302
21
-30.686003
31
0
39
0
210
0
220
0
230
1
0
LINE
5
196
100
AcDbEntity
8
SK2
62
256
6
ByLayer
370
13
48
1
60
0
100
AcDbLine
10
-3.176298
20
-31.521997
30
0
11
-3.176302
21
-30.686003
31
0
39
0
210
0
220
0
230
1
0
ENDBLK
5
198
100
AcDbEntity
8
0
100
AcDbBlockEnd
0
BLOCK
5
19D
100
AcDbEntity
8
0
100
AcDbBlockBegin
2
*D6
70
1
10
0
20
0
30
0
3
*D6
0
LINE
5
19F
100
AcDbEntity
8
0
62
256
6
ByLayer
370
-2
48
1
60
0
100
AcDbLine
10
-52.7
20
9.52225
30
0
11
-52.7
21
30.279
31
0
39
0
210
0
220
0
230
1
0
LINE
5
1A0
100
AcDbEntity
8
0
62
256
6
ByLayer
370
-2
48
1
60
0
100
AcDbLine
10
20.5015
20
8.1915
30
0
11
20.5015
21
30.279
31
0
39
0
210
0
220
0
230
1
0
LINE
5
1A1
100
AcDbEntity
8
0
62
256
6
ByLayer
370
-2
48
1
60
0
100
AcDbLine
10
-49.525
20
27.104
30
0
11
17.3265
21
27.104
31
0
39
0
210
0
220
0
230
1
0
SOLID
5
1A2
100
AcDbEntity
8
0
62
256
6
ByLayer
370
-1
48
1
60
0
100
AcDbTrace
10
-49.525
20
27.633167
30
0
11
-49.525
21
26.574833
31
0
12
-52.7
22
27.104
32
0
13
-52.7
23
27.104
33
0
39
0
210
0
220
0
230
1
0
SOLID
5
1A3
100
AcDbEntity
8
0
62
256
6
ByLayer
370
-1
48
1
60
0
100
AcDbTrace
10
17.3265
20
26.574833
30
0
11
17.3265
21
27.633167
31
0
12
20.5015
22
27.104
32
0
13
20.5015
23
27.104
33
0
39
0
210
0
220
0
230
1
0
MTEXT
5
1A4
100
AcDbEntity
8
0
62
256
6
ByLayer
370
18
48
1
60
0
100
AcDbMText
10
-16.09925
20
36.49775
30
0
210
0
220
0
230
1
1
\A1;73.2
40
4.5
41
0
44
1
50
0
71
5
72
5
7
iso_b_vert
0
POINT
5
1A5
100
AcDbEntity
8
Defpoints
62
0
6
ByLayer
370
-1
48
1
60
0
100
AcDbPoint
10
-52.7
20
7.93475
30
0
39
0
210
0
220
0
230
1
50
360
0
POINT
5
1A6
100
AcDbEntity
8
Defpoints
62
0
6
ByLayer
370
-1
48
1
60
0
100
AcDbPoint
10
20.5015
20
6.604
30
0
39
0
210
0
220
0
230
1
50
360
0
POINT
5
1A7
100
AcDbEntity
8
Defpoints
62
0
6
ByLayer
370
-1
48
1
60
0
100
AcDbPoint
10
20.5015
20
27.104
30
0
39
0
210
0
220
0
230
1
50
360
0
ENDBLK
5
19E
100
AcDbEntity
8
0
100
AcDbBlockEnd
0
BLOCK
5
1B3
100
AcDbEntity
8
0
100
AcDbBlockBegin
2
_U2
70
0
10
0
20
0
30
0
3
_U2
0
MTEXT
5
1A9
100
AcDbEntity
8
2
62
256
6
ByLayer
370
18
48
1
60
0
100
AcDbMText
10
-22.11814
20
28.431672
30
0
210
0
220
0
230
1
1
\W0.8668;73.2
40
4.5
41
0
44
1.084337
50
0
71
7
72
5
7
iso_b_vert
0
LINE
5
1AA
100
AcDbEntity
8
2
62
256
6
ByLayer
370
13
48
1
60
0
100
AcDbLine
10
-52.7
20
9.52225
30
0
11
-52.7
21
30.279
31
0
39
0
210
0
220
0
230
1
0
LINE
5
1AB
100
AcDbEntity
8
2
62
256
6
ByLayer
370
13
48
1
60
0
100
AcDbLine
10
20.5015
20
8.1915
30
0
11
20.5015
21
30.279
31
0
39
0
210
0
220
0
230
1
0
LINE
5
1AC
100
AcDbEntity
8
2
62
256
6
ByLayer
370
13
48
1
60
0
100
AcDbLine
10
-52.7
20
27.104
30
0
11
20.5015
21
27.104
31
0
39
0
210
0
220
0
230
1
0
LINE
5
1AD
100
AcDbEntity
8
2
62
256
6
ByLayer
370
13
48
1
60
0
100
AcDbLine
10
-52.7
20
27.104
30
0
11
-49.525002
21
27.521997
31
0
39
0
210
0
220
0
230
1
0
LINE
5
1AE
100
AcDbEntity
8
2
62
256
6
ByLayer
370
13
48
1
60
0
100
AcDbLine
10
-52.7
20
27.104
30
0
11
-49.524998
21
26.686003
31
0
39
0
210
0
220
0
230
1
0
LINE
5
1AF
100
AcDbEntity
8
2
62
256
6
ByLayer
370
13
48
1
60
0
100
AcDbLine
10
-49.525002
20
27.521997
30
0
11
-49.524998
21
26.686003
31
0
39
0
210
0
220
0
230
1
0
LINE
5
1B0
100
AcDbEntity
8
2
62
256
6
ByLayer
370
13
48
1
60
0
100
AcDbLine
10
20.5015
20
27.104
30
0
11
17.326502
21
26.686003
31
0
39
0
210
0
220
0
230
1
0
LINE
5
1B1
100
AcDbEntity
8
2
62
256
6
ByLayer
370
13
48
1
60
0
100
AcDbLine
10
20.5015
20
27.104
30
0
11
17.326498
21
27.521997
31
0
39
0
210
0
220
0
230
1
0
LINE
5
1B2
100
AcDbEntity
8
2
62
256
6
ByLayer
370
13
48
1
60
0
100
AcDbLine
10
17.326502
20
26.686003
30
0
11
17.326498
21
27.521997
31
0
39
0
210
0
220
0
230
1
0
ENDBLK
5
1B4
100
AcDbEntity
8
0
100
AcDbBlockEnd
0
BLOCK
5
1B9
100
AcDbEntity
8
0
100
AcDbBlockBegin
2
*D8
70
1
10
0
20
0
30
0
3
*D8
0
LINE
5
1BB
100
AcDbEntity
8
0
62
256
6
ByLayer
370
-2
48
1
60
0
100
AcDbLine
10
-52.7
20
9.52225
30
0
11
-52.7
21
20.279
31
0
39
0
210
0
220
0
230
1
0
LINE
5
1BC
100
AcDbEntity
8
0
62
256
6
ByLayer
370
-2
48
1
60
0
100
AcDbLine
10
13.2825
20
12.2275
30
0
11
13.2825
21
20.279
31
0
39
0
210
0
220
0
230
1
0
LINE
5
1BD
100
AcDbEntity
8
0
62
256
6
ByLayer
370
-2
48
1
60
0
100
AcDbLine
10
-49.525
20
17.104
30
0
11
10.1075
21
17.104
31
0
39
0
210
0
220
0
230
1
0
SOLID
5
1BE
100
AcDbEntity
8
0
62
256
6
ByLayer
370
-1
48
1
60
0
100
AcDbTrace
10
-49.525
20
17.633167
30
0
11
-49.525
21
16.574833
31
0
12
-52.7
22
17.104
32
0
13
-52.7
23
17.104
33
0
39
0
210
0
220
0
230
1
0
SOLID
5
1BF
100
AcDbEntity
8
0
62
256
6
ByLayer
370
-1
48
1
60
0
100
AcDbTrace
10
10.1075
20
16.574833
30
0
11
10.1075
21
17.633167
31
0
12
13.2825
22
17.104
32
0
13
13.2825
23
17.104
33
0
39
0
210
0
220
0
230
1
0
MTEXT
5
1C0
100
AcDbEntity
8
0
62
256
6
ByLayer
370
18
48
1
60
0
100
AcDbMText
10
-19.70875
20
26.49775
30
0
210
0
220
0
230
1
1
\A1;65.98
40
4.5
41
0
44
1
50
0
71
5
72
5
7
iso_b_vert
0
POINT
5
1C1
100
AcDbEntity
8
Defpoints
62
0
6
ByLayer
370
-1
48
1
60
0
100
AcDbPoint
10
-52.7
20
7.93475
30
0
39
0
210
0
220
0
230
1
50
360
0
POINT
5
1C2
100
AcDbEntity
8
Defpoints
62
0
6
ByLayer
370
-1
48
1
60
0
100
AcDbPoint
10
13.2825
20
10.64
30
0
39
0
210
0
220
0
230
1
50
360
0
POINT
5
1C3
100
AcDbEntity
8
Defpoints
62
0
6
ByLayer
370
-1
48
1
60
0
100
AcDbPoint
10
13.2825
20
17.104
30
0
39
0
210
0
220
0
230
1
50
360
0
ENDBLK
5
1BA
100
AcDbEntity
8
0
100
AcDbBlockEnd
0
BLOCK
5
1CF
100
AcDbEntity
8
0
100
AcDbBlockBegin
2
_U3
70
0
10
0
20
0
30
0
3
_U3
0
MTEXT
5
1C5
100
AcDbEntity
8
SK2
62
256
6
ByLayer
370
18
48
1
60
0
100
AcDbMText
10
-27.710922
20
18.431672
30
0
210
0
220
0
230
1
1
\W0.8825;65.98
40
4.5
41
0
44
1.084337
50
0
71
7
72
5
7
iso_b_vert
0
LINE
5
1C6
100
AcDbEntity
8
SK2
62
256
6
ByLayer
370
13
48
1
60
0
100
AcDbLine
10
-52.7
20
9.52225
30
0
11
-52.7
21
20.279
31
0
39
0
210
0
220
0
230
1
0
LINE
5
1C7
100
AcDbEntity
8
SK2
62
256
6
ByLayer
370
13
48
1
60
0
100
AcDbLine
10
13.2825
20
12.2275
30
0
11
13.2825
21
20.279
31
0
39
0
210
0
220
0
230
1
0
LINE
5
1C8
100
AcDbEntity
8
SK2
62
256
6
ByLayer
370
13
48
1
60
0
100
AcDbLine
10
-52.7
20
17.104
30
0
11
13.2825
21
17.104
31
0
39
0
210
0
220
0
230
1
0
LINE
5
1C9
100
AcDbEntity
8
SK2
62
256
6
ByLayer
370
13
48
1
60
0
100
AcDbLine
10
-52.7
20
17.104
30
0
11
-49.525002
21
17.521997
31
0
39
0
210
0
220
0
230
1
0
LINE
5
1CA
100
AcDbEntity
8
SK2
62
256
6
ByLayer
370
13
48
1
60
0
100
AcDbLine
10
-52.7
20
17.104
30
0
11
-49.524998
21
16.686003
31
0
39
0
210
0
220
0
230
1
0
LINE
5
1CB
100
AcDbEntity
8
SK2
62
256
6
ByLayer
370
13
48
1
60
0
100
AcDbLine
10
-49.525002
20
17.521997
30
0
11
-49.524998
21
16.686003
31
0
39
0
210
0
220
0
230
1
0
LINE
5
1CC
100
AcDbEntity
8
SK2
62
256
6
ByLayer
370
13
48
1
60
0
100
AcDbLine
10
13.2825
20
17.104
30
0
11
10.107502
21
16.686003
31
0
39
0
210
0
220
0
230
1
0
LINE
5
1CD
100
AcDbEntity
8
SK2
62
256
6
ByLayer
370
13
48
1
60
0
100
AcDbLine
10
13.2825
20
17.104
30
0
11
10.107498
21
17.521997
31
0
39
0
210
0
220
0
230
1
0
LINE
5
1CE
100
AcDbEntity
8
SK2
62
256
6
ByLayer
370
13
48
1
60
0
100
AcDbLine
10
10.107502
20
16.686003
30
0
11
10.107498
21
17.521997
31
0
39
0
210
0
220
0
230
1
0
ENDBLK
5
1D0
100
AcDbEntity
8
0
100
AcDbBlockEnd
0
BLOCK
5
1D5
100
AcDbEntity
8
0
100
AcDbBlockBegin
2
*D10
70
1
10
0
20
0
30
0
3
*D10
0
LINE
5
1D7
100
AcDbEntity
8
0
62
256
6
ByLayer
370
-2
48
1
60
0
100
AcDbLine
10
14.87
20
-10.64
30
0
11
59.4265
21
-10.64
31
0
39
0
210
0
220
0
230
1
0
LINE
5
1D8
100
AcDbEntity
8
0
62
256
6
ByLayer
370
-2
48
1
60
0
100
AcDbLine
10
14.87
20
10.64
30
0
11
59.4265
21
10.64
31
0
39
0
210
0
220
0
230
1
0
LINE
5
1D9
100
AcDbEntity
8
0
62
256
6
ByLayer
370
-2
48
1
60
0
100
AcDbLine
10
56.2515
20
10.64
30
0
11
56.2515
21
50.168284
31
0
39
0
210
0
220
0
230
1
0
LINE
5
1DA
100
AcDbEntity
8
0
62
256
6
ByLayer
370
-2
48
1
60
0
100
AcDbLine
10
56.2515
20
-7.465
30
0
11
56.2515
21
7.465
31
0
39
0
210
0
220
0
230
1
0
SOLID
5
1DB
100
AcDbEntity
8
0
62
256
6
ByLayer
370
-1
48
1
60
0
100
AcDbTrace
10
55.722333
20
-7.465
30
0
11
56.780667
21
-7.465
31
0
12
56.2515
22
-10.64
32
0
13
56.2515
23
-10.64
33
0
39
0
210
0
220
0
230
1
0
SOLID
5
1DC
100
AcDbEntity
8
0
62
256
6
ByLayer
370
-1
48
1
60
0
100
AcDbTrace
10
56.780667
20
7.465
30
0
11
55.722333
21
7.465
31
0
12
56.2515
22
10.64
32
0
13
56.2515
23
10.64
33
0
39
0
210
0
220
0
230
1
0
MTEXT
5
1DD
100
AcDbEntity
8
0
62
256
6
ByLayer
370
18
48
1
60
0
100
AcDbMText
10
46.85775
20
34.024534
30
0
210
0
220
0
230
1
1
\A1;21.28
40
4.5
41
0
44
1
50
90
71
5
72
5
7
iso_b_vert
0
POINT
5
1DE
100
AcDbEntity
8
Defpoints
62
0
6
ByLayer
370
-1
48
1
60
0
100
AcDbPoint
10
13.2825
20
-10.64
30
0
39
0
210
0
220
0
230
1
50
360
0
POINT
5
1DF
100
AcDbEntity
8
Defpoints
62
0
6
ByLayer
370
-1
48
1
60
0
100
AcDbPoint
10
13.2825
20
10.64
30
0
39
0
210
0
220
0
230
1
50
360
0
POINT
5
1E0
100
AcDbEntity
8
Defpoints
62
0
6
ByLayer
370
-1
48
1
60
0
100
AcDbPoint
10
56.2515
20
10.64
30
0
39
0
210
0
220
0
230
1
50
360
0
ENDBLK
5
1D6
100
AcDbEntity
8
0
100
AcDbBlockEnd
0
BLOCK
5
1ED
100
AcDbEntity
8
0
100
AcDbBlockBegin
2
_U4
70
0
10
0
20
0
30
0
3
_U4
0
MTEXT
5
1E2
100
AcDbEntity
8
SK2
62
256
6
ByLayer
370
18
48
1
60
0
100
AcDbMText
10
54.169654
20
21.895375
30
0
210
0
220
0
230
1
1
%%c
40
3.175
41
0
44
1.084337
50
90
71
7
72
5
7
iso_b_vert
0
MTEXT
5
1E3
100
AcDbEntity
8
SK2
62
256
6
ByLayer
370
18
48
1
60
0
100
AcDbMText
10
54.571078
20
31.48
30
0
210
0
220
0
230
1
1
\W0.8033;21.28
40
4.5
41
0
44
1.084337
50
90
71
7
72
5
7
iso_b_vert
0
LINE
5
1E4
100
AcDbEntity
8
SK2
62
256
6
ByLayer
370
13
48
1
60
0
100
AcDbLine
10
14.87
20
-10.64
30
0
11
59.4265
21
-10.64
31
0
39
0
210
0
220
0
230
1
0
LINE
5
1E5
100
AcDbEntity
8
SK2
62
256
6
ByLayer
370
13
48
1
60
0
100
AcDbLine
10
14.87
20
10.64
30
0
11
59.4265
21
10.64
31
0
39
0
210
0
220
0
230
1
0
LINE
5
1E6
100
AcDbEntity
8
SK2
62
256
6
ByLayer
370
13
48
1
60
0
100
AcDbLine
10
56.2515
20
-10.64
30
0
11
56.2515
21
46.296568
31
0
39
0
210
0
220
0
230
1
0
LINE
5
1E7
100
AcDbEntity
8
SK2
62
256
6
ByLayer
370
13
48
1
60
0
100
AcDbLine
10
56.2515
20
-10.64
30
0
11
55.833503
21
-7.465002
31
0
39
0
210
0
220
0
230
1
0
LINE
5
1E8
100
AcDbEntity
8
SK2
62
256
6
ByLayer
370
13
48
1
60
0
100
AcDbLine
10
56.2515
20
-10.64
30
0
11
56.669497
21
-7.464998
31
0
39
0
210
0
220
0
230
1
0
LINE
5
1E9
100
AcDbEntity
8
SK2
62
256
6
ByLayer
370
13
48
1
60
0
100
AcDbLine
10
55.833503
20
-7.465002
30
0
11
56.669497
21
-7.464998
31
0
39
0
210
0
220
0
230
1
0
LINE
5
1EA
100
AcDbEntity
8
SK2
62
256
6
ByLayer
370
13
48
1
60
0
100
AcDbLine
10
56.2515
20
10.64
30
0
11
56.669497
21
7.465002
31
0
39
0
210
0
220
0
230
1
0
LINE
5
1EB
100
AcDbEntity
8
SK2
62
256
6
ByLayer
370
13
48
1
60
0
100
AcDbLine
10
56.2515
20
10.64
30
0
11
55.833503
21
7.464998
31
0
39
0
210
0
220
0
230
1
0
LINE
5
1EC
100
AcDbEntity
8
SK2
62
256
6
ByLayer
370
13
48
1
60
0
100
AcDbLine
10
56.669497
20
7.465002
30
0
11
55.833503
21
7.464998
31
0
39
0
210
0
220
0
230
1
0
ENDBLK
5
1EE
100
AcDbEntity
8
0
100
AcDbBlockEnd
0
BLOCK
5
1F3
100
AcDbEntity
8
0
100
AcDbBlockBegin
2
*D12
70
1
10
0
20
0
30
0
3
*D12
0
LINE
5
1F5
100
AcDbEntity
8
0
62
256
6
ByLayer
370
-2
48
1
60
0
100
AcDbLine
10
-54.2875
20
7.93475
30
0
11
-80.978125
21
7.93475
31
0
39
0
210
0
220
0
230
1
0
LINE
5
1F6
100
AcDbEntity
8
0
62
256
6
ByLayer
370
-2
48
1
60
0
100
AcDbLine
10
-54.2875
20
-7.93475
30
0
11
-80.978125
21
-7.93475
31
0
39
0
210
0
220
0
230
1
0
LINE
5
1F7
100
AcDbEntity
8
0
62
256
6
ByLayer
370
-2
48
1
60
0
100
AcDbLine
10
-77.803125
20
7.93475
30
0
11
-77.803125
21
47.141605
31
0
39
0
210
0
220
0
230
1
0
LINE
5
1F8
100
AcDbEntity
8
0
62
256
6
ByLayer
370
-2
48
1
60
0
100
AcDbLine
10
-77.803125
20
11.10975
30
0
11
-77.803125
21
14.28475
31
0
39
0
210
0
220
0
230
1
0
LINE
5
1F9
100
AcDbEntity
8
0
62
256
6
ByLayer
370
-2
48
1
60
0
100
AcDbLine
10
-77.803125
20
-11.10975
30
0
11
-77.803125
21
-14.28475
31
0
39
0
210
0
220
0
230
1
0
SOLID
5
1FA
100
AcDbEntity
8
0
62
256
6
ByLayer
370
-1
48
1
60
0
100
AcDbTrace
10
-78.332292
20
11.10975
30
0
11
-77.273958
21
11.10975
31
0
12
-77.803125
22
7.93475
32
0
13
-77.803125
23
7.93475
33
0
39
0
210
0
220
0
230
1
0
SOLID
5
1FB
100
AcDbEntity
8
0
62
256
6
ByLayer
370
-1
48
1
60
0
100
AcDbTrace
10
-77.273958
20
-11.10975
30
0
11
-78.332292
21
-11.10975
31
0
12
-77.803125
22
-7.93475
32
0
13
-77.803125
23
-7.93475
33
0
39
0
210
0
220
0
230
1
0
MTEXT
5
1FC
100
AcDbEntity
8
0
62
256
6
ByLayer
370
18
48
1
60
0
100
AcDbMText
10
-87.196875
20
31.319284
30
0
210
0
220
0
230
1
1
\A1;15.87
40
4.5
41
0
44
1
50
90
71
5
72
5
7
iso_b_vert
0
POINT
5
1FD
100
AcDbEntity
8
Defpoints
62
0
6
ByLayer
370
-1
48
1
60
0
100
AcDbPoint
10
-52.7
20
7.93475
30
0
39
0
210
0
220
0
230
1
50
360
0
POINT
5
1FE
100
AcDbEntity
8
Defpoints
62
0
6
ByLayer
370
-1
48
1
60
0
100
AcDbPoint
10
-52.7
20
-7.93475
30
0
39
0
210
0
220
0
230
1
50
360
0
POINT
5
1FF
100
AcDbEntity
8
Defpoints
62
0
6
ByLayer
370
-1
48
1
60
0
100
AcDbPoint
10
-77.803125
20
-7.93475
30
0
39
0
210
0
220
0
230
1
50
360
0
ENDBLK
5
1F4
100
AcDbEntity
8
0
100
AcDbBlockEnd
0
BLOCK
5
20C
100
AcDbEntity
8
0
100
AcDbBlockBegin
2
_U5
70
0
10
0
20
0
30
0
3
_U5
0
MTEXT
5
201
100
AcDbEntity
8
SK2
62
256
6
ByLayer
370
18
48
1
60
0
100
AcDbMText
10
-79.884971
20
19.190125
30
0
210
0
220
0
230
1
1
%%c
40
3.175
41
0
44
1.084337
50
90
71
7
72
5
7
iso_b_vert
0
MTEXT
5
202
100
AcDbEntity
8
SK2
62
256
6
ByLayer
370
18
48
1
60
0
100
AcDbMText
10
-79.483547
20
28.77475
30
0
210
0
220
0
230
1
1
\W0.8033;15.87
40
4.5
41
0
44
1.084337
50
90
71
7
72
5
7
iso_b_vert
0
LINE
5
203
100
AcDbEntity
8
SK2
62
256
6
ByLayer
370
13
48
1
60
0
100
AcDbLine
10
-54.2875
20
7.93475
30
0
11
-80.978125
21
7.93475
31
0
39
0
210
0
220
0
230
1
0
LINE
5
204
100
AcDbEntity
8
SK2
62
256
6
ByLayer
370
13
48
1
60
0
100
AcDbLine
10
-54.2875
20
-7.93475
30
0
11
-80.978125
21
-7.93475
31
0
39
0
210
0
220
0
230
1
0
LINE
5
205
100
AcDbEntity
8
SK2
62
256
6
ByLayer
370
13
48
1
60
0
100
AcDbLine
10
-77.803125
20
-7.93475
30
0
11
-77.803125
21
43.591318
31
0
39
0
210
0
220
0
230
1
0
LINE
5
206
100
AcDbEntity
8
SK2
62
256
6
ByLayer
370
13
48
1
60
0
100
AcDbLine
10
-77.803125
20
7.93475
30
0
11
-77.385128
21
4.759752
31
0
39
0
210
0
220
0
230
1
0
LINE
5
207
100
AcDbEntity
8
SK2
62
256
6
ByLayer
370
13
48
1
60
0
100
AcDbLine
10
-77.803125
20
7.93475
30
0
11
-78.221122
21
4.759748
31
0
39
0
210
0
220
0
230
1
0
LINE
5
208
100
AcDbEntity
8
SK2
62
256
6
ByLayer
370
13
48
1
60
0
100
AcDbLine
10
-77.385128
20
4.759752
30
0
11
-78.221122
21
4.759748
31
0
39
0
210
0
220
0
230
1
0
LINE
5
209
100
AcDbEntity
8
SK2
62
256
6
ByLayer
370
13
48
1
60
0
100
AcDbLine
10
-77.803125
20
-7.93475
30
0
11
-78.221122
21
-4.759752
31
0
39
0
210
0
220
0
230
1
0
LINE
5
20A
100
AcDbEntity
8
SK2
62
256
6
ByLayer
370
13
48
1
60
0
100
AcDbLine
10
-77.803125
20
-7.93475
30
0
11
-77.385128
21
-4.759748
31
0
39
0
210
0
220
0
230
1
0
LINE
5
20B
100
AcDbEntity
8
SK2
62
256
6
ByLayer
370
13
48
1
60
0
100
AcDbLine
10
-78.221122
20
-4.759752
30
0
11
-77.385128
21
-4.759748
31
0
39
0
210
0
220
0
230
1
0
ENDBLK
5
20D
100
AcDbEntity
8
0
100
AcDbBlockEnd
0
ENDSEC
0
SECTION
2
ENTITIES
0
ARC
5
C8
100
AcDbEntity
8
1
62
256
6
ByLayer
370
18
48
1
60
0
100
AcDbCircle
39
0
10
0.80825
20
-7.833607
30
0
40
0.5
210
0
220
0
230
1
100
AcDbArc
50
90
51
135
0
ARC
5
C9
100
AcDbEntity
8
1
62
256
6
ByLayer
370
18
48
1
60
0
100
AcDbCircle
39
0
10
0.80825
20
7.833607
30
0
40
0.5
210
0
220
0
230
1
100
AcDbArc
50
225
51
270
0
ARC
5
CA
100
AcDbEntity
8
SK2
62
256
6
ByLayer
370
13
48
1
60
0
100
AcDbCircle
39
0
10
20.5015
20
6.604
30
0
40
12.3980460704781
210
0
220
0
230
1
100
AcDbArc
50
47.779367
51
192.220633
0
ELLIPSE
5
CB
100
AcDbEntity
8
1
62
256
6
ByLayer
370
18
48
1
60
0
100
AcDbEllipse
10
14.610174
20
4.725444
30
0
11
-0.861175661523242
21
0.497200000000006
31
0
210
0
220
0
230
1
40
0.996195
41
-1.04719755119659
42
7.17273408505305E-15
0
ELLIPSE
5
CC
100
AcDbEntity
8
1
62
256
6
ByLayer
370
18
48
1
60
0
100
AcDbEllipse
10
14.608293
20
5.863886
30
0
11
0.302112161893919
21
-0.000807030895972617
31
0
210
0
220
0
230
1
40
0.486171
41
-2.85557889557112
42
-1.56869423500815
0
ELLIPSE
5
CD
100
AcDbEntity
8
1
62
256
6
ByLayer
370
18
48
1
60
0
100
AcDbEllipse
10
14.608293
20
5.863886
30
0
11
0.302112161894536
21
-0.000807030895624093
31
0
210
0
220
0
230
1
40
0.486171
41
-1.56869423501071
42
-0.281809574449944
0
ELLIPSE
5
CE
100
AcDbEntity
8
1
62
256
6
ByLayer
370
18
48
1
60
0
100
AcDbEllipse
10
14.664646
20
4.819793
30
0
11
1.11635004674833
21
-0.644525000000008
31
0
210
0
220
0
230
1
40
0.996195
41
-2.6179938779915
42
-1.5707963267949
0
ELLIPSE
5
CF
100
AcDbEntity
8
1
62
256
6
ByLayer
370
18
48
1
60
0
100
AcDbEllipse
10
14.653212
20
4.799989
30
0
11
-1.81865334794731
21
1.05000000000001
31
0
210
0
220
0
230
1
40
0.996195
41
0
42
6.28318530717959
0
ELLIPSE
5
D0
100
AcDbEntity
8
1
62
256
6
ByLayer
370
18
48
1
60
0
100
AcDbEllipse
10
15.598915
20
4.154594
30
0
11
0.150624638350752
21
0.260889526495988
31
0
210
0
220
0
230
1
40
0.488964
41
1.5707963267949
42
2.85768098735495
0
ELLIPSE
5
D1
100
AcDbEntity
8
1
62
256
6
ByLayer
370
18
48
1
60
0
100
AcDbEllipse
10
14.610174
20
4.725444
30
0
11
-0.861175661523242
21
0.497200000000006
31
0
210
0
220
0
230
1
40
0.996195
41
-2.09439510239319
42
-1.04719755119659
0
ELLIPSE
5
D2
100
AcDbEntity
8
1
62
256
6
ByLayer
370
18
48
1
60
0
100
AcDbEllipse
10
15.597034
20
5.293036
30
0
11
0.151754990204519
21
-0.2612332915442
31
0
210
0
220
0
230
1
40
0.486171
41
-1.57289841858233
42
-0.286013758018947
0
ELLIPSE
5
D3
100
AcDbEntity
8
1
62
256
6
ByLayer
370
18
48
1
60
0
100
AcDbEllipse
10
14.664646
20
4.819793
30
0
11
1.11635004674833
21
-0.644525000000008
31
0
210
0
220
0
230
1
40
0.996195
41
-1.5707963267949
42
-0.523598775598297
0
ELLIPSE
5
D4
100
AcDbEntity
8
1
62
256
6
ByLayer
370
18
48
1
60
0
100
AcDbEllipse
10
15.597034
20
5.293036
30
0
11
0.151754990205436
21
-0.26123329154567
31
0
210
0
220
0
230
1
40
0.486171
41
-2.85978307914042
42
-1.5728984185829
0
ELLIPSE
5
D5
100
AcDbEntity
8
1
62
256
6
ByLayer
370
18
48
1
60
0
100
AcDbEllipse
10
14.664646
20
4.819793
30
0
11
1.11635004674833
21
-0.644525000000008
31
0
210
0
220
0
230
1
40
0.996195
41
0.523598775598319
42
1.57079632679491
0
ELLIPSE
5
D6
100
AcDbEntity
8
1
62
256
6
ByLayer
370
18
48
1
60
0
100
AcDbEllipse
10
14.664646
20
4.819793
30
0
11
1.11635004674833
21
-0.644525000000008
31
0
210
0
220
0
230
1
40
0.996195
41
-0.523598775598297
42
0.523598775598318
0
ELLIPSE
5
D7
100
AcDbEntity
8
1
62
256
6
ByLayer
370
18
48
1
60
0
100
AcDbEllipse
10
14.664646
20
4.819793
30
0
11
1.11635004674833
21
-0.644525000000008
31
0
210
0
220
0
230
1
40
0.996195
41
1.57079632679491
42
2.6179938779915
0
ELLIPSE
5
D8
100
AcDbEntity
8
1
62
256
6
ByLayer
370
18
48
1
60
0
100
AcDbEllipse
10
13.621433
20
5.296294
30
0
11
0.150624638351483
21
0.260889526496355
31
0
210
0
220
0
230
1
40
0.488964
41
-2.85768098735562
42
-1.5707963267949
0
ELLIPSE
5
D9
100
AcDbEntity
8
1
62
256
6
ByLayer
370
18
48
1
60
0
100
AcDbEllipse
10
14.664646
20
4.819793
30
0
11
-1.21243556529821
21
0.700000000000009
31
0
210
0
220
0
230
1
40
0.996195
41
0
42
6.28318530717959
0
ELLIPSE
5
DA
100
AcDbEntity
8
1
62
256
6
ByLayer
370
18
48
1
60
0
100
AcDbEllipse
10
14.664646
20
4.819793
30
0
11
1.11635004674833
21
-0.644525000000008
31
0
210
0
220
0
230
1
40
0.996195
41
2.6179938779915
42
-2.6179938779915
0
ELLIPSE
5
DB
100
AcDbEntity
8
1
62
256
6
ByLayer
370
18
48
1
60
0
100
AcDbEllipse
10
14.663721
20
4.818191
30
0
11
1.99882062682043
21
-1.15401962695657
31
0
210
0
220
0
230
1
40
0.996195
41
0
42
6.28318530717959
0
ELLIPSE
5
DC
100
AcDbEntity
8
1
62
256
6
ByLayer
370
18
48
1
60
0
100
AcDbEllipse
10
14.622623
20
4.747006
30
0
11
-1.86228244429019
21
1.07518927051808
31
0
210
0
220
0
230
1
40
0.996195
41
0.525251420826852
42
-2.17141334652461
0
ELLIPSE
5
DD
100
AcDbEntity
8
1
62
256
6
ByLayer
370
18
48
1
60
0
100
AcDbEllipse
10
14.622623
20
4.747006
30
0
11
-1.86228244429019
21
1.07518927051808
31
0
210
0
220
0
230
1
40
0.996195
41
-0.970244966723699
42
-4.14611116023556E-16
0
ELLIPSE
5
DE
100
AcDbEntity
8
1
62
256
6
ByLayer
370
18
48
1
60
0
100
AcDbEllipse
10
14.622623
20
4.747006
30
0
11
-1.86228244429019
21
1.07518927051808
31
0
210
0
220
0
230
1
40
0.996195
41
0
42
0.525251441116969
0
ELLIPSE
5
DF
100
AcDbEntity
8
1
62
256
6
ByLayer
370
18
48
1
60
0
100
AcDbEllipse
10
14.634877
20
4.768232
30
0
11
-1.95873746157569
21
1.13087760071255
31
0
210
0
220
0
230
1
40
0.996195
41
0.525251339220864
42
0.926099111480451
0
ELLIPSE
5
E0
100
AcDbEntity
8
1
62
256
6
ByLayer
370
18
48
1
60
0
100
AcDbEllipse
10
14.634877
20
4.768232
30
0
11
-1.95873746157569
21
1.13087760071255
31
0
210
0
220
0
230
1
40
0.996195
41
2.21552629062875
42
-3.94194228540003E-16
0
ELLIPSE
5
E1
100
AcDbEntity
8
1
62
256
6
ByLayer
370
18
48
1
60
0
100
AcDbEllipse
10
14.634877
20
4.768232
30
0
11
-1.95873746157569
21
1.13087760071255
31
0
210
0
220
0
230
1
40
0.996195
41
0
42
0.5252512010401
0
ELLIPSE
5
E2
100
AcDbEntity
8
1
62
256
6
ByLayer
370
18
48
1
60
0
100
AcDbEllipse
10
14.610174
20
4.725444
30
0
11
-0.861175661523242
21
0.497200000000006
31
0
210
0
220
0
230
1
40
0.996195
41
2.34546098624037
42
-3.14159265358979
0
ELLIPSE
5
E3
100
AcDbEntity
8
1
62
256
6
ByLayer
370
18
48
1
60
0
100
AcDbEllipse
10
14.610174
20
4.725444
30
0
11
-0.861175661523242
21
0.497200000000006
31
0
210
0
220
0
230
1
40
0.996195
41
-3.04050552278163
42
-2.09439510239319
0
ELLIPSE
5
E4
100
AcDbEntity
8
1
62
256
6
ByLayer
370
18
48
1
60
0
100
AcDbEllipse
10
14.610174
20
4.725444
30
0
11
0.861175661523242
21
-0.497200000000006
31
0
210
0
220
0
230
1
40
0.996195
41
-3.14159265358979
42
-2.34058470495854
0
ELLIPSE
5
E5
100
AcDbEntity
8
1
62
256
6
ByLayer
370
18
48
1
60
0
100
AcDbEllipse
10
14.610174
20
4.725444
30
0
11
-0.861175661523242
21
0.497200000000006
31
0
210
0
220
0
230
1
40
0.996195
41
1.22918075251728
42
1.89595108139127
0
ELLIPSE
5
E6
100
AcDbEntity
8
1
62
256
6
ByLayer
370
18
48
1
60
0
100
AcDbEllipse
10
15.178876
20
5.710466
30
0
11
0.261886082104414
21
-0.151200000000002
31
0
210
0
220
0
230
1
40
0.48525
41
0.160894922806215
42
2.98069963607316
0
ELLIPSE
5
E7
100
AcDbEntity
8
1
62
256
6
ByLayer
370
18
48
1
60
0
100
AcDbEllipse
10
14.621068
20
4.744314
30
0
11
-1.81865334794731
21
1.05000000000001
31
0
210
0
220
0
230
1
40
0.996195
41
0.525251300522626
42
-3.14157634835009
0
ELLIPSE
5
E8
100
AcDbEntity
8
1
62
256
6
ByLayer
370
18
48
1
60
0
100
AcDbEllipse
10
14.621068
20
4.744314
30
0
11
-1.81865334794731
21
1.05000000000001
31
0
210
0
220
0
230
1
40
0.996195
41
0
42
0.525251194787281
0
ELLIPSE
5
E9
100
AcDbEntity
8
1
62
256
6
ByLayer
370
18
48
1
60
0
100
AcDbEllipse
10
15.750838
20
4.723563
30
0
11
0.000809539071487797
21
-0.301536796390789
31
0
210
0
220
0
230
1
40
0.488028
41
0.611556087511741
42
-2.98283472423093
0
ELLIPSE
5
EA
100
AcDbEntity
8
1
62
256
6
ByLayer
370
18
48
1
60
0
100
AcDbEllipse
10
14.038213
20
5.712347
30
0
11
0.261543295385945
21
0.150067316794126
31
0
210
0
220
0
230
1
40
0.488028
41
-0.158757929358866
42
2.23035059638208
0
ELLIPSE
5
EB
100
AcDbEntity
8
1
62
256
6
ByLayer
370
18
48
1
60
0
100
AcDbEllipse
10
15.182135
20
3.738541
30
0
11
0.261543295385941
21
0.150067316794129
31
0
210
0
220
0
230
1
40
0.488028
41
-0.65468608116433
42
0.162988194235984
0
ELLIPSE
5
EC
100
AcDbEntity
8
1
62
256
6
ByLayer
370
18
48
1
60
0
100
AcDbEllipse
10
13.46951
20
4.727326
30
0
11
0.000809539071493684
21
-0.301536796390787
31
0
210
0
220
0
230
1
40
0.488028
41
2.97860445935379
42
-2.53003793903033
0
ELLIPSE
5
ED
100
AcDbEntity
8
SK1
62
256
6
ByLayer
370
18
48
1
60
0
100
AcDbEllipse
10
-29.587395
20
0
30
0
11
8.07446026138551
21
9.45886978930847E-15
31
0
210
0
220
0
230
1
40
0.982697
41
-0.696781914590185
42
0.69678191459017
0
ELLIPSE
5
EE
100
AcDbEntity
8
SK1
62
256
6
ByLayer
370
18
48
1
60
0
100
AcDbEllipse
10
-27.387605
20
0
30
0
11
8.07446026138559
21
9.45886978930856E-15
31
0
210
0
220
0
230
1
40
0.982697
41
2.44481073899961
42
-2.44481073899963
0
ELLIPSE
5
EF
100
AcDbEntity
8
1
62
256
6
ByLayer
370
18
48
1
60
0
100
AcDbEllipse
10
-2.720883
20
0.175866
30
0
11
8.5450647294228
21
3.43651340545083
31
0
210
0
220
0
230
1
40
0.162627
41
-0.216212359674414
42
0.323598228525251
0
ELLIPSE
5
F0
100
AcDbEntity
8
1
62
256
6
ByLayer
370
18
48
1
60
0
100
AcDbEllipse
10
15.818971
20
-1.032199
30
0
11
0.864374145186979
21
0.502851907672489
31
0
210
0
220
0
230
1
40
0.043453
41
-2.90209406803131
42
-2.44985954472336
0
ELLIPSE
5
F1
100
AcDbEntity
8
1
62
256
6
ByLayer
370
18
48
1
60
0
100
AcDbEllipse
10
15.835569
20
-0.68416
30
0
11
0.866025403784435
21
-0.500000000000006
31
0
210
0
220
0
230
1
40
0.996195
41
-2.81270453335611
42
-2.69754301545306
0
ELLIPSE
5
F2
100
AcDbEntity
8
1
62
256
6
ByLayer
370
18
48
1
60
0
100
AcDbEllipse
10
9.064089
20
2.919344
30
0
11
1.08253175473054
21
-0.625000000000006
31
0
210
0
220
0
230
1
40
0.996195
41
2.07538544346647
42
-0.0458687345454059
0
ELLIPSE
5
F3
100
AcDbEntity
8
1
62
256
6
ByLayer
370
18
48
1
60
0
100
AcDbEllipse
10
12.690637
20
1.400709
30
0
11
0.866025403784435
21
-0.500000000000006
31
0
210
0
220
0
230
1
40
0.996195
41
-2.55126130969282
42
-0.596133291927721
0
ELLIPSE
5
F4
100
AcDbEntity
8
1
62
256
6
ByLayer
370
18
48
1
60
0
100
AcDbEllipse
10
8.91832
20
2.666864
30
0
11
-1.08253175473054
21
0.625000000000008
31
0
210
0
220
0
230
1
40
0.996195
41
-3.02433916372666
42
-2.94707559196642
0
ELLIPSE
5
F5
100
AcDbEntity
8
1
62
256
6
ByLayer
370
18
48
1
60
0
100
AcDbEllipse
10
8.91832
20
2.666864
30
0
11
-1.08253175473054
21
0.625000000000008
31
0
210
0
220
0
230
1
40
0.996195
41
-1.06948353773337
42
-0.117286666423209
0
ELLIPSE
5
F6
100
AcDbEntity
8
1
62
256
6
ByLayer
370
18
48
1
60
0
100
AcDbEllipse
10
15.726624
20
-0.872858
30
0
11
0.865199570465549
21
0.501427665038767
31
0
210
0
220
0
230
1
40
0.043578
41
-2.91891496585867
42
-1.77885686472646
0
ELLIPSE
5
F7
100
AcDbEntity
8
1
62
256
6
ByLayer
370
18
48
1
60
0
100
AcDbEllipse
10
-50.006934
20
-39.115438
30
0
11
74.4925089292606
21
43.2317579856856
31
0
210
0
220
0
230
1
40
0.009298
41
-0.547525542300868
42
-0.51830832591004
0
ELLIPSE
5
F8
100
AcDbEntity
8
1
62
256
6
ByLayer
370
18
48
1
60
0
100
AcDbEllipse
10
15.777359
20
-0.9604
30
0
11
0.853042226626365
21
0.522348639970513
31
0
210
0
220
0
230
1
40
0.310219
41
3.05846334096872
42
-2.90952893373876
0
ELLIPSE
5
F9
100
AcDbEntity
8
1
62
256
6
ByLayer
370
18
48
1
60
0
100
AcDbEllipse
10
16.005476
20
0
30
0
11
12.7748431905844
21
7.07074633106936
31
0
210
0
220
0
230
1
40
0.152319
41
1.99462805613487
42
-2.65131996068237
0
ELLIPSE
5
FA
100
AcDbEntity
8
1
62
256
6
ByLayer
370
18
48
1
60
0
100
AcDbEllipse
10
14.622507
20
11.246805
30
0
11
10.3923048454133
21
-6.0000000000001
31
0
210
0
220
0
230
1
40
0.996195
41
-2.28294976456394
42
-1.95268751231128
0
ELLIPSE
5
FB
100
AcDbEntity
8
1
62
256
6
ByLayer
370
18
48
1
60
0
100
AcDbEllipse
10
17.400547
20
0
30
0
11
12.6209921358801
21
7.32842488906647
31
0
210
0
220
0
230
1
40
0.02184
41
-2.88227413900356
42
-2.12224351637795
0
ELLIPSE
5
FC
100
AcDbEntity
8
1
62
256
6
ByLayer
370
18
48
1
60
0
100
AcDbEllipse
10
15.743095
20
-0.844329
30
0
11
0.0737414811519221
21
1.24786960135706
31
0
210
0
220
0
230
1
40
0.741298
41
1.42037228624785
42
2.02352019929743
0
ELLIPSE
5
FD
100
AcDbEntity
8
1
62
256
6
ByLayer
370
18
48
1
60
0
100
AcDbEllipse
10
20.46625
20
0
30
0
11
168.127538298563
21
-0.555110423518217
31
0
210
0
220
0
230
1
40
0.043494
41
1.63331100957542
42
1.67317862880393
0
ELLIPSE
5
FE
100
AcDbEntity
8
1
62
256
6
ByLayer
370
18
48
1
60
0
100
AcDbEllipse
10
14.622507
20
11.246805
30
0
11
10.3923048454133
21
-6.0000000000001
31
0
210
0
220
0
230
1
40
0.996195
41
-1.88263914652972
42
-1.04745314259316
0
POINT
5
70
100
AcDbEntity
8
81
62
256
6
ByLayer
370
18
48
1
60
0
100
AcDbPoint
10
20.5015
20
6.604
30
0
39
0
210
0
220
0
230
1
50
360
0
POINT
5
72
100
AcDbEntity
8
80
62
256
6
ByLayer
370
18
48
1
60
0
100
AcDbPoint
10
0
20
0
30
0
39
0
210
0
220
0
230
1
50
360
0
POINT
5
74
100
AcDbEntity
8
1
62
256
6
ByLayer
370
18
48
1
60
1
100
AcDbPoint
10
20.5015
20
-6.604
30
0
39
0
210
0
220
0
230
1
50
360
0
POINT
5
76
100
AcDbEntity
8
1
62
256
6
ByLayer
370
18
48
1
60
1
100
AcDbPoint
10
20.5015
20
6.604
30
0
39
0
210
0
220
0
230
1
50
360
0
POINT
5
77
100
AcDbEntity
8
1
62
256
6
ByLayer
370
18
48
1
60
1
100
AcDbPoint
10
20.5015
20
-6.604
30
0
39
0
210
0
220
0
230
1
50
360
0
POINT
5
78
100
AcDbEntity
8
1
62
256
6
ByLayer
370
18
48
1
60
1
100
AcDbPoint
10
-0.0013
20
0
30
0
39
0
210
0
220
0
230
1
50
360
0
POINT
5
79
100
AcDbEntity
8
1
62
256
6
ByLayer
370
18
48
1
60
1
100
AcDbPoint
10
-52.7
20
7.93475
30
0
39
0
210
0
220
0
230
1
50
360
0
POINT
5
7A
100
AcDbEntity
8
1
62
256
6
ByLayer
370
18
48
1
60
1
100
AcDbPoint
10
20.5015
20
6.604
30
0
39
0
210
0
220
0
230
1
50
360
0
POINT
5
7B
100
AcDbEntity
8
1
62
256
6
ByLayer
370
18
48
1
60
1
100
AcDbPoint
10
-52.7
20
7.93475
30
0
39
0
210
0
220
0
230
1
50
360
0
POINT
5
7C
100
AcDbEntity
8
1
62
256
6
ByLayer
370
18
48
1
60
1
100
AcDbPoint
10
13.2825
20
10.64
30
0
39
0
210
0
220
0
230
1
50
360
0
POINT
5
7D
100
AcDbEntity
8
1
62
256
6
ByLayer
370
18
48
1
60
1
100
AcDbPoint
10
13.2825
20
-10.64
30
0
39
0
210
0
220
0
230
1
50
360
0
POINT
5
7E
100
AcDbEntity
8
1
62
256
6
ByLayer
370
18
48
1
60
1
100
AcDbPoint
10
13.2825
20
10.64
30
0
39
0
210
0
220
0
230
1
50
360
0
POINT
5
7F
100
AcDbEntity
8
1
62
256
6
ByLayer
370
18
48
1
60
1
100
AcDbPoint
10
-52.7
20
7.93475
30
0
39
0
210
0
220
0
230
1
50
360
0
POINT
5
80
100
AcDbEntity
8
1
62
256
6
ByLayer
370
18
48
1
60
1
100
AcDbPoint
10
-52.7
20
-7.93475
30
0
39
0
210
0
220
0
230
1
50
360
0
SPLINE
5
FF
100
AcDbEntity
8
1
62
256
6
ByLayer
370
18
48
1
60
0
100
AcDbSpline
70
4
71
3
72
8
73
4
40
0
40
0
40
0
40
0
40
1
40
1
40
1
40
1
41
1
10
14.9526790160265
20
3.7154372579941
30
0
41
1
10
14.9562732843647
20
3.71000636138544
30
0
41
1
10
14.9598670688357
20
3.70457656559546
30
0
41
1
10
14.9634603927105
20
3.69914781699455
30
0
0
SPLINE
5
100
100
AcDbEntity
8
1
62
256
6
ByLayer
370
18
48
1
60
0
100
AcDbSpline
70
4
71
3
72
16
73
12
40
0
40
0
40
0
40
0
40
0.125
40
0.125
40
0.25
40
0.25
40
0.5
40
0.5
40
0.75
40
0.75
40
1
40
1
40
1
40
1
41
1
10
15.7789152318933
20
4.51456632073536
30
0
41
1
10
15.7931470880309
20
4.51057177727836
30
0
41
1
10
15.8084329843474
20
4.51062781136287
30
0
41
1
10
15.837763643857
20
4.51958726033686
30
0
41
1
10
15.8516053913871
20
4.5283484544361
30
0
41
1
10
15.8874955976021
20
4.56123764220712
30
0
41
1
10
15.9045369871118
20
4.59090372296947
30
0
41
1
10
15.9300750747869
20
4.65246168614451
30
0
41
1
10
15.938663787322
20
4.68506561221329
30
0
41
1
10
15.9499006442804
20
4.75092396092381
30
0
41
1
10
15.952524925237
20
4.78432226150727
30
0
41
1
10
15.9524698210045
20
4.81766904613937
30
0
0
SPLINE
5
101
100
AcDbEntity
8
1
62
256
6
ByLayer
370
18
48
1
60
0
100
AcDbSpline
70
4
71
3
72
8
73
4
40
0
40
0
40
0
40
0
40
1
40
1
40
1
40
1
41
1
10
14.3726432558556
20
3.71639391856857
30
0
41
1
10
14.3693901663128
20
3.7109743153969
30
0
41
1
10
14.3661377318828
20
3.70555581116543
30
0
41
1
10
14.3628859206551
20
3.70013835233544
30
0
0
SPLINE
5
102
100
AcDbEntity
8
1
62
256
6
ByLayer
370
18
48
1
60
0
100
AcDbSpline
70
4
71
3
72
18
73
14
40
0
40
0
40
0
40
0
40
0.125000000000001
40
0.125000000000001
40
0.250000000000001
40
0.250000000000001
40
0.5
40
0.5
40
0.75
40
0.75
40
0.875
40
0.875
40
1
40
1
40
1
40
1
41
1
10
15.4692616552482
20
4.01254929235171
30
0
41
1
10
15.4567069096002
20
4.03294679007854
30
0
41
1
10
15.4517672533727
20
4.05722272882403
30
0
41
1
10
15.4496401986544
20
4.1072913181697
30
0
41
1
10
15.4526350069595
20
4.13312433703675
30
0
41
1
10
15.4693175100233
20
4.21030593486503
30
0
41
1
10
15.4905793039969
20
4.26154836850495
30
0
41
1
10
15.5462214571749
20
4.3579292602783
30
0
41
1
10
15.5805946988708
20
4.4030416461392
30
0
41
1
10
15.6408637643988
20
4.45919483422227
30
0
41
1
10
15.6624627017744
20
4.47600363115563
30
0
41
1
10
15.7087780661839
20
4.50238633716322
30
0
41
1
10
15.7333350016323
20
4.51205835083394
30
0
41
1
10
15.7584510429734
20
4.5134400049015
30
0
0
SPLINE
5
103
100
AcDbEntity
8
1
62
256
6
ByLayer
370
18
48
1
60
0
100
AcDbSpline
70
4
71
3
72
16
73
12
40
0
40
0
40
0
40
0
40
0.125
40
0.125
40
0.25
40
0.25
40
0.5
40
0.5
40
0.75
40
0.75
40
1
40
1
40
1
40
1
41
1
10
13.5437480481448
20
5.11353810041896
30
0
41
1
10
13.5302504928887
20
5.11880449031077
30
0
41
1
10
13.5156967599971
20
5.12001660047747
30
0
41
1
10
13.4876660870359
20
5.11330879425452
30
0
41
1
10
13.4743855891517
20
5.1055197130577
30
0
41
1
10
13.4398658518566
20
5.07500424708627
30
0
41
1
10
13.4233659565891
20
5.04627606186347
30
0
41
1
10
13.3986101846365
20
4.98607310926724
30
0
41
1
10
13.390256182198
20
4.95387571301075
30
0
41
1
10
13.3793242038128
20
4.88854542947914
30
0
41
1
10
13.3767673289844
20
4.85526387973462
30
0
41
1
10
13.3768224332169
20
4.82191709510252
30
0
0
SPLINE
5
104
100
AcDbEntity
8
1
62
256
6
ByLayer
370
18
48
1
60
0
100
AcDbSpline
70
4
71
3
72
20
73
16
40
0
40
0
40
0
40
0
40
0.125
40
0.125
40
0.25
40
0.25
40
0.5
40
0.5
40
0.625
40
0.625
40
0.75
40
0.75
40
0.875
40
0.875
40
1
40
1
40
1
40
1
41
1
10
13.8550758665468
20
4.01521159010977
30
0
41
1
10
13.8663843434184
20
4.03559087089593
30
0
41
1
10
13.870189122172
20
4.05988090284015
30
0
41
1
10
13.8703209638114
20
4.11000228872609
30
0
41
1
10
13.8664690881379
20
4.13590031122831
30
0
41
1
10
13.8476107917122
20
4.21336246211428
30
0
41
1
10
13.8254741623699
20
4.26475103247046
30
0
41
1
10
13.7833922830736
20
4.33722468319959
30
0
41
1
10
13.7680513049658
20
4.36023086443447
30
0
41
1
10
13.7346491130154
20
4.40388151399634
30
0
41
1
10
13.7163906041721
20
4.42473970435282
30
0
41
1
10
13.6773439506689
20
4.46229495741997
30
0
41
1
10
13.6565693652689
20
4.4791037752386
30
0
41
1
10
13.6119697705545
20
4.50572088282638
30
0
41
1
10
13.5882658371368
20
4.51558996108676
30
0
41
1
10
13.564229494101
20
4.51705896323401
30
0
0
SPLINE
5
105
100
AcDbEntity
8
1
62
256
6
ByLayer
370
18
48
1
60
0
100
AcDbSpline
70
4
71
3
72
8
73
4
40
0
40
0
40
0
40
0
40
1
40
1
40
1
40
1
41
1
10
13.8458768008362
20
3.99863370683636
30
0
41
1
10
13.8489425521931
20
4.0041585873829
30
0
41
1
10
13.8520088972931
20
4.00968453033914
30
0
41
1
10
13.8550758665468
20
4.01521159010977
30
0
0
SPLINE
5
106
100
AcDbEntity
8
1
62
256
6
ByLayer
370
18
48
1
60
0
100
AcDbSpline
70
4
71
3
72
18
73
14
40
0
40
0
40
0
40
0
40
0.25
40
0.25
40
0.5
40
0.5
40
0.625
40
0.625
40
0.75
40
0.75
40
0.875
40
0.875
40
1
40
1
40
1
40
1
41
1
10
15.310397433217
20
3.7055670483542
30
0
41
1
10
15.3392904209508
20
3.72218482392873
30
0
41
1
10
15.3668032552205
20
3.74101468559485
30
0
41
1
10
15.4179258798668
20
3.7831480754858
30
0
41
1
10
15.4415779126784
20
3.80641064897793
30
0
41
1
10
15.4714603043159
20
3.84512940573382
30
0
41
1
10
15.4804070015471
20
3.85860870447081
30
0
41
1
10
15.4951473803956
20
3.88670880304093
30
0
41
1
10
15.5010620953281
20
3.90162133049932
30
0
41
1
10
15.5072042759997
20
3.93166441190024
30
0
41
1
10
15.5073772844244
20
3.94700293619977
30
0
41
1
10
15.4991431453543
20
3.97490179345039
30
0
41
1
10
15.4908006558795
20
3.98687915848262
30
0
41
1
10
15.4794858246342
20
3.9959393740823
30
0
0
SPLINE
5
107
100
AcDbEntity
8
1
62
256
6
ByLayer
370
18
48
1
60
0
100
AcDbSpline
70
4
71
3
72
8
73
4
40
0
40
0
40
0
40
0
40
1
40
1
40
1
40
1
41
1
10
13.54473173604
20
4.51825118883031
30
0
41
1
10
13.5512298321765
20
4.51785365337119
30
0
41
1
10
13.5577290655034
20
4.51745624261855
30
0
41
1
10
13.564229494101
20
4.51705896323401
30
0
0
SPLINE
5
108
100
AcDbEntity
8
1
62
256
6
ByLayer
370
18
48
1
60
0
100
AcDbSpline
70
4
71
3
72
18
73
14
40
0
40
0
40
0
40
0
40
0.25
40
0.25
40
0.5
40
0.5
40
0.625
40
0.625
40
0.75
40
0.75
40
0.875
40
0.875
40
1
40
1
40
1
40
1
41
1
10
15.9524698210045
20
4.81766904613937
30
0
41
1
10
15.9524147429395
20
4.85099999529541
30
0
41
1
10
15.9496867122046
20
4.88425044585117
30
0
41
1
10
15.9382378256985
20
4.94962753774246
30
0
41
1
10
15.9295773575993
20
4.98177009180216
30
0
41
1
10
15.91024843717
20
5.0270709210173
30
0
41
1
10
15.9027644038953
20
5.04158285614594
30
0
41
1
10
15.8851165420448
20
5.06845553576753
30
0
41
1
10
15.874753118719
20
5.08106760807021
30
0
41
1
10
15.8508256412002
20
5.10148574392576
30
0
41
1
10
15.8370442303582
20
5.10934933169094
30
0
41
1
10
15.8074287444046
20
5.11626327149889
30
0
41
1
10
15.7921547418698
20
5.11507632533386
30
0
41
1
10
15.7779315439982
20
5.10985323232401
30
0
0
SPLINE
5
109
100
AcDbEntity
8
1
62
256
6
ByLayer
370
18
48
1
60
0
100
AcDbSpline
70
4
71
3
72
16
73
12
40
0
40
0
40
0
40
0
40
0.125
40
0.125
40
0.25
40
0.25
40
0.5
40
0.5
40
0.75
40
0.75
40
1
40
1
40
1
40
1
41
1
10
14.3592028873277
20
5.92895660415977
30
0
41
1
10
14.3566158151145
20
5.94387890572759
30
0
41
1
10
14.3499808809439
20
5.95769674540048
30
0
41
1
10
14.3294114285445
20
5.97971917008493
30
0
41
1
10
14.3156925221105
20
5.98781329405301
30
0
41
1
10
14.2711670475783
20
6.00367014390432
30
0
41
1
10
14.2376706751257
20
6.00412023365487
30
0
41
1
10
14.1725915489438
20
5.99626811672493
30
0
41
1
10
14.1403355124543
20
5.98768617720364
30
0
41
1
10
14.0779990017819
20
5.96492177180028
30
0
41
1
10
14.0478015357467
20
5.95064476353852
30
0
41
1
10
14.0188948210045
20
5.9340190928877
30
0
0
SPLINE
5
10A
100
AcDbEntity
8
1
62
256
6
ByLayer
370
18
48
1
60
0
100
AcDbSpline
70
4
71
3
72
18
73
14
40
0
40
0
40
0
40
0
40
0.25
40
0.25
40
0.5
40
0.5
40
0.625
40
0.625
40
0.75
40
0.75
40
0.875
40
0.875
40
1
40
1
40
1
40
1
41
1
10
13.3768224332169
20
4.82191709510252
30
0
41
1
10
13.376877511282
20
4.78858614594648
30
0
41
1
10
13.3795383008554
20
4.75521923028279
30
0
41
1
10
13.3906824518154
20
4.68931432094269
30
0
41
1
10
13.3991092660624
20
4.65676706653966
30
0
41
1
10
13.4178507906928
20
4.61044883795657
30
0
41
1
10
13.4250994516468
20
4.5955292260098
30
0
41
1
10
13.4421550742364
20
4.56763075789814
30
0
41
1
10
13.4521550112454
20
4.5543891088268
30
0
41
1
10
13.4751719512597
20
4.5323938757513
30
0
41
1
10
13.4883965075487
20
4.52356578760788
30
0
41
1
10
13.5167011402863
20
4.5143813834286
30
0
41
1
10
13.5312431783713
20
4.51430052997733
30
0
41
1
10
13.54473173604
20
4.51825118883031
30
0
0
SPLINE
5
10B
100
AcDbEntity
8
1
62
256
6
ByLayer
370
18
48
1
60
0
100
AcDbSpline
70
4
71
3
72
16
73
12
40
0
40
0
40
0
40
0
40
0.25
40
0.25
40
0.5
40
0.5
40
0.749999999999999
40
0.749999999999999
40
0.875
40
0.875
40
1
40
1
40
1
40
1
41
1
10
14.0225737393231
20
3.70769107283579
30
0
41
1
10
13.9936154198542
20
3.72441016637643
30
0
41
1
10
13.9659634497059
20
3.74333841656428
30
0
41
1
10
13.9143800428577
20
3.78565944923287
30
0
41
1
10
13.890410566908
20
3.80901097451951
30
0
41
1
10
13.8496070701645
20
3.86079492937213
30
0
41
1
10
13.8324469704049
20
3.8891946108447
30
0
41
1
10
13.8216631169264
20
3.93473573861635
30
0
41
1
10
13.8209847187679
20
3.95008630382867
30
0
41
1
10
13.8277580631367
20
3.97756302581087
30
0
41
1
10
13.8353373309566
20
3.98961702299817
30
0
41
1
10
13.8458768008362
20
3.99863370683636
30
0
0
SPLINE
5
10C
100
AcDbEntity
8
1
62
256
6
ByLayer
370
18
48
1
60
0
100
AcDbSpline
70
4
71
3
72
18
73
14
40
0
40
0
40
0
40
0
40
0.125
40
0.125
40
0.250000000000001
40
0.250000000000001
40
0.500000000000001
40
0.500000000000001
40
0.75
40
0.75
40
0.875
40
0.875
40
1
40
1
40
1
40
1
41
1
10
14.9490525311318
20
5.91003475546577
30
0
41
1
10
14.9358829823411
20
5.88801603084519
30
0
41
1
10
14.9157274179736
20
5.87077146587808
30
0
41
1
10
14.8706362507629
20
5.84247899656754
30
0
41
1
10
14.8455822437207
20
5.83157326286053
30
0
41
1
10
14.7674956937559
20
5.80605391903157
30
0
41
1
10
14.7114148415733
20
5.79842435473603
30
0
41
1
10
14.5998062789599
20
5.79860530541771
30
0
41
1
10
14.544305501994
20
5.80642305069432
30
0
41
1
10
14.4680012431233
20
5.83217016017633
30
0
41
1
10
14.4436863778524
20
5.84313406284434
30
0
41
1
10
14.400226119299
20
5.87161762948691
30
0
41
1
10
14.3810621251848
20
5.88894279273995
30
0
41
1
10
14.3690167709608
20
5.91099141604022
30
0
0
SPLINE
5
10D
100
AcDbEntity
8
1
62
256
6
ByLayer
370
18
48
1
60
0
100
AcDbSpline
70
4
71
3
72
8
73
4
40
0
40
0
40
0
40
0
40
1
40
1
40
1
40
1
41
1
10
13.843177455404
20
5.63216504707199
30
0
41
1
10
13.8462624072107
20
5.62607061565325
30
0
41
1
10
13.8493479558006
20
5.61997540694458
30
0
41
1
10
13.8524341317391
20
5.61387938168261
30
0
0
SPLINE
5
10E
100
AcDbEntity
8
1
62
256
6
ByLayer
370
18
48
1
60
0
100
AcDbSpline
70
4
71
3
72
18
73
14
40
0
40
0
40
0
40
0
40
0.125000000000001
40
0.125000000000001
40
0.250000000000001
40
0.250000000000001
40
0.500000000000001
40
0.500000000000001
40
0.75
40
0.75
40
0.875
40
0.875
40
1
40
1
40
1
40
1
41
1
10
13.8524341317391
20
5.61387938168261
30
0
41
1
10
13.8638016333535
20
5.59142551696846
30
0
41
1
10
13.8676928202805
20
5.56533357612435
30
0
41
1
10
13.8680119057423
20
5.51213349216795
30
0
41
1
10
13.8642630850328
20
5.48499448550697
30
0
41
1
10
13.8457650711803
20
5.40466833075101
30
0
41
1
10
13.8238864611729
20
5.35235754040156
30
0
41
1
10
13.7682440687004
20
5.25597623415808
30
0
41
1
10
13.7344878907483
20
5.21193263405286
30
0
41
1
10
13.6760325295402
20
5.15892087400181
30
0
41
1
10
13.6551861977154
20
5.14341562812038
30
0
41
1
10
13.6106818236098
20
5.12016964933116
30
0
41
1
10
13.587174170946
20
5.11231504675504
30
0
41
1
10
13.5632447440139
20
5.11298866913282
30
0
0
SPLINE
5
10F
100
AcDbEntity
8
1
62
256
6
ByLayer
370
18
48
1
60
0
100
AcDbSpline
70
4
71
3
72
8
73
4
40
0
40
0
40
0
40
0
40
1
40
1
40
1
40
1
41
1
10
14.9597773593831
20
5.92796606881885
30
0
41
1
10
14.9562028819512
20
5.92198973572954
30
0
41
1
10
14.9526279469072
20
5.91601264404895
30
0
41
1
10
14.9490525311318
20
5.91003475546577
30
0
0
SPLINE
5
110
100
AcDbEntity
8
1
62
256
6
ByLayer
370
18
48
1
60
0
100
AcDbSpline
70
4
71
3
72
18
73
14
40
0
40
0
40
0
40
0
40
0.25
40
0.25
40
0.5
40
0.5
40
0.625
40
0.625
40
0.75
40
0.75
40
0.875
40
0.875
40
1
40
1
40
1
40
1
41
1
10
14.0188948210045
20
5.9340190928877
30
0
41
1
10
13.9900018332706
20
5.91740131731316
30
0
41
1
10
13.9624217578395
20
5.89845499053908
30
0
41
1
10
13.9109943976471
20
5.85579378319935
30
0
41
1
10
13.8871087109833
20
5.83212650936389
30
0
41
1
10
13.8566389235468
20
5.79239035324005
30
0
41
1
10
13.847456853995
20
5.77850337768496
30
0
41
1
10
13.8321242358856
20
5.74937749062474
30
0
41
1
10
13.8258460346363
20
5.73383538639769
30
0
41
1
10
13.8187933164602
20
5.70221520777682
30
0
41
1
10
13.8180634534825
20
5.68591218309908
30
0
41
1
10
13.8249867393366
20
5.65574286147711
30
0
41
1
10
13.8325972643617
20
5.64249769682857
30
0
41
1
10
13.843177455404
20
5.63216504707199
30
0
0
SPLINE
5
111
100
AcDbEntity
8
1
62
256
6
ByLayer
370
18
48
1
60
0
100
AcDbSpline
70
4
71
3
72
8
73
4
40
0
40
0
40
0
40
0
40
1
40
1
40
1
40
1
41
1
10
15.7584510429734
20
4.5134400049015
30
0
41
1
10
15.7652734436816
20
4.51381531076922
30
0
41
1
10
15.7720948235597
20
4.51419075166007
30
0
41
1
10
15.7789152318933
20
4.51456632073536
30
0
0
SPLINE
5
112
100
AcDbEntity
8
1
62
256
6
ByLayer
370
18
48
1
60
0
100
AcDbSpline
70
4
71
3
72
16
73
12
40
0
40
0
40
0
40
0
40
0.125
40
0.125
40
0.25
40
0.25
40
0.5
40
0.5
40
0.75
40
0.75
40
1
40
1
40
1
40
1
41
1
10
15.4767864792019
20
5.62947071431796
30
0
41
1
10
15.4880641126856
20
5.63976254921141
30
0
41
1
10
15.496348993119
20
5.6530023508432
30
0
41
1
10
15.504460206955
20
5.68285840312612
30
0
41
1
10
15.5043024232282
20
5.69922766474218
30
0
41
1
10
15.4949819204511
20
5.74678684146474
30
0
41
1
10
15.4782561903871
20
5.77643406420788
30
0
41
1
10
15.4383239940189
20
5.82946240516358
30
0
41
1
10
15.4145393150163
20
5.85328112680492
30
0
41
1
10
15.3632872220157
20
5.89611103752262
30
0
41
1
10
15.335680333873
20
5.91517395442483
30
0
41
1
10
15.3067185148983
20
5.93189506840611
30
0
0
SPLINE
5
113
100
AcDbEntity
8
1
62
256
6
ByLayer
370
18
48
1
60
0
100
AcDbSpline
70
4
71
3
72
8
73
4
40
0
40
0
40
0
40
0
40
1
40
1
40
1
40
1
41
1
10
15.4794858246342
20
3.9959393740823
30
0
41
1
10
15.4760782066234
20
4.00147493124172
30
0
41
1
10
15.4726701574193
20
4.00701155250127
30
0
41
1
10
15.4692616552482
20
4.01254929235171
30
0
0
SPLINE
5
114
100
AcDbEntity
8
1
62
256
6
ByLayer
370
18
48
1
60
0
100
AcDbSpline
70
4
71
3
72
18
73
14
40
0
40
0
40
0
40
0
40
0.125
40
0.125
40
0.25
40
0.25
40
0.499999999999999
40
0.499999999999999
40
0.749999999999999
40
0.749999999999999
40
0.874999999999999
40
0.874999999999999
40
1
40
1
40
1
40
1
41
1
10
14.9526790160265
20
3.7154372579941
30
0
41
1
10
14.9393632524386
20
3.73555721802697
30
0
41
1
10
14.9188902921129
20
3.75115712182321
30
0
41
1
10
14.8739040807383
20
3.77629122392
30
0
41
1
10
14.8486856873204
20
3.78601116162329
30
0
41
1
10
14.7709582877484
20
3.80848871449743
30
0
41
1
10
14.7151174606107
20
3.81526599608213
30
0
41
1
10
14.6033909467726
20
3.81551421183173
30
0
41
1
10
14.5478402441968
20
3.80896550453662
30
0
41
1
10
14.4715149600378
20
3.78661846093914
30
0
41
1
10
14.447202302702
20
3.77703803239626
30
0
41
1
10
14.4037698403312
20
3.75182253800148
30
0
41
1
10
14.3846323191527
20
3.73636753583816
30
0
41
1
10
14.3726432558556
20
3.71639391856857
30
0
0
SPLINE
5
115
100
AcDbEntity
8
1
62
256
6
ByLayer
370
18
48
1
60
0
100
AcDbSpline
70
4
71
3
72
8
73
4
40
0
40
0
40
0
40
0
40
1
40
1
40
1
40
1
41
1
10
15.7779315439982
20
5.10985323232401
30
0
41
1
10
15.7711107816576
20
5.10969189352377
30
0
41
1
10
15.7642890477165
20
5.10953071682729
30
0
41
1
10
15.7574662928864
20
5.10936971080031
30
0
0
SPLINE
5
116
100
AcDbEntity
8
1
62
256
6
ByLayer
370
18
48
1
60
0
100
AcDbSpline
70
4
71
3
72
16
73
12
40
0
40
0
40
0
40
0
40
0.124999999999999
40
0.124999999999999
40
0.249999999999998
40
0.249999999999998
40
0.499999999999998
40
0.499999999999998
40
0.749999999999999
40
0.749999999999999
40
1
40
1
40
1
40
1
41
1
10
14.3628859206551
20
3.70013835233544
30
0
41
1
10
14.3603460478091
20
3.68649756423213
30
0
41
1
10
14.3537546468964
20
3.67397089074481
30
0
41
1
10
14.3332541406292
20
3.65426999011689
30
0
41
1
10
14.319560302011
20
3.64719411692698
30
0
41
1
10
14.2750830643176
20
3.6338600425463
30
0
41
1
10
14.2415864454806
20
3.63445923384657
30
0
41
1
10
14.1764787726307
20
3.64388237043124
30
0
41
1
10
14.1441935251989
20
3.65297767565994
30
0
41
1
10
14.0817805665484
20
3.67647640001573
30
0
41
1
10
14.0515355582978
20
3.69096995885454
30
0
41
1
10
14.0225737393231
20
3.70769107283579
30
0
0
SPLINE
5
117
100
AcDbEntity
8
1
62
256
6
ByLayer
370
18
48
1
60
0
100
AcDbSpline
70
4
71
3
72
8
73
4
40
0
40
0
40
0
40
0
40
1
40
1
40
1
40
1
41
1
10
13.5632447440139
20
5.11298866913282
30
0
41
1
10
13.5567446695383
20
5.11317164867666
30
0
41
1
10
13.5502457902744
20
5.1133547952349
30
0
41
1
10
13.5437480481448
20
5.11353810041896
30
0
0
SPLINE
5
118
100
AcDbEntity
8
1
62
256
6
ByLayer
370
18
48
1
60
0
100
AcDbSpline
70
4
71
3
72
8
73
4
40
0
40
0
40
0
40
0
40
1
40
1
40
1
40
1
41
1
10
14.3690167709608
20
5.91099141604022
30
0
41
1
10
14.3657448288553
20
5.91698059806041
30
0
41
1
10
14.3624735449984
20
5.92296898129948
30
0
41
1
10
14.3592028873277
20
5.92895660415977
30
0
0
SPLINE
5
119
100
AcDbEntity
8
1
62
256
6
ByLayer
370
18
48
1
60
0
100
AcDbSpline
70
4
71
3
72
18
73
14
40
0
40
0
40
0
40
0
40
0.125
40
0.125
40
0.249999999999999
40
0.249999999999999
40
0.5
40
0.5
40
0.75
40
0.75
40
0.875
40
0.875
40
1
40
1
40
1
40
1
41
1
10
15.7574662928864
20
5.10936971080031
30
0
41
1
10
15.7323356204644
20
5.10877666740024
30
0
41
1
10
15.7077646345197
20
5.11671604222792
30
0
41
1
10
15.6614503972189
20
5.14005790956841
30
0
41
1
10
15.6397682046841
20
5.15563818862543
30
0
41
1
10
15.5792719131774
20
5.20887272108857
30
0
41
1
10
15.5447612629853
20
5.25301976878771
30
0
41
1
10
15.4887949731972
20
5.34958181847782
30
0
41
1
10
15.4673589060553
20
5.40197755673748
30
0
41
1
10
15.4504168605527
20
5.48230714028657
30
0
41
1
10
15.4473246298819
20
5.50942806436197
30
0
41
1
10
15.449274240586
20
5.56272597340293
30
0
41
1
10
15.454142540528
20
5.58881444477942
30
0
41
1
10
15.4666199204406
20
5.61121708392454
30
0
0
SPLINE
5
11A
100
AcDbEntity
8
1
62
256
6
ByLayer
370
18
48
1
60
0
100
AcDbSpline
70
4
71
3
72
8
73
4
40
0
40
0
40
0
40
0
40
1
40
1
40
1
40
1
41
1
10
15.4666199204406
20
5.61121708392454
30
0
41
1
10
15.470009215927
20
5.6173024291067
30
0
41
1
10
15.473398061641
20
5.62338695951206
30
0
41
1
10
15.4767864792019
20
5.62947071431796
30
0
0
SPLINE
5
11B
100
AcDbEntity
8
1
62
256
6
ByLayer
370
18
48
1
60
0
100
AcDbSpline
70
4
71
3
72
16
73
12
40
0
40
0
40
0
40
0
40
0.125
40
0.125
40
0.25
40
0.25
40
0.5
40
0.5
40
0.75
40
0.75
40
1
40
1
40
1
40
1
41
1
10
14.9634603927105
20
3.69914781699455
30
0
41
1
10
14.9667817658051
20
3.68549736186154
30
0
41
1
10
14.9741488634007
20
3.67294766643985
30
0
41
1
10
14.9960183023485
20
3.65317688450645
30
0
41
1
10
15.0102984584283
20
3.64605487344079
30
0
41
1
10
15.0561944018805
20
3.63257174538907
30
0
41
1
10
15.0902322685753
20
3.63305955117806
30
0
41
1
10
15.1560937104797
20
3.64226667868681
30
0
41
1
10
15.1885844570656
20
3.6512551480204
30
0
41
1
10
15.2512258463113
20
3.67454761860267
30
0
41
1
10
15.2814907184748
20
3.68894137770334
30
0
41
1
10
15.310397433217
20
3.7055670483542
30
0
0
SPLINE
5
11C
100
AcDbEntity
8
1
62
256
6
ByLayer
370
18
48
1
60
0
100
AcDbSpline
70
4
71
3
72
18
73
14
40
0
40
0
40
0
40
0
40
0.25
40
0.25
40
0.5
40
0.5
40
0.625
40
0.625
40
0.75
40
0.75
40
0.875
40
0.875
40
1
40
1
40
1
40
1
41
1
10
15.3067185148983
20
5.93189506840611
30
0
41
1
10
15.2777704490994
20
5.94860824198761
30
0
41
1
10
15.2474959635141
20
5.96297059832327
30
0
41
1
10
15.1847720845886
20
5.9859503915992
30
0
41
1
10
15.1523427567518
20
5.99462802199514
30
0
41
1
10
15.1028377467854
20
6.0007013947704
30
0
41
1
10
15.0862893301193
20
6.00153019275302
30
0
41
1
10
15.0536049697898
20
5.99978987955944
30
0
41
1
10
15.0371450883731
20
5.99717463601939
30
0
41
1
10
15.0066201614305
20
5.98676114186404
30
0
41
1
10
14.9923873148872
20
5.97880395514059
30
0
41
1
10
14.9703505413958
20
5.95668380551228
30
0
41
1
10
14.9630530461109
20
5.94288559450683
30
0
41
1
10
14.9597773593831
20
5.92796606881885
30
0
0
SPLINE
5
11D
100
AcDbEntity
8
1
62
256
6
ByLayer
370
18
48
1
60
0
100
AcDbSpline
70
4
71
3
72
10
73
6
40
0
40
0
40
0
40
0
40
0.375000000000405
40
0.750000000000811
40
1
40
1
40
1
40
1
41
1
10
13.2496900001963
20
2.36901716834672
30
0
41
1
10
13.4151645184647
20
2.27348041067867
30
0
41
1
10
13.7620264636332
20
2.10997504199966
30
0
41
1
10
14.2517397144756
20
1.97237554764368
30
0
41
1
10
14.5635250808515
20
1.9302400073623
30
0
41
1
10
14.6882269231629
20
1.92043573530697
30
0
0
SPLINE
5
11E
100
AcDbEntity
8
1
62
256
6
ByLayer
370
18
48
1
60
0
100
AcDbSpline
70
4
71
3
72
17
73
13
40
0
40
0
40
0
40
0
40
0.0625
40
0.125
40
0.25
40
0.375
40
0.5
40
0.625
40
0.75
40
0.875
40
0.9375
40
1
40
1
40
1
40
1
41
1
10
9.20927369102839
20
2.77081089461816
30
0
41
1
10
9.18660119902671
20
2.78390086397852
30
0
41
1
10
9.14253785653534
20
2.81230032841893
30
0
41
1
10
9.06038156943191
20
2.87742568111318
30
0
41
1
10
8.97039310735869
20
2.9732975732444
30
0
41
1
10
8.88690215829894
20
3.10708901684527
30
0
41
1
10
8.83111295707602
20
3.25448090764519
30
0
41
1
10
8.80516990545698
20
3.40980883097305
30
0
41
1
10
8.81006816409428
20
3.56710453009191
30
0
41
1
10
8.83970018670328
20
3.6947839822987
30
0
41
1
10
8.87803844939913
20
3.79195007520684
30
0
41
1
10
8.90189108916263
20
3.83840861082373
30
0
41
1
10
8.91493124723763
20
3.8609948271484
30
0
0
SPLINE
5
11F
100
AcDbEntity
8
1
62
256
6
ByLayer
370
18
48
1
60
0
100
AcDbSpline
70
4
71
3
72
8
73
4
40
0
40
0
40
0
40
0
40
1
40
1
40
1
40
1
41
1
10
8.91493127935024
20
3.86099482526669
30
0
41
1
10
9.52925134317422
20
4.9250283879187
30
0
41
1
10
10.1435714069817
20
5.98906195054215
30
0
41
1
10
10.7578914708219
20
7.05309551322242
30
0
0
SPLINE
5
120
100
AcDbEntity
8
1
62
256
6
ByLayer
370
18
48
1
60
0
100
AcDbSpline
70
4
71
3
72
8
73
4
40
0
40
0
40
0
40
0
40
1
40
1
40
1
40
1
41
1
10
13.6921498645559
20
10.5353801337051
30
0
41
1
10
14.0078385100669
20
9.59556906449009
30
0
41
1
10
14.3235271555778
20
8.65575799527505
30
0
41
1
10
14.6392158010888
20
7.71594692606004
30
0
0
SPLINE
5
121
100
AcDbEntity
8
1
62
256
6
ByLayer
370
18
48
1
60
0
100
AcDbSpline
70
4
71
3
72
8
73
4
40
0
40
0
40
0
40
0
40
1
40
1
40
1
40
1
41
1
10
18.5521201048819
20
2.55309551322239
30
0
41
1
10
18.0754970605476
20
2.83498320837137
30
0
41
1
10
17.5988740162132
20
3.11687090352035
30
0
41
1
10
17.1222509718789
20
3.39875859866933
30
0
0
SPLINE
5
122
100
AcDbEntity
8
1
62
256
6
ByLayer
370
18
48
1
60
0
100
AcDbSpline
70
4
71
3
72
10
73
6
40
0
40
0
40
0
40
0
40
0.375000000000406
40
0.750000000000812
40
1
40
1
40
1
40
1
41
1
10
16.0777527240571
20
7.26736549302018
30
0
41
1
10
15.9122782057885
20
7.36290225068822
30
0
41
1
10
15.5654162606201
20
7.52640761936723
30
0
41
1
10
15.0757030097777
20
7.66400711372322
30
0
41
1
10
14.7639176434018
20
7.70614265400459
30
0
41
1
10
14.6392158010904
20
7.71594692605993
30
0
0
SPLINE
5
123
100
AcDbEntity
8
1
62
256
6
ByLayer
370
18
48
1
60
0
100
AcDbSpline
70
4
71
3
72
10
73
6
40
0
40
0
40
0
40
0
40
0.249999999999985
40
0.624999999999992
40
1
40
1
40
1
40
1
41
1
10
12.1419386220491
20
3.39053597140321
30
0
41
1
10
12.2127802918689
20
3.28744314408865
30
0
41
1
10
12.4051634233381
20
3.03849686641431
30
0
41
1
10
12.7691847064259
20
2.68319249780018
30
0
41
1
10
13.0842154819362
20
2.46455392600768
30
0
41
1
10
13.249690000206
20
2.36901716834109
30
0
0
SPLINE
5
124
100
AcDbEntity
8
1
62
256
6
ByLayer
370
18
48
1
60
0
100
AcDbSpline
70
4
71
3
72
8
73
4
40
0
40
0
40
0
40
0
40
1
40
1
40
1
40
1
41
1
10
20.100737852564
20
6.83538013370318
30
0
41
1
10
19.1289932691108
20
6.63886898579
30
0
41
1
10
18.1572486856575
20
6.44235783787681
30
0
41
1
10
17.1855041022042
20
6.24584668996363
30
0
0
SPLINE
5
125
100
AcDbEntity
8
1
62
256
6
ByLayer
370
18
48
1
60
0
100
AcDbSpline
70
4
71
3
72
8
73
4
40
0
40
0
40
0
40
0
40
1
40
1
40
1
40
1
41
1
10
12.4135677171454
20
0.920810892739723
30
0
41
1
10
12.6922751448323
20
1.40354631794017
30
0
41
1
10
12.9709825725192
20
1.88628174314064
30
0
41
1
10
13.249690000206
20
2.36901716834109
30
0
0
SPLINE
5
126
100
AcDbEntity
8
1
62
256
6
ByLayer
370
18
48
1
60
0
100
AcDbSpline
70
4
71
3
72
8
73
4
40
0
40
0
40
0
40
0
40
1
40
1
40
1
40
1
41
1
10
9.20927372313975
20
2.77081089274162
30
0
41
1
10
10.1868286894428
20
2.97738591896217
30
0
41
1
10
11.164383655746
20
3.18396094518272
30
0
41
1
10
12.1419386220491
20
3.39053597140324
30
0
0
SPLINE
5
127
100
AcDbEntity
8
1
62
256
6
ByLayer
370
18
48
1
60
0
100
AcDbSpline
70
4
71
3
72
17
73
13
40
0
40
0
40
0
40
0
40
0.0625
40
0.125
40
0.25
40
0.375
40
0.5
40
0.625
40
0.75
40
0.875
40
0.9375
40
1
40
1
40
1
40
1
41
1
10
20.1007378988867
20
6.83538015644143
30
0
41
1
10
20.1234103908883
20
6.82229018708105
30
0
41
1
10
20.1674737333797
20
6.79389072264064
30
0
41
1
10
20.2496300204831
20
6.72876536994636
30
0
41
1
10
20.3396184825564
20
6.63289347781514
30
0
41
1
10
20.4231094316162
20
6.49910203421427
30
0
41
1
10
20.4788986328391
20
6.35171014341435
30
0
41
1
10
20.5048416844581
20
6.19638222008646
30
0
41
1
10
20.4999434258208
20
6.03908652096763
30
0
41
1
10
20.4703114032118
20
5.91140706876081
30
0
41
1
10
20.4319731405159
20
5.81424097585264
30
0
41
1
10
20.4081205007524
20
5.76778244023578
30
0
41
1
10
20.3950803426774
20
5.74519622391111
30
0
0
SPLINE
5
128
100
AcDbEntity
8
1
62
256
6
ByLayer
370
18
48
1
60
0
100
AcDbSpline
70
4
71
3
72
8
73
4
40
0
40
0
40
0
40
0
40
1
40
1
40
1
40
1
41
1
10
13.6921498645526
20
10.535380133707
30
0
41
1
10
14.7602478625546
20
9.91871346703965
30
0
41
1
10
15.8283458605279
20
9.30204680038887
30
0
41
1
10
16.8964438585583
20
8.68538013370511
30
0
0
SPLINE
5
129
100
AcDbEntity
8
1
62
256
6
ByLayer
370
18
48
1
60
0
100
AcDbSpline
70
4
71
3
72
8
73
4
40
0
40
0
40
0
40
0
40
1
40
1
40
1
40
1
41
1
10
15.6178617111478
20
-0.929189107260299
30
0
41
1
10
15.3079834484867
20
0.0206858402621037
30
0
41
1
10
14.9981051858256
20
0.970560787784478
30
0
41
1
10
14.6882269231645
20
1.92043573530685
30
0
0
SPLINE
5
12A
100
AcDbEntity
8
1
62
256
6
ByLayer
370
18
48
1
60
0
100
AcDbSpline
70
4
71
3
72
8
73
4
40
0
40
0
40
0
40
0
40
1
40
1
40
1
40
1
41
1
10
12.4135677171454
20
0.920810892739723
30
0
41
1
10
11.345469719115
20
1.53747755942348
30
0
41
1
10
10.2773717211418
20
2.15414422607427
30
0
41
1
10
9.20927372313975
20
2.77081089274162
30
0
0
SPLINE
5
12B
100
AcDbEntity
8
1
62
256
6
ByLayer
370
18
48
1
60
0
100
AcDbSpline
70
4
71
3
72
8
73
4
40
0
40
0
40
0
40
0
40
1
40
1
40
1
40
1
41
1
10
10.7578914708219
20
7.05309551322242
30
0
41
1
10
11.3722115346622
20
8.11712907590268
30
0
41
1
10
11.9865315984696
20
9.1811626385261
30
0
41
1
10
12.6008516622936
20
10.2451962011781
30
0
0
SPLINE
5
12C
100
AcDbEntity
8
1
62
256
6
ByLayer
370
18
48
1
60
0
100
AcDbSpline
70
4
71
3
72
8
73
4
40
0
40
0
40
0
40
0
40
1
40
1
40
1
40
1
41
1
10
8.91493127935217
20
3.86099482526998
30
0
41
1
10
9.8634547431646
20
4.17509657153784
30
0
41
1
10
10.811978206977
20
4.48919831780569
30
0
41
1
10
11.7605016707894
20
4.80330006407351
30
0
0
SPLINE
5
12D
100
AcDbEntity
8
1
62
256
6
ByLayer
370
18
48
1
60
0
100
AcDbSpline
70
4
71
3
72
8
73
4
40
0
40
0
40
0
40
0
40
1
40
1
40
1
40
1
41
1
10
16.0777527240571
20
7.26736549302018
30
0
41
1
10
16.3506497688908
20
7.74003703991514
30
0
41
1
10
16.6235468137245
20
8.21270858681012
30
0
41
1
10
16.8964438585583
20
8.68538013370511
30
0
0
SPLINE
5
12E
100
AcDbEntity
8
1
62
256
6
ByLayer
370
18
48
1
60
0
100
AcDbSpline
70
4
71
3
72
8
73
4
40
0
40
0
40
0
40
0
40
1
40
1
40
1
40
1
41
1
10
16.7091599134102
20
-0.639005174733313
30
0
41
1
10
16.5069182731406
20
0.339491114147535
30
0
41
1
10
16.3046766328709
20
1.31798740302841
30
0
41
1
10
16.1024349926012
20
2.29648369190926
30
0
0
SPLINE
5
12F
100
AcDbEntity
8
1
62
256
6
ByLayer
370
18
48
1
60
0
100
AcDbSpline
70
4
71
3
72
8
73
4
40
0
40
0
40
0
40
0
40
1
40
1
40
1
40
1
41
1
10
16.8964438585583
20
8.68538013370511
30
0
41
1
10
17.9645418565887
20
8.06871346702135
30
0
41
1
10
19.032639854562
20
7.45204680037057
30
0
41
1
10
20.100737852564
20
6.83538013370318
30
0
0
SPLINE
5
130
100
AcDbEntity
8
1
62
256
6
ByLayer
370
18
48
1
60
0
100
AcDbSpline
70
4
71
3
72
10
73
6
40
0
40
0
40
0
40
0
40
0.375000000000406
40
0.750000000000812
40
1
40
1
40
1
40
1
41
1
10
12.2051917523744
20
6.23762406269754
30
0
41
1
10
12.1100185409126
20
6.07277922492918
30
0
41
1
10
11.9473455587061
20
5.72711583562878
30
0
41
1
10
11.8110996869813
20
5.23878688216331
30
0
41
1
10
11.7699129655081
20
4.92773272389104
30
0
41
1
10
11.7605016707895
20
4.80330006407513
30
0
0
SPLINE
5
131
100
AcDbEntity
8
1
62
256
6
ByLayer
370
18
48
1
60
0
100
AcDbSpline
70
4
71
3
72
10
73
6
40
0
40
0
40
0
40
0
40
0.375000000000406
40
0.750000000000812
40
1
40
1
40
1
40
1
41
1
10
17.1222509718789
20
3.39875859866933
30
0
41
1
10
17.2174241833407
20
3.56360343643769
30
0
41
1
10
17.3800971655472
20
3.90926682573809
30
0
41
1
10
17.516343037272
20
4.39759577920358
30
0
41
1
10
17.5575297587452
20
4.70864993747585
30
0
41
1
10
17.5669410534638
20
4.83308259729176
30
0
0
SPLINE
5
132
100
AcDbEntity
8
1
62
256
6
ByLayer
370
18
48
1
60
0
100
AcDbSpline
70
4
71
3
72
8
73
4
40
0
40
0
40
0
40
0
40
1
40
1
40
1
40
1
41
1
10
20.3950802963516
20
5.74519620117482
30
0
41
1
10
19.452367215389
20
5.44115833321433
30
0
41
1
10
18.5096541344265
20
5.13712046525384
30
0
41
1
10
17.566941053464
20
4.83308259729338
30
0
0
SPLINE
5
133
100
AcDbEntity
8
1
62
256
6
ByLayer
370
18
48
1
60
0
100
AcDbSpline
70
4
71
3
72
10
73
6
40
0
40
0
40
0
40
0
40
0.249999999999984
40
0.624999999999992
40
1
40
1
40
1
40
1
41
1
10
13.2250077316521
20
7.33989896945764
30
0
41
1
10
13.1219515345484
20
7.26953221924225
30
0
41
1
10
12.8731640922632
20
7.07833639301634
30
0
41
1
10
12.5183817490283
20
6.71617953020277
30
0
41
1
10
12.3003649638291
20
6.40246890045756
30
0
41
1
10
12.2051917523688
20
6.23762406268781
30
0
0
SPLINE
5
134
100
AcDbEntity
8
1
62
256
6
ByLayer
370
18
48
1
60
0
100
AcDbSpline
70
4
71
3
72
8
73
4
40
0
40
0
40
0
40
0
40
1
40
1
40
1
40
1
41
1
10
18.5521201048819
20
2.55309551322239
30
0
41
1
10
17.9378000410416
20
1.48906195054212
30
0
41
1
10
17.3234799772342
20
0.425028387918701
30
0
41
1
10
16.7091599134102
20
-0.639005174733313
30
0
0
SPLINE
5
135
100
AcDbEntity
8
1
62
256
6
ByLayer
370
18
48
1
60
0
100
AcDbSpline
70
4
71
3
72
29
73
25
40
0
40
0
40
0
40
0
40
0.125000000000944
40
0.171875000000893
40
0.218750000000841
40
0.242187500000815
40
0.265625000000789
40
0.277343750000776
40
0.289062500000763
40
0.312500000000737
40
0.359375000000686
40
0.406250000000634
40
0.50000000000053
40
0.593750000000427
40
0.640625000000375
40
0.687500000000323
40
0.710937500000298
40
0.722656250000285
40
0.734375000000272
40
0.757812500000246
40
0.78125000000022
40
0.828125000000168
40
0.875000000000116
40
1
40
1
40
1
40
1
41
1
10
14.6882269231629
20
1.92043573530697
30
0
41
1
10
14.7505778443194
20
1.91553359927923
30
0
41
1
10
14.8363061313273
20
1.91121658051082
30
0
41
1
10
14.9451287432095
20
1.9099727040302
30
0
41
1
10
15.0033115792327
20
1.91054128937276
30
0
41
1
10
15.0497762512948
20
1.91174372951883
30
0
41
1
10
15.0787743475787
20
1.91279818645413
30
0
41
1
10
15.1019389464938
20
1.91381229897965
30
0
41
1
10
15.125132023452
20
1.91503026447086
30
0
41
1
10
15.165856939302
20
1.9178412629459
30
0
41
1
10
15.2243081626527
20
1.92379077147461
30
0
41
1
10
15.3180053315163
20
1.93758743473043
30
0
41
1
10
15.4346185839626
20
1.96294636833326
30
0
41
1
10
15.5483855834533
20
1.99884721933219
30
0
41
1
10
15.6364812739134
20
2.03339058015763
30
0
41
1
10
15.6900993662067
20
2.05724107057608
30
0
41
1
10
15.726784686399
20
2.07501397859571
30
0
41
1
10
15.7474842618628
20
2.0854673765551
30
0
41
1
10
15.768056464113
20
2.09608319054939
30
0
41
1
10
15.7937009871309
20
2.10955859369031
30
0
41
1
10
15.8345466752668
20
2.13157259720313
30
0
41
1
10
15.8852213178889
20
2.15994998769131
30
0
41
1
10
15.9788384641005
20
2.21502403174796
30
0
41
1
10
16.0509068940494
20
2.26130031680154
30
0
41
1
10
16.1024349926012
20
2.29648369190923
30
0
0
SPLINE
5
136
100
AcDbEntity
8
1
62
256
6
ByLayer
370
18
48
1
60
0
100
AcDbSpline
70
4
71
3
72
29
73
25
40
0
40
0
40
0
40
0
40
0.125000000000946
40
0.171875000000894
40
0.218750000000842
40
0.242187500000817
40
0.265625000000791
40
0.277343750000778
40
0.289062500000765
40
0.312500000000739
40
0.359375000000687
40
0.406250000000635
40
0.500000000000532
40
0.593750000000428
40
0.640625000000376
40
0.687500000000324
40
0.710937500000298
40
0.722656250000285
40
0.734375000000272
40
0.757812500000247
40
0.781250000000221
40
0.828125000000169
40
0.875000000000117
40
1
40
1
40
1
40
1
41
1
10
11.7605016707894
20
4.80330006407513
30
0
41
1
10
11.7557960234301
20
4.74108373416635
30
0
41
1
10
11.751753799954
20
4.65553250049263
30
0
41
1
10
11.7508668518171
20
4.5469206516145
30
0
41
1
10
11.751628632232
20
4.48884642844374
30
0
41
1
10
11.7529867895395
20
4.44246602339041
30
0
41
1
10
11.7541390096329
20
4.41351951339843
30
0
41
1
10
11.7552315471774
20
4.3903955560728
30
0
41
1
10
11.7565284217993
20
4.36724250170624
30
0
41
1
10
11.7594792640717
20
4.32658564186073
30
0
41
1
10
11.7656331505093
20
4.26822577439791
30
0
41
1
10
11.7797655820548
20
4.17466098447755
30
0
41
1
10
11.8055580728784
20
4.05818545290879
30
0
41
1
10
11.841903255905
20
3.94451596209717
30
0
41
1
10
11.876803590057
20
3.85647351219978
30
0
41
1
10
11.90087675491
20
3.80287849245215
30
0
41
1
10
11.918804799264
20
3.7662041560362
30
0
41
1
10
11.9293465458416
20
3.74550937457533
30
0
41
1
10
11.9400505986872
20
3.72494118818176
30
0
41
1
10
11.9536364603525
20
3.69930087170346
30
0
41
1
10
11.9758274523882
20
3.65846006477986
30
0
41
1
10
12.0044264611428
20
3.60778795820397
30
0
41
1
10
12.0599149957145
20
3.51416675004842
30
0
41
1
10
12.1065177871392
20
3.4420823850605
30
0
41
1
10
12.1419386220491
20
3.39053597140321
30
0
0
SPLINE
5
137
100
AcDbEntity
8
1
62
256
6
ByLayer
370
18
48
1
60
0
100
AcDbSpline
70
4
71
3
72
29
73
25
40
0
40
0
40
0
40
0
40
0.125000000000945
40
0.171875000000894
40
0.218750000000842
40
0.242187500000816
40
0.26562500000079
40
0.277343750000777
40
0.289062500000764
40
0.312500000000738
40
0.359375000000687
40
0.406250000000635
40
0.500000000000531
40
0.593750000000427
40
0.640625000000376
40
0.687500000000324
40
0.710937500000298
40
0.722656250000285
40
0.734375000000272
40
0.757812500000246
40
0.78125000000022
40
0.828125000000168
40
0.875000000000117
40
1
40
1
40
1
40
1
41
1
10
14.6392158010904
20
7.71594692605993
30
0
41
1
10
14.5768648799339
20
7.72084906208767
30
0
41
1
10
14.491136592926
20
7.72516608085607
30
0
41
1
10
14.3823139810437
20
7.7264099573367
30
0
41
1
10
14.3241311450206
20
7.72584137199414
30
0
41
1
10
14.2776664729585
20
7.72463893184806
30
0
41
1
10
14.2486683766746
20
7.72358447491274
30
0
41
1
10
14.2255037777595
20
7.72257036238724
30
0
41
1
10
14.2023107008013
20
7.72135239689601
30
0
41
1
10
14.1615857849512
20
7.718541398421
30
0
41
1
10
14.1031345616005
20
7.71259188989228
30
0
41
1
10
14.0094373927371
20
7.69879522663646
30
0
41
1
10
13.8928241402907
20
7.67343629303363
30
0
41
1
10
13.7790571407999
20
7.6375354420347
30
0
41
1
10
13.6909614503399
20
7.60299208120927
30
0
41
1
10
13.6373433580466
20
7.57914159079081
30
0
41
1
10
13.6006580378543
20
7.56136868277119
30
0
41
1
10
13.5799584623906
20
7.55091528481177
30
0
41
1
10
13.5593862601403
20
7.5402994708175
30
0
41
1
10
13.5337417371223
20
7.52682406767659
30
0
41
1
10
13.4928960489865
20
7.50481006416376
30
0
41
1
10
13.4422214063644
20
7.47643267367559
30
0
41
1
10
13.3486042601527
20
7.42135862961894
30
0
41
1
10
13.2765358302038
20
7.37508234456536
30
0
41
1
10
13.2250077316521
20
7.33989896945764
30
0
0
SPLINE
5
138
100
AcDbEntity
8
1
62
256
6
ByLayer
370
18
48
1
60
0
100
AcDbSpline
70
4
71
3
72
8
73
4
40
0
40
0
40
0
40
0
40
1
40
1
40
1
40
1
41
1
10
10.7578914708219
20
7.05309551322242
30
0
41
1
10
11.2403248980061
20
6.7812716963808
30
0
41
1
10
11.7227583251902
20
6.50944787953918
30
0
41
1
10
12.2051917523744
20
6.23762406269754
30
0
0
SPLINE
5
139
100
AcDbEntity
8
1
62
256
6
ByLayer
370
18
48
1
60
0
100
AcDbSpline
70
4
71
3
72
29
73
25
40
0
40
0
40
0
40
0
40
0.125000000000945
40
0.171875000000893
40
0.218750000000841
40
0.242187500000815
40
0.26562500000079
40
0.277343750000777
40
0.289062500000764
40
0.312500000000738
40
0.359375000000686
40
0.406250000000634
40
0.50000000000053
40
0.593750000000427
40
0.640625000000375
40
0.687500000000323
40
0.710937500000297
40
0.722656250000284
40
0.734375000000271
40
0.757812500000245
40
0.781250000000219
40
0.828125000000168
40
0.875000000000116
40
1
40
1
40
1
40
1
41
1
10
17.5669410534638
20
4.83308259729176
30
0
41
1
10
17.5716467008232
20
4.89529892720051
30
0
41
1
10
17.5756889242993
20
4.98085016087424
30
0
41
1
10
17.5765758724363
20
5.08946200975237
30
0
41
1
10
17.5758140920212
20
5.14753623292316
30
0
41
1
10
17.5744559347138
20
5.19391663797646
30
0
41
1
10
17.5733037146204
20
5.22286314796847
30
0
41
1
10
17.5722111770759
20
5.24598710529409
30
0
41
1
10
17.5709143024541
20
5.26914015966062
30
0
41
1
10
17.5679634601817
20
5.30979701950616
30
0
41
1
10
17.561809573744
20
5.36815688696899
30
0
41
1
10
17.5476771421985
20
5.46172167688934
30
0
41
1
10
17.5218846513749
20
5.57819720845811
30
0
41
1
10
17.4855394683482
20
5.69186669926972
30
0
41
1
10
17.4506391341963
20
5.77990914916708
30
0
41
1
10
17.4265659693433
20
5.83350416891474
30
0
41
1
10
17.4086379249894
20
5.8701785053307
30
0
41
1
10
17.3980961784117
20
5.89087328679153
30
0
41
1
10
17.3873921255661
20
5.91144147318513
30
0
41
1
10
17.3738062639009
20
5.93708178966344
30
0
41
1
10
17.3516152718651
20
5.97792259658704
30
0
41
1
10
17.3230162631105
20
6.02859470316292
30
0
41
1
10
17.2675277285388
20
6.12221591131845
30
0
41
1
10
17.2209249371141
20
6.19430027630639
30
0
41
1
10
17.1855041022042
20
6.24584668996368
30
0
0
SPLINE
5
13A
100
AcDbEntity
8
1
62
256
6
ByLayer
370
18
48
1
60
0
100
AcDbSpline
70
4
71
3
72
10
73
6
40
0
40
0
40
0
40
0
40
0.249999999999984
40
0.624999999999992
40
1
40
1
40
1
40
1
41
1
10
17.1855041022042
20
6.24584668996368
30
0
41
1
10
17.1146624323844
20
6.34893951727824
30
0
41
1
10
16.9222793009152
20
6.59788579495256
30
0
41
1
10
16.5582580178274
20
6.95319016356672
30
0
41
1
10
16.2432272423172
20
7.17182873535921
30
0
41
1
10
16.0777527240473
20
7.26736549302581
30
0
0
SPLINE
5
13B
100
AcDbEntity
8
1
62
256
6
ByLayer
370
18
48
1
60
0
100
AcDbSpline
70
4
71
3
72
10
73
6
40
0
40
0
40
0
40
0
40
0.249999999999985
40
0.624999999999992
40
1
40
1
40
1
40
1
41
1
10
16.1024349926012
20
2.29648369190926
30
0
41
1
10
16.2054911897048
20
2.36685044212464
30
0
41
1
10
16.4542786319901
20
2.55804626835052
30
0
41
1
10
16.809060975225
20
2.92020313116413
30
0
41
1
10
17.0270777604242
20
3.23391376090933
30
0
41
1
10
17.1222509718845
20
3.39875859867908
30
0
0
SPLINE
5
13C
100
AcDbEntity
8
1
62
256
6
ByLayer
370
18
48
1
60
0
100
AcDbSpline
70
4
71
3
72
17
73
13
40
0
40
0
40
0
40
0
40
0.0625
40
0.125
40
0.25
40
0.375
40
0.5
40
0.625
40
0.75
40
0.875
40
0.9375
40
1
40
1
40
1
40
1
41
1
10
12.6008516588189
20
10.2451962526624
30
0
41
1
10
12.6138918168939
20
10.2677824689871
30
0
41
1
10
12.6422001376441
20
10.3116683655927
30
0
41
1
10
12.7071788489622
20
10.3934536067739
30
0
41
1
10
12.8029370747041
20
10.4829546311134
30
0
41
1
10
12.9367088663479
20
10.565845279226
30
0
41
1
10
13.084198595502
20
10.6210418798779
30
0
41
1
10
13.2397380886869
20
10.6464228062217
30
0
41
1
10
13.3973509543958
20
10.6410144933159
30
0
41
1
10
13.5253725664465
20
10.6110171726757
30
0
41
1
10
13.6228511763869
20
10.5724308937146
30
0
41
1
10
13.6694773690814
20
10.548470154553
30
0
41
1
10
13.6921498610832
20
10.5353801851926
30
0
0
SPLINE
5
13D
100
AcDbEntity
8
1
62
256
6
ByLayer
370
18
48
1
60
0
100
AcDbSpline
70
4
71
3
72
8
73
4
40
0
40
0
40
0
40
0
40
1
40
1
40
1
40
1
41
1
10
12.6008516622936
20
10.2451962011781
30
0
41
1
10
12.808903685413
20
9.27676379060463
30
0
41
1
10
13.0169557085326
20
8.30833138003112
30
0
41
1
10
13.2250077316521
20
7.33989896945764
30
0
0
SPLINE
5
13E
100
AcDbEntity
8
1
62
256
6
ByLayer
370
18
48
1
60
0
100
AcDbSpline
70
4
71
3
72
8
73
4
40
0
40
0
40
0
40
0
40
1
40
1
40
1
40
1
41
1
10
15.6178617111512
20
-0.929189107262204
30
0
41
1
10
14.5497637131492
20
-0.312522440594819
30
0
41
1
10
13.4816657151758
20
0.304144226055968
30
0
41
1
10
12.4135677171454
20
0.920810892739723
30
0
0
SPLINE
5
13F
100
AcDbEntity
8
1
62
256
6
ByLayer
370
18
48
1
60
0
100
AcDbSpline
70
4
71
3
72
17
73
13
40
0
40
0
40
0
40
0
40
0.0625
40
0.125
40
0.25
40
0.375
40
0.5
40
0.625
40
0.75
40
0.875
40
0.9375
40
1
40
1
40
1
40
1
41
1
10
16.7091599310962
20
-0.639005201602913
30
0
41
1
10
16.6961197730212
20
-0.661591417927497
30
0
41
1
10
16.667811452271
20
-0.705477314533198
30
0
41
1
10
16.6028327409529
20
-0.787262555714392
30
0
41
1
10
16.507074515211
20
-0.876763580053904
30
0
41
1
10
16.3733027235671
20
-0.959654228166414
30
0
41
1
10
16.2258129944131
20
-1.01485082881843
30
0
41
1
10
16.0702735012281
20
-1.04023175516221
30
0
41
1
10
15.9126606355192
20
-1.03482344225637
30
0
41
1
10
15.7846390234685
20
-1.00482612161619
30
0
41
1
10
15.6871604135282
20
-0.966239842655114
30
0
41
1
10
15.6405342208336
20
-0.942279103493519
30
0
41
1
10
15.6178617288319
20
-0.929189134133082
30
0
0
SPLINE
5
140
100
AcDbEntity
8
1
62
256
6
ByLayer
370
18
48
1
60
0
100
AcDbSpline
70
4
71
3
72
8
73
4
40
0
40
0
40
0
40
0
40
1
40
1
40
1
40
1
41
1
10
20.3950802963535
20
5.74519620117815
30
0
41
1
10
19.7807602325295
20
4.6811626385261
30
0
41
1
10
19.1664401687221
20
3.61712907590268
30
0
41
1
10
18.5521201048819
20
2.55309551322242
30
0
0
SPLINE
5
141
100
AcDbEntity
8
1
62
256
6
ByLayer
370
18
48
1
60
0
100
AcDbSpline
70
4
71
3
72
22
73
18
40
0
40
0
40
0
40
0
40
0.121725373529089
40
0.121725373529089
40
0.243450747058177
40
0.243450747058177
40
0.486901494116354
40
0.486901494116354
40
0.608626867645443
40
0.608626867645443
40
0.730352241174531
40
0.730352241174531
40
0.85207761470362
40
0.85207761470362
40
0.973802988232709
40
0.973802988232709
40
1
40
1
40
1
40
1
41
1
10
5.74512320358855
20
3.23424050524014
30
0
41
1
10
5.70881044781157
20
3.17515785264129
30
0
41
1
10
5.67676147013452
20
3.11345769784711
30
0
41
1
10
5.61602632124681
20
2.98997117897818
30
0
41
1
10
5.58762987054354
20
2.92840397329434
30
0
41
1
10
5.50490599591973
20
2.74572884784803
30
0
41
1
10
5.45302442716581
20
2.62661991898554
30
0
41
1
10
5.37549203722284
20
2.45466546459414
30
0
41
1
10
5.34979068570721
20
2.39856118933051
30
0
41
1
10
5.2992207355897
20
2.29122507782887
30
0
41
1
10
5.27422367721545
20
2.23969605104583
30
0
41
1
10
5.22445437946726
20
2.14126598062239
30
0
41
1
10
5.19968447937703
20
2.09436213123246
30
0
41
1
10
5.15002766023741
20
2.00570758461271
30
0
41
1
10
5.125086869999
20
1.96391493056822
30
0
41
1
10
5.09527893433392
20
1.91789692492577
30
0
41
1
10
5.09001207656303
20
1.90991276713183
30
0
41
1
10
5.08475535422406
20
1.90209727430189
30
0
0
SPLINE
5
142
100
AcDbEntity
8
1
62
256
6
ByLayer
370
18
48
1
60
0
100
AcDbSpline
70
4
71
3
72
8
73
4
40
0
40
0
40
0
40
0
40
1
40
1
40
1
40
1
41
1
10
11.0491983922711
20
-2.06024011168887
30
0
41
1
10
10.5898900717729
20
-1.77336198290766
30
0
41
1
10
10.1663050390027
20
-1.46282611123075
30
0
41
1
10
9.77002783813924
20
-1.1342056312389
30
0
0
SPLINE
5
143
100
AcDbEntity
8
1
62
256
6
ByLayer
370
18
48
1
60
0
100
AcDbSpline
70
4
71
3
72
20
73
16
40
0
40
0
40
0
40
0
40
0.25
40
0.25
40
0.375
40
0.375
40
0.5
40
0.5
40
0.625
40
0.625
40
0.75
40
0.75
40
0.875
40
0.875
40
1
40
1
40
1
40
1
41
1
10
13.8051660375158
20
-2.564073571482
30
0
41
1
10
13.7086939744061
20
-2.62204546185112
30
0
41
1
10
13.6057637583297
20
-2.68258645339412
30
0
41
1
10
13.4526783524576
20
-2.77106310664362
30
0
41
1
10
13.4022950313823
20
-2.79992293992058
30
0
41
1
10
13.3027381940394
20
-2.85645673546381
30
0
41
1
10
13.2532869875078
20
-2.88428192663605
30
0
41
1
10
13.1586340524895
20
-2.93704441520058
30
0
41
1
10
13.1130804262237
20
-2.96218425852217
30
0
41
1
10
13.0254841417952
20
-3.01000545138189
30
0
41
1
10
12.9832404627099
20
-3.03278938483118
30
0
41
1
10
12.9051764964068
20
-3.07431257548188
30
0
41
1
10
12.8689992537545
20
-3.09324990829006
30
0
41
1
10
12.8025534732981
20
-3.12734873901593
30
0
41
1
10
12.7720459808091
20
-3.14262154308472
30
0
41
1
10
12.7458628378901
20
-3.15528427987604
30
0
0
SPLINE
5
144
100
AcDbEntity
8
1
62
256
6
ByLayer
370
18
48
1
60
0
100
AcDbSpline
70
4
71
3
72
28
73
24
40
0
40
0
40
0
40
0
40
0.125
40
0.125
40
0.249999999999999
40
0.249999999999999
40
0.374999999999998
40
0.374999999999998
40
0.499999999999997
40
0.499999999999997
40
0.562499999999997
40
0.562499999999997
40
0.624999999999997
40
0.624999999999997
40
0.687499999999996
40
0.687499999999996
40
0.749999999999996
40
0.749999999999996
40
0.874999999999998
40
0.874999999999998
40
0.937499999999999
40
0.937499999999999
40
1
40
1
40
1
40
1
41
1
10
1.47011249602542
20
6.94782646156133
30
0
41
1
10
1.44445752182804
20
6.99096770580681
30
0
41
1
10
1.43246881401063
20
7.0306939159322
30
0
41
1
10
1.4378950996591
20
7.10319732617117
30
0
41
1
10
1.45593457265863
20
7.13616264435112
30
0
41
1
10
1.52235847934969
20
7.19227194520161
30
0
41
1
10
1.57067081982871
20
7.21594872792843
30
0
41
1
10
1.69824344732069
20
7.25551426523069
30
0
41
1
10
1.77512673506328
20
7.27074834213116
30
0
41
1
10
1.90894101485702
20
7.28882790515908
30
0
41
1
10
1.95695119751753
20
7.29407513901964
30
0
41
1
10
2.05773447925083
20
7.3030985653761
30
0
41
1
10
2.11032661225869
20
7.306873816809
30
0
41
1
10
2.21967895861542
20
7.31330087408878
30
0
41
1
10
2.27643999224864
20
7.31595181066439
30
0
41
1
10
2.394046384425
20
7.3204028188002
30
0
41
1
10
2.45521979485426
20
7.32220847177879
30
0
41
1
10
2.64167455804301
20
7.32660929163487
30
0
41
1
10
2.77014682035542
20
7.3282531398186
30
0
41
1
10
2.9687257085464
20
7.32984936163319
30
0
41
1
10
3.03621110539143
20
7.33022936808683
30
0
41
1
10
3.17162708709952
20
7.33076973166419
30
0
41
1
10
3.2393338835646
20
7.33093063830685
30
0
41
1
10
3.30703953542923
20
7.33100964527134
30
0
0
SPLINE
5
145
100
AcDbEntity
8
1
62
256
6
ByLayer
370
18
48
1
60
0
100
AcDbSpline
70
4
71
3
72
14
73
10
40
0
40
0
40
0
40
0
40
0.25
40
0.25
40
0.5
40
0.5
40
0.75
40
0.75
40
1
40
1
40
1
40
1
41
1
10
15.1672178574825
20
-1.44342492056086
30
0
41
1
10
15.195954082553
20
-1.42866562246272
30
0
41
1
10
15.2258763140651
20
-1.41094154850541
30
0
41
1
10
15.2870236356798
20
-1.36840003177778
30
0
41
1
10
15.3185665565448
20
-1.34329236414627
30
0
41
1
10
15.3803570841298
20
-1.2857892793694
30
0
41
1
10
15.4103079248132
20
-1.25374343043495
30
0
41
1
10
15.4671947193717
20
-1.18261672527714
30
0
41
1
10
15.4942927312341
20
-1.14321685871067
30
0
41
1
10
15.5186255887577
20
-1.10107111318638
30
0
0
SPLINE
5
146
100
AcDbEntity
8
1
62
256
6
ByLayer
370
18
48
1
60
0
100
AcDbSpline
70
4
71
3
72
26
73
22
40
0
40
0
40
0
40
0
40
0.25
40
0.25
40
0.3125
40
0.3125
40
0.375
40
0.375
40
0.5
40
0.5
40
0.625
40
0.625
40
0.75
40
0.75
40
0.8125
40
0.8125
40
0.875
40
0.875
40
0.9375
40
0.9375
40
1
40
1
40
1
40
1
41
1
10
14.6392152649354
20
-0.718941715425331
30
0
41
1
10
14.2964919544971
20
-0.916813110964426
30
0
41
1
10
13.9525081325384
20
-1.10493653099695
30
0
41
1
10
13.5204419844246
20
-1.32395617354004
30
0
41
1
10
13.4337105700193
20
-1.3670405471201
30
0
41
1
10
13.2615037156194
20
-1.45068394965858
30
0
41
1
10
13.175952080659
20
-1.49128658012486
30
0
41
1
10
12.9210656960379
20
-1.60918729186773
30
0
41
1
10
12.7534815933407
20
-1.68261768083875
30
0
41
1
10
12.4239213561663
20
-1.8170888131329
30
0
41
1
10
12.2612459005586
20
-1.87831074323765
30
0
41
1
10
11.9529078919838
20
-1.98166521423806
30
0
41
1
10
11.8060752995166
20
-2.02437801696109
30
0
41
1
10
11.6000787118534
20
-2.07103219613953
30
0
41
1
10
11.5339462715621
20
-2.08357756746361
30
0
41
1
10
11.4105176370183
20
-2.10130356501565
30
0
41
1
10
11.3528031223236
20
-2.10659228771971
30
0
41
1
10
11.2465583121584
20
-2.10896259430524
30
0
41
1
10
11.197745151815
20
-2.10596916873342
30
0
41
1
10
11.1133807911997
20
-2.09047853440146
30
0
41
1
10
11.0775929716536
20
-2.07806059517796
30
0
41
1
10
11.0491983922686
20
-2.06024011169077
30
0
0
SPLINE
5
147
100
AcDbEntity
8
1
62
256
6
ByLayer
370
18
48
1
60
0
100
AcDbSpline
70
4
71
3
72
12
73
8
40
0
40
0
40
0
40
0
40
0.500000000000015
40
0.500000000000015
40
0.750000000000007
40
0.750000000000007
40
1
40
1
40
1
40
1
41
1
10
15.2718237619436
20
-1.52854441662922
30
0
41
1
10
15.2259228626459
20
-1.60804710632604
30
0
41
1
10
15.1710812578741
20
-1.6789062932651
30
0
41
1
10
15.077057512526
20
-1.77362688382704
30
0
41
1
10
15.0435503340001
20
-1.80335282709652
30
0
41
1
10
14.9741171818323
20
-1.85769641278438
30
0
41
1
10
14.938069051317
20
-1.88247128730177
30
0
41
1
10
14.9007590792717
20
-1.90494506254461
30
0
0
SPLINE
5
148
100
AcDbEntity
8
1
62
256
6
ByLayer
370
18
48
1
60
0
100
AcDbSpline
70
4
71
3
72
18
73
14
40
0
40
0
40
0
40
0
40
0.124999999999995
40
0.124999999999995
40
0.249999999999991
40
0.249999999999991
40
0.499999999999993
40
0.499999999999993
40
0.749999999999996
40
0.749999999999996
40
0.874999999999998
40
0.874999999999998
40
1
40
1
40
1
40
1
41
1
10
10.924480476171
20
-4.07429841315303
30
0
41
1
10
10.96989308304
20
-4.0487388652584
30
0
41
1
10
11.0149702207478
20
-4.02353969584198
30
0
41
1
10
11.1023304305897
20
-3.97501317668227
30
0
41
1
10
11.1447416383087
20
-3.95161189653464
30
0
41
1
10
11.2685545098352
20
-3.88373182002147
30
0
41
1
10
11.3465910534283
20
-3.84153899639463
30
0
41
1
10
11.4939786447411
20
-3.76305352670471
30
0
41
1
10
11.5613112650531
20
-3.72783756752165
30
0
41
1
10
11.6524810692577
20
-3.68121039047088
30
0
41
1
10
11.6812271355049
20
-3.66670574707291
30
0
41
1
10
11.7351652562443
20
-3.63994005336411
30
0
41
1
10
11.7604513178991
20
-3.62763643035007
30
0
41
1
10
11.7832559776717
20
-3.61682281989187
30
0
0
SPLINE
5
149
100
AcDbEntity
8
1
62
256
6
ByLayer
370
18
48
1
60
0
100
AcDbSpline
70
4
71
3
72
10
73
6
40
0
40
0
40
0
40
0
40
0.480613686182231
40
0.480613686182231
40
1
40
1
40
1
40
1
41
1
10
10.0997313193748
20
2.2337667361675
30
0
41
1
10
10.0904827556271
20
2.21023954192796
30
0
41
1
10
10.0817907730441
20
2.19064146546546
30
0
41
1
10
10.0666461233234
20
2.15839175972349
30
0
41
1
10
10.0603092368677
20
2.14613879667775
30
0
41
1
10
10.0561547393904
20
2.13831278659347
30
0
0
SPLINE
5
14A
100
AcDbEntity
8
1
62
256
6
ByLayer
370
18
48
1
60
0
100
AcDbSpline
70
4
71
3
72
12
73
8
40
0
40
0
40
0
40
0
40
0.341132767360563
40
0.341132767360563
40
0.729055681200837
40
0.729055681200837
40
1
40
1
40
1
40
1
41
1
10
10.0516875626484
20
2.12991186086182
30
0
41
1
10
10.0534910540891
20
2.13302410646665
30
0
41
1
10
10.0575295250305
20
2.13999009414187
30
0
41
1
10
10.0706297202494
20
2.16294618225339
30
0
41
1
10
10.0802042922772
20
2.17987354603548
30
0
41
1
10
10.0999914648471
20
2.21698661375024
30
0
41
1
10
10.1092251796662
20
2.23483374394334
30
0
41
1
10
10.1190484634095
20
2.25498071840772
30
0
0
SPLINE
5
14B
100
AcDbEntity
8
1
62
256
6
ByLayer
370
18
48
1
60
0
100
AcDbSpline
70
4
71
3
72
22
73
18
40
0
40
0
40
0
40
0
40
0.0934993024638393
40
0.0934993024638393
40
0.194221602190079
40
0.194221602190079
40
0.294943901916318
40
0.294943901916318
40
0.395666201642557
40
0.395666201642557
40
0.597110801095035
40
0.597110801095035
40
0.798555400547513
40
0.798555400547513
40
0.899277700273757
40
0.899277700273757
40
1
40
1
40
1
40
1
41
1
10
3.14893112648099
20
4.15394172430103
30
0
41
1
10
3.19362132010485
20
4.15314714158967
30
0
41
1
10
3.24263101011553
20
4.15041192868287
30
0
41
1
10
3.35021452303278
20
4.14166891316967
30
0
41
1
10
3.40901163579002
20
4.13547082133405
30
0
41
1
10
3.53169644924117
20
4.12065361282012
30
0
41
1
10
3.59559081443945
20
4.11202806507089
30
0
41
1
10
3.72792091073796
20
4.0929653674435
30
0
41
1
10
3.79654467456771
20
4.08249238275033
30
0
41
1
10
4.00455682088659
20
4.04974042019174
30
0
41
1
10
4.14733193579974
20
4.02596245262456
30
0
41
1
10
4.43967952524304
20
3.97780297619235
30
0
41
1
10
4.58981712280558
20
3.9531918525046
30
0
41
1
10
4.81797978381326
20
3.91937171972973
30
0
41
1
10
4.89437526781012
20
3.90864378391507
30
0
41
1
10
5.04799933709177
20
3.88964757992795
30
0
41
1
10
5.12538300847649
20
3.8812706342936
30
0
41
1
10
5.20296112814918
20
3.87589989906695
30
0
0
SPLINE
5
14C
100
AcDbEntity
8
1
62
256
6
ByLayer
370
18
48
1
60
0
100
AcDbSpline
70
4
71
3
72
38
73
34
40
0
40
0
40
0
40
0
40
0.0624999999999991
40
0.0624999999999991
40
0.124999999999998
40
0.124999999999998
40
0.187499999999997
40
0.187499999999997
40
0.249999999999996
40
0.249999999999996
40
0.374999999999995
40
0.374999999999995
40
0.499999999999993
40
0.499999999999993
40
0.531249999999993
40
0.531249999999993
40
0.562499999999993
40
0.562499999999993
40
0.624999999999994
40
0.624999999999994
40
0.687499999999995
40
0.687499999999995
40
0.718749999999996
40
0.718749999999996
40
0.749999999999996
40
0.749999999999996
40
0.874999999999998
40
0.874999999999998
40
0.906249999999998
40
0.906249999999998
40
0.937499999999999
40
0.937499999999999
40
1
40
1
40
1
40
1
41
1
10
9.7700278381393
20
-1.13420563123884
30
0
41
1
10
9.50300942549057
20
-1.02648211142895
30
0
41
1
10
9.23917754937139
20
-0.91055013964467
30
0
41
1
10
8.71772995144244
20
-0.662310032513091
30
0
41
1
10
8.46040498738614
20
-0.530103838336373
30
0
41
1
10
7.95524811265153
20
-0.251248577197572
30
0
41
1
10
7.70700401665971
20
-0.104408508800418
30
0
41
1
10
7.21903835667257
20
0.203901027415355
30
0
41
1
10
6.97864263080038
20
0.365866342849415
30
0
41
1
10
6.27548048803038
20
0.869765447950101
30
0
41
1
10
5.83206760494591
20
1.22841780767732
30
0
41
1
10
4.99451575073186
20
1.98450438316399
30
0
41
1
10
4.60038658803615
20
2.38200699256825
30
0
41
1
10
4.13851296159618
20
2.8988713223097
30
0
41
1
10
4.04796340724914
20
3.00293785475313
30
0
41
1
10
3.8719266117273
20
3.21048523293803
30
0
41
1
10
3.7862126955352
20
3.31421807791134
30
0
41
1
10
3.53579267253826
20
3.62490378221779
30
0
41
1
10
3.37780603109223
20
3.83135206115722
30
0
41
1
10
3.07879341816988
20
4.24066993437702
30
0
41
1
10
2.93776822776397
20
4.44354647428551
30
0
41
1
10
2.73827980886705
20
4.7432557406886
30
0
41
1
10
2.6739623643241
20
4.8421465624333
30
0
41
1
10
2.55084987496957
20
5.03537760756012
30
0
41
1
10
2.49183795811666
20
5.13004134514628
30
0
41
1
10
2.20864128484203
20
5.5929942579931
30
0
41
1
10
2.01980615897872
20
5.93050165705543
30
0
41
1
10
1.81971719589262
20
6.29909552432827
30
0
41
1
10
1.78153873877437
20
6.37007906841427
30
0
41
1
10
1.70942907964212
20
6.50466504487349
30
0
41
1
10
1.675369369377
20
6.56850354296188
30
0
41
1
10
1.57862052548632
20
6.74946963191934
30
0
41
1
10
1.52133589981384
20
6.85607911383138
30
0
41
1
10
1.47011249602542
20
6.94782646156131
30
0
0
SPLINE
5
14D
100
AcDbEntity
8
1
62
256
6
ByLayer
370
18
48
1
60
0
100
AcDbSpline
70
4
71
3
72
8
73
4
40
0
40
0
40
0
40
0
40
1
40
1
40
1
40
1
41
1
10
12.7458628378901
20
-3.15528427987601
30
0
41
1
10
12.4142558109084
20
-3.31565664288104
30
0
41
1
10
12.0914342821505
20
-3.47068952215565
30
0
41
1
10
11.7832559776717
20
-3.61682281989187
30
0
0
LINE
5
81
100
AcDbEntity
8
1
62
256
6
ByLayer
370
18
48
1
60
0
100
AcDbLine
10
15.415946
20
5.523447
30
0
11
15.46662
21
5.611217
31
0
39
0
210
0
220
0
230
1
0
LINE
5
82
100
AcDbEntity
8
1
62
256
6
ByLayer
370
18
48
1
60
0
100
AcDbLine
10
15.425629
20
5.540863
30
0
11
15.415946
21
5.523447
31
0
39
0
210
0
220
0
230
1
0
LINE
5
83
100
AcDbEntity
8
1
62
256
6
ByLayer
370
18
48
1
60
0
100
AcDbLine
10
15.418588
20
3.924779
30
0
11
15.428328
21
3.907331
31
0
39
0
210
0
220
0
230
1
0
LINE
5
84
100
AcDbEntity
8
1
62
256
6
ByLayer
370
18
48
1
60
0
100
AcDbLine
10
14.308045
20
5.840349
30
0
11
14.318343
21
5.823221
31
0
39
0
210
0
220
0
230
1
0
LINE
5
85
100
AcDbEntity
8
1
62
256
6
ByLayer
370
18
48
1
60
0
100
AcDbLine
10
15.706792
20
5.0216
30
0
11
15.757466
21
5.10937
31
0
39
0
210
0
220
0
230
1
0
LINE
5
86
100
AcDbEntity
8
1
62
256
6
ByLayer
370
18
48
1
60
0
100
AcDbLine
10
14.898378
20
5.822265
30
0
11
14.90862
21
5.839358
31
0
39
0
210
0
220
0
230
1
0
LINE
5
87
100
AcDbEntity
8
1
62
256
6
ByLayer
370
18
48
1
60
0
100
AcDbLine
10
14.308045
20
5.840349
30
0
11
14.359203
21
5.928957
31
0
39
0
210
0
220
0
230
1
0
LINE
5
88
100
AcDbEntity
8
1
62
256
6
ByLayer
370
18
48
1
60
0
100
AcDbLine
10
15.418588
20
3.924779
30
0
11
15.469262
21
4.012549
31
0
39
0
210
0
220
0
230
1
0
LINE
5
89
100
AcDbEntity
8
1
62
256
6
ByLayer
370
18
48
1
60
0
100
AcDbLine
10
14.898378
20
5.822265
30
0
11
14.949053
21
5.910035
31
0
39
0
210
0
220
0
230
1
0
LINE
5
8A
100
AcDbEntity
8
1
62
256
6
ByLayer
370
18
48
1
60
0
100
AcDbLine
10
15.428328
20
3.907331
30
0
11
15.479486
21
3.995939
31
0
39
0
210
0
220
0
230
1
0
LINE
5
8B
100
AcDbEntity
8
1
62
256
6
ByLayer
370
18
48
1
60
0
100
AcDbLine
10
15.706792
20
5.0216
30
0
11
15.726774
21
5.021245
31
0
39
0
210
0
220
0
230
1
0
LINE
5
8C
100
AcDbEntity
8
1
62
256
6
ByLayer
370
18
48
1
60
0
100
AcDbLine
10
13.49259
20
5.02493
30
0
11
13.512571
21
5.025219
31
0
39
0
210
0
220
0
230
1
0
LINE
5
8D
100
AcDbEntity
8
1
62
256
6
ByLayer
370
18
48
1
60
0
100
AcDbLine
10
13.49259
20
5.02493
30
0
11
13.543748
21
5.113538
31
0
39
0
210
0
220
0
230
1
0
LINE
5
8E
100
AcDbEntity
8
1
62
256
6
ByLayer
370
18
48
1
60
0
100
AcDbLine
10
14.318343
20
5.823221
30
0
11
14.369017
21
5.910991
31
0
39
0
210
0
220
0
230
1
0
LINE
5
8F
100
AcDbEntity
8
1
62
256
6
ByLayer
370
18
48
1
60
0
100
AcDbLine
10
13.512571
20
5.025219
30
0
11
13.563245
21
5.112989
31
0
39
0
210
0
220
0
230
1
0
LINE
5
90
100
AcDbEntity
8
1
62
256
6
ByLayer
370
18
48
1
60
0
100
AcDbLine
10
15.726774
20
5.021245
30
0
11
15.777932
21
5.109853
31
0
39
0
210
0
220
0
230
1
0
LINE
5
91
100
AcDbEntity
8
1
62
256
6
ByLayer
370
18
48
1
60
0
100
AcDbLine
10
14.90862
20
5.839358
30
0
11
14.959777
21
5.927966
31
0
39
0
210
0
220
0
230
1
0
LINE
5
92
100
AcDbEntity
8
1
62
256
6
ByLayer
370
18
48
1
60
0
100
AcDbLine
10
12.802501
20
5.794462
30
0
11
12.802415
21
5.794314
31
0
39
0
210
0
220
0
230
1
0
LINE
5
93
100
AcDbEntity
8
1
62
256
6
ByLayer
370
18
48
1
60
0
100
AcDbLine
10
14.342672
20
3.665127
30
0
11
14.362886
21
3.700138
31
0
39
0
210
0
220
0
230
1
0
LINE
5
94
100
AcDbEntity
8
1
62
256
6
ByLayer
370
18
48
1
60
0
100
AcDbLine
10
13.826388
20
3.964878
30
0
11
13.845877
21
3.998634
31
0
39
0
210
0
220
0
230
1
0
LINE
5
95
100
AcDbEntity
8
SK1
62
256
6
ByLayer
370
18
48
1
60
0
100
AcDbLine
10
-23.395
20
-5.09215
30
0
11
-23.395
21
5.09215
31
0
39
0
210
0
220
0
230
1
0
LINE
5
97
100
AcDbEntity
8
SK1
62
256
6
ByLayer
370
18
48
1
60
0
100
AcDbLine
10
-52.7
20
6.93475
30
0
11
-52.7
21
-6.93475
31
0
39
0
210
0
220
0
230
1
0
LINE
5
98
100
AcDbEntity
8
SK1
62
256
6
ByLayer
370
18
48
1
60
0
100
AcDbLine
10
-52.7
20
6.93475
30
0
11
-52.7
21
0.697023
31
0
39
0
210
0
220
0
230
1
0
LINE
5
99
100
AcDbEntity
8
SK1
62
256
6
ByLayer
370
18
48
1
60
0
100
AcDbLine
10
-4.275
20
-7.93475
30
0
11
-4.275
21
7.93475
31
0
39
0
210
0
220
0
230
1
0
LINE
5
9A
100
AcDbEntity
8
SK1
62
256
6
ByLayer
370
18
48
1
60
0
100
AcDbLine
10
-33.58
20
5.09215
30
0
11
-23.395
21
5.09215
31
0
39
0
210
0
220
0
230
1
0
LINE
5
9B
100
AcDbEntity
8
SK1
62
256
6
ByLayer
370
18
48
1
60
0
100
AcDbLine
10
-51.7
20
7.93475
30
0
11
-51.7
21
-7.93475
31
0
39
0
210
0
220
0
230
1
0
LINE
5
9C
100
AcDbEntity
8
SK1
62
256
6
ByLayer
370
18
48
1
60
0
100
AcDbLine
10
-23.395
20
-5.09215
30
0
11
-33.58
21
-5.09215
31
0
39
0
210
0
220
0
230
1
0
LINE
5
9D
100
AcDbEntity
8
SK1
62
256
6
ByLayer
370
18
48
1
60
0
100
AcDbLine
10
-33.58
20
-5.09215
30
0
11
-33.58
21
5.09215
31
0
39
0
210
0
220
0
230
1
0
LINE
5
9E
100
AcDbEntity
8
1
62
256
6
ByLayer
370
18
48
1
60
0
100
AcDbLine
10
-4.275
20
-7.93475
30
0
11
-4.275
21
7.93475
31
0
39
0
210
0
220
0
230
1
0
LINE
5
9F
100
AcDbEntity
8
1
62
256
6
ByLayer
370
18
48
1
60
0
100
AcDbLine
10
14.639215
20
-0.718942
30
0
11
14.839548
21
-0.603279
31
0
39
0
210
0
220
0
230
1
0
LINE
5
A0
100
AcDbEntity
8
1
62
256
6
ByLayer
370
18
48
1
60
0
100
AcDbLine
10
14.900759
20
-1.904945
30
0
11
15.167218
21
-1.443425
31
0
39
0
210
0
220
0
230
1
0
LINE
5
A1
100
AcDbEntity
8
1
62
256
6
ByLayer
370
18
48
1
60
0
100
AcDbLine
10
0
20
7.93475
30
0
11
0
21
-7.93475
31
0
39
0
210
0
220
0
230
1
0
LINE
5
A2
100
AcDbEntity
8
1
62
256
6
ByLayer
370
18
48
1
60
0
100
AcDbLine
10
0.454696
20
7.480054
30
0
11
0.454696
21
-7.480054
31
0
39
0
210
0
220
0
230
1
0
LINE
5
A3
100
AcDbEntity
8
1
62
256
6
ByLayer
370
18
48
1
60
0
100
AcDbLine
10
9.986752
20
7.332963
30
0
11
10.686289
21
6.929085
31
0
39
0
210
0
220
0
230
1
0
LINE
5
A4
100
AcDbEntity
8
1
62
256
6
ByLayer
370
18
48
1
60
0
100
AcDbLine
10
14.913808
20
-1.458972
30
0
11
14.878986
21
-1.34101
31
0
39
0
210
0
220
0
230
1
0
LINE
5
A5
100
AcDbEntity
8
1
62
256
6
ByLayer
370
18
48
1
60
0
100
AcDbLine
10
15.518626
20
-1.101071
30
0
11
15.569286
21
-1.013325
31
0
39
0
210
0
220
0
230
1
0
LINE
5
A6
100
AcDbEntity
8
1
62
256
6
ByLayer
370
18
48
1
60
0
100
AcDbLine
10
0.80825
20
7.333607
30
0
11
0.80825
21
-7.333607
31
0
39
0
210
0
220
0
230
1
0
LINE
5
A7
100
AcDbEntity
8
1
62
256
6
ByLayer
370
18
48
1
60
0
100
AcDbLine
10
0.80825
20
7.333607
30
0
11
0.80825
21
0.737113
31
0
39
0
210
0
220
0
230
1
0
LINE
5
A8
100
AcDbEntity
8
1
62
256
6
ByLayer
370
18
48
1
60
0
100
AcDbLine
10
15.518626
20
-1.101071
30
0
11
15.271824
21
-1.528544
31
0
39
0
210
0
220
0
230
1
0
LINE
5
A9
100
AcDbEntity
8
1
62
256
6
ByLayer
370
18
48
1
60
0
100
AcDbLine
10
15.569286
20
-1.013325
30
0
11
15.617702
21
-0.929466
31
0
39
0
210
0
220
0
230
1
0
LINE
5
AA
100
AcDbEntity
8
1
62
256
6
ByLayer
370
18
48
1
60
0
100
AcDbLine
10
5.24258
20
-7.15408
30
0
11
14.984451
21
-1.529608
31
0
39
0
210
0
220
0
230
1
0
LINE
5
AB
100
AcDbEntity
8
81
62
256
6
ByLayer
370
18
48
1
60
0
100
AcDbLine
10
20.5015
20
6.604
30
0
11
25.5015
21
6.604
31
0
39
0
210
0
220
0
230
1
0
LINE
5
AC
100
AcDbEntity
8
SK4
62
256
6
ByLayer
370
18
48
0.05
60
0
100
AcDbLine
10
-57.7
20
0
30
0
11
25.5015
21
0
31
0
39
0
210
0
220
0
230
1
0
LINE
5
AE
100
AcDbEntity
8
80
62
256
6
ByLayer
370
18
48
1
60
0
100
AcDbLine
10
0
20
0
30
0
11
-5
21
0
31
0
39
0
210
0
220
0
230
1
0
LINE
5
AF
100
AcDbEntity
8
1
62
256
6
ByLayer
370
18
48
1
60
0
100
AcDbLine
10
-4.275
20
-7.93475
30
0
11
0
21
-7.93475
31
0
39
0
210
0
220
0
230
1
0
LINE
5
B0
100
AcDbEntity
8
1
62
256
6
ByLayer
370
18
48
1
60
0
100
AcDbLine
10
0
20
7.93475
30
0
11
-4.275
21
7.93475
31
0
39
0
210
0
220
0
230
1
0
LINE
5
B1
100
AcDbEntity
8
1
62
256
6
ByLayer
370
18
48
1
60
0
100
AcDbLine
10
0.80825
20
-7.333607
30
0
11
3.974292
21
-7.333607
31
0
39
0
210
0
220
0
230
1
0
LINE
5
B2
100
AcDbEntity
8
1
62
256
6
ByLayer
370
18
48
1
60
0
100
AcDbLine
10
7.76407
20
7.333607
30
0
11
0.80825
21
7.333607
31
0
39
0
210
0
220
0
230
1
0
LINE
5
B3
100
AcDbEntity
8
SK1
62
256
6
ByLayer
370
18
48
1
60
0
100
AcDbLine
10
-52.7
20
-6.93475
30
0
11
-51.7
21
-7.93475
31
0
39
0
210
0
220
0
230
1
0
LINE
5
B4
100
AcDbEntity
8
SK1
62
256
6
ByLayer
370
18
48
1
60
0
100
AcDbLine
10
-51.7
20
7.93475
30
0
11
-52.7
21
6.93475
31
0
39
0
210
0
220
0
230
1
0
LINE
5
B5
100
AcDbEntity
8
1
62
256
6
ByLayer
370
18
48
1
60
0
100
AcDbLine
10
0.454696
20
7.480054
30
0
11
0
21
7.93475
31
0
39
0
210
0
220
0
230
1
0
LINE
5
B6
100
AcDbEntity
8
1
62
256
6
ByLayer
370
18
48
1
60
0
100
AcDbLine
10
0
20
-7.93475
30
0
11
0.454696
21
-7.480054
31
0
39
0
210
0
220
0
230
1
0
LINE
5
B7
100
AcDbEntity
8
SK1
62
256
6
ByLayer
370
18
48
1
60
0
100
AcDbLine
10
-51.7
20
-7.93475
30
0
11
-4.275
21
-7.93475
31
0
39
0
210
0
220
0
230
1
0
LINE
5
B8
100
AcDbEntity
8
SK1
62
256
6
ByLayer
370
18
48
1
60
0
100
AcDbLine
10
-4.275
20
7.93475
30
0
11
-51.7
21
7.93475
31
0
39
0
210
0
220
0
230
1
0
LINE
5
B9
100
AcDbEntity
8
1
62
256
6
ByLayer
370
18
48
1
60
0
100
AcDbLine
10
16.439722
20
3.694314
30
0
11
16.471866
21
3.749989
31
0
39
0
210
0
220
0
230
1
0
LINE
5
BA
100
AcDbEntity
8
1
62
256
6
ByLayer
370
18
48
1
60
0
100
AcDbLine
10
12.834559
20
5.849989
30
0
11
12.802415
21
5.794314
31
0
39
0
210
0
220
0
230
1
0
LINE
5
BB
100
AcDbEntity
8
1
62
256
6
ByLayer
370
18
48
1
60
0
100
AcDbLine
10
15.518408
20
4.309753
30
0
11
15.471349
21
4.228244
31
0
39
0
210
0
220
0
230
1
0
LINE
5
BC
100
AcDbEntity
8
1
62
256
6
ByLayer
370
18
48
1
60
0
100
AcDbLine
10
13.748998
20
5.222644
30
0
11
13.796057
21
5.304153
31
0
39
0
210
0
220
0
230
1
0
LINE
5
BD
100
AcDbEntity
8
4
62
256
6
ByLayer
370
18
48
0.05
60
0
100
AcDbLine
10
0
20
0
30
0
11
25.5015
21
0
31
0
39
0
210
0
220
0
230
1
0
LINE
5
BF
100
AcDbEntity
8
SK2
62
256
6
ByLayer
370
13
48
1
60
0
100
AcDbLine
10
12.718097
20
11.09775
30
0
11
7.014846
21
14.390523
31
0
39
0
210
0
220
0
230
1
0
LINE
5
C1
100
AcDbEntity
8
SK2
62
256
6
ByLayer
370
13
48
1
60
0
100
AcDbLine
10
20.5015
20
8.1915
30
0
11
20.5015
21
22.177046
31
0
39
0
210
0
220
0
230
1
0
LINE
5
C2
100
AcDbEntity
8
1
62
256
6
ByLayer
370
13
48
1
60
0
100
AcDbLine
10
9.764477
20
12.803023
30
0
11
8.729723
21
9.772409
31
0
39
0
210
0
220
0
230
1
0
LINE
5
C3
100
AcDbEntity
8
1
62
256
6
ByLayer
370
13
48
1
60
0
100
AcDbLine
10
9.764477
20
12.803023
30
0
11
7.980599
21
10.143487
31
0
39
0
210
0
220
0
230
1
0
LINE
5
C4
100
AcDbEntity
8
1
62
256
6
ByLayer
370
13
48
1
60
0
100
AcDbLine
10
8.729723
20
9.772409
30
0
11
7.980599
21
10.143487
31
0
39
0
210
0
220
0
230
1
0
LINE
5
C5
100
AcDbEntity
8
1
62
256
6
ByLayer
370
13
48
1
60
0
100
AcDbLine
10
20.5015
20
19.002046
30
0
11
23.696662
21
19.217162
31
0
39
0
210
0
220
0
230
1
0
LINE
5
C6
100
AcDbEntity
8
1
62
256
6
ByLayer
370
13
48
1
60
0
100
AcDbLine
10
20.5015
20
19.002046
30
0
11
23.643469
21
18.382863
31
0
39
0
210
0
220
0
230
1
0
LINE
5
C7
100
AcDbEntity
8
1
62
256
6
ByLayer
370
13
48
1
60
0
100
AcDbLine
10
23.696662
20
19.217162
30
0
11
23.643469
21
18.382863
31
0
39
0
210
0
220
0
230
1
0
MTEXT
5
14E
100
AcDbEntity
8
SK2
62
256
6
ByLayer
370
18
48
1
60
0
100
AcDbMText
10
9.890108
20
16.157579
30
0
210
0
220
0
230
1
1
\W0.9771;60%%d
40
4.5
41
0
44
1.084337
50
30
71
7
72
5
7
iso_b_vert
0
MTEXT
5
151
100
AcDbEntity
8
SK6
62
256
6
ByLayer
370
18
48
1
60
0
100
AcDbMText
10
-114.887403
20
-18.465919
30
0
210
0
220
0
230
1
1
\W0.7472;A495-013M16-6009L
40
4
41
0
44
1.084337
50
89.9999999999998
71
7
72
5
7
iso_b_vert
0
DIMENSION
5
154
100
AcDbEntity
8
2
62
256
6
ByLayer
370
18
48
1
60
0
100
AcDbDimension
2
_U0
10
45.398375
20
6.604
30
0
11
45.398375
21
29.257395
31
0
70
32
71
1
72
1
41
1
210
0
220
0
230
1
3
Standard
100
AcDbAlignedDimension
13
20.5015
23
-6.604
33
0
14
20.5015
24
6.604
34
0
50
90
100
AcDbRotatedDimension
1001
ACAD
1000
DSTYLE
1002
{
1070
   371
1070
    13
1070
   372
1070
    13
1070
   170
1070
     0
1070
   144
1040
1.0
1070
   277
1070
     2
1070
   284
1070
     8
1070
   278
1070
    46
1070
   146
1040
0.777778
1070
   345
1005
16
1070
   347
1005
16
1070
   346
1005
16
1070
   344
1005
155
1070
   343
1005
155
1070
   172
1070
     1
1070
    76
1070
     0
1070
    75
1070
     0
1070
   282
1070
     0
1070
   281
1070
     0
1070
    71
1070
     0
1070
    74
1070
     0
1070
   279
1070
     0
1070
   173
1070
     1
1070
   340
1005
14F
1070
   271
1070
     2
1070
   272
1070
     2
1070
    77
1070
     1
1070
    73
1070
     0
1070
   171
1070
     3
1070
   274
1070
     4
1070
   177
1070
   150
1070
   176
1070
     9
1070
   178
1070
    43
1070
    78
1070
     8
1070
    48
1040
-0.1
1070
    41
1040
3.175
1070
   147
1040
2.25
1070
    42
1040
1.5875
1070
    44
1040
3.175
1070
   140
1040
4.5
1002
}
1001
ACAD_DSTYLE_DIM_LINETYPE
1070
   380
1005
16
1001
ACAD_DSTYLE_DIM_EXT1_LINETYPE
1070
   381
1005
16
1001
ACAD_DSTYLE_DIM_EXT2_LINETYPE
1070
   382
1005
16
0
DIMENSION
5
17C
100
AcDbEntity
8
SK2
62
256
6
ByLayer
370
18
48
1
60
0
100
AcDbDimension
2
_U1
10
-0.0013
20
-31.104
30
0
11
10.2501
21
-31.104
31
0
70
32
71
1
72
1
41
1
210
0
220
0
230
1
3
Standard
100
AcDbAlignedDimension
13
20.5015
23
-6.604
33
0
14
-0.0013
24
0
34
0
50
0
100
AcDbRotatedDimension
1001
ACAD
1000
DSTYLE
1002
{
1070
   371
1070
    13
1070
   372
1070
    13
1070
   170
1070
     0
1070
   144
1040
1.0
1070
   277
1070
     2
1070
   284
1070
     8
1070
   278
1070
    46
1070
   146
1040
0.777778
1070
   345
1005
16
1070
   347
1005
16
1070
   346
1005
16
1070
   344
1005
155
1070
   343
1005
155
1070
   172
1070
     1
1070
    76
1070
     0
1070
    75
1070
     0
1070
   282
1070
     0
1070
   281
1070
     0
1070
    71
1070
     0
1070
    74
1070
     0
1070
   279
1070
     0
1070
   173
1070
     1
1070
   340
1005
14F
1070
   271
1070
     2
1070
   272
1070
     2
1070
    77
1070
     1
1070
    73
1070
     1
1070
   171
1070
     3
1070
   274
1070
     4
1070
   177
1070
   150
1070
   176
1070
     9
1070
   178
1070
    43
1070
    78
1070
     8
1070
    48
1040
-0.1
1070
    41
1040
3.175
1070
   147
1040
2.25
1070
    42
1040
1.5875
1070
    44
1040
3.175
1070
   140
1040
4.5
1002
}
1001
ACAD_DSTYLE_DIM_LINETYPE
1070
   380
1005
16
1001
ACAD_DSTYLE_DIM_EXT1_LINETYPE
1070
   381
1005
16
1001
ACAD_DSTYLE_DIM_EXT2_LINETYPE
1070
   382
1005
16
0
DIMENSION
5
199
100
AcDbEntity
8
2
62
256
6
ByLayer
370
18
48
1
60
0
100
AcDbDimension
2
_U2
10
20.5015
20
27.104
30
0
11
-16.09925
21
27.104
31
0
70
32
71
1
72
1
41
1
210
0
220
0
230
1
3
Standard
100
AcDbAlignedDimension
13
-52.7
23
7.93475
33
0
14
20.5015
24
6.604
34
0
50
0
100
AcDbRotatedDimension
1001
ACAD
1000
DSTYLE
1002
{
1070
   371
1070
    13
1070
   372
1070
    13
1070
   170
1070
     0
1070
   144
1040
1.0
1070
   277
1070
     2
1070
   284
1070
     8
1070
   278
1070
    46
1070
   146
1040
0.777778
1070
   345
1005
16
1070
   347
1005
16
1070
   346
1005
16
1070
   344
1005
155
1070
   343
1005
155
1070
   172
1070
     1
1070
    76
1070
     0
1070
    75
1070
     0
1070
   282
1070
     0
1070
   281
1070
     0
1070
    71
1070
     0
1070
    74
1070
     0
1070
   279
1070
     0
1070
   173
1070
     1
1070
   340
1005
14F
1070
   271
1070
     2
1070
   272
1070
     2
1070
    77
1070
     1
1070
    73
1070
     1
1070
   171
1070
     3
1070
   274
1070
     4
1070
   177
1070
   150
1070
   176
1070
     9
1070
   178
1070
    43
1070
    78
1070
     8
1070
    48
1040
-0.1
1070
    41
1040
3.175
1070
   147
1040
2.25
1070
    42
1040
1.5875
1070
    44
1040
3.175
1070
   140
1040
4.5
1002
}
1001
ACAD_DSTYLE_DIM_LINETYPE
1070
   380
1005
16
1001
ACAD_DSTYLE_DIM_EXT1_LINETYPE
1070
   381
1005
16
1001
ACAD_DSTYLE_DIM_EXT2_LINETYPE
1070
   382
1005
16
0
DIMENSION
5
1B5
100
AcDbEntity
8
SK2
62
256
6
ByLayer
370
18
48
1
60
0
100
AcDbDimension
2
_U3
10
13.2825
20
17.104
30
0
11
-19.70875
21
17.104
31
0
70
32
71
1
72
1
41
1
210
0
220
0
230
1
3
Standard
100
AcDbAlignedDimension
13
-52.7
23
7.93475
33
0
14
13.2825
24
10.64
34
0
50
0
100
AcDbRotatedDimension
1001
ACAD
1000
DSTYLE
1002
{
1070
   371
1070
    13
1070
   372
1070
    13
1070
   170
1070
     0
1070
   144
1040
1.0
1070
   277
1070
     2
1070
   284
1070
     8
1070
   278
1070
    46
1070
   146
1040
0.777778
1070
   345
1005
16
1070
   347
1005
16
1070
   346
1005
16
1070
   344
1005
155
1070
   343
1005
155
1070
   172
1070
     1
1070
    76
1070
     0
1070
    75
1070
     0
1070
   282
1070
     0
1070
   281
1070
     0
1070
    71
1070
     0
1070
    74
1070
     0
1070
   279
1070
     0
1070
   173
1070
     1
1070
   340
1005
14F
1070
   271
1070
     2
1070
   272
1070
     2
1070
    77
1070
     1
1070
    73
1070
     1
1070
   171
1070
     3
1070
   274
1070
     4
1070
   177
1070
   150
1070
   176
1070
     9
1070
   178
1070
    43
1070
    78
1070
     8
1070
    48
1040
-0.1
1070
    41
1040
3.175
1070
   147
1040
2.25
1070
    42
1040
1.5875
1070
    44
1040
3.175
1070
   140
1040
4.5
1002
}
1001
ACAD_DSTYLE_DIM_LINETYPE
1070
   380
1005
16
1001
ACAD_DSTYLE_DIM_EXT1_LINETYPE
1070
   381
1005
16
1001
ACAD_DSTYLE_DIM_EXT2_LINETYPE
1070
   382
1005
16
0
DIMENSION
5
1D1
100
AcDbEntity
8
SK2
62
256
6
ByLayer
370
18
48
1
60
0
100
AcDbDimension
2
_U4
10
56.2515
20
10.64
30
0
11
56.2515
21
34.024534
31
0
70
32
71
1
72
1
41
1
210
0
220
0
230
1
3
Standard
100
AcDbAlignedDimension
13
13.2825
23
-10.64
33
0
14
13.2825
24
10.64
34
0
50
90
100
AcDbRotatedDimension
1001
ACAD
1000
DSTYLE
1002
{
1070
   371
1070
    13
1070
   372
1070
    13
1070
   170
1070
     0
1070
   144
1040
1.0
1070
   277
1070
     2
1070
   284
1070
     8
1070
   278
1070
    46
1070
   146
1040
0.777778
1070
   345
1005
16
1070
   347
1005
16
1070
   346
1005
16
1070
   344
1005
155
1070
   343
1005
155
1070
   172
1070
     1
1070
    76
1070
     0
1070
    75
1070
     0
1070
   282
1070
     0
1070
   281
1070
     0
1070
    71
1070
     0
1070
    74
1070
     0
1070
   279
1070
     0
1070
   173
1070
     1
1070
   340
1005
14F
1070
   271
1070
     2
1070
   272
1070
     2
1070
    77
1070
     1
1070
    73
1070
     0
1070
   171
1070
     3
1070
   274
1070
     4
1070
   177
1070
   150
1070
   176
1070
     9
1070
   178
1070
    43
1070
    78
1070
     8
1070
    48
1040
-0.1
1070
    41
1040
3.175
1070
   147
1040
2.25
1070
    42
1040
1.5875
1070
    44
1040
3.175
1070
   140
1040
4.5
1002
}
1001
ACAD_DSTYLE_DIM_LINETYPE
1070
   380
1005
16
1001
ACAD_DSTYLE_DIM_EXT1_LINETYPE
1070
   381
1005
16
1001
ACAD_DSTYLE_DIM_EXT2_LINETYPE
1070
   382
1005
16
0
DIMENSION
5
1EF
100
AcDbEntity
8
SK2
62
256
6
ByLayer
370
18
48
1
60
0
100
AcDbDimension
2
_U5
10
-77.803125
20
-7.93475
30
0
11
-77.803125
21
31.319284
31
0
70
32
71
1
72
1
41
1
210
0
220
0
230
1
3
Standard
100
AcDbAlignedDimension
13
-52.7
23
7.93475
33
0
14
-52.7
24
-7.93475
34
0
50
90
100
AcDbRotatedDimension
1001
ACAD
1000
DSTYLE
1002
{
1070
   371
1070
    13
1070
   372
1070
    13
1070
   170
1070
     0
1070
   144
1040
1.0
1070
   277
1070
     2
1070
   284
1070
     8
1070
   278
1070
    46
1070
   146
1040
0.777778
1070
   345
1005
16
1070
   347
1005
16
1070
   346
1005
16
1070
   344
1005
155
1070
   343
1005
155
1070
   172
1070
     1
1070
    76
1070
     0
1070
    75
1070
     0
1070
   282
1070
     0
1070
   281
1070
     0
1070
    71
1070
     0
1070
    74
1070
     0
1070
   279
1070
     0
1070
   173
1070
     1
1070
   340
1005
14F
1070
   271
1070
     2
1070
   272
1070
     2
1070
    77
1070
     1
1070
    73
1070
     0
1070
   171
1070
     3
1070
   274
1070
     4
1070
   177
1070
   150
1070
   176
1070
     9
1070
   178
1070
    43
1070
    78
1070
     8
1070
    48
1040
-0.1
1070
    41
1040
3.175
1070
   147
1040
2.25
1070
    42
1040
1.5875
1070
    44
1040
3.175
1070
   140
1040
4.5
1002
}
1001
ACAD_DSTYLE_DIM_LINETYPE
1070
   380
1005
16
1001
ACAD_DSTYLE_DIM_EXT1_LINETYPE
1070
   381
1005
16
1001
ACAD_DSTYLE_DIM_EXT2_LINETYPE
1070
   382
1005
16
0
ENDSEC
0
SECTION
2
OBJECTS
0
DICTIONARY
5
27e
330
0
100
AcDbDictionary
280
0
281
1
3
ACAD_GROUP
350
27f
3
ACAD_MLINESTYLE
350
280
0
DICTIONARY
5
27f
330
0
100
AcDbDictionary
280
0
281
1
0
DICTIONARY
5
280
330
0
100
AcDbDictionary
280
0
281
1
3
Standard
350
18
0
MLINESTYLE
5
18
330
280
100
AcDbMlineStyle
2
Standard
70
0
3

62
256
51
90
52
90
71
2
49
-0.5
62
256
6
ByLayer
49
0.5
62
256
6
ByLayer
0
RASTERVARIABLES
5
26c
330

100
AcDbRasterVariables
90
0
70
1
71
1
72
1
0
ENDSEC
0
EOF
