0
SECTION
2
HEADER
9
$ACADVER
1
AC1015
9
$DWGCODEPAGE
3
ANSI_1252
9
$HANDSEED
5
292
9
$ANGBASE
50
0
9
$ANGDIR
70
0
9
$ATTMODE
70
1
9
$AUNITS
70
0
9
$AUPREC
70
0
9
$CECOLOR
62
256
9
$CELTSCALE
40
1
9
$CELTYPE
6
ByLayer
9
$CELWEIGHT
370
18
9
$CLAYER
8
0
9
$CMLJUST
70
0
9
$CMLSCALE
40
1
9
$CMLSTYLE
2
Standard
9
$DIMSTYLE
2
Standard
9
$TEXTSIZE
40
0.2
9
$TEXTSTYLE
7
Standard
9
$LUNITS
70
2
9
$LUPREC
70
4
9
$EXTNAMES
290
1
9
$INSUNITS
70
4
9
$LTSCALE
40
1
9
$LWDISPLAY
290
1
9
$PDMODE
70
0
9
$PDSIZE
40
0
9
$PLINEGEN
70
0
0
ENDSEC
0
SECTION
2
CLASSES
0
CLASS
1
RASTERVARIABLES
2
AcDbRasterVariables
3
ISM
90
0
280
0
281
0
0
ENDSEC
0
SECTION
2
TABLES
0
TABLE
2
VPORT
5
288
100
AcDbSymbolTable
0
VPORT
5
1
100
AcDbSymbolTableRecord
100
AcDbViewportTableRecord
2
*Active
70
0
10
0
20
0
11
1
21
1
12
-1
22
1
13
0
23
0
14
0.5
24
0.5
15
10
25
10
16
0
26
0
36
1
17
0
27
0
37
0
0
ENDTAB
0
TABLE
2
LTYPE
5
289
100
AcDbSymbolTable
0
LTYPE
5
14
100
AcDbSymbolTableRecord
100
AcDbLinetypeTableRecord
70
0
2
ByBlock
3

72
65
73
0
40
0
0
LTYPE
5
15
100
AcDbSymbolTableRecord
100
AcDbLinetypeTableRecord
70
0
2
ByLayer
3

72
65
73
0
40
0
0
LTYPE
5
16
100
AcDbSymbolTableRecord
100
AcDbLinetypeTableRecord
70
0
2
Continuous
3
Solid line
72
65
73
0
40
0
0
LTYPE
5
6E
100
AcDbSymbolTableRecord
100
AcDbLinetypeTableRecord
70
0
2
CENTER
3
____ _ ____ _ ____ _ ____
72
65
73
4
40
47.5
49
22
74
0
49
-8.5
74
0
49
8.5
74
0
49
-8.5
74
0
0
LTYPE
5
6F
100
AcDbSymbolTableRecord
100
AcDbLinetypeTableRecord
70
0
2
DASHED
3
__ __ __ __ __ __ __ __ __
72
65
73
2
40
25.72
49
12.86
74
0
49
-12.86
74
0
0
ENDTAB
0
TABLE
2
LAYER
5
28a
100
AcDbSymbolTable
0
LAYER
5
10
100
AcDbSymbolTableRecord
100
AcDbLayerTableRecord
2
0
70
0
62
7
6
Continuous
290
1
370
-3
390
0
0
LAYER
5
71
100
AcDbSymbolTableRecord
100
AcDbLayerTableRecord
2
81
70
0
62
-3
6
Continuous
290
1
370
-3
390
0
0
LAYER
5
73
100
AcDbSymbolTableRecord
100
AcDbLayerTableRecord
2
80
70
0
62
-6
6
Continuous
290
1
370
-3
390
0
0
LAYER
5
75
100
AcDbSymbolTableRecord
100
AcDbLayerTableRecord
2
1
70
0
62
4
6
Continuous
290
1
370
-3
390
0
0
LAYER
5
BF
100
AcDbSymbolTableRecord
100
AcDbLayerTableRecord
2
4
70
0
62
-2
6
CENTER
290
1
370
-3
390
0
0
LAYER
5
165
100
AcDbSymbolTableRecord
100
AcDbLayerTableRecord
2
Defpoints
70
0
62
7
6
Continuous
290
0
370
-3
390
0
0
LAYER
5
174
100
AcDbSymbolTableRecord
100
AcDbLayerTableRecord
2
2
70
0
62
7
6
Continuous
290
1
370
-3
390
0
0
LAYER
5
274
100
AcDbSymbolTableRecord
100
AcDbLayerTableRecord
2
SK1
70
0
62
4
6
Continuous
290
1
370
-3
390
0
0
LAYER
5
275
100
AcDbSymbolTableRecord
100
AcDbLayerTableRecord
2
SK4
70
0
62
2
6
CENTER
290
1
370
-3
390
0
0
LAYER
5
276
100
AcDbSymbolTableRecord
100
AcDbLayerTableRecord
2
SK2
70
0
62
7
6
Continuous
290
1
370
-3
390
0
0
LAYER
5
277
100
AcDbSymbolTableRecord
100
AcDbLayerTableRecord
2
SK6
70
0
62
5
6
Continuous
290
1
370
-3
390
0
0
ENDTAB
0
TABLE
2
STYLE
5
28b
100
AcDbSymbolTable
0
STYLE
5
11
100
AcDbSymbolTableRecord
100
AcDbTextStyleTableRecord
2
Standard
3
txt
70
0
71
0
40
0
41
1
42
0
50
0
0
STYLE
5
156
100
AcDbSymbolTableRecord
100
AcDbTextStyleTableRecord
2
iso_b_vert
3
simplex.shx
70
0
71
0
40
0
41
1
42
0
50
0
0
STYLE
5
157
100
AcDbSymbolTableRecord
100
AcDbTextStyleTableRecord
2
DWGDirectTextStyle
3
simplex
70
0
71
0
40
0
41
1
42
0
50
0
0
ENDTAB
0
TABLE
2
DIMSTYLE
5
28c
100
AcDbSymbolTable
100
AcDbDimStyleTable
0
DIMSTYLE
105
27
100
AcDbSymbolTableRecord
100
AcDbDimStyleTableRecord
2
Standard
70
0
3
<>
41
0.18
42
0.0625
44
0.18
140
0.18
147
0.09
73
0
74
0
77
1
271
2
275
0
278
52
280
0
340
11
0
ENDTAB
0
TABLE
2
VIEW
5
28d
100
AcDbSymbolTable
0
ENDTAB
0
TABLE
2
UCS
5
28e
100
AcDbSymbolTable
0
ENDTAB
0
TABLE
2
APPID
5
28f
100
AcDbSymbolTable
0
APPID
5
12
100
AcDbSymbolTableRecord
100
AcDbRegAppTableRecord
2
ACAD
70
0
0
APPID
5
15A
100
AcDbSymbolTableRecord
100
AcDbRegAppTableRecord
2
ACAD_DSTYLE_DIMBREAK
70
0
0
APPID
5
233
100
AcDbSymbolTableRecord
100
AcDbRegAppTableRecord
2
ACAD_DSTYLE_DIM_LINETYPE
70
0
0
APPID
5
234
100
AcDbSymbolTableRecord
100
AcDbRegAppTableRecord
2
ACAD_DSTYLE_DIM_EXT1_LINETYPE
70
0
0
APPID
5
235
100
AcDbSymbolTableRecord
100
AcDbRegAppTableRecord
2
ACAD_DSTYLE_DIM_EXT2_LINETYPE
70
0
0
APPID
5
270
100
AcDbSymbolTableRecord
100
AcDbRegAppTableRecord
2
ACAD_MLEADERVER
70
0
0
ENDTAB
0
TABLE
2
BLOCK_RECORD
5
290
100
AcDbSymbolTable
0
BLOCK_RECORD
5
1F
100
AcDbSymbolTableRecord
100
AcDbBlockTableRecord
2
*Model_Space
340
0
70
0
0
BLOCK_RECORD
5
1B
100
AcDbSymbolTableRecord
100
AcDbBlockTableRecord
2
*Paper_Space
340
0
70
0
0
BLOCK_RECORD
5
23
100
AcDbSymbolTableRecord
100
AcDbBlockTableRecord
2
*Paper_Space0
340
0
70
0
0
BLOCK_RECORD
5
15C
100
AcDbSymbolTableRecord
100
AcDbBlockTableRecord
2
_Closed
340
0
70
0
0
BLOCK_RECORD
5
166
100
AcDbSymbolTableRecord
100
AcDbBlockTableRecord
2
*D2
340
0
70
0
0
BLOCK_RECORD
5
175
100
AcDbSymbolTableRecord
100
AcDbBlockTableRecord
2
_U0
340
0
70
0
0
BLOCK_RECORD
5
186
100
AcDbSymbolTableRecord
100
AcDbBlockTableRecord
2
*D4
340
0
70
0
0
BLOCK_RECORD
5
193
100
AcDbSymbolTableRecord
100
AcDbBlockTableRecord
2
_U1
340
0
70
0
0
BLOCK_RECORD
5
1A3
100
AcDbSymbolTableRecord
100
AcDbBlockTableRecord
2
*D6
340
0
70
0
0
BLOCK_RECORD
5
1AF
100
AcDbSymbolTableRecord
100
AcDbBlockTableRecord
2
_U2
340
0
70
0
0
BLOCK_RECORD
5
1BF
100
AcDbSymbolTableRecord
100
AcDbBlockTableRecord
2
*D8
340
0
70
0
0
BLOCK_RECORD
5
1CB
100
AcDbSymbolTableRecord
100
AcDbBlockTableRecord
2
_U3
340
0
70
0
0
BLOCK_RECORD
5
1DB
100
AcDbSymbolTableRecord
100
AcDbBlockTableRecord
2
*D10
340
0
70
0
0
BLOCK_RECORD
5
1E8
100
AcDbSymbolTableRecord
100
AcDbBlockTableRecord
2
_U4
340
0
70
0
0
BLOCK_RECORD
5
1F9
100
AcDbSymbolTableRecord
100
AcDbBlockTableRecord
2
*D12
340
0
70
0
0
BLOCK_RECORD
5
207
100
AcDbSymbolTableRecord
100
AcDbBlockTableRecord
2
_U5
340
0
70
0
0
ENDTAB
0
ENDSEC
0
SECTION
2
BLOCKS
0
BLOCK
5
20
100
AcDbEntity
8
0
100
AcDbBlockBegin
2
*Model_Space
70
0
10
0
20
0
30
0
3
*Model_Space
0
ENDBLK
5
21
100
AcDbEntity
8
0
100
AcDbBlockEnd
0
BLOCK
5
1C
100
AcDbEntity
8
0
100
AcDbBlockBegin
2
*Paper_Space
70
0
10
0
20
0
30
0
3
*Paper_Space
0
ENDBLK
5
1D
100
AcDbEntity
8
0
100
AcDbBlockEnd
0
BLOCK
5
24
100
AcDbEntity
8
0
100
AcDbBlockBegin
2
*Paper_Space0
70
0
10
0
20
0
30
0
3
*Paper_Space0
0
ENDBLK
5
25
100
AcDbEntity
8
0
100
AcDbBlockEnd
0
BLOCK
5
15D
100
AcDbEntity
8
0
100
AcDbBlockBegin
2
_Closed
70
0
10
0
20
0
30
0
3
_Closed
0
LINE
5
15F
100
AcDbEntity
8
0
62
256
6
ByLayer
370
-2
48
1
60
0
100
AcDbLine
10
-1
20
0.166667
30
0
11
0
21
0
31
0
39
0
210
0
220
0
230
1
0
LINE
5
160
100
AcDbEntity
8
0
62
256
6
ByLayer
370
-2
48
1
60
0
100
AcDbLine
10
0
20
0
30
0
11
-1
21
-0.166667
31
0
39
0
210
0
220
0
230
1
0
LINE
5
161
100
AcDbEntity
8
0
62
256
6
ByLayer
370
-2
48
1
60
0
100
AcDbLine
10
-1
20
0.166667
30
0
11
-1
21
-0.166667
31
0
39
0
210
0
220
0
230
1
0
LINE
5
162
100
AcDbEntity
8
0
62
256
6
ByLayer
370
-2
48
1
60
0
100
AcDbLine
10
0
20
0
30
0
11
-1
21
0
31
0
39
0
210
0
220
0
230
1
0
ENDBLK
5
15E
100
AcDbEntity
8
0
100
AcDbBlockEnd
0
BLOCK
5
167
100
AcDbEntity
8
0
100
AcDbBlockBegin
2
*D2
70
1
10
0
20
0
30
0
3
*D2
0
LINE
5
169
100
AcDbEntity
8
0
62
256
6
ByLayer
370
-2
48
1
60
0
100
AcDbLine
10
22.089
20
-6.604
30
0
11
48.573375
21
-6.604
31
0
39
0
210
0
220
0
230
1
0
LINE
5
16A
100
AcDbEntity
8
0
62
256
6
ByLayer
370
-2
48
1
60
0
100
AcDbLine
10
22.089
20
6.604
30
0
11
48.573375
21
6.604
31
0
39
0
210
0
220
0
230
1
0
LINE
5
16B
100
AcDbEntity
8
0
62
256
6
ByLayer
370
-2
48
1
60
0
100
AcDbLine
10
45.398375
20
6.604
30
0
11
45.398375
21
44.43686
31
0
39
0
210
0
220
0
230
1
0
LINE
5
16C
100
AcDbEntity
8
0
62
256
6
ByLayer
370
-2
48
1
60
0
100
AcDbLine
10
45.398375
20
-9.779
30
0
11
45.398375
21
-12.954
31
0
39
0
210
0
220
0
230
1
0
LINE
5
16D
100
AcDbEntity
8
0
62
256
6
ByLayer
370
-2
48
1
60
0
100
AcDbLine
10
45.398375
20
9.779
30
0
11
45.398375
21
12.954
31
0
39
0
210
0
220
0
230
1
0
SOLID
5
16E
100
AcDbEntity
8
0
62
256
6
ByLayer
370
-1
48
1
60
0
100
AcDbTrace
10
45.927542
20
-9.779
30
0
11
44.869208
21
-9.779
31
0
12
45.398375
22
-6.604
32
0
13
45.398375
23
-6.604
33
0
39
0
210
0
220
0
230
1
0
SOLID
5
16F
100
AcDbEntity
8
0
62
256
6
ByLayer
370
-1
48
1
60
0
100
AcDbTrace
10
44.869208
20
9.779
30
0
11
45.927542
21
9.779
31
0
12
45.398375
22
6.604
32
0
13
45.398375
23
6.604
33
0
39
0
210
0
220
0
230
1
0
MTEXT
5
170
100
AcDbEntity
8
0
62
256
6
ByLayer
370
18
48
1
60
0
100
AcDbMText
10
36.004625
20
29.257395
30
0
210
0
220
0
230
1
1
\A1;13.21
40
4.5
41
0
44
1
50
90
71
5
72
5
7
iso_b_vert
0
POINT
5
171
100
AcDbEntity
8
Defpoints
62
0
6
ByLayer
370
-1
48
1
60
0
100
AcDbPoint
10
20.5015
20
-6.604
30
0
39
0
210
0
220
0
230
1
50
360
0
POINT
5
172
100
AcDbEntity
8
Defpoints
62
0
6
ByLayer
370
-1
48
1
60
0
100
AcDbPoint
10
20.5015
20
6.604
30
0
39
0
210
0
220
0
230
1
50
360
0
POINT
5
173
100
AcDbEntity
8
Defpoints
62
0
6
ByLayer
370
-1
48
1
60
0
100
AcDbPoint
10
45.398375
20
6.604
30
0
39
0
210
0
220
0
230
1
50
360
0
ENDBLK
5
168
100
AcDbEntity
8
0
100
AcDbBlockEnd
0
BLOCK
5
181
100
AcDbEntity
8
0
100
AcDbBlockBegin
2
_U0
70
0
10
0
20
0
30
0
3
_U0
0
MTEXT
5
176
100
AcDbEntity
8
2
62
256
6
ByLayer
370
18
48
1
60
0
100
AcDbMText
10
43.316529
20
17.859375
30
0
210
0
220
0
230
1
1
%%c
40
3.175
41
0
44
1.084337
50
90
71
7
72
5
7
iso_b_vert
0
MTEXT
5
177
100
AcDbEntity
8
2
62
256
6
ByLayer
370
18
48
1
60
0
100
AcDbMText
10
43.717953
20
27.444
30
0
210
0
220
0
230
1
1
\W0.7778;13.21
40
4.5
41
0
44
1.084337
50
90
71
7
72
5
7
iso_b_vert
0
LINE
5
178
100
AcDbEntity
8
2
62
256
6
ByLayer
370
13
48
1
60
0
100
AcDbLine
10
22.089
20
-6.604
30
0
11
48.573375
21
-6.604
31
0
39
0
210
0
220
0
230
1
0
LINE
5
179
100
AcDbEntity
8
2
62
256
6
ByLayer
370
13
48
1
60
0
100
AcDbLine
10
22.089
20
6.604
30
0
11
48.573375
21
6.604
31
0
39
0
210
0
220
0
230
1
0
LINE
5
17A
100
AcDbEntity
8
2
62
256
6
ByLayer
370
13
48
1
60
0
100
AcDbLine
10
45.398375
20
-6.604
30
0
11
45.398375
21
40.798291
31
0
39
0
210
0
220
0
230
1
0
LINE
5
17B
100
AcDbEntity
8
2
62
256
6
ByLayer
370
13
48
1
60
0
100
AcDbLine
10
45.398375
20
-6.604
30
0
11
44.980378
21
-3.429002
31
0
39
0
210
0
220
0
230
1
0
LINE
5
17C
100
AcDbEntity
8
2
62
256
6
ByLayer
370
13
48
1
60
0
100
AcDbLine
10
45.398375
20
-6.604
30
0
11
45.816372
21
-3.428998
31
0
39
0
210
0
220
0
230
1
0
LINE
5
17D
100
AcDbEntity
8
2
62
256
6
ByLayer
370
13
48
1
60
0
100
AcDbLine
10
44.980378
20
-3.429002
30
0
11
45.816372
21
-3.428998
31
0
39
0
210
0
220
0
230
1
0
LINE
5
17E
100
AcDbEntity
8
2
62
256
6
ByLayer
370
13
48
1
60
0
100
AcDbLine
10
45.398375
20
6.604
30
0
11
45.816372
21
3.429002
31
0
39
0
210
0
220
0
230
1
0
LINE
5
17F
100
AcDbEntity
8
2
62
256
6
ByLayer
370
13
48
1
60
0
100
AcDbLine
10
45.398375
20
6.604
30
0
11
44.980378
21
3.428998
31
0
39
0
210
0
220
0
230
1
0
LINE
5
180
100
AcDbEntity
8
2
62
256
6
ByLayer
370
13
48
1
60
0
100
AcDbLine
10
45.816372
20
3.429002
30
0
11
44.980378
21
3.428998
31
0
39
0
210
0
220
0
230
1
0
ENDBLK
5
182
100
AcDbEntity
8
0
100
AcDbBlockEnd
0
BLOCK
5
187
100
AcDbEntity
8
0
100
AcDbBlockBegin
2
*D4
70
1
10
0
20
0
30
0
3
*D4
0
LINE
5
189
100
AcDbEntity
8
0
62
256
6
ByLayer
370
-2
48
1
60
0
100
AcDbLine
10
20.5015
20
-8.1915
30
0
11
20.5015
21
-34.279
31
0
39
0
210
0
220
0
230
1
0
LINE
5
18A
100
AcDbEntity
8
0
62
256
6
ByLayer
370
-2
48
1
60
0
100
AcDbLine
10
-0.0013
20
-1.5875
30
0
11
-0.0013
21
-34.279
31
0
39
0
210
0
220
0
230
1
0
LINE
5
18B
100
AcDbEntity
8
0
62
256
6
ByLayer
370
-2
48
1
60
0
100
AcDbLine
10
23.6765
20
-31.104
30
0
11
26.8515
21
-31.104
31
0
39
0
210
0
220
0
230
1
0
LINE
5
18C
100
AcDbEntity
8
0
62
256
6
ByLayer
370
-2
48
1
60
0
100
AcDbLine
10
-3.1763
20
-31.104
30
0
11
-6.3513
21
-31.104
31
0
39
0
210
0
220
0
230
1
0
SOLID
5
18D
100
AcDbEntity
8
0
62
256
6
ByLayer
370
-1
48
1
60
0
100
AcDbTrace
10
23.6765
20
-30.574833
30
0
11
23.6765
21
-31.633167
31
0
12
20.5015
22
-31.104
32
0
13
20.5015
23
-31.104
33
0
39
0
210
0
220
0
230
1
0
SOLID
5
18E
100
AcDbEntity
8
0
62
256
6
ByLayer
370
-1
48
1
60
0
100
AcDbTrace
10
-3.1763
20
-31.633167
30
0
11
-3.1763
21
-30.574833
31
0
12
-0.0013
22
-31.104
32
0
13
-0.0013
23
-31.104
33
0
39
0
210
0
220
0
230
1
0
MTEXT
5
18F
100
AcDbEntity
8
0
62
256
6
ByLayer
370
18
48
1
60
0
100
AcDbMText
10
10.2501
20
-21.71025
30
0
210
0
220
0
230
1
1
\A1;20.5
40
4.5
41
0
44
1
50
0
71
5
72
5
7
iso_b_vert
0
POINT
5
190
100
AcDbEntity
8
Defpoints
62
0
6
ByLayer
370
-1
48
1
60
0
100
AcDbPoint
10
20.5015
20
-6.604
30
0
39
0
210
0
220
0
230
1
50
360
0
POINT
5
191
100
AcDbEntity
8
Defpoints
62
0
6
ByLayer
370
-1
48
1
60
0
100
AcDbPoint
10
-0.0013
20
0
30
0
39
0
210
0
220
0
230
1
50
360
0
POINT
5
192
100
AcDbEntity
8
Defpoints
62
0
6
ByLayer
370
-1
48
1
60
0
100
AcDbPoint
10
-0.0013
20
-31.104
30
0
39
0
210
0
220
0
230
1
50
360
0
ENDBLK
5
188
100
AcDbEntity
8
0
100
AcDbBlockEnd
0
BLOCK
5
19E
100
AcDbEntity
8
0
100
AcDbBlockBegin
2
_U1
70
0
10
0
20
0
30
0
3
_U1
0
MTEXT
5
194
100
AcDbEntity
8
SK2
62
256
6
ByLayer
370
18
48
1
60
0
100
AcDbMText
10
4.23121
20
-29.776328
30
0
210
0
220
0
230
1
1
\W0.8668;20.5
40
4.5
41
0
44
1.084337
50
0
71
7
72
5
7
iso_b_vert
0
LINE
5
195
100
AcDbEntity
8
SK2
62
256
6
ByLayer
370
13
48
1
60
0
100
AcDbLine
10
20.5015
20
-8.1915
30
0
11
20.5015
21
-34.279
31
0
39
0
210
0
220
0
230
1
0
LINE
5
196
100
AcDbEntity
8
SK2
62
256
6
ByLayer
370
13
48
1
60
0
100
AcDbLine
10
-0.0013
20
-1.5875
30
0
11
-0.0013
21
-34.279
31
0
39
0
210
0
220
0
230
1
0
LINE
5
197
100
AcDbEntity
8
SK2
62
256
6
ByLayer
370
13
48
1
60
0
100
AcDbLine
10
31.7515
20
-31.104
30
0
11
-11.2513
21
-31.104
31
0
39
0
210
0
220
0
230
1
0
LINE
5
198
100
AcDbEntity
8
SK2
62
256
6
ByLayer
370
13
48
1
60
0
100
AcDbLine
10
20.5015
20
-31.104
30
0
11
23.676498
21
-30.686003
31
0
39
0
210
0
220
0
230
1
0
LINE
5
199
100
AcDbEntity
8
SK2
62
256
6
ByLayer
370
13
48
1
60
0
100
AcDbLine
10
20.5015
20
-31.104
30
0
11
23.676502
21
-31.521997
31
0
39
0
210
0
220
0
230
1
0
LINE
5
19A
100
AcDbEntity
8
SK2
62
256
6
ByLayer
370
13
48
1
60
0
100
AcDbLine
10
23.676498
20
-30.686003
30
0
11
23.676502
21
-31.521997
31
0
39
0
210
0
220
0
230
1
0
LINE
5
19B
100
AcDbEntity
8
SK2
62
256
6
ByLayer
370
13
48
1
60
0
100
AcDbLine
10
-0.0013
20
-31.104
30
0
11
-3.176298
21
-31.521997
31
0
39
0
210
0
220
0
230
1
0
LINE
5
19C
100
AcDbEntity
8
SK2
62
256
6
ByLayer
370
13
48
1
60
0
100
AcDbLine
10
-0.0013
20
-31.104
30
0
11
-3.176302
21
-30.686003
31
0
39
0
210
0
220
0
230
1
0
LINE
5
19D
100
AcDbEntity
8
SK2
62
256
6
ByLayer
370
13
48
1
60
0
100
AcDbLine
10
-3.176298
20
-31.521997
30
0
11
-3.176302
21
-30.686003
31
0
39
0
210
0
220
0
230
1
0
ENDBLK
5
19F
100
AcDbEntity
8
0
100
AcDbBlockEnd
0
BLOCK
5
1A4
100
AcDbEntity
8
0
100
AcDbBlockBegin
2
*D6
70
1
10
0
20
0
30
0
3
*D6
0
LINE
5
1A6
100
AcDbEntity
8
0
62
256
6
ByLayer
370
-2
48
1
60
0
100
AcDbLine
10
-52.7
20
9.52225
30
0
11
-52.7
21
30.279
31
0
39
0
210
0
220
0
230
1
0
LINE
5
1A7
100
AcDbEntity
8
0
62
256
6
ByLayer
370
-2
48
1
60
0
100
AcDbLine
10
20.5015
20
8.1915
30
0
11
20.5015
21
30.279
31
0
39
0
210
0
220
0
230
1
0
LINE
5
1A8
100
AcDbEntity
8
0
62
256
6
ByLayer
370
-2
48
1
60
0
100
AcDbLine
10
-49.525
20
27.104
30
0
11
17.3265
21
27.104
31
0
39
0
210
0
220
0
230
1
0
SOLID
5
1A9
100
AcDbEntity
8
0
62
256
6
ByLayer
370
-1
48
1
60
0
100
AcDbTrace
10
-49.525
20
27.633167
30
0
11
-49.525
21
26.574833
31
0
12
-52.7
22
27.104
32
0
13
-52.7
23
27.104
33
0
39
0
210
0
220
0
230
1
0
SOLID
5
1AA
100
AcDbEntity
8
0
62
256
6
ByLayer
370
-1
48
1
60
0
100
AcDbTrace
10
17.3265
20
26.574833
30
0
11
17.3265
21
27.633167
31
0
12
20.5015
22
27.104
32
0
13
20.5015
23
27.104
33
0
39
0
210
0
220
0
230
1
0
MTEXT
5
1AB
100
AcDbEntity
8
0
62
256
6
ByLayer
370
18
48
1
60
0
100
AcDbMText
10
-16.09925
20
36.49775
30
0
210
0
220
0
230
1
1
\A1;73.2
40
4.5
41
0
44
1
50
0
71
5
72
5
7
iso_b_vert
0
POINT
5
1AC
100
AcDbEntity
8
Defpoints
62
0
6
ByLayer
370
-1
48
1
60
0
100
AcDbPoint
10
-52.7
20
7.93475
30
0
39
0
210
0
220
0
230
1
50
360
0
POINT
5
1AD
100
AcDbEntity
8
Defpoints
62
0
6
ByLayer
370
-1
48
1
60
0
100
AcDbPoint
10
20.5015
20
6.604
30
0
39
0
210
0
220
0
230
1
50
360
0
POINT
5
1AE
100
AcDbEntity
8
Defpoints
62
0
6
ByLayer
370
-1
48
1
60
0
100
AcDbPoint
10
20.5015
20
27.104
30
0
39
0
210
0
220
0
230
1
50
360
0
ENDBLK
5
1A5
100
AcDbEntity
8
0
100
AcDbBlockEnd
0
BLOCK
5
1BA
100
AcDbEntity
8
0
100
AcDbBlockBegin
2
_U2
70
0
10
0
20
0
30
0
3
_U2
0
MTEXT
5
1B0
100
AcDbEntity
8
2
62
256
6
ByLayer
370
18
48
1
60
0
100
AcDbMText
10
-22.11814
20
28.431672
30
0
210
0
220
0
230
1
1
\W0.8668;73.2
40
4.5
41
0
44
1.084337
50
0
71
7
72
5
7
iso_b_vert
0
LINE
5
1B1
100
AcDbEntity
8
2
62
256
6
ByLayer
370
13
48
1
60
0
100
AcDbLine
10
-52.7
20
9.52225
30
0
11
-52.7
21
30.279
31
0
39
0
210
0
220
0
230
1
0
LINE
5
1B2
100
AcDbEntity
8
2
62
256
6
ByLayer
370
13
48
1
60
0
100
AcDbLine
10
20.5015
20
8.1915
30
0
11
20.5015
21
30.279
31
0
39
0
210
0
220
0
230
1
0
LINE
5
1B3
100
AcDbEntity
8
2
62
256
6
ByLayer
370
13
48
1
60
0
100
AcDbLine
10
-52.7
20
27.104
30
0
11
20.5015
21
27.104
31
0
39
0
210
0
220
0
230
1
0
LINE
5
1B4
100
AcDbEntity
8
2
62
256
6
ByLayer
370
13
48
1
60
0
100
AcDbLine
10
-52.7
20
27.104
30
0
11
-49.525002
21
27.521997
31
0
39
0
210
0
220
0
230
1
0
LINE
5
1B5
100
AcDbEntity
8
2
62
256
6
ByLayer
370
13
48
1
60
0
100
AcDbLine
10
-52.7
20
27.104
30
0
11
-49.524998
21
26.686003
31
0
39
0
210
0
220
0
230
1
0
LINE
5
1B6
100
AcDbEntity
8
2
62
256
6
ByLayer
370
13
48
1
60
0
100
AcDbLine
10
-49.525002
20
27.521997
30
0
11
-49.524998
21
26.686003
31
0
39
0
210
0
220
0
230
1
0
LINE
5
1B7
100
AcDbEntity
8
2
62
256
6
ByLayer
370
13
48
1
60
0
100
AcDbLine
10
20.5015
20
27.104
30
0
11
17.326502
21
26.686003
31
0
39
0
210
0
220
0
230
1
0
LINE
5
1B8
100
AcDbEntity
8
2
62
256
6
ByLayer
370
13
48
1
60
0
100
AcDbLine
10
20.5015
20
27.104
30
0
11
17.326498
21
27.521997
31
0
39
0
210
0
220
0
230
1
0
LINE
5
1B9
100
AcDbEntity
8
2
62
256
6
ByLayer
370
13
48
1
60
0
100
AcDbLine
10
17.326502
20
26.686003
30
0
11
17.326498
21
27.521997
31
0
39
0
210
0
220
0
230
1
0
ENDBLK
5
1BB
100
AcDbEntity
8
0
100
AcDbBlockEnd
0
BLOCK
5
1C0
100
AcDbEntity
8
0
100
AcDbBlockBegin
2
*D8
70
1
10
0
20
0
30
0
3
*D8
0
LINE
5
1C2
100
AcDbEntity
8
0
62
256
6
ByLayer
370
-2
48
1
60
0
100
AcDbLine
10
-52.7
20
9.52225
30
0
11
-52.7
21
20.279
31
0
39
0
210
0
220
0
230
1
0
LINE
5
1C3
100
AcDbEntity
8
0
62
256
6
ByLayer
370
-2
48
1
60
0
100
AcDbLine
10
14.4625
20
13.8925
30
0
11
14.4625
21
20.279
31
0
39
0
210
0
220
0
230
1
0
LINE
5
1C4
100
AcDbEntity
8
0
62
256
6
ByLayer
370
-2
48
1
60
0
100
AcDbLine
10
-49.525
20
17.104
30
0
11
11.2875
21
17.104
31
0
39
0
210
0
220
0
230
1
0
SOLID
5
1C5
100
AcDbEntity
8
0
62
256
6
ByLayer
370
-1
48
1
60
0
100
AcDbTrace
10
-49.525
20
17.633167
30
0
11
-49.525
21
16.574833
31
0
12
-52.7
22
17.104
32
0
13
-52.7
23
17.104
33
0
39
0
210
0
220
0
230
1
0
SOLID
5
1C6
100
AcDbEntity
8
0
62
256
6
ByLayer
370
-1
48
1
60
0
100
AcDbTrace
10
11.2875
20
16.574833
30
0
11
11.2875
21
17.633167
31
0
12
14.4625
22
17.104
32
0
13
14.4625
23
17.104
33
0
39
0
210
0
220
0
230
1
0
MTEXT
5
1C7
100
AcDbEntity
8
0
62
256
6
ByLayer
370
18
48
1
60
0
100
AcDbMText
10
-19.11875
20
26.49775
30
0
210
0
220
0
230
1
1
\A1;67.16
40
4.5
41
0
44
1
50
0
71
5
72
5
7
iso_b_vert
0
POINT
5
1C8
100
AcDbEntity
8
Defpoints
62
0
6
ByLayer
370
-1
48
1
60
0
100
AcDbPoint
10
-52.7
20
7.93475
30
0
39
0
210
0
220
0
230
1
50
360
0
POINT
5
1C9
100
AcDbEntity
8
Defpoints
62
0
6
ByLayer
370
-1
48
1
60
0
100
AcDbPoint
10
14.4625
20
12.305
30
0
39
0
210
0
220
0
230
1
50
360
0
POINT
5
1CA
100
AcDbEntity
8
Defpoints
62
0
6
ByLayer
370
-1
48
1
60
0
100
AcDbPoint
10
14.4625
20
17.104
30
0
39
0
210
0
220
0
230
1
50
360
0
ENDBLK
5
1C1
100
AcDbEntity
8
0
100
AcDbBlockEnd
0
BLOCK
5
1D6
100
AcDbEntity
8
0
100
AcDbBlockBegin
2
_U3
70
0
10
0
20
0
30
0
3
_U3
0
MTEXT
5
1CC
100
AcDbEntity
8
SK2
62
256
6
ByLayer
370
18
48
1
60
0
100
AcDbMText
10
-26.389784
20
18.431672
30
0
210
0
220
0
230
1
1
\W0.8033;67.16
40
4.5
41
0
44
1.084337
50
0
71
7
72
5
7
iso_b_vert
0
LINE
5
1CD
100
AcDbEntity
8
SK2
62
256
6
ByLayer
370
13
48
1
60
0
100
AcDbLine
10
-52.7
20
9.52225
30
0
11
-52.7
21
20.279
31
0
39
0
210
0
220
0
230
1
0
LINE
5
1CE
100
AcDbEntity
8
SK2
62
256
6
ByLayer
370
13
48
1
60
0
100
AcDbLine
10
14.4625
20
13.8925
30
0
11
14.4625
21
20.279
31
0
39
0
210
0
220
0
230
1
0
LINE
5
1CF
100
AcDbEntity
8
SK2
62
256
6
ByLayer
370
13
48
1
60
0
100
AcDbLine
10
-52.7
20
17.104
30
0
11
14.4625
21
17.104
31
0
39
0
210
0
220
0
230
1
0
LINE
5
1D0
100
AcDbEntity
8
SK2
62
256
6
ByLayer
370
13
48
1
60
0
100
AcDbLine
10
-52.7
20
17.104
30
0
11
-49.525002
21
17.521997
31
0
39
0
210
0
220
0
230
1
0
LINE
5
1D1
100
AcDbEntity
8
SK2
62
256
6
ByLayer
370
13
48
1
60
0
100
AcDbLine
10
-52.7
20
17.104
30
0
11
-49.524998
21
16.686003
31
0
39
0
210
0
220
0
230
1
0
LINE
5
1D2
100
AcDbEntity
8
SK2
62
256
6
ByLayer
370
13
48
1
60
0
100
AcDbLine
10
-49.525002
20
17.521997
30
0
11
-49.524998
21
16.686003
31
0
39
0
210
0
220
0
230
1
0
LINE
5
1D3
100
AcDbEntity
8
SK2
62
256
6
ByLayer
370
13
48
1
60
0
100
AcDbLine
10
14.4625
20
17.104
30
0
11
11.287502
21
16.686003
31
0
39
0
210
0
220
0
230
1
0
LINE
5
1D4
100
AcDbEntity
8
SK2
62
256
6
ByLayer
370
13
48
1
60
0
100
AcDbLine
10
14.4625
20
17.104
30
0
11
11.287498
21
17.521997
31
0
39
0
210
0
220
0
230
1
0
LINE
5
1D5
100
AcDbEntity
8
SK2
62
256
6
ByLayer
370
13
48
1
60
0
100
AcDbLine
10
11.287502
20
16.686003
30
0
11
11.287498
21
17.521997
31
0
39
0
210
0
220
0
230
1
0
ENDBLK
5
1D7
100
AcDbEntity
8
0
100
AcDbBlockEnd
0
BLOCK
5
1DC
100
AcDbEntity
8
0
100
AcDbBlockBegin
2
*D10
70
1
10
0
20
0
30
0
3
*D10
0
LINE
5
1DE
100
AcDbEntity
8
0
62
256
6
ByLayer
370
-2
48
1
60
0
100
AcDbLine
10
16.05
20
-12.305
30
0
11
59.4265
21
-12.305
31
0
39
0
210
0
220
0
230
1
0
LINE
5
1DF
100
AcDbEntity
8
0
62
256
6
ByLayer
370
-2
48
1
60
0
100
AcDbLine
10
16.05
20
12.305
30
0
11
59.4265
21
12.305
31
0
39
0
210
0
220
0
230
1
0
LINE
5
1E0
100
AcDbEntity
8
0
62
256
6
ByLayer
370
-2
48
1
60
0
100
AcDbLine
10
56.2515
20
12.305
30
0
11
56.2515
21
51.498415
31
0
39
0
210
0
220
0
230
1
0
LINE
5
1E1
100
AcDbEntity
8
0
62
256
6
ByLayer
370
-2
48
1
60
0
100
AcDbLine
10
56.2515
20
-9.13
30
0
11
56.2515
21
9.13
31
0
39
0
210
0
220
0
230
1
0
SOLID
5
1E2
100
AcDbEntity
8
0
62
256
6
ByLayer
370
-1
48
1
60
0
100
AcDbTrace
10
55.722333
20
-9.13
30
0
11
56.780667
21
-9.13
31
0
12
56.2515
22
-12.305
32
0
13
56.2515
23
-12.305
33
0
39
0
210
0
220
0
230
1
0
SOLID
5
1E3
100
AcDbEntity
8
0
62
256
6
ByLayer
370
-1
48
1
60
0
100
AcDbTrace
10
56.780667
20
9.13
30
0
11
55.722333
21
9.13
31
0
12
56.2515
22
12.305
32
0
13
56.2515
23
12.305
33
0
39
0
210
0
220
0
230
1
0
MTEXT
5
1E4
100
AcDbEntity
8
0
62
256
6
ByLayer
370
18
48
1
60
0
100
AcDbMText
10
46.85775
20
35.997523
30
0
210
0
220
0
230
1
1
\A1;24.61
40
4.5
41
0
44
1
50
90
71
5
72
5
7
iso_b_vert
0
POINT
5
1E5
100
AcDbEntity
8
Defpoints
62
0
6
ByLayer
370
-1
48
1
60
0
100
AcDbPoint
10
14.4625
20
-12.305
30
0
39
0
210
0
220
0
230
1
50
360
0
POINT
5
1E6
100
AcDbEntity
8
Defpoints
62
0
6
ByLayer
370
-1
48
1
60
0
100
AcDbPoint
10
14.4625
20
12.305
30
0
39
0
210
0
220
0
230
1
50
360
0
POINT
5
1E7
100
AcDbEntity
8
Defpoints
62
0
6
ByLayer
370
-1
48
1
60
0
100
AcDbPoint
10
56.2515
20
12.305
30
0
39
0
210
0
220
0
230
1
50
360
0
ENDBLK
5
1DD
100
AcDbEntity
8
0
100
AcDbBlockEnd
0
BLOCK
5
1F4
100
AcDbEntity
8
0
100
AcDbBlockBegin
2
_U4
70
0
10
0
20
0
30
0
3
_U4
0
MTEXT
5
1E9
100
AcDbEntity
8
SK2
62
256
6
ByLayer
370
18
48
1
60
0
100
AcDbMText
10
54.169654
20
23.560375
30
0
210
0
220
0
230
1
1
%%c
40
3.175
41
0
44
1.084337
50
90
71
7
72
5
7
iso_b_vert
0
MTEXT
5
1EA
100
AcDbEntity
8
SK2
62
256
6
ByLayer
370
18
48
1
60
0
100
AcDbMText
10
54.571078
20
33.145
30
0
210
0
220
0
230
1
1
\W0.8993;24.61
40
4.5
41
0
44
1.084337
50
90
71
7
72
5
7
iso_b_vert
0
LINE
5
1EB
100
AcDbEntity
8
SK2
62
256
6
ByLayer
370
13
48
1
60
0
100
AcDbLine
10
16.05
20
-12.305
30
0
11
59.4265
21
-12.305
31
0
39
0
210
0
220
0
230
1
0
LINE
5
1EC
100
AcDbEntity
8
SK2
62
256
6
ByLayer
370
13
48
1
60
0
100
AcDbLine
10
16.05
20
12.305
30
0
11
59.4265
21
12.305
31
0
39
0
210
0
220
0
230
1
0
LINE
5
1ED
100
AcDbEntity
8
SK2
62
256
6
ByLayer
370
13
48
1
60
0
100
AcDbLine
10
56.2515
20
-12.305
30
0
11
56.2515
21
48.577545
31
0
39
0
210
0
220
0
230
1
0
LINE
5
1EE
100
AcDbEntity
8
SK2
62
256
6
ByLayer
370
13
48
1
60
0
100
AcDbLine
10
56.2515
20
-12.305
30
0
11
55.833503
21
-9.130002
31
0
39
0
210
0
220
0
230
1
0
LINE
5
1EF
100
AcDbEntity
8
SK2
62
256
6
ByLayer
370
13
48
1
60
0
100
AcDbLine
10
56.2515
20
-12.305
30
0
11
56.669497
21
-9.129998
31
0
39
0
210
0
220
0
230
1
0
LINE
5
1F0
100
AcDbEntity
8
SK2
62
256
6
ByLayer
370
13
48
1
60
0
100
AcDbLine
10
55.833503
20
-9.130002
30
0
11
56.669497
21
-9.129998
31
0
39
0
210
0
220
0
230
1
0
LINE
5
1F1
100
AcDbEntity
8
SK2
62
256
6
ByLayer
370
13
48
1
60
0
100
AcDbLine
10
56.2515
20
12.305
30
0
11
56.669497
21
9.130002
31
0
39
0
210
0
220
0
230
1
0
LINE
5
1F2
100
AcDbEntity
8
SK2
62
256
6
ByLayer
370
13
48
1
60
0
100
AcDbLine
10
56.2515
20
12.305
30
0
11
55.833503
21
9.129998
31
0
39
0
210
0
220
0
230
1
0
LINE
5
1F3
100
AcDbEntity
8
SK2
62
256
6
ByLayer
370
13
48
1
60
0
100
AcDbLine
10
56.669497
20
9.130002
30
0
11
55.833503
21
9.129998
31
0
39
0
210
0
220
0
230
1
0
ENDBLK
5
1F5
100
AcDbEntity
8
0
100
AcDbBlockEnd
0
BLOCK
5
1FA
100
AcDbEntity
8
0
100
AcDbBlockBegin
2
*D12
70
1
10
0
20
0
30
0
3
*D12
0
LINE
5
1FC
100
AcDbEntity
8
0
62
256
6
ByLayer
370
-2
48
1
60
0
100
AcDbLine
10
-54.2875
20
7.93475
30
0
11
-80.978125
21
7.93475
31
0
39
0
210
0
220
0
230
1
0
LINE
5
1FD
100
AcDbEntity
8
0
62
256
6
ByLayer
370
-2
48
1
60
0
100
AcDbLine
10
-54.2875
20
-7.93475
30
0
11
-80.978125
21
-7.93475
31
0
39
0
210
0
220
0
230
1
0
LINE
5
1FE
100
AcDbEntity
8
0
62
256
6
ByLayer
370
-2
48
1
60
0
100
AcDbLine
10
-77.803125
20
7.93475
30
0
11
-77.803125
21
47.141605
31
0
39
0
210
0
220
0
230
1
0
LINE
5
1FF
100
AcDbEntity
8
0
62
256
6
ByLayer
370
-2
48
1
60
0
100
AcDbLine
10
-77.803125
20
11.10975
30
0
11
-77.803125
21
14.28475
31
0
39
0
210
0
220
0
230
1
0
LINE
5
200
100
AcDbEntity
8
0
62
256
6
ByLayer
370
-2
48
1
60
0
100
AcDbLine
10
-77.803125
20
-11.10975
30
0
11
-77.803125
21
-14.28475
31
0
39
0
210
0
220
0
230
1
0
SOLID
5
201
100
AcDbEntity
8
0
62
256
6
ByLayer
370
-1
48
1
60
0
100
AcDbTrace
10
-78.332292
20
11.10975
30
0
11
-77.273958
21
11.10975
31
0
12
-77.803125
22
7.93475
32
0
13
-77.803125
23
7.93475
33
0
39
0
210
0
220
0
230
1
0
SOLID
5
202
100
AcDbEntity
8
0
62
256
6
ByLayer
370
-1
48
1
60
0
100
AcDbTrace
10
-77.273958
20
-11.10975
30
0
11
-78.332292
21
-11.10975
31
0
12
-77.803125
22
-7.93475
32
0
13
-77.803125
23
-7.93475
33
0
39
0
210
0
220
0
230
1
0
MTEXT
5
203
100
AcDbEntity
8
0
62
256
6
ByLayer
370
18
48
1
60
0
100
AcDbMText
10
-87.196875
20
31.319284
30
0
210
0
220
0
230
1
1
\A1;15.87
40
4.5
41
0
44
1
50
90
71
5
72
5
7
iso_b_vert
0
POINT
5
204
100
AcDbEntity
8
Defpoints
62
0
6
ByLayer
370
-1
48
1
60
0
100
AcDbPoint
10
-52.7
20
7.93475
30
0
39
0
210
0
220
0
230
1
50
360
0
POINT
5
205
100
AcDbEntity
8
Defpoints
62
0
6
ByLayer
370
-1
48
1
60
0
100
AcDbPoint
10
-52.7
20
-7.93475
30
0
39
0
210
0
220
0
230
1
50
360
0
POINT
5
206
100
AcDbEntity
8
Defpoints
62
0
6
ByLayer
370
-1
48
1
60
0
100
AcDbPoint
10
-77.803125
20
-7.93475
30
0
39
0
210
0
220
0
230
1
50
360
0
ENDBLK
5
1FB
100
AcDbEntity
8
0
100
AcDbBlockEnd
0
BLOCK
5
213
100
AcDbEntity
8
0
100
AcDbBlockBegin
2
_U5
70
0
10
0
20
0
30
0
3
_U5
0
MTEXT
5
208
100
AcDbEntity
8
SK2
62
256
6
ByLayer
370
18
48
1
60
0
100
AcDbMText
10
-79.884971
20
19.190125
30
0
210
0
220
0
230
1
1
%%c
40
3.175
41
0
44
1.084337
50
90
71
7
72
5
7
iso_b_vert
0
MTEXT
5
209
100
AcDbEntity
8
SK2
62
256
6
ByLayer
370
18
48
1
60
0
100
AcDbMText
10
-79.483547
20
28.77475
30
0
210
0
220
0
230
1
1
\W0.8033;15.87
40
4.5
41
0
44
1.084337
50
90
71
7
72
5
7
iso_b_vert
0
LINE
5
20A
100
AcDbEntity
8
SK2
62
256
6
ByLayer
370
13
48
1
60
0
100
AcDbLine
10
-54.2875
20
7.93475
30
0
11
-80.978125
21
7.93475
31
0
39
0
210
0
220
0
230
1
0
LINE
5
20B
100
AcDbEntity
8
SK2
62
256
6
ByLayer
370
13
48
1
60
0
100
AcDbLine
10
-54.2875
20
-7.93475
30
0
11
-80.978125
21
-7.93475
31
0
39
0
210
0
220
0
230
1
0
LINE
5
20C
100
AcDbEntity
8
SK2
62
256
6
ByLayer
370
13
48
1
60
0
100
AcDbLine
10
-77.803125
20
-7.93475
30
0
11
-77.803125
21
43.591318
31
0
39
0
210
0
220
0
230
1
0
LINE
5
20D
100
AcDbEntity
8
SK2
62
256
6
ByLayer
370
13
48
1
60
0
100
AcDbLine
10
-77.803125
20
7.93475
30
0
11
-77.385128
21
4.759752
31
0
39
0
210
0
220
0
230
1
0
LINE
5
20E
100
AcDbEntity
8
SK2
62
256
6
ByLayer
370
13
48
1
60
0
100
AcDbLine
10
-77.803125
20
7.93475
30
0
11
-78.221122
21
4.759748
31
0
39
0
210
0
220
0
230
1
0
LINE
5
20F
100
AcDbEntity
8
SK2
62
256
6
ByLayer
370
13
48
1
60
0
100
AcDbLine
10
-77.385128
20
4.759752
30
0
11
-78.221122
21
4.759748
31
0
39
0
210
0
220
0
230
1
0
LINE
5
210
100
AcDbEntity
8
SK2
62
256
6
ByLayer
370
13
48
1
60
0
100
AcDbLine
10
-77.803125
20
-7.93475
30
0
11
-78.221122
21
-4.759752
31
0
39
0
210
0
220
0
230
1
0
LINE
5
211
100
AcDbEntity
8
SK2
62
256
6
ByLayer
370
13
48
1
60
0
100
AcDbLine
10
-77.803125
20
-7.93475
30
0
11
-77.385128
21
-4.759748
31
0
39
0
210
0
220
0
230
1
0
LINE
5
212
100
AcDbEntity
8
SK2
62
256
6
ByLayer
370
13
48
1
60
0
100
AcDbLine
10
-78.221122
20
-4.759752
30
0
11
-77.385128
21
-4.759748
31
0
39
0
210
0
220
0
230
1
0
ENDBLK
5
214
100
AcDbEntity
8
0
100
AcDbBlockEnd
0
ENDSEC
0
SECTION
2
ENTITIES
0
ARC
5
C9
100
AcDbEntity
8
1
62
256
6
ByLayer
370
18
48
1
60
0
100
AcDbCircle
39
0
10
1.735848
20
8.963491
30
0
40
0.5
210
0
220
0
230
1
100
AcDbArc
50
90
51
135
0
ARC
5
CA
100
AcDbEntity
8
1
62
256
6
ByLayer
370
18
48
1
60
0
100
AcDbCircle
39
0
10
1.735848
20
-8.963491
30
0
40
0.5
210
0
220
0
230
1
100
AcDbArc
50
225
51
270
0
ARC
5
CB
100
AcDbEntity
8
SK2
62
256
6
ByLayer
370
13
48
1
60
0
100
AcDbCircle
39
0
10
20.5015
20
6.604
30
0
40
12.9728223535867
210
0
220
0
230
1
100
AcDbArc
50
90
51
135
0
ARC
5
CC
100
AcDbEntity
8
SK2
62
256
6
ByLayer
370
13
48
1
60
0
100
AcDbCircle
39
0
10
20.5015
20
6.604
30
0
40
12.9728223535867
210
0
220
0
230
1
100
AcDbArc
50
24.358708
51
90
0
ELLIPSE
5
CD
100
AcDbEntity
8
1
62
256
6
ByLayer
370
18
48
1
60
0
100
AcDbEllipse
10
15.224288
20
5.414664
30
0
11
0.213015406383959
21
0.213015406383959
31
0
210
0
220
0
230
1
40
0.488964
41
1.5707963267949
42
2.8576809873564
0
ELLIPSE
5
CE
100
AcDbEntity
8
1
62
256
6
ByLayer
370
18
48
1
60
0
100
AcDbEllipse
10
14.49402
20
6.299003
30
0
11
0.911495996288531
21
-0.911495996288507
31
0
210
0
220
0
230
1
40
0.996195
41
-1.57079632679491
42
-0.523598775598316
0
ELLIPSE
5
CF
100
AcDbEntity
8
1
62
256
6
ByLayer
370
18
48
1
60
0
100
AcDbEllipse
10
13.60968
20
7.029271
30
0
11
0.213015406384217
21
0.213015406384217
31
0
210
0
220
0
230
1
40
0.488964
41
-2.85768098735601
42
-1.5707963267949
0
ELLIPSE
5
D0
100
AcDbEntity
8
1
62
256
6
ByLayer
370
18
48
1
60
0
100
AcDbEllipse
10
15.517121
20
6.514801
30
0
11
0.0789719132403933
21
-0.291609064644492
31
0
210
0
220
0
230
1
40
0.486171
41
-2.85978307914
42
-1.57289841858058
0
ELLIPSE
5
D1
100
AcDbEntity
8
1
62
256
6
ByLayer
370
18
48
1
60
0
100
AcDbEllipse
10
14.49402
20
6.299003
30
0
11
0.911495996288531
21
-0.911495996288507
31
0
210
0
220
0
230
1
40
0.996195
41
0.523598775598297
42
1.57079632679488
0
ELLIPSE
5
D2
100
AcDbEntity
8
1
62
256
6
ByLayer
370
18
48
1
60
0
100
AcDbEllipse
10
14.49402
20
6.299003
30
0
11
0.911495996288531
21
-0.911495996288507
31
0
210
0
220
0
230
1
40
0.996195
41
-0.523598775598316
42
0.523598775598296
0
ELLIPSE
5
D3
100
AcDbEntity
8
1
62
256
6
ByLayer
370
18
48
1
60
0
100
AcDbEllipse
10
14.49402
20
6.299003
30
0
11
-0.989949493661179
21
0.989949493661154
31
0
210
0
220
0
230
1
40
0.996195
41
0
42
6.28318530717959
0
ELLIPSE
5
D4
100
AcDbEntity
8
1
62
256
6
ByLayer
370
18
48
1
60
0
100
AcDbEllipse
10
14.49402
20
6.299003
30
0
11
0.911495996288531
21
-0.911495996288507
31
0
210
0
220
0
230
1
40
0.996195
41
1.57079632679488
42
2.61799387799147
0
ELLIPSE
5
D5
100
AcDbEntity
8
1
62
256
6
ByLayer
370
18
48
1
60
0
100
AcDbEllipse
10
14.49402
20
6.299003
30
0
11
0.911495996288531
21
-0.911495996288507
31
0
210
0
220
0
230
1
40
0.996195
41
2.61799387799147
42
-2.61799387799152
0
ELLIPSE
5
D6
100
AcDbEntity
8
1
62
256
6
ByLayer
370
18
48
1
60
0
100
AcDbEllipse
10
14.709818
20
7.322105
30
0
11
0.291609064643807
21
-0.078971913240214
31
0
210
0
220
0
230
1
40
0.486171
41
-2.85557889557103
42
-1.56869423500919
0
ELLIPSE
5
D7
100
AcDbEntity
8
1
62
256
6
ByLayer
370
18
48
1
60
0
100
AcDbEllipse
10
14.709818
20
7.322105
30
0
11
0.291609064644173
21
-0.0789719132400871
31
0
210
0
220
0
230
1
40
0.486171
41
-1.56869423501073
42
-0.281809574449912
0
ELLIPSE
5
D8
100
AcDbEntity
8
1
62
256
6
ByLayer
370
18
48
1
60
0
100
AcDbEllipse
10
14.416984
20
6.221967
30
0
11
-0.703146983211912
21
0.703146983211894
31
0
210
0
220
0
230
1
40
0.996195
41
-1.04719755119661
42
-2.15182022551591E-14
0
ELLIPSE
5
D9
100
AcDbEntity
8
1
62
256
6
ByLayer
370
18
48
1
60
0
100
AcDbEllipse
10
15.517121
20
6.514801
30
0
11
0.0789719132402693
21
-0.291609064643515
31
0
210
0
220
0
230
1
40
0.486171
41
-1.57289841858166
42
-0.286013758018962
0
ELLIPSE
5
DA
100
AcDbEntity
8
1
62
256
6
ByLayer
370
18
48
1
60
0
100
AcDbEllipse
10
14.47785
20
6.282833
30
0
11
-1.48492424049177
21
1.48492424049173
31
0
210
0
220
0
230
1
40
0.996195
41
0
42
6.28318530717959
0
ELLIPSE
5
DB
100
AcDbEntity
8
1
62
256
6
ByLayer
370
18
48
1
60
0
100
AcDbEllipse
10
14.49402
20
6.299003
30
0
11
0.911495996288531
21
-0.911495996288507
31
0
210
0
220
0
230
1
40
0.996195
41
-2.61799387799152
42
-1.57079632679491
0
ELLIPSE
5
DC
100
AcDbEntity
8
1
62
256
6
ByLayer
370
18
48
1
60
0
100
AcDbEllipse
10
14.416984
20
6.221967
30
0
11
-0.703146983211912
21
0.703146983211894
31
0
210
0
220
0
230
1
40
0.996195
41
-2.09439510239321
42
-1.04719755119661
0
ELLIPSE
5
DD
100
AcDbEntity
8
1
62
256
6
ByLayer
370
18
48
1
60
0
100
AcDbEllipse
10
14.492712
20
6.297695
30
0
11
1.63203020768672
21
-1.63203020768668
31
0
210
0
220
0
230
1
40
0.996195
41
0
42
6.28318530717959
0
ELLIPSE
5
DE
100
AcDbEntity
8
1
62
256
6
ByLayer
370
18
48
1
60
0
100
AcDbEllipse
10
14.451921
20
6.256904
30
0
11
-1.59930244031163
21
1.59930244031159
31
0
210
0
220
0
230
1
40
0.996195
41
0.787304644028939
42
0.926123905043012
0
ELLIPSE
5
DF
100
AcDbEntity
8
1
62
256
6
ByLayer
370
18
48
1
60
0
100
AcDbEllipse
10
14.451921
20
6.256904
30
0
11
-1.59930244031163
21
1.59930244031159
31
0
210
0
220
0
230
1
40
0.996195
41
2.21555108419653
42
-3.94194228540003E-16
0
ELLIPSE
5
E0
100
AcDbEntity
8
1
62
256
6
ByLayer
370
18
48
1
60
0
100
AcDbEllipse
10
14.451921
20
6.256904
30
0
11
-1.59930244031163
21
1.59930244031159
31
0
210
0
220
0
230
1
40
0.996195
41
0
42
0.787304505980192
0
ELLIPSE
5
E1
100
AcDbEntity
8
1
62
256
6
ByLayer
370
18
48
1
60
0
100
AcDbEllipse
10
14.416984
20
6.221967
30
0
11
-0.703146983211912
21
0.703146983211894
31
0
210
0
220
0
230
1
40
0.996195
41
2.34546098624035
42
3.14159265358978
0
ELLIPSE
5
E2
100
AcDbEntity
8
1
62
256
6
ByLayer
370
18
48
1
60
0
100
AcDbEllipse
10
14.416984
20
6.221967
30
0
11
-0.703146983211912
21
0.703146983211894
31
0
210
0
220
0
230
1
40
0.996195
41
-3.04050552278165
42
-2.09439510239322
0
ELLIPSE
5
E3
100
AcDbEntity
8
1
62
256
6
ByLayer
370
18
48
1
60
0
100
AcDbEllipse
10
14.416984
20
6.221967
30
0
11
0.703146983211912
21
-0.703146983211893
31
0
210
0
220
0
230
1
40
0.996195
41
3.14159265358978
42
-2.34058470495856
0
ELLIPSE
5
E4
100
AcDbEntity
8
1
62
256
6
ByLayer
370
18
48
1
60
0
100
AcDbEllipse
10
14.416984
20
6.221967
30
0
11
-0.703146983211912
21
0.703146983211894
31
0
210
0
220
0
230
1
40
0.996195
41
1.22918075251726
42
1.89595108139125
0
ELLIPSE
5
E5
100
AcDbEntity
8
1
62
256
6
ByLayer
370
18
48
1
60
0
100
AcDbEllipse
10
15.221251
20
7.026234
30
0
11
0.213829090630811
21
-0.213829090630811
31
0
210
0
220
0
230
1
40
0.48525
41
0.160894922806222
42
2.98069963607317
0
ELLIPSE
5
E6
100
AcDbEntity
8
1
62
256
6
ByLayer
370
18
48
1
60
0
100
AcDbEllipse
10
14.432391
20
6.237375
30
0
11
-1.48492424049177
21
1.48492424049173
31
0
210
0
220
0
230
1
40
0.996195
41
0.787304387538201
42
-3.14155196986833
0
ELLIPSE
5
E7
100
AcDbEntity
8
1
62
256
6
ByLayer
370
18
48
1
60
0
100
AcDbEllipse
10
14.432391
20
6.237375
30
0
11
-1.48492424049177
21
1.48492424049173
31
0
210
0
220
0
230
1
40
0.996195
41
0
42
0.787304281903874
0
ELLIPSE
5
E8
100
AcDbEntity
8
1
62
256
6
ByLayer
370
18
48
1
60
0
100
AcDbEllipse
10
15.518294
20
5.924925
30
0
11
0.0772615110085902
21
0.291471703339787
31
0
210
0
220
0
230
1
40
0.488028
41
-2.5300365660781
42
0.158757929358813
0
ELLIPSE
5
E9
100
AcDbEntity
8
1
62
256
6
ByLayer
370
18
48
1
60
0
100
AcDbEllipse
10
14.119942
20
7.323277
30
0
11
0.291471703339786
21
0.077261511008595
31
0
210
0
220
0
230
1
40
0.488028
41
-0.158757929358898
42
2.23035059638209
0
ELLIPSE
5
EA
100
AcDbEntity
8
1
62
256
6
ByLayer
370
18
48
1
60
0
100
AcDbEllipse
10
14.714027
20
5.120658
30
0
11
0.291471703339784
21
0.0772615110085996
31
0
210
0
220
0
230
1
40
0.488028
41
-0.654686081164344
42
0.162988194235986
0
ELLIPSE
5
EB
100
AcDbEntity
8
1
62
256
6
ByLayer
370
18
48
1
60
0
100
AcDbEllipse
10
13.315675
20
6.51901
30
0
11
0.0772615110085955
21
0.291471703339779
31
0
210
0
220
0
230
1
40
0.488028
41
-0.162988194235911
42
0.611554714559494
0
ELLIPSE
5
EC
100
AcDbEntity
8
1
62
256
6
ByLayer
370
18
48
1
60
0
100
AcDbEllipse
10
14.43459
20
6.239573
30
0
11
-1.5205472484847
21
1.52054724848466
31
0
210
0
220
0
230
1
40
0.996195
41
0.787304314836364
42
-2.17148691126443
0
ELLIPSE
5
ED
100
AcDbEntity
8
1
62
256
6
ByLayer
370
18
48
1
60
0
100
AcDbEllipse
10
14.43459
20
6.239573
30
0
11
-1.5205472484847
21
1.52054724848466
31
0
210
0
220
0
230
1
40
0.996195
41
-0.970220289951784
42
-4.14611116023555E-16
0
ELLIPSE
5
EE
100
AcDbEntity
8
1
62
256
6
ByLayer
370
18
48
1
60
0
100
AcDbEllipse
10
14.43459
20
6.239573
30
0
11
-1.5205472484847
21
1.52054724848466
31
0
210
0
220
0
230
1
40
0.996195
41
0
42
0.787304335107093
0
ELLIPSE
5
EF
100
AcDbEntity
8
SK1
62
256
6
ByLayer
370
18
48
1
60
0
100
AcDbEllipse
10
-29.587395
20
0
30
0
11
8.07446026138554
21
9.4588697893085E-15
31
0
210
0
220
0
230
1
40
0.982697
41
-0.696781914590181
42
0.696781914590176
0
ELLIPSE
5
F0
100
AcDbEntity
8
SK1
62
256
6
ByLayer
370
18
48
1
60
0
100
AcDbEllipse
10
-27.387605
20
0
30
0
11
8.07446026138556
21
9.45886978930852E-15
31
0
210
0
220
0
230
1
40
0.982697
41
2.44481073899961
42
-2.44481073899962
0
ELLIPSE
5
F1
100
AcDbEntity
8
1
62
256
6
ByLayer
370
18
48
1
60
0
100
AcDbEllipse
10
14.030063
20
0.586202
30
0
11
0.821675238542457
21
0.793643856175968
31
0
210
0
220
0
230
1
40
0.001328
41
-2.90275576822789
42
-2.27300044520231
0
ELLIPSE
5
F2
100
AcDbEntity
8
1
62
256
6
ByLayer
370
18
48
1
60
0
100
AcDbEllipse
10
14.437205
20
12.742188
30
0
11
8.48528137423874
21
-8.48528137423852
31
0
210
0
220
0
230
1
40
0.996195
41
-2.07623730627412
42
-1.61005659083037
0
ELLIPSE
5
F3
100
AcDbEntity
8
1
62
256
6
ByLayer
370
18
48
1
60
0
100
AcDbEllipse
10
13.418312
20
0
30
0
11
9.79714969623437
21
9.46348573223263
31
0
210
0
220
0
230
1
40
0.001053
41
-3.00314901961429
42
-1.76406512278321
0
ELLIPSE
5
F4
100
AcDbEntity
8
1
62
256
6
ByLayer
370
18
48
1
60
0
100
AcDbEllipse
10
-0.986539
20
0.858357
30
0
11
8.08408351025975
21
3.57025127111896
31
0
210
0
220
0
230
1
40
0.16965
41
-0.395783190622308
42
0.535314562749272
0
ELLIPSE
5
F5
100
AcDbEntity
8
1
62
256
6
ByLayer
370
18
48
1
60
0
100
AcDbEllipse
10
14.012155
20
0.491173
30
0
11
0.0878591054891233
21
1.17061443450924
31
0
210
0
220
0
230
1
40
0.722898
41
1.30998164643121
42
1.371719087862
0
ELLIPSE
5
F6
100
AcDbEntity
8
1
62
256
6
ByLayer
370
18
48
1
60
0
100
AcDbEllipse
10
14.014674
20
0.493693
30
0
11
0.0979850741811601
21
1.17257370867548
31
0
210
0
220
0
230
1
40
0.723603
41
1.38064848720687
42
1.75491320440687
0
ELLIPSE
5
F7
100
AcDbEntity
8
1
62
256
6
ByLayer
370
18
48
1
60
0
100
AcDbEllipse
10
14.437205
20
12.742188
30
0
11
8.48528137423874
21
-8.48528137423852
31
0
210
0
220
0
230
1
40
0.996195
41
-1.48896161405953
42
-0.891038449925358
0
ELLIPSE
5
F8
100
AcDbEntity
8
1
62
256
6
ByLayer
370
18
48
1
60
0
100
AcDbEllipse
10
12.489136
20
0
30
0
11
9.86166616295061
21
9.28753547063723
31
0
210
0
220
0
230
1
40
0.184189
41
1.66743810585215
42
-2.8111014777222
0
ELLIPSE
5
F9
100
AcDbEntity
8
1
62
256
6
ByLayer
370
18
48
1
60
0
100
AcDbEllipse
10
14.005354
20
0.677813
30
0
11
0.796695304582857
21
0.849175588809197
31
0
210
0
220
0
230
1
40
0.226386
41
2.92688127482084
42
-3.04111099994712
0
ELLIPSE
5
FA
100
AcDbEntity
8
1
62
256
6
ByLayer
370
18
48
1
60
0
100
AcDbEllipse
10
18.99236
20
0
30
0
11
153.265377551095
21
-0.586558415312594
31
0
210
0
220
0
230
1
40
0.061627
41
1.62254804979864
42
1.67600855697057
0
ELLIPSE
5
FB
100
AcDbEntity
8
1
62
256
6
ByLayer
370
18
48
1
60
0
100
AcDbEllipse
10
14.046445
20
0.525464
30
0
11
0.965497639460201
21
0.26041180502577
31
0
210
0
220
0
230
1
40
0.043578
41
-2.72882522389453
42
-1.77885686472644
0
ELLIPSE
5
FC
100
AcDbEntity
8
1
62
256
6
ByLayer
370
18
48
1
60
0
100
AcDbEllipse
10
8.386276
20
5.706692
30
0
11
-0.883883476483195
21
0.883883476483173
31
0
210
0
220
0
230
1
40
0.996195
41
-3.02429017988518
42
-2.94712457137318
0
ELLIPSE
5
FD
100
AcDbEntity
8
1
62
256
6
ByLayer
370
18
48
1
60
0
100
AcDbEllipse
10
8.386276
20
5.706692
30
0
11
-0.883883476483195
21
0.883883476483173
31
0
210
0
220
0
230
1
40
0.996195
41
-1.0695323805923
42
-0.11733565026325
0
ELLIPSE
5
FE
100
AcDbEntity
8
1
62
256
6
ByLayer
370
18
48
1
60
0
100
AcDbEllipse
10
8.386276
20
5.706692
30
0
11
-0.883883476483195
21
0.883883476483173
31
0
210
0
220
0
230
1
40
0.996195
41
0.0038124031851891
42
0.787304063114357
0
ELLIPSE
5
FF
100
AcDbEntity
8
1
62
256
6
ByLayer
370
18
48
1
60
0
100
AcDbEllipse
10
14.200516
20
0.679535
30
0
11
0.707106781186557
21
-0.707106781186538
31
0
210
0
220
0
230
1
40
0.996195
41
-2.81127476678969
42
-2.53039726735626
0
ELLIPSE
5
100
100
AcDbEntity
8
1
62
256
6
ByLayer
370
18
48
1
60
0
100
AcDbEllipse
10
11.70235
20
3.507333
30
0
11
0.707106781186557
21
-0.707106781186538
31
0
210
0
220
0
230
1
40
0.996195
41
-2.55126130969283
42
-0.596133291927732
0
ELLIPSE
5
101
100
AcDbEntity
8
1
62
256
6
ByLayer
370
18
48
1
60
0
100
AcDbEllipse
10
8.592425
20
5.912841
30
0
11
0.883883476483196
21
-0.883883476483173
31
0
210
0
220
0
230
1
40
0.996195
41
2.07538544346647
42
-0.0458687345454058
0
POINT
5
70
100
AcDbEntity
8
81
62
256
6
ByLayer
370
18
48
1
60
0
100
AcDbPoint
10
20.5015
20
6.604
30
0
39
0
210
0
220
0
230
1
50
360
0
POINT
5
72
100
AcDbEntity
8
80
62
256
6
ByLayer
370
18
48
1
60
0
100
AcDbPoint
10
0
20
0
30
0
39
0
210
0
220
0
230
1
50
360
0
POINT
5
74
100
AcDbEntity
8
1
62
256
6
ByLayer
370
18
48
1
60
1
100
AcDbPoint
10
20.5015
20
-6.604
30
0
39
0
210
0
220
0
230
1
50
360
0
POINT
5
76
100
AcDbEntity
8
1
62
256
6
ByLayer
370
18
48
1
60
1
100
AcDbPoint
10
20.5015
20
6.604
30
0
39
0
210
0
220
0
230
1
50
360
0
POINT
5
77
100
AcDbEntity
8
1
62
256
6
ByLayer
370
18
48
1
60
1
100
AcDbPoint
10
20.5015
20
-6.604
30
0
39
0
210
0
220
0
230
1
50
360
0
POINT
5
78
100
AcDbEntity
8
1
62
256
6
ByLayer
370
18
48
1
60
1
100
AcDbPoint
10
-0.0013
20
0
30
0
39
0
210
0
220
0
230
1
50
360
0
POINT
5
79
100
AcDbEntity
8
1
62
256
6
ByLayer
370
18
48
1
60
1
100
AcDbPoint
10
-52.7
20
7.93475
30
0
39
0
210
0
220
0
230
1
50
360
0
POINT
5
7A
100
AcDbEntity
8
1
62
256
6
ByLayer
370
18
48
1
60
1
100
AcDbPoint
10
20.5015
20
6.604
30
0
39
0
210
0
220
0
230
1
50
360
0
POINT
5
7B
100
AcDbEntity
8
1
62
256
6
ByLayer
370
18
48
1
60
1
100
AcDbPoint
10
-52.7
20
7.93475
30
0
39
0
210
0
220
0
230
1
50
360
0
POINT
5
7C
100
AcDbEntity
8
1
62
256
6
ByLayer
370
18
48
1
60
1
100
AcDbPoint
10
14.4625
20
12.305
30
0
39
0
210
0
220
0
230
1
50
360
0
POINT
5
7D
100
AcDbEntity
8
1
62
256
6
ByLayer
370
18
48
1
60
1
100
AcDbPoint
10
14.4625
20
-12.305
30
0
39
0
210
0
220
0
230
1
50
360
0
POINT
5
7E
100
AcDbEntity
8
1
62
256
6
ByLayer
370
18
48
1
60
1
100
AcDbPoint
10
14.4625
20
12.305
30
0
39
0
210
0
220
0
230
1
50
360
0
POINT
5
7F
100
AcDbEntity
8
1
62
256
6
ByLayer
370
18
48
1
60
1
100
AcDbPoint
10
-52.7
20
7.93475
30
0
39
0
210
0
220
0
230
1
50
360
0
POINT
5
80
100
AcDbEntity
8
1
62
256
6
ByLayer
370
18
48
1
60
1
100
AcDbPoint
10
-52.7
20
-7.93475
30
0
39
0
210
0
220
0
230
1
50
360
0
SPLINE
5
102
100
AcDbEntity
8
1
62
256
6
ByLayer
370
18
48
1
60
0
100
AcDbSpline
70
4
71
3
72
18
73
14
40
0
40
0
40
0
40
0
40
0.25
40
0.25
40
0.5
40
0.5
40
0.625
40
0.625
40
0.75
40
0.75
40
0.875
40
0.875
40
1
40
1
40
1
40
1
41
1
10
13.2506273527664
20
6.63436792782576
30
0
41
1
10
13.2420538696589
20
6.60215844796903
30
0
41
1
10
13.2359880017761
20
6.56923981936922
30
0
41
1
10
13.2296949792975
20
6.50269624684847
30
0
41
1
10
13.2294108075068
20
6.46907699322909
30
0
41
1
10
13.2355256904785
20
6.41948635650414
30
0
41
1
10
13.2386658795826
20
6.40319902650015
30
0
41
1
10
13.2479196910489
20
6.37183685568493
30
0
41
1
10
13.2541516974989
20
6.3564582307165
30
0
41
1
10
13.2706915690794
20
6.32925524459793
30
0
41
1
10
13.2811806321969
20
6.31730519923283
30
0
41
1
10
13.3061437092422
20
6.30110796801986
30
0
41
1
10
13.3201693129824
20
6.29726611317213
30
0
41
1
10
13.3342207649458
20
6.29759106097347
30
0
0
SPLINE
5
103
100
AcDbEntity
8
1
62
256
6
ByLayer
370
18
48
1
60
0
100
AcDbSpline
70
4
71
3
72
18
73
14
40
0
40
0
40
0
40
0
40
0.125
40
0.125
40
0.250000000000001
40
0.250000000000001
40
0.500000000000001
40
0.500000000000001
40
0.75
40
0.75
40
0.875
40
0.875
40
1
40
1
40
1
40
1
41
1
10
15.0509105830257
20
7.27848578538809
30
0
41
1
10
15.0324909104475
20
7.26062586065757
30
0
41
1
10
15.0085589084436
20
7.24918553391581
30
0
41
1
10
14.9576815556066
20
7.23352755995933
30
0
41
1
10
14.9306586315685
20
7.22947788429573
30
0
41
1
10
14.8486279240702
20
7.22503837731861
30
0
41
1
10
14.7924833040412
20
7.23218357673267
30
0
41
1
10
14.6847245444605
20
7.26124478327026
30
0
41
1
10
14.6331382919774
20
7.28316080343305
30
0
41
1
10
14.5660978799686
20
7.32777959685217
30
0
41
1
10
14.5454491904598
20
7.34466306380733
30
0
41
1
10
14.5108418938254
20
7.38342441907091
30
0
41
1
10
14.4968149791851
20
7.40511924835872
30
0
41
1
10
14.4908866640818
20
7.42953415011672
30
0
0
SPLINE
5
104
100
AcDbEntity
8
1
62
256
6
ByLayer
370
18
48
1
60
0
100
AcDbSpline
70
4
71
3
72
8
73
4
40
0
40
0
40
0
40
0
40
1
40
1
40
1
40
1
41
1
10
13.9107993141415
20
7.29630578880969
30
0
41
1
10
13.9122017938442
20
7.28962057582496
30
0
41
1
10
13.9136046488178
20
7.28293445757697
30
0
41
1
10
13.9150078984241
20
7.27624738822934
30
0
0
SPLINE
5
105
100
AcDbEntity
8
1
62
256
6
ByLayer
370
18
48
1
60
0
100
AcDbSpline
70
4
71
3
72
8
73
4
40
0
40
0
40
0
40
0
40
1
40
1
40
1
40
1
41
1
10
15.4712641896373
20
5.71999109701608
30
0
41
1
10
15.4779512589849
20
5.71858784740985
30
0
41
1
10
15.4846373772329
20
5.71718499243624
30
0
41
1
10
15.4913225902176
20
5.71578251273351
30
0
0
SPLINE
5
106
100
AcDbEntity
8
1
62
256
6
ByLayer
370
18
48
1
60
0
100
AcDbSpline
70
4
71
3
72
18
73
14
40
0
40
0
40
0
40
0
40
0.125000000000001
40
0.125000000000001
40
0.250000000000001
40
0.250000000000001
40
0.500000000000001
40
0.500000000000001
40
0.75
40
0.75
40
0.875
40
0.875
40
1
40
1
40
1
40
1
41
1
10
13.9150078984241
20
7.27624738822934
30
0
41
1
10
13.9201765739896
20
7.2516164944889
30
0
41
1
10
13.9171820807231
20
7.2254065016848
30
0
41
1
10
13.9037210986825
20
7.17393658123603
30
0
41
1
10
13.8930759241521
20
7.14869257999865
30
0
41
1
10
13.8544182761662
20
7.07589111087498
30
0
41
1
10
13.8197461329099
20
7.03102536843315
30
0
41
1
10
13.7410543913366
20
6.95232948644804
30
0
41
1
10
13.6970491047336
20
6.91852337736754
30
0
41
1
10
13.6268651085421
20
6.88244731000617
30
0
41
1
10
13.602716045316
20
6.87286582026314
30
0
41
1
10
13.5537116189519
20
6.86193050860217
30
0
41
1
10
13.5289720493901
20
6.8604277733337
30
0
41
1
10
13.5060323442087
20
6.86727183401396
30
0
0
SPLINE
5
107
100
AcDbEntity
8
1
62
256
6
ByLayer
370
18
48
1
60
0
100
AcDbSpline
70
4
71
3
72
8
73
4
40
0
40
0
40
0
40
0
40
1
40
1
40
1
40
1
41
1
10
15.0659109370156
20
7.29303031424823
30
0
41
1
10
15.0609114681254
20
7.2881827626064
30
0
41
1
10
15.0559113608777
20
7.28333459666044
30
0
41
1
10
15.0509105830257
20
7.27848578538809
30
0
0
SPLINE
5
108
100
AcDbEntity
8
1
62
256
6
ByLayer
370
18
48
1
60
0
100
AcDbSpline
70
4
71
3
72
18
73
14
40
0
40
0
40
0
40
0
40
0.25
40
0.25
40
0.5
40
0.5
40
0.625
40
0.625
40
0.75
40
0.75
40
0.875
40
0.875
40
1
40
1
40
1
40
1
41
1
10
14.1586548316009
20
7.54239540666023
30
0
41
1
10
14.1264453517441
20
7.53382192355278
30
0
41
1
10
14.0949013743904
20
7.5226594259953
30
0
41
1
10
14.034184826056
20
7.49476224430234
30
0
41
1
10
14.0049874832146
20
7.47808348388074
30
0
41
1
10
13.9652714546241
20
7.44758746573208
30
0
41
1
10
13.9528080427527
20
7.43655017186782
30
0
41
1
10
13.9304595366595
20
7.41238509892079
30
0
41
1
10
13.9203726673552
20
7.39899749710531
30
0
41
1
10
13.9053763602868
20
7.37028012772723
30
0
41
1
10
13.9004518335076
20
7.35472151758333
30
0
41
1
10
13.8993308191032
20
7.32378831243335
30
0
41
1
10
13.90325392091
20
7.30902471700614
30
0
41
1
10
13.9107993141415
20
7.29630578880969
30
0
0
SPLINE
5
109
100
AcDbEntity
8
1
62
256
6
ByLayer
370
18
48
1
60
0
100
AcDbSpline
70
4
71
3
72
20
73
16
40
0
40
0
40
0
40
0
40
0.125
40
0.125
40
0.25
40
0.25
40
0.5
40
0.5
40
0.625
40
0.625
40
0.75
40
0.75
40
0.875
40
0.875
40
1
40
1
40
1
40
1
41
1
10
13.5037939470499
20
5.73136914941227
30
0
41
1
10
13.5199916429091
20
5.74812717385933
30
0
41
1
10
13.5299534998439
20
5.77060479383184
30
0
41
1
10
13.5430532183225
20
5.81898421178124
30
0
41
1
10
13.5460354935839
20
5.84499671934964
30
0
41
1
10
13.5478684579505
20
5.9247002977234
30
0
41
1
10
13.5397864566705
20
5.98006722627468
30
0
41
1
10
13.5178960437162
20
6.06096298905504
30
0
41
1
10
13.50903223462
20
6.0871557909789
30
0
41
1
10
13.4880658141982
20
6.13796420414991
30
0
41
1
10
13.4758279458676
20
6.16283731872869
30
0
41
1
10
13.4478317895561
20
6.20921892515324
30
0
41
1
10
13.4321155231649
20
6.23083185474925
30
0
41
1
10
13.3959246371575
20
6.26808523090537
30
0
41
1
10
13.3755827010961
20
6.28375305789106
30
0
41
1
10
13.3527455823213
20
6.29139306835626
30
0
0
SPLINE
5
10A
100
AcDbEntity
8
1
62
256
6
ByLayer
370
18
48
1
60
0
100
AcDbSpline
70
4
71
3
72
16
73
12
40
0
40
0
40
0
40
0
40
0.125
40
0.125
40
0.25
40
0.25
40
0.5
40
0.5
40
0.75
40
0.75
40
1
40
1
40
1
40
1
41
1
10
15.4880471156562
20
6.8708941356077
30
0
41
1
10
15.5016041959769
20
6.87791641840192
30
0
41
1
10
15.513033488771
20
6.88856079989046
30
0
41
1
10
15.5285956346402
20
6.91530019524191
30
0
41
1
10
15.532679903924
20
6.93115252522767
30
0
41
1
10
15.5359862102828
20
6.97950348592966
30
0
41
1
10
15.5275036615307
20
7.01246944153883
30
0
41
1
10
15.5026568663278
20
7.07402609852605
30
0
41
1
10
15.4858473694
20
7.10318914481613
30
0
41
1
10
15.447426845713
20
7.15782467948594
30
0
41
1
10
15.425694485422
20
7.18338323167353
30
0
41
1
10
15.4020472592518
20
7.20703045784381
30
0
0
SPLINE
5
10B
100
AcDbEntity
8
1
62
256
6
ByLayer
370
18
48
1
60
0
100
AcDbSpline
70
4
71
3
72
8
73
4
40
0
40
0
40
0
40
0
40
1
40
1
40
1
40
1
41
1
10
15.0678654614985
20
5.2923253840143
30
0
41
1
10
15.0660066628738
20
5.29855427807712
30
0
41
1
10
15.0641477231578
20
5.30478431158275
30
0
41
1
10
15.0622886354219
20
5.3110155428007
30
0
0
SPLINE
5
10C
100
AcDbEntity
8
1
62
256
6
ByLayer
370
18
48
1
60
0
100
AcDbSpline
70
4
71
3
72
18
73
14
40
0
40
0
40
0
40
0
40
0.125
40
0.125
40
0.25
40
0.25
40
0.499999999999999
40
0.499999999999999
40
0.749999999999999
40
0.749999999999999
40
0.874999999999999
40
0.874999999999999
40
1
40
1
40
1
40
1
41
1
10
14.4864098697642
20
5.15772878091332
30
0
41
1
10
14.4787552586611
20
5.18060954314959
30
0
41
1
10
14.4630174497461
20
5.20097668515595
30
0
41
1
10
14.4260692906568
20
5.23689765176258
30
0
41
1
10
14.4042258981516
20
5.25281339112354
30
0
41
1
10
14.3349646142659
20
5.29464237129196
30
0
41
1
10
14.2827806067204
20
5.31564139216417
30
0
41
1
10
14.1749253244862
20
5.34479809979143
30
0
41
1
10
14.1195725360309
20
5.35285011408172
30
0
41
1
10
14.0400641323782
20
5.35101896469291
30
0
41
1
10
14.0141003113847
20
5.34805756009197
30
0
41
1
10
13.9656215241004
20
5.33494241127067
30
0
41
1
10
13.9431360492409
20
5.32496718049285
30
0
41
1
10
13.9263859508203
20
5.30877714564195
30
0
0
SPLINE
5
10D
100
AcDbEntity
8
1
62
256
6
ByLayer
370
18
48
1
60
0
100
AcDbSpline
70
4
71
3
72
8
73
4
40
0
40
0
40
0
40
0
40
1
40
1
40
1
40
1
41
1
10
14.4908866640818
20
7.42953415011672
30
0
41
1
10
14.4892763250713
20
7.43616609663977
30
0
41
1
10
14.4876664151404
20
7.4427971012322
30
0
41
1
10
14.4860569132585
20
7.4494272092862
30
0
0
SPLINE
5
10E
100
AcDbEntity
8
1
62
256
6
ByLayer
370
18
48
1
60
0
100
AcDbSpline
70
4
71
3
72
8
73
4
40
0
40
0
40
0
40
0
40
1
40
1
40
1
40
1
41
1
10
15.6444440106941
20
6.29104011185055
30
0
41
1
10
15.6378139026401
20
6.29264961373246
30
0
41
1
10
15.6311828980477
20
6.29425952366333
30
0
41
1
10
15.6245509515247
20
6.29586986267378
30
0
0
SPLINE
5
10F
100
AcDbEntity
8
1
62
256
6
ByLayer
370
18
48
1
60
0
100
AcDbSpline
70
4
71
3
72
16
73
12
40
0
40
0
40
0
40
0
40
0.124999999999999
40
0.124999999999999
40
0.249999999999998
40
0.249999999999998
40
0.499999999999998
40
0.499999999999998
40
0.749999999999999
40
0.749999999999999
40
1
40
1
40
1
40
1
41
1
10
13.9127538386243
20
5.29560085857577
30
0
41
1
10
13.9067700140955
20
5.2830822365205
30
0
41
1
10
13.8971610680522
20
5.27268837917171
30
0
41
1
10
13.8722601313085
20
5.25896469191025
30
0
41
1
10
13.8572015281839
20
5.25567414948753
30
0
41
1
10
13.8107887032153
20
5.25430597886219
30
0
41
1
10
13.7785885361075
20
5.26355431611557
30
0
41
1
10
13.7181382406249
20
5.28950747282317
30
0
41
1
10
13.6893071245366
20
5.30664889995276
30
0
41
1
10
13.6351027532799
20
5.34550058705281
30
0
41
1
10
13.6096395277531
20
5.36732827400459
30
0
41
1
10
13.5859923015828
20
5.39097550017487
30
0
0
SPLINE
5
110
100
AcDbEntity
8
1
62
256
6
ByLayer
370
18
48
1
60
0
100
AcDbSpline
70
4
71
3
72
8
73
4
40
0
40
0
40
0
40
0
40
1
40
1
40
1
40
1
41
1
10
13.5060323442087
20
6.86727183401396
30
0
41
1
10
13.4998011129907
20
6.8691309217499
30
0
41
1
10
13.4935710794851
20
6.87098986146583
30
0
41
1
10
13.4873421854223
20
6.87284866009051
30
0
0
SPLINE
5
111
100
AcDbEntity
8
1
62
256
6
ByLayer
370
18
48
1
60
0
100
AcDbSpline
70
4
71
3
72
18
73
14
40
0
40
0
40
0
40
0
40
0.125
40
0.125
40
0.249999999999999
40
0.249999999999999
40
0.5
40
0.5
40
0.75
40
0.75
40
0.875
40
0.875
40
1
40
1
40
1
40
1
41
1
10
15.6245509515247
20
6.29586986267378
30
0
41
1
10
15.6001230950738
20
6.30180132337657
30
0
41
1
10
15.578444206584
20
6.31582960968666
30
0
41
1
10
15.5397494084663
20
6.35036312885751
30
0
41
1
10
15.5228384916743
20
6.37102428714704
30
0
41
1
10
15.4781816721719
20
6.43810248930365
30
0
41
1
10
15.4562730405989
20
6.48967727635923
30
0
41
1
10
15.4272058533849
20
6.59743419567522
30
0
41
1
10
15.4200612174623
20
6.65359265487612
30
0
41
1
10
15.4244872842688
20
6.73556999828031
30
0
41
1
10
15.4285198304746
20
6.76256712746698
30
0
41
1
10
15.4441975237288
20
6.8135443579161
30
0
41
1
10
15.4556521336227
20
6.83748387744478
30
0
41
1
10
15.473502586796
20
6.85589378161777
30
0
0
SPLINE
5
112
100
AcDbEntity
8
1
62
256
6
ByLayer
370
18
48
1
60
0
100
AcDbSpline
70
4
71
3
72
8
73
4
40
0
40
0
40
0
40
0
40
1
40
1
40
1
40
1
41
1
10
15.473502586796
20
6.85589378161777
30
0
41
1
10
15.4783513980684
20
6.86089455946973
30
0
41
1
10
15.4831995640143
20
6.8658946667174
30
0
41
1
10
15.4880471156562
20
6.8708941356077
30
0
0
SPLINE
5
113
100
AcDbEntity
8
1
62
256
6
ByLayer
370
18
48
1
60
0
100
AcDbSpline
70
4
71
3
72
18
73
14
40
0
40
0
40
0
40
0
40
0.25
40
0.25
40
0.5
40
0.5
40
0.625
40
0.625
40
0.75
40
0.75
40
0.875
40
0.875
40
1
40
1
40
1
40
1
41
1
10
15.4020472592518
20
7.20703045784381
30
0
41
1
10
15.3784112625025
20
7.23066645459309
30
0
41
1
10
15.3528856063503
20
7.2523750389542
30
0
41
1
10
15.2982465999235
20
7.29080594921086
30
0
41
1
10
15.2691682106495
20
7.30758122418533
30
0
41
1
10
15.2229219475345
20
7.32626049120893
30
0
41
1
10
15.2071519131949
20
7.3313440939846
30
0
41
1
10
15.175130819238
20
7.33812241545533
30
0
41
1
10
15.1585549198442
20
7.33985641496875
30
0
41
1
10
15.1263748939513
20
7.3376981844653
30
0
41
1
10
15.1105675484241
20
7.33369586405593
30
0
41
1
10
15.0835565437762
20
7.31803297692076
30
0
41
1
10
15.0729364648169
20
7.30659365931527
30
0
41
1
10
15.0659109370156
20
7.29303031424823
30
0
0
SPLINE
5
114
100
AcDbEntity
8
1
62
256
6
ByLayer
370
18
48
1
60
0
100
AcDbSpline
70
4
71
3
72
8
73
4
40
0
40
0
40
0
40
0
40
1
40
1
40
1
40
1
41
1
10
13.9263859508203
20
5.30877714564195
30
0
41
1
10
13.921841011098
20
5.30438417249928
30
0
41
1
10
13.9172969885926
20
5.29999209129568
30
0
41
1
10
13.9127538386243
20
5.29560085857577
30
0
0
SPLINE
5
115
100
AcDbEntity
8
1
62
256
6
ByLayer
370
18
48
1
60
0
100
AcDbSpline
70
4
71
3
72
8
73
4
40
0
40
0
40
0
40
0
40
1
40
1
40
1
40
1
41
1
10
14.4864098697642
20
5.15772878091332
30
0
41
1
10
14.4884760469043
20
5.15155267251998
30
0
41
1
10
14.4905420415776
20
5.1453777526699
30
0
41
1
10
14.4926078623814
20
5.1392039635378
30
0
0
SPLINE
5
116
100
AcDbEntity
8
1
62
256
6
ByLayer
370
18
48
1
60
0
100
AcDbSpline
70
4
71
3
72
16
73
12
40
0
40
0
40
0
40
0
40
0.25
40
0.25
40
0.5
40
0.5
40
0.749999999999999
40
0.749999999999999
40
0.875
40
0.875
40
1
40
1
40
1
40
1
41
1
10
13.5859923015828
20
5.39097550017487
30
0
41
1
10
13.5623479327471
20
5.41461986901064
30
0
41
1
10
13.5405371722721
20
5.44006001122256
30
0
41
1
10
13.5016649166524
20
5.49428975777593
30
0
41
1
10
13.4845560002664
20
5.52304935601049
30
0
41
1
10
13.4585455227056
20
5.58362953745399
30
0
41
1
10
13.4493205176059
20
5.61550288388037
30
0
41
1
10
13.4506910262269
20
5.66228330201321
30
0
41
1
10
13.4540087625551
20
5.67728639176349
30
0
41
1
10
13.4676628097573
20
5.70207379662617
30
0
41
1
10
13.4781036243306
20
5.71175540495966
30
0
41
1
10
13.4906176599837
20
5.71773703721629
30
0
0
SPLINE
5
117
100
AcDbEntity
8
1
62
256
6
ByLayer
370
18
48
1
60
0
100
AcDbSpline
70
4
71
3
72
16
73
12
40
0
40
0
40
0
40
0
40
0.125
40
0.125
40
0.25
40
0.25
40
0.5
40
0.5
40
0.75
40
0.75
40
1
40
1
40
1
40
1
41
1
10
15.4913225902176
20
5.71578251273351
30
0
41
1
10
15.5040356436938
20
5.7082406046286
30
0
41
1
10
15.5188151884121
20
5.70433844830981
30
0
41
1
10
15.5494653059627
20
5.70540127817659
30
0
41
1
10
15.5651029712736
20
5.7102814339479
30
0
41
1
10
15.6082825965407
20
5.73276088092049
30
0
41
1
10
15.6324214614789
20
5.7570054783335
30
0
41
1
10
15.6730217331656
20
5.80985616131224
30
0
41
1
10
15.6897563094296
20
5.8391262131635
30
0
41
1
10
15.7176556746973
20
5.8998321804718
30
0
41
1
10
15.7288346517138
20
5.93141324766825
30
0
41
1
10
15.7374122080682
20
5.96363803019293
30
0
0
SPLINE
5
118
100
AcDbEntity
8
1
62
256
6
ByLayer
370
18
48
1
60
0
100
AcDbSpline
70
4
71
3
72
18
73
14
40
0
40
0
40
0
40
0
40
0.125000000000001
40
0.125000000000001
40
0.250000000000001
40
0.250000000000001
40
0.5
40
0.5
40
0.75
40
0.75
40
0.875
40
0.875
40
1
40
1
40
1
40
1
41
1
10
15.0622886354219
20
5.3110155428007
30
0
41
1
10
15.0554409432421
20
5.33396741992689
30
0
41
1
10
15.0569526770041
20
5.35869465322648
30
0
41
1
10
15.0678568044018
20
5.40760771903243
30
0
41
1
10
15.0774356443638
20
5.43178538570129
30
0
41
1
10
15.1135257723697
20
5.50201933484502
30
0
41
1
10
15.1473256060255
20
5.54601276768628
30
0
41
1
10
15.2260170091853
20
5.62470831125796
30
0
41
1
10
15.2708949557035
20
5.65938708025371
30
0
41
1
10
15.3436439171424
20
5.69802811286243
30
0
41
1
10
15.3688573253455
20
5.70867394758244
30
0
41
1
10
15.4204228787587
20
5.72217038629253
30
0
41
1
10
15.4466463582653
20
5.72515703150589
30
0
41
1
10
15.4712641896373
20
5.71999109701608
30
0
0
SPLINE
5
119
100
AcDbEntity
8
1
62
256
6
ByLayer
370
18
48
1
60
0
100
AcDbSpline
70
4
71
3
72
16
73
12
40
0
40
0
40
0
40
0
40
0.125
40
0.125
40
0.25
40
0.25
40
0.5
40
0.5
40
0.75
40
0.75
40
1
40
1
40
1
40
1
41
1
10
13.4873421854223
20
6.87284866009051
30
0
41
1
10
13.4756675902116
20
6.88142902646089
30
0
41
1
10
13.4619234809385
20
6.88636661822494
30
0
41
1
10
13.4331118219957
20
6.88714224696585
30
0
41
1
10
13.4182678835458
20
6.88305581805565
30
0
41
1
10
13.3770263940121
20
6.8625145068165
30
0
41
1
10
13.3536533175753
20
6.83903569790479
30
0
41
1
10
13.3141594073933
20
6.78729137643077
30
0
41
1
10
13.2977567613311
20
6.7583532547813
30
0
41
1
10
13.2702885594765
20
6.69807845088607
30
0
41
1
10
13.2592049091208
20
6.66659271035044
30
0
41
1
10
13.2506273527664
20
6.63436792782576
30
0
0
SPLINE
5
11A
100
AcDbEntity
8
1
62
256
6
ByLayer
370
18
48
1
60
0
100
AcDbSpline
70
4
71
3
72
8
73
4
40
0
40
0
40
0
40
0
40
1
40
1
40
1
40
1
41
1
10
13.4906176599837
20
5.71773703721629
30
0
41
1
10
13.4950088927037
20
5.72228018718468
30
0
41
1
10
13.4994009739073
20
5.72682420968999
30
0
41
1
10
13.5037939470499
20
5.73136914941227
30
0
0
SPLINE
5
11B
100
AcDbEntity
8
1
62
256
6
ByLayer
370
18
48
1
60
0
100
AcDbSpline
70
4
71
3
72
18
73
14
40
0
40
0
40
0
40
0
40
0.25
40
0.25
40
0.5
40
0.5
40
0.625
40
0.625
40
0.75
40
0.75
40
0.875
40
0.875
40
1
40
1
40
1
40
1
41
1
10
14.8293847292337
20
5.05561055135843
30
0
41
1
10
14.8615942090905
20
5.06418403446591
30
0
41
1
10
14.8930430930818
20
5.07525143866093
30
0
41
1
10
14.9533286802738
20
5.10271765921161
30
0
41
1
10
14.9821955866686
20
5.11906598318657
30
0
41
1
10
15.0210809121538
20
5.14873129822988
30
0
41
1
10
15.0332114572971
20
5.15943572536602
30
0
41
1
10
15.0547224105953
20
5.18276324551815
30
0
41
1
10
15.0642952326206
20
5.19563680005459
30
0
41
1
10
15.0780038452012
20
5.22306647494477
30
0
41
1
10
15.0821408607192
20
5.23783757382756
30
0
41
1
10
15.0814080487273
20
5.26691695258123
30
0
41
1
10
15.0764497928685
20
5.28064539395643
30
0
41
1
10
15.0678654614985
20
5.2923253840143
30
0
0
SPLINE
5
11C
100
AcDbEntity
8
1
62
256
6
ByLayer
370
18
48
1
60
0
100
AcDbSpline
70
4
71
3
72
8
73
4
40
0
40
0
40
0
40
0
40
1
40
1
40
1
40
1
41
1
10
13.3342207649458
20
6.29759106097347
30
0
41
1
10
13.3403945540778
20
6.29552524016961
30
0
41
1
10
13.3465694739279
20
6.29345924549639
30
0
41
1
10
13.3527455823213
20
6.29139306835626
30
0
0
SPLINE
5
11D
100
AcDbEntity
8
1
62
256
6
ByLayer
370
18
48
1
60
0
100
AcDbSpline
70
4
71
3
72
16
73
12
40
0
40
0
40
0
40
0
40
0.125
40
0.125
40
0.25
40
0.25
40
0.5
40
0.5
40
0.75
40
0.75
40
1
40
1
40
1
40
1
41
1
10
14.4926078623814
20
5.1392039635378
30
0
41
1
10
14.4922830646696
20
5.12515900177144
30
0
41
1
10
14.4961510343165
20
5.11113018168672
30
0
41
1
10
14.5121582353017
20
5.08637284550593
30
0
41
1
10
14.5241084947594
20
5.075797534722
30
0
41
1
10
14.5649508815345
20
5.05089508885931
30
0
41
1
10
14.5979551894753
20
5.04255662491383
30
0
41
1
10
14.6639554371173
20
5.03440383165767
30
0
41
1
10
14.69766547541
20
5.03467680231975
30
0
41
1
10
14.7642009460711
20
5.0409628166648
30
0
41
1
10
14.797159946709
20
5.04703299500403
30
0
41
1
10
14.8293847292337
20
5.05561055135843
30
0
0
SPLINE
5
11E
100
AcDbEntity
8
1
62
256
6
ByLayer
370
18
48
1
60
0
100
AcDbSpline
70
4
71
3
72
18
73
14
40
0
40
0
40
0
40
0
40
0.25
40
0.25
40
0.5
40
0.5
40
0.625
40
0.625
40
0.75
40
0.75
40
0.875
40
0.875
40
1
40
1
40
1
40
1
41
1
10
15.7374122080682
20
5.96363803019293
30
0
41
1
10
15.7459856911757
20
5.99584751004966
30
0
41
1
10
15.751956465696
20
6.02867104528704
30
0
41
1
10
15.7578185270324
20
6.0947836566655
30
0
41
1
10
15.7577722623765
20
6.12807247383824
30
0
41
1
10
15.7508266762993
20
6.17683240745782
30
0
41
1
10
15.7473536204671
20
6.1927868707337
30
0
41
1
10
15.737262256206
20
6.22331148875401
30
0
41
1
10
15.7305162024768
20
6.2381760664434
30
0
41
1
10
15.7126886364085
20
6.26409135807407
30
0
41
1
10
15.7014120620299
20
6.27525389217806
30
0
41
1
10
15.6745951585883
20
6.28959729699471
30
0
41
1
10
15.6595344007961
20
6.29240399779042
30
0
41
1
10
15.6444440106941
20
6.29104011185055
30
0
0
SPLINE
5
11F
100
AcDbEntity
8
1
62
256
6
ByLayer
370
18
48
1
60
0
100
AcDbSpline
70
4
71
3
72
16
73
12
40
0
40
0
40
0
40
0
40
0.125
40
0.125
40
0.25
40
0.25
40
0.5
40
0.5
40
0.75
40
0.75
40
1
40
1
40
1
40
1
41
1
10
14.4860569132585
20
7.4494272092862
30
0
41
1
10
14.4874201692358
20
7.46451062931806
30
0
41
1
10
14.4845876350342
20
7.47957488484801
30
0
41
1
10
14.4704188926566
20
7.50617067963651
30
0
41
1
10
14.4592623600601
20
7.51753971728152
30
0
41
1
10
14.4203581090185
20
7.54438029887766
30
0
41
1
10
14.3881195895789
20
7.55348455132446
30
0
41
1
10
14.3232257034416
20
7.56274370608531
30
0
41
1
10
14.2898475953508
20
7.56280266562504
30
0
41
1
10
14.2237432881026
20
7.55694781469307
30
0
41
1
10
14.1908796141255
20
7.55097296301466
30
0
41
1
10
14.1586548316009
20
7.54239540666023
30
0
0
SPLINE
5
120
100
AcDbEntity
8
1
62
256
6
ByLayer
370
18
48
1
60
0
100
AcDbSpline
70
4
71
3
72
10
73
6
40
0
40
0
40
0
40
0
40
0.375000000000405
40
0.750000000000811
40
1
40
1
40
1
40
1
41
1
10
12.4929696355778
20
4.29795283418574
30
0
41
1
10
12.6280790139742
20
4.1628434557872
30
0
41
1
10
12.9208036215787
20
3.91513492001232
30
0
41
1
10
13.3582169283075
20
3.65547689877249
30
0
41
1
10
13.6484729856485
20
3.53408110140771
30
0
41
1
10
13.7663881833915
20
3.49233569007194
30
0
0
SPLINE
5
121
100
AcDbEntity
8
1
62
256
6
ByLayer
370
18
48
1
60
0
100
AcDbSpline
70
4
71
3
72
17
73
13
40
0
40
0
40
0
40
0
40
0.0625
40
0.125
40
0.25
40
0.375
40
0.5
40
0.625
40
0.75
40
0.875
40
0.9375
40
1
40
1
40
1
40
1
41
1
10
8.69421904215471
20
5.73179246218771
30
0
41
1
10
8.67570702995425
20
5.7503044743882
30
0
41
1
10
8.64049543171711
20
5.7891406827716
30
0
41
1
10
8.57799423380817
20
5.87331055466245
30
0
41
1
10
8.51588552579716
20
5.98920641911124
30
0
41
1
10
8.46986723551464
20
6.14004807753216
30
0
41
1
10
8.45412683365811
20
6.29685701922892
30
0
41
1
10
8.46926959487996
20
6.45360682776226
30
0
41
1
10
8.51471207204622
20
6.60427504328217
30
0
41
1
10
8.57638028186881
20
6.71993459185904
30
0
41
1
10
8.63856063532467
20
6.8038671578968
30
0
41
1
10
8.67362486992261
20
6.84256913985394
30
0
41
1
10
8.6920664383278
20
6.86101070825913
30
0
0
SPLINE
5
122
100
AcDbEntity
8
1
62
256
6
ByLayer
370
18
48
1
60
0
100
AcDbSpline
70
4
71
3
72
8
73
4
40
0
40
0
40
0
40
0
40
1
40
1
40
1
40
1
41
1
10
8.6920664688592
20
6.86101069813017
30
0
41
1
10
9.56084623475692
20
7.7297904640279
30
0
41
1
10
10.4296260006313
20
8.59857022990226
30
0
41
1
10
11.2984057665521
20
9.46734999582307
30
0
0
SPLINE
5
123
100
AcDbEntity
8
1
62
256
6
ByLayer
370
18
48
1
60
0
100
AcDbSpline
70
4
71
3
72
8
73
4
40
0
40
0
40
0
40
0
40
1
40
1
40
1
40
1
41
1
10
15.0339633103138
20
12.0715366896862
30
0
41
1
10
15.095654122568
20
11.0820426723182
30
0
41
1
10
15.1573449348222
20
10.0925486549502
30
0
41
1
10
15.2190357470765
20
9.10305463758226
30
0
0
SPLINE
5
124
100
AcDbEntity
8
1
62
256
6
ByLayer
370
18
48
1
60
0
100
AcDbSpline
70
4
71
3
72
8
73
4
40
0
40
0
40
0
40
0
40
1
40
1
40
1
40
1
41
1
10
17.662366797231
20
3.10338896514412
30
0
41
1
10
17.2749421933885
20
3.49903069121007
30
0
41
1
10
16.8875175895461
20
3.89467241727604
30
0
41
1
10
16.5000929857037
20
4.29031414334202
30
0
0
SPLINE
5
125
100
AcDbEntity
8
1
62
256
6
ByLayer
370
18
48
1
60
0
100
AcDbSpline
70
4
71
3
72
10
73
6
40
0
40
0
40
0
40
0
40
0.375000000000406
40
0.750000000000812
40
1
40
1
40
1
40
1
41
1
10
16.4924542948918
20
8.29743749346792
30
0
41
1
10
16.3573449164954
20
8.43254687186646
30
0
41
1
10
16.0646203088909
20
8.68025540764134
30
0
41
1
10
15.6272070021621
20
8.9399134288812
30
0
41
1
10
15.3369509448211
20
9.06130922624598
30
0
41
1
10
15.219035747078
20
9.10305463758172
30
0
0
SPLINE
5
126
100
AcDbEntity
8
1
62
256
6
ByLayer
370
18
48
1
60
0
100
AcDbSpline
70
4
71
3
72
10
73
6
40
0
40
0
40
0
40
0
40
0.249999999999985
40
0.624999999999992
40
1
40
1
40
1
40
1
41
1
10
11.6873524914795
20
5.57137138200096
30
0
41
1
10
11.7290979028134
20
5.45345618425642
30
0
41
1
10
11.8504937001724
20
5.16320012691156
30
0
41
1
10
12.1101517214203
20
4.72578682018806
30
0
41
1
10
12.3578602571876
20
4.43306221257526
30
0
41
1
10
12.4929696355857
20
4.29795283417778
30
0
0
SPLINE
5
127
100
AcDbEntity
8
1
62
256
6
ByLayer
370
18
48
1
60
0
100
AcDbSpline
70
4
71
3
72
8
73
4
40
0
40
0
40
0
40
0
40
1
40
1
40
1
40
1
41
1
10
20.2665534910969
20
6.83894650890306
30
0
41
1
10
19.2770594737279
20
6.90063732115294
30
0
41
1
10
18.287565456359
20
6.96232813340282
30
0
41
1
10
17.2980714389901
20
7.0240189456527
30
0
0
SPLINE
5
128
100
AcDbEntity
8
1
62
256
6
ByLayer
370
18
48
1
60
0
100
AcDbSpline
70
4
71
3
72
8
73
4
40
0
40
0
40
0
40
0
40
1
40
1
40
1
40
1
41
1
10
11.3105141630791
20
3.1154973616712
30
0
41
1
10
11.704665987248
20
3.50964918584006
30
0
41
1
10
12.0988178114168
20
3.90380101000892
30
0
41
1
10
12.4929696355857
20
4.29795283417778
30
0
0
SPLINE
5
129
100
AcDbEntity
8
1
62
256
6
ByLayer
370
18
48
1
60
0
100
AcDbSpline
70
4
71
3
72
8
73
4
40
0
40
0
40
0
40
0
40
1
40
1
40
1
40
1
41
1
10
8.69421907268622
20
5.73179245206413
30
0
41
1
10
9.69193021228398
20
5.67831876204306
30
0
41
1
10
10.6896413518817
20
5.62484507202203
30
0
41
1
10
11.6873524914795
20
5.57137138200099
30
0
0
SPLINE
5
12A
100
AcDbEntity
8
1
62
256
6
ByLayer
370
18
48
1
60
0
100
AcDbSpline
70
4
71
3
72
17
73
13
40
0
40
0
40
0
40
0
40
0.0625
40
0.125
40
0.25
40
0.375
40
0.5
40
0.625
40
0.75
40
0.875
40
0.9375
40
1
40
1
40
1
40
1
41
1
10
20.2665535417262
20
6.83894651887732
30
0
41
1
10
20.2850655539267
20
6.82043450667683
30
0
41
1
10
20.3202771521638
20
6.78159829829343
30
0
41
1
10
20.3827783500728
20
6.69742842640258
30
0
41
1
10
20.4448870580838
20
6.58153256195379
30
0
41
1
10
20.4909053483663
20
6.43069090353285
30
0
41
1
10
20.5066457502228
20
6.27388196183608
30
0
41
1
10
20.491502989001
20
6.11713215330275
30
0
41
1
10
20.4460605118347
20
5.96646393778283
30
0
41
1
10
20.3843923020121
20
5.85080438920596
30
0
41
1
10
20.3222119485562
20
5.7668718231682
30
0
41
1
10
20.2871477139583
20
5.72816984121107
30
0
41
1
10
20.2687061455531
20
5.70972827280585
30
0
0
SPLINE
5
12B
100
AcDbEntity
8
1
62
256
6
ByLayer
370
18
48
1
60
0
100
AcDbSpline
70
4
71
3
72
8
73
4
40
0
40
0
40
0
40
0
40
1
40
1
40
1
40
1
41
1
10
15.033963310311
20
12.0715366896889
30
0
41
1
10
15.9060616737755
20
11.1994383262245
30
0
41
1
10
16.7781600372164
20
10.3273399627835
30
0
41
1
10
17.650258400704
20
9.45524159929599
30
0
0
SPLINE
5
12C
100
AcDbEntity
8
1
62
256
6
ByLayer
370
18
48
1
60
0
100
AcDbSpline
70
4
71
3
72
8
73
4
40
0
40
0
40
0
40
0
40
1
40
1
40
1
40
1
41
1
10
13.9268092534693
20
0.49920227128095
30
0
41
1
10
13.8733355634439
20
1.49691341087777
30
0
41
1
10
13.8198618734185
20
2.49462455047461
30
0
41
1
10
13.7663881833931
20
3.49233569007143
30
0
0
SPLINE
5
12D
100
AcDbEntity
8
1
62
256
6
ByLayer
370
18
48
1
60
0
100
AcDbSpline
70
4
71
3
72
8
73
4
40
0
40
0
40
0
40
0
40
1
40
1
40
1
40
1
41
1
10
11.3105141630791
20
3.1154973616712
30
0
41
1
10
10.4384157995915
20
3.98759572515877
30
0
41
1
10
9.5663174361506
20
4.85969408859972
30
0
41
1
10
8.69421907268622
20
5.73179245206413
30
0
0
SPLINE
5
12E
100
AcDbEntity
8
1
62
256
6
ByLayer
370
18
48
1
60
0
100
AcDbSpline
70
4
71
3
72
8
73
4
40
0
40
0
40
0
40
0
40
1
40
1
40
1
40
1
41
1
10
11.2984057665521
20
9.46734999582307
30
0
41
1
10
12.1671855324729
20
10.3361297617438
30
0
41
1
10
13.0359652983473
20
11.2049095276182
30
0
41
1
10
13.904745064245
20
12.0736892935159
30
0
0
SPLINE
5
12F
100
AcDbEntity
8
1
62
256
6
ByLayer
370
18
48
1
60
0
100
AcDbSpline
70
4
71
3
72
8
73
4
40
0
40
0
40
0
40
0
40
1
40
1
40
1
40
1
41
1
10
8.69206646886187
20
6.86101069813287
30
0
41
1
10
9.68956529343353
20
6.91891374977422
30
0
41
1
10
10.6870641180051
20
6.97681680141557
30
0
41
1
10
11.6845629425768
20
7.03471985305691
30
0
0
SPLINE
5
130
100
AcDbEntity
8
1
62
256
6
ByLayer
370
18
48
1
60
0
100
AcDbSpline
70
4
71
3
72
8
73
4
40
0
40
0
40
0
40
0
40
1
40
1
40
1
40
1
41
1
10
16.4924542948918
20
8.29743749346792
30
0
41
1
10
16.8783889968292
20
8.68337219541061
30
0
41
1
10
17.2643236987666
20
9.0693068973533
30
0
41
1
10
17.650258400704
20
9.45524159929599
30
0
0
SPLINE
5
131
100
AcDbEntity
8
1
62
256
6
ByLayer
370
18
48
1
60
0
100
AcDbSpline
70
4
71
3
72
8
73
4
40
0
40
0
40
0
40
0
40
1
40
1
40
1
40
1
41
1
10
15.0560274995381
20
0.49704966745125
30
0
41
1
10
15.1139305511751
20
1.49454849202382
30
0
41
1
10
15.171833602812
20
2.49204731659643
30
0
41
1
10
15.229736654449
20
3.489546141169
30
0
0
SPLINE
5
132
100
AcDbEntity
8
1
62
256
6
ByLayer
370
18
48
1
60
0
100
AcDbSpline
70
4
71
3
72
8
73
4
40
0
40
0
40
0
40
0
40
1
40
1
40
1
40
1
41
1
10
17.650258400704
20
9.45524159929602
30
0
41
1
10
18.5223567641916
20
8.58314323580845
30
0
41
1
10
19.3944551276325
20
7.71104487236747
30
0
41
1
10
20.2665534910969
20
6.83894650890306
30
0
0
SPLINE
5
133
100
AcDbEntity
8
1
62
256
6
ByLayer
370
18
48
1
60
0
100
AcDbSpline
70
4
71
3
72
10
73
6
40
0
40
0
40
0
40
0
40
0.375000000000406
40
0.750000000000812
40
1
40
1
40
1
40
1
41
1
10
12.4853309447659
20
8.30507618431167
30
0
41
1
10
12.3507356983428
20
8.17048093789066
30
0
41
1
10
12.1041413952444
20
7.87869860888145
30
0
41
1
10
11.8461491555883
20
7.44227208742339
30
0
41
1
10
11.725859097398
20
7.15247675049619
30
0
41
1
10
11.6845629425773
20
7.03471985305845
30
0
0
SPLINE
5
134
100
AcDbEntity
8
1
62
256
6
ByLayer
370
18
48
1
60
0
100
AcDbSpline
70
4
71
3
72
10
73
6
40
0
40
0
40
0
40
0
40
0.375000000000406
40
0.750000000000812
40
1
40
1
40
1
40
1
41
1
10
16.5000929857037
20
4.29031414334202
30
0
41
1
10
16.6346882321269
20
4.42490938976303
30
0
41
1
10
16.8812825352252
20
4.71669171877221
30
0
41
1
10
17.1392747748812
20
5.15311824023027
30
0
41
1
10
17.2595648330716
20
5.44291357715747
30
0
41
1
10
17.3008609878923
20
5.56067047459524
30
0
0
SPLINE
5
135
100
AcDbEntity
8
1
62
256
6
ByLayer
370
18
48
1
60
0
100
AcDbSpline
70
4
71
3
72
8
73
4
40
0
40
0
40
0
40
0
40
1
40
1
40
1
40
1
41
1
10
20.2687060949212
20
5.70972826283429
30
0
41
1
10
19.2794243925784
20
5.66004233342179
30
0
41
1
10
18.2901426902356
20
5.61035640400928
30
0
41
1
10
17.3008609878928
20
5.56067047459678
30
0
0
SPLINE
5
136
100
AcDbEntity
8
1
62
256
6
ByLayer
370
18
48
1
60
0
100
AcDbSpline
70
4
71
3
72
10
73
6
40
0
40
0
40
0
40
0
40
0.249999999999984
40
0.624999999999992
40
1
40
1
40
1
40
1
41
1
10
13.7556872760205
20
9.10584418648466
30
0
41
1
10
13.6379303785813
20
9.06454803166585
30
0
41
1
10
13.3481350416502
20
8.94425797348134
30
0
41
1
10
12.9117085201975
20
8.68626573381718
30
0
41
1
10
12.61992619118
20
8.43967143072643
30
0
41
1
10
12.4853309447579
20
8.30507618430372
30
0
0
SPLINE
5
137
100
AcDbEntity
8
1
62
256
6
ByLayer
370
18
48
1
60
0
100
AcDbSpline
70
4
71
3
72
8
73
4
40
0
40
0
40
0
40
0
40
1
40
1
40
1
40
1
41
1
10
17.662366797231
20
3.10338896514412
30
0
41
1
10
16.7935870313102
20
2.23460919922331
30
0
41
1
10
15.9248072654359
20
1.36582943334898
30
0
41
1
10
15.0560274995381
20
0.49704966745125
30
0
0
SPLINE
5
138
100
AcDbEntity
8
1
62
256
6
ByLayer
370
18
48
1
60
0
100
AcDbSpline
70
4
71
3
72
29
73
25
40
0
40
0
40
0
40
0
40
0.125000000000944
40
0.171875000000893
40
0.218750000000841
40
0.242187500000815
40
0.265625000000789
40
0.277343750000776
40
0.289062500000763
40
0.312500000000737
40
0.359375000000686
40
0.406250000000634
40
0.50000000000053
40
0.593750000000427
40
0.640625000000375
40
0.687500000000323
40
0.710937500000298
40
0.722656250000285
40
0.734375000000272
40
0.757812500000246
40
0.78125000000022
40
0.828125000000168
40
0.875000000000116
40
1
40
1
40
1
40
1
41
1
10
13.7663881833915
20
3.49233569007194
30
0
41
1
10
13.8253457822639
20
3.47146298440379
30
0
41
1
10
13.907035622053
20
3.44510495110114
30
0
41
1
10
14.0118282544314
20
3.41573809419086
30
0
41
1
10
14.0681757191083
20
3.40122847939682
30
0
41
1
10
14.1133683602734
20
3.39036400533439
30
0
41
1
10
14.1416512839244
20
3.3838772729309
30
0
41
1
10
14.1642890399077
20
3.37886139103867
30
0
41
1
10
14.1870070645981
20
3.37403504533086
30
0
41
1
10
14.2270718525322
20
3.36620987752335
30
0
41
1
10
14.2850712448611
20
3.35682837165228
30
0
41
1
10
14.379146599326
20
3.34590431323363
30
0
41
1
10
14.4983497265314
20
3.34021743148327
30
0
41
1
10
14.6175320334928
20
3.34544992447653
30
0
41
1
10
14.7115664157564
20
3.35601540634212
30
0
41
1
10
14.7695304770141
20
3.3651758275594
30
0
41
1
10
14.8095657423159
20
3.37284827888234
30
0
41
1
10
14.8322655353276
20
3.37758804158827
30
0
41
1
10
14.8548843316257
20
3.38251765275032
30
0
41
1
10
14.8831427296849
20
3.3888966017042
30
0
41
1
10
14.9282942781159
20
3.39958885423738
30
0
41
1
10
14.9845868332713
20
3.41388374597821
30
0
41
1
10
15.0892682640732
20
3.44285128710303
30
0
41
1
10
15.1708582057294
20
3.46889806375958
30
0
41
1
10
15.229736654449
20
3.489546141169
30
0
0
SPLINE
5
139
100
AcDbEntity
8
1
62
256
6
ByLayer
370
18
48
1
60
0
100
AcDbSpline
70
4
71
3
72
29
73
25
40
0
40
0
40
0
40
0
40
0.125000000000946
40
0.171875000000894
40
0.218750000000842
40
0.242187500000817
40
0.265625000000791
40
0.277343750000778
40
0.289062500000765
40
0.312500000000739
40
0.359375000000687
40
0.406250000000635
40
0.500000000000532
40
0.593750000000428
40
0.640625000000376
40
0.687500000000324
40
0.710937500000298
40
0.722656250000285
40
0.734375000000272
40
0.757812500000247
40
0.781250000000221
40
0.828125000000169
40
0.875000000000117
40
1
40
1
40
1
40
1
41
1
10
11.6845629425773
20
7.03471985305845
30
0
41
1
10
11.6639148651667
20
6.97584140433878
30
0
41
1
10
11.6378680885087
20
6.8942514626826
30
0
41
1
10
11.6089005473832
20
6.78957003188009
30
0
41
1
10
11.5946056557739
20
6.73327747659818
30
0
41
1
10
11.583913402846
20
6.68812592854601
30
0
41
1
10
11.5775344539166
20
6.65986753045948
30
0
41
1
10
11.572604843593
20
6.63724873334866
30
0
41
1
10
11.5678650768613
20
6.61454894432728
30
0
41
1
10
11.5601926019795
20
6.57451369920747
30
0
41
1
10
11.5510321546526
20
6.51654965299488
30
0
41
1
10
11.5404666856883
20
6.4225152635419
30
0
41
1
10
11.5352342328407
20
6.3033329516231
30
0
41
1
10
11.5409211547182
20
6.18412982922203
30
0
41
1
10
11.5518452260108
20
6.0900544818974
30
0
41
1
10
11.5612267058294
20
6.03205507462283
30
0
41
1
10
11.5690518501548
20
5.99199026659642
30
0
41
1
10
11.573878191852
20
5.96927223793102
30
0
41
1
10
11.5788940745796
20
5.9466344827573
30
0
41
1
10
11.5853808070075
20
5.91835155913358
30
0
41
1
10
11.5962452806766
20
5.87315891759104
30
0
41
1
10
11.6107548956017
20
5.81681145304015
30
0
41
1
10
11.6401217525112
20
5.71201882066237
30
0
41
1
10
11.6664797858125
20
5.63032898087323
30
0
41
1
10
11.6873524914795
20
5.57137138200093
30
0
0
SPLINE
5
13A
100
AcDbEntity
8
1
62
256
6
ByLayer
370
18
48
1
60
0
100
AcDbSpline
70
4
71
3
72
29
73
25
40
0
40
0
40
0
40
0
40
0.125000000000945
40
0.171875000000894
40
0.218750000000842
40
0.242187500000816
40
0.26562500000079
40
0.277343750000777
40
0.289062500000764
40
0.312500000000738
40
0.359375000000687
40
0.406250000000635
40
0.500000000000531
40
0.593750000000427
40
0.640625000000376
40
0.687500000000324
40
0.710937500000298
40
0.722656250000285
40
0.734375000000272
40
0.757812500000246
40
0.78125000000022
40
0.828125000000168
40
0.875000000000117
40
1
40
1
40
1
40
1
41
1
10
15.2190357470781
20
9.10305463758175
30
0
41
1
10
15.1600781482057
20
9.1239273432499
30
0
41
1
10
15.0783883084166
20
9.15028537655255
30
0
41
1
10
14.9735956760382
20
9.1796522334628
30
0
41
1
10
14.9172482113613
20
9.19416184825687
30
0
41
1
10
14.8720555701961
20
9.2050263223193
30
0
41
1
10
14.8437726465451
20
9.21151305472279
30
0
41
1
10
14.821134890562
20
9.21652893661502
30
0
41
1
10
14.7984168658715
20
9.22135528232283
30
0
41
1
10
14.7583520779374
20
9.22918045013031
30
0
41
1
10
14.7003526856085
20
9.23856195600141
30
0
41
1
10
14.6062773311436
20
9.24948601442006
30
0
41
1
10
14.4870742039382
20
9.25517289617042
30
0
41
1
10
14.3678918969768
20
9.24994040317716
30
0
41
1
10
14.2738575147132
20
9.23937492131157
30
0
41
1
10
14.2158934534555
20
9.23021450009429
30
0
41
1
10
14.1758581881537
20
9.22254204877135
30
0
41
1
10
14.153158395142
20
9.21780228606542
30
0
41
1
10
14.1305395988439
20
9.21287267490334
30
0
41
1
10
14.1022812007847
20
9.20649372594946
30
0
41
1
10
14.0571296523537
20
9.19580147341628
30
0
41
1
10
14.0008370971983
20
9.18150658167545
30
0
41
1
10
13.8961556663963
20
9.15253904055066
30
0
41
1
10
13.8145657247402
20
9.12649226389411
30
0
41
1
10
13.7556872760205
20
9.10584418648469
30
0
0
SPLINE
5
13B
100
AcDbEntity
8
1
62
256
6
ByLayer
370
18
48
1
60
0
100
AcDbSpline
70
4
71
3
72
8
73
4
40
0
40
0
40
0
40
0
40
1
40
1
40
1
40
1
41
1
10
11.2984057665521
20
9.46734999582307
30
0
41
1
10
11.6940474926233
20
9.07992539198594
30
0
41
1
10
12.0896892186946
20
8.69250078814881
30
0
41
1
10
12.4853309447659
20
8.30507618431164
30
0
0
SPLINE
5
13C
100
AcDbEntity
8
1
62
256
6
ByLayer
370
18
48
1
60
0
100
AcDbSpline
70
4
71
3
72
29
73
25
40
0
40
0
40
0
40
0
40
0.125000000000945
40
0.171875000000893
40
0.218750000000841
40
0.242187500000815
40
0.26562500000079
40
0.277343750000777
40
0.289062500000764
40
0.312500000000738
40
0.359375000000686
40
0.406250000000634
40
0.50000000000053
40
0.593750000000427
40
0.640625000000375
40
0.687500000000323
40
0.710937500000297
40
0.722656250000284
40
0.734375000000271
40
0.757812500000245
40
0.781250000000219
40
0.828125000000168
40
0.875000000000116
40
1
40
1
40
1
40
1
41
1
10
17.3008609878923
20
5.56067047459524
30
0
41
1
10
17.3215090653029
20
5.61954892331488
30
0
41
1
10
17.3475558419608
20
5.70113886497109
30
0
41
1
10
17.3765233830864
20
5.80582029577357
30
0
41
1
10
17.3908182746957
20
5.86211285105551
30
0
41
1
10
17.4015105276236
20
5.90726439910768
30
0
41
1
10
17.407889476553
20
5.93552279719418
30
0
41
1
10
17.4128190868766
20
5.958141594305
30
0
41
1
10
17.4175588536083
20
5.98084138332638
30
0
41
1
10
17.4252313284902
20
6.02087662844619
30
0
41
1
10
17.434391775817
20
6.07884067465881
30
0
41
1
10
17.4449572447813
20
6.17287506411176
30
0
41
1
10
17.4501896976289
20
6.29205737603056
30
0
41
1
10
17.4445027757515
20
6.41126049843166
30
0
41
1
10
17.4335787044588
20
6.50533584575626
30
0
41
1
10
17.4241972246402
20
6.56333525303083
30
0
41
1
10
17.4163720803148
20
6.60340006105727
30
0
41
1
10
17.4115457386175
20
6.62611808972264
30
0
41
1
10
17.4065298558899
20
6.64875584489636
30
0
41
1
10
17.4000431234621
20
6.67703876852008
30
0
41
1
10
17.3891786497929
20
6.72223141006265
30
0
41
1
10
17.3746690348679
20
6.77857887461352
30
0
41
1
10
17.3453021779583
20
6.88337150699132
30
0
41
1
10
17.3189441446571
20
6.96506134678046
30
0
41
1
10
17.2980714389901
20
7.02401894565273
30
0
0
SPLINE
5
13D
100
AcDbEntity
8
1
62
256
6
ByLayer
370
18
48
1
60
0
100
AcDbSpline
70
4
71
3
72
10
73
6
40
0
40
0
40
0
40
0
40
0.249999999999984
40
0.624999999999992
40
1
40
1
40
1
40
1
41
1
10
17.2980714389901
20
7.02401894565273
30
0
41
1
10
17.2563260276561
20
7.14193414339724
30
0
41
1
10
17.1349302302972
20
7.4321902007421
30
0
41
1
10
16.8752722090493
20
7.86960350746563
30
0
41
1
10
16.627563673282
20
8.1623281150784
30
0
41
1
10
16.4924542948839
20
8.29743749347591
30
0
0
SPLINE
5
13E
100
AcDbEntity
8
1
62
256
6
ByLayer
370
18
48
1
60
0
100
AcDbSpline
70
4
71
3
72
10
73
6
40
0
40
0
40
0
40
0
40
0.249999999999985
40
0.624999999999992
40
1
40
1
40
1
40
1
41
1
10
15.229736654449
20
3.489546141169
30
0
41
1
10
15.3474935518883
20
3.53084229598784
30
0
41
1
10
15.6372888888193
20
3.65113235417232
30
0
41
1
10
16.0737154102721
20
3.90912459383648
30
0
41
1
10
16.3654977392896
20
4.15571889692723
30
0
41
1
10
16.5000929857117
20
4.29031414334995
30
0
0
SPLINE
5
13F
100
AcDbEntity
8
1
62
256
6
ByLayer
370
18
48
1
60
0
100
AcDbSpline
70
4
71
3
72
17
73
13
40
0
40
0
40
0
40
0
40
0.0625
40
0.125
40
0.25
40
0.375
40
0.5
40
0.625
40
0.75
40
0.875
40
0.9375
40
1
40
1
40
1
40
1
41
1
10
13.9047450742138
20
12.0736893441453
30
0
41
1
10
13.923186642619
20
12.0921309125504
30
0
41
1
10
13.9618888865834
20
12.1271947009467
30
0
41
1
10
14.0458210800306
20
12.1893754495975
30
0
41
1
10
14.1614809930095
20
12.2510427479392
30
0
41
1
10
14.3121482997797
20
12.2964862783339
30
0
41
1
10
14.4688983697557
20
12.311628949565
30
0
41
1
10
14.625707050351
20
12.2958884587138
30
0
41
1
10
14.7765496135127
20
12.2498712182027
30
0
41
1
10
14.8924451170319
20
12.1877616000934
30
0
41
1
10
14.9766153600094
20
12.1252607959618
30
0
41
1
10
15.0154513080847
20
12.0900487525187
30
0
41
1
10
15.0339633202853
20
12.0715367403181
30
0
0
SPLINE
5
140
100
AcDbEntity
8
1
62
256
6
ByLayer
370
18
48
1
60
0
100
AcDbSpline
70
4
71
3
72
8
73
4
40
0
40
0
40
0
40
0
40
1
40
1
40
1
40
1
41
1
10
13.904745064245
20
12.0736892935159
30
0
41
1
10
13.8550591348368
20
11.0844075911722
30
0
41
1
10
13.8053732054287
20
10.0951258888284
30
0
41
1
10
13.7556872760206
20
9.10584418648466
30
0
0
SPLINE
5
141
100
AcDbEntity
8
1
62
256
6
ByLayer
370
18
48
1
60
0
100
AcDbSpline
70
4
71
3
72
8
73
4
40
0
40
0
40
0
40
0
40
1
40
1
40
1
40
1
41
1
10
13.926809253472
20
0.49920227127825
30
0
41
1
10
13.0547108900076
20
1.37130063474265
30
0
41
1
10
12.1826125265667
20
2.24339899818364
30
0
41
1
10
11.3105141630791
20
3.1154973616712
30
0
0
SPLINE
5
142
100
AcDbEntity
8
1
62
256
6
ByLayer
370
18
48
1
60
0
100
AcDbSpline
70
4
71
3
72
17
73
13
40
0
40
0
40
0
40
0
40
0.0625
40
0.125
40
0.25
40
0.375
40
0.5
40
0.625
40
0.75
40
0.875
40
0.9375
40
1
40
1
40
1
40
1
41
1
10
15.0560275096671
20
0.497049636919741
30
0
41
1
10
15.0375859412619
20
0.478608068514603
30
0
41
1
10
14.9988836972975
20
0.443544280118346
30
0
41
1
10
14.9149515038503
20
0.381363531467514
30
0
41
1
10
14.7992915908714
20
0.319696233125882
30
0
41
1
10
14.6486242841012
20
0.274252702731076
30
0
41
1
10
14.4918742141252
20
0.259110031500029
30
0
41
1
10
14.3350655335299
20
0.274850522351272
30
0
41
1
10
14.1842229703681
20
0.320867762862321
30
0
41
1
10
14.068327466849
20
0.382977380971596
30
0
41
1
10
13.9841572238715
20
0.445478185103184
30
0
41
1
10
13.9453212757961
20
0.480690228546308
30
0
41
1
10
13.9268092635956
20
0.499202240746854
30
0
0
SPLINE
5
143
100
AcDbEntity
8
1
62
256
6
ByLayer
370
18
48
1
60
0
100
AcDbSpline
70
4
71
3
72
8
73
4
40
0
40
0
40
0
40
0
40
1
40
1
40
1
40
1
41
1
10
20.2687060949239
20
5.70972826283702
30
0
41
1
10
19.3999263290262
20
4.84094849693929
30
0
41
1
10
18.5311465631518
20
3.97216873106493
30
0
41
1
10
17.662366797231
20
3.10338896514412
30
0
0
SPLINE
5
144
100
AcDbEntity
8
1
62
256
6
ByLayer
370
18
48
1
60
0
100
AcDbSpline
70
4
71
3
72
26
73
22
40
0
40
0
40
0
40
0
40
0.125000000000003
40
0.125000000000003
40
0.250000000000006
40
0.250000000000006
40
0.375000000000009
40
0.375000000000009
40
0.500000000000012
40
0.500000000000012
40
0.562500000000011
40
0.562500000000011
40
0.625000000000011
40
0.625000000000011
40
0.750000000000007
40
0.750000000000007
40
0.875000000000004
40
0.875000000000004
40
0.937500000000002
40
0.937500000000002
40
1
40
1
40
1
40
1
41
1
10
13.1825906755746
20
0.819821642211849
30
0
41
1
10
13.0634675258147
20
0.705164387758344
30
0
41
1
10
12.9442413520185
20
0.594909131930166
30
0
41
1
10
12.7055912472846
20
0.382848363634054
30
0
41
1
10
12.5861672966817
20
0.281043691415135
30
0
41
1
10
12.3471087416608
20
0.086435137846621
30
0
41
1
10
12.2303139722337
20
-0.004043606239037
30
0
41
1
10
12.0030533534962
20
-0.170586120623142
30
0
41
1
10
11.8924466250914
20
-0.24677386711457
30
0
41
1
10
11.7315932895795
20
-0.349208741743865
30
0
41
1
10
11.6785730684917
20
-0.381501613271666
30
0
41
1
10
11.5763505219676
20
-0.44061306501024
30
0
41
1
10
11.5269924297338
20
-0.467546493228468
30
0
41
1
10
11.3843444728737
20
-0.540230430772283
30
0
41
1
10
11.2961283480337
20
-0.57807548191812
30
0
41
1
10
11.1376196439535
20
-0.62827363310015
30
0
41
1
10
11.0695925890674
20
-0.639971141619299
30
0
41
1
10
10.9860392198605
20
-0.635449971494751
30
0
41
1
10
10.9611885647045
20
-0.630171068944094
30
0
41
1
10
10.9190424725223
20
-0.611646845104445
30
0
41
1
10
10.9017359186692
20
-0.59846951047632
30
0
41
1
10
10.8884215472348
20
-0.581142350951382
30
0
0
SPLINE
5
145
100
AcDbEntity
8
1
62
256
6
ByLayer
370
18
48
1
60
0
100
AcDbSpline
70
4
71
3
72
8
73
4
40
0
40
0
40
0
40
0
40
1
40
1
40
1
40
1
41
1
10
13.0456884972704
20
-0.381918484917861
30
0
41
1
10
13.0418107920494
20
-0.385796190138876
30
0
41
1
10
13.0379094255236
20
-0.389625929837052
30
0
41
1
10
13.0339855787615
20
-0.393407647621359
30
0
0
SPLINE
5
146
100
AcDbEntity
8
1
62
256
6
ByLayer
370
18
48
1
60
0
100
AcDbSpline
70
4
71
3
72
12
73
8
40
0
40
0
40
0
40
0
40
0.5
40
0.5
40
0.75
40
0.75
40
1
40
1
40
1
40
1
41
1
10
1.73584813396127
20
8.07055265737273
30
0
41
1
10
1.6605589565836
20
8.19764366962238
30
0
41
1
10
1.59550664536209
20
8.30298682125965
30
0
41
1
10
1.5078983301799
20
8.43631743226089
30
0
41
1
10
1.48037097577293
20
8.47656472562565
30
0
41
1
10
1.42879128713616
20
8.54800666720365
30
0
41
1
10
1.40472376129423
20
8.57924023584417
30
0
41
1
10
1.38229474336799
20
8.60572360684338
30
0
0
SPLINE
5
147
100
AcDbEntity
8
1
62
256
6
ByLayer
370
18
48
1
60
0
100
AcDbSpline
70
4
71
3
72
8
73
4
40
0
40
0
40
0
40
0
40
1
40
1
40
1
40
1
41
1
10
13.1969899577065
20
0.83419701883426
30
0
41
1
10
13.1921949617334
20
0.829402022861132
30
0
41
1
10
13.1873952030556
20
0.824610229286805
30
0
41
1
10
13.1825906755746
20
0.819821642211878
30
0
0
SPLINE
5
148
100
AcDbEntity
8
1
62
256
6
ByLayer
370
18
48
1
60
0
100
AcDbSpline
70
4
71
3
72
14
73
10
40
0
40
0
40
0
40
0
40
0.25
40
0.25
40
0.5
40
0.5
40
0.75
40
0.75
40
1
40
1
40
1
40
1
41
1
10
1.73584813396127
20
9.42222981005852
30
0
41
1
10
1.81924080445128
20
9.42888424409827
30
0
41
1
10
1.90773899384089
20
9.43399763475202
30
0
41
1
10
2.09432012033011
20
9.44216253681418
30
0
41
1
10
2.19299985525197
20
9.44522211938764
30
0
41
1
10
2.3974748468022
20
9.44988820513433
30
0
41
1
10
2.50178124117207
20
9.45147544406234
30
0
41
1
10
2.71429692617835
20
9.45371784996854
30
0
41
1
10
2.82292196714946
20
9.45437155404719
30
0
41
1
10
2.93264927083465
20
9.45466571197258
30
0
0
SPLINE
5
149
100
AcDbEntity
8
1
62
256
6
ByLayer
370
18
48
1
60
0
100
AcDbSpline
70
4
71
3
72
8
73
4
40
0
40
0
40
0
40
0
40
1
40
1
40
1
40
1
41
1
10
10.8884215472353
20
-0.581142350950898
30
0
41
1
10
10.5137217560098
20
-0.106745622681132
30
0
41
1
10
10.1638314355466
20
0.392163531153869
30
0
41
1
10
9.83488832044731
20
0.91176908827785
30
0
0
SPLINE
5
14A
100
AcDbEntity
8
1
62
256
6
ByLayer
370
18
48
1
60
0
100
AcDbSpline
70
4
71
3
72
34
73
30
40
0
40
0
40
0
40
0
40
0.0624999999999996
40
0.0624999999999996
40
0.124999999999999
40
0.124999999999999
40
0.187499999999999
40
0.187499999999999
40
0.249999999999999
40
0.249999999999999
40
0.374999999999998
40
0.374999999999998
40
0.437499999999997
40
0.437499999999997
40
0.499999999999997
40
0.499999999999997
40
0.624999999999997
40
0.624999999999997
40
0.656249999999997
40
0.656249999999997
40
0.687499999999997
40
0.687499999999997
40
0.749999999999998
40
0.749999999999998
40
0.874999999999999
40
0.874999999999999
40
0.937499999999999
40
0.937499999999999
40
1
40
1
40
1
40
1
41
1
10
9.83488832044736
20
0.91176908827785
30
0
41
1
10
9.59416736533046
20
1.00500722157267
30
0
41
1
10
9.35536376593882
20
1.10491508540832
30
0
41
1
10
8.88410676847599
20
1.3168628503195
30
0
41
1
10
8.65184666748974
20
1.42878946683749
30
0
41
1
10
8.19400406509737
20
1.66420494066853
30
0
41
1
10
7.96842164333725
20
1.78769414986604
30
0
41
1
10
7.52392683278032
20
2.04596017983101
30
0
41
1
10
7.30466806627669
20
2.18097459823227
30
0
41
1
10
6.66052265000297
20
2.60023431321875
30
0
41
1
10
6.24874011865057
20
2.89886782137924
30
0
41
1
10
5.65739665477309
20
3.37228994290777
30
0
41
1
10
5.46529226089825
20
3.53389300379246
30
0
41
1
10
5.09394048748476
20
3.86116161719741
30
0
41
1
10
4.91422714521525
20
4.02719675507151
30
0
41
1
10
4.39254960891179
20
4.53096815678632
30
0
41
1
10
4.06803643679763
20
4.87441319887819
30
0
41
1
10
3.69031446733305
20
5.30772289328169
30
0
41
1
10
3.61616697254374
20
5.39458169539103
30
0
41
1
10
3.47063945274607
20
5.56853904558639
30
0
41
1
10
3.39909389949457
20
5.65584519536876
30
0
41
1
10
3.18983239601221
20
5.91629662826534
30
0
41
1
10
3.05795984561371
20
6.08734532300534
30
0
41
1
10
2.68336227304354
20
6.5908326404579
30
0
41
1
10
2.46162351463272
20
6.91365420887726
30
0
41
1
10
2.16424160372083
20
7.3707022548696
30
0
41
1
10
2.07099470941017
20
7.5185135508691
30
0
41
1
10
1.89522556225575
20
7.80356260171862
30
0
41
1
10
1.81264052935353
20
7.94092415559592
30
0
41
1
10
1.73584813396127
20
8.07055265737273
30
0
0
SPLINE
5
14B
100
AcDbEntity
8
1
62
256
6
ByLayer
370
18
48
1
60
0
100
AcDbSpline
70
4
71
3
72
8
73
4
40
0
40
0
40
0
40
0
40
1
40
1
40
1
40
1
41
1
10
1.24202989493483
20
8.75852738790849
30
0
41
1
10
1.28524991936206
20
8.71642686984441
30
0
41
1
10
1.33188001520438
20
8.66525148961432
30
0
41
1
10
1.38229474336799
20
8.60572360684336
30
0
0
SPLINE
5
14C
100
AcDbEntity
8
1
62
256
6
ByLayer
370
18
48
1
60
0
100
AcDbSpline
70
4
71
3
72
18
73
14
40
0
40
0
40
0
40
0
40
0.250000000000001
40
0.250000000000001
40
0.375000000000001
40
0.375000000000001
40
0.500000000000001
40
0.500000000000001
40
0.75
40
0.75
40
0.875
40
0.875
40
1
40
1
40
1
40
1
41
1
10
1.38229474336799
20
9.21789964892901
30
0
41
1
10
1.33757284513979
20
9.15813976784094
30
0
41
1
10
1.29991030773482
20
9.1028431644483
30
0
41
1
10
1.25512372610461
20
9.02669431489778
30
0
41
1
10
1.242228147937
20
9.00254860332223
30
0
41
1
10
1.22096493727673
20
8.95747932900105
30
0
41
1
10
1.21252402747183
20
8.93643505457507
30
0
41
1
10
1.19382106423984
20
8.87774611555034
30
0
41
1
10
1.19012224660543
20
8.84448902785147
30
0
41
1
10
1.19880751342618
20
8.80419574662818
30
0
41
1
10
1.20410958202535
20
8.79241500381232
30
0
41
1
10
1.21946575636213
20
8.77265645118581
30
0
41
1
10
1.22952666967422
20
8.76461937669973
30
0
41
1
10
1.24202989493443
20
8.75852738790815
30
0
0
SPLINE
5
14D
100
AcDbEntity
8
1
62
256
6
ByLayer
370
18
48
1
60
0
100
AcDbSpline
70
4
71
3
72
14
73
10
40
0
40
0
40
0
40
0
40
0.25
40
0.25
40
0.5
40
0.5
40
0.75
40
0.75
40
1
40
1
40
1
40
1
41
1
10
1.38229474336799
20
9.21789964892901
30
0
41
1
10
1.40142809706282
20
9.24346669744253
30
0
41
1
10
1.42280160274208
20
9.26776221055925
30
0
41
1
10
1.47069440957006
20
9.31293544082195
30
0
41
1
10
1.49737944430933
20
9.3339289036179
30
0
41
1
10
1.55610230056573
20
9.37063293415062
30
0
41
1
10
1.58797224566308
20
9.38630021669871
30
0
41
1
10
1.6575109921427
20
9.41047371090076
30
0
41
1
10
1.69567700869999
20
9.41902429928956
30
0
41
1
10
1.73584813396099
20
9.42222981005906
30
0
0
SPLINE
5
14E
100
AcDbEntity
8
1
62
256
6
ByLayer
370
18
48
1
60
0
100
AcDbSpline
70
4
71
3
72
8
73
4
40
0
40
0
40
0
40
0
40
1
40
1
40
1
40
1
41
1
10
13.5001459746177
20
0.0727527482347625
30
0
41
1
10
13.5040464490986
20
0.0765116989114176
30
0
41
1
10
13.5079453979929
20
0.0803384158046185
30
0
41
1
10
13.5118388743808
20
0.084231892192463
30
0
0
SPLINE
5
14F
100
AcDbEntity
8
1
62
256
6
ByLayer
370
18
48
1
60
0
100
AcDbSpline
70
4
71
3
72
14
73
10
40
0
40
0
40
0
40
0
40
0.25
40
0.25
40
0.5
40
0.5
40
0.75
40
0.75
40
1
40
1
40
1
40
1
41
1
10
11.5463713804688
20
-1.82775333445764
30
0
41
1
10
11.609683819284
20
-1.76662235401756
30
0
41
1
10
11.6723477731146
20
-1.70612898133797
30
0
41
1
10
11.7963939661404
20
-1.58640245204765
30
0
41
1
10
11.8581953707587
20
-1.52676494951203
30
0
41
1
10
11.9776517179707
20
-1.41151648945038
30
0
41
1
10
12.0354137701831
20
-1.35580193917775
30
0
41
1
10
12.1465515265982
20
-1.24863326732918
30
0
41
1
10
12.1999433544469
20
-1.19716348497039
30
0
41
1
10
12.25055239474
20
-1.14839660441788
30
0
0
SPLINE
5
150
100
AcDbEntity
8
1
62
256
6
ByLayer
370
18
48
1
60
0
100
AcDbSpline
70
4
71
3
72
8
73
4
40
0
40
0
40
0
40
0
40
1
40
1
40
1
40
1
41
1
10
13.0339855787615
20
-0.393407647621359
30
0
41
1
10
12.7685995311244
20
-0.6491809223958
30
0
41
1
10
12.5072401826009
20
-0.901052204733986
30
0
41
1
10
12.25055239474
20
-1.14839660441788
30
0
0
SPLINE
5
151
100
AcDbEntity
8
1
62
256
6
ByLayer
370
18
48
1
60
0
100
AcDbSpline
70
4
71
3
72
12
73
8
40
0
40
0
40
0
40
0
40
0.0201305199697645
40
0.0201305199697645
40
0.526548005621772
40
0.526548005621772
40
1
40
1
40
1
40
1
41
1
10
9.42461787652206
20
4.99533914149708
30
0
41
1
10
9.4239007720189
20
4.994337671648
30
0
41
1
10
9.42318639835457
20
4.99334365899256
30
0
41
1
10
9.40457393240382
20
4.96753740476333
30
0
41
1
10
9.38856862585783
20
4.9476083903896
30
0
41
1
10
9.36387148156155
20
4.91833668905662
30
0
41
1
10
9.35457921908102
20
4.90814134250391
30
0
41
1
10
9.34854076221535
20
4.9016572603166
30
0
0
SPLINE
5
152
100
AcDbEntity
8
1
62
256
6
ByLayer
370
18
48
1
60
0
100
AcDbSpline
70
4
71
3
72
12
73
8
40
0
40
0
40
0
40
0
40
0.354359720704597
40
0.354359720704597
40
0.757323810685386
40
0.757323810685386
40
1
40
1
40
1
40
1
41
1
10
9.34205148123925
20
4.89469877959186
30
0
41
1
10
9.34459902862841
20
4.89723820006014
30
0
41
1
10
9.35030282229235
20
4.9029215942731
30
0
41
1
10
9.36889811200336
20
4.92170489264879
30
0
41
1
10
9.38252756253081
20
4.9355773889074
30
0
41
1
10
9.40961910265185
20
4.96456379733502
30
0
41
1
10
9.42108696955103
20
4.97710435936062
30
0
41
1
10
9.43347848553486
20
4.99119782718105
30
0
0
SPLINE
5
153
100
AcDbEntity
8
1
62
256
6
ByLayer
370
18
48
1
60
0
100
AcDbSpline
70
4
71
3
72
16
73
12
40
0
40
0
40
0
40
0
40
0.242072202104134
40
0.242072202104134
40
0.484144404208267
40
0.484144404208267
40
0.726216606312401
40
0.726216606312401
40
0.968288808416534
40
0.968288808416534
40
1
40
1
40
1
40
1
41
1
10
6.70611701732571
20
3.62386866221215
30
0
41
1
10
6.65518451188052
20
3.57126174285625
30
0
41
1
10
6.60877492032
20
3.5135720262372
30
0
41
1
10
6.52478014793479
20
3.39664911006574
30
0
41
1
10
6.48658063084775
20
3.33682816362645
30
0
41
1
10
6.41441532561095
20
3.21668327476618
30
0
41
1
10
6.38030707148096
20
3.15602150181846
30
0
41
1
10
6.31542372633436
20
3.03758180776128
30
0
41
1
10
6.28461605617838
20
2.97974641320278
30
0
41
1
10
6.25078162365344
20
2.91635244950788
30
0
41
1
10
6.24687826078707
20
2.90904028082861
30
0
41
1
10
6.24298930306355
20
2.90175941942303
30
0
0
SPLINE
5
154
100
AcDbEntity
8
1
62
256
6
ByLayer
370
18
48
1
60
0
100
AcDbSpline
70
4
71
3
72
16
73
12
40
0
40
0
40
0
40
0
40
0.299900377224675
40
0.299900377224675
40
0.474925282918506
40
0.474925282918506
40
0.649950188612337
40
0.649950188612337
40
0.824975094306169
40
0.824975094306169
40
1
40
1
40
1
40
1
41
1
10
4.33652341942224
20
4.61146516552861
30
0
41
1
10
4.45687476602222
20
4.60942835693794
30
0
41
1
10
4.58261710037846
20
4.60588022936213
30
0
41
1
10
4.78874224671239
20
4.60104673481817
30
0
41
1
10
4.86603217847357
20
4.59943940647128
30
0
41
1
10
5.02134702586227
20
4.59755083870763
30
0
41
1
10
5.09962006124493
20
4.59725240217816
30
0
41
1
10
5.25728915476333
20
4.59924134505505
30
0
41
1
10
5.33668468683987
20
4.60150602212244
30
0
41
1
10
5.49655778457998
20
4.61071400222414
30
0
41
1
10
5.57746287559348
20
4.61767751910111
30
0
41
1
10
5.65767746279693
20
4.62875828798403
30
0
0
LINE
5
81
100
AcDbEntity
8
1
62
256
6
ByLayer
370
18
48
1
60
0
100
AcDbLine
10
14.413709
20
7.377079
30
0
11
14.486057
21
7.449427
31
0
39
0
210
0
220
0
230
1
0
LINE
5
82
100
AcDbEntity
8
1
62
256
6
ByLayer
370
18
48
1
60
0
100
AcDbLine
10
14.979247
20
7.206822
30
0
11
14.993563
21
7.220682
31
0
39
0
210
0
220
0
230
1
0
LINE
5
83
100
AcDbEntity
8
1
62
256
6
ByLayer
370
18
48
1
60
0
100
AcDbLine
10
14.990625
20
5.239352
30
0
11
15.062289
21
5.311016
31
0
39
0
210
0
220
0
230
1
0
LINE
5
84
100
AcDbEntity
8
1
62
256
6
ByLayer
370
18
48
1
60
0
100
AcDbLine
10
14.979247
20
7.206822
30
0
11
15.050911
21
7.278486
31
0
39
0
210
0
220
0
230
1
0
LINE
5
85
100
AcDbEntity
8
1
62
256
6
ByLayer
370
18
48
1
60
0
100
AcDbLine
10
15.415699
20
6.798546
30
0
11
15.488047
21
6.870894
31
0
39
0
210
0
220
0
230
1
0
LINE
5
86
100
AcDbEntity
8
1
62
256
6
ByLayer
370
18
48
1
60
0
100
AcDbLine
10
14.995517
20
5.219977
30
0
11
15.067865
21
5.292325
31
0
39
0
210
0
220
0
230
1
0
LINE
5
87
100
AcDbEntity
8
1
62
256
6
ByLayer
370
18
48
1
60
0
100
AcDbLine
10
15.552887
20
6.224206
30
0
11
15.572096
21
6.218692
31
0
39
0
210
0
220
0
230
1
0
LINE
5
88
100
AcDbEntity
8
1
62
256
6
ByLayer
370
18
48
1
60
0
100
AcDbLine
10
13.414994
20
6.800501
30
0
11
13.434368
21
6.795608
31
0
39
0
210
0
220
0
230
1
0
LINE
5
89
100
AcDbEntity
8
1
62
256
6
ByLayer
370
18
48
1
60
0
100
AcDbLine
10
13.414994
20
6.800501
30
0
11
13.487342
21
6.872849
31
0
39
0
210
0
220
0
230
1
0
LINE
5
8A
100
AcDbEntity
8
1
62
256
6
ByLayer
370
18
48
1
60
0
100
AcDbLine
10
14.419223
20
7.35787
30
0
11
14.490887
21
7.429534
31
0
39
0
210
0
220
0
230
1
0
LINE
5
8B
100
AcDbEntity
8
1
62
256
6
ByLayer
370
18
48
1
60
0
100
AcDbLine
10
13.434368
20
6.795608
30
0
11
13.506032
21
6.867272
31
0
39
0
210
0
220
0
230
1
0
LINE
5
8C
100
AcDbEntity
8
1
62
256
6
ByLayer
370
18
48
1
60
0
100
AcDbLine
10
15.572096
20
6.218692
30
0
11
15.644444
21
6.29104
31
0
39
0
210
0
220
0
230
1
0
LINE
5
8D
100
AcDbEntity
8
1
62
256
6
ByLayer
370
18
48
1
60
0
100
AcDbLine
10
15.415699
20
6.798546
30
0
11
15.401839
21
6.78423
31
0
39
0
210
0
220
0
230
1
0
LINE
5
8E
100
AcDbEntity
8
1
62
256
6
ByLayer
370
18
48
1
60
0
100
AcDbLine
10
15.401839
20
6.78423
30
0
11
15.473503
21
6.855894
31
0
39
0
210
0
220
0
230
1
0
LINE
5
8F
100
AcDbEntity
8
1
62
256
6
ByLayer
370
18
48
1
60
0
100
AcDbLine
10
14.990625
20
5.239352
30
0
11
14.995517
21
5.219977
31
0
39
0
210
0
220
0
230
1
0
LINE
5
90
100
AcDbEntity
8
1
62
256
6
ByLayer
370
18
48
1
60
0
100
AcDbLine
10
14.413709
20
7.377079
30
0
11
14.419223
21
7.35787
31
0
39
0
210
0
220
0
230
1
0
LINE
5
91
100
AcDbEntity
8
1
62
256
6
ByLayer
370
18
48
1
60
0
100
AcDbLine
10
15.552887
20
6.224206
30
0
11
15.624551
21
6.29587
31
0
39
0
210
0
220
0
230
1
0
LINE
5
92
100
AcDbEntity
8
1
62
256
6
ByLayer
370
18
48
1
60
0
100
AcDbLine
10
12.947552
20
7.722383
30
0
11
12.947467
21
7.722299
31
0
39
0
210
0
220
0
230
1
0
LINE
5
93
100
AcDbEntity
8
1
62
256
6
ByLayer
370
18
48
1
60
0
100
AcDbLine
10
13.884167
20
5.267014
30
0
11
13.912754
21
5.295601
31
0
39
0
210
0
220
0
230
1
0
LINE
5
94
100
AcDbEntity
8
1
62
256
6
ByLayer
370
18
48
1
60
0
100
AcDbLine
10
13.463056
20
5.690176
30
0
11
13.490618
21
5.717737
31
0
39
0
210
0
220
0
230
1
0
LINE
5
95
100
AcDbEntity
8
SK1
62
256
6
ByLayer
370
18
48
1
60
0
100
AcDbLine
10
-33.58
20
-5.09215
30
0
11
-33.58
21
5.09215
31
0
39
0
210
0
220
0
230
1
0
LINE
5
97
100
AcDbEntity
8
SK1
62
256
6
ByLayer
370
18
48
1
60
0
100
AcDbLine
10
-23.395
20
-5.09215
30
0
11
-23.395
21
5.09215
31
0
39
0
210
0
220
0
230
1
0
LINE
5
98
100
AcDbEntity
8
SK1
62
256
6
ByLayer
370
18
48
1
60
0
100
AcDbLine
10
-33.58
20
5.09215
30
0
11
-23.395
21
5.09215
31
0
39
0
210
0
220
0
230
1
0
LINE
5
99
100
AcDbEntity
8
SK1
62
256
6
ByLayer
370
18
48
1
60
0
100
AcDbLine
10
-23.395
20
-5.09215
30
0
11
-33.58
21
-5.09215
31
0
39
0
210
0
220
0
230
1
0
LINE
5
9A
100
AcDbEntity
8
1
62
256
6
ByLayer
370
18
48
1
60
0
100
AcDbLine
10
13.19699
20
0.834197
30
0
11
13.217195
21
0.854402
31
0
39
0
210
0
220
0
230
1
0
LINE
5
9B
100
AcDbEntity
8
1
62
256
6
ByLayer
370
18
48
1
60
0
100
AcDbLine
10
13.511839
20
0.084232
30
0
11
13.045688
21
-0.381918
31
0
39
0
210
0
220
0
230
1
0
LINE
5
9C
100
AcDbEntity
8
1
62
256
6
ByLayer
370
18
48
1
60
0
100
AcDbLine
10
13.033986
20
-0.393408
30
0
11
13.500146
21
0.072753
31
0
39
0
210
0
220
0
230
1
0
LINE
5
9D
100
AcDbEntity
8
1
62
256
6
ByLayer
370
18
48
1
60
0
100
AcDbLine
10
13.511839
20
0.084232
30
0
11
13.858113
21
0.430506
31
0
39
0
210
0
220
0
230
1
0
LINE
5
9E
100
AcDbEntity
8
1
62
256
6
ByLayer
370
18
48
1
60
0
100
AcDbLine
10
3.716276
20
-9.374362
30
0
11
13.231961
21
-0.185172
31
0
39
0
210
0
220
0
230
1
0
LINE
5
9F
100
AcDbEntity
8
1
62
256
6
ByLayer
370
18
48
1
60
0
100
AcDbLine
10
13.185993
20
-0.113435
30
0
11
13.162598
21
0.348724
31
0
39
0
210
0
220
0
230
1
0
LINE
5
A0
100
AcDbEntity
8
1
62
256
6
ByLayer
370
18
48
1
60
0
100
AcDbLine
10
13.200009
20
0.784939
30
0
11
13.182591
21
0.819822
31
0
39
0
210
0
220
0
230
1
0
LINE
5
A1
100
AcDbEntity
8
1
62
256
6
ByLayer
370
18
48
1
60
0
100
AcDbLine
10
13.858113
20
0.430506
30
0
11
13.926584
21
0.498977
31
0
39
0
210
0
220
0
230
1
0
LINE
5
A2
100
AcDbEntity
8
SK1
62
256
6
ByLayer
370
18
48
1
60
0
100
AcDbLine
10
-4.275
20
-7.93475
30
0
11
-4.275
21
7.93475
31
0
39
0
210
0
220
0
230
1
0
LINE
5
A3
100
AcDbEntity
8
1
62
256
6
ByLayer
370
18
48
1
60
0
100
AcDbLine
10
-4.275
20
-7.93475
30
0
11
-4.275
21
7.93475
31
0
39
0
210
0
220
0
230
1
0
LINE
5
A4
100
AcDbEntity
8
1
62
256
6
ByLayer
370
18
48
1
60
0
100
AcDbLine
10
11.100252
20
9.462992
30
0
11
11.197149
21
9.366095
31
0
39
0
210
0
220
0
230
1
0
LINE
5
A5
100
AcDbEntity
8
SK1
62
256
6
ByLayer
370
18
48
1
60
0
100
AcDbLine
10
-51.7
20
7.93475
30
0
11
-51.7
21
-7.93475
31
0
39
0
210
0
220
0
230
1
0
LINE
5
A6
100
AcDbEntity
8
SK1
62
256
6
ByLayer
370
18
48
1
60
0
100
AcDbLine
10
-52.7
20
6.93475
30
0
11
-52.7
21
-6.93475
31
0
39
0
210
0
220
0
230
1
0
LINE
5
A7
100
AcDbEntity
8
1
62
256
6
ByLayer
370
18
48
1
60
0
100
AcDbLine
10
0
20
7.93475
30
0
11
0
21
-7.93475
31
0
39
0
210
0
220
0
230
1
0
LINE
5
A8
100
AcDbEntity
8
1
62
256
6
ByLayer
370
18
48
1
60
0
100
AcDbLine
10
1.382295
20
9.317045
30
0
11
1.382295
21
9.2179
31
0
39
0
210
0
220
0
230
1
0
LINE
5
A9
100
AcDbEntity
8
1
62
256
6
ByLayer
370
18
48
1
60
0
100
AcDbLine
10
1.382295
20
8.605724
30
0
11
1.382295
21
-9.317045
31
0
39
0
210
0
220
0
230
1
0
LINE
5
AA
100
AcDbEntity
8
1
62
256
6
ByLayer
370
18
48
1
60
0
100
AcDbLine
10
1.735848
20
-9.463491
30
0
11
1.735848
21
8.070553
31
0
39
0
210
0
220
0
230
1
0
LINE
5
AB
100
AcDbEntity
8
1
62
256
6
ByLayer
370
18
48
1
60
0
100
AcDbLine
10
1.735848
20
9.42223
30
0
11
1.735848
21
9.463491
31
0
39
0
210
0
220
0
230
1
0
LINE
5
AC
100
AcDbEntity
8
81
62
256
6
ByLayer
370
18
48
1
60
0
100
AcDbLine
10
20.5015
20
6.604
30
0
11
25.5015
21
6.604
31
0
39
0
210
0
220
0
230
1
0
LINE
5
AD
100
AcDbEntity
8
SK4
62
256
6
ByLayer
370
18
48
0.05
60
0
100
AcDbLine
10
-57.7
20
0
30
0
11
25.5015
21
0
31
0
39
0
210
0
220
0
230
1
0
LINE
5
AF
100
AcDbEntity
8
80
62
256
6
ByLayer
370
18
48
1
60
0
100
AcDbLine
10
0
20
0
30
0
11
-5
21
0
31
0
39
0
210
0
220
0
230
1
0
LINE
5
B0
100
AcDbEntity
8
1
62
256
6
ByLayer
370
18
48
1
60
0
100
AcDbLine
10
-4.275
20
-7.93475
30
0
11
0
21
-7.93475
31
0
39
0
210
0
220
0
230
1
0
LINE
5
B1
100
AcDbEntity
8
1
62
256
6
ByLayer
370
18
48
1
60
0
100
AcDbLine
10
0
20
7.93475
30
0
11
-4.275
21
7.93475
31
0
39
0
210
0
220
0
230
1
0
LINE
5
B2
100
AcDbEntity
8
1
62
256
6
ByLayer
370
18
48
1
60
0
100
AcDbLine
10
15.917316
20
4.75245
30
0
11
15.962774
21
4.797909
31
0
39
0
210
0
220
0
230
1
0
LINE
5
B3
100
AcDbEntity
8
1
62
256
6
ByLayer
370
18
48
1
60
0
100
AcDbLine
10
12.992926
20
7.767757
30
0
11
12.947467
21
7.722299
31
0
39
0
210
0
220
0
230
1
0
LINE
5
B4
100
AcDbEntity
8
1
62
256
6
ByLayer
370
18
48
1
60
0
100
AcDbLine
10
13.713837
20
6.925114
30
0
11
13.780389
21
6.991666
31
0
39
0
210
0
220
0
230
1
0
LINE
5
B5
100
AcDbEntity
8
1
62
256
6
ByLayer
370
18
48
1
60
0
100
AcDbLine
10
15.186683
20
5.585372
30
0
11
15.120131
21
5.51882
31
0
39
0
210
0
220
0
230
1
0
LINE
5
B6
100
AcDbEntity
8
SK1
62
256
6
ByLayer
370
18
48
1
60
0
100
AcDbLine
10
-51.7
20
-7.93475
30
0
11
-4.275
21
-7.93475
31
0
39
0
210
0
220
0
230
1
0
LINE
5
B7
100
AcDbEntity
8
SK1
62
256
6
ByLayer
370
18
48
1
60
0
100
AcDbLine
10
-4.275
20
7.93475
30
0
11
-51.7
21
7.93475
31
0
39
0
210
0
220
0
230
1
0
LINE
5
B8
100
AcDbEntity
8
SK1
62
256
6
ByLayer
370
18
48
1
60
0
100
AcDbLine
10
-52.7
20
-6.93475
30
0
11
-51.7
21
-7.93475
31
0
39
0
210
0
220
0
230
1
0
LINE
5
B9
100
AcDbEntity
8
SK1
62
256
6
ByLayer
370
18
48
1
60
0
100
AcDbLine
10
-51.7
20
7.93475
30
0
11
-52.7
21
6.93475
31
0
39
0
210
0
220
0
230
1
0
LINE
5
BA
100
AcDbEntity
8
1
62
256
6
ByLayer
370
18
48
1
60
0
100
AcDbLine
10
0
20
-7.93475
30
0
11
1.382295
21
-9.317045
31
0
39
0
210
0
220
0
230
1
0
LINE
5
BB
100
AcDbEntity
8
1
62
256
6
ByLayer
370
18
48
1
60
0
100
AcDbLine
10
1.382295
20
9.317045
30
0
11
0
21
7.93475
31
0
39
0
210
0
220
0
230
1
0
LINE
5
BC
100
AcDbEntity
8
1
62
256
6
ByLayer
370
18
48
1
60
0
100
AcDbLine
10
1.735848
20
-9.463491
30
0
11
3.139172
21
-9.463491
31
0
39
0
210
0
220
0
230
1
0
LINE
5
BD
100
AcDbEntity
8
1
62
256
6
ByLayer
370
18
48
1
60
0
100
AcDbLine
10
9.528868
20
9.463491
30
0
11
1.735848
21
9.463491
31
0
39
0
210
0
220
0
230
1
0
LINE
5
BE
100
AcDbEntity
8
4
62
256
6
ByLayer
370
18
48
0.05
60
0
100
AcDbLine
10
0
20
0
30
0
11
25.5015
21
0
31
0
39
0
210
0
220
0
230
1
0
LINE
5
C0
100
AcDbEntity
8
SK2
62
256
6
ByLayer
370
13
48
1
60
0
100
AcDbLine
10
14.146378
20
12.959122
30
0
11
9.083265
21
18.022235
31
0
39
0
210
0
220
0
230
1
0
LINE
5
C2
100
AcDbEntity
8
SK2
62
256
6
ByLayer
370
13
48
1
60
0
100
AcDbLine
10
20.5015
20
8.1915
30
0
11
20.5015
21
22.751822
31
0
39
0
210
0
220
0
230
1
0
LINE
5
C3
100
AcDbEntity
8
1
62
256
6
ByLayer
370
13
48
1
60
0
100
AcDbLine
10
11.328329
20
15.777171
30
0
11
13.428797
21
18.194477
31
0
39
0
210
0
220
0
230
1
0
LINE
5
C4
100
AcDbEntity
8
1
62
256
6
ByLayer
370
13
48
1
60
0
100
AcDbLine
10
11.328329
20
15.777171
30
0
11
13.982873
21
17.56847
31
0
39
0
210
0
220
0
230
1
0
LINE
5
C5
100
AcDbEntity
8
1
62
256
6
ByLayer
370
13
48
1
60
0
100
AcDbLine
10
13.428797
20
18.194477
30
0
11
13.982873
21
17.56847
31
0
39
0
210
0
220
0
230
1
0
LINE
5
C6
100
AcDbEntity
8
1
62
256
6
ByLayer
370
13
48
1
60
0
100
AcDbLine
10
20.5015
20
19.576822
30
0
11
17.357817
21
18.966416
31
0
39
0
210
0
220
0
230
1
0
LINE
5
C7
100
AcDbEntity
8
1
62
256
6
ByLayer
370
13
48
1
60
0
100
AcDbLine
10
20.5015
20
19.576822
30
0
11
17.306948
21
19.800861
31
0
39
0
210
0
220
0
230
1
0
LINE
5
C8
100
AcDbEntity
8
1
62
256
6
ByLayer
370
13
48
1
60
0
100
AcDbLine
10
17.357817
20
18.966416
30
0
11
17.306948
21
19.800861
31
0
39
0
210
0
220
0
230
1
0
MTEXT
5
155
100
AcDbEntity
8
SK2
62
256
6
ByLayer
370
18
48
1
60
0
100
AcDbMText
10
27.023569
20
20.391725
30
0
210
0
220
0
230
1
1
\W1.0427;45%%d
40
4.5
41
0
44
1.084337
50
315.546824879833
71
7
72
5
7
iso_b_vert
0
MTEXT
5
158
100
AcDbEntity
8
SK6
62
256
6
ByLayer
370
18
48
1
60
0
100
AcDbMText
10
-114.887403
20
-18.398504
30
0
210
0
220
0
230
1
1
\W0.7528;A495-013M16-4509L
40
4
41
0
44
1.084337
50
89.9999999999998
71
7
72
5
7
iso_b_vert
0
DIMENSION
5
15B
100
AcDbEntity
8
2
62
256
6
ByLayer
370
18
48
1
60
0
100
AcDbDimension
2
_U0
10
45.398375
20
6.604
30
0
11
45.398375
21
29.257395
31
0
70
32
71
1
72
1
41
1
210
0
220
0
230
1
3
Standard
100
AcDbAlignedDimension
13
20.5015
23
-6.604
33
0
14
20.5015
24
6.604
34
0
50
90
100
AcDbRotatedDimension
1001
ACAD
1000
DSTYLE
1002
{
1070
   371
1070
    13
1070
   372
1070
    13
1070
   170
1070
     0
1070
   144
1040
1.0
1070
   277
1070
     2
1070
   284
1070
     8
1070
   278
1070
    46
1070
   146
1040
0.777778
1070
   345
1005
16
1070
   347
1005
16
1070
   346
1005
16
1070
   344
1005
15C
1070
   343
1005
15C
1070
   172
1070
     1
1070
    76
1070
     0
1070
    75
1070
     0
1070
   282
1070
     0
1070
   281
1070
     0
1070
    71
1070
     0
1070
    74
1070
     0
1070
   279
1070
     0
1070
   173
1070
     1
1070
   340
1005
156
1070
   271
1070
     2
1070
   272
1070
     2
1070
    77
1070
     1
1070
    73
1070
     0
1070
   171
1070
     3
1070
   274
1070
     4
1070
   177
1070
   150
1070
   176
1070
     9
1070
   178
1070
    43
1070
    78
1070
     8
1070
    48
1040
-0.1
1070
    41
1040
3.175
1070
   147
1040
2.25
1070
    42
1040
1.5875
1070
    44
1040
3.175
1070
   140
1040
4.5
1002
}
1001
ACAD_DSTYLE_DIM_LINETYPE
1070
   380
1005
16
1001
ACAD_DSTYLE_DIM_EXT1_LINETYPE
1070
   381
1005
16
1001
ACAD_DSTYLE_DIM_EXT2_LINETYPE
1070
   382
1005
16
0
DIMENSION
5
183
100
AcDbEntity
8
SK2
62
256
6
ByLayer
370
18
48
1
60
0
100
AcDbDimension
2
_U1
10
-0.0013
20
-31.104
30
0
11
10.2501
21
-31.104
31
0
70
32
71
1
72
1
41
1
210
0
220
0
230
1
3
Standard
100
AcDbAlignedDimension
13
20.5015
23
-6.604
33
0
14
-0.0013
24
0
34
0
50
0
100
AcDbRotatedDimension
1001
ACAD
1000
DSTYLE
1002
{
1070
   371
1070
    13
1070
   372
1070
    13
1070
   170
1070
     0
1070
   144
1040
1.0
1070
   277
1070
     2
1070
   284
1070
     8
1070
   278
1070
    46
1070
   146
1040
0.777778
1070
   345
1005
16
1070
   347
1005
16
1070
   346
1005
16
1070
   344
1005
15C
1070
   343
1005
15C
1070
   172
1070
     1
1070
    76
1070
     0
1070
    75
1070
     0
1070
   282
1070
     0
1070
   281
1070
     0
1070
    71
1070
     0
1070
    74
1070
     0
1070
   279
1070
     0
1070
   173
1070
     1
1070
   340
1005
156
1070
   271
1070
     2
1070
   272
1070
     2
1070
    77
1070
     1
1070
    73
1070
     1
1070
   171
1070
     3
1070
   274
1070
     4
1070
   177
1070
   150
1070
   176
1070
     9
1070
   178
1070
    43
1070
    78
1070
     8
1070
    48
1040
-0.1
1070
    41
1040
3.175
1070
   147
1040
2.25
1070
    42
1040
1.5875
1070
    44
1040
3.175
1070
   140
1040
4.5
1002
}
1001
ACAD_DSTYLE_DIM_LINETYPE
1070
   380
1005
16
1001
ACAD_DSTYLE_DIM_EXT1_LINETYPE
1070
   381
1005
16
1001
ACAD_DSTYLE_DIM_EXT2_LINETYPE
1070
   382
1005
16
0
DIMENSION
5
1A0
100
AcDbEntity
8
2
62
256
6
ByLayer
370
18
48
1
60
0
100
AcDbDimension
2
_U2
10
20.5015
20
27.104
30
0
11
-16.09925
21
27.104
31
0
70
32
71
1
72
1
41
1
210
0
220
0
230
1
3
Standard
100
AcDbAlignedDimension
13
-52.7
23
7.93475
33
0
14
20.5015
24
6.604
34
0
50
0
100
AcDbRotatedDimension
1001
ACAD
1000
DSTYLE
1002
{
1070
   371
1070
    13
1070
   372
1070
    13
1070
   170
1070
     0
1070
   144
1040
1.0
1070
   277
1070
     2
1070
   284
1070
     8
1070
   278
1070
    46
1070
   146
1040
0.777778
1070
   345
1005
16
1070
   347
1005
16
1070
   346
1005
16
1070
   344
1005
15C
1070
   343
1005
15C
1070
   172
1070
     1
1070
    76
1070
     0
1070
    75
1070
     0
1070
   282
1070
     0
1070
   281
1070
     0
1070
    71
1070
     0
1070
    74
1070
     0
1070
   279
1070
     0
1070
   173
1070
     1
1070
   340
1005
156
1070
   271
1070
     2
1070
   272
1070
     2
1070
    77
1070
     1
1070
    73
1070
     1
1070
   171
1070
     3
1070
   274
1070
     4
1070
   177
1070
   150
1070
   176
1070
     9
1070
   178
1070
    43
1070
    78
1070
     8
1070
    48
1040
-0.1
1070
    41
1040
3.175
1070
   147
1040
2.25
1070
    42
1040
1.5875
1070
    44
1040
3.175
1070
   140
1040
4.5
1002
}
1001
ACAD_DSTYLE_DIM_LINETYPE
1070
   380
1005
16
1001
ACAD_DSTYLE_DIM_EXT1_LINETYPE
1070
   381
1005
16
1001
ACAD_DSTYLE_DIM_EXT2_LINETYPE
1070
   382
1005
16
0
DIMENSION
5
1BC
100
AcDbEntity
8
SK2
62
256
6
ByLayer
370
18
48
1
60
0
100
AcDbDimension
2
_U3
10
14.4625
20
17.104
30
0
11
-19.11875
21
17.104
31
0
70
32
71
1
72
1
41
1
210
0
220
0
230
1
3
Standard
100
AcDbAlignedDimension
13
-52.7
23
7.93475
33
0
14
14.4625
24
12.305
34
0
50
0
100
AcDbRotatedDimension
1001
ACAD
1000
DSTYLE
1002
{
1070
   371
1070
    13
1070
   372
1070
    13
1070
   170
1070
     0
1070
   144
1040
1.0
1070
   277
1070
     2
1070
   284
1070
     8
1070
   278
1070
    46
1070
   146
1040
0.777778
1070
   345
1005
16
1070
   347
1005
16
1070
   346
1005
16
1070
   344
1005
15C
1070
   343
1005
15C
1070
   172
1070
     1
1070
    76
1070
     0
1070
    75
1070
     0
1070
   282
1070
     0
1070
   281
1070
     0
1070
    71
1070
     0
1070
    74
1070
     0
1070
   279
1070
     0
1070
   173
1070
     1
1070
   340
1005
156
1070
   271
1070
     2
1070
   272
1070
     2
1070
    77
1070
     1
1070
    73
1070
     1
1070
   171
1070
     3
1070
   274
1070
     4
1070
   177
1070
   150
1070
   176
1070
     9
1070
   178
1070
    43
1070
    78
1070
     8
1070
    48
1040
-0.1
1070
    41
1040
3.175
1070
   147
1040
2.25
1070
    42
1040
1.5875
1070
    44
1040
3.175
1070
   140
1040
4.5
1002
}
1001
ACAD_DSTYLE_DIM_LINETYPE
1070
   380
1005
16
1001
ACAD_DSTYLE_DIM_EXT1_LINETYPE
1070
   381
1005
16
1001
ACAD_DSTYLE_DIM_EXT2_LINETYPE
1070
   382
1005
16
0
DIMENSION
5
1D8
100
AcDbEntity
8
SK2
62
256
6
ByLayer
370
18
48
1
60
0
100
AcDbDimension
2
_U4
10
56.2515
20
12.305
30
0
11
56.2515
21
35.997523
31
0
70
32
71
1
72
1
41
1
210
0
220
0
230
1
3
Standard
100
AcDbAlignedDimension
13
14.4625
23
-12.305
33
0
14
14.4625
24
12.305
34
0
50
90
100
AcDbRotatedDimension
1001
ACAD
1000
DSTYLE
1002
{
1070
   371
1070
    13
1070
   372
1070
    13
1070
   170
1070
     0
1070
   144
1040
1.0
1070
   277
1070
     2
1070
   284
1070
     8
1070
   278
1070
    46
1070
   146
1040
0.777778
1070
   345
1005
16
1070
   347
1005
16
1070
   346
1005
16
1070
   344
1005
15C
1070
   343
1005
15C
1070
   172
1070
     1
1070
    76
1070
     0
1070
    75
1070
     0
1070
   282
1070
     0
1070
   281
1070
     0
1070
    71
1070
     0
1070
    74
1070
     0
1070
   279
1070
     0
1070
   173
1070
     1
1070
   340
1005
156
1070
   271
1070
     2
1070
   272
1070
     2
1070
    77
1070
     1
1070
    73
1070
     0
1070
   171
1070
     3
1070
   274
1070
     4
1070
   177
1070
   150
1070
   176
1070
     9
1070
   178
1070
    43
1070
    78
1070
     8
1070
    48
1040
-0.1
1070
    41
1040
3.175
1070
   147
1040
2.25
1070
    42
1040
1.5875
1070
    44
1040
3.175
1070
   140
1040
4.5
1002
}
1001
ACAD_DSTYLE_DIM_LINETYPE
1070
   380
1005
16
1001
ACAD_DSTYLE_DIM_EXT1_LINETYPE
1070
   381
1005
16
1001
ACAD_DSTYLE_DIM_EXT2_LINETYPE
1070
   382
1005
16
0
DIMENSION
5
1F6
100
AcDbEntity
8
SK2
62
256
6
ByLayer
370
18
48
1
60
0
100
AcDbDimension
2
_U5
10
-77.803125
20
-7.93475
30
0
11
-77.803125
21
31.319284
31
0
70
32
71
1
72
1
41
1
210
0
220
0
230
1
3
Standard
100
AcDbAlignedDimension
13
-52.7
23
7.93475
33
0
14
-52.7
24
-7.93475
34
0
50
90
100
AcDbRotatedDimension
1001
ACAD
1000
DSTYLE
1002
{
1070
   371
1070
    13
1070
   372
1070
    13
1070
   170
1070
     0
1070
   144
1040
1.0
1070
   277
1070
     2
1070
   284
1070
     8
1070
   278
1070
    46
1070
   146
1040
0.777778
1070
   345
1005
16
1070
   347
1005
16
1070
   346
1005
16
1070
   344
1005
15C
1070
   343
1005
15C
1070
   172
1070
     1
1070
    76
1070
     0
1070
    75
1070
     0
1070
   282
1070
     0
1070
   281
1070
     0
1070
    71
1070
     0
1070
    74
1070
     0
1070
   279
1070
     0
1070
   173
1070
     1
1070
   340
1005
156
1070
   271
1070
     2
1070
   272
1070
     2
1070
    77
1070
     1
1070
    73
1070
     0
1070
   171
1070
     3
1070
   274
1070
     4
1070
   177
1070
   150
1070
   176
1070
     9
1070
   178
1070
    43
1070
    78
1070
     8
1070
    48
1040
-0.1
1070
    41
1040
3.175
1070
   147
1040
2.25
1070
    42
1040
1.5875
1070
    44
1040
3.175
1070
   140
1040
4.5
1002
}
1001
ACAD_DSTYLE_DIM_LINETYPE
1070
   380
1005
16
1001
ACAD_DSTYLE_DIM_EXT1_LINETYPE
1070
   381
1005
16
1001
ACAD_DSTYLE_DIM_EXT2_LINETYPE
1070
   382
1005
16
0
ENDSEC
0
SECTION
2
OBJECTS
0
DICTIONARY
5
285
330
0
100
AcDbDictionary
280
0
281
1
3
ACAD_GROUP
350
286
3
ACAD_MLINESTYLE
350
287
0
DICTIONARY
5
286
330
0
100
AcDbDictionary
280
0
281
1
0
DICTIONARY
5
287
330
0
100
AcDbDictionary
280
0
281
1
3
Standard
350
18
0
MLINESTYLE
5
18
330
287
100
AcDbMlineStyle
2
Standard
70
0
3

62
256
51
90
52
90
71
2
49
-0.5
62
256
6
ByLayer
49
0.5
62
256
6
ByLayer
0
RASTERVARIABLES
5
273
330

100
AcDbRasterVariables
90
0
70
1
71
1
72
1
0
ENDSEC
0
EOF
