0
SECTION
2
HEADER
9
$ACADVER
1
AC1015
9
$DWGCODEPAGE
3
ANSI_1252
9
$HANDSEED
5
2a5
9
$ANGBASE
50
0
9
$ANGDIR
70
0
9
$ATTMODE
70
1
9
$AUNITS
70
0
9
$AUPREC
70
0
9
$CECOLOR
62
256
9
$CELTSCALE
40
1
9
$CELTYPE
6
ByLayer
9
$CELWEIGHT
370
18
9
$CLAYER
8
0
9
$CMLJUST
70
0
9
$CMLSCALE
40
1
9
$CMLSTYLE
2
Standard
9
$DIMSTYLE
2
Standard
9
$TEXTSIZE
40
0.2
9
$TEXTSTYLE
7
Standard
9
$LUNITS
70
2
9
$LUPREC
70
4
9
$EXTNAMES
290
1
9
$INSUNITS
70
4
9
$LTSCALE
40
1
9
$LWDISPLAY
290
1
9
$PDMODE
70
0
9
$PDSIZE
40
0
9
$PLINEGEN
70
0
0
ENDSEC
0
SECTION
2
CLASSES
0
CLASS
1
RASTERVARIABLES
2
AcDbRasterVariables
3
ISM
90
0
280
0
281
0
0
ENDSEC
0
SECTION
2
TABLES
0
TABLE
2
VPORT
5
29b
100
AcDbSymbolTable
0
VPORT
5
1
100
AcDbSymbolTableRecord
100
AcDbViewportTableRecord
2
*Active
70
0
10
0
20
0
11
1
21
1
12
-1
22
1
13
0
23
0
14
0.5
24
0.5
15
10
25
10
16
0
26
0
36
1
17
0
27
0
37
0
0
ENDTAB
0
TABLE
2
LTYPE
5
29c
100
AcDbSymbolTable
0
LTYPE
5
14
100
AcDbSymbolTableRecord
100
AcDbLinetypeTableRecord
70
0
2
ByBlock
3

72
65
73
0
40
0
0
LTYPE
5
15
100
AcDbSymbolTableRecord
100
AcDbLinetypeTableRecord
70
0
2
ByLayer
3

72
65
73
0
40
0
0
LTYPE
5
16
100
AcDbSymbolTableRecord
100
AcDbLinetypeTableRecord
70
0
2
Continuous
3
Solid line
72
65
73
0
40
0
0
LTYPE
5
6E
100
AcDbSymbolTableRecord
100
AcDbLinetypeTableRecord
70
0
2
CENTER
3
____ _ ____ _ ____ _ ____
72
65
73
4
40
47.5
49
22
74
0
49
-8.5
74
0
49
8.5
74
0
49
-8.5
74
0
0
LTYPE
5
6F
100
AcDbSymbolTableRecord
100
AcDbLinetypeTableRecord
70
0
2
DASHED
3
__ __ __ __ __ __ __ __ __
72
65
73
2
40
25.72
49
12.86
74
0
49
-12.86
74
0
0
ENDTAB
0
TABLE
2
LAYER
5
29d
100
AcDbSymbolTable
0
LAYER
5
10
100
AcDbSymbolTableRecord
100
AcDbLayerTableRecord
2
0
70
0
62
7
6
Continuous
290
1
370
-3
390
0
0
LAYER
5
71
100
AcDbSymbolTableRecord
100
AcDbLayerTableRecord
2
81
70
0
62
-3
6
Continuous
290
1
370
-3
390
0
0
LAYER
5
73
100
AcDbSymbolTableRecord
100
AcDbLayerTableRecord
2
80
70
0
62
-6
6
Continuous
290
1
370
-3
390
0
0
LAYER
5
75
100
AcDbSymbolTableRecord
100
AcDbLayerTableRecord
2
1
70
0
62
4
6
Continuous
290
1
370
-3
390
0
0
LAYER
5
C6
100
AcDbSymbolTableRecord
100
AcDbLayerTableRecord
2
4
70
0
62
-2
6
CENTER
290
1
370
-3
390
0
0
LAYER
5
178
100
AcDbSymbolTableRecord
100
AcDbLayerTableRecord
2
Defpoints
70
0
62
7
6
Continuous
290
0
370
-3
390
0
0
LAYER
5
187
100
AcDbSymbolTableRecord
100
AcDbLayerTableRecord
2
2
70
0
62
7
6
Continuous
290
1
370
-3
390
0
0
LAYER
5
287
100
AcDbSymbolTableRecord
100
AcDbLayerTableRecord
2
SK1
70
0
62
4
6
Continuous
290
1
370
-3
390
0
0
LAYER
5
288
100
AcDbSymbolTableRecord
100
AcDbLayerTableRecord
2
SK4
70
0
62
2
6
CENTER
290
1
370
-3
390
0
0
LAYER
5
289
100
AcDbSymbolTableRecord
100
AcDbLayerTableRecord
2
SK2
70
0
62
7
6
Continuous
290
1
370
-3
390
0
0
LAYER
5
28a
100
AcDbSymbolTableRecord
100
AcDbLayerTableRecord
2
SK6
70
0
62
5
6
Continuous
290
1
370
-3
390
0
0
ENDTAB
0
TABLE
2
STYLE
5
29e
100
AcDbSymbolTable
0
STYLE
5
11
100
AcDbSymbolTableRecord
100
AcDbTextStyleTableRecord
2
Standard
3
txt
70
0
71
0
40
0
41
1
42
0
50
0
0
STYLE
5
169
100
AcDbSymbolTableRecord
100
AcDbTextStyleTableRecord
2
iso_b_vert
3
simplex.shx
70
0
71
0
40
0
41
1
42
0
50
0
0
STYLE
5
16A
100
AcDbSymbolTableRecord
100
AcDbTextStyleTableRecord
2
DWGDirectTextStyle
3
simplex
70
0
71
0
40
0
41
1
42
0
50
0
0
ENDTAB
0
TABLE
2
DIMSTYLE
5
29f
100
AcDbSymbolTable
100
AcDbDimStyleTable
0
DIMSTYLE
105
27
100
AcDbSymbolTableRecord
100
AcDbDimStyleTableRecord
2
Standard
70
0
3
<>
41
0.18
42
0.0625
44
0.18
140
0.18
147
0.09
73
0
74
0
77
1
271
2
275
0
278
52
280
0
340
11
0
ENDTAB
0
TABLE
2
VIEW
5
2a0
100
AcDbSymbolTable
0
ENDTAB
0
TABLE
2
UCS
5
2a1
100
AcDbSymbolTable
0
ENDTAB
0
TABLE
2
APPID
5
2a2
100
AcDbSymbolTable
0
APPID
5
12
100
AcDbSymbolTableRecord
100
AcDbRegAppTableRecord
2
ACAD
70
0
0
APPID
5
16D
100
AcDbSymbolTableRecord
100
AcDbRegAppTableRecord
2
ACAD_DSTYLE_DIMBREAK
70
0
0
APPID
5
246
100
AcDbSymbolTableRecord
100
AcDbRegAppTableRecord
2
ACAD_DSTYLE_DIM_LINETYPE
70
0
0
APPID
5
247
100
AcDbSymbolTableRecord
100
AcDbRegAppTableRecord
2
ACAD_DSTYLE_DIM_EXT1_LINETYPE
70
0
0
APPID
5
248
100
AcDbSymbolTableRecord
100
AcDbRegAppTableRecord
2
ACAD_DSTYLE_DIM_EXT2_LINETYPE
70
0
0
APPID
5
283
100
AcDbSymbolTableRecord
100
AcDbRegAppTableRecord
2
ACAD_MLEADERVER
70
0
0
ENDTAB
0
TABLE
2
BLOCK_RECORD
5
2a3
100
AcDbSymbolTable
0
BLOCK_RECORD
5
1F
100
AcDbSymbolTableRecord
100
AcDbBlockTableRecord
2
*Model_Space
340
0
70
0
0
BLOCK_RECORD
5
1B
100
AcDbSymbolTableRecord
100
AcDbBlockTableRecord
2
*Paper_Space
340
0
70
0
0
BLOCK_RECORD
5
23
100
AcDbSymbolTableRecord
100
AcDbBlockTableRecord
2
*Paper_Space0
340
0
70
0
0
BLOCK_RECORD
5
16F
100
AcDbSymbolTableRecord
100
AcDbBlockTableRecord
2
_Closed
340
0
70
0
0
BLOCK_RECORD
5
179
100
AcDbSymbolTableRecord
100
AcDbBlockTableRecord
2
*D2
340
0
70
0
0
BLOCK_RECORD
5
188
100
AcDbSymbolTableRecord
100
AcDbBlockTableRecord
2
_U0
340
0
70
0
0
BLOCK_RECORD
5
199
100
AcDbSymbolTableRecord
100
AcDbBlockTableRecord
2
*D4
340
0
70
0
0
BLOCK_RECORD
5
1A6
100
AcDbSymbolTableRecord
100
AcDbBlockTableRecord
2
_U1
340
0
70
0
0
BLOCK_RECORD
5
1B6
100
AcDbSymbolTableRecord
100
AcDbBlockTableRecord
2
*D6
340
0
70
0
0
BLOCK_RECORD
5
1C2
100
AcDbSymbolTableRecord
100
AcDbBlockTableRecord
2
_U2
340
0
70
0
0
BLOCK_RECORD
5
1D2
100
AcDbSymbolTableRecord
100
AcDbBlockTableRecord
2
*D8
340
0
70
0
0
BLOCK_RECORD
5
1DE
100
AcDbSymbolTableRecord
100
AcDbBlockTableRecord
2
_U3
340
0
70
0
0
BLOCK_RECORD
5
1EE
100
AcDbSymbolTableRecord
100
AcDbBlockTableRecord
2
*D10
340
0
70
0
0
BLOCK_RECORD
5
1FB
100
AcDbSymbolTableRecord
100
AcDbBlockTableRecord
2
_U4
340
0
70
0
0
BLOCK_RECORD
5
20C
100
AcDbSymbolTableRecord
100
AcDbBlockTableRecord
2
*D12
340
0
70
0
0
BLOCK_RECORD
5
21A
100
AcDbSymbolTableRecord
100
AcDbBlockTableRecord
2
_U5
340
0
70
0
0
ENDTAB
0
ENDSEC
0
SECTION
2
BLOCKS
0
BLOCK
5
20
100
AcDbEntity
8
0
100
AcDbBlockBegin
2
*Model_Space
70
0
10
0
20
0
30
0
3
*Model_Space
0
ENDBLK
5
21
100
AcDbEntity
8
0
100
AcDbBlockEnd
0
BLOCK
5
1C
100
AcDbEntity
8
0
100
AcDbBlockBegin
2
*Paper_Space
70
0
10
0
20
0
30
0
3
*Paper_Space
0
ENDBLK
5
1D
100
AcDbEntity
8
0
100
AcDbBlockEnd
0
BLOCK
5
24
100
AcDbEntity
8
0
100
AcDbBlockBegin
2
*Paper_Space0
70
0
10
0
20
0
30
0
3
*Paper_Space0
0
ENDBLK
5
25
100
AcDbEntity
8
0
100
AcDbBlockEnd
0
BLOCK
5
170
100
AcDbEntity
8
0
100
AcDbBlockBegin
2
_Closed
70
0
10
0
20
0
30
0
3
_Closed
0
LINE
5
172
100
AcDbEntity
8
0
62
256
6
ByLayer
370
-2
48
1
60
0
100
AcDbLine
10
-1
20
0.166667
30
0
11
0
21
0
31
0
39
0
210
0
220
0
230
1
0
LINE
5
173
100
AcDbEntity
8
0
62
256
6
ByLayer
370
-2
48
1
60
0
100
AcDbLine
10
0
20
0
30
0
11
-1
21
-0.166667
31
0
39
0
210
0
220
0
230
1
0
LINE
5
174
100
AcDbEntity
8
0
62
256
6
ByLayer
370
-2
48
1
60
0
100
AcDbLine
10
-1
20
0.166667
30
0
11
-1
21
-0.166667
31
0
39
0
210
0
220
0
230
1
0
LINE
5
175
100
AcDbEntity
8
0
62
256
6
ByLayer
370
-2
48
1
60
0
100
AcDbLine
10
0
20
0
30
0
11
-1
21
0
31
0
39
0
210
0
220
0
230
1
0
ENDBLK
5
171
100
AcDbEntity
8
0
100
AcDbBlockEnd
0
BLOCK
5
17A
100
AcDbEntity
8
0
100
AcDbBlockBegin
2
*D2
70
1
10
0
20
0
30
0
3
*D2
0
LINE
5
17C
100
AcDbEntity
8
0
62
256
6
ByLayer
370
-2
48
1
60
0
100
AcDbLine
10
22.089
20
-6.604
30
0
11
48.573375
21
-6.604
31
0
39
0
210
0
220
0
230
1
0
LINE
5
17D
100
AcDbEntity
8
0
62
256
6
ByLayer
370
-2
48
1
60
0
100
AcDbLine
10
22.089
20
6.604
30
0
11
48.573375
21
6.604
31
0
39
0
210
0
220
0
230
1
0
LINE
5
17E
100
AcDbEntity
8
0
62
256
6
ByLayer
370
-2
48
1
60
0
100
AcDbLine
10
45.398375
20
6.604
30
0
11
45.398375
21
44.43686
31
0
39
0
210
0
220
0
230
1
0
LINE
5
17F
100
AcDbEntity
8
0
62
256
6
ByLayer
370
-2
48
1
60
0
100
AcDbLine
10
45.398375
20
-9.779
30
0
11
45.398375
21
-12.954
31
0
39
0
210
0
220
0
230
1
0
LINE
5
180
100
AcDbEntity
8
0
62
256
6
ByLayer
370
-2
48
1
60
0
100
AcDbLine
10
45.398375
20
9.779
30
0
11
45.398375
21
12.954
31
0
39
0
210
0
220
0
230
1
0
SOLID
5
181
100
AcDbEntity
8
0
62
256
6
ByLayer
370
-1
48
1
60
0
100
AcDbTrace
10
45.927542
20
-9.779
30
0
11
44.869208
21
-9.779
31
0
12
45.398375
22
-6.604
32
0
13
45.398375
23
-6.604
33
0
39
0
210
0
220
0
230
1
0
SOLID
5
182
100
AcDbEntity
8
0
62
256
6
ByLayer
370
-1
48
1
60
0
100
AcDbTrace
10
44.869208
20
9.779
30
0
11
45.927542
21
9.779
31
0
12
45.398375
22
6.604
32
0
13
45.398375
23
6.604
33
0
39
0
210
0
220
0
230
1
0
MTEXT
5
183
100
AcDbEntity
8
0
62
256
6
ByLayer
370
18
48
1
60
0
100
AcDbMText
10
36.004625
20
29.257395
30
0
210
0
220
0
230
1
1
\A1;13.21
40
4.5
41
0
44
1
50
90
71
5
72
5
7
iso_b_vert
0
POINT
5
184
100
AcDbEntity
8
Defpoints
62
0
6
ByLayer
370
-1
48
1
60
0
100
AcDbPoint
10
20.5015
20
-6.604
30
0
39
0
210
0
220
0
230
1
50
360
0
POINT
5
185
100
AcDbEntity
8
Defpoints
62
0
6
ByLayer
370
-1
48
1
60
0
100
AcDbPoint
10
20.5015
20
6.604
30
0
39
0
210
0
220
0
230
1
50
360
0
POINT
5
186
100
AcDbEntity
8
Defpoints
62
0
6
ByLayer
370
-1
48
1
60
0
100
AcDbPoint
10
45.398375
20
6.604
30
0
39
0
210
0
220
0
230
1
50
360
0
ENDBLK
5
17B
100
AcDbEntity
8
0
100
AcDbBlockEnd
0
BLOCK
5
194
100
AcDbEntity
8
0
100
AcDbBlockBegin
2
_U0
70
0
10
0
20
0
30
0
3
_U0
0
MTEXT
5
189
100
AcDbEntity
8
2
62
256
6
ByLayer
370
18
48
1
60
0
100
AcDbMText
10
43.316529
20
17.859375
30
0
210
0
220
0
230
1
1
%%c
40
3.175
41
0
44
1.084337
50
90
71
7
72
5
7
iso_b_vert
0
MTEXT
5
18A
100
AcDbEntity
8
2
62
256
6
ByLayer
370
18
48
1
60
0
100
AcDbMText
10
43.717953
20
27.444
30
0
210
0
220
0
230
1
1
\W0.7778;13.21
40
4.5
41
0
44
1.084337
50
90
71
7
72
5
7
iso_b_vert
0
LINE
5
18B
100
AcDbEntity
8
2
62
256
6
ByLayer
370
13
48
1
60
0
100
AcDbLine
10
22.089
20
-6.604
30
0
11
48.573375
21
-6.604
31
0
39
0
210
0
220
0
230
1
0
LINE
5
18C
100
AcDbEntity
8
2
62
256
6
ByLayer
370
13
48
1
60
0
100
AcDbLine
10
22.089
20
6.604
30
0
11
48.573375
21
6.604
31
0
39
0
210
0
220
0
230
1
0
LINE
5
18D
100
AcDbEntity
8
2
62
256
6
ByLayer
370
13
48
1
60
0
100
AcDbLine
10
45.398375
20
-6.604
30
0
11
45.398375
21
40.798291
31
0
39
0
210
0
220
0
230
1
0
LINE
5
18E
100
AcDbEntity
8
2
62
256
6
ByLayer
370
13
48
1
60
0
100
AcDbLine
10
45.398375
20
-6.604
30
0
11
44.980378
21
-3.429002
31
0
39
0
210
0
220
0
230
1
0
LINE
5
18F
100
AcDbEntity
8
2
62
256
6
ByLayer
370
13
48
1
60
0
100
AcDbLine
10
45.398375
20
-6.604
30
0
11
45.816372
21
-3.428998
31
0
39
0
210
0
220
0
230
1
0
LINE
5
190
100
AcDbEntity
8
2
62
256
6
ByLayer
370
13
48
1
60
0
100
AcDbLine
10
44.980378
20
-3.429002
30
0
11
45.816372
21
-3.428998
31
0
39
0
210
0
220
0
230
1
0
LINE
5
191
100
AcDbEntity
8
2
62
256
6
ByLayer
370
13
48
1
60
0
100
AcDbLine
10
45.398375
20
6.604
30
0
11
45.816372
21
3.429002
31
0
39
0
210
0
220
0
230
1
0
LINE
5
192
100
AcDbEntity
8
2
62
256
6
ByLayer
370
13
48
1
60
0
100
AcDbLine
10
45.398375
20
6.604
30
0
11
44.980378
21
3.428998
31
0
39
0
210
0
220
0
230
1
0
LINE
5
193
100
AcDbEntity
8
2
62
256
6
ByLayer
370
13
48
1
60
0
100
AcDbLine
10
45.816372
20
3.429002
30
0
11
44.980378
21
3.428998
31
0
39
0
210
0
220
0
230
1
0
ENDBLK
5
195
100
AcDbEntity
8
0
100
AcDbBlockEnd
0
BLOCK
5
19A
100
AcDbEntity
8
0
100
AcDbBlockBegin
2
*D4
70
1
10
0
20
0
30
0
3
*D4
0
LINE
5
19C
100
AcDbEntity
8
0
62
256
6
ByLayer
370
-2
48
1
60
0
100
AcDbLine
10
20.5015
20
-8.1915
30
0
11
20.5015
21
-34.279
31
0
39
0
210
0
220
0
230
1
0
LINE
5
19D
100
AcDbEntity
8
0
62
256
6
ByLayer
370
-2
48
1
60
0
100
AcDbLine
10
-0.0013
20
-1.5875
30
0
11
-0.0013
21
-34.279
31
0
39
0
210
0
220
0
230
1
0
LINE
5
19E
100
AcDbEntity
8
0
62
256
6
ByLayer
370
-2
48
1
60
0
100
AcDbLine
10
23.6765
20
-31.104
30
0
11
26.8515
21
-31.104
31
0
39
0
210
0
220
0
230
1
0
LINE
5
19F
100
AcDbEntity
8
0
62
256
6
ByLayer
370
-2
48
1
60
0
100
AcDbLine
10
-3.1763
20
-31.104
30
0
11
-6.3513
21
-31.104
31
0
39
0
210
0
220
0
230
1
0
SOLID
5
1A0
100
AcDbEntity
8
0
62
256
6
ByLayer
370
-1
48
1
60
0
100
AcDbTrace
10
23.6765
20
-30.574833
30
0
11
23.6765
21
-31.633167
31
0
12
20.5015
22
-31.104
32
0
13
20.5015
23
-31.104
33
0
39
0
210
0
220
0
230
1
0
SOLID
5
1A1
100
AcDbEntity
8
0
62
256
6
ByLayer
370
-1
48
1
60
0
100
AcDbTrace
10
-3.1763
20
-31.633167
30
0
11
-3.1763
21
-30.574833
31
0
12
-0.0013
22
-31.104
32
0
13
-0.0013
23
-31.104
33
0
39
0
210
0
220
0
230
1
0
MTEXT
5
1A2
100
AcDbEntity
8
0
62
256
6
ByLayer
370
18
48
1
60
0
100
AcDbMText
10
10.2501
20
-21.71025
30
0
210
0
220
0
230
1
1
\A1;20.5
40
4.5
41
0
44
1
50
0
71
5
72
5
7
iso_b_vert
0
POINT
5
1A3
100
AcDbEntity
8
Defpoints
62
0
6
ByLayer
370
-1
48
1
60
0
100
AcDbPoint
10
20.5015
20
-6.604
30
0
39
0
210
0
220
0
230
1
50
360
0
POINT
5
1A4
100
AcDbEntity
8
Defpoints
62
0
6
ByLayer
370
-1
48
1
60
0
100
AcDbPoint
10
-0.0013
20
0
30
0
39
0
210
0
220
0
230
1
50
360
0
POINT
5
1A5
100
AcDbEntity
8
Defpoints
62
0
6
ByLayer
370
-1
48
1
60
0
100
AcDbPoint
10
-0.0013
20
-31.104
30
0
39
0
210
0
220
0
230
1
50
360
0
ENDBLK
5
19B
100
AcDbEntity
8
0
100
AcDbBlockEnd
0
BLOCK
5
1B1
100
AcDbEntity
8
0
100
AcDbBlockBegin
2
_U1
70
0
10
0
20
0
30
0
3
_U1
0
MTEXT
5
1A7
100
AcDbEntity
8
SK2
62
256
6
ByLayer
370
18
48
1
60
0
100
AcDbMText
10
4.23121
20
-29.776328
30
0
210
0
220
0
230
1
1
\W0.8668;20.5
40
4.5
41
0
44
1.084337
50
0
71
7
72
5
7
iso_b_vert
0
LINE
5
1A8
100
AcDbEntity
8
SK2
62
256
6
ByLayer
370
13
48
1
60
0
100
AcDbLine
10
20.5015
20
-8.1915
30
0
11
20.5015
21
-34.279
31
0
39
0
210
0
220
0
230
1
0
LINE
5
1A9
100
AcDbEntity
8
SK2
62
256
6
ByLayer
370
13
48
1
60
0
100
AcDbLine
10
-0.0013
20
-1.5875
30
0
11
-0.0013
21
-34.279
31
0
39
0
210
0
220
0
230
1
0
LINE
5
1AA
100
AcDbEntity
8
SK2
62
256
6
ByLayer
370
13
48
1
60
0
100
AcDbLine
10
31.7515
20
-31.104
30
0
11
-11.2513
21
-31.104
31
0
39
0
210
0
220
0
230
1
0
LINE
5
1AB
100
AcDbEntity
8
SK2
62
256
6
ByLayer
370
13
48
1
60
0
100
AcDbLine
10
20.5015
20
-31.104
30
0
11
23.676498
21
-30.686003
31
0
39
0
210
0
220
0
230
1
0
LINE
5
1AC
100
AcDbEntity
8
SK2
62
256
6
ByLayer
370
13
48
1
60
0
100
AcDbLine
10
20.5015
20
-31.104
30
0
11
23.676502
21
-31.521997
31
0
39
0
210
0
220
0
230
1
0
LINE
5
1AD
100
AcDbEntity
8
SK2
62
256
6
ByLayer
370
13
48
1
60
0
100
AcDbLine
10
23.676498
20
-30.686003
30
0
11
23.676502
21
-31.521997
31
0
39
0
210
0
220
0
230
1
0
LINE
5
1AE
100
AcDbEntity
8
SK2
62
256
6
ByLayer
370
13
48
1
60
0
100
AcDbLine
10
-0.0013
20
-31.104
30
0
11
-3.176298
21
-31.521997
31
0
39
0
210
0
220
0
230
1
0
LINE
5
1AF
100
AcDbEntity
8
SK2
62
256
6
ByLayer
370
13
48
1
60
0
100
AcDbLine
10
-0.0013
20
-31.104
30
0
11
-3.176302
21
-30.686003
31
0
39
0
210
0
220
0
230
1
0
LINE
5
1B0
100
AcDbEntity
8
SK2
62
256
6
ByLayer
370
13
48
1
60
0
100
AcDbLine
10
-3.176298
20
-31.521997
30
0
11
-3.176302
21
-30.686003
31
0
39
0
210
0
220
0
230
1
0
ENDBLK
5
1B2
100
AcDbEntity
8
0
100
AcDbBlockEnd
0
BLOCK
5
1B7
100
AcDbEntity
8
0
100
AcDbBlockBegin
2
*D6
70
1
10
0
20
0
30
0
3
*D6
0
LINE
5
1B9
100
AcDbEntity
8
0
62
256
6
ByLayer
370
-2
48
1
60
0
100
AcDbLine
10
-52.7
20
9.52225
30
0
11
-52.7
21
30.279
31
0
39
0
210
0
220
0
230
1
0
LINE
5
1BA
100
AcDbEntity
8
0
62
256
6
ByLayer
370
-2
48
1
60
0
100
AcDbLine
10
20.5015
20
8.1915
30
0
11
20.5015
21
30.279
31
0
39
0
210
0
220
0
230
1
0
LINE
5
1BB
100
AcDbEntity
8
0
62
256
6
ByLayer
370
-2
48
1
60
0
100
AcDbLine
10
-49.525
20
27.104
30
0
11
17.3265
21
27.104
31
0
39
0
210
0
220
0
230
1
0
SOLID
5
1BC
100
AcDbEntity
8
0
62
256
6
ByLayer
370
-1
48
1
60
0
100
AcDbTrace
10
-49.525
20
27.633167
30
0
11
-49.525
21
26.574833
31
0
12
-52.7
22
27.104
32
0
13
-52.7
23
27.104
33
0
39
0
210
0
220
0
230
1
0
SOLID
5
1BD
100
AcDbEntity
8
0
62
256
6
ByLayer
370
-1
48
1
60
0
100
AcDbTrace
10
17.3265
20
26.574833
30
0
11
17.3265
21
27.633167
31
0
12
20.5015
22
27.104
32
0
13
20.5015
23
27.104
33
0
39
0
210
0
220
0
230
1
0
MTEXT
5
1BE
100
AcDbEntity
8
0
62
256
6
ByLayer
370
18
48
1
60
0
100
AcDbMText
10
-16.09925
20
36.49775
30
0
210
0
220
0
230
1
1
\A1;73.2
40
4.5
41
0
44
1
50
0
71
5
72
5
7
iso_b_vert
0
POINT
5
1BF
100
AcDbEntity
8
Defpoints
62
0
6
ByLayer
370
-1
48
1
60
0
100
AcDbPoint
10
-52.7
20
7.93475
30
0
39
0
210
0
220
0
230
1
50
360
0
POINT
5
1C0
100
AcDbEntity
8
Defpoints
62
0
6
ByLayer
370
-1
48
1
60
0
100
AcDbPoint
10
20.5015
20
6.604
30
0
39
0
210
0
220
0
230
1
50
360
0
POINT
5
1C1
100
AcDbEntity
8
Defpoints
62
0
6
ByLayer
370
-1
48
1
60
0
100
AcDbPoint
10
20.5015
20
27.104
30
0
39
0
210
0
220
0
230
1
50
360
0
ENDBLK
5
1B8
100
AcDbEntity
8
0
100
AcDbBlockEnd
0
BLOCK
5
1CD
100
AcDbEntity
8
0
100
AcDbBlockBegin
2
_U2
70
0
10
0
20
0
30
0
3
_U2
0
MTEXT
5
1C3
100
AcDbEntity
8
2
62
256
6
ByLayer
370
18
48
1
60
0
100
AcDbMText
10
-22.11814
20
28.431672
30
0
210
0
220
0
230
1
1
\W0.8668;73.2
40
4.5
41
0
44
1.084337
50
0
71
7
72
5
7
iso_b_vert
0
LINE
5
1C4
100
AcDbEntity
8
2
62
256
6
ByLayer
370
13
48
1
60
0
100
AcDbLine
10
-52.7
20
9.52225
30
0
11
-52.7
21
30.279
31
0
39
0
210
0
220
0
230
1
0
LINE
5
1C5
100
AcDbEntity
8
2
62
256
6
ByLayer
370
13
48
1
60
0
100
AcDbLine
10
20.5015
20
8.1915
30
0
11
20.5015
21
30.279
31
0
39
0
210
0
220
0
230
1
0
LINE
5
1C6
100
AcDbEntity
8
2
62
256
6
ByLayer
370
13
48
1
60
0
100
AcDbLine
10
-52.7
20
27.104
30
0
11
20.5015
21
27.104
31
0
39
0
210
0
220
0
230
1
0
LINE
5
1C7
100
AcDbEntity
8
2
62
256
6
ByLayer
370
13
48
1
60
0
100
AcDbLine
10
-52.7
20
27.104
30
0
11
-49.525002
21
27.521997
31
0
39
0
210
0
220
0
230
1
0
LINE
5
1C8
100
AcDbEntity
8
2
62
256
6
ByLayer
370
13
48
1
60
0
100
AcDbLine
10
-52.7
20
27.104
30
0
11
-49.524998
21
26.686003
31
0
39
0
210
0
220
0
230
1
0
LINE
5
1C9
100
AcDbEntity
8
2
62
256
6
ByLayer
370
13
48
1
60
0
100
AcDbLine
10
-49.525002
20
27.521997
30
0
11
-49.524998
21
26.686003
31
0
39
0
210
0
220
0
230
1
0
LINE
5
1CA
100
AcDbEntity
8
2
62
256
6
ByLayer
370
13
48
1
60
0
100
AcDbLine
10
20.5015
20
27.104
30
0
11
17.326502
21
26.686003
31
0
39
0
210
0
220
0
230
1
0
LINE
5
1CB
100
AcDbEntity
8
2
62
256
6
ByLayer
370
13
48
1
60
0
100
AcDbLine
10
20.5015
20
27.104
30
0
11
17.326498
21
27.521997
31
0
39
0
210
0
220
0
230
1
0
LINE
5
1CC
100
AcDbEntity
8
2
62
256
6
ByLayer
370
13
48
1
60
0
100
AcDbLine
10
17.326502
20
26.686003
30
0
11
17.326498
21
27.521997
31
0
39
0
210
0
220
0
230
1
0
ENDBLK
5
1CE
100
AcDbEntity
8
0
100
AcDbBlockEnd
0
BLOCK
5
1D3
100
AcDbEntity
8
0
100
AcDbBlockBegin
2
*D8
70
1
10
0
20
0
30
0
3
*D8
0
LINE
5
1D5
100
AcDbEntity
8
0
62
256
6
ByLayer
370
-2
48
1
60
0
100
AcDbLine
10
-52.7
20
9.52225
30
0
11
-52.7
21
20.279
31
0
39
0
210
0
220
0
230
1
0
LINE
5
1D6
100
AcDbEntity
8
0
62
256
6
ByLayer
370
-2
48
1
60
0
100
AcDbLine
10
15.9925
20
15.1825
30
0
11
15.9925
21
20.279
31
0
39
0
210
0
220
0
230
1
0
LINE
5
1D7
100
AcDbEntity
8
0
62
256
6
ByLayer
370
-2
48
1
60
0
100
AcDbLine
10
-49.525
20
17.104
30
0
11
12.8175
21
17.104
31
0
39
0
210
0
220
0
230
1
0
SOLID
5
1D8
100
AcDbEntity
8
0
62
256
6
ByLayer
370
-1
48
1
60
0
100
AcDbTrace
10
-49.525
20
17.633167
30
0
11
-49.525
21
16.574833
31
0
12
-52.7
22
17.104
32
0
13
-52.7
23
17.104
33
0
39
0
210
0
220
0
230
1
0
SOLID
5
1D9
100
AcDbEntity
8
0
62
256
6
ByLayer
370
-1
48
1
60
0
100
AcDbTrace
10
12.8175
20
16.574833
30
0
11
12.8175
21
17.633167
31
0
12
15.9925
22
17.104
32
0
13
15.9925
23
17.104
33
0
39
0
210
0
220
0
230
1
0
MTEXT
5
1DA
100
AcDbEntity
8
0
62
256
6
ByLayer
370
18
48
1
60
0
100
AcDbMText
10
-18.35375
20
26.49775
30
0
210
0
220
0
230
1
1
\A1;68.69
40
4.5
41
0
44
1
50
0
71
5
72
5
7
iso_b_vert
0
POINT
5
1DB
100
AcDbEntity
8
Defpoints
62
0
6
ByLayer
370
-1
48
1
60
0
100
AcDbPoint
10
-52.7
20
7.93475
30
0
39
0
210
0
220
0
230
1
50
360
0
POINT
5
1DC
100
AcDbEntity
8
Defpoints
62
0
6
ByLayer
370
-1
48
1
60
0
100
AcDbPoint
10
15.9925
20
13.595
30
0
39
0
210
0
220
0
230
1
50
360
0
POINT
5
1DD
100
AcDbEntity
8
Defpoints
62
0
6
ByLayer
370
-1
48
1
60
0
100
AcDbPoint
10
15.9925
20
17.104
30
0
39
0
210
0
220
0
230
1
50
360
0
ENDBLK
5
1D4
100
AcDbEntity
8
0
100
AcDbBlockEnd
0
BLOCK
5
1E9
100
AcDbEntity
8
0
100
AcDbBlockBegin
2
_U3
70
0
10
0
20
0
30
0
3
_U3
0
MTEXT
5
1DF
100
AcDbEntity
8
SK2
62
256
6
ByLayer
370
18
48
1
60
0
100
AcDbMText
10
-26.355922
20
18.431672
30
0
210
0
220
0
230
1
1
\W0.8928;68.69
40
4.5
41
0
44
1.084337
50
0
71
7
72
5
7
iso_b_vert
0
LINE
5
1E0
100
AcDbEntity
8
SK2
62
256
6
ByLayer
370
13
48
1
60
0
100
AcDbLine
10
-52.7
20
9.52225
30
0
11
-52.7
21
20.279
31
0
39
0
210
0
220
0
230
1
0
LINE
5
1E1
100
AcDbEntity
8
SK2
62
256
6
ByLayer
370
13
48
1
60
0
100
AcDbLine
10
15.9925
20
15.1825
30
0
11
15.9925
21
20.279
31
0
39
0
210
0
220
0
230
1
0
LINE
5
1E2
100
AcDbEntity
8
SK2
62
256
6
ByLayer
370
13
48
1
60
0
100
AcDbLine
10
-52.7
20
17.104
30
0
11
15.9925
21
17.104
31
0
39
0
210
0
220
0
230
1
0
LINE
5
1E3
100
AcDbEntity
8
SK2
62
256
6
ByLayer
370
13
48
1
60
0
100
AcDbLine
10
-52.7
20
17.104
30
0
11
-49.525002
21
17.521997
31
0
39
0
210
0
220
0
230
1
0
LINE
5
1E4
100
AcDbEntity
8
SK2
62
256
6
ByLayer
370
13
48
1
60
0
100
AcDbLine
10
-52.7
20
17.104
30
0
11
-49.524998
21
16.686003
31
0
39
0
210
0
220
0
230
1
0
LINE
5
1E5
100
AcDbEntity
8
SK2
62
256
6
ByLayer
370
13
48
1
60
0
100
AcDbLine
10
-49.525002
20
17.521997
30
0
11
-49.524998
21
16.686003
31
0
39
0
210
0
220
0
230
1
0
LINE
5
1E6
100
AcDbEntity
8
SK2
62
256
6
ByLayer
370
13
48
1
60
0
100
AcDbLine
10
15.9925
20
17.104
30
0
11
12.817502
21
16.686003
31
0
39
0
210
0
220
0
230
1
0
LINE
5
1E7
100
AcDbEntity
8
SK2
62
256
6
ByLayer
370
13
48
1
60
0
100
AcDbLine
10
15.9925
20
17.104
30
0
11
12.817498
21
17.521997
31
0
39
0
210
0
220
0
230
1
0
LINE
5
1E8
100
AcDbEntity
8
SK2
62
256
6
ByLayer
370
13
48
1
60
0
100
AcDbLine
10
12.817502
20
16.686003
30
0
11
12.817498
21
17.521997
31
0
39
0
210
0
220
0
230
1
0
ENDBLK
5
1EA
100
AcDbEntity
8
0
100
AcDbBlockEnd
0
BLOCK
5
1EF
100
AcDbEntity
8
0
100
AcDbBlockBegin
2
*D10
70
1
10
0
20
0
30
0
3
*D10
0
LINE
5
1F1
100
AcDbEntity
8
0
62
256
6
ByLayer
370
-2
48
1
60
0
100
AcDbLine
10
17.58
20
-13.595
30
0
11
59.4265
21
-13.595
31
0
39
0
210
0
220
0
230
1
0
LINE
5
1F2
100
AcDbEntity
8
0
62
256
6
ByLayer
370
-2
48
1
60
0
100
AcDbLine
10
17.58
20
13.595
30
0
11
59.4265
21
13.595
31
0
39
0
210
0
220
0
230
1
0
LINE
5
1F3
100
AcDbEntity
8
0
62
256
6
ByLayer
370
-2
48
1
60
0
100
AcDbLine
10
56.2515
20
13.595
30
0
11
56.2515
21
53.016141
31
0
39
0
210
0
220
0
230
1
0
LINE
5
1F4
100
AcDbEntity
8
0
62
256
6
ByLayer
370
-2
48
1
60
0
100
AcDbLine
10
56.2515
20
-10.42
30
0
11
56.2515
21
10.42
31
0
39
0
210
0
220
0
230
1
0
SOLID
5
1F5
100
AcDbEntity
8
0
62
256
6
ByLayer
370
-1
48
1
60
0
100
AcDbTrace
10
55.722333
20
-10.42
30
0
11
56.780667
21
-10.42
31
0
12
56.2515
22
-13.595
32
0
13
56.2515
23
-13.595
33
0
39
0
210
0
220
0
230
1
0
SOLID
5
1F6
100
AcDbEntity
8
0
62
256
6
ByLayer
370
-1
48
1
60
0
100
AcDbTrace
10
56.780667
20
10.42
30
0
11
55.722333
21
10.42
31
0
12
56.2515
22
13.595
32
0
13
56.2515
23
13.595
33
0
39
0
210
0
220
0
230
1
0
MTEXT
5
1F7
100
AcDbEntity
8
0
62
256
6
ByLayer
370
18
48
1
60
0
100
AcDbMText
10
46.85775
20
36.979534
30
0
210
0
220
0
230
1
1
\A1;27.19
40
4.5
41
0
44
1
50
90
71
5
72
5
7
iso_b_vert
0
POINT
5
1F8
100
AcDbEntity
8
Defpoints
62
0
6
ByLayer
370
-1
48
1
60
0
100
AcDbPoint
10
15.9925
20
-13.595
30
0
39
0
210
0
220
0
230
1
50
360
0
POINT
5
1F9
100
AcDbEntity
8
Defpoints
62
0
6
ByLayer
370
-1
48
1
60
0
100
AcDbPoint
10
15.9925
20
13.595
30
0
39
0
210
0
220
0
230
1
50
360
0
POINT
5
1FA
100
AcDbEntity
8
Defpoints
62
0
6
ByLayer
370
-1
48
1
60
0
100
AcDbPoint
10
56.2515
20
13.595
30
0
39
0
210
0
220
0
230
1
50
360
0
ENDBLK
5
1F0
100
AcDbEntity
8
0
100
AcDbBlockEnd
0
BLOCK
5
207
100
AcDbEntity
8
0
100
AcDbBlockBegin
2
_U4
70
0
10
0
20
0
30
0
3
_U4
0
MTEXT
5
1FC
100
AcDbEntity
8
SK2
62
256
6
ByLayer
370
18
48
1
60
0
100
AcDbMText
10
54.169654
20
24.850375
30
0
210
0
220
0
230
1
1
%%c
40
3.175
41
0
44
1.084337
50
90
71
7
72
5
7
iso_b_vert
0
MTEXT
5
1FD
100
AcDbEntity
8
SK2
62
256
6
ByLayer
370
18
48
1
60
0
100
AcDbMText
10
54.571078
20
34.435
30
0
210
0
220
0
230
1
1
\W0.8127;27.19
40
4.5
41
0
44
1.084337
50
90
71
7
72
5
7
iso_b_vert
0
LINE
5
1FE
100
AcDbEntity
8
SK2
62
256
6
ByLayer
370
13
48
1
60
0
100
AcDbLine
10
17.58
20
-13.595
30
0
11
59.4265
21
-13.595
31
0
39
0
210
0
220
0
230
1
0
LINE
5
1FF
100
AcDbEntity
8
SK2
62
256
6
ByLayer
370
13
48
1
60
0
100
AcDbLine
10
17.58
20
13.595
30
0
11
59.4265
21
13.595
31
0
39
0
210
0
220
0
230
1
0
LINE
5
200
100
AcDbEntity
8
SK2
62
256
6
ByLayer
370
13
48
1
60
0
100
AcDbLine
10
56.2515
20
-13.595
30
0
11
56.2515
21
49.251568
31
0
39
0
210
0
220
0
230
1
0
LINE
5
201
100
AcDbEntity
8
SK2
62
256
6
ByLayer
370
13
48
1
60
0
100
AcDbLine
10
56.2515
20
-13.595
30
0
11
55.833503
21
-10.420002
31
0
39
0
210
0
220
0
230
1
0
LINE
5
202
100
AcDbEntity
8
SK2
62
256
6
ByLayer
370
13
48
1
60
0
100
AcDbLine
10
56.2515
20
-13.595
30
0
11
56.669497
21
-10.419998
31
0
39
0
210
0
220
0
230
1
0
LINE
5
203
100
AcDbEntity
8
SK2
62
256
6
ByLayer
370
13
48
1
60
0
100
AcDbLine
10
55.833503
20
-10.420002
30
0
11
56.669497
21
-10.419998
31
0
39
0
210
0
220
0
230
1
0
LINE
5
204
100
AcDbEntity
8
SK2
62
256
6
ByLayer
370
13
48
1
60
0
100
AcDbLine
10
56.2515
20
13.595
30
0
11
56.669497
21
10.420002
31
0
39
0
210
0
220
0
230
1
0
LINE
5
205
100
AcDbEntity
8
SK2
62
256
6
ByLayer
370
13
48
1
60
0
100
AcDbLine
10
56.2515
20
13.595
30
0
11
55.833503
21
10.419998
31
0
39
0
210
0
220
0
230
1
0
LINE
5
206
100
AcDbEntity
8
SK2
62
256
6
ByLayer
370
13
48
1
60
0
100
AcDbLine
10
56.669497
20
10.420002
30
0
11
55.833503
21
10.419998
31
0
39
0
210
0
220
0
230
1
0
ENDBLK
5
208
100
AcDbEntity
8
0
100
AcDbBlockEnd
0
BLOCK
5
20D
100
AcDbEntity
8
0
100
AcDbBlockBegin
2
*D12
70
1
10
0
20
0
30
0
3
*D12
0
LINE
5
20F
100
AcDbEntity
8
0
62
256
6
ByLayer
370
-2
48
1
60
0
100
AcDbLine
10
-54.2875
20
7.93475
30
0
11
-80.978125
21
7.93475
31
0
39
0
210
0
220
0
230
1
0
LINE
5
210
100
AcDbEntity
8
0
62
256
6
ByLayer
370
-2
48
1
60
0
100
AcDbLine
10
-54.2875
20
-7.93475
30
0
11
-80.978125
21
-7.93475
31
0
39
0
210
0
220
0
230
1
0
LINE
5
211
100
AcDbEntity
8
0
62
256
6
ByLayer
370
-2
48
1
60
0
100
AcDbLine
10
-77.803125
20
7.93475
30
0
11
-77.803125
21
47.141605
31
0
39
0
210
0
220
0
230
1
0
LINE
5
212
100
AcDbEntity
8
0
62
256
6
ByLayer
370
-2
48
1
60
0
100
AcDbLine
10
-77.803125
20
11.10975
30
0
11
-77.803125
21
14.28475
31
0
39
0
210
0
220
0
230
1
0
LINE
5
213
100
AcDbEntity
8
0
62
256
6
ByLayer
370
-2
48
1
60
0
100
AcDbLine
10
-77.803125
20
-11.10975
30
0
11
-77.803125
21
-14.28475
31
0
39
0
210
0
220
0
230
1
0
SOLID
5
214
100
AcDbEntity
8
0
62
256
6
ByLayer
370
-1
48
1
60
0
100
AcDbTrace
10
-78.332292
20
11.10975
30
0
11
-77.273958
21
11.10975
31
0
12
-77.803125
22
7.93475
32
0
13
-77.803125
23
7.93475
33
0
39
0
210
0
220
0
230
1
0
SOLID
5
215
100
AcDbEntity
8
0
62
256
6
ByLayer
370
-1
48
1
60
0
100
AcDbTrace
10
-77.273958
20
-11.10975
30
0
11
-78.332292
21
-11.10975
31
0
12
-77.803125
22
-7.93475
32
0
13
-77.803125
23
-7.93475
33
0
39
0
210
0
220
0
230
1
0
MTEXT
5
216
100
AcDbEntity
8
0
62
256
6
ByLayer
370
18
48
1
60
0
100
AcDbMText
10
-87.196875
20
31.319284
30
0
210
0
220
0
230
1
1
\A1;15.87
40
4.5
41
0
44
1
50
90
71
5
72
5
7
iso_b_vert
0
POINT
5
217
100
AcDbEntity
8
Defpoints
62
0
6
ByLayer
370
-1
48
1
60
0
100
AcDbPoint
10
-52.7
20
7.93475
30
0
39
0
210
0
220
0
230
1
50
360
0
POINT
5
218
100
AcDbEntity
8
Defpoints
62
0
6
ByLayer
370
-1
48
1
60
0
100
AcDbPoint
10
-52.7
20
-7.93475
30
0
39
0
210
0
220
0
230
1
50
360
0
POINT
5
219
100
AcDbEntity
8
Defpoints
62
0
6
ByLayer
370
-1
48
1
60
0
100
AcDbPoint
10
-77.803125
20
-7.93475
30
0
39
0
210
0
220
0
230
1
50
360
0
ENDBLK
5
20E
100
AcDbEntity
8
0
100
AcDbBlockEnd
0
BLOCK
5
226
100
AcDbEntity
8
0
100
AcDbBlockBegin
2
_U5
70
0
10
0
20
0
30
0
3
_U5
0
MTEXT
5
21B
100
AcDbEntity
8
SK2
62
256
6
ByLayer
370
18
48
1
60
0
100
AcDbMText
10
-79.884971
20
19.190125
30
0
210
0
220
0
230
1
1
%%c
40
3.175
41
0
44
1.084337
50
90
71
7
72
5
7
iso_b_vert
0
MTEXT
5
21C
100
AcDbEntity
8
SK2
62
256
6
ByLayer
370
18
48
1
60
0
100
AcDbMText
10
-79.483547
20
28.77475
30
0
210
0
220
0
230
1
1
\W0.8033;15.87
40
4.5
41
0
44
1.084337
50
90
71
7
72
5
7
iso_b_vert
0
LINE
5
21D
100
AcDbEntity
8
SK2
62
256
6
ByLayer
370
13
48
1
60
0
100
AcDbLine
10
-54.2875
20
7.93475
30
0
11
-80.978125
21
7.93475
31
0
39
0
210
0
220
0
230
1
0
LINE
5
21E
100
AcDbEntity
8
SK2
62
256
6
ByLayer
370
13
48
1
60
0
100
AcDbLine
10
-54.2875
20
-7.93475
30
0
11
-80.978125
21
-7.93475
31
0
39
0
210
0
220
0
230
1
0
LINE
5
21F
100
AcDbEntity
8
SK2
62
256
6
ByLayer
370
13
48
1
60
0
100
AcDbLine
10
-77.803125
20
-7.93475
30
0
11
-77.803125
21
43.591318
31
0
39
0
210
0
220
0
230
1
0
LINE
5
220
100
AcDbEntity
8
SK2
62
256
6
ByLayer
370
13
48
1
60
0
100
AcDbLine
10
-77.803125
20
7.93475
30
0
11
-77.385128
21
4.759752
31
0
39
0
210
0
220
0
230
1
0
LINE
5
221
100
AcDbEntity
8
SK2
62
256
6
ByLayer
370
13
48
1
60
0
100
AcDbLine
10
-77.803125
20
7.93475
30
0
11
-78.221122
21
4.759748
31
0
39
0
210
0
220
0
230
1
0
LINE
5
222
100
AcDbEntity
8
SK2
62
256
6
ByLayer
370
13
48
1
60
0
100
AcDbLine
10
-77.385128
20
4.759752
30
0
11
-78.221122
21
4.759748
31
0
39
0
210
0
220
0
230
1
0
LINE
5
223
100
AcDbEntity
8
SK2
62
256
6
ByLayer
370
13
48
1
60
0
100
AcDbLine
10
-77.803125
20
-7.93475
30
0
11
-78.221122
21
-4.759752
31
0
39
0
210
0
220
0
230
1
0
LINE
5
224
100
AcDbEntity
8
SK2
62
256
6
ByLayer
370
13
48
1
60
0
100
AcDbLine
10
-77.803125
20
-7.93475
30
0
11
-77.385128
21
-4.759748
31
0
39
0
210
0
220
0
230
1
0
LINE
5
225
100
AcDbEntity
8
SK2
62
256
6
ByLayer
370
13
48
1
60
0
100
AcDbLine
10
-78.221122
20
-4.759752
30
0
11
-77.385128
21
-4.759748
31
0
39
0
210
0
220
0
230
1
0
ENDBLK
5
227
100
AcDbEntity
8
0
100
AcDbBlockEnd
0
ENDSEC
0
SECTION
2
ENTITIES
0
ARC
5
D0
100
AcDbEntity
8
1
62
256
6
ByLayer
370
13
48
1
60
0
100
AcDbCircle
39
0
10
19.0515
20
1.631905
30
0
40
1.00000000012265
210
0
220
0
230
1
100
AcDbArc
50
312.490217
51
323.974399
0
ARC
5
D1
100
AcDbEntity
8
1
62
256
6
ByLayer
370
13
48
1
60
0
100
AcDbCircle
39
0
10
8.55458
20
-10.095874
30
0
40
1
210
0
220
0
230
1
100
AcDbArc
50
76.381938
51
90
0
ARC
5
D2
100
AcDbEntity
8
1
62
256
6
ByLayer
370
13
48
1
60
0
100
AcDbCircle
39
0
10
1.36823
20
8.595874
30
0
40
0.5
210
0
220
0
230
1
100
AcDbArc
50
90
51
135
0
ARC
5
D3
100
AcDbEntity
8
1
62
256
6
ByLayer
370
13
48
1
60
0
100
AcDbCircle
39
0
10
1.36823
20
-8.595874
30
0
40
0.5
210
0
220
0
230
1
100
AcDbArc
50
225
51
270
0
ARC
5
D4
100
AcDbEntity
8
SK2
62
256
6
ByLayer
370
13
48
1
60
0
100
AcDbCircle
39
0
10
20.5015
20
6.604
30
0
40
13.804673747434
210
0
220
0
230
1
100
AcDbArc
50
90
51
120
0
ARC
5
D5
100
AcDbEntity
8
SK2
62
256
6
ByLayer
370
13
48
1
60
0
100
AcDbCircle
39
0
10
20.5015
20
6.604
30
0
40
13.804673747434
210
0
220
0
230
1
100
AcDbArc
50
29.500113
51
90
0
ELLIPSE
5
D6
100
AcDbEntity
8
1
62
256
6
ByLayer
370
18
48
1
60
0
100
AcDbEllipse
10
14.662446
20
7.753028
30
0
11
0.644525000000014
21
-1.11635004674832
31
0
210
0
220
0
230
1
40
0.99863
41
-1.57079632679491
42
-0.523598775598318
0
ELLIPSE
5
D7
100
AcDbEntity
8
1
62
256
6
ByLayer
370
18
48
1
60
0
100
AcDbEllipse
10
14.662446
20
7.753028
30
0
11
0.644525000000014
21
-1.11635004674832
31
0
210
0
220
0
230
1
40
0.99863
41
-0.523598775598318
42
0.523598775598288
0
ELLIPSE
5
D8
100
AcDbEntity
8
1
62
256
6
ByLayer
370
18
48
1
60
0
100
AcDbEllipse
10
14.662446
20
7.753028
30
0
11
0.644525000000014
21
-1.11635004674832
31
0
210
0
220
0
230
1
40
0.99863
41
2.61799387799148
42
-2.61799387799151
0
ELLIPSE
5
D9
100
AcDbEntity
8
1
62
256
6
ByLayer
370
18
48
1
60
0
100
AcDbEllipse
10
14.662446
20
7.753028
30
0
11
0.644525000000014
21
-1.11635004674832
31
0
210
0
220
0
230
1
40
0.99863
41
-2.61799387799151
42
-1.57079632679491
0
ELLIPSE
5
DA
100
AcDbEntity
8
1
62
256
6
ByLayer
370
18
48
1
60
0
100
AcDbEllipse
10
14.662446
20
7.753028
30
0
11
0.644525000000014
21
-1.11635004674832
31
0
210
0
220
0
230
1
40
0.99863
41
0.523598775598288
42
1.57079632679488
0
ELLIPSE
5
DB
100
AcDbEntity
8
1
62
256
6
ByLayer
370
18
48
1
60
0
100
AcDbEllipse
10
14.662446
20
7.753028
30
0
11
0.644525000000014
21
-1.11635004674832
31
0
210
0
220
0
230
1
40
0.99863
41
1.57079632679488
42
2.61799387799148
0
ELLIPSE
5
DC
100
AcDbEntity
8
1
62
256
6
ByLayer
370
18
48
1
60
0
100
AcDbEllipse
10
14.605791
20
7.720318
30
0
11
-0.497200000000011
21
0.86117566152324
31
0
210
0
220
0
230
1
40
0.99863
41
-2.0943951023932
42
-1.04719755119662
0
ELLIPSE
5
DD
100
AcDbEntity
8
1
62
256
6
ByLayer
370
18
48
1
60
0
100
AcDbEllipse
10
15.175467
20
8.708381
30
0
11
0.261650868637211
21
-0.151400146259631
31
0
210
0
220
0
230
1
40
0.486769
41
-1.57003868685939
42
-0.283154026296658
0
ELLIPSE
5
DE
100
AcDbEntity
8
1
62
256
6
ByLayer
370
18
48
1
60
0
100
AcDbEllipse
10
14.605791
20
7.720318
30
0
11
-0.497200000000011
21
0.86117566152324
31
0
210
0
220
0
230
1
40
0.99863
41
-1.0471975511966
42
-7.15524451684749E-15
0
ELLIPSE
5
DF
100
AcDbEntity
8
1
62
256
6
ByLayer
370
18
48
1
60
0
100
AcDbEllipse
10
15.746317
20
7.71964
30
0
11
0.000290938479101986
21
-0.302296372292252
31
0
210
0
220
0
230
1
40
0.486769
41
-2.85843862729348
42
-1.57155396673179
0
ELLIPSE
5
E0
100
AcDbEntity
8
1
62
256
6
ByLayer
370
18
48
1
60
0
100
AcDbEllipse
10
15.176641
20
6.731576
30
0
11
0.261527176329104
21
0.150992785654832
31
0
210
0
220
0
230
1
40
0.487772
41
1.5707963267949
42
2.85768098735486
0
ELLIPSE
5
E1
100
AcDbEntity
8
1
62
256
6
ByLayer
370
18
48
1
60
0
100
AcDbEllipse
10
15.175467
20
8.708381
30
0
11
0.261650868637397
21
-0.151400146260222
31
0
210
0
220
0
230
1
40
0.486769
41
-2.8569233474175
42
-1.57003868685647
0
ELLIPSE
5
E2
100
AcDbEntity
8
1
62
256
6
ByLayer
370
18
48
1
60
0
100
AcDbEllipse
10
14.034941
20
8.709059
30
0
11
0.261527176330988
21
0.15099278565548
31
0
210
0
220
0
230
1
40
0.487772
41
-2.85768098735606
42
-1.5707963267949
0
ELLIPSE
5
E3
100
AcDbEntity
8
1
62
256
6
ByLayer
370
18
48
1
60
0
100
AcDbEllipse
10
15.746317
20
7.71964
30
0
11
0.000290938479066871
21
-0.30229637229287
31
0
210
0
220
0
230
1
40
0.486769
41
-1.5715539667312
42
-0.284669306171623
0
ELLIPSE
5
E4
100
AcDbEntity
8
1
62
256
6
ByLayer
370
18
48
1
60
0
100
AcDbEllipse
10
14.662446
20
7.753028
30
0
11
-0.700000000000015
21
1.21243556529821
31
0
210
0
220
0
230
1
40
0.99863
41
0
42
6.28318530717959
0
ELLIPSE
5
E5
100
AcDbEntity
8
1
62
256
6
ByLayer
370
18
48
1
60
0
100
AcDbEllipse
10
14.650554
20
7.746162
30
0
11
-1.05000000000002
21
1.81865334794731
31
0
210
0
220
0
230
1
40
0.99863
41
0
42
6.28318530717959
0
ELLIPSE
5
E6
100
AcDbEntity
8
1
62
256
6
ByLayer
370
18
48
1
60
0
100
AcDbEllipse
10
14.618739
20
7.727793
30
0
11
-1.07518927051809
21
1.86228244429019
31
0
210
0
220
0
230
1
40
0.99863
41
0
42
6.28318530717959
0
ELLIPSE
5
E7
100
AcDbEntity
8
1
62
256
6
ByLayer
370
18
48
1
60
0
100
AcDbEllipse
10
14.631485
20
7.735152
30
0
11
-1.13087760071256
21
1.95873746157569
31
0
210
0
220
0
230
1
40
0.99863
41
0
42
6.28318530717959
0
ELLIPSE
5
E8
100
AcDbEntity
8
1
62
256
6
ByLayer
370
18
48
1
60
0
100
AcDbEllipse
10
14.661484
20
7.752472
30
0
11
1.15401962695658
21
-1.99882062682042
31
0
210
0
220
0
230
1
40
0.99863
41
0
42
6.28318530717959
0
ELLIPSE
5
E9
100
AcDbEntity
8
1
62
256
6
ByLayer
370
18
48
1
60
0
100
AcDbEllipse
10
15.59322
20
8.29041
30
0
11
0.151200000000003
21
-0.261886082104411
31
0
210
0
220
0
230
1
40
0.486436
41
0.160889108850742
42
2.98069900997137
0
ELLIPSE
5
EA
100
AcDbEntity
8
1
62
256
6
ByLayer
370
18
48
1
60
0
100
AcDbEllipse
10
14.605791
20
7.720318
30
0
11
-0.497200000000011
21
0.86117566152324
31
0
210
0
220
0
230
1
40
0.99863
41
2.25600717496099
42
3.14159265358978
0
ELLIPSE
5
EB
100
AcDbEntity
8
1
62
256
6
ByLayer
370
18
48
1
60
0
100
AcDbEllipse
10
14.605791
20
7.720318
30
0
11
-0.497200000000011
21
0.86117566152324
31
0
210
0
220
0
230
1
40
0.99863
41
-3.06411663121393
42
-2.09439510239322
0
ELLIPSE
5
EC
100
AcDbEntity
8
1
62
256
6
ByLayer
370
18
48
1
60
0
100
AcDbEllipse
10
14.605791
20
7.720318
30
0
11
0.497200000000011
21
-0.861175661523239
31
0
210
0
220
0
230
1
40
0.99863
41
3.14159265358979
42
-2.26345196431711
0
ELLIPSE
5
ED
100
AcDbEntity
8
1
62
256
6
ByLayer
370
18
48
1
60
0
100
AcDbEllipse
10
14.605791
20
7.720318
30
0
11
-0.497200000000011
21
0.86117566152324
31
0
210
0
220
0
230
1
40
0.99863
41
1.18426624691084
42
1.93689007024816
0
ELLIPSE
5
EE
100
AcDbEntity
8
1
62
256
6
ByLayer
370
18
48
1
60
0
100
AcDbEllipse
10
14.617122
20
7.72686
30
0
11
-1.05000000000002
21
1.81865334794731
31
0
210
0
220
0
230
1
40
0.99863
41
1.04779113512379
42
-3.14152273310872
0
ELLIPSE
5
EF
100
AcDbEntity
8
1
62
256
6
ByLayer
370
18
48
1
60
0
100
AcDbEllipse
10
14.617122
20
7.72686
30
0
11
-1.05000000000002
21
1.81865334794731
31
0
210
0
220
0
230
1
40
0.99863
41
0
42
1.04779100957544
0
ELLIPSE
5
F0
100
AcDbEntity
8
1
62
256
6
ByLayer
370
18
48
1
60
0
100
AcDbEllipse
10
15.593898
20
7.149052
30
0
11
0.150792337369777
21
0.261762516540757
31
0
210
0
220
0
230
1
40
0.487437
41
-2.52868257474979
42
0.160113734513153
0
ELLIPSE
5
F1
100
AcDbEntity
8
1
62
256
6
ByLayer
370
18
48
1
60
0
100
AcDbEllipse
10
14.605113
20
8.861677
30
0
11
0.30208915776773
21
-0.000291263412117048
31
0
210
0
220
0
230
1
40
0.487437
41
-0.160113734513262
42
2.48555348910755
0
ELLIPSE
5
F2
100
AcDbEntity
8
1
62
256
6
ByLayer
370
18
48
1
60
0
100
AcDbEllipse
10
14.606468
20
6.578959
30
0
11
0.30208915776773
21
-0.000291263412121609
31
0
210
0
220
0
230
1
40
0.487437
41
-0.656040483037638
42
0.161632389081713
0
ELLIPSE
5
F3
100
AcDbEntity
8
1
62
256
6
ByLayer
370
18
48
1
60
0
100
AcDbEllipse
10
13.617684
20
8.291584
30
0
11
0.150792337369775
21
0.261762516540754
31
0
210
0
220
0
230
1
40
0.487437
41
-0.161632389081569
42
0.612911438977797
0
ELLIPSE
5
F4
100
AcDbEntity
8
1
62
256
6
ByLayer
370
13
48
1
60
0
100
AcDbEllipse
10
18.750441
20
0
30
0
11
10.4506577936915
21
8.91230311821204
31
0
210
0
220
0
230
1
40
0.173977
41
2.72915664167306
42
-3.02374276461478
0
ELLIPSE
5
F5
100
AcDbEntity
8
1
62
256
6
ByLayer
370
13
48
1
60
0
100
AcDbEllipse
10
9.1466
20
9.764605
30
0
11
-0.625000000000013
21
1.08253175473054
31
0
210
0
220
0
230
1
40
0.848048
41
2.10275081313092
42
2.2309319303741
0
ELLIPSE
5
F6
100
AcDbEntity
8
1
62
256
6
ByLayer
370
13
48
1
60
0
100
AcDbEllipse
10
9.129005
20
9.754446
30
0
11
-0.625000000000013
21
1.08253175473054
31
0
210
0
220
0
230
1
40
0.997564
41
1.82123920802387
42
2.53389827439459
0
ELLIPSE
5
F7
100
AcDbEntity
8
1
62
256
6
ByLayer
370
13
48
1
60
0
100
AcDbEllipse
10
14.6259
20
14.231928
30
0
11
6.00000000000013
21
-10.3923048454132
31
0
210
0
220
0
230
1
40
0.99863
41
-1.65116839324004
42
-0.808894249803417
0
ELLIPSE
5
F8
100
AcDbEntity
8
1
62
256
6
ByLayer
370
13
48
1
60
0
100
AcDbEllipse
10
20.60594
20
2.284881
30
0
11
2.33975057028931
21
1.9569059296009
31
0
210
0
220
0
230
1
40
0.173737
41
-3.05048364478759
42
-2.03596369392748
0
ELLIPSE
5
F9
100
AcDbEntity
8
1
62
256
6
ByLayer
370
13
48
1
60
0
100
AcDbEllipse
10
13.282706
20
-3E-06
30
0
11
200.478198207381
21
-0.238756778809853
31
0
210
0
220
0
230
1
40
0.045355
41
1.59765085561249
42
1.61817030154205
0
ELLIPSE
5
FA
100
AcDbEntity
8
1
62
256
6
ByLayer
370
13
48
1
60
0
100
AcDbEllipse
10
12.720403
20
3.052217
30
0
11
-0.750000000000017
21
1.29903810567665
31
0
210
0
220
0
230
1
40
0.99863
41
0.785398163397449
42
1.26919222710807
0
ELLIPSE
5
FB
100
AcDbEntity
8
1
62
256
6
ByLayer
370
13
48
1
60
0
100
AcDbEllipse
10
13.162377
20
0
30
0
11
5.27403171998005
21
-9.09027822110183
31
0
210
0
220
0
230
1
40
0.060484
41
3.04874313715745
42
3.1071177170353
0
ELLIPSE
5
FC
100
AcDbEntity
8
1
62
256
6
ByLayer
370
13
48
1
60
0
100
AcDbEllipse
10
12.114729
20
-1.746953
30
0
11
4.88615690829464
21
5.40074644878487
31
0
210
0
220
0
230
1
40
0.196432
41
-2.44317529132672
42
-2.04639725087334
0
ELLIPSE
5
FD
100
AcDbEntity
8
1
62
256
6
ByLayer
370
13
48
1
60
0
100
AcDbEllipse
10
9.129005
20
9.754446
30
0
11
-0.625000000000013
21
1.08253175473054
31
0
210
0
220
0
230
1
40
0.848048
41
2.08265466813898
42
2.25412085928727
0
ELLIPSE
5
FE
100
AcDbEntity
8
SK1
62
256
6
ByLayer
370
13
48
1
60
0
100
AcDbEllipse
10
-29.587395
20
0
30
0
11
8.07446026138561
21
9.45886978930859E-15
31
0
210
0
220
0
230
1
40
0.982697
41
-0.696781914590177
42
0.696781914590173
0
ELLIPSE
5
FF
100
AcDbEntity
8
SK1
62
256
6
ByLayer
370
13
48
1
60
0
100
AcDbEllipse
10
-27.387605
20
0
30
0
11
8.07446026138548
21
9.45886978930843E-15
31
0
210
0
220
0
230
1
40
0.982697
41
2.44481073899961
42
-2.44481073899962
0
ELLIPSE
5
100
100
AcDbEntity
8
1
62
256
6
ByLayer
370
13
48
1
60
0
100
AcDbEllipse
10
12.616157
20
2.992031
30
0
11
-1.43440102572895
21
0.438741036817556
31
0
210
0
220
0
230
1
40
0.67997
41
-0.655892770209622
42
-0.315432775153771
0
ELLIPSE
5
101
100
AcDbEntity
8
1
62
256
6
ByLayer
370
13
48
1
60
0
100
AcDbEllipse
10
19.953749
20
6.03446
30
0
11
0.500000000000011
21
-0.866025403784432
31
0
210
0
220
0
230
1
40
0.99863
41
-1.19078714756574
42
-0.523598775598292
0
ELLIPSE
5
102
100
AcDbEntity
8
1
62
256
6
ByLayer
370
13
48
1
60
0
100
AcDbEllipse
10
10.756887
20
6.652853
30
0
11
0.500000000000011
21
-0.866025403784432
31
0
210
0
220
0
230
1
40
0.99863
41
-2.52623725672555
42
-0.62029660466947
0
ELLIPSE
5
103
100
AcDbEntity
8
1
62
256
6
ByLayer
370
13
48
1
60
0
100
AcDbEllipse
10
9.01907
20
9.690975
30
0
11
1.08916666574053
21
0.628830667673854
31
0
210
0
220
0
230
1
40
0.993908
41
3.14159265358979
42
-2.0641417743368
0
ELLIPSE
5
104
100
AcDbEntity
8
1
62
256
6
ByLayer
370
13
48
1
60
0
100
AcDbEllipse
10
12.616157
20
2.992031
30
0
11
-0.750000000000017
21
1.29903810567665
31
0
210
0
220
0
230
1
40
0.99863
41
-3.05327534510596
42
-2.82525138243736
0
ELLIPSE
5
105
100
AcDbEntity
8
1
62
256
6
ByLayer
370
13
48
1
60
0
100
AcDbEllipse
10
14.72367
20
2.288375
30
0
11
0.00118807867353868
21
1.99999964711723
31
0
210
0
220
0
230
1
40
0.045324
41
1.59699422132639
42
2.40716510601901
0
ELLIPSE
5
106
100
AcDbEntity
8
1
62
256
6
ByLayer
370
13
48
1
60
0
100
AcDbEllipse
10
14.6259
20
14.231928
30
0
11
6.00000000000013
21
-10.3923048454132
31
0
210
0
220
0
230
1
40
0.99863
41
-0.565526053366445
42
-0.523598775598293
0
ELLIPSE
5
107
100
AcDbEntity
8
1
62
256
6
ByLayer
370
13
48
1
60
0
100
AcDbEllipse
10
19.840438
20
5.96904
30
0
11
0.000594039336769341
21
0.999999823558618
31
0
210
0
220
0
230
1
40
0.045324
41
2.22995476114263
42
2.75301929354377
0
POINT
5
70
100
AcDbEntity
8
81
62
256
6
ByLayer
370
18
48
1
60
0
100
AcDbPoint
10
20.5015
20
6.604
30
0
39
0
210
0
220
0
230
1
50
360
0
POINT
5
72
100
AcDbEntity
8
80
62
256
6
ByLayer
370
18
48
1
60
0
100
AcDbPoint
10
0
20
0
30
0
39
0
210
0
220
0
230
1
50
360
0
POINT
5
74
100
AcDbEntity
8
1
62
256
6
ByLayer
370
18
48
1
60
1
100
AcDbPoint
10
20.5015
20
-6.604
30
0
39
0
210
0
220
0
230
1
50
360
0
POINT
5
76
100
AcDbEntity
8
1
62
256
6
ByLayer
370
18
48
1
60
1
100
AcDbPoint
10
20.5015
20
6.604
30
0
39
0
210
0
220
0
230
1
50
360
0
POINT
5
77
100
AcDbEntity
8
1
62
256
6
ByLayer
370
18
48
1
60
1
100
AcDbPoint
10
20.5015
20
-6.604
30
0
39
0
210
0
220
0
230
1
50
360
0
POINT
5
78
100
AcDbEntity
8
1
62
256
6
ByLayer
370
18
48
1
60
1
100
AcDbPoint
10
-0.0013
20
0
30
0
39
0
210
0
220
0
230
1
50
360
0
POINT
5
79
100
AcDbEntity
8
1
62
256
6
ByLayer
370
18
48
1
60
1
100
AcDbPoint
10
-52.7
20
7.93475
30
0
39
0
210
0
220
0
230
1
50
360
0
POINT
5
7A
100
AcDbEntity
8
1
62
256
6
ByLayer
370
18
48
1
60
1
100
AcDbPoint
10
20.5015
20
6.604
30
0
39
0
210
0
220
0
230
1
50
360
0
POINT
5
7B
100
AcDbEntity
8
1
62
256
6
ByLayer
370
18
48
1
60
1
100
AcDbPoint
10
-52.7
20
7.93475
30
0
39
0
210
0
220
0
230
1
50
360
0
POINT
5
7C
100
AcDbEntity
8
1
62
256
6
ByLayer
370
18
48
1
60
1
100
AcDbPoint
10
15.9925
20
13.595
30
0
39
0
210
0
220
0
230
1
50
360
0
POINT
5
7D
100
AcDbEntity
8
1
62
256
6
ByLayer
370
18
48
1
60
1
100
AcDbPoint
10
15.9925
20
-13.595
30
0
39
0
210
0
220
0
230
1
50
360
0
POINT
5
7E
100
AcDbEntity
8
1
62
256
6
ByLayer
370
18
48
1
60
1
100
AcDbPoint
10
15.9925
20
13.595
30
0
39
0
210
0
220
0
230
1
50
360
0
POINT
5
7F
100
AcDbEntity
8
1
62
256
6
ByLayer
370
18
48
1
60
1
100
AcDbPoint
10
-52.7
20
7.93475
30
0
39
0
210
0
220
0
230
1
50
360
0
POINT
5
80
100
AcDbEntity
8
1
62
256
6
ByLayer
370
18
48
1
60
1
100
AcDbPoint
10
-52.7
20
-7.93475
30
0
39
0
210
0
220
0
230
1
50
360
0
SPLINE
5
108
100
AcDbEntity
8
1
62
256
6
ByLayer
370
18
48
1
60
0
100
AcDbSpline
70
4
71
3
72
8
73
4
40
0
40
0
40
0
40
0
40
1
40
1
40
1
40
1
41
1
10
14.3601467881835
20
8.86898687206082
30
0
41
1
10
14.3598756338612
20
8.86222674761294
30
0
41
1
10
14.3596045492875
20
8.85546561788269
30
0
41
1
10
14.3593335382012
20
8.84870343179455
30
0
0
SPLINE
5
109
100
AcDbEntity
8
1
62
256
6
ByLayer
370
18
48
1
60
0
100
AcDbSpline
70
4
71
3
72
8
73
4
40
0
40
0
40
0
40
0
40
1
40
1
40
1
40
1
41
1
10
15.7756272527572
20
7.44990394387517
30
0
41
1
10
15.7697444369814
20
7.45323511194431
30
0
41
1
10
15.7638608024531
20
7.45656687249758
30
0
41
1
10
15.7579763076731
20
7.4598992558094
30
0
0
SPLINE
5
10A
100
AcDbEntity
8
1
62
256
6
ByLayer
370
18
48
1
60
0
100
AcDbSpline
70
4
71
3
72
8
73
4
40
0
40
0
40
0
40
0
40
1
40
1
40
1
40
1
41
1
10
14.9578509723796
20
6.63308784171636
30
0
41
1
10
14.9577865295529
20
6.63965420905996
30
0
41
1
10
14.9577221892037
20
6.64622168112066
30
0
41
1
10
14.957657956737
20
6.65279031425319
30
0
0
SPLINE
5
10B
100
AcDbEntity
8
1
62
256
6
ByLayer
370
18
48
1
60
0
100
AcDbSpline
70
4
71
3
72
16
73
12
40
0
40
0
40
0
40
0
40
0.125
40
0.125
40
0.25
40
0.25
40
0.5
40
0.5
40
0.75
40
0.75
40
1
40
1
40
1
40
1
41
1
10
15.4777455145202
20
6.93324909557148
30
0
41
1
10
15.4878255181223
20
6.92253068148682
30
0
41
1
10
15.5008529207863
20
6.914798510899
30
0
41
1
10
15.5303286759072
20
6.90765842681995
30
0
41
1
10
15.5465319139387
20
6.90822990090072
30
0
41
1
10
15.5936795452394
20
6.91854897372173
30
0
41
1
10
15.6231547819112
20
6.93565283975292
30
0
41
1
10
15.6759179387452
20
6.97611808148915
30
0
41
1
10
15.6996450975488
20
7.00005213596893
30
0
41
1
10
15.7423321634847
20
7.05148400337589
30
0
41
1
10
15.7613445432924
20
7.07911904285152
30
0
41
1
10
15.7780312837153
20
7.108061016243
30
0
0
SPLINE
5
10C
100
AcDbEntity
8
1
62
256
6
ByLayer
370
18
48
1
60
0
100
AcDbSpline
70
4
71
3
72
8
73
4
40
0
40
0
40
0
40
0
40
1
40
1
40
1
40
1
41
1
10
15.4767751606591
20
8.5678534590474
30
0
41
1
10
15.4707889891356
20
8.5645213812208
30
0
41
1
10
15.464801982495
20
8.56118884087857
30
0
41
1
10
15.4588140984052
20
8.55785581458011
30
0
0
SPLINE
5
10D
100
AcDbEntity
8
1
62
256
6
ByLayer
370
18
48
1
60
0
100
AcDbSpline
70
4
71
3
72
8
73
4
40
0
40
0
40
0
40
0
40
1
40
1
40
1
40
1
41
1
10
15.7576317699464
20
8.04028842527131
30
0
41
1
10
15.7635121974373
20
8.04380757185879
30
0
41
1
10
15.769391765353
20
8.04732620153104
30
0
41
1
10
15.7752705151601
20
8.05084433922855
30
0
0
SPLINE
5
10E
100
AcDbEntity
8
1
62
256
6
ByLayer
370
18
48
1
60
0
100
AcDbSpline
70
4
71
3
72
8
73
4
40
0
40
0
40
0
40
0
40
1
40
1
40
1
40
1
41
1
10
15.4597729149822
20
6.94268652056022
30
0
41
1
10
15.4657646454629
20
6.93954013000169
30
0
41
1
10
15.4717554978544
20
6.93639433126398
30
0
41
1
10
15.4777455145202
20
6.93324909557148
30
0
0
SPLINE
5
10F
100
AcDbEntity
8
1
62
256
6
ByLayer
370
18
48
1
60
0
100
AcDbSpline
70
4
71
3
72
16
73
12
40
0
40
0
40
0
40
0
40
0.125
40
0.125
40
0.25
40
0.25
40
0.5
40
0.5
40
0.75
40
0.75
40
1
40
1
40
1
40
1
41
1
10
14.3614738796417
20
6.63344211323152
30
0
41
1
10
14.3572479246143
20
6.61979978991857
30
0
41
1
10
14.3570830932633
20
6.60509195686828
30
0
41
1
10
14.3656715643812
20
6.57676640776094
30
0
41
1
10
14.3742842212068
20
6.56334687641191
30
0
41
1
10
14.4068365014924
20
6.52846051313523
30
0
41
1
10
14.4364064830057
20
6.51177651803053
30
0
41
1
10
14.4978619825807
20
6.48671216289463
30
0
41
1
10
14.530463188681
20
6.47823322661594
30
0
41
1
10
14.5963613223459
20
6.46708605674155
30
0
41
1
10
14.6298033015037
20
6.46443916093847
30
0
41
1
10
14.6632111559078
20
6.46441931535531
30
0
0
SPLINE
5
110
100
AcDbEntity
8
1
62
256
6
ByLayer
370
18
48
1
60
0
100
AcDbSpline
70
4
71
3
72
18
73
14
40
0
40
0
40
0
40
0
40
0.25
40
0.25
40
0.5
40
0.5
40
0.625
40
0.625
40
0.75
40
0.75
40
0.875
40
0.875
40
1
40
1
40
1
40
1
41
1
10
14.6632111559078
20
6.46441931535531
30
0
41
1
10
14.6966031458355
20
6.46439947919626
30
0
41
1
10
14.7299319321012
20
6.46700045435063
30
0
41
1
10
14.7955095385857
20
6.47806480245632
30
0
41
1
10
14.8277730971861
20
6.48647079695547
30
0
41
1
10
14.873318462208
20
6.5052383187093
30
0
41
1
10
14.8879222904214
20
6.51250542238265
30
0
41
1
10
14.915011154111
20
6.52962840575111
30
0
41
1
10
14.9277498384215
20
6.53967812537681
30
0
41
1
10
14.9484691983591
20
6.56284365387671
30
0
41
1
10
14.9565104339386
20
6.57616895611176
30
0
41
1
10
14.9638276297138
20
6.60473509287607
30
0
41
1
10
14.9628594310206
20
6.61943372750028
30
0
41
1
10
14.9578509723796
20
6.63308784171636
30
0
0
SPLINE
5
111
100
AcDbEntity
8
1
62
256
6
ByLayer
370
18
48
1
60
0
100
AcDbSpline
70
4
71
3
72
8
73
4
40
0
40
0
40
0
40
0
40
1
40
1
40
1
40
1
41
1
10
14.9563546024332
20
8.84834877773494
30
0
41
1
10
14.95641092122
20
8.85511109135879
30
0
41
1
10
14.9564673492057
20
8.8618723486035
30
0
41
1
10
14.9565238809215
20
8.86863260054568
30
0
0
SPLINE
5
112
100
AcDbEntity
8
1
62
256
6
ByLayer
370
18
48
1
60
0
100
AcDbSpline
70
4
71
3
72
8
73
4
40
0
40
0
40
0
40
0
40
1
40
1
40
1
40
1
41
1
10
13.5423705078059
20
8.05217076990203
30
0
41
1
10
13.5479177264327
20
8.04864584472858
30
0
41
1
10
13.5534659360381
20
8.04512042650578
30
0
41
1
10
13.559015187265
20
8.04159449023834
30
0
0
SPLINE
5
113
100
AcDbEntity
8
1
62
256
6
ByLayer
370
18
48
1
60
0
100
AcDbSpline
70
4
71
3
72
18
73
14
40
0
40
0
40
0
40
0
40
0.25
40
0.25
40
0.5
40
0.5
40
0.625
40
0.625
40
0.75
40
0.75
40
0.875
40
0.875
40
1
40
1
40
1
40
1
41
1
10
15.7780312837153
20
7.108061016243
30
0
41
1
10
15.7947101000615
20
7.13698924588286
30
0
41
1
10
15.8090542526775
20
7.16719603357089
30
0
41
1
10
15.8320415779605
20
7.22966214011939
30
0
41
1
10
15.8407437604218
20
7.26190432784398
30
0
41
1
10
15.8469218984628
20
7.31095464387627
30
0
41
1
10
15.8477971184395
20
7.32732245529303
30
0
41
1
10
15.8461867055882
20
7.35955549366369
30
0
41
1
10
15.8436564362457
20
7.37573964864254
30
0
41
1
10
15.8334727680204
20
7.40557599880259
30
0
41
1
10
15.8256631828688
20
7.41938858806816
30
0
41
1
10
15.8039100340508
20
7.44043665270516
30
0
41
1
10
15.7903253459088
20
7.44718224819647
30
0
41
1
10
15.7756272527572
20
7.44990394387517
30
0
0
SPLINE
5
114
100
AcDbEntity
8
1
62
256
6
ByLayer
370
18
48
1
60
0
100
AcDbSpline
70
4
71
3
72
18
73
14
40
0
40
0
40
0
40
0
40
0.125
40
0.125
40
0.249999999999999
40
0.249999999999999
40
0.5
40
0.5
40
0.75
40
0.75
40
0.875
40
0.875
40
1
40
1
40
1
40
1
41
1
10
15.7579763076731
20
7.4598992558094
30
0
41
1
10
15.736301586191
20
7.47217362818233
30
0
41
1
10
15.719345701571
20
7.49153892977131
30
0
41
1
10
15.6915304630262
20
7.53527046500315
30
0
41
1
10
15.680811361145
20
7.55975925948897
30
0
41
1
10
15.6557028480456
20
7.63649411584657
30
0
41
1
10
15.6481483905247
20
7.69213150782838
30
0
41
1
10
15.6480790466369
20
7.80380788728635
30
0
41
1
10
15.6555712945205
20
7.85982029934931
30
0
41
1
10
15.6805618078873
20
7.93756893115739
30
0
41
1
10
15.6912287770851
20
7.96247801218155
30
0
41
1
10
15.7190354941526
20
8.00735417919364
30
0
41
1
10
15.735983516453
20
8.02733301046101
30
0
41
1
10
15.7576317699464
20
8.04028842527131
30
0
0
SPLINE
5
115
100
AcDbEntity
8
1
62
256
6
ByLayer
370
18
48
1
60
0
100
AcDbSpline
70
4
71
3
72
16
73
12
40
0
40
0
40
0
40
0
40
0.125
40
0.125
40
0.25
40
0.25
40
0.5
40
0.5
40
0.75
40
0.75
40
1
40
1
40
1
40
1
41
1
10
15.7752705151601
20
8.05084433922855
30
0
41
1
10
15.7899583378943
20
8.05398871780054
30
0
41
1
10
15.8035313244561
20
8.06118420784841
30
0
41
1
10
15.8250946504088
20
8.08275998587825
30
0
41
1
10
15.8329771025615
20
8.09691950307783
30
0
41
1
10
15.848285149013
20
8.14253641407763
30
0
41
1
10
15.8484720015649
20
8.17648685554428
30
0
41
1
10
15.8401864924536
20
8.24225133792208
30
0
41
1
10
15.831434503244
20
8.27473479894994
30
0
41
1
10
15.8083819838516
20
8.33740537415619
30
0
41
1
10
15.7939874382262
20
8.36770754771217
30
0
41
1
10
15.7772663242449
20
8.39666936668684
30
0
0
SPLINE
5
116
100
AcDbEntity
8
1
62
256
6
ByLayer
370
18
48
1
60
0
100
AcDbSpline
70
4
71
3
72
18
73
14
40
0
40
0
40
0
40
0
40
0.25
40
0.25
40
0.5
40
0.5
40
0.625
40
0.625
40
0.75
40
0.75
40
0.875
40
0.875
40
1
40
1
40
1
40
1
41
1
10
15.7772663242449
20
8.39666936668684
30
0
41
1
10
15.7605531506634
20
8.42561743248575
30
0
41
1
10
15.741533549078
20
8.4532030562724
30
0
41
1
10
15.6987847939193
20
8.50451331973329
30
0
41
1
10
15.67510190898
20
8.52827935982026
30
0
41
1
10
15.6354292140683
20
8.55838579210658
30
0
41
1
10
15.6215782033631
20
8.56741583075188
30
0
41
1
10
15.5925709401087
20
8.58234806954215
30
0
41
1
10
15.5771129598858
20
8.58837337035422
30
0
41
1
10
15.5457364179388
20
8.59477080870371
30
0
41
1
10
15.5295960118747
20
8.5950909035642
30
0
41
1
10
15.4998439742555
20
8.58717925578492
30
0
41
1
10
15.4868468357346
20
8.57900644880769
30
0
41
1
10
15.4767751606591
20
8.5678534590474
30
0
0
SPLINE
5
117
100
AcDbEntity
8
1
62
256
6
ByLayer
370
18
48
1
60
0
100
AcDbSpline
70
4
71
3
72
16
73
12
40
0
40
0
40
0
40
0
40
0.125
40
0.125
40
0.25
40
0.25
40
0.5
40
0.5
40
0.75
40
0.75
40
1
40
1
40
1
40
1
41
1
10
13.8402522460429
20
8.56882561820572
30
0
41
1
10
13.8309359706503
20
8.57998497097773
30
0
41
1
10
13.8186700730799
20
8.58815679673634
30
0
41
1
10
13.7905464018583
20
8.5960775068186
30
0
41
1
10
13.7749269057205
20
8.59584305627732
30
0
41
1
10
13.7292046652928
20
8.5863469332605
30
0
41
1
10
13.7002926234073
20
8.56956822789084
30
0
41
1
10
13.648343133833
20
8.52957275716597
30
0
41
1
10
13.6248600912034
20
8.50577964322503
30
0
41
1
10
13.582490121941
20
8.45453085166781
30
0
41
1
10
13.5635478495823
20
8.42693628874682
30
0
41
1
10
13.5468611091595
20
8.39799431535531
30
0
0
SPLINE
5
118
100
AcDbEntity
8
1
62
256
6
ByLayer
370
18
48
1
60
0
100
AcDbSpline
70
4
71
3
72
18
73
14
40
0
40
0
40
0
40
0
40
0.25
40
0.25
40
0.5
40
0.5
40
0.625
40
0.625
40
0.75
40
0.75
40
0.875
40
0.875
40
1
40
1
40
1
40
1
41
1
10
13.5468611091595
20
8.39799431535531
30
0
41
1
10
13.5301822928133
20
8.36906608571545
30
0
41
1
10
13.5157682043262
20
8.33881892053341
30
0
41
1
10
13.4924639311286
20
8.27616982402114
30
0
41
1
10
13.483518731067
20
8.24378733001953
30
0
41
1
10
13.4767296571641
20
8.19438429000303
30
0
41
1
10
13.4756096322504
20
8.17787514038997
30
0
41
1
10
13.4766040716749
20
8.14528646959548
30
0
41
1
10
13.4787562878774
20
8.12888404553448
30
0
41
1
10
13.4879929285347
20
8.09850092875308
30
0
41
1
10
13.49522334302
20
8.08435395514749
30
0
41
1
10
13.5156131057864
20
8.0625187392065
30
0
41
1
10
13.5284364957837
20
8.0553336080265
30
0
41
1
10
13.5423705078059
20
8.05217076990203
30
0
0
SPLINE
5
119
100
AcDbEntity
8
1
62
256
6
ByLayer
370
18
48
1
60
0
100
AcDbSpline
70
4
71
3
72
8
73
4
40
0
40
0
40
0
40
0
40
1
40
1
40
1
40
1
41
1
10
14.3606368925049
20
6.6531449683128
30
0
41
1
10
14.3609158172712
20
6.64657620764456
30
0
41
1
10
14.3611948142084
20
6.64000860806939
30
0
41
1
10
14.3614738796417
20
6.63344211323152
30
0
0
SPLINE
5
11A
100
AcDbEntity
8
1
62
256
6
ByLayer
370
18
48
1
60
0
100
AcDbSpline
70
4
71
3
72
8
73
4
40
0
40
0
40
0
40
0
40
1
40
1
40
1
40
1
41
1
10
13.8572185799559
20
8.5588072254875
30
0
41
1
10
13.8515620930283
20
8.56214716900166
30
0
41
1
10
13.8459066655597
20
8.56548662540894
30
0
41
1
10
13.8402522460429
20
8.56882561820572
30
0
0
SPLINE
5
11B
100
AcDbEntity
8
1
62
256
6
ByLayer
370
18
48
1
60
0
100
AcDbSpline
70
4
71
3
72
18
73
14
40
0
40
0
40
0
40
0
40
0.125
40
0.125
40
0.250000000000001
40
0.250000000000001
40
0.500000000000001
40
0.500000000000001
40
0.75
40
0.75
40
0.875
40
0.875
40
1
40
1
40
1
40
1
41
1
10
15.4588140984052
20
8.55785581458011
30
0
41
1
10
15.4367585567202
20
8.54557907385495
30
0
41
1
10
15.4109930777298
20
8.54090277776567
30
0
41
1
10
15.3583265239973
20
8.53925223122923
30
0
41
1
10
15.3313922185896
20
8.54245928150229
30
0
41
1
10
15.2515101761745
20
8.55969231274614
30
0
41
1
10
15.1992693292426
20
8.58120696689011
30
0
41
1
10
15.1025862489942
20
8.63709999902085
30
0
41
1
10
15.0581708281225
20
8.67147109813021
30
0
41
1
10
15.0042980388026
20
8.73153698817535
30
0
41
1
10
14.9884550782967
20
8.75303492809019
30
0
41
1
10
14.9644349773645
20
8.79907216977298
30
0
41
1
10
14.9561472699944
20
8.82345394147393
30
0
41
1
10
14.9563546024332
20
8.84834877773494
30
0
0
SPLINE
5
11C
100
AcDbEntity
8
1
62
256
6
ByLayer
370
18
48
1
60
0
100
AcDbSpline
70
4
71
3
72
16
73
12
40
0
40
0
40
0
40
0
40
0.125
40
0.125
40
0.25
40
0.25
40
0.5
40
0.5
40
0.75
40
0.75
40
1
40
1
40
1
40
1
41
1
10
14.9565238809215
20
8.86863260054568
30
0
41
1
10
14.9615135641583
20
8.88271586254598
30
0
41
1
10
14.9624399006029
20
8.89786335076707
30
0
41
1
10
14.9552035133843
20
8.92696952587761
30
0
41
1
10
14.9471745984525
20
8.94072608076613
30
0
41
1
10
14.9160477090397
20
8.976435393847
30
0
41
1
10
14.8870409223129
20
8.99344454961323
30
0
41
1
10
14.8263990899975
20
9.01897867576048
30
0
41
1
10
14.7940420000712
20
9.02759855257798
30
0
41
1
10
14.7284609630798
20
9.03892879830215
30
0
41
1
10
14.6950890913711
20
9.04161617065984
30
0
41
1
10
14.661681236967
20
9.04163601624299
30
0
0
SPLINE
5
11D
100
AcDbEntity
8
1
62
256
6
ByLayer
370
18
48
1
60
0
100
AcDbSpline
70
4
71
3
72
18
73
14
40
0
40
0
40
0
40
0
40
0.25
40
0.25
40
0.5
40
0.5
40
0.625
40
0.625
40
0.75
40
0.75
40
0.875
40
0.875
40
1
40
1
40
1
40
1
41
1
10
14.661681236967
20
9.04163601624299
30
0
41
1
10
14.6282892470393
20
9.04165585240204
30
0
41
1
10
14.5948905249024
20
9.03901449975365
30
0
41
1
10
14.5289959705034
20
9.02776716168418
30
0
41
1
10
14.4964893943026
20
9.01922086090806
30
0
41
1
10
14.4503330934189
20
9.00010061516997
30
0
41
1
10
14.4354844602686
20
8.99269217330036
30
0
41
1
10
14.4077796231521
20
8.97521355750806
30
0
41
1
10
14.3946628857016
20
8.9649455688002
30
0
41
1
10
14.372996498196
20
8.94123327367896
30
0
41
1
10
14.3643760919503
20
8.92757358710386
30
0
41
1
10
14.3556955101233
20
8.89822029903559
30
0
41
1
10
14.355902410672
20
8.88308212872269
30
0
41
1
10
14.3601467881835
20
8.86898687206082
30
0
0
SPLINE
5
11E
100
AcDbEntity
8
1
62
256
6
ByLayer
370
18
48
1
60
0
100
AcDbSpline
70
4
71
3
72
18
73
14
40
0
40
0
40
0
40
0
40
0.125000000000001
40
0.125000000000001
40
0.250000000000001
40
0.250000000000001
40
0.5
40
0.5
40
0.75
40
0.75
40
0.875
40
0.875
40
1
40
1
40
1
40
1
41
1
10
14.957657956737
20
6.65279031425319
30
0
41
1
10
14.9574213653426
20
6.6769849645994
30
0
41
1
10
14.9656857162021
20
6.70071176578981
30
0
41
1
10
14.9895968193064
20
6.74555101585869
30
0
41
1
10
15.005419907994
20
6.76660637246366
30
0
41
1
10
15.0592493033459
20
6.82556310157921
30
0
41
1
10
15.1036149251961
20
6.85950064417949
30
0
41
1
10
15.2002285371145
20
6.91528391966006
30
0
41
1
10
15.252457102249
20
6.93711050222456
30
0
41
1
10
15.332263599468
20
6.95533779760459
30
0
41
1
10
15.3591649123936
20
6.95897490392241
30
0
41
1
10
15.411933513535
20
6.9583575680021
30
0
41
1
10
15.437714909759
20
6.95426966830004
30
0
41
1
10
15.4597729149822
20
6.94268652056022
30
0
0
SPLINE
5
11F
100
AcDbEntity
8
1
62
256
6
ByLayer
370
18
48
1
60
0
100
AcDbSpline
70
4
71
3
72
18
73
14
40
0
40
0
40
0
40
0
40
0.125000000000001
40
0.125000000000001
40
0.250000000000001
40
0.250000000000001
40
0.500000000000001
40
0.500000000000001
40
0.75
40
0.75
40
0.875
40
0.875
40
1
40
1
40
1
40
1
41
1
10
14.3593335382012
20
8.84870343179455
30
0
41
1
10
14.3583353064011
20
8.82379585594467
30
0
41
1
10
14.3489804685196
20
8.79943946177849
30
0
41
1
10
14.3231889412487
20
8.75351454831082
30
0
41
1
10
14.3065816228833
20
8.73200641649035
30
0
41
1
10
14.2508639596035
20
8.6719594953783
30
0
41
1
10
14.205856802632
20
8.63765156230298
30
0
41
1
10
14.1092429418292
20
8.58186814312904
30
0
41
1
10
14.0576561694531
20
8.56041209978633
30
0
41
1
10
13.9797360612986
20
8.54327391164048
30
0
41
1
10
13.9536175148168
20
8.54008873573972
30
0
41
1
10
13.9027324799589
20
8.54179354916081
30
0
41
1
10
13.8780424168419
20
8.54651153032594
30
0
41
1
10
13.8572185799559
20
8.5588072254875
30
0
0
SPLINE
5
120
100
AcDbEntity
8
1
62
256
6
ByLayer
370
18
48
1
60
0
100
AcDbSpline
70
4
71
3
72
16
73
12
40
0
40
0
40
0
40
0
40
0.124999999999999
40
0.124999999999999
40
0.249999999999998
40
0.249999999999998
40
0.499999999999998
40
0.499999999999998
40
0.749999999999999
40
0.749999999999999
40
1
40
1
40
1
40
1
41
1
10
13.8412225999039
20
6.93422125472981
30
0
41
1
10
13.8319193050239
20
6.92351435508897
30
0
41
1
10
13.8196628396625
20
6.91579720411599
30
0
41
1
10
13.7915480887051
20
6.90869133106898
30
0
41
1
10
13.7759281029224
20
6.90928170939989
30
0
41
1
10
13.7301940668016
20
6.9196559575947
30
0
41
1
10
13.7012618905322
20
6.93679451993287
30
0
41
1
10
13.6492645999415
20
6.97732199350679
30
0
41
1
10
13.6257532082674
20
7.00128410954869
30
0
41
1
10
13.5833222544387
20
7.05276654041663
30
0
41
1
10
13.5643471826111
20
7.08042414593677
30
0
41
1
10
13.5476260686299
20
7.10938596491147
30
0
0
SPLINE
5
121
100
AcDbEntity
8
1
62
256
6
ByLayer
370
18
48
1
60
0
100
AcDbSpline
70
4
71
3
72
8
73
4
40
0
40
0
40
0
40
0
40
1
40
1
40
1
40
1
41
1
10
13.5427272454031
20
7.45123037454863
30
0
41
1
10
13.548270398061
20
7.45455475514186
30
0
41
1
10
13.5538145410539
20
7.45787972714456
30
0
41
1
10
13.5593597249917
20
7.46120532077643
30
0
0
SPLINE
5
122
100
AcDbEntity
8
1
62
256
6
ByLayer
370
18
48
1
60
0
100
AcDbSpline
70
4
71
3
72
16
73
12
40
0
40
0
40
0
40
0
40
0.25
40
0.25
40
0.5
40
0.5
40
0.749999999999999
40
0.749999999999999
40
0.875
40
0.875
40
1
40
1
40
1
40
1
41
1
10
13.5476260686299
20
7.10938596491147
30
0
41
1
10
13.5309069750892
20
7.13834428438037
30
0
41
1
10
13.5164526463131
20
7.16857927426008
30
0
41
1
10
13.4930697691065
20
7.23109663026227
30
0
41
1
10
13.4840861915579
20
7.26336144470628
30
0
41
1
10
13.4749659420401
20
7.32879684320935
30
0
41
1
10
13.4745241587163
20
7.36209844299117
30
0
41
1
10
13.4885084234772
20
7.40724929787206
30
0
41
1
10
13.4958188558353
20
7.42101102907785
30
0
41
1
10
13.5159309985081
20
7.44171312852805
30
0
41
1
10
13.5288082521983
20
7.44852792511349
30
0
41
1
10
13.5427272454031
20
7.45123037454863
30
0
0
SPLINE
5
123
100
AcDbEntity
8
1
62
256
6
ByLayer
370
18
48
1
60
0
100
AcDbSpline
70
4
71
3
72
18
73
14
40
0
40
0
40
0
40
0
40
0.125
40
0.125
40
0.25
40
0.25
40
0.499999999999999
40
0.499999999999999
40
0.749999999999999
40
0.749999999999999
40
0.874999999999999
40
0.874999999999999
40
1
40
1
40
1
40
1
41
1
10
14.3606368925049
20
6.6531449683128
30
0
41
1
10
14.3596035538955
20
6.67748039791741
30
0
41
1
10
14.3500482807348
20
6.70144322736778
30
0
41
1
10
14.3242799869878
20
6.74606328802236
30
0
41
1
10
14.3075548273609
20
6.76723721467701
30
0
41
1
10
14.2520664782916
20
6.82590582217952
30
0
41
1
10
14.2072643533907
20
6.8597929957927
30
0
41
1
10
14.110514636191
20
6.91580434179136
30
0
41
1
10
14.0588468197948
20
6.93774371874272
30
0
41
1
10
13.9808205455083
20
6.95611844080193
30
0
41
1
10
13.9546695707804
20
6.95980156284082
30
0
41
1
10
13.903725128969
20
6.95926306554156
30
0
41
1
10
13.8790098588127
20
6.95520826918292
30
0
41
1
10
13.8581773965329
20
6.94363793146763
30
0
0
SPLINE
5
124
100
AcDbEntity
8
1
62
256
6
ByLayer
370
18
48
1
60
0
100
AcDbSpline
70
4
71
3
72
8
73
4
40
0
40
0
40
0
40
0
40
1
40
1
40
1
40
1
41
1
10
13.8581773965329
20
6.94363793146763
30
0
41
1
10
13.8525247559962
20
6.94049845812475
30
0
41
1
10
13.8468731742785
20
6.93735957545209
30
0
41
1
10
13.8412225999039
20
6.93422125472981
30
0
0
SPLINE
5
125
100
AcDbEntity
8
1
62
256
6
ByLayer
370
18
48
1
60
0
100
AcDbSpline
70
4
71
3
72
20
73
16
40
0
40
0
40
0
40
0
40
0.125
40
0.125
40
0.25
40
0.25
40
0.5
40
0.5
40
0.625
40
0.625
40
0.75
40
0.75
40
0.875
40
0.875
40
1
40
1
40
1
40
1
41
1
10
13.5593597249917
20
7.46120532077643
30
0
41
1
10
13.5798058328991
20
7.47346739305675
30
0
41
1
10
13.5956597410089
20
7.49283972889972
30
0
41
1
10
13.6215564377383
20
7.53659694772162
30
0
41
1
10
13.6314759177966
20
7.56112806814014
30
0
41
1
10
13.6546301294305
20
7.63807724855147
30
0
41
1
10
13.661437970028
20
7.6938135914238
30
0
41
1
10
13.661317016235
20
7.77766831977277
30
0
41
1
10
13.6595064350158
20
7.8052465832553
30
0
41
1
10
13.6522385996202
20
7.85965440275842
30
0
41
1
10
13.6467154602476
20
7.88676660741518
30
0
41
1
10
13.6312851313499
20
7.93858709184349
30
0
41
1
10
13.6214469130346
20
7.96338615474312
30
0
41
1
10
13.5955026460929
20
8.00837421418572
30
0
41
1
10
13.5795344044337
20
8.02855679397328
30
0
41
1
10
13.559015187265
20
8.04159449023834
30
0
0
SPLINE
5
126
100
AcDbEntity
8
1
62
256
6
ByLayer
370
18
48
1
60
0
100
AcDbSpline
70
4
71
3
72
10
73
6
40
0
40
0
40
0
40
0
40
0.375000000000405
40
0.750000000000811
40
1
40
1
40
1
40
1
41
1
10
12.2063240908408
20
6.33498490698338
30
0
41
1
10
12.3018608485062
20
6.16951038871341
30
0
41
1
10
12.520566796849
20
5.8545185130732
30
0
41
1
10
12.8761372157769
20
5.49065083420791
30
0
41
1
10
13.1253362303691
20
5.29841362046471
30
0
41
1
10
13.2285430627026
20
5.22763777147296
30
0
0
SPLINE
5
127
100
AcDbEntity
8
1
62
256
6
ByLayer
370
18
48
1
60
0
100
AcDbSpline
70
4
71
3
72
17
73
13
40
0
40
0
40
0
40
0
40
0.0625
40
0.125
40
0.25
40
0.375
40
0.5
40
0.625
40
0.75
40
0.875
40
0.9375
40
1
40
1
40
1
40
1
41
1
10
8.91064602854021
20
8.70461631574116
30
0
41
1
10
8.89755605917986
20
8.72728880774287
30
0
41
1
10
8.87360124246186
20
8.77391826879321
30
0
41
1
10
8.83504691908519
20
8.87141534682581
30
0
41
1
10
8.80513107538638
20
8.9994835512162
30
0
41
1
10
8.79987840579167
20
9.1571863960497
30
0
41
1
10
8.82547062611059
20
9.31284802039255
30
0
41
1
10
8.88092452146958
20
9.4604860117708
30
0
41
1
10
8.96410791069775
20
9.59442841952509
30
0
41
1
10
9.05387513156319
20
9.69033929214876
30
0
41
1
10
9.13587877791934
20
9.75544472664777
30
0
41
1
10
9.17987544525437
20
9.78381642265816
30
0
41
1
10
9.20251686539382
20
9.79688845267052
30
0
0
SPLINE
5
128
100
AcDbEntity
8
1
62
256
6
ByLayer
370
18
48
1
60
0
100
AcDbSpline
70
4
71
3
72
8
73
4
40
0
40
0
40
0
40
0
40
1
40
1
40
1
40
1
41
1
10
9.20251689724086
20
9.79688843785837
30
0
41
1
10
10.2691511040579
20
10.4127099842911
30
0
41
1
10
11.3357853108464
20
11.0285315307072
30
0
41
1
10
12.4024195176917
20
11.6443530771562
30
0
0
SPLINE
5
129
100
AcDbEntity
8
1
62
256
6
ByLayer
370
18
48
1
60
0
100
AcDbSpline
70
4
71
3
72
8
73
4
40
0
40
0
40
0
40
0
40
1
40
1
40
1
40
1
41
1
10
16.6941929749927
20
13.1984492073265
30
0
41
1
10
16.49427054324
20
12.2247351182273
30
0
41
1
10
16.2943481114873
20
11.2510210291282
30
0
41
1
10
16.0944256797346
20
10.2773069400291
30
0
0
SPLINE
5
12A
100
AcDbEntity
8
1
62
256
6
ByLayer
370
18
48
1
60
0
100
AcDbSpline
70
4
71
3
72
8
73
4
40
0
40
0
40
0
40
0
40
1
40
1
40
1
40
1
41
1
10
16.9024195176917
20
3.85012444309626
30
0
41
1
10
16.6285853795324
20
4.33139721072652
30
0
41
1
10
16.3547512413732
20
4.81266997835678
30
0
41
1
10
16.0809171032138
20
5.29394274598704
30
0
0
SPLINE
5
12B
100
AcDbEntity
8
1
62
256
6
ByLayer
370
18
48
1
60
0
100
AcDbSpline
70
4
71
3
72
10
73
6
40
0
40
0
40
0
40
0
40
0.375000000000406
40
0.750000000000812
40
1
40
1
40
1
40
1
41
1
10
17.1166446515977
20
9.16995980451773
30
0
41
1
10
17.0211078939323
20
9.33543432278771
30
0
41
1
10
16.8024019455895
20
9.65042619842791
30
0
41
1
10
16.4468315266616
20
10.0142938772932
30
0
41
1
10
16.1976325120694
20
10.2065310910364
30
0
41
1
10
16.0944256797359
20
10.2773069400282
30
0
0
SPLINE
5
12C
100
AcDbEntity
8
1
62
256
6
ByLayer
370
18
48
1
60
0
100
AcDbSpline
70
4
71
3
72
10
73
6
40
0
40
0
40
0
40
0
40
0.249999999999985
40
0.624999999999992
40
1
40
1
40
1
40
1
41
1
10
11.7584428266271
20
7.7739260725987
30
0
41
1
10
11.7681330936595
20
7.64915840945696
30
0
41
1
10
11.8100158970111
20
7.33722712534819
30
0
41
1
10
11.9473493410697
20
6.8473602702928
30
0
41
1
10
12.110787333179
20
6.50045942524301
30
0
41
1
10
12.2063240908464
20
6.3349849069736
30
0
0
SPLINE
5
12D
100
AcDbEntity
8
1
62
256
6
ByLayer
370
18
48
1
60
0
100
AcDbSpline
70
4
71
3
72
8
73
4
40
0
40
0
40
0
40
0
40
1
40
1
40
1
40
1
41
1
10
20.3941929749946
20
6.78986121931831
30
0
41
1
10
19.4509706219336
20
7.10358035917966
30
0
41
1
10
18.5077482688724
20
7.41729949904101
30
0
41
1
10
17.5645259158114
20
7.73101863890238
30
0
0
SPLINE
5
12E
100
AcDbEntity
8
1
62
256
6
ByLayer
370
18
48
1
60
0
100
AcDbSpline
70
4
71
3
72
8
73
4
40
0
40
0
40
0
40
0
40
1
40
1
40
1
40
1
41
1
10
10.7606460603907
20
5.50032230692847
30
0
41
1
10
11.2425387372093
20
5.77854317361019
30
0
41
1
10
11.7244314140278
20
6.05676404029191
30
0
41
1
10
12.2063240908464
20
6.3349849069736
30
0
0
SPLINE
5
12F
100
AcDbEntity
8
1
62
256
6
ByLayer
370
18
48
1
60
0
100
AcDbSpline
70
4
71
3
72
8
73
4
40
0
40
0
40
0
40
0
40
1
40
1
40
1
40
1
41
1
10
8.91064606038879
20
8.70461630093419
30
0
41
1
10
9.85991164913492
20
8.39438622482237
30
0
41
1
10
10.809177237881
20
8.08415614871055
30
0
41
1
10
11.7584428266271
20
7.77392607259873
30
0
0
SPLINE
5
130
100
AcDbEntity
8
1
62
256
6
ByLayer
370
18
48
1
60
0
100
AcDbSpline
70
4
71
3
72
17
73
13
40
0
40
0
40
0
40
0
40
0.0625
40
0.125
40
0.25
40
0.375
40
0.5
40
0.625
40
0.75
40
0.875
40
0.9375
40
1
40
1
40
1
40
1
41
1
10
20.394193021624
20
6.78986121304507
30
0
41
1
10
20.4072829909844
20
6.7671887210434
30
0
41
1
10
20.4312378077024
20
6.72055925999305
30
0
41
1
10
20.469792131079
20
6.62306218196045
30
0
41
1
10
20.4997079747778
20
6.49499397757003
30
0
41
1
10
20.5049606443725
20
6.33729113273654
30
0
41
1
10
20.4793684240537
20
6.18162950839368
30
0
41
1
10
20.4239145286946
20
6.03399151701544
30
0
41
1
10
20.3407311394665
20
5.90004910926115
30
0
41
1
10
20.250963918601
20
5.80413823663747
30
0
41
1
10
20.1689602722449
20
5.73903280213847
30
0
41
1
10
20.1249636049099
20
5.71066110612807
30
0
41
1
10
20.1023221847704
20
5.69758907611572
30
0
0
SPLINE
5
131
100
AcDbEntity
8
1
62
256
6
ByLayer
370
18
48
1
60
0
100
AcDbSpline
70
4
71
3
72
8
73
4
40
0
40
0
40
0
40
0
40
1
40
1
40
1
40
1
41
1
10
16.6941929749908
20
13.1984492073298
30
0
41
1
10
17.3108596416582
20
12.1303512093278
30
0
41
1
10
17.927526308309
20
11.0622532113544
30
0
41
1
10
18.5441929749928
20
9.99415521332404
30
0
0
SPLINE
5
132
100
AcDbEntity
8
1
62
256
6
ByLayer
370
18
48
1
60
0
100
AcDbSpline
70
4
71
3
72
8
73
4
40
0
40
0
40
0
40
0
40
1
40
1
40
1
40
1
41
1
10
12.6106460603906
20
2.29602831292604
30
0
41
1
10
12.8166117278284
20
3.27323146577473
30
0
41
1
10
13.0225773952662
20
4.25043461862339
30
0
41
1
10
13.2285430627039
20
5.22763777147205
30
0
0
SPLINE
5
133
100
AcDbEntity
8
1
62
256
6
ByLayer
370
18
48
1
60
0
100
AcDbSpline
70
4
71
3
72
8
73
4
40
0
40
0
40
0
40
0
40
1
40
1
40
1
40
1
41
1
10
10.7606460603907
20
5.50032230692847
30
0
41
1
10
10.1439793937069
20
6.56842030495886
30
0
41
1
10
9.52731272705614
20
7.63651830293219
30
0
41
1
10
8.91064606038879
20
8.70461630093419
30
0
0
SPLINE
5
134
100
AcDbEntity
8
1
62
256
6
ByLayer
370
18
48
1
60
0
100
AcDbSpline
70
4
71
3
72
8
73
4
40
0
40
0
40
0
40
0
40
1
40
1
40
1
40
1
41
1
10
12.4024195176917
20
11.6443530771562
30
0
41
1
10
13.4690537245371
20
12.2601746236053
30
0
41
1
10
14.5356879313255
20
12.8759961700214
30
0
41
1
10
15.6023221381425
20
13.4918177164541
30
0
0
SPLINE
5
135
100
AcDbEntity
8
1
62
256
6
ByLayer
370
18
48
1
60
0
100
AcDbSpline
70
4
71
3
72
8
73
4
40
0
40
0
40
0
40
0
40
1
40
1
40
1
40
1
41
1
10
9.20251689724421
20
9.79688843786028
30
0
41
1
10
10.1805702096275
20
9.59439104499486
30
0
41
1
10
11.1586235220108
20
9.39189365212945
30
0
41
1
10
12.1366768343942
20
9.18939625926404
30
0
0
SPLINE
5
136
100
AcDbEntity
8
1
62
256
6
ByLayer
370
18
48
1
60
0
100
AcDbSpline
70
4
71
3
72
8
73
4
40
0
40
0
40
0
40
0
40
1
40
1
40
1
40
1
41
1
10
17.1166446515977
20
9.16995980451773
30
0
41
1
10
17.5924940927294
20
9.44469160745317
30
0
41
1
10
18.0683435338611
20
9.7194234103886
30
0
41
1
10
18.5441929749928
20
9.99415521332404
30
0
0
SPLINE
5
137
100
AcDbEntity
8
1
62
256
6
ByLayer
370
18
48
1
60
0
100
AcDbSpline
70
4
71
3
72
8
73
4
40
0
40
0
40
0
40
0
40
1
40
1
40
1
40
1
41
1
10
13.7025168972409
20
2.00265980379842
30
0
41
1
10
14.016175667007
20
2.95092751501267
30
0
41
1
10
14.3298344367731
20
3.89919522622688
30
0
41
1
10
14.6434932065392
20
4.84746293744112
30
0
0
SPLINE
5
138
100
AcDbEntity
8
1
62
256
6
ByLayer
370
18
48
1
60
0
100
AcDbSpline
70
4
71
3
72
8
73
4
40
0
40
0
40
0
40
0
40
1
40
1
40
1
40
1
41
1
10
18.5441929749928
20
9.99415521332404
30
0
41
1
10
19.1608596416765
20
8.92605721529367
30
0
41
1
10
19.7775263083273
20
7.85795921732034
30
0
41
1
10
20.3941929749946
20
6.78986121931831
30
0
0
SPLINE
5
139
100
AcDbEntity
8
1
62
256
6
ByLayer
370
18
48
1
60
0
100
AcDbSpline
70
4
71
3
72
10
73
6
40
0
40
0
40
0
40
0
40
0.375000000000406
40
0.750000000000812
40
1
40
1
40
1
40
1
41
1
10
13.2420516392246
20
10.211001965514
30
0
41
1
10
13.076803898031
20
10.1155961376546
30
0
41
1
10
12.7622874679489
20
9.89711412342714
30
0
41
1
10
12.39909125307
20
9.54173170998652
30
0
41
1
10
12.2072816428681
20
9.29258989936545
30
0
41
1
10
12.136676834395
20
9.18939625926538
30
0
0
SPLINE
5
13A
100
AcDbEntity
8
1
62
256
6
ByLayer
370
18
48
1
60
0
100
AcDbSpline
70
4
71
3
72
10
73
6
40
0
40
0
40
0
40
0
40
0.375000000000406
40
0.750000000000812
40
1
40
1
40
1
40
1
41
1
10
16.0809171032139
20
5.29394274598704
30
0
41
1
10
16.2461648444075
20
5.38934857384649
30
0
41
1
10
16.5606812744896
20
5.60783058807397
30
0
41
1
10
16.9238774893685
20
5.96321300151456
30
0
41
1
10
17.1156870995704
20
6.21235481213566
30
0
41
1
10
17.1862919080434
20
6.3155484522357
30
0
0
SPLINE
5
13B
100
AcDbEntity
8
1
62
256
6
ByLayer
370
18
48
1
60
0
100
AcDbSpline
70
4
71
3
72
8
73
4
40
0
40
0
40
0
40
0
40
1
40
1
40
1
40
1
41
1
10
20.1023221381392
20
5.69758908239223
30
0
41
1
10
19.1303120614409
20
5.90357553900716
30
0
41
1
10
18.1583019847427
20
6.1095619956221
30
0
41
1
10
17.1862919080443
20
6.31554845223707
30
0
0
SPLINE
5
13C
100
AcDbEntity
8
1
62
256
6
ByLayer
370
18
48
1
60
0
100
AcDbSpline
70
4
71
3
72
10
73
6
40
0
40
0
40
0
40
0
40
0.249999999999984
40
0.624999999999992
40
1
40
1
40
1
40
1
41
1
10
14.6794755358993
20
10.65748177406
30
0
41
1
10
14.5548048178262
20
10.6479330363452
30
0
41
1
10
14.2431368755803
20
10.6063919465375
30
0
41
1
10
13.7537685700461
20
10.4695460046051
30
0
41
1
10
13.407299380408
20
10.3064077933698
30
0
41
1
10
13.2420516392149
20
10.2110019655084
30
0
0
SPLINE
5
13D
100
AcDbEntity
8
1
62
256
6
ByLayer
370
18
48
1
60
0
100
AcDbSpline
70
4
71
3
72
8
73
4
40
0
40
0
40
0
40
0
40
1
40
1
40
1
40
1
41
1
10
16.9024195176917
20
3.85012444309626
30
0
41
1
10
15.8357853108463
20
3.23430289664725
30
0
41
1
10
14.7691511040579
20
2.61848135023112
30
0
41
1
10
13.7025168972409
20
2.00265980379842
30
0
0
SPLINE
5
13E
100
AcDbEntity
8
1
62
256
6
ByLayer
370
18
48
1
60
0
100
AcDbSpline
70
4
71
3
72
29
73
25
40
0
40
0
40
0
40
0
40
0.125000000000944
40
0.171875000000893
40
0.218750000000841
40
0.242187500000815
40
0.265625000000789
40
0.277343750000776
40
0.289062500000763
40
0.312500000000737
40
0.359375000000686
40
0.406250000000634
40
0.50000000000053
40
0.593750000000427
40
0.640625000000375
40
0.687500000000323
40
0.710937500000298
40
0.722656250000285
40
0.734375000000272
40
0.757812500000246
40
0.78125000000022
40
0.828125000000168
40
0.875000000000116
40
1
40
1
40
1
40
1
41
1
10
13.2285430627026
20
5.22763777147296
30
0
41
1
10
13.28014647887
20
5.19224984697661
30
0
41
1
10
13.3523136602084
20
5.145694869593
30
0
41
1
10
13.4460477598073
20
5.09027151292548
30
0
41
1
10
13.4967824861833
20
5.06170865773339
30
0
41
1
10
13.5376746723752
20
5.03954732951897
30
0
41
1
10
13.5633476117324
20
5.02598030267927
30
0
41
1
10
13.5839421741767
20
5.01529147807483
30
0
41
1
10
13.6046637296357
20
5.00476518944311
30
0
41
1
10
13.6413862943259
20
4.98686498692854
30
0
41
1
10
13.695054060371
20
4.96283381310136
30
0
41
1
10
13.7832209748996
20
4.92800534331923
30
0
41
1
10
13.8970603830377
20
4.89175829094779
30
0
41
1
10
14.0137221346188
20
4.8660733511249
30
0
41
1
10
14.1074434778871
20
4.85203132210088
30
0
41
1
10
14.1659038198371
20
4.84593541103274
30
0
41
1
10
14.2066320982846
20
4.84302576659513
30
0
41
1
10
14.2298262248594
20
4.84175259847879
30
0
41
1
10
14.252991413934
20
4.84068386744377
30
0
41
1
10
14.2819897663969
20
4.83956157865723
30
0
41
1
10
14.3284537543783
20
4.83825167734418
30
0
41
1
10
14.3866336272695
20
4.83755089403437
30
0
41
1
10
14.4954455115485
20
4.83855333266382
30
0
41
1
10
14.5811578475027
20
4.84268856858367
30
0
41
1
10
14.6434932065392
20
4.84746293744109
30
0
0
SPLINE
5
13F
100
AcDbEntity
8
1
62
256
6
ByLayer
370
18
48
1
60
0
100
AcDbSpline
70
4
71
3
72
29
73
25
40
0
40
0
40
0
40
0
40
0.125000000000946
40
0.171875000000894
40
0.218750000000842
40
0.242187500000817
40
0.265625000000791
40
0.277343750000778
40
0.289062500000765
40
0.312500000000739
40
0.359375000000687
40
0.406250000000635
40
0.500000000000532
40
0.593750000000428
40
0.640625000000376
40
0.687500000000324
40
0.710937500000298
40
0.722656250000285
40
0.734375000000272
40
0.757812500000247
40
0.781250000000221
40
0.828125000000169
40
0.875000000000117
40
1
40
1
40
1
40
1
41
1
10
12.136676834395
20
9.18939625926538
30
0
41
1
10
12.101374430158
20
9.13779943921469
30
0
41
1
10
12.0549370428224
20
9.06563799682104
30
0
41
1
10
11.9996629633632
20
8.97190536011604
30
0
41
1
10
11.9711799231607
20
8.92116972039219
30
0
41
1
10
11.9490823367003
20
8.8802757762507
30
0
41
1
10
11.9355550910849
20
8.85460132192389
30
0
41
1
10
11.9248980453734
20
8.83400531318244
30
0
41
1
10
11.9144035751621
20
8.81328203118801
30
0
41
1
10
11.8965592443996
20
8.77655551077012
30
0
41
1
10
11.8726082659263
20
8.72287943527402
30
0
41
1
10
11.8379083587572
20
8.63469334633635
30
0
41
1
10
11.8018213308953
20
8.5208188207572
30
0
41
1
10
11.7762925350626
20
8.4041074694658
30
0
41
1
10
11.7623714317178
20
8.31033845040193
30
0
41
1
10
11.7563491266182
20
8.25184520699997
30
0
41
1
10
11.753489846436
20
8.21109241846108
30
0
41
1
10
11.7522450971546
20
8.18788387790346
30
0
41
1
10
11.7512046105953
20
8.16470405191177
30
0
41
1
10
11.7501175308444
20
8.13568712083875
30
0
41
1
10
11.7488637104851
20
8.08919278440976
30
0
41
1
10
11.7482325056575
20
8.03097379500608
30
0
41
1
10
11.7493634906946
20
7.92208600521954
30
0
41
1
10
11.7535976931109
20
7.83630990416958
30
0
41
1
10
11.7584428266271
20
7.7739260725987
30
0
0
SPLINE
5
140
100
AcDbEntity
8
1
62
256
6
ByLayer
370
18
48
1
60
0
100
AcDbSpline
70
4
71
3
72
29
73
25
40
0
40
0
40
0
40
0
40
0.125000000000945
40
0.171875000000894
40
0.218750000000842
40
0.242187500000816
40
0.26562500000079
40
0.277343750000777
40
0.289062500000764
40
0.312500000000738
40
0.359375000000687
40
0.406250000000635
40
0.500000000000531
40
0.593750000000427
40
0.640625000000376
40
0.687500000000324
40
0.710937500000298
40
0.722656250000285
40
0.734375000000272
40
0.757812500000246
40
0.78125000000022
40
0.828125000000168
40
0.875000000000117
40
1
40
1
40
1
40
1
41
1
10
16.0944256797359
20
10.2773069400282
30
0
41
1
10
16.0428222635685
20
10.3126948645245
30
0
41
1
10
15.9706550822302
20
10.3592498419081
30
0
41
1
10
15.8769209826312
20
10.4146731985756
30
0
41
1
10
15.8261862562551
20
10.4432360537677
30
0
41
1
10
15.7852940700633
20
10.4653973819821
30
0
41
1
10
15.7596211307061
20
10.4789644088218
30
0
41
1
10
15.7390265682618
20
10.4896532334263
30
0
41
1
10
15.7183050128028
20
10.500179522058
30
0
41
1
10
15.6815824481126
20
10.5180797245726
30
0
41
1
10
15.6279146820675
20
10.5421108983998
30
0
41
1
10
15.5397477675389
20
10.5769393681819
30
0
41
1
10
15.4259083594008
20
10.6131864205533
30
0
41
1
10
15.3092466078197
20
10.6388713603762
30
0
41
1
10
15.2155252645515
20
10.6529133894002
30
0
41
1
10
15.1570649226014
20
10.6590093004683
30
0
41
1
10
15.1163366441539
20
10.661918944906
30
0
41
1
10
15.093142517579
20
10.6631921130223
30
0
41
1
10
15.0699773285045
20
10.6642608440573
30
0
41
1
10
15.0409789760416
20
10.6653831328439
30
0
41
1
10
14.9945149880602
20
10.6666930341569
30
0
41
1
10
14.936335115169
20
10.6673938174668
30
0
41
1
10
14.8275232308899
20
10.6663913788373
30
0
41
1
10
14.7418108949358
20
10.6622561429174
30
0
41
1
10
14.6794755358993
20
10.65748177406
30
0
0
SPLINE
5
141
100
AcDbEntity
8
1
62
256
6
ByLayer
370
18
48
1
60
0
100
AcDbSpline
70
4
71
3
72
8
73
4
40
0
40
0
40
0
40
0
40
1
40
1
40
1
40
1
41
1
10
12.4024195176917
20
11.6443530771562
30
0
41
1
10
12.682296891536
20
11.1665693732755
30
0
41
1
10
12.9621742653803
20
10.6887856693948
30
0
41
1
10
13.2420516392246
20
10.211001965514
30
0
0
SPLINE
5
142
100
AcDbEntity
8
1
62
256
6
ByLayer
370
18
48
1
60
0
100
AcDbSpline
70
4
71
3
72
29
73
25
40
0
40
0
40
0
40
0
40
0.125000000000945
40
0.171875000000893
40
0.218750000000841
40
0.242187500000815
40
0.26562500000079
40
0.277343750000777
40
0.289062500000764
40
0.312500000000738
40
0.359375000000686
40
0.406250000000634
40
0.50000000000053
40
0.593750000000427
40
0.640625000000375
40
0.687500000000323
40
0.710937500000297
40
0.722656250000284
40
0.734375000000271
40
0.757812500000245
40
0.781250000000219
40
0.828125000000168
40
0.875000000000116
40
1
40
1
40
1
40
1
41
1
10
17.1862919080435
20
6.3155484522357
30
0
41
1
10
17.2215943122804
20
6.36714527228639
30
0
41
1
10
17.2680316996161
20
6.43930671468007
30
0
41
1
10
17.3233057790753
20
6.53303935138507
30
0
41
1
10
17.3517888192778
20
6.58377499110892
30
0
41
1
10
17.3738864057382
20
6.62466893525041
30
0
41
1
10
17.3874136513536
20
6.65034338957722
30
0
41
1
10
17.3980706970651
20
6.67093939831867
30
0
41
1
10
17.4085651672763
20
6.69166268031307
30
0
41
1
10
17.4264094980389
20
6.72838920073096
30
0
41
1
10
17.4503604765122
20
6.78206527622709
30
0
41
1
10
17.4850603836813
20
6.87025136516476
30
0
41
1
10
17.5211474115432
20
6.98412589074391
30
0
41
1
10
17.5466762073759
20
7.10083724203528
30
0
41
1
10
17.5605973107206
20
7.19460626109915
30
0
41
1
10
17.5666196158203
20
7.25309950450114
30
0
41
1
10
17.5694788960025
20
7.29385229304003
30
0
41
1
10
17.5707236452839
20
7.31706083359765
30
0
41
1
10
17.5717641318432
20
7.34024065958934
30
0
41
1
10
17.5728512115941
20
7.36925759066233
30
0
41
1
10
17.5741050319534
20
7.41575192709132
30
0
41
1
10
17.5747362367809
20
7.47397091649501
30
0
41
1
10
17.5736052517439
20
7.58285870628154
30
0
41
1
10
17.5693710493276
20
7.66863480733153
30
0
41
1
10
17.5645259158114
20
7.73101863890241
30
0
0
SPLINE
5
143
100
AcDbEntity
8
1
62
256
6
ByLayer
370
18
48
1
60
0
100
AcDbSpline
70
4
71
3
72
10
73
6
40
0
40
0
40
0
40
0
40
0.249999999999984
40
0.624999999999992
40
1
40
1
40
1
40
1
41
1
10
17.5645259158114
20
7.73101863890241
30
0
41
1
10
17.554835648779
20
7.85578630204412
30
0
41
1
10
17.5129528454274
20
8.16771758615289
30
0
41
1
10
17.3756194013687
20
8.65758444120831
30
0
41
1
10
17.2121814092595
20
9.00448528625807
30
0
41
1
10
17.1166446515921
20
9.16995980452748
30
0
0
SPLINE
5
144
100
AcDbEntity
8
1
62
256
6
ByLayer
370
18
48
1
60
0
100
AcDbSpline
70
4
71
3
72
10
73
6
40
0
40
0
40
0
40
0
40
0.249999999999985
40
0.624999999999992
40
1
40
1
40
1
40
1
41
1
10
14.6434932065392
20
4.84746293744109
30
0
41
1
10
14.7681639246123
20
4.85701167515592
30
0
41
1
10
15.0798318668582
20
4.89855276496357
30
0
41
1
10
15.5692001723924
20
5.03539870689596
30
0
41
1
10
15.9156693620305
20
5.19853691813131
30
0
41
1
10
16.0809171032236
20
5.29394274599267
30
0
0
SPLINE
5
145
100
AcDbEntity
8
1
62
256
6
ByLayer
370
18
48
1
60
0
100
AcDbSpline
70
4
71
3
72
17
73
13
40
0
40
0
40
0
40
0
40
0.0625
40
0.125
40
0.25
40
0.375
40
0.5
40
0.625
40
0.75
40
0.875
40
0.9375
40
1
40
1
40
1
40
1
41
1
10
15.6023221560192
20
13.4918177599743
30
0
41
1
10
15.6249635761586
20
13.5048897899866
30
0
41
1
10
15.671532656638
20
13.528805674606
30
0
41
1
10
15.7689171824396
20
13.5672706764861
30
0
41
1
10
15.8968621603215
20
13.5970549586609
30
0
41
1
10
16.0544507777218
20
13.6021239356954
30
0
41
1
10
16.2100362059981
20
13.5763292676834
30
0
41
1
10
16.3576389614706
20
13.5206619497606
30
0
41
1
10
16.4915884450869
20
13.4372623635633
30
0
41
1
10
16.5875402555723
20
13.347319593979
30
0
41
1
10
16.6526985017589
20
13.2651823164692
30
0
41
1
10
16.6811030235123
20
13.2211217428503
30
0
41
1
10
16.6941929928727
20
13.1984492508485
30
0
0
SPLINE
5
146
100
AcDbEntity
8
1
62
256
6
ByLayer
370
18
48
1
60
0
100
AcDbSpline
70
4
71
3
72
8
73
4
40
0
40
0
40
0
40
0
40
1
40
1
40
1
40
1
41
1
10
15.6023221381425
20
13.4918177164541
30
0
41
1
10
15.2947066040614
20
12.5470390689894
30
0
41
1
10
14.9870910699803
20
11.6022604215247
30
0
41
1
10
14.6794755358993
20
10.65748177406
30
0
0
SPLINE
5
147
100
AcDbEntity
8
1
62
256
6
ByLayer
370
18
48
1
60
0
100
AcDbSpline
70
4
71
3
72
8
73
4
40
0
40
0
40
0
40
0
40
1
40
1
40
1
40
1
41
1
10
12.6106460603926
20
2.29602831292274
30
0
41
1
10
11.9939793937252
20
3.36412631092478
30
0
41
1
10
11.3773127270744
20
4.4322243088981
30
0
41
1
10
10.7606460603907
20
5.5003223069285
30
0
0
SPLINE
5
148
100
AcDbEntity
8
1
62
256
6
ByLayer
370
18
48
1
60
0
100
AcDbSpline
70
4
71
3
72
17
73
13
40
0
40
0
40
0
40
0
40
0.0625
40
0.125
40
0.25
40
0.375
40
0.5
40
0.625
40
0.75
40
0.875
40
0.9375
40
1
40
1
40
1
40
1
41
1
10
13.702516894145
20
2.0026597688119
30
0
41
1
10
13.6798754740057
20
1.9895877387996
30
0
41
1
10
13.6333063935262
20
1.96567185418019
30
0
41
1
10
13.5359218677246
20
1.92720685230015
30
0
41
1
10
13.4079768898428
20
1.89742257012529
30
0
41
1
10
13.2503882724424
20
1.8923535930908
30
0
41
1
10
13.0948028441662
20
1.91814826110283
30
0
41
1
10
12.9472000886936
20
1.97381557902563
30
0
41
1
10
12.8132506050774
20
2.05721516522294
30
0
41
1
10
12.7172987945919
20
2.14715793480721
30
0
41
1
10
12.6521405484053
20
2.22929521231706
30
0
41
1
10
12.6237360266519
20
2.27335578593596
30
0
41
1
10
12.6106460572915
20
2.29602827793772
30
0
0
SPLINE
5
149
100
AcDbEntity
8
1
62
256
6
ByLayer
370
18
48
1
60
0
100
AcDbSpline
70
4
71
3
72
8
73
4
40
0
40
0
40
0
40
0
40
1
40
1
40
1
40
1
41
1
10
20.1023221381425
20
5.69758908239413
30
0
41
1
10
19.0356879313255
20
5.08176753596146
30
0
41
1
10
17.9690537245371
20
4.46594598954533
30
0
41
1
10
16.9024195176917
20
3.85012444309629
30
0
0
SPLINE
5
14A
100
AcDbEntity
8
1
62
256
6
ByLayer
370
13
48
1
60
0
100
AcDbSpline
70
4
71
3
72
10
73
6
40
0
40
0
40
0
40
0
40
0.5
40
0.5
40
1
40
1
40
1
40
1
41
1
10
8.55457985310613
20
2.6164897889559
30
0
41
1
10
8.64181041447262
20
2.57308098024407
30
0
41
1
10
8.72688896482543
20
2.53335314990531
30
0
41
1
10
8.8928032573117
20
2.46064076402095
30
0
41
1
10
8.97429667239464
20
2.42741757370851
30
0
41
1
10
9.05151176732181
20
2.39841733835343
30
0
0
SPLINE
5
14B
100
AcDbEntity
8
1
62
256
6
ByLayer
370
13
48
1
60
0
100
AcDbSpline
70
4
71
3
72
8
73
4
40
0
40
0
40
0
40
0
40
1
40
1
40
1
40
1
41
1
10
19.8042449404255
20
5.35660949266938
30
0
41
1
10
19.8493931784286
20
5.29617086236772
30
0
41
1
10
19.8937992107651
20
5.24170384703916
30
0
41
1
10
19.9373933019846
20
5.19325665088448
30
0
0
SPLINE
5
14C
100
AcDbEntity
8
1
62
256
6
ByLayer
370
13
48
1
60
0
100
AcDbSpline
70
4
71
3
72
8
73
4
40
0
40
0
40
0
40
0
40
1
40
1
40
1
40
1
41
1
10
8.55457985310403
20
8.77430357403696
30
0
41
1
10
8.5808874657111
20
8.76907204130049
30
0
41
1
10
8.60763532732506
20
8.76498269792745
30
0
41
1
10
8.6347495276234
20
8.76212490072416
30
0
0
SPLINE
5
14D
100
AcDbEntity
8
1
62
256
6
ByLayer
370
13
48
1
60
0
100
AcDbSpline
70
4
71
3
72
8
73
4
40
0
40
0
40
0
40
0
40
1
40
1
40
1
40
1
41
1
10
8.78996059181003
20
-9.12397036291802
30
0
41
1
10
8.71077496443985
20
-9.1047927630307
30
0
41
1
10
8.63180773479041
20
-9.08539676404311
30
0
41
1
10
8.55457985310505
20
-9.06426140610526
30
0
0
SPLINE
5
14E
100
AcDbEntity
8
1
62
256
6
ByLayer
370
13
48
1
60
0
100
AcDbSpline
70
4
71
3
72
12
73
8
40
0
40
0
40
0
40
0
40
0.499999999999998
40
0.499999999999998
40
0.749999999999999
40
0.749999999999999
40
1
40
1
40
1
40
1
41
1
10
14.9307923074334
20
0.798278925316509
30
0
41
1
10
14.222218903425
20
0.818017839588606
30
0
41
1
10
13.5240210438441
20
0.894117206151236
30
0
41
1
10
12.4915854909609
20
1.08899320154458
30
0
41
1
10
12.1504541517749
20
1.16743320824045
30
0
41
1
10
11.4787142532632
20
1.34950531592932
30
0
41
1
10
11.1474246999443
20
1.45325807468996
30
0
41
1
10
10.8206333380309
20
1.56949931120414
30
0
0
SPLINE
5
14F
100
AcDbEntity
8
1
62
256
6
ByLayer
370
13
48
1
60
0
100
AcDbSpline
70
4
71
3
72
8
73
4
40
0
40
0
40
0
40
0
40
1
40
1
40
1
40
1
41
1
10
8.67242975651823
20
8.75873532431439
30
0
41
1
10
8.71333732642171
20
8.75568467802202
30
0
41
1
10
8.75498526916158
20
8.75549709513129
30
0
41
1
10
8.79714905581739
20
8.75852934063124
30
0
0
SPLINE
5
150
100
AcDbEntity
8
1
62
256
6
ByLayer
370
13
48
1
60
0
100
AcDbSpline
70
4
71
3
72
8
73
4
40
0
40
0
40
0
40
0
40
1
40
1
40
1
40
1
41
1
10
9.05151176732181
20
-6.49309326361043
30
0
41
1
10
9.05259541620887
20
-6.49550637086708
30
0
41
1
10
9.05368032899963
20
-6.49791881944353
30
0
41
1
10
9.05476650687416
20
-6.50033061035472
30
0
0
SPLINE
5
151
100
AcDbEntity
8
1
62
256
6
ByLayer
370
13
48
1
60
0
100
AcDbSpline
70
4
71
3
72
8
73
4
40
0
40
0
40
0
40
0
40
1
40
1
40
1
40
1
41
1
10
9.06956109090635
20
2.39165199751483
30
0
41
1
10
9.06350633998039
20
2.3759740739828
30
0
41
1
10
9.05748996124083
20
2.36027949612816
30
0
41
1
10
9.05151176732181
20
2.34456832623641
30
0
0
SPLINE
5
152
100
AcDbEntity
8
1
62
256
6
ByLayer
370
13
48
1
60
0
100
AcDbSpline
70
4
71
3
72
10
73
6
40
0
40
0
40
0
40
0
40
0.5
40
0.5
40
1
40
1
40
1
40
1
41
1
10
7.962039759959
20
9.08069862872509
30
0
41
1
10
7.99003093885659
20
9.06651465451995
30
0
41
1
10
8.02418621634047
20
9.04250785433862
30
0
41
1
10
8.1121964388725
20
8.9759005870375
30
0
41
1
10
8.16569676749441
20
8.93326313064406
30
0
41
1
10
8.23769551008576
20
8.88213235767506
30
0
0
SPLINE
5
153
100
AcDbEntity
8
1
62
256
6
ByLayer
370
13
48
1
60
0
100
AcDbSpline
70
4
71
2
72
6
73
3
40
0
40
0
40
0
40
1
40
1
40
1
41
0.500000008412175
10
9.05151176732181
20
-6.50648894744233
30
0
41
0.499999991587825
10
9.05313700221024
20
-6.50341141135804
30
0
41
0.500000008412175
10
9.05476650687431
20
-6.5003306103547
30
0
0
SPLINE
5
154
100
AcDbEntity
8
1
62
256
6
ByLayer
370
13
48
1
60
0
100
AcDbSpline
70
4
71
3
72
30
73
26
40
0
40
0
40
0
40
0
40
0.124999999999999
40
0.124999999999999
40
0.187499999999999
40
0.187499999999999
40
0.249999999999998
40
0.249999999999998
40
0.374999999999997
40
0.374999999999997
40
0.437499999999997
40
0.437499999999997
40
0.468749999999997
40
0.468749999999997
40
0.499999999999997
40
0.499999999999997
40
0.624999999999998
40
0.624999999999998
40
0.687499999999998
40
0.687499999999998
40
0.749999999999999
40
0.749999999999999
40
0.874999999999999
40
0.874999999999999
40
1
40
1
40
1
40
1
41
1
10
1.89320576166017
20
8.75555267075526
30
0
41
1
10
1.99344829283416
20
8.62485657857943
30
0
41
1
10
2.11082327337527
20
8.46040285742021
30
0
41
1
10
2.31866767783782
20
8.16914855684266
30
0
41
1
10
2.39327796102037
20
8.06460450620142
30
0
41
1
10
2.55456603850331
20
7.8413408885952
30
0
41
1
10
2.64143775827154
20
7.72235817809553
30
0
41
1
10
2.92145715873789
20
7.34678281927194
30
0
41
1
10
3.12996566505961
20
7.07703503879904
30
0
41
1
10
3.4804223793227
20
6.6522787518727
30
0
41
1
10
3.60353243682852
20
6.50732002654254
30
0
41
1
10
3.79833357528491
20
6.2858387005858
30
0
41
1
10
3.86495719828372
20
6.21133736017549
30
0
41
1
10
4.00170792263327
20
6.06115339649568
30
0
41
1
10
4.07199294353552
20
5.98530535333558
30
0
41
1
10
4.43020146599969
20
5.60594444748011
30
0
41
1
10
4.73812780388067
20
5.30238385030961
30
0
41
1
10
5.23318998071727
20
4.8543336904136
30
0
41
1
10
5.40374144642379
20
4.70618369143531
30
0
41
1
10
5.75612655343406
20
4.41339233246973
30
0
41
1
10
5.9384741940147
20
4.26836507916028
30
0
41
1
10
6.4990445279937
20
3.84298223327286
30
0
41
1
10
6.88850779232405
20
3.57389730673367
30
0
41
1
10
7.69834191866437
20
3.06911436433745
30
0
41
1
10
8.11870949986746
20
2.83339327427839
30
0
41
1
10
8.55457985310517
20
2.61648978895781
30
0
0
SPLINE
5
155
100
AcDbEntity
8
1
62
256
6
ByLayer
370
13
48
1
60
0
100
AcDbSpline
70
4
71
3
72
8
73
4
40
0
40
0
40
0
40
0
40
1
40
1
40
1
40
1
41
1
10
9.05151176732181
20
2.39841733835337
30
0
41
1
10
9.05752594168035
20
2.39615855110421
30
0
41
1
10
9.06354238503872
20
2.39390343515882
30
0
41
1
10
9.06956109090635
20
2.39165199751483
30
0
0
SPLINE
5
156
100
AcDbEntity
8
1
62
256
6
ByLayer
370
13
48
1
60
0
100
AcDbSpline
70
4
71
3
72
8
73
4
40
0
40
0
40
0
40
0
40
1
40
1
40
1
40
1
41
1
10
8.79714905581716
20
8.75852934062686
30
0
41
1
10
8.79627599668027
20
8.73091986789981
30
0
41
1
10
8.79881445790062
20
8.70546118918776
30
0
41
1
10
8.80469764622671
20
8.68209482276819
30
0
0
SPLINE
5
157
100
AcDbEntity
8
1
62
256
6
ByLayer
370
13
48
1
60
0
100
AcDbSpline
70
4
71
3
72
12
73
8
40
0
40
0
40
0
40
0
40
0.249999999999999
40
0.249999999999999
40
0.499999999999999
40
0.499999999999999
40
1
40
1
40
1
40
1
41
1
10
8.81169498108926
20
8.65993654653056
30
0
41
1
10
8.81945529498074
20
8.6394400648002
30
0
41
1
10
8.82964319716046
20
8.62074134674597
30
0
41
1
10
8.8552849037435
20
8.58700226392367
30
0
41
1
10
8.87087298485619
20
8.5719336768266
30
0
41
1
10
8.92447442172897
20
8.53389689139163
30
0
41
1
10
8.96976421053665
20
8.51723204819035
30
0
41
1
10
9.02551489040843
20
8.50973298596796
30
0
0
SPLINE
5
158
100
AcDbEntity
8
1
62
256
6
ByLayer
370
13
48
1
60
0
100
AcDbSpline
70
4
71
3
72
10
73
6
40
0
40
0
40
0
40
0
40
0.5
40
0.5
40
1
40
1
40
1
40
1
41
1
10
9.05151176732181
20
2.34456832623641
30
0
41
1
10
8.96914217804238
20
2.1280944833652
30
0
41
1
10
8.88427387103297
20
1.91289238872028
30
0
41
1
10
8.71663387947814
20
1.48222780688249
30
0
41
1
10
8.63384789664894
20
1.2667705503589
30
0
41
1
10
8.55457985310511
20
1.0501559944698
30
0
0
SPLINE
5
159
100
AcDbEntity
8
1
62
256
6
ByLayer
370
13
48
1
60
0
100
AcDbSpline
70
4
71
3
72
22
73
18
40
0
40
0
40
0
40
0
40
0.125
40
0.125
40
0.25
40
0.25
40
0.375
40
0.375
40
0.5
40
0.5
40
0.625
40
0.625
40
0.75
40
0.75
40
0.875
40
0.875
40
1
40
1
40
1
40
1
41
1
10
8.55457985310511
20
1.05015599446978
30
0
41
1
10
8.45394556636904
20
0.775154236460025
30
0
41
1
10
8.37250826863158
20
0.4965838765375
30
0
41
1
10
8.23787166708041
20
-0.0656312370332159
30
0
41
1
10
8.18474271535371
20
-0.349290454459919
30
0
41
1
10
8.10120330386712
20
-0.920547699837613
30
0
41
1
10
8.07077332547806
20
-1.20872733920504
30
0
41
1
10
8.03038890589789
20
-1.78609073280717
30
0
41
1
10
8.02070265744345
20
-2.07065634429
30
0
41
1
10
8.02056474997954
20
-2.63176315738662
30
0
41
1
10
8.03011715729338
20
-2.90830379031098
30
0
41
1
10
8.06983067372647
20
-3.45330442691576
30
0
41
1
10
8.10028739709111
20
-3.72298735006012
30
0
41
1
10
8.18410536022873
20
-4.24139901937403
30
0
41
1
10
8.23744774570838
20
-4.49149416251996
30
0
41
1
10
8.3724406519122
20
-4.97328897168853
30
0
41
1
10
8.45402812847976
20
-5.20499136043185
30
0
41
1
10
8.55457985310505
20
-5.42698567574934
30
0
0
SPLINE
5
15A
100
AcDbEntity
8
1
62
256
6
ByLayer
370
13
48
1
60
0
100
AcDbSpline
70
4
71
3
72
12
73
8
40
0
40
0
40
0
40
0
40
0.25
40
0.25
40
0.5
40
0.5
40
1
40
1
40
1
40
1
41
1
10
8.2376955100857
20
8.88213235767512
30
0
41
1
10
8.25123471256592
20
8.87251733019986
30
0
41
1
10
8.26827409274358
20
8.86289517864373
30
0
41
1
10
8.30919846699766
20
8.84374175955534
30
0
41
1
10
8.33334940110211
20
8.83412599402592
30
0
41
1
10
8.41431530654825
20
8.80637740501612
30
0
41
1
10
8.47952516986788
20
8.78922895089491
30
0
41
1
10
8.55457985310511
20
8.77430357403748
30
0
0
SPLINE
5
15B
100
AcDbEntity
8
1
62
256
6
ByLayer
370
13
48
1
60
0
100
AcDbSpline
70
4
71
3
72
10
73
6
40
0
40
0
40
0
40
0
40
0.5
40
0.5
40
1
40
1
40
1
40
1
41
1
10
8.55457985310738
20
-7.43617811449914
30
0
41
1
10
8.63601479493508
20
-7.28210140864698
30
0
41
1
10
8.71940158951708
20
-7.12680110296893
30
0
41
1
10
8.88645959185459
20
-6.81602303039267
30
0
41
1
10
8.97016669775763
20
-6.66052353569708
30
0
41
1
10
9.05151176732181
20
-6.50648894744231
30
0
0
SPLINE
5
15C
100
AcDbEntity
8
1
62
256
6
ByLayer
370
13
48
1
60
0
100
AcDbSpline
70
4
71
3
72
10
73
6
40
0
40
0
40
0
40
0
40
0.5
40
0.5
40
1
40
1
40
1
40
1
41
1
10
8.55457985310505
20
-5.42698567574931
30
0
41
1
10
8.63376659133309
20
-5.60181117775491
30
0
41
1
10
8.71648408343191
20
-5.77654658623399
30
0
41
1
10
8.88412596097675
20
-6.13039281553114
30
0
41
1
10
8.96918092938773
20
-6.30975607309423
30
0
41
1
10
9.05151176732176
20
-6.49309326361043
30
0
0
SPLINE
5
15D
100
AcDbEntity
8
1
62
256
6
ByLayer
370
13
48
1
60
0
100
AcDbSpline
70
4
71
3
72
8
73
4
40
0
40
0
40
0
40
0
40
1
40
1
40
1
40
1
41
1
10
8.6347495276234
20
8.76212490072416
30
0
41
1
10
8.64736590345234
20
8.76079515309516
30
0
41
1
10
8.6599278305344
20
8.75966764452158
30
0
41
1
10
8.6724297565188
20
8.75873532431189
30
0
0
SPLINE
5
15E
100
AcDbEntity
8
1
62
256
6
ByLayer
370
13
48
1
60
0
100
AcDbSpline
70
4
71
3
72
8
73
4
40
0
40
0
40
0
40
0
40
1
40
1
40
1
40
1
41
1
10
8.80469764622671
20
8.68209482276819
30
0
41
1
10
8.80656030093263
20
8.67469688308674
30
0
41
1
10
8.80890923789684
20
8.66729423015587
30
0
41
1
10
8.8116949810892
20
8.65993654653053
30
0
0
SPLINE
5
15F
100
AcDbEntity
8
1
62
256
6
ByLayer
370
13
48
1
60
0
100
AcDbSpline
70
4
71
3
72
30
73
26
40
0
40
0
40
0
40
0
40
0.0624999999999987
40
0.0624999999999987
40
0.124999999999997
40
0.124999999999997
40
0.249999999999995
40
0.249999999999995
40
0.312499999999994
40
0.312499999999994
40
0.374999999999995
40
0.374999999999995
40
0.499999999999995
40
0.499999999999995
40
0.562499999999995
40
0.562499999999995
40
0.624999999999996
40
0.624999999999996
40
0.749999999999997
40
0.749999999999997
40
0.874999999999999
40
0.874999999999999
40
0.937499999999999
40
0.937499999999999
40
1
40
1
40
1
40
1
41
1
10
3.79962553910593
20
9.09384465525184
30
0
41
1
10
3.72833894761663
20
9.09377626793128
30
0
41
1
10
3.65711443060411
20
9.09364204065491
30
0
41
1
10
3.51479435701361
20
9.09319634200421
30
0
41
1
10
3.44330542280318
20
9.09288233934231
30
0
41
1
10
3.23247800560131
20
9.09155411105093
30
0
41
1
10
3.09687032082064
20
9.09018436503439
30
0
41
1
10
2.9011128993709
20
9.08654567692969
30
0
41
1
10
2.83714537931428
20
9.08506324435149
30
0
41
1
10
2.71195361406188
20
9.08132753196867
30
0
41
1
10
2.65038960844049
20
9.07905432080426
30
0
41
1
10
2.47463160441458
20
9.07083288697581
30
0
41
1
10
2.3681279546995
20
9.06350151769789
30
0
41
1
10
2.22544914053606
20
9.04802085800597
30
0
41
1
10
2.18075827085204
20
9.04210682909476
30
0
41
1
10
2.0976434014978
20
9.02836257087426
30
0
41
1
10
2.06011774919199
20
9.02067194107832
30
0
41
1
10
1.96001563190828
20
8.99493148156191
30
0
41
1
10
1.90949045753746
20
8.974193458896
30
0
41
1
10
1.84305929659871
20
8.92344490395851
30
0
41
1
10
1.82871809643223
20
8.89459022360089
30
0
41
1
10
1.83345253173115
20
8.84594887343539
30
0
41
1
10
1.83950983921505
20
8.82874451209918
30
0
41
1
10
1.86014482006345
20
8.79307509242739
30
0
41
1
10
1.8746688535478
20
8.77460888677703
30
0
41
1
10
1.89320576165949
20
8.75555267075578
30
0
0
SPLINE
5
160
100
AcDbEntity
8
1
62
256
6
ByLayer
370
13
48
1
60
0
100
AcDbSpline
70
4
71
3
72
14
73
10
40
0
40
0
40
0
40
0
40
0.25
40
0.25
40
0.5
40
0.5
40
0.75
40
0.75
40
1
40
1
40
1
40
1
41
1
10
19.8602542823192
20
1.04375806991135
30
0
41
1
10
19.8890335094877
20
1.08333208132714
30
0
41
1
10
19.9151564017176
20
1.12530902580386
30
0
41
1
10
19.9617272397161
20
1.21473814168064
30
0
41
1
10
19.9822599594259
20
1.26256814677461
30
0
41
1
10
20.0156490783717
20
1.36146033401081
30
0
41
1
10
20.0286890283903
20
1.412753920591
30
0
41
1
10
20.0466257934522
20
1.51943192097156
30
0
41
1
10
20.0515
20
1.57516603976441
30
0
41
1
10
20.0515
20
1.63190474450067
30
0
0
SPLINE
5
161
100
AcDbEntity
8
1
62
256
6
ByLayer
370
13
48
1
60
0
100
AcDbSpline
70
4
71
3
72
12
73
8
40
0
40
0
40
0
40
0
40
0.499999999999996
40
0.499999999999996
40
0.749999999999998
40
0.749999999999998
40
1
40
1
40
1
40
1
41
1
10
10.8206333380309
20
1.56949931120408
30
0
41
1
10
10.4839892850499
20
1.68924519663551
30
0
41
1
10
10.1729915037373
20
1.81976192624046
30
0
41
1
10
9.73677989426159
20
2.02685243435576
30
0
41
1
10
9.59649533033672
20
2.09778850741455
30
0
41
1
10
9.32546137622677
20
2.24281499323334
30
0
41
1
10
9.19423212555989
20
2.31721601896456
30
0
41
1
10
9.06956109090635
20
2.39165199751483
30
0
0
SPLINE
5
162
100
AcDbEntity
8
1
62
256
6
ByLayer
370
13
48
1
60
0
100
AcDbSpline
70
4
71
3
72
8
73
4
40
0
40
0
40
0
40
0
40
1
40
1
40
1
40
1
41
1
10
8.79714905581733
20
8.75852934063175
30
0
41
1
10
8.827167046314
20
8.74832946444178
30
0
41
1
10
8.86483320555755
20
8.74159648283228
30
0
41
1
10
8.9071558464579
20
8.7412098051
30
0
0
SPLINE
5
163
100
AcDbEntity
8
1
62
256
6
ByLayer
370
13
48
1
60
0
100
AcDbSpline
70
4
71
3
72
8
73
4
40
0
40
0
40
0
40
0
40
1
40
1
40
1
40
1
41
1
10
19.7228226837722
20
5.47277952134866
30
0
41
1
10
19.7496814701252
20
5.43205978040572
30
0
41
1
10
19.776846689718
20
5.39328673232845
30
0
41
1
10
19.8042449404255
20
5.35660949266946
30
0
0
SPLINE
5
164
100
AcDbEntity
8
1
62
256
6
ByLayer
370
13
48
1
60
0
100
AcDbSpline
70
4
71
3
72
16
73
12
40
0
40
0
40
0
40
0
40
0.0607604841484536
40
0.0607604841484536
40
0.371123411227385
40
0.371123411227385
40
0.681486338306317
40
0.681486338306317
40
0.991849265385249
40
0.991849265385249
40
1
40
1
40
1
40
1
41
1
10
11.5864701158928
20
4.06199538715271
30
0
41
1
10
11.5812297512804
20
4.06082863989937
30
0
41
1
10
11.5761188853236
20
4.0597524355347
30
0
41
1
10
11.5456892723405
20
4.05375623896092
30
0
41
1
10
11.5244471958431
20
4.0513861518379
30
0
41
1
10
11.4894256889554
20
4.0528671346255
30
0
41
1
10
11.4755461422855
20
4.05682173243108
30
0
41
1
10
11.4554232823113
20
4.07213452556289
30
0
41
1
10
11.4490875248491
20
4.08338580168532
30
0
41
1
10
11.4458089360814
20
4.09909509349549
30
0
41
1
10
11.445727260219
20
4.09950000843187
30
0
41
1
10
11.4456477962551
20
4.09990782586885
30
0
0
SPLINE
5
165
100
AcDbEntity
8
1
62
256
6
ByLayer
370
13
48
1
60
0
100
AcDbSpline
70
4
71
3
72
36
73
32
40
0
40
0
40
0
40
0
40
0.0061124303982655
40
0.0061124303982655
40
0.0723716017050495
40
0.0723716017050495
40
0.138630773011833
40
0.138630773011833
40
0.204889944318617
40
0.204889944318617
40
0.271149115625401
40
0.271149115625401
40
0.337408286932185
40
0.337408286932185
40
0.469926629545753
40
0.469926629545753
40
0.536185800852534
40
0.536185800852534
40
0.602444972159315
40
0.602444972159315
40
0.668704143466096
40
0.668704143466096
40
0.734963314772877
40
0.734963314772877
40
0.801222486079657
40
0.801222486079657
40
0.867481657386438
40
0.867481657386438
40
0.933740828693219
40
0.933740828693219
40
1
40
1
40
1
40
1
41
1
10
13.871851183656
20
2.09105782549165
30
0
41
1
10
13.8675067381546
20
2.0858337799659
30
0
41
1
10
13.8631263613198
20
2.08063858516255
30
0
41
1
10
13.8108368717957
20
2.0194680235268
30
0
41
1
10
13.7583841351093
20
1.96662936332169
30
0
41
1
10
13.648026574245
20
1.87080840186132
30
0
41
1
10
13.5898352244012
20
1.8274014802322
30
0
41
1
10
13.4672701790133
20
1.74932788391175
30
0
41
1
10
13.4024717738899
20
1.7145356099997
30
0
41
1
10
13.2699867999705
20
1.65559380335938
30
0
41
1
10
13.2019807703976
20
1.63116910913394
30
0
41
1
10
13.0622068592945
20
1.59229410711933
30
0
41
1
10
12.9898481111122
20
1.57778211044808
30
0
41
1
10
12.7708362546804
20
1.55067033609265
30
0
41
1
10
12.624309694527
20
1.55399088519343
30
0
41
1
10
12.4033849780484
20
1.59195616558097
30
0
41
1
10
12.33099834581
20
1.610005424429
30
0
41
1
10
12.1905641282146
20
1.65599401584228
30
0
41
1
10
12.1221924036038
20
1.68398846818013
30
0
41
1
10
11.9891718086554
20
1.75013754000278
30
0
41
1
10
11.9249662902862
20
1.78817400800634
30
0
41
1
10
11.8042394318923
20
1.87200168676992
30
0
41
1
10
11.747203761083
20
1.91803559925432
30
0
41
1
10
11.6397321710502
20
2.01854764004415
30
0
41
1
10
11.5892881723894
20
2.07319414107033
30
0
41
1
10
11.4981050971045
20
2.18783699086922
30
0
41
1
10
11.4569177409317
20
2.24820751150233
30
0
41
1
10
11.3834000510994
20
2.37531910805188
30
0
41
1
10
11.3508298605653
20
2.44275271576561
30
0
41
1
10
11.2967671872568
20
2.58067501409985
30
0
41
1
10
11.2751604856141
20
2.65108158358126
30
0
41
1
10
11.2589128099654
20
2.72293472272924
30
0
0
SPLINE
5
166
100
AcDbEntity
8
1
62
256
6
ByLayer
370
13
48
1
60
0
100
AcDbSpline
70
4
71
3
72
30
73
26
40
0
40
0
40
0
40
0
40
0.0573435522983623
40
0.0573435522983623
40
0.146762728707306
40
0.146762728707306
40
0.325601081525201
40
0.325601081525201
40
0.415020257934145
40
0.415020257934145
40
0.504439434343088
40
0.504439434343088
40
0.593858610752032
40
0.593858610752032
40
0.683277787160975
40
0.683277787160975
40
0.72798737536545
40
0.72798737536545
40
0.772696963569924
40
0.772696963569924
40
0.86211613997887
40
0.86211613997887
40
0.951535316387816
40
0.951535316387816
40
1
40
1
40
1
40
1
41
1
10
5.22084148715481
20
4.88137934047009
30
0
41
1
10
5.25902765835929
20
4.87305169666016
30
0
41
1
10
5.29774026959007
20
4.86427120226301
30
0
41
1
10
5.39746326376979
20
4.84069382480703
30
0
41
1
10
5.45871508637316
20
4.82531638881832
30
0
41
1
10
5.64349125875577
20
4.77560188285813
30
0
41
1
10
5.76807633204777
20
4.73792208354993
30
0
41
1
10
5.95492287410508
20
4.66929195050656
30
0
41
1
10
6.01719363179541
20
4.64435279773787
30
0
41
1
10
6.14117150376234
20
4.58841449761405
30
0
41
1
10
6.20255549982681
20
4.55752012844951
30
0
41
1
10
6.32087834696262
20
4.48854561167866
30
0
41
1
10
6.37823966563201
20
4.45024381432023
30
0
41
1
10
6.48677707102939
20
4.36342692059304
30
0
41
1
10
6.53638101285406
20
4.31608633991482
30
0
41
1
10
6.60293741880963
20
4.23848126111866
30
0
41
1
10
6.62382031883493
20
4.21151947512968
30
0
41
1
10
6.6629236378273
20
4.15537545306299
30
0
41
1
10
6.68122825284343
20
4.1260097786446
30
0
41
1
10
6.73093319733277
20
4.03702120019642
30
0
41
1
10
6.75760590984112
20
3.97600089446294
30
0
41
1
10
6.80124146805213
20
3.85210025780574
30
0
41
1
10
6.81805525243533
20
3.78948835183851
30
0
41
1
10
6.83804890371061
20
3.69579260198336
30
0
41
1
10
6.8440052366339
20
3.66322582255924
30
0
41
1
10
6.84907201139379
20
3.63106750407775
30
0
0
SPLINE
5
167
100
AcDbEntity
8
1
62
256
6
ByLayer
370
13
48
1
60
0
100
AcDbSpline
70
4
71
3
72
12
73
8
40
0
40
0
40
0
40
0
40
0.276407151814762
40
0.276407151814762
40
0.638203575907381
40
0.638203575907381
40
1
40
1
40
1
40
1
41
1
10
20.0429385831404
20
5.02928112970227
30
0
41
1
10
20.0391638628053
20
5.04023369273301
30
0
41
1
10
20.0340013030061
20
5.0525580004138
30
0
41
1
10
20.0182022733559
20
5.08404522284022
30
0
41
1
10
20.0062030186082
20
5.10433579576613
30
0
41
1
10
19.976384130438
20
5.14712305848349
30
0
41
1
10
19.9585192619932
20
5.16977884690129
30
0
41
1
10
19.9373933019849
20
5.19325665088451
30
0
0
LINE
5
81
100
AcDbEntity
8
1
62
256
6
ByLayer
370
18
48
1
60
0
100
AcDbLine
10
15.722062
20
8.020125
30
0
11
15.704927
21
8.009859
31
0
39
0
210
0
220
0
230
1
0
LINE
5
82
100
AcDbEntity
8
1
62
256
6
ByLayer
370
18
48
1
60
0
100
AcDbLine
10
14.904953
20
6.622361
30
0
11
14.957658
21
6.65279
31
0
39
0
210
0
220
0
230
1
0
LINE
5
83
100
AcDbEntity
8
1
62
256
6
ByLayer
370
18
48
1
60
0
100
AcDbLine
10
13.804514
20
8.528378
30
0
11
13.857219
21
8.558807
31
0
39
0
210
0
220
0
230
1
0
LINE
5
84
100
AcDbEntity
8
1
62
256
6
ByLayer
370
18
48
1
60
0
100
AcDbLine
10
14.904953
20
6.622361
30
0
11
14.904643
21
6.602368
31
0
39
0
210
0
220
0
230
1
0
LINE
5
85
100
AcDbEntity
8
1
62
256
6
ByLayer
370
18
48
1
60
0
100
AcDbLine
10
14.903316
20
8.837913
30
0
11
14.90365
21
8.81792
31
0
39
0
210
0
220
0
230
1
0
LINE
5
86
100
AcDbEntity
8
1
62
256
6
ByLayer
370
18
48
1
60
0
100
AcDbLine
10
15.705271
20
7.42947
30
0
11
15.722419
21
7.419184
31
0
39
0
210
0
220
0
230
1
0
LINE
5
87
100
AcDbEntity
8
1
62
256
6
ByLayer
370
18
48
1
60
0
100
AcDbLine
10
14.904643
20
6.602368
30
0
11
14.957851
21
6.633088
31
0
39
0
210
0
220
0
230
1
0
LINE
5
88
100
AcDbEntity
8
1
62
256
6
ByLayer
370
18
48
1
60
0
100
AcDbLine
10
13.787044
20
8.538106
30
0
11
13.804514
21
8.528378
31
0
39
0
210
0
220
0
230
1
0
LINE
5
89
100
AcDbEntity
8
1
62
256
6
ByLayer
370
18
48
1
60
0
100
AcDbLine
10
15.704927
20
8.009859
30
0
11
15.757632
21
8.040288
31
0
39
0
210
0
220
0
230
1
0
LINE
5
8A
100
AcDbEntity
8
1
62
256
6
ByLayer
370
18
48
1
60
0
100
AcDbLine
10
15.406109
20
8.527427
30
0
11
15.423567
21
8.537134
31
0
39
0
210
0
220
0
230
1
0
LINE
5
8B
100
AcDbEntity
8
1
62
256
6
ByLayer
370
18
48
1
60
0
100
AcDbLine
10
14.903316
20
8.837913
30
0
11
14.956524
21
8.868633
31
0
39
0
210
0
220
0
230
1
0
LINE
5
8C
100
AcDbEntity
8
1
62
256
6
ByLayer
370
18
48
1
60
0
100
AcDbLine
10
14.90365
20
8.81792
30
0
11
14.956355
21
8.848349
31
0
39
0
210
0
220
0
230
1
0
LINE
5
8D
100
AcDbEntity
8
1
62
256
6
ByLayer
370
18
48
1
60
0
100
AcDbLine
10
15.406109
20
8.527427
30
0
11
15.458814
21
8.557856
31
0
39
0
210
0
220
0
230
1
0
LINE
5
8E
100
AcDbEntity
8
1
62
256
6
ByLayer
370
18
48
1
60
0
100
AcDbLine
10
13.787044
20
8.538106
30
0
11
13.840252
21
8.568826
31
0
39
0
210
0
220
0
230
1
0
LINE
5
8F
100
AcDbEntity
8
1
62
256
6
ByLayer
370
18
48
1
60
0
100
AcDbLine
10
15.705271
20
7.42947
30
0
11
15.757976
21
7.459899
31
0
39
0
210
0
220
0
230
1
0
LINE
5
90
100
AcDbEntity
8
1
62
256
6
ByLayer
370
18
48
1
60
0
100
AcDbLine
10
15.722419
20
7.419184
30
0
11
15.775627
21
7.449904
31
0
39
0
210
0
220
0
230
1
0
LINE
5
91
100
AcDbEntity
8
1
62
256
6
ByLayer
370
18
48
1
60
0
100
AcDbLine
10
13.489519
20
7.420511
30
0
11
13.542727
21
7.45123
31
0
39
0
210
0
220
0
230
1
0
LINE
5
92
100
AcDbEntity
8
1
62
256
6
ByLayer
370
18
48
1
60
0
100
AcDbLine
10
13.788015
20
6.903502
30
0
11
13.841223
21
6.934221
31
0
39
0
210
0
220
0
230
1
0
LINE
5
93
100
AcDbEntity
8
1
62
256
6
ByLayer
370
18
48
1
60
0
100
AcDbLine
10
13.567173
20
9.545543
30
0
11
13.567122
21
9.545513
31
0
39
0
210
0
220
0
230
1
0
LINE
5
94
100
AcDbEntity
8
1
62
256
6
ByLayer
370
13
48
1
60
0
100
AcDbLine
10
9.051512
20
2.398417
30
0
11
9.051512
21
2.344568
31
0
39
0
210
0
220
0
230
1
0
LINE
5
95
100
AcDbEntity
8
1
62
256
6
ByLayer
370
13
48
1
60
0
100
AcDbLine
10
14.633021
20
2.236039
30
0
11
20.0515
21
2.23282
31
0
39
0
210
0
220
0
230
1
0
LINE
5
96
100
AcDbEntity
8
1
62
256
6
ByLayer
370
13
48
1
60
0
100
AcDbLine
10
10.820633
20
1.569499
30
0
11
10.820633
21
-5.073087
31
0
39
0
210
0
220
0
230
1
0
LINE
5
97
100
AcDbEntity
8
1
62
256
6
ByLayer
370
13
48
1
60
0
100
AcDbLine
10
7.929903
20
9.062144
30
0
11
7.91043
21
9.095872
31
0
39
0
210
0
220
0
230
1
0
LINE
5
98
100
AcDbEntity
8
1
62
256
6
ByLayer
370
13
48
1
60
0
100
AcDbLine
10
8.55458
20
1.050156
30
0
11
8.55458
21
2.61649
31
0
39
0
210
0
220
0
230
1
0
LINE
5
99
100
AcDbEntity
8
1
62
256
6
ByLayer
370
13
48
1
60
0
100
AcDbLine
10
9.051512
20
-6.493093
30
0
11
9.051512
21
-6.506489
31
0
39
0
210
0
220
0
230
1
0
LINE
5
9A
100
AcDbEntity
8
1
62
256
6
ByLayer
370
13
48
1
60
0
100
AcDbLine
10
18.306827
20
0.299107
30
0
11
17.250063
21
0.73367
31
0
39
0
210
0
220
0
230
1
0
LINE
5
9B
100
AcDbEntity
8
1
62
256
6
ByLayer
370
13
48
1
60
0
100
AcDbLine
10
19.954342
20
5.034802
30
0
11
20.0515
21
5.034745
31
0
39
0
210
0
220
0
230
1
0
LINE
5
9C
100
AcDbEntity
8
1
62
256
6
ByLayer
370
13
48
1
60
0
100
AcDbLine
10
20.0515
20
1.631905
30
0
11
20.0515
21
2.23282
31
0
39
0
210
0
220
0
230
1
0
LINE
5
9D
100
AcDbEntity
8
1
62
256
6
ByLayer
370
13
48
1
60
0
100
AcDbLine
10
14.930792
20
0.798279
30
0
11
17.250063
21
0.73367
31
0
39
0
210
0
220
0
230
1
0
LINE
5
9E
100
AcDbEntity
8
1
62
256
6
ByLayer
370
13
48
1
60
0
100
AcDbLine
10
20.0515
20
2.23282
30
0
11
20.0515
21
5.034745
31
0
39
0
210
0
220
0
230
1
0
LINE
5
9F
100
AcDbEntity
8
1
62
256
6
ByLayer
370
13
48
1
60
0
100
AcDbLine
10
19.726964
20
0.894512
30
0
11
8.789961
21
-9.12397
31
0
39
0
210
0
220
0
230
1
0
LINE
5
A0
100
AcDbEntity
8
1
62
256
6
ByLayer
370
13
48
1
60
0
100
AcDbLine
10
8.55458
20
-7.436178
30
0
11
8.55458
21
-5.426986
31
0
39
0
210
0
220
0
230
1
0
LINE
5
A1
100
AcDbEntity
8
1
62
256
6
ByLayer
370
13
48
1
60
0
100
AcDbLine
10
10.820633
20
-5.073087
30
0
11
17.250063
21
0.73367
31
0
39
0
210
0
220
0
230
1
0
LINE
5
A2
100
AcDbEntity
8
1
62
256
6
ByLayer
370
13
48
1
60
0
100
AcDbLine
10
7.96204
20
9.080699
30
0
11
7.929903
21
9.062144
31
0
39
0
210
0
220
0
230
1
0
LINE
5
A3
100
AcDbEntity
8
SK1
62
256
6
ByLayer
370
13
48
1
60
0
100
AcDbLine
10
-33.58
20
5.09215
30
0
11
-23.395
21
5.09215
31
0
39
0
210
0
220
0
230
1
0
LINE
5
A5
100
AcDbEntity
8
SK1
62
256
6
ByLayer
370
13
48
1
60
0
100
AcDbLine
10
-33.58
20
-5.09215
30
0
11
-33.58
21
5.09215
31
0
39
0
210
0
220
0
230
1
0
LINE
5
A6
100
AcDbEntity
8
SK1
62
256
6
ByLayer
370
13
48
1
60
0
100
AcDbLine
10
-23.395
20
-5.09215
30
0
11
-33.58
21
-5.09215
31
0
39
0
210
0
220
0
230
1
0
LINE
5
A7
100
AcDbEntity
8
SK1
62
256
6
ByLayer
370
13
48
1
60
0
100
AcDbLine
10
-23.395
20
-5.09215
30
0
11
-23.395
21
5.09215
31
0
39
0
210
0
220
0
230
1
0
LINE
5
A8
100
AcDbEntity
8
SK1
62
256
6
ByLayer
370
13
48
1
60
0
100
AcDbLine
10
-4.275
20
-7.93475
30
0
11
-4.275
21
7.93475
31
0
39
0
210
0
220
0
230
1
0
LINE
5
A9
100
AcDbEntity
8
1
62
256
6
ByLayer
370
13
48
1
60
0
100
AcDbLine
10
11.486882
20
4.242434
30
0
11
11.272773
21
3.441172
31
0
39
0
210
0
220
0
230
1
0
LINE
5
AA
100
AcDbEntity
8
1
62
256
6
ByLayer
370
13
48
1
60
0
100
AcDbLine
10
-4.275
20
-7.93475
30
0
11
-4.275
21
7.93475
31
0
39
0
210
0
220
0
230
1
0
LINE
5
AB
100
AcDbEntity
8
SK1
62
256
6
ByLayer
370
13
48
1
60
0
100
AcDbLine
10
-52.7
20
6.93475
30
0
11
-52.7
21
-6.93475
31
0
39
0
210
0
220
0
230
1
0
LINE
5
AC
100
AcDbEntity
8
SK1
62
256
6
ByLayer
370
13
48
1
60
0
100
AcDbLine
10
-51.7
20
7.93475
30
0
11
-51.7
21
-7.93475
31
0
39
0
210
0
220
0
230
1
0
LINE
5
AD
100
AcDbEntity
8
1
62
256
6
ByLayer
370
13
48
1
60
0
100
AcDbLine
10
0
20
7.93475
30
0
11
0
21
-7.93475
31
0
39
0
210
0
220
0
230
1
0
LINE
5
AE
100
AcDbEntity
8
1
62
256
6
ByLayer
370
13
48
1
60
0
100
AcDbLine
10
1.014677
20
8.949427
30
0
11
1.014677
21
-8.949427
31
0
39
0
210
0
220
0
230
1
0
LINE
5
AF
100
AcDbEntity
8
1
62
256
6
ByLayer
370
13
48
1
60
0
100
AcDbLine
10
1.014677
20
0.932928
30
0
11
1.014677
21
-8.949427
31
0
39
0
210
0
220
0
230
1
0
LINE
5
B0
100
AcDbEntity
8
1
62
256
6
ByLayer
370
13
48
1
60
0
100
AcDbLine
10
1.36823
20
-9.095874
30
0
11
1.36823
21
9.095874
31
0
39
0
210
0
220
0
230
1
0
LINE
5
B1
100
AcDbEntity
8
1
62
256
6
ByLayer
370
13
48
1
60
0
100
AcDbLine
10
1.36823
20
0.948195
30
0
11
1.36823
21
9.095874
31
0
39
0
210
0
220
0
230
1
0
LINE
5
B2
100
AcDbEntity
8
1
62
256
6
ByLayer
370
13
48
1
60
0
100
AcDbLine
10
8.55458
20
-9.064261
30
0
11
8.55458
21
-9.095874
31
0
39
0
210
0
220
0
230
1
0
LINE
5
B3
100
AcDbEntity
8
81
62
256
6
ByLayer
370
18
48
1
60
0
100
AcDbLine
10
20.5015
20
6.604
30
0
11
25.5015
21
6.604
31
0
39
0
210
0
220
0
230
1
0
LINE
5
B4
100
AcDbEntity
8
SK4
62
256
6
ByLayer
370
18
48
0.05
60
0
100
AcDbLine
10
-57.7
20
0
30
0
11
25.5015
21
0
31
0
39
0
210
0
220
0
230
1
0
LINE
5
B6
100
AcDbEntity
8
80
62
256
6
ByLayer
370
18
48
1
60
0
100
AcDbLine
10
0
20
0
30
0
11
-5
21
0
31
0
39
0
210
0
220
0
230
1
0
LINE
5
B7
100
AcDbEntity
8
1
62
256
6
ByLayer
370
13
48
1
60
0
100
AcDbLine
10
-4.275
20
-7.93475
30
0
11
0
21
-7.93475
31
0
39
0
210
0
220
0
230
1
0
LINE
5
B8
100
AcDbEntity
8
1
62
256
6
ByLayer
370
13
48
1
60
0
100
AcDbLine
10
0
20
7.93475
30
0
11
-4.275
21
7.93475
31
0
39
0
210
0
220
0
230
1
0
LINE
5
B9
100
AcDbEntity
8
SK1
62
256
6
ByLayer
370
13
48
1
60
0
100
AcDbLine
10
-52.7
20
-6.93475
30
0
11
-51.7
21
-7.93475
31
0
39
0
210
0
220
0
230
1
0
LINE
5
BA
100
AcDbEntity
8
SK1
62
256
6
ByLayer
370
13
48
1
60
0
100
AcDbLine
10
-51.7
20
7.93475
30
0
11
-52.7
21
6.93475
31
0
39
0
210
0
220
0
230
1
0
LINE
5
BB
100
AcDbEntity
8
SK1
62
256
6
ByLayer
370
13
48
1
60
0
100
AcDbLine
10
-51.7
20
-7.93475
30
0
11
-4.275
21
-7.93475
31
0
39
0
210
0
220
0
230
1
0
LINE
5
BC
100
AcDbEntity
8
SK1
62
256
6
ByLayer
370
13
48
1
60
0
100
AcDbLine
10
-4.275
20
7.93475
30
0
11
-51.7
21
7.93475
31
0
39
0
210
0
220
0
230
1
0
LINE
5
BD
100
AcDbEntity
8
1
62
256
6
ByLayer
370
13
48
1
60
0
100
AcDbLine
10
0
20
-7.93475
30
0
11
1.014677
21
-8.949427
31
0
39
0
210
0
220
0
230
1
0
LINE
5
BE
100
AcDbEntity
8
1
62
256
6
ByLayer
370
13
48
1
60
0
100
AcDbLine
10
1.014677
20
8.949427
30
0
11
0
21
7.93475
31
0
39
0
210
0
220
0
230
1
0
LINE
5
BF
100
AcDbEntity
8
1
62
256
6
ByLayer
370
13
48
1
60
0
100
AcDbLine
10
1.36823
20
-9.095874
30
0
11
8.55458
21
-9.095874
31
0
39
0
210
0
220
0
230
1
0
LINE
5
C0
100
AcDbEntity
8
1
62
256
6
ByLayer
370
13
48
1
60
0
100
AcDbLine
10
7.910872
20
9.095874
30
0
11
1.36823
21
9.095874
31
0
39
0
210
0
220
0
230
1
0
LINE
5
C1
100
AcDbEntity
8
1
62
256
6
ByLayer
370
18
48
1
60
0
100
AcDbLine
10
15.667122
20
5.908206
30
0
11
15.700554
21
5.927508
31
0
39
0
210
0
220
0
230
1
0
LINE
5
C2
100
AcDbEntity
8
1
62
256
6
ByLayer
370
18
48
1
60
0
100
AcDbLine
10
13.600554
20
9.564815
30
0
11
13.567122
21
9.545513
31
0
39
0
210
0
220
0
230
1
0
LINE
5
C3
100
AcDbEntity
8
1
62
256
6
ByLayer
370
18
48
1
60
0
100
AcDbLine
10
14.108591
20
8.581493
30
0
11
14.157536
21
8.609752
31
0
39
0
210
0
220
0
230
1
0
LINE
5
C4
100
AcDbEntity
8
1
62
256
6
ByLayer
370
18
48
1
60
0
100
AcDbLine
10
15.151936
20
6.8874
30
0
11
15.102991
21
6.859142
31
0
39
0
210
0
220
0
230
1
0
LINE
5
C5
100
AcDbEntity
8
4
62
256
6
ByLayer
370
18
48
0.05
60
0
100
AcDbLine
10
0
20
0
30
0
11
25.5015
21
0
31
0
39
0
210
0
220
0
230
1
0
LINE
5
C7
100
AcDbEntity
8
SK2
62
256
6
ByLayer
370
13
48
1
60
0
100
AcDbLine
10
16.00775
20
14.387403
30
0
11
12.011663
21
21.308829
31
0
39
0
210
0
220
0
230
1
0
LINE
5
C9
100
AcDbEntity
8
SK2
62
256
6
ByLayer
370
13
48
1
60
0
100
AcDbLine
10
20.5015
20
8.1915
30
0
11
20.5015
21
23.583674
31
0
39
0
210
0
220
0
230
1
0
LINE
5
CA
100
AcDbEntity
8
1
62
256
6
ByLayer
370
13
48
1
60
0
100
AcDbLine
10
13.599163
20
18.559198
30
0
11
16.247174
21
20.360135
31
0
39
0
210
0
220
0
230
1
0
LINE
5
CB
100
AcDbEntity
8
1
62
256
6
ByLayer
370
13
48
1
60
0
100
AcDbLine
10
13.599163
20
18.559198
30
0
11
16.623065
21
19.613415
31
0
39
0
210
0
220
0
230
1
0
LINE
5
CC
100
AcDbEntity
8
1
62
256
6
ByLayer
370
13
48
1
60
0
100
AcDbLine
10
16.247174
20
20.360135
30
0
11
16.623065
21
19.613415
31
0
39
0
210
0
220
0
230
1
0
LINE
5
CD
100
AcDbEntity
8
1
62
256
6
ByLayer
370
13
48
1
60
0
100
AcDbLine
10
20.5015
20
20.408674
30
0
11
17.355619
21
19.809701
31
0
39
0
210
0
220
0
230
1
0
LINE
5
CE
100
AcDbEntity
8
1
62
256
6
ByLayer
370
13
48
1
60
0
100
AcDbLine
10
20.5015
20
20.408674
30
0
11
17.307784
21
20.644325
31
0
39
0
210
0
220
0
230
1
0
LINE
5
CF
100
AcDbEntity
8
1
62
256
6
ByLayer
370
13
48
1
60
0
100
AcDbLine
10
17.355619
20
19.809701
30
0
11
17.307784
21
20.644325
31
0
39
0
210
0
220
0
230
1
0
MTEXT
5
168
100
AcDbEntity
8
SK2
62
256
6
ByLayer
370
18
48
1
60
0
100
AcDbMText
10
27.127367
20
21.102906
30
0
210
0
220
0
230
1
1
\W0.9771;30%%d
40
4.5
41
0
44
1.084337
50
318.379106207052
71
7
72
5
7
iso_b_vert
0
MTEXT
5
16B
100
AcDbEntity
8
SK6
62
256
6
ByLayer
370
18
48
1
60
0
100
AcDbMText
10
-114.887403
20
-17.627828
30
0
210
0
220
0
230
1
1
\W0.7472;A495-013M16-3009L
40
4
41
0
44
1.084337
50
89.9999999999998
71
7
72
5
7
iso_b_vert
0
DIMENSION
5
16E
100
AcDbEntity
8
2
62
256
6
ByLayer
370
18
48
1
60
0
100
AcDbDimension
2
_U0
10
45.398375
20
6.604
30
0
11
45.398375
21
29.257395
31
0
70
32
71
1
72
1
41
1
210
0
220
0
230
1
3
Standard
100
AcDbAlignedDimension
13
20.5015
23
-6.604
33
0
14
20.5015
24
6.604
34
0
50
90
100
AcDbRotatedDimension
1001
ACAD
1000
DSTYLE
1002
{
1070
   371
1070
    13
1070
   372
1070
    13
1070
   170
1070
     0
1070
   144
1040
1.0
1070
   277
1070
     2
1070
   284
1070
     8
1070
   278
1070
    46
1070
   146
1040
0.777778
1070
   345
1005
16
1070
   347
1005
16
1070
   346
1005
16
1070
   344
1005
16F
1070
   343
1005
16F
1070
   172
1070
     1
1070
    76
1070
     0
1070
    75
1070
     0
1070
   282
1070
     0
1070
   281
1070
     0
1070
    71
1070
     0
1070
    74
1070
     0
1070
   279
1070
     0
1070
   173
1070
     1
1070
   340
1005
169
1070
   271
1070
     2
1070
   272
1070
     2
1070
    77
1070
     1
1070
    73
1070
     0
1070
   171
1070
     3
1070
   274
1070
     4
1070
   177
1070
   150
1070
   176
1070
     9
1070
   178
1070
    43
1070
    78
1070
     8
1070
    48
1040
-0.1
1070
    41
1040
3.175
1070
   147
1040
2.25
1070
    42
1040
1.5875
1070
    44
1040
3.175
1070
   140
1040
4.5
1002
}
1001
ACAD_DSTYLE_DIM_LINETYPE
1070
   380
1005
16
1001
ACAD_DSTYLE_DIM_EXT1_LINETYPE
1070
   381
1005
16
1001
ACAD_DSTYLE_DIM_EXT2_LINETYPE
1070
   382
1005
16
0
DIMENSION
5
196
100
AcDbEntity
8
SK2
62
256
6
ByLayer
370
18
48
1
60
0
100
AcDbDimension
2
_U1
10
-0.0013
20
-31.104
30
0
11
10.2501
21
-31.104
31
0
70
32
71
1
72
1
41
1
210
0
220
0
230
1
3
Standard
100
AcDbAlignedDimension
13
20.5015
23
-6.604
33
0
14
-0.0013
24
0
34
0
50
0
100
AcDbRotatedDimension
1001
ACAD
1000
DSTYLE
1002
{
1070
   371
1070
    13
1070
   372
1070
    13
1070
   170
1070
     0
1070
   144
1040
1.0
1070
   277
1070
     2
1070
   284
1070
     8
1070
   278
1070
    46
1070
   146
1040
0.777778
1070
   345
1005
16
1070
   347
1005
16
1070
   346
1005
16
1070
   344
1005
16F
1070
   343
1005
16F
1070
   172
1070
     1
1070
    76
1070
     0
1070
    75
1070
     0
1070
   282
1070
     0
1070
   281
1070
     0
1070
    71
1070
     0
1070
    74
1070
     0
1070
   279
1070
     0
1070
   173
1070
     1
1070
   340
1005
169
1070
   271
1070
     2
1070
   272
1070
     2
1070
    77
1070
     1
1070
    73
1070
     1
1070
   171
1070
     3
1070
   274
1070
     4
1070
   177
1070
   150
1070
   176
1070
     9
1070
   178
1070
    43
1070
    78
1070
     8
1070
    48
1040
-0.1
1070
    41
1040
3.175
1070
   147
1040
2.25
1070
    42
1040
1.5875
1070
    44
1040
3.175
1070
   140
1040
4.5
1002
}
1001
ACAD_DSTYLE_DIM_LINETYPE
1070
   380
1005
16
1001
ACAD_DSTYLE_DIM_EXT1_LINETYPE
1070
   381
1005
16
1001
ACAD_DSTYLE_DIM_EXT2_LINETYPE
1070
   382
1005
16
0
DIMENSION
5
1B3
100
AcDbEntity
8
2
62
256
6
ByLayer
370
18
48
1
60
0
100
AcDbDimension
2
_U2
10
20.5015
20
27.104
30
0
11
-16.09925
21
27.104
31
0
70
32
71
1
72
1
41
1
210
0
220
0
230
1
3
Standard
100
AcDbAlignedDimension
13
-52.7
23
7.93475
33
0
14
20.5015
24
6.604
34
0
50
0
100
AcDbRotatedDimension
1001
ACAD
1000
DSTYLE
1002
{
1070
   371
1070
    13
1070
   372
1070
    13
1070
   170
1070
     0
1070
   144
1040
1.0
1070
   277
1070
     2
1070
   284
1070
     8
1070
   278
1070
    46
1070
   146
1040
0.777778
1070
   345
1005
16
1070
   347
1005
16
1070
   346
1005
16
1070
   344
1005
16F
1070
   343
1005
16F
1070
   172
1070
     1
1070
    76
1070
     0
1070
    75
1070
     0
1070
   282
1070
     0
1070
   281
1070
     0
1070
    71
1070
     0
1070
    74
1070
     0
1070
   279
1070
     0
1070
   173
1070
     1
1070
   340
1005
169
1070
   271
1070
     2
1070
   272
1070
     2
1070
    77
1070
     1
1070
    73
1070
     1
1070
   171
1070
     3
1070
   274
1070
     4
1070
   177
1070
   150
1070
   176
1070
     9
1070
   178
1070
    43
1070
    78
1070
     8
1070
    48
1040
-0.1
1070
    41
1040
3.175
1070
   147
1040
2.25
1070
    42
1040
1.5875
1070
    44
1040
3.175
1070
   140
1040
4.5
1002
}
1001
ACAD_DSTYLE_DIM_LINETYPE
1070
   380
1005
16
1001
ACAD_DSTYLE_DIM_EXT1_LINETYPE
1070
   381
1005
16
1001
ACAD_DSTYLE_DIM_EXT2_LINETYPE
1070
   382
1005
16
0
DIMENSION
5
1CF
100
AcDbEntity
8
SK2
62
256
6
ByLayer
370
18
48
1
60
0
100
AcDbDimension
2
_U3
10
15.9925
20
17.104
30
0
11
-18.35375
21
17.104
31
0
70
32
71
1
72
1
41
1
210
0
220
0
230
1
3
Standard
100
AcDbAlignedDimension
13
-52.7
23
7.93475
33
0
14
15.9925
24
13.595
34
0
50
0
100
AcDbRotatedDimension
1001
ACAD
1000
DSTYLE
1002
{
1070
   371
1070
    13
1070
   372
1070
    13
1070
   170
1070
     0
1070
   144
1040
1.0
1070
   277
1070
     2
1070
   284
1070
     8
1070
   278
1070
    46
1070
   146
1040
0.777778
1070
   345
1005
16
1070
   347
1005
16
1070
   346
1005
16
1070
   344
1005
16F
1070
   343
1005
16F
1070
   172
1070
     1
1070
    76
1070
     0
1070
    75
1070
     0
1070
   282
1070
     0
1070
   281
1070
     0
1070
    71
1070
     0
1070
    74
1070
     0
1070
   279
1070
     0
1070
   173
1070
     1
1070
   340
1005
169
1070
   271
1070
     2
1070
   272
1070
     2
1070
    77
1070
     1
1070
    73
1070
     1
1070
   171
1070
     3
1070
   274
1070
     4
1070
   177
1070
   150
1070
   176
1070
     9
1070
   178
1070
    43
1070
    78
1070
     8
1070
    48
1040
-0.1
1070
    41
1040
3.175
1070
   147
1040
2.25
1070
    42
1040
1.5875
1070
    44
1040
3.175
1070
   140
1040
4.5
1002
}
1001
ACAD_DSTYLE_DIM_LINETYPE
1070
   380
1005
16
1001
ACAD_DSTYLE_DIM_EXT1_LINETYPE
1070
   381
1005
16
1001
ACAD_DSTYLE_DIM_EXT2_LINETYPE
1070
   382
1005
16
0
DIMENSION
5
1EB
100
AcDbEntity
8
SK2
62
256
6
ByLayer
370
18
48
1
60
0
100
AcDbDimension
2
_U4
10
56.2515
20
13.595
30
0
11
56.2515
21
36.979534
31
0
70
32
71
1
72
1
41
1
210
0
220
0
230
1
3
Standard
100
AcDbAlignedDimension
13
15.9925
23
-13.595
33
0
14
15.9925
24
13.595
34
0
50
90
100
AcDbRotatedDimension
1001
ACAD
1000
DSTYLE
1002
{
1070
   371
1070
    13
1070
   372
1070
    13
1070
   170
1070
     0
1070
   144
1040
1.0
1070
   277
1070
     2
1070
   284
1070
     8
1070
   278
1070
    46
1070
   146
1040
0.777778
1070
   345
1005
16
1070
   347
1005
16
1070
   346
1005
16
1070
   344
1005
16F
1070
   343
1005
16F
1070
   172
1070
     1
1070
    76
1070
     0
1070
    75
1070
     0
1070
   282
1070
     0
1070
   281
1070
     0
1070
    71
1070
     0
1070
    74
1070
     0
1070
   279
1070
     0
1070
   173
1070
     1
1070
   340
1005
169
1070
   271
1070
     2
1070
   272
1070
     2
1070
    77
1070
     1
1070
    73
1070
     0
1070
   171
1070
     3
1070
   274
1070
     4
1070
   177
1070
   150
1070
   176
1070
     9
1070
   178
1070
    43
1070
    78
1070
     8
1070
    48
1040
-0.1
1070
    41
1040
3.175
1070
   147
1040
2.25
1070
    42
1040
1.5875
1070
    44
1040
3.175
1070
   140
1040
4.5
1002
}
1001
ACAD_DSTYLE_DIM_LINETYPE
1070
   380
1005
16
1001
ACAD_DSTYLE_DIM_EXT1_LINETYPE
1070
   381
1005
16
1001
ACAD_DSTYLE_DIM_EXT2_LINETYPE
1070
   382
1005
16
0
DIMENSION
5
209
100
AcDbEntity
8
SK2
62
256
6
ByLayer
370
18
48
1
60
0
100
AcDbDimension
2
_U5
10
-77.803125
20
-7.93475
30
0
11
-77.803125
21
31.319284
31
0
70
32
71
1
72
1
41
1
210
0
220
0
230
1
3
Standard
100
AcDbAlignedDimension
13
-52.7
23
7.93475
33
0
14
-52.7
24
-7.93475
34
0
50
90
100
AcDbRotatedDimension
1001
ACAD
1000
DSTYLE
1002
{
1070
   371
1070
    13
1070
   372
1070
    13
1070
   170
1070
     0
1070
   144
1040
1.0
1070
   277
1070
     2
1070
   284
1070
     8
1070
   278
1070
    46
1070
   146
1040
0.777778
1070
   345
1005
16
1070
   347
1005
16
1070
   346
1005
16
1070
   344
1005
16F
1070
   343
1005
16F
1070
   172
1070
     1
1070
    76
1070
     0
1070
    75
1070
     0
1070
   282
1070
     0
1070
   281
1070
     0
1070
    71
1070
     0
1070
    74
1070
     0
1070
   279
1070
     0
1070
   173
1070
     1
1070
   340
1005
169
1070
   271
1070
     2
1070
   272
1070
     2
1070
    77
1070
     1
1070
    73
1070
     0
1070
   171
1070
     3
1070
   274
1070
     4
1070
   177
1070
   150
1070
   176
1070
     9
1070
   178
1070
    43
1070
    78
1070
     8
1070
    48
1040
-0.1
1070
    41
1040
3.175
1070
   147
1040
2.25
1070
    42
1040
1.5875
1070
    44
1040
3.175
1070
   140
1040
4.5
1002
}
1001
ACAD_DSTYLE_DIM_LINETYPE
1070
   380
1005
16
1001
ACAD_DSTYLE_DIM_EXT1_LINETYPE
1070
   381
1005
16
1001
ACAD_DSTYLE_DIM_EXT2_LINETYPE
1070
   382
1005
16
0
ENDSEC
0
SECTION
2
OBJECTS
0
DICTIONARY
5
298
330
0
100
AcDbDictionary
280
0
281
1
3
ACAD_GROUP
350
299
3
ACAD_MLINESTYLE
350
29a
0
DICTIONARY
5
299
330
0
100
AcDbDictionary
280
0
281
1
0
DICTIONARY
5
29a
330
0
100
AcDbDictionary
280
0
281
1
3
Standard
350
18
0
MLINESTYLE
5
18
330
29a
100
AcDbMlineStyle
2
Standard
70
0
3

62
256
51
90
52
90
71
2
49
-0.5
62
256
6
ByLayer
49
0.5
62
256
6
ByLayer
0
RASTERVARIABLES
5
286
330

100
AcDbRasterVariables
90
0
70
1
71
1
72
1
0
ENDSEC
0
EOF
