  0
SECTION
  2
HEADER
  9
$ACADVER
  1
AC1015
  9
$ACADMAINTVER
 70
    20
  9
$DWGCODEPAGE
  3
ANSI_1252
  9
$INSBASE
 10
0.0
 20
0.0
 30
0.0
  9
$EXTMIN
 10
-89.89207400000001
 20
-30.509233
 30
0.0
  9
$EXTMAX
 10
34.317675
 20
41.71381699999998
 30
0.0
  9
$LIMMIN
 10
0.0
 20
0.0
  9
$LIMMAX
 10
12.0
 20
9.0
  9
$ORTHOMODE
 70
     0
  9
$REGENMODE
 70
     1
  9
$FILLMODE
 70
     1
  9
$QTEXTMODE
 70
     0
  9
$MIRRTEXT
 70
     0
  9
$LTSCALE
 40
1.0
  9
$ATTMODE
 70
     1
  9
$TEXTSIZE
 40
0.0
  9
$TRACEWID
 40
0.05
  9
$TEXTSTYLE
  7
Standard
  9
$CLAYER
  8
0
  9
$CELTYPE
  6
ByLayer
  9
$CECOLOR
 62
   256
  9
$CELTSCALE
 40
1.0
  9
$DISPSILH
 70
     0
  9
$DIMSCALE
 40
1.0
  9
$DIMASZ
 40
0.18
  9
$DIMEXO
 40
0.0625
  9
$DIMDLI
 40
0.38
  9
$DIMRND
 40
0.0
  9
$DIMDLE
 40
0.0
  9
$DIMEXE
 40
0.18
  9
$DIMTP
 40
0.0
  9
$DIMTM
 40
0.0
  9
$DIMTXT
 40
0.18
  9
$DIMCEN
 40
0.09
  9
$DIMTSZ
 40
0.0
  9
$DIMTOL
 70
     0
  9
$DIMLIM
 70
     0
  9
$DIMTIH
 70
     1
  9
$DIMTOH
 70
     1
  9
$DIMSE1
 70
     0
  9
$DIMSE2
 70
     0
  9
$DIMTAD
 70
     0
  9
$DIMZIN
 70
     0
  9
$DIMBLK
  1

  9
$DIMASO
 70
     1
  9
$DIMSHO
 70
     1
  9
$DIMPOST
  1

  9
$DIMAPOST
  1

  9
$DIMALT
 70
     0
  9
$DIMALTD
 70
     2
  9
$DIMALTF
 40
25.4
  9
$DIMLFAC
 40
1.0
  9
$DIMTOFL
 70
     0
  9
$DIMTVP
 40
0.0
  9
$DIMTIX
 70
     0
  9
$DIMSOXD
 70
     0
  9
$DIMSAH
 70
     0
  9
$DIMBLK1
  1

  9
$DIMBLK2
  1

  9
$DIMSTYLE
  2
Standard
  9
$DIMCLRD
 70
     0
  9
$DIMCLRE
 70
     0
  9
$DIMCLRT
 70
     0
  9
$DIMTFAC
 40
1.0
  9
$DIMGAP
 40
0.09
  9
$DIMJUST
 70
     0
  9
$DIMSD1
 70
     0
  9
$DIMSD2
 70
     0
  9
$DIMTOLJ
 70
     1
  9
$DIMTZIN
 70
     0
  9
$DIMALTZ
 70
     0
  9
$DIMALTTZ
 70
     0
  9
$DIMUPT
 70
     0
  9
$DIMDEC
 70
     4
  9
$DIMTDEC
 70
     4
  9
$DIMALTU
 70
     2
  9
$DIMALTTD
 70
     2
  9
$DIMTXSTY
  7
Standard
  9
$DIMAUNIT
 70
     0
  9
$DIMADEC
 70
     0
  9
$DIMALTRND
 40
0.0
  9
$DIMAZIN
 70
     0
  9
$DIMDSEP
 70
    46
  9
$DIMATFIT
 70
     3
  9
$DIMFRAC
 70
     0
  9
$DIMLDRBLK
  1

  9
$DIMLUNIT
 70
     2
  9
$DIMLWD
 70
    -2
  9
$DIMLWE
 70
    -2
  9
$DIMTMOVE
 70
     0
  9
$LUNITS
 70
     2
  9
$LUPREC
 70
     4
  9
$SKETCHINC
 40
0.1
  9
$FILLETRAD
 40
0.0
  9
$AUNITS
 70
     0
  9
$AUPREC
 70
     0
  9
$MENU
  1
.
  9
$ELEVATION
 40
0.0
  9
$PELEVATION
 40
0.0
  9
$THICKNESS
 40
0.0
  9
$LIMCHECK
 70
     0
  9
$CHAMFERA
 40
0.0
  9
$CHAMFERB
 40
0.0
  9
$CHAMFERC
 40
0.0
  9
$CHAMFERD
 40
0.0
  9
$SKPOLY
 70
     0
  9
$TDCREATE
 40
2456818.987042049
  9
$TDUCREATE
 40
2456818.903708716
  9
$TDUPDATE
 40
2456818.987048704
  9
$TDUUPDATE
 40
2456818.903715370
  9
$TDINDWG
 40
0.0000075810
  9
$TDUSRTIMER
 40
0.0000075810
  9
$USRTIMER
 70
     1
  9
$ANGBASE
 50
0.0
  9
$ANGDIR
 70
     0
  9
$PDMODE
 70
     0
  9
$PDSIZE
 40
0.0
  9
$PLINEWID
 40
0.0
  9
$SPLFRAME
 70
     0
  9
$SPLINETYPE
 70
     6
  9
$SPLINESEGS
 70
     8
  9
$HANDSEED
  5
241
  9
$SURFTAB1
 70
     6
  9
$SURFTAB2
 70
     6
  9
$SURFTYPE
 70
     6
  9
$SURFU
 70
     6
  9
$SURFV
 70
     6
  9
$UCSBASE
  2

  9
$UCSNAME
  2

  9
$UCSORG
 10
0.0
 20
0.0
 30
0.0
  9
$UCSXDIR
 10
1.0
 20
0.0
 30
0.0
  9
$UCSYDIR
 10
0.0
 20
1.0
 30
0.0
  9
$UCSORTHOREF
  2

  9
$UCSORTHOVIEW
 70
     0
  9
$UCSORGTOP
 10
0.0
 20
0.0
 30
0.0
  9
$UCSORGBOTTOM
 10
0.0
 20
0.0
 30
0.0
  9
$UCSORGLEFT
 10
0.0
 20
0.0
 30
0.0
  9
$UCSORGRIGHT
 10
0.0
 20
0.0
 30
0.0
  9
$UCSORGFRONT
 10
0.0
 20
0.0
 30
0.0
  9
$UCSORGBACK
 10
0.0
 20
0.0
 30
0.0
  9
$PUCSBASE
  2

  9
$PUCSNAME
  2

  9
$PUCSORG
 10
0.0
 20
0.0
 30
0.0
  9
$PUCSXDIR
 10
1.0
 20
0.0
 30
0.0
  9
$PUCSYDIR
 10
0.0
 20
1.0
 30
0.0
  9
$PUCSORTHOREF
  2

  9
$PUCSORTHOVIEW
 70
     0
  9
$PUCSORGTOP
 10
0.0
 20
0.0
 30
0.0
  9
$PUCSORGBOTTOM
 10
0.0
 20
0.0
 30
0.0
  9
$PUCSORGLEFT
 10
0.0
 20
0.0
 30
0.0
  9
$PUCSORGRIGHT
 10
0.0
 20
0.0
 30
0.0
  9
$PUCSORGFRONT
 10
0.0
 20
0.0
 30
0.0
  9
$PUCSORGBACK
 10
0.0
 20
0.0
 30
0.0
  9
$USERI1
 70
     0
  9
$USERI2
 70
     0
  9
$USERI3
 70
     0
  9
$USERI4
 70
     0
  9
$USERI5
 70
     0
  9
$USERR1
 40
0.0
  9
$USERR2
 40
0.0
  9
$USERR3
 40
0.0
  9
$USERR4
 40
0.0
  9
$USERR5
 40
0.0
  9
$WORLDVIEW
 70
     1
  9
$SHADEDGE
 70
     3
  9
$SHADEDIF
 70
    70
  9
$TILEMODE
 70
     1
  9
$MAXACTVP
 70
    64
  9
$PINSBASE
 10
0.0
 20
0.0
 30
0.0
  9
$PLIMCHECK
 70
     0
  9
$PEXTMIN
 10
1.000000000000000E+20
 20
1.000000000000000E+20
 30
1.000000000000000E+20
  9
$PEXTMAX
 10
-1.000000000000000E+20
 20
-1.000000000000000E+20
 30
-1.000000000000000E+20
  9
$PLIMMIN
 10
0.0
 20
0.0
  9
$PLIMMAX
 10
12.0
 20
9.0
  9
$UNITMODE
 70
     0
  9
$VISRETAIN
 70
     1
  9
$PLINEGEN
 70
     0
  9
$PSLTSCALE
 70
     1
  9
$TREEDEPTH
 70
  3020
  9
$CMLSTYLE
  2
Standard
  9
$CMLJUST
 70
     0
  9
$CMLSCALE
 40
1.0
  9
$PROXYGRAPHICS
 70
     1
  9
$MEASUREMENT
 70
     0
  9
$CELWEIGHT
370
    -1
  9
$ENDCAPS
280
     0
  9
$JOINSTYLE
280
     0
  9
$LWDISPLAY
290
     0
  9
$INSUNITS
 70
     4
  9
$HYPERLINKBASE
  1

  9
$STYLESHEET
  1

  9
$XEDIT
290
     1
  9
$CEPSNTYPE
380
     0
  9
$PSTYLEMODE
290
     1
  9
$FINGERPRINTGUID
  2
{105F9FA3-1B35-49EC-95E1-6D8961057761}
  9
$VERSIONGUID
  2
{0E66C2BE-D1F7-4367-9D9F-E7057FF93755}
  9
$EXTNAMES
290
     1
  9
$PSVPSCALE
 40
0.0
  9
$OLESTARTUP
290
     0
  0
ENDSEC
  0
SECTION
  2
CLASSES
  0
CLASS
  1
RASTERVARIABLES
  2
AcDbRasterVariables
  3
ISM
 90
        0
280
     0
281
     0
  0
CLASS
  1
ACDBDICTIONARYWDFLT
  2
AcDbDictionaryWithDefault
  3
ObjectDBX Classes
 90
        0
280
     0
281
     0
  0
CLASS
  1
MATERIAL
  2
AcDbMaterial
  3
ObjectDBX Classes
 90
     1153
280
     0
281
     0
  0
CLASS
  1
VISUALSTYLE
  2
AcDbVisualStyle
  3
ObjectDBX Classes
 90
     4095
280
     0
281
     0
  0
CLASS
  1
TABLESTYLE
  2
AcDbTableStyle
  3
ObjectDBX Classes
 90
     4095
280
     0
281
     0
  0
CLASS
  1
SCALE
  2
AcDbScale
  3
ObjectDBX Classes
 90
     1153
280
     0
281
     0
  0
CLASS
  1
MLEADERSTYLE
  2
AcDbMLeaderStyle
  3
ACDB_MLEADERSTYLE_CLASS
 90
     4095
280
     0
281
     0
  0
CLASS
  1
ACDBSECTIONVIEWSTYLE
  2
AcDbSectionViewStyle
  3
ObjectDBX Classes
 90
     1025
280
     0
281
     0
  0
CLASS
  1
ACDBDETAILVIEWSTYLE
  2
AcDbDetailViewStyle
  3
ObjectDBX Classes
 90
     1025
280
     0
281
     0
  0
CLASS
  1
EXACXREFPANELOBJECT
  2
ExAcXREFPanelObject
  3
EXAC_ESW
 90
     1025
280
     0
281
     0
  0
CLASS
  1
NPOCOLLECTION
  2
AcDbImpNonPersistentObjectsCollection
  3
ObjectDBX Classes
 90
     1153
280
     0
281
     0
  0
CLASS
  1
DICTIONARYVAR
  2
AcDbDictionaryVar
  3
ObjectDBX Classes
 90
        0
280
     0
281
     0
  0
CLASS
  1
CELLSTYLEMAP
  2
AcDbCellStyleMap
  3
ObjectDBX Classes
 90
     1152
280
     0
281
     0
  0
CLASS
  1
ACDBPLACEHOLDER
  2
AcDbPlaceHolder
  3
ObjectDBX Classes
 90
        0
280
     0
281
     0
  0
CLASS
  1
LAYOUT
  2
AcDbLayout
  3
ObjectDBX Classes
 90
        0
280
     0
281
     0
  0
ENDSEC
  0
SECTION
  2
TABLES
  0
TABLE
  2
VPORT
  5
180
330
0
100
AcDbSymbolTable
 70
     1
  0
VPORT
  5
1
330
180
100
AcDbSymbolTableRecord
100
AcDbViewportTableRecord
  2
*Active
 70
     0
 10
0.0
 20
0.0
 11
1.0
 21
1.0
 12
-27.7871995
 22
5.602291999999994
 13
0.0
 23
0.0
 14
0.5
 24
0.5
 15
10.0
 25
10.0
 16
0.0
 26
0.0
 36
1.0
 17
0.0
 27
0.0
 37
0.0
 40
80.82377472089312
 41
2.220359281437125
 42
50.0
 43
0.0
 44
0.0
 50
0.0
 51
0.0
 71
     0
 72
   100
 73
     1
 74
     1
 75
     0
 76
     0
 77
     0
 78
     0
281
     0
 65
     1
110
0.0
120
0.0
130
0.0
111
1.0
121
0.0
131
0.0
112
0.0
122
1.0
132
0.0
 79
     0
146
0.0
1001
ACAD_NAV_VCDISPLAY
1070
     3
  0
ENDTAB
  0
TABLE
  2
LTYPE
  5
181
330
0
100
AcDbSymbolTable
 70
     8
  0
LTYPE
  5
14
330
181
100
AcDbSymbolTableRecord
100
AcDbLinetypeTableRecord
  2
ByBlock
 70
     0
  3

 72
    65
 73
     0
 40
0.0
  0
LTYPE
  5
15
330
181
100
AcDbSymbolTableRecord
100
AcDbLinetypeTableRecord
  2
ByLayer
 70
     0
  3

 72
    65
 73
     0
 40
0.0
  0
LTYPE
  5
16
330
181
100
AcDbSymbolTableRecord
100
AcDbLinetypeTableRecord
  2
CONTINUOUS
 70
     0
  3
Solid line
 72
    65
 73
     0
 40
0.0
  0
LTYPE
  5
3C
330
181
100
AcDbSymbolTableRecord
100
AcDbLinetypeTableRecord
  2
DASHED
 70
     0
  3
__ __ __ __ __ __ __ __ __
 72
    65
 73
     2
 40
25.72
 49
12.86
 74
     0
 49
-12.86
 74
     0
  0
LTYPE
  5
3D
330
181
100
AcDbSymbolTableRecord
100
AcDbLinetypeTableRecord
  2
HIDDEN
 70
     0
  3
_ _ _ _ _ _ _ _ _ _ _ _ _ _ _
 72
    65
 73
     2
 40
0.5
 49
0.25
 74
     0
 49
-0.25
 74
     0
  0
LTYPE
  5
3E
330
181
100
AcDbSymbolTableRecord
100
AcDbLinetypeTableRecord
  2
PHANTOM
 70
     0
  3
____ _ _ ____ _ _ _____ _ _ ____
 72
    65
 73
     6
 40
50.5
 49
18.0
 74
     0
 49
-6.5
 74
     0
 49
6.5
 74
     0
 49
-6.5
 74
     0
 49
6.5
 74
     0
 49
-6.5
 74
     0
  0
LTYPE
  5
3F
330
181
100
AcDbSymbolTableRecord
100
AcDbLinetypeTableRecord
  2
CENTER
 70
     0
  3
____ _ ____ _ ____ _ ____
 72
    65
 73
     4
 40
47.5
 49
22.0
 74
     0
 49
-8.5
 74
     0
 49
8.5
 74
     0
 49
-8.5
 74
     0
  0
LTYPE
  5
40
330
181
100
AcDbSymbolTableRecord
100
AcDbLinetypeTableRecord
  2
DOT
 70
     0
  3
.........................
 72
    65
 73
     2
 40
10.0
 49
0.0
 74
     0
 49
-10.0
 74
     0
  0
LTYPE
  5
41
330
181
100
AcDbSymbolTableRecord
100
AcDbLinetypeTableRecord
  2
DASHDOT
 70
     0
  3
_._._._._._._._._._._._._._._._.
 72
    65
 73
     4
 40
70.0
 49
31.0
 74
     0
 49
-13.0
 74
     0
 49
13.0
 74
     0
 49
-13.0
 74
     0
  0
LTYPE
  5
1D8
330
181
100
AcDbSymbolTableRecord
100
AcDbLinetypeTableRecord
  2
PHANTOM2
 70
     0
  3
Phantom (.5x) ___ _ _ ___ _ _ ___ _ _ ___ _ _
 72
    65
 73
     6
 40
1.25
 49
0.625
 74
     0
 49
-0.125
 74
     0
 49
0.125
 74
     0
 49
-0.125
 74
     0
 49
0.125
 74
     0
 49
-0.125
 74
     0
  0
ENDTAB
  0
TABLE
  2
LAYER
  5
182
330
0
100
AcDbSymbolTable
 70
     9
  0
LAYER
  5
10
102
{ACAD_XDICTIONARY
360
1E6
102
}
330
182
100
AcDbSymbolTableRecord
100
AcDbLayerTableRecord
  2
0
 70
     0
 62
     7
  6
CONTINUOUS
370
    -3
390
18D
  0
LAYER
  5
43
102
{ACAD_XDICTIONARY
360
1E8
102
}
330
182
100
AcDbSymbolTableRecord
100
AcDbLayerTableRecord
  2
1
 70
     0
 62
     4
  6
CONTINUOUS
370
    -3
390
18D
  0
LAYER
  5
4E
102
{ACAD_XDICTIONARY
360
1EA
102
}
330
182
100
AcDbSymbolTableRecord
100
AcDbLayerTableRecord
  2
80
 70
     0
 62
    -6
  6
CONTINUOUS
370
    -3
390
18D
  0
LAYER
  5
50
102
{ACAD_XDICTIONARY
360
1EC
102
}
330
182
100
AcDbSymbolTableRecord
100
AcDbLayerTableRecord
  2
81
 70
     0
 62
    -3
  6
CONTINUOUS
370
    -3
390
18D
  0
LAYER
  5
FA
102
{ACAD_XDICTIONARY
360
1EE
102
}
330
182
100
AcDbSymbolTableRecord
100
AcDbLayerTableRecord
  2
2
 70
     0
 62
     7
  6
CONTINUOUS
370
    -3
390
18D
  0
LAYER
  5
16C
102
{ACAD_XDICTIONARY
360
1F0
102
}
330
182
100
AcDbSymbolTableRecord
100
AcDbLayerTableRecord
  2
SK1
 70
     0
 62
     4
  6
CONTINUOUS
370
    -3
390
18D
  0
LAYER
  5
16D
102
{ACAD_XDICTIONARY
360
1F2
102
}
330
182
100
AcDbSymbolTableRecord
100
AcDbLayerTableRecord
  2
SK4
 70
     0
 62
     2
  6
CENTER
370
    -3
390
18D
  0
LAYER
  5
16E
102
{ACAD_XDICTIONARY
360
1F4
102
}
330
182
100
AcDbSymbolTableRecord
100
AcDbLayerTableRecord
  2
SK6
 70
     0
 62
     5
  6
CONTINUOUS
370
    -3
390
18D
  0
LAYER
  5
16F
102
{ACAD_XDICTIONARY
360
1F6
102
}
330
182
100
AcDbSymbolTableRecord
100
AcDbLayerTableRecord
  2
SK2
 70
     0
 62
     7
  6
CONTINUOUS
370
    -3
390
18D
  0
ENDTAB
  0
TABLE
  2
STYLE
  5
183
330
0
100
AcDbSymbolTable
 70
     3
  0
STYLE
  5
11
330
183
100
AcDbSymbolTableRecord
100
AcDbTextStyleTableRecord
  2
Standard
 70
     0
 40
0.0
 41
1.0
 50
0.0
 71
     0
 42
0.0
  3
txt
  4

  0
STYLE
  5
F5
330
183
100
AcDbSymbolTableRecord
100
AcDbTextStyleTableRecord
  2
DEFAULT
 70
     0
 40
0.0
 41
1.0
 50
0.0
 71
     0
 42
0.0
  3
simplex.shx
  4

  0
STYLE
  5
F6
330
183
100
AcDbSymbolTableRecord
100
AcDbTextStyleTableRecord
  2
DWGDirectTextStyle
 70
     0
 40
0.0
 41
1.0
 50
0.0
 71
     0
 42
0.0
  3
SIMPLEX
  4

  0
ENDTAB
  0
TABLE
  2
VIEW
  5
185
330
0
100
AcDbSymbolTable
 70
     0
  0
ENDTAB
  0
TABLE
  2
UCS
  5
186
330
0
100
AcDbSymbolTable
 70
     0
  0
ENDTAB
  0
TABLE
  2
APPID
  5
187
330
0
100
AcDbSymbolTable
 70
     3
  0
APPID
  5
12
330
187
100
AcDbSymbolTableRecord
100
AcDbRegAppTableRecord
  2
ACAD
 70
     0
  0
APPID
  5
202
330
187
100
AcDbSymbolTableRecord
100
AcDbRegAppTableRecord
  2
ACAD_NAV_VCDISPLAY
 70
     0
  0
APPID
  5
23C
330
187
100
AcDbSymbolTableRecord
100
AcDbRegAppTableRecord
  2
ACAD_MLEADERVER
 70
     0
  0
ENDTAB
  0
TABLE
  2
DIMSTYLE
  5
184
330
0
100
AcDbSymbolTable
 70
     1
100
AcDbDimStyleTable
 71
     0
  0
DIMSTYLE
105
27
102
{ACAD_REACTORS
330
103
330
10E
330
118
330
124
330
12E
102
}
330
184
100
AcDbSymbolTableRecord
100
AcDbDimStyleTableRecord
  2
Standard
 70
     0
  3
<>
 73
     0
 74
     0
 77
     1
271
     2
278
    52
340
11
  0
ENDTAB
  0
TABLE
  2
BLOCK_RECORD
  5
188
330
0
100
AcDbSymbolTable
 70
     6
  0
BLOCK_RECORD
  5
1F
330
188
100
AcDbSymbolTableRecord
100
AcDbBlockTableRecord
  2
*Model_Space
340
1DE
  0
BLOCK_RECORD
  5
1B
330
188
100
AcDbSymbolTableRecord
100
AcDbBlockTableRecord
  2
*Paper_Space
340
1DF
  0
BLOCK_RECORD
  5
23
330
188
100
AcDbSymbolTableRecord
100
AcDbBlockTableRecord
  2
*Paper_Space0
340
0
  0
BLOCK_RECORD
  5
F8
330
188
100
AcDbSymbolTableRecord
100
AcDbBlockTableRecord
  2
DimnDraft3D1
340
0
  0
BLOCK_RECORD
  5
104
330
188
100
AcDbSymbolTableRecord
100
AcDbBlockTableRecord
  2
DimnDraft3D2
340
0
  0
BLOCK_RECORD
  5
10F
330
188
100
AcDbSymbolTableRecord
100
AcDbBlockTableRecord
  2
DimnDraft3D3
340
0
  0
BLOCK_RECORD
  5
119
330
188
100
AcDbSymbolTableRecord
100
AcDbBlockTableRecord
  2
DimnDraft3D4
340
0
  0
BLOCK_RECORD
  5
125
330
188
100
AcDbSymbolTableRecord
100
AcDbBlockTableRecord
  2
DimnDraft3D5
340
0
  0
ENDTAB
  0
ENDSEC
  0
SECTION
  2
BLOCKS
  0
BLOCK
  5
20
330
1F
100
AcDbEntity
  8
0
100
AcDbBlockBegin
  2
*Model_Space
 70
     0
 10
0.0
 20
0.0
 30
0.0
  3
*Model_Space
  1

  0
ENDBLK
  5
21
330
1F
100
AcDbEntity
  8
0
100
AcDbBlockEnd
  0
BLOCK
  5
1C
330
1B
100
AcDbEntity
 67
     1
  8
0
100
AcDbBlockBegin
  2
*Paper_Space
 70
     0
 10
0.0
 20
0.0
 30
0.0
  3
*Paper_Space
  1

  0
ENDBLK
  5
1D
330
1B
100
AcDbEntity
 67
     1
  8
0
100
AcDbBlockEnd
  0
BLOCK
  5
24
330
23
100
AcDbEntity
  8
0
100
AcDbBlockBegin
  2
*Paper_Space0
 70
     0
 10
0.0
 20
0.0
 30
0.0
  3
*Paper_Space0
  1

  0
ENDBLK
  5
25
330
23
100
AcDbEntity
  8
0
100
AcDbBlockEnd
  0
BLOCK
  5
101
330
F8
100
AcDbEntity
  8
0
100
AcDbBlockBegin
  2
DimnDraft3D1
 70
     0
 10
0.0
 20
0.0
 30
0.0
  3
DimnDraft3D1
  1

  0
MTEXT
  5
F9
330
F8
100
AcDbEntity
  8
2
100
AcDbMText
 10
30.567675
 20
2.330262999999999
 30
0.0
 40
3.5
 41
0.0
 71
     7
 72
     5
  1
\W01.000;\fsimplex.shx,bigfont.shx;50 
  7
DEFAULT
 11
0.0000000000000001
 21
1.0
 31
0.0
 73
     1
 44
1.084337
1001
ACAD
1000
MTEXTBEGIN
1070
    73
1070
     1
1070
    44
1040
1.084337
1070
    74
1070
     0
1000
MTEXTEND
  0
MTEXT
  5
FB
330
F8
100
AcDbEntity
  8
2
100
AcDbMText
 10
30.567675
 20
-4.669737
 30
0.0
 40
3.5
 41
0.0
 71
     7
 72
     5
  1
\W01.000;\fsimplex.shx,bigfont.shx;%%c 
  7
DEFAULT
 11
0.0000000000000001
 21
1.0
 31
0.0
 73
     1
 44
1.084337
1001
ACAD
1000
MTEXTBEGIN
1070
    73
1070
     1
1070
    44
1040
1.084337
1070
    74
1070
     0
1000
MTEXTEND
  0
LINE
  5
FC
330
F8
100
AcDbEntity
  8
2
100
AcDbLine
 10
6.287499999999999
 20
-25.0
 30
0.0
 11
34.317675
 21
-25.0
 31
0.0
  0
LINE
  5
FD
330
F8
100
AcDbEntity
  8
2
100
AcDbLine
 10
6.287499999999999
 20
25.0
 30
0.0
 11
34.317675
 21
25.0
 31
0.0
  0
LINE
  5
FE
330
F8
100
AcDbEntity
  8
2
100
AcDbLine
 10
32.317675
 20
-25.0
 30
0.0
 11
32.317675
 21
25.0
 31
0.0
  0
SOLID
  5
FF
330
F8
100
AcDbEntity
  8
2
100
AcDbTrace
 10
32.317675
 20
-25.0
 30
0.0
 11
31.856892
 21
-21.500002
 31
0.0
 12
32.77845900000001
 22
-21.499998
 32
0.0
 13
32.317675
 23
-25.0
 33
0.0
  0
SOLID
  5
100
330
F8
100
AcDbEntity
  8
2
100
AcDbTrace
 10
32.317675
 20
25.0
 30
0.0
 11
32.77845900000001
 21
21.500002
 31
0.0
 12
31.856892
 22
21.499998
 32
0.0
 13
32.317675
 23
25.0
 33
0.0
  0
ENDBLK
  5
102
330
F8
100
AcDbEntity
  8
0
100
AcDbBlockEnd
  0
BLOCK
  5
10C
330
104
100
AcDbEntity
  8
0
100
AcDbBlockBegin
  2
DimnDraft3D2
 70
     0
 10
0.0
 20
0.0
 30
0.0
  3
DimnDraft3D2
  1

  0
MTEXT
  5
105
330
104
100
AcDbEntity
  8
2
100
AcDbMText
 10
20.369877
 20
-0.396053
 30
0.0
 40
3.5
 41
0.0
 71
     7
 72
     5
  1
\W01.000;\fsimplex.shx,bigfont.shx;31,75 
  7
DEFAULT
 11
0.0000000000000001
 21
1.0
 31
0.0
 73
     1
 44
1.084337
1001
ACAD
1000
MTEXTBEGIN
1070
    73
1070
     1
1070
    44
1040
1.084337
1070
    74
1070
     0
1000
MTEXTEND
  0
MTEXT
  5
106
330
104
100
AcDbEntity
  8
2
100
AcDbMText
 10
20.369877
 20
-7.396053
 30
0.0
 40
3.5
 41
0.0
 71
     7
 72
     5
  1
\W01.000;\fsimplex.shx,bigfont.shx;%%c 
  7
DEFAULT
 11
0.0000000000000001
 21
1.0
 31
0.0
 73
     1
 44
1.084337
1001
ACAD
1000
MTEXTBEGIN
1070
    73
1070
     1
1070
    44
1040
1.084337
1070
    74
1070
     0
1000
MTEXTEND
  0
LINE
  5
107
330
104
100
AcDbEntity
  8
2
100
AcDbLine
 10
3.8875
 20
-15.88125
 30
0.0
 11
24.119877
 21
-15.88125
 31
0.0
  0
LINE
  5
108
330
104
100
AcDbEntity
  8
2
100
AcDbLine
 10
3.8875
 20
15.88125
 30
0.0
 11
24.119877
 21
15.88125
 31
0.0
  0
LINE
  5
109
330
104
100
AcDbEntity
  8
2
100
AcDbLine
 10
22.119877
 20
-15.88125
 30
0.0
 11
22.119877
 21
15.88125
 31
0.0
  0
SOLID
  5
10A
330
104
100
AcDbEntity
  8
2
100
AcDbTrace
 10
22.119877
 20
-15.88125
 30
0.0
 11
21.659093
 21
-12.381252
 31
0.0
 12
22.58066
 22
-12.381248
 32
0.0
 13
22.119877
 23
-15.88125
 33
0.0
  0
SOLID
  5
10B
330
104
100
AcDbEntity
  8
2
100
AcDbTrace
 10
22.119877
 20
15.88125
 30
0.0
 11
22.58066
 21
12.381252
 31
0.0
 12
21.659093
 22
12.381248
 32
0.0
 13
22.119877
 23
15.88125
 33
0.0
  0
ENDBLK
  5
10D
330
104
100
AcDbEntity
  8
0
100
AcDbBlockEnd
  0
BLOCK
  5
116
330
10F
100
AcDbEntity
  8
0
100
AcDbBlockBegin
  2
DimnDraft3D3
 70
     0
 10
0.0
 20
0.0
 30
0.0
  3
DimnDraft3D3
  1

  0
MTEXT
  5
110
330
10F
100
AcDbEntity
  8
2
100
AcDbMText
 10
2.615132
 20
38.388817
 30
0.0
 40
3.5
 41
0.0
 71
     7
 72
     5
  1
\W01.000;\fsimplex.shx,bigfont.shx;5 
  7
DEFAULT
 73
     1
 44
1.084337
1001
ACAD
1000
MTEXTBEGIN
1070
    73
1070
     1
1070
    44
1040
1.084337
1070
    74
1070
     0
1000
MTEXTEND
  0
LINE
  5
111
330
10F
100
AcDbEntity
  8
2
100
AcDbLine
 10
5.0
 20
26.2875
 30
0.0
 11
5.0
 21
39.513817
 31
0.0
  0
LINE
  5
112
330
10F
100
AcDbEntity
  8
2
100
AcDbLine
 10
0.0
 20
26.2875
 30
0.0
 11
0.0
 21
39.513817
 31
0.0
  0
LINE
  5
113
330
10F
100
AcDbEntity
  8
2
100
AcDbLine
 10
13.75
 20
37.513817
 30
0.0
 11
-8.75
 21
37.513817
 31
0.0
  0
SOLID
  5
114
330
10F
100
AcDbEntity
  8
2
100
AcDbTrace
 10
5.0
 20
37.513817
 30
0.0
 11
8.499997999999999
 21
37.974601
 31
0.0
 12
8.500002
 22
37.053034
 32
0.0
 13
5.0
 23
37.513817
 33
0.0
  0
SOLID
  5
115
330
10F
100
AcDbEntity
  8
2
100
AcDbTrace
 10
0.0
 20
37.513817
 30
0.0
 11
-3.499998
 21
37.053034
 31
0.0
 12
-3.500001999999999
 22
37.974601
 32
0.0
 13
0.0
 23
37.513817
 33
0.0
  0
ENDBLK
  5
117
330
10F
100
AcDbEntity
  8
0
100
AcDbBlockEnd
  0
BLOCK
  5
122
330
119
100
AcDbEntity
  8
0
100
AcDbBlockBegin
  2
DimnDraft3D4
 70
     0
 10
0.0
 20
0.0
 30
0.0
  3
DimnDraft3D4
  1

  0
MTEXT
  5
11A
330
119
100
AcDbEntity
  8
SK2
100
AcDbMText
 10
-86.04207399999999
 20
0.658816
 30
0.0
 40
3.5
 41
0.0
 71
     7
 72
     5
  1
\W01.000;\fsimplex.shx,bigfont.shx;38,1 
  7
DEFAULT
 11
0.0000000000000001
 21
1.0
 31
0.0
 73
     1
 44
1.084337
1001
ACAD
1000
MTEXTBEGIN
1070
    73
1070
     1
1070
    44
1040
1.084337
1070
    74
1070
     0
1000
MTEXTEND
  0
MTEXT
  5
11C
330
119
100
AcDbEntity
  8
SK2
100
AcDbMText
 10
-86.04207399999999
 20
-6.341183999999999
 30
0.0
 40
3.5
 41
0.0
 71
     7
 72
     5
  1
\W01.000;\fsimplex.shx,bigfont.shx;%%c 
  7
DEFAULT
 11
0.0000000000000001
 21
1.0
 31
0.0
 73
     1
 44
1.084337
1001
ACAD
1000
MTEXTBEGIN
1070
    73
1070
     1
1070
    44
1040
1.084337
1070
    74
1070
     0
1000
MTEXTEND
  0
LINE
  5
11D
330
119
100
AcDbEntity
  8
SK2
100
AcDbLine
 10
-70.66168499999999
 20
-19.276
 30
0.0
 11
-86.292074
 21
-19.276
 31
0.0
  0
LINE
  5
11E
330
119
100
AcDbEntity
  8
SK2
100
AcDbLine
 10
-71.12149999999999
 20
18.816
 30
0.0
 11
-86.292074
 21
18.816
 31
0.0
  0
LINE
  5
11F
330
119
100
AcDbEntity
  8
SK2
100
AcDbLine
 10
-84.29207400000001
 20
-19.276
 30
0.0
 11
-84.29207400000001
 21
18.816
 31
0.0
  0
SOLID
  5
120
330
119
100
AcDbEntity
  8
SK2
100
AcDbTrace
 10
-84.29207400000001
 20
-19.276
 30
0.0
 11
-84.75285699999998
 21
-15.776002
 31
0.0
 12
-83.83129
 22
-15.775998
 32
0.0
 13
-84.29207400000001
 23
-19.276
 33
0.0
  0
SOLID
  5
121
330
119
100
AcDbEntity
  8
SK2
100
AcDbTrace
 10
-84.29207400000001
 20
18.816
 30
0.0
 11
-83.83129
 21
15.316002
 31
0.0
 12
-84.75285699999998
 22
15.315998
 32
0.0
 13
-84.29207400000001
 23
18.816
 33
0.0
  0
ENDBLK
  5
123
330
119
100
AcDbEntity
  8
0
100
AcDbBlockEnd
  0
BLOCK
  5
12C
330
125
100
AcDbEntity
  8
0
100
AcDbBlockBegin
  2
DimnDraft3D5
 70
     0
 10
0.0
 20
0.0
 30
0.0
  3
DimnDraft3D5
  1

  0
MTEXT
  5
126
330
125
100
AcDbEntity
  8
SK2
100
AcDbMText
 10
-36.169737
 20
38.335829
 30
0.0
 40
3.5
 41
0.0
 71
     7
 72
     5
  1
\W01.000;\fsimplex.shx,bigfont.shx;70 
  7
DEFAULT
 73
     1
 44
1.084337
1001
ACAD
1000
MTEXTBEGIN
1070
    73
1070
     1
1070
    44
1040
1.084337
1070
    74
1070
     0
1000
MTEXTEND
  0
LINE
  5
127
330
125
100
AcDbEntity
  8
SK2
100
AcDbLine
 10
0.0
 20
26.2875
 30
0.0
 11
0.0
 21
39.460829
 31
0.0
  0
LINE
  5
128
330
125
100
AcDbEntity
  8
SK2
100
AcDbLine
 10
-70.0
 20
19.9375
 30
0.0
 11
-70.0
 21
39.460829
 31
0.0
  0
LINE
  5
129
330
125
100
AcDbEntity
  8
SK2
100
AcDbLine
 10
0.0
 20
37.460829
 30
0.0
 11
-70.0
 21
37.460829
 31
0.0
  0
SOLID
  5
12A
330
125
100
AcDbEntity
  8
SK2
100
AcDbTrace
 10
0.0
 20
37.460829
 30
0.0
 11
-3.499998
 21
37.000045
 31
0.0
 12
-3.500001999999999
 22
37.921613
 32
0.0
 13
0.0
 23
37.460829
 33
0.0
  0
SOLID
  5
12B
330
125
100
AcDbEntity
  8
SK2
100
AcDbTrace
 10
-70.0
 20
37.460829
 30
0.0
 11
-66.500002
 21
37.921613
 31
0.0
 12
-66.499998
 22
37.000045
 32
0.0
 13
-70.0
 23
37.460829
 33
0.0
  0
ENDBLK
  5
12D
330
125
100
AcDbEntity
  8
0
100
AcDbBlockEnd
  0
ENDSEC
  0
SECTION
  2
ENTITIES
  0
ARC
  5
C3
330
1F
100
AcDbEntity
  8
1
100
AcDbCircle
 10
2.9
 20
-20.354412
 30
0.0
 40
0.400000000000005
100
AcDbArc
 50
180.0
 51
320.0
  0
ARC
  5
C4
330
1F
100
AcDbEntity
  8
SK1
100
AcDbCircle
 10
2.046060999999999
 20
19.65
 30
0.0
 40
1.0
210
0.0
220
0.0
230
-1.0
100
AcDbArc
 50
270.0
 51
302.979211
  0
ARC
  5
C5
330
1F
100
AcDbEntity
  8
SK1
100
AcDbCircle
 10
2.046060999999999
 20
-19.65
 30
0.0
 40
1.0
210
0.0
220
0.0
230
-1.0
100
AcDbArc
 50
22.899663
 51
90.0
  0
ARC
  5
C6
330
1F
100
AcDbEntity
  8
1
100
AcDbCircle
 10
1.8
 20
23.95496
 30
0.0
 40
0.8
100
AcDbArc
 50
180.0
 51
270.0
  0
ARC
  5
C7
330
1F
100
AcDbEntity
  8
1
100
AcDbCircle
 10
3.2
 20
23.95496
 30
0.0
 40
0.8
100
AcDbArc
 50
270.0
 51
0.0
  0
ARC
  5
C8
330
1F
100
AcDbEntity
  8
SK1
100
AcDbCircle
 10
0.55
 20
-19.65
 30
0.0
 40
1.0
210
0.0
220
0.0
230
-1.0
100
AcDbArc
 50
90.0
 51
123.367515
  0
ARC
  5
C9
330
1F
100
AcDbEntity
  8
1
100
AcDbCircle
 10
0.55
 20
-19.65
 30
0.0
 40
1.0
210
0.0
220
0.0
230
-1.0
100
AcDbArc
 50
123.367476
 51
180.0
  0
ARC
  5
CA
330
1F
100
AcDbEntity
  8
1
100
AcDbCircle
 10
2.9
 20
20.354412
 30
0.0
 40
0.400000000000005
100
AcDbArc
 50
40.0
 51
180.0
  0
ARC
  5
CB
330
1F
100
AcDbEntity
  8
1
100
AcDbCircle
 10
-0.55
 20
19.65
 30
0.0
 40
1.0
100
AcDbArc
 50
0.0
 51
56.632987
  0
ARC
  5
CC
330
1F
100
AcDbEntity
  8
1
100
AcDbCircle
 10
0.55
 20
19.65
 30
0.0
 40
1.0
210
0.0
220
0.0
230
-1.0
100
AcDbArc
 50
180.0
 51
236.632524
  0
ARC
  5
CD
330
1F
100
AcDbEntity
  8
SK1
100
AcDbCircle
 10
0.55
 20
19.65
 30
0.0
 40
1.0
210
0.0
220
0.0
230
-1.0
100
AcDbArc
 50
236.632485
 51
270.0
  0
ARC
  5
CE
330
1F
100
AcDbEntity
  8
1
100
AcDbCircle
 10
-0.55
 20
-19.65
 30
0.0
 40
1.0
100
AcDbArc
 50
303.367013
 51
0.0
  0
ELLIPSE
  5
CF
330
1F
100
AcDbEntity
  8
1
100
AcDbEllipse
 10
3.2
 20
23.95496
 30
0.0
 11
0.8
 21
0.0
 31
0.0
210
0.0
220
0.0
230
1.0
 40
0.258819
 41
0.478601426835615
 42
1.5707963267949
  0
ELLIPSE
  5
D0
330
1F
100
AcDbEntity
  8
1
100
AcDbEllipse
 10
3.2
 20
23.95496
 30
0.0
 11
0.8
 21
0.0
 31
0.0
210
0.0
220
0.0
230
1.0
 40
0.258819
 41
-1.5707963267949
 42
0.4786009874138151
  0
ELLIPSE
  5
D1
330
1F
100
AcDbEntity
  8
1
100
AcDbEllipse
 10
1.8
 20
23.95496
 30
0.0
 11
0.8
 21
0.0
 31
0.0
210
0.0
220
0.0
230
1.0
 40
0.258819
 41
2.662695417111229
 42
4.712388980384686
  0
ELLIPSE
  5
D2
330
1F
100
AcDbEntity
  8
1
100
AcDbEllipse
 10
1.8
 20
23.95496
 30
0.0
 11
0.8
 21
0.0
 31
0.0
210
0.0
220
0.0
230
1.0
 40
0.258819
 41
1.5707963267949
 42
2.662694977876799
  0
ELLIPSE
  5
D3
330
1F
100
AcDbEntity
  8
1
100
AcDbEllipse
 10
2.5
 20
21.260924
 30
0.0
 11
0.8
 21
0.0
 31
0.0
210
0.0
220
0.0
230
1.0
 40
0.5
 41
0.508840043835459
 42
1.570796909500209
  0
ELLIPSE
  5
D4
330
1F
100
AcDbEntity
  8
1
100
AcDbEllipse
 10
2.5
 20
21.260924
 30
0.0
 11
0.8
 21
0.0
 31
0.0
210
0.0
220
0.0
230
1.0
 40
0.5
 41
2.63039676176145
 42
6.283185307179586
  0
ELLIPSE
  5
D5
330
1F
100
AcDbEntity
  8
1
100
AcDbEllipse
 10
2.5
 20
21.260924
 30
0.0
 11
0.8
 21
0.0
 31
0.0
210
0.0
220
0.0
230
1.0
 40
0.5
 41
0.0
 42
0.508839493138891
  0
ELLIPSE
  5
D6
330
1F
100
AcDbEntity
  8
1
100
AcDbEllipse
 10
2.5
 20
21.260924
 30
0.0
 11
0.8
 21
0.0
 31
0.0
210
0.0
220
0.0
230
1.0
 40
0.5
 41
1.570796909500209
 42
2.63039676176145
  0
ELLIPSE
  5
D7
330
1F
100
AcDbEntity
  8
1
100
AcDbEllipse
 10
2.5
 20
17.359471
 30
0.0
 11
0.8
 21
0.0
 31
0.0
210
0.0
220
0.0
230
1.0
 40
0.7071069999999999
 41
0.29383707916706
 42
1.57079671993786
  0
ELLIPSE
  5
D8
330
1F
100
AcDbEntity
  8
1
100
AcDbEllipse
 10
2.5
 20
17.359471
 30
0.0
 11
0.8
 21
0.0
 31
0.0
210
0.0
220
0.0
230
1.0
 40
0.7071069999999999
 41
2.862873750544419
 42
6.283185307179586
  0
ELLIPSE
  5
D9
330
1F
100
AcDbEntity
  8
1
100
AcDbEllipse
 10
2.5
 20
17.359471
 30
0.0
 11
0.8
 21
0.0
 31
0.0
210
0.0
220
0.0
230
1.0
 40
0.7071069999999999
 41
0.0
 42
0.293836367113041
  0
ELLIPSE
  5
DA
330
1F
100
AcDbEntity
  8
1
100
AcDbEllipse
 10
2.5
 20
17.359471
 30
0.0
 11
0.8
 21
0.0
 31
0.0
210
0.0
220
0.0
230
1.0
 40
0.7071069999999999
 41
1.57079671993787
 42
2.86287545498106
  0
ELLIPSE
  5
DB
330
1F
100
AcDbEntity
  8
1
100
AcDbEllipse
 10
2.5
 20
12.275
 30
0.0
 11
0.8
 21
0.0
 31
0.0
210
0.0
220
0.0
230
1.0
 40
0.8660250000000001
 41
0.181623363486408
 42
1.570796704813139
  0
ELLIPSE
  5
DC
330
1F
100
AcDbEntity
  8
1
100
AcDbEllipse
 10
2.5
 20
12.275
 30
0.0
 11
0.8
 21
0.0
 31
0.0
210
0.0
220
0.0
230
1.0
 40
0.8660250000000001
 41
2.98873513667964
 42
6.283185307179586
  0
ELLIPSE
  5
DD
330
1F
100
AcDbEntity
  8
1
100
AcDbEllipse
 10
2.5
 20
12.275
 30
0.0
 11
0.8
 21
0.0
 31
0.0
210
0.0
220
0.0
230
1.0
 40
0.8660250000000001
 41
0.0
 42
0.181623263158537
  0
ELLIPSE
  5
DE
330
1F
100
AcDbEntity
  8
1
100
AcDbEllipse
 10
2.5
 20
12.275
 30
0.0
 11
0.8
 21
0.0
 31
0.0
210
0.0
220
0.0
230
1.0
 40
0.8660250000000001
 41
1.570796704813139
 42
2.98873513667964
  0
POINT
  5
42
330
1F
100
AcDbEntity
  8
1
 60
     1
100
AcDbPoint
 10
-2.049999999999999
 20
0.0
 30
0.0
 50
360.0
  0
POINT
  5
44
330
1F
100
AcDbEntity
  8
1
 60
     1
100
AcDbPoint
 10
-68.5
 20
0.0
 30
0.0
 50
360.0
  0
POINT
  5
45
330
1F
100
AcDbEntity
  8
1
 60
     1
100
AcDbPoint
 10
-71.03399999999999
 20
-0.23
 30
0.0
 50
360.0
  0
POINT
  5
46
330
1F
100
AcDbEntity
  8
1
 60
     1
100
AcDbPoint
 10
-0.024618
 20
-0.23
 30
0.0
 50
360.0
  0
POINT
  5
47
330
1F
100
AcDbEntity
  8
1
 60
     1
100
AcDbPoint
 10
2.5
 20
23.589986
 30
0.0
 50
360.0
  0
POINT
  5
48
330
1F
100
AcDbEntity
  8
1
 60
     1
100
AcDbPoint
 10
2.5
 20
19.361886
 30
0.0
 50
360.0
  0
POINT
  5
49
330
1F
100
AcDbEntity
  8
1
 60
     1
100
AcDbPoint
 10
2.5
 20
19.338242
 30
0.0
 50
360.0
  0
POINT
  5
4A
330
1F
100
AcDbEntity
  8
1
 60
     1
100
AcDbPoint
 10
2.5
 20
15.733126
 30
0.0
 50
360.0
  0
POINT
  5
4B
330
1F
100
AcDbEntity
  8
1
 60
     1
100
AcDbPoint
 10
2.5
 20
13.619727
 30
0.0
 50
360.0
  0
POINT
  5
4C
330
1F
100
AcDbEntity
  8
1
 60
     1
100
AcDbPoint
 10
2.5
 20
11.17859
 30
0.0
 50
360.0
  0
POINT
  5
4D
330
1F
100
AcDbEntity
  8
80
100
AcDbPoint
 10
0.0
 20
0.0
 30
0.0
 50
360.0
  0
POINT
  5
4F
330
1F
100
AcDbEntity
  8
81
100
AcDbPoint
 10
5.0
 20
0.0
 30
0.0
 50
360.0
  0
SPLINE
  5
DF
330
1F
100
AcDbEntity
  8
1
100
AcDbSpline
210
0.0
220
0.0
230
1.0
 70
    12
 71
     3
 72
    49
 73
    45
 74
     0
 42
0.000000001
 43
0.0000000001
 40
0.0
 40
0.0
 40
0.0
 40
0.0
 40
0.0625000000000008
 40
0.0625000000000008
 40
0.0937500000000011
 40
0.0937500000000011
 40
0.125000000000001
 40
0.125000000000001
 40
0.187500000000002
 40
0.187500000000002
 40
0.250000000000002
 40
0.250000000000002
 40
0.312500000000002
 40
0.312500000000002
 40
0.343750000000003
 40
0.343750000000003
 40
0.375000000000003
 40
0.4062500000000031
 40
0.4062500000000031
 40
0.4375000000000031
 40
0.4375000000000031
 40
0.500000000000002
 40
0.500000000000002
 40
0.531250000000002
 40
0.531250000000002
 40
0.562500000000001
 40
0.562500000000001
 40
0.625000000000001
 40
0.625000000000001
 40
0.656250000000001
 40
0.656250000000001
 40
0.6875
 40
0.6875
 40
0.75
 40
0.75
 40
0.8125
 40
0.8125
 40
0.84375
 40
0.84375
 40
0.875
 40
0.875
 40
0.9375
 40
0.9375
 40
1.0
 40
1.0
 40
1.0
 40
1.0
 10
1.79999999999998
 20
24.3428338759649
 30
0.0
 41
1.0
 10
1.74714944738415
 20
24.3428338759649
 30
0.0
 41
1.0
 10
1.69518265698511
 20
24.3416535561132
 30
0.0
 41
1.0
 10
1.618503743579229
 20
24.338171727611
 30
0.0
 41
1.0
 10
1.59315755883802
 20
24.336723521347
 30
0.0
 41
1.0
 10
1.542901792183949
 20
24.3332332570392
 30
0.0
 41
1.0
 10
1.517924539441879
 20
24.33118129821389
 30
0.0
 41
1.0
 10
1.44526967829006
 20
24.3242480468524
 30
0.0
 41
1.0
 10
1.39932425846695
 20
24.3185688931775
 30
0.0
 41
1.0
 10
1.31236987431362
 20
24.3050387974103
 30
0.0
 41
1.0
 10
1.271201255823199
 20
24.2971139835958
 30
0.0
 41
1.0
 10
1.19740792185732
 20
24.2796274876374
 30
0.0
 41
1.0
 10
1.164293158204539
 20
24.270007891279
 30
0.0
 41
1.0
 10
1.120429387551469
 20
24.2541630773466
 30
0.0
 41
1.0
 10
1.10681073042949
 20
24.24864534259761
 30
0.0
 41
1.0
 10
1.082127581512649
 20
24.2373667576253
 30
0.0
 41
1.0
 10
1.05982745880118
 20
24.2257868010848
 30
0.0
 41
1.0
 10
1.04222172613404
 20
24.2135954050879
 30
0.0
 41
1.0
 10
1.02699538251582
 20
24.2010866821632
 30
0.0
 41
1.0
 10
1.020546965626319
 20
24.1946387333386
 30
0.0
 41
1.0
 10
1.00512493358312
 20
24.1750626999998
 30
0.0
 41
1.0
 10
1.000035616267209
 20
24.161788001364
 30
0.0
 41
1.0
 10
0.9999824686115349
 20
24.1415354083062
 30
0.0
 41
1.0
 10
1.001237317615389
 20
24.1347276665865
 30
0.0
 41
1.0
 10
1.00636964787313
 20
24.1209961145128
 30
0.0
 41
1.0
 10
1.010244408975009
 20
24.1141144303855
 30
0.0
 41
1.0
 10
1.025535182089439
 20
24.0937346274091
 30
0.0
 41
1.0
 10
1.04062408004879
 20
24.0803749867676
 30
0.0
 41
1.0
 10
1.070640759912689
 20
24.0607162878845
 30
0.0
 41
1.0
 10
1.081959849323769
 20
24.054192896664
 30
0.0
 41
1.0
 10
1.106714821961129
 20
24.0415215037781
 30
0.0
 41
1.0
 10
1.12015081727759
 20
24.0353621159425
 30
0.0
 41
1.0
 10
1.16355830977031
 20
24.0174153604175
 30
0.0
 41
1.0
 10
1.19659902614833
 20
24.0061535561551
 30
0.0
 41
1.0
 10
1.271207039699929
 20
23.9851831875043
 30
0.0
 41
1.0
 10
1.311678556607939
 20
23.9757906532233
 30
0.0
 41
1.0
 10
1.37662971433878
 20
23.9634203356418
 30
0.0
 41
1.0
 10
1.399009719893909
 20
23.959580479142
 30
0.0
 41
1.0
 10
1.44526002849682
 20
23.9524903055614
 30
0.0
 41
1.0
 10
1.469235874853179
 20
23.9492307443155
 30
0.0
 41
1.0
 10
1.54192841970496
 20
23.9405647969232
 30
0.0
 41
1.0
 10
1.59178643188497
 20
23.9361894792338
 30
0.0
 41
1.0
 10
1.69426171350062
 20
23.93026022170801
 30
0.0
 41
1.0
 10
1.747149462747419
 20
23.9287234038009
 30
0.0
 41
1.0
 10
1.79999999999998
 20
23.9287234038009
 30
0.0
 41
1.0
  0
SPLINE
  5
E0
330
1F
100
AcDbEntity
  8
1
100
AcDbSpline
210
0.0
220
0.0
230
1.0
 70
    12
 71
     3
 72
    49
 73
    45
 74
     0
 42
0.000000001
 43
0.0000000001
 40
0.0
 40
0.0
 40
0.0
 40
0.0
 40
0.0625000000000016
 40
0.0625000000000016
 40
0.0937500000000026
 40
0.0937500000000026
 40
0.125000000000003
 40
0.125000000000003
 40
0.187500000000005
 40
0.187500000000005
 40
0.250000000000006
 40
0.250000000000006
 40
0.312500000000008
 40
0.312500000000008
 40
0.343750000000008
 40
0.343750000000008
 40
0.375000000000008
 40
0.406250000000008
 40
0.406250000000008
 40
0.437500000000009
 40
0.437500000000009
 40
0.500000000000009
 40
0.500000000000009
 40
0.531250000000009
 40
0.531250000000009
 40
0.56250000000001
 40
0.56250000000001
 40
0.6250000000000079
 40
0.6250000000000079
 40
0.6562500000000079
 40
0.6562500000000079
 40
0.6875000000000079
 40
0.6875000000000079
 40
0.7500000000000071
 40
0.7500000000000071
 40
0.812500000000006
 40
0.812500000000006
 40
0.8437500000000051
 40
0.8437500000000051
 40
0.8750000000000039
 40
0.8750000000000039
 40
0.9375000000000021
 40
0.9375000000000021
 40
1.0
 40
1.0
 40
1.0
 40
1.0
 10
3.19999999999996
 20
23.9287234038009
 30
0.0
 41
1.0
 10
3.252850552615799
 20
23.9287234038009
 30
0.0
 41
1.0
 10
3.30481734301483
 20
23.9302274192798
 30
0.0
 41
1.0
 10
3.38149625642072
 20
23.934633673126
 30
0.0
 41
1.0
 10
3.406842441161929
 20
23.9364632106169
 30
0.0
 41
1.0
 10
3.45709820781599
 20
23.9408547468779
 30
0.0
 41
1.0
 10
3.482075460558069
 20
23.94342900642461
 30
0.0
 41
1.0
 10
3.554730321709879
 20
23.9520826458495
 30
0.0
 41
1.0
 10
3.600675741532999
 20
23.9591209565563
 30
0.0
 41
1.0
 10
3.68763012568633
 20
23.9756365150794
 30
0.0
 41
1.0
 10
3.72879874417674
 20
23.9851990353278
 30
0.0
 41
1.0
 10
3.80259207814262
 20
24.0059121285186
 30
0.0
 41
1.0
 10
3.835706841795399
 20
24.0171359606453
 30
0.0
 41
1.0
 10
3.879570612448469
 20
24.0352349984519
 30
0.0
 41
1.0
 10
3.893189269570459
 20
24.041477529924
 30
0.0
 41
1.0
 10
3.91787241848729
 20
24.0541019744859
 30
0.0
 41
1.0
 10
3.940172541198759
 20
24.0669327574118
 30
0.0
 41
1.0
 10
3.957778273865899
 20
24.0801523667444
 30
0.0
 41
1.0
 10
3.97300461748415
 20
24.093561689413
 30
0.0
 41
1.0
 10
3.97945303437362
 20
24.1003976584061
 30
0.0
 41
1.0
 10
3.994875066416819
 20
24.1209087284754
 30
0.0
 41
1.0
 10
3.99996438373273
 20
24.1345011113189
 30
0.0
 41
1.0
 10
4.00001753138841
 20
24.1547569899244
 30
0.0
 41
1.0
 10
3.998762682384549
 20
24.1614869627324
 30
0.0
 41
1.0
 10
3.993630352126809
 20
24.1749027448965
 30
0.0
 41
1.0
 10
3.98975559102493
 20
24.1815466303739
 30
0.0
 41
1.0
 10
3.974464817910499
 20
24.2009992781642
 30
0.0
 41
1.0
 10
3.959375919951159
 20
24.2134532194393
 30
0.0
 41
1.0
 10
3.929359240087249
 20
24.2313968255328
 30
0.0
 41
1.0
 10
3.91804015067618
 20
24.2372851077843
 30
0.0
 41
1.0
 10
3.893285178038779
 20
24.2486064728715
 30
0.0
 41
1.0
 10
3.87984918272235
 20
24.25405076441089
 30
0.0
 41
1.0
 10
3.836441690229629
 20
24.2697653011027
 30
0.0
 41
1.0
 10
3.803400973851609
 20
24.2794225922564
 30
0.0
 41
1.0
 10
3.72879296030001
 20
24.2971284275084
 30
0.0
 41
1.0
 10
3.688321443392
 20
24.3049113274142
 30
0.0
 41
1.0
 10
3.62337028566114
 20
24.31504727828511
 30
0.0
 41
1.0
 10
3.600990280106029
 20
24.3181714908959
 30
0.0
 41
1.0
 10
3.554739971503129
 20
24.3239106561318
 30
0.0
 41
1.0
 10
3.530764125146759
 20
24.3265329057715
 30
0.0
 41
1.0
 10
3.458071580294979
 20
24.3334762269102
 30
0.0
 41
1.0
 10
3.40821356811497
 20
24.3369421785618
 30
0.0
 41
1.0
 10
3.305738286499319
 20
24.3416277813013
 30
0.0
 41
1.0
 10
3.25285053725253
 20
24.3428338759649
 30
0.0
 41
1.0
 10
3.19999999999996
 20
24.3428338759649
 30
0.0
 41
1.0
  0
SPLINE
  5
E1
330
1F
100
AcDbEntity
  8
SK1
100
AcDbSpline
210
0.0
220
0.0
230
1.0
 70
    12
 71
     3
 72
    38
 73
    34
 74
     0
 42
0.000000001
 43
0.0000000001
 40
0.0
 40
0.0
 40
0.0
 40
0.0
 40
0.124999999999999
 40
0.124999999999999
 40
0.187499999999998
 40
0.187499999999998
 40
0.218749999999997
 40
0.218749999999997
 40
0.249999999999997
 40
0.249999999999997
 40
0.374999999999996
 40
0.374999999999996
 40
0.4374999999999961
 40
0.4374999999999961
 40
0.4687499999999961
 40
0.4687499999999961
 40
0.4999999999999951
 40
0.4999999999999951
 40
0.624999999999996
 40
0.624999999999996
 40
0.656249999999996
 40
0.656249999999996
 40
0.687499999999997
 40
0.687499999999997
 40
0.749999999999997
 40
0.749999999999997
 40
0.8124999999999969
 40
0.8124999999999969
 40
0.8437499999999969
 40
0.8437499999999969
 40
0.874999999999996
 40
0.874999999999996
 40
1.0
 40
1.0
 40
1.0
 40
1.0
 10
-42.5
 20
8.39999999999995
 30
0.0
 41
1.0
 10
-42.5
 20
8.03623671662595
 30
0.0
 41
1.0
 10
-42.5328318098059
 20
7.671612554309349
 30
0.0
 41
1.0
 10
-42.63422574797029
 20
7.124420310407058
 30
0.0
 41
1.0
 10
-42.6767595619519
 20
6.941985521801999
 30
0.0
 41
1.0
 10
-42.75449878994328
 20
6.66846897234683
 30
0.0
 41
1.0
 10
-42.78273861413089
 20
6.57731990727794
 30
0.0
 41
1.0
 10
-42.8440610444611
 20
6.395107233298428
 30
0.0
 41
1.0
 10
-42.8769774195061
 20
6.304560522537539
 30
0.0
 41
1.0
 10
-43.0520960530748
 20
5.856707783932849
 30
0.0
 41
1.0
 10
-43.22634450281789
 20
5.51187220761724
 30
0.0
 41
1.0
 10
-43.5407396431729
 20
5.0171139798648
 30
0.0
 41
1.0
 10
-43.6544227118794
 20
4.855965929955
 30
0.0
 41
1.0
 10
-43.83900450375439
 20
4.62044047934478
 30
0.0
 41
1.0
 10
-43.9027459151951
 20
4.54316297229519
 30
0.0
 41
1.0
 10
-44.03340327246529
 20
4.39257555877768
 30
0.0
 41
1.0
 10
-44.10048870454629
 20
4.31904568570241
 30
0.0
 41
1.0
 10
-44.44460155115271
 20
3.960186097546139
 30
0.0
 41
1.0
 10
-44.74744760850929
 20
3.700984561873099
 30
0.0
 41
1.0
 10
-45.1612457690767
 20
3.41373186574799
 30
0.0
 41
1.0
 10
-45.2459390107217
 20
3.35803798207871
 30
0.0
 41
1.0
 10
-45.41826801754139
 20
3.25090086516141
 30
0.0
 41
1.0
 10
-45.505478151241
 20
3.199710515019379
 30
0.0
 41
1.0
 10
-45.77018055099189
 20
3.05315297609937
 30
0.0
 41
1.0
 10
-45.95073717314729
 20
2.964782525755109
 30
0.0
 41
1.0
 10
-46.3198746284052
 20
2.806487390124289
 30
0.0
 41
1.0
 10
-46.5084554137173
 20
2.736562380529759
 30
0.0
 41
1.0
 10
-46.7974154477063
 20
2.645749421559139
 30
0.0
 41
1.0
 10
-46.8947521871137
 20
2.6178284453741
 30
0.0
 41
1.0
 10
-47.091495361919
 20
2.566781067677509
 30
0.0
 41
1.0
 10
-47.19098459417379
 20
2.543652043695349
 30
0.0
 41
1.0
 10
-47.68880164525129
 20
2.44120140319322
 30
0.0
 41
1.0
 10
-48.0919390624775
 20
2.39999999999995
 30
0.0
 41
1.0
 10
-48.5
 20
2.39999999999995
 30
0.0
 41
1.0
  0
SPLINE
  5
E2
330
1F
100
AcDbEntity
  8
SK1
100
AcDbSpline
210
0.0
220
0.0
230
1.0
 70
    12
 71
     3
 72
   104
 73
   100
 74
     0
 42
0.000000001
 43
0.0000000001
 40
0.0
 40
0.0
 40
0.0
 40
0.0
 40
0.0051318514572144
 40
0.0051318514572144
 40
0.0129440027669844
 40
0.0129440027669844
 40
0.0207561540767544
 40
0.0207561540767544
 40
0.0520047593158346
 40
0.0520047593158346
 40
0.0832533645549148
 40
0.0832533645549148
 40
0.114501969793995
 40
0.114501969793995
 40
0.122314121103765
 40
0.122314121103765
 40
0.130126272413535
 40
0.130126272413535
 40
0.145750575033075
 40
0.145750575033075
 40
0.176999180272155
 40
0.208247785511236
 40
0.208247785511236
 40
0.223872088130776
 40
0.223872088130776
 40
0.231684239440546
 40
0.231684239440546
 40
0.239496390750316
 40
0.239496390750316
 40
0.270744995989396
 40
0.270744995989396
 40
0.301993601228477
 40
0.301993601228477
 40
0.333242206467557
 40
0.333242206467557
 40
0.348866509087097
 40
0.348866509087097
 40
0.3644908117066379
 40
0.3644908117066379
 40
0.3957394169457179
 40
0.4269880221847991
 40
0.4269880221847991
 40
0.442612324804339
 40
0.442612324804339
 40
0.4504244761141091
 40
0.4504244761141091
 40
0.4582366274238791
 40
0.4582366274238791
 40
0.48948523266296
 40
0.48948523266296
 40
0.52073383790204
 40
0.52073383790204
 40
0.551982443141121
 40
0.551982443141121
 40
0.559794594450891
 40
0.559794594450891
 40
0.567606745760661
 40
0.567606745760661
 40
0.5832310483802012
 40
0.5832310483802012
 40
0.614479653619282
 40
0.614479653619282
 40
0.6457282588583621
 40
0.6457282588583621
 40
0.661352561477902
 40
0.661352561477902
 40
0.669164712787673
 40
0.669164712787673
 40
0.676976864097443
 40
0.676976864097443
 40
0.708225469336523
 40
0.708225469336523
 40
0.7394740745756041
 40
0.7394740745756041
 40
0.7707226798146851
 40
0.7707226798146851
 40
0.8019712850537658
 40
0.8019712850537658
 40
0.8332198902928459
 40
0.8332198902928459
 40
0.864468495531927
 40
0.864468495531927
 40
0.8722806468416969
 40
0.8722806468416969
 40
0.880092798151468
 40
0.880092798151468
 40
0.895717100771008
 40
0.895717100771008
 40
0.926965706010089
 40
0.926965706010089
 40
0.958214311249169
 40
0.958214311249169
 40
0.973838613868709
 40
0.973838613868709
 40
0.9816507651784789
 40
0.9816507651784789
 40
0.989462916488249
 40
0.989462916488249
 40
1.0
 40
1.0
 40
1.0
 40
1.0
 10
-2.59782526236614
 20
18.8159994709264
 30
0.0
 41
1.0
 10
-2.59782594544845
 20
18.8159622884573
 30
0.0
 41
1.0
 10
-2.597841905279009
 20
18.815098122677
 30
0.0
 41
1.0
 10
-2.59792089519095
 20
18.8108223580954
 30
0.0
 41
1.0
 10
-2.59800415782712
 20
18.80631509901339
 30
0.0
 41
1.0
 10
-2.598242454510339
 20
18.7934074555213
 30
0.0
 41
1.0
 10
-2.59839775954643
 20
18.7849923777933
 30
0.0
 41
1.0
 10
-2.59935177703395
 20
18.7332532810002
 30
0.0
 41
1.0
 10
-2.60067842670733
 20
18.6612402773387
 30
0.0
 41
1.0
 10
-2.604387244509239
 20
18.4579954642068
 30
0.0
 41
1.0
 10
-2.606769403918439
 20
18.3267581484473
 30
0.0
 41
1.0
 10
-2.612525990984609
 20
18.0053189522516
 30
0.0
 41
1.0
 10
-2.61590033538894
 20
17.8151199056053
 30
0.0
 41
1.0
 10
-2.620704771574759
 20
17.5396124742375
 30
0.0
 41
1.0
 10
-2.62169501135241
 20
17.4826186742907
 30
0.0
 41
1.0
 10
-2.62373347415439
 20
17.3648056048836
 30
0.0
 41
1.0
 10
-2.62478287062243
 20
17.3039173878405
 30
0.0
 41
1.0
 10
-2.627999648145759
 20
17.11645807636619
 30
0.0
 41
1.0
 10
-2.630239712205249
 20
16.9848579328565
 30
0.0
 41
1.0
 10
-2.63722427136204
 20
16.57056112520959
 30
0.0
 41
1.0
 10
-2.64724049205702
 20
15.9662679836823
 30
0.0
 41
1.0
 10
-2.658463280813999
 20
15.2599345054788
 30
0.0
 41
1.0
 10
-2.66727408558697
 20
14.6914689013173
 30
0.0
 41
1.0
 10
-2.67027680368523
 20
14.4955163678895
 30
0.0
 41
1.0
 10
-2.67487365527862
 20
14.1917274548028
 30
0.0
 41
1.0
 10
-2.676421411437049
 20
14.08882035378599
 30
0.0
 41
1.0
 10
-2.679547003543799
 20
13.8796808011873
 30
0.0
 41
1.0
 10
-2.68112353774382
 20
13.7735332596603
 30
0.0
 41
1.0
 10
-2.689035055272769
 20
13.2374133928344
 30
0.0
 41
1.0
 10
-2.695488227066819
 20
12.7891662552347
 30
0.0
 41
1.0
 10
-2.70857076946732
 20
11.8551075798231
 30
0.0
 41
1.0
 10
-2.715200317971179
 20
11.3692932391485
 30
0.0
 41
1.0
 10
-2.72858455617285
 20
10.3601264018463
 30
0.0
 41
1.0
 10
-2.735339350564319
 20
9.836776382167329
 30
0.0
 41
1.0
 10
-2.745539073804249
 20
9.022799248725789
 30
0.0
 41
1.0
 10
-2.748957429283109
 20
8.746040317043249
 30
0.0
 41
1.0
 10
-2.75574180076714
 20
8.188591267724829
 30
0.0
 41
1.0
 10
-2.75911513257165
 20
7.90733405102617
 30
0.0
 41
1.0
 10
-2.76917547809441
 20
7.056097421388979
 30
0.0
 41
1.0
 10
-2.78242971860843
 20
5.90124373200715
 30
0.0
 41
1.0
 10
-2.79534445993377
 20
4.707177214067309
 30
0.0
 41
1.0
 10
-2.80490006563431
 20
3.79669526948774
 30
0.0
 41
1.0
 10
-2.808063567703129
 20
3.49070819759999
 30
0.0
 41
1.0
 10
-2.812776221031209
 20
3.0279174925831
 30
0.0
 41
1.0
 10
-2.81434374226831
 20
2.872811776144149
 30
0.0
 41
1.0
 10
-2.81745708914667
 20
2.562398653427859
 30
0.0
 41
1.0
 10
-2.819001804976549
 20
2.40720572282927
 30
0.0
 41
1.0
 10
-2.82666671995622
 20
1.63130846902718
 30
0.0
 41
1.0
 10
-2.832611086241369
 20
1.010805838633499
 30
0.0
 41
1.0
 10
-2.84415078377754
 20
-0.229780037307108
 30
0.0
 41
1.0
 10
-2.84974609011533
 20
-0.8498632591408469
 30
0.0
 41
1.0
 10
-2.860610073962249
 20
-2.089608905311479
 30
0.0
 41
1.0
 10
-2.865878732572129
 20
-2.70927136544466
 30
0.0
 41
1.0
 10
-2.872272557445539
 20
-3.483577819166499
 30
0.0
 41
1.0
 10
-2.87354298917347
 20
-3.63858445556522
 30
0.0
 41
1.0
 10
-2.876051711070089
 20
-3.94693690742764
 30
0.0
 41
1.0
 10
-2.87729140502754
 20
-4.10045035032834
 30
0.0
 41
1.0
 10
-2.880967747708299
 20
-4.559023526041929
 30
0.0
 41
1.0
 10
-2.883361680660189
 20
-4.86211733771816
 30
0.0
 41
1.0
 10
-2.89038177968689
 20
-5.76365725165886
 30
0.0
 41
1.0
 10
-2.894846544238839
 20
-6.354380045135139
 30
0.0
 41
1.0
 10
-2.903386280379919
 20
-7.51541924982436
 30
0.0
 41
1.0
 10
-2.907461186533049
 20
-8.08573611016641
 30
0.0
 41
1.0
 10
-2.91330508545821
 20
-8.925614210987649
 30
0.0
 41
1.0
 10
-2.915208245765279
 20
-9.20296941299307
 30
0.0
 41
1.0
 10
-2.917998247102529
 20
-9.61501483184068
 30
0.0
 41
1.0
 10
-2.918916632404029
 20
-9.751579766027759
 30
0.0
 41
1.0
 10
-2.92072241133698
 20
-10.021881455277
 30
0.0
 41
1.0
 10
-2.921611029030889
 20
-10.1557985354977
 30
0.0
 41
1.0
 10
-2.925985082905239
 20
-10.8192779970823
 30
0.0
 41
1.0
 10
-2.929263996900089
 20
-11.3305675560524
 30
0.0
 41
1.0
 10
-2.935430753873479
 20
-12.3150261046615
 30
0.0
 41
1.0
 10
-2.93831849737563
 20
-12.7881936065495
 30
0.0
 41
1.0
 10
-2.94373930902881
 20
-13.6961630658176
 30
0.0
 41
1.0
 10
-2.94627243552702
 20
-14.1309868379544
 30
0.0
 41
1.0
 10
-2.951009241501139
 20
-14.9608177891105
 30
0.0
 41
1.0
 10
-2.953173499862289
 20
-15.3488787332496
 30
0.0
 41
1.0
 10
-2.95714241588598
 20
-16.0731613351298
 30
0.0
 41
1.0
 10
-2.958946955554889
 20
-16.4093777068091
 30
0.0
 41
1.0
 10
-2.96222921059493
 20
-17.0302828765933
 30
0.0
 41
1.0
 10
-2.963706880615689
 20
-17.3149737086393
 30
0.0
 41
1.0
 10
-2.96536198944878
 20
-17.6378991464719
 30
0.0
 41
1.0
 10
-2.96568338128336
 20
-17.7008335263836
 30
0.0
 41
1.0
 10
-2.96630708952239
 20
-17.8233667881876
 30
0.0
 41
1.0
 10
-2.966609789549039
 20
-17.8830416387657
 30
0.0
 41
1.0
 10
-2.967486449027319
 20
-18.056402168806
 30
0.0
 41
1.0
 10
-2.968028280470089
 20
-18.1642819721814
 30
0.0
 41
1.0
 10
-2.96953247240396
 20
-18.4653081826835
 30
0.0
 41
1.0
 10
-2.97037399531075
 20
-18.6358950312885
 30
0.0
 41
1.0
 10
-2.97175706199718
 20
-18.9179989487102
 30
0.0
 41
1.0
 10
-2.972298566976779
 20
-19.0295147455429
 30
0.0
 41
1.0
 10
-2.972891807421799
 20
-19.1520424449849
 30
0.0
 41
1.0
 10
-2.973052942214279
 20
-19.1854141624778
 30
0.0
 41
1.0
 10
-2.973239476961449
 20
-19.2240862056729
 30
0.0
 41
1.0
 10
-2.97329245355445
 20
-19.2350784058665
 30
0.0
 41
1.0
 10
-2.97337987425212
 20
-19.2532248213628
 30
0.0
 41
1.0
 10
-2.973414323839899
 20
-19.2603801740601
 30
0.0
 41
1.0
 10
-2.97347303464397
 20
-19.2725769568174
 30
0.0
 41
1.0
 10
-2.973489739853449
 20
-19.2760440757617
 30
0.0
 41
1.0
 10
-2.973489595513679
 20
-19.2760115019994
 30
0.0
 41
1.0
  0
SPLINE
  5
E3
330
1F
100
AcDbEntity
  8
SK1
100
AcDbSpline
210
0.0
220
0.0
230
1.0
 70
    12
 71
     3
 72
   102
 73
    98
 74
     0
 42
0.000000001
 43
0.0000000001
 40
0.0
 40
0.0
 40
0.0
 40
0.0
 40
0.0067861891847759
 40
0.0067861891847759
 40
0.0380380441251707
 40
0.0380380441251707
 40
0.0692898990655656
 40
0.0692898990655656
 40
0.0771028628006643
 40
0.0771028628006643
 40
0.084915826535763
 40
0.084915826535763
 40
0.100541754005961
 40
0.100541754005961
 40
0.131793608946356
 40
0.131793608946356
 40
0.163045463886751
 40
0.163045463886751
 40
0.178671391356948
 40
0.178671391356948
 40
0.194297318827146
 40
0.194297318827146
 40
0.225549173767541
 40
0.225549173767541
 40
0.2568010287079359
 40
0.2568010287079359
 40
0.272426956178133
 40
0.272426956178133
 40
0.280239919913232
 40
0.280239919913232
 40
0.288052883648331
 40
0.288052883648331
 40
0.319304738588726
 40
0.319304738588726
 40
0.350556593529121
 40
0.350556593529121
 40
0.3818084484695159
 40
0.3818084484695159
 40
0.3896214122046151
 40
0.3896214122046151
 40
0.397434375939713
 40
0.397434375939713
 40
0.413060303409911
 40
0.413060303409911
 40
0.4443121583503061
 40
0.475564013290701
 40
0.475564013290701
 40
0.4911899407608979
 40
0.4911899407608979
 40
0.499002904495997
 40
0.499002904495997
 40
0.5068158682310951
 40
0.5068158682310951
 40
0.53806772317149
 40
0.53806772317149
 40
0.5693195781118851
 40
0.5693195781118851
 40
0.60057143305228
 40
0.60057143305228
 40
0.616197360522477
 40
0.616197360522477
 40
0.6318232879926751
 40
0.6318232879926751
 40
0.6630751429330699
 40
0.694326997873465
 40
0.694326997873465
 40
0.7099529253436621
 40
0.7099529253436621
 40
0.717765889078761
 40
0.717765889078761
 40
0.7255788528138601
 40
0.7255788528138601
 40
0.7568307077542542
 40
0.7568307077542542
 40
0.7880825626946491
 40
0.7880825626946491
 40
0.8193344176350439
 40
0.8193344176350439
 40
0.8271473813701421
 40
0.8271473813701421
 40
0.8349603451052409
 40
0.8349603451052409
 40
0.8505862725754379
 40
0.8505862725754379
 40
0.881838127515833
 40
0.881838127515833
 40
0.913089982456227
 40
0.913089982456227
 40
0.928715909926425
 40
0.928715909926425
 40
0.936528873661523
 40
0.936528873661523
 40
0.944341837396622
 40
0.944341837396622
 40
0.9755936923370171
 40
0.9755936923370171
 40
1.0
 40
1.0
 40
1.0
 40
1.0
 10
-69.07399993134871
 20
-19.2760056779052
 30
0.0
 41
1.0
 10
-69.0740004567039
 20
-19.2759616851143
 30
0.0
 41
1.0
 10
-69.07401807503339
 20
-19.2744851531312
 30
0.0
 41
1.0
 10
-69.0742121308277
 20
-19.2582216345841
 30
0.0
 41
1.0
 10
-69.0747321839806
 20
-19.2146360881601
 30
0.0
 41
1.0
 10
-69.07649708638399
 20
-19.0667343096599
 30
0.0
 41
1.0
 10
-69.0777418664876
 20
-18.9624237848399
 30
0.0
 41
1.0
 10
-69.079766599593
 20
-18.7927807438669
 30
0.0
 41
1.0
 10
-69.08019466044279
 20
-18.7569165710177
 30
0.0
 41
1.0
 10
-69.08109301095151
 20
-18.6816529366137
 30
0.0
 41
1.0
 10
-69.08156379718921
 20
-18.6422118685722
 30
0.0
 41
1.0
 10
-69.0830403450784
 20
-18.51851603348
 30
0.0
 41
1.0
 10
-69.08411025564639
 20
-18.4288919767704
 30
0.0
 41
1.0
 10
-69.0875729782666
 20
-18.1388553011197
 30
0.0
 41
1.0
 10
-69.0902181804139
 20
-17.9173279553439
 30
0.0
 41
1.0
 10
-69.09617757514491
 20
-17.4183762809883
 30
0.0
 41
1.0
 10
-69.09949174502171
 20
-17.1409537108283
 30
0.0
 41
1.0
 10
-69.10497608748869
 20
-16.6820131546307
 30
0.0
 41
1.0
 10
-69.10689037582
 20
-16.5218434884802
 30
0.0
 41
1.0
 10
-69.11089212807969
 20
-16.1870689214765
 30
0.0
 41
1.0
 10
-69.1129637007939
 20
-16.0137934646542
 30
0.0
 41
1.0
 10
-69.11938624696588
 20
-15.4766760553201
 30
0.0
 41
1.0
 10
-69.1239445528995
 20
-15.0955841890637
 30
0.0
 41
1.0
 10
-69.1336043685396
 20
-14.2883081234792
 30
0.0
 41
1.0
 10
-69.1387058922341
 20
-13.862122594148
 30
0.0
 41
1.0
 10
-69.1467699474299
 20
-13.188741796705
 30
0.0
 41
1.0
 10
-69.14952671550121
 20
-12.9585877366456
 30
0.0
 41
1.0
 10
-69.15376667529179
 20
-12.6046866503507
 30
0.0
 41
1.0
 10
-69.15519747135539
 20
-12.4852739469833
 30
0.0
 41
1.0
 10
-69.15809439846549
 20
-12.2435272177427
 30
0.0
 41
1.0
 10
-69.15956257468609
 20
-12.1210225718446
 30
0.0
 41
1.0
 10
-69.16696500480419
 20
-11.5034359945338
 30
0.0
 41
1.0
 10
-69.1730716743714
 20
-10.9941836810463
 30
0.0
 41
1.0
 10
-69.18564355053999
 20
-9.94631001944194
 30
0.0
 41
1.0
 10
-69.1921087878939
 20
-9.407685973418891
 30
0.0
 41
1.0
 10
-69.20539744770079
 20
-8.30118856169901
 30
0.0
 41
1.0
 10
-69.2122208510193
 20
-7.73331663263548
 30
0.0
 41
1.0
 10
-69.2209801449968
 20
-7.004742487164379
 30
0.0
 41
1.0
 10
-69.2227435321914
 20
-6.85808877071969
 30
0.0
 41
1.0
 10
-69.2262936275782
 20
-6.56288319089353
 30
0.0
 41
1.0
 10
-69.228081972536
 20
-6.41419531173395
 30
0.0
 41
1.0
 10
-69.2334532765831
 20
-5.96767349120805
 30
0.0
 41
1.0
 10
-69.2370508359885
 20
-5.66868844624062
 30
0.0
 41
1.0
 10
-69.2478927620951
 20
-4.767897085372481
 30
0.0
 41
1.0
 10
-69.2624797679587
 20
-3.55663086868253
 30
0.0
 41
1.0
 10
-69.2773257736164
 20
-2.32528275008272
 30
0.0
 41
1.0
 10
-69.28855883281261
 20
-1.39415076079212
 30
0.0
 41
1.0
 10
-69.2923196389104
 20
-1.08250103385871
 30
0.0
 41
1.0
 10
-69.2979859641688
 20
-0.61308533486249
 30
0.0
 41
1.0
 10
-69.299878927137
 20
-0.456289763860923
 30
0.0
 41
1.0
 10
-69.3036733249574
 20
-0.142043941469268
 30
0.0
 41
1.0
 10
-69.3055725750136
 20
0.0152253011891617
 30
0.0
 41
1.0
 10
-69.31503846419929
 20
0.7989406011878091
 30
0.0
 41
1.0
 10
-69.3225516964751
 20
1.42061443457976
 30
0.0
 41
1.0
 10
-69.3374625274116
 20
2.653674862268249
 30
0.0
 41
1.0
 10
-69.34486011764339
 20
3.26506069963611
 30
0.0
 41
1.0
 10
-69.3595393238332
 20
4.477550384207259
 30
0.0
 41
1.0
 10
-69.3668209488242
 20
5.078654920258169
 30
0.0
 41
1.0
 10
-69.37765343327129
 20
5.97237997830371
 30
0.0
 41
1.0
 10
-69.38125612393111
 20
6.269531222933269
 30
0.0
 41
1.0
 10
-69.38835498375539
 20
6.854884513868799
 30
0.0
 41
1.0
 10
-69.39185939106599
 20
7.143766574493469
 30
0.0
 41
1.0
 10
-69.40223973225539
 20
7.99922751953565
 30
0.0
 41
1.0
 10
-69.4157264520455
 20
9.110066564438399
 30
0.0
 41
1.0
 10
-69.42851299029619
 20
10.1621390575807
 30
0.0
 41
1.0
 10
-69.4378353279443
 20
10.9288110288437
 30
0.0
 41
1.0
 10
-69.44089809932589
 20
11.1806313331255
 30
0.0
 41
1.0
 10
-69.4454238542385
 20
11.5526500542019
 30
0.0
 41
1.0
 10
-69.446923059302
 20
11.6758703710955
 30
0.0
 41
1.0
 10
-69.44988728167359
 20
11.9194726765455
 30
0.0
 41
1.0
 10
-69.45135164574721
 20
12.0398010337817
 30
0.0
 41
1.0
 10
-69.458585662331
 20
12.6341604659811
 30
0.0
 41
1.0
 10
-69.46409255619021
 20
13.0863987156733
 30
0.0
 41
1.0
 10
-69.47455876117441
 20
13.9455683152219
 30
0.0
 41
1.0
 10
-69.4795180439155
 20
14.3524971412304
 30
0.0
 41
1.0
 10
-69.48888604882499
 20
15.1209096971132
 30
0.0
 41
1.0
 10
-69.4932948198209
 20
15.4823972927999
 30
0.0
 41
1.0
 10
-69.4984497449186
 20
15.9049348762381
 30
0.0
 41
1.0
 10
-69.49946374386399
 20
15.9880431250034
 30
0.0
 41
1.0
 10
-69.50144505849789
 20
16.1504208664734
 30
0.0
 41
1.0
 10
-69.50241362344179
 20
16.229792770462
 30
0.0
 41
1.0
 10
-69.5052537166668
 20
16.462515438575
 30
0.0
 41
1.0
 10
-69.5070596840044
 20
16.6104765340261
 30
0.0
 41
1.0
 10
-69.5122191824734
 20
17.0331341350594
 30
0.0
 41
1.0
 10
-69.51531491270831
 20
17.2866548920645
 30
0.0
 41
1.0
 10
-69.52082410434091
 20
17.7377362567964
 30
0.0
 41
1.0
 10
-69.5232375826878
 20
17.9352981473262
 30
0.0
 41
1.0
 10
-69.52633561468761
 20
18.1888612511783
 30
0.0
 41
1.0
 10
-69.5272811074055
 20
18.2662396170995
 30
0.0
 41
1.0
 10
-69.5285657776277
 20
18.3713695571481
 30
0.0
 41
1.0
 10
-69.52897117464509
 20
18.4045436963125
 30
0.0
 41
1.0
 10
-69.5297331278436
 20
18.4668934912097
 30
0.0
 41
1.0
 10
-69.530090224408
 20
18.496113369057
 30
0.0
 41
1.0
 10
-69.5317574988194
 20
18.632536838768
 30
0.0
 41
1.0
 10
-69.5327139116834
 20
18.7107839461079
 30
0.0
 41
1.0
 10
-69.5337596288583
 20
18.7963358819212
 30
0.0
 41
1.0
 10
-69.53399296254389
 20
18.8154244875169
 30
0.0
 41
1.0
 10
-69.53399991105509
 20
18.8159928020195
 30
0.0
 41
1.0
  0
SPLINE
  5
E4
330
1F
100
AcDbEntity
  8
SK1
100
AcDbSpline
210
0.0
220
0.0
230
1.0
 70
    12
 71
     3
 72
     8
 73
     4
 74
     0
 42
0.000000001
 43
0.0000000001
 40
0.0
 40
0.0
 40
0.0
 40
0.0
 40
1.0
 40
1.0
 40
1.0
 40
1.0
 10
-69.48758420930049
 20
15.0141012860983
 30
0.0
 41
1.0
 10
-69.4845405180645
 20
14.764486711928
 30
0.0
 41
1.0
 10
-69.48135810006871
 20
14.5034345543208
 30
0.0
 41
1.0
 10
-69.4780350245269
 20
14.2307694880809
 30
0.0
 41
1.0
  0
SPLINE
  5
E5
330
1F
100
AcDbEntity
  8
SK1
100
AcDbSpline
210
0.0
220
0.0
230
1.0
 70
    12
 71
     3
 72
    58
 73
    54
 74
     0
 42
0.000000001
 43
0.0000000001
 40
0.0
 40
0.0
 40
0.0
 40
0.0
 40
0.0625037654058276
 40
0.0625037654058276
 40
0.0937556481087414
 40
0.0937556481087414
 40
0.109381589460198
 40
0.109381589460198
 40
0.125007530811655
 40
0.125007530811655
 40
0.187511296217483
 40
0.187511296217483
 40
0.25001506162331
 40
0.25001506162331
 40
0.281266944326224
 40
0.281266944326224
 40
0.296892885677681
 40
0.296892885677681
 40
0.312518827029138
 40
0.312518827029138
 40
0.375022592434966
 40
0.375022592434966
 40
0.4375263578407941
 40
0.4375263578407941
 40
0.468778240543708
 40
0.468778240543708
 40
0.4844041818951651
 40
0.4844041818951651
 40
0.500030123246622
 40
0.500030123246622
 40
0.5625338886524489
 40
0.5625338886524489
 40
0.625037654058276
 40
0.625037654058276
 40
0.6875414194641041
 40
0.6875414194641041
 40
0.703167360815561
 40
0.703167360815561
 40
0.7187933021670173
 40
0.7187933021670173
 40
0.7500451848699309
 40
0.7500451848699309
 40
0.8125489502757591
 40
0.8125489502757591
 40
0.8750527156815859
 40
0.8750527156815859
 40
0.8906786570330428
 40
0.8906786570330428
 40
0.9063045983844999
 40
0.9063045983844999
 40
0.937556481087414
 40
0.937556481087414
 40
1.0
 40
1.0
 40
1.0
 40
1.0
 10
-52.36560453943029
 20
2.39999999999995
 30
0.0
 41
1.0
 10
-52.3736915425327
 20
1.73139455258186
 30
0.0
 41
1.0
 10
-52.38182987710279
 20
1.05811871734713
 30
0.0
 41
1.0
 10
-52.3941153222792
 20
0.0410964390677577
 30
0.0
 41
1.0
 10
-52.3982234911197
 20
-0.299098220061268
 30
0.0
 41
1.0
 10
-52.40440567800749
 20
-0.811207598874887
 30
0.0
 41
1.0
 10
-52.4064727743848
 20
-0.9824659948736499
 30
0.0
 41
1.0
 10
-52.41059259208729
 20
-1.323847213713809
 30
0.0
 41
1.0
 10
-52.4126464061333
 20
-1.4940604604642
 30
0.0
 41
1.0
 10
-52.4228853676087
 20
-2.34276771889196
 30
0.0
 41
1.0
 10
-52.4309804390778
 20
-3.014205415830959
 30
0.0
 41
1.0
 10
-52.44698358700301
 20
-4.342395863210839
 30
0.0
 41
1.0
 10
-52.45489165416991
 20
-4.999147951171409
 30
0.0
 41
1.0
 10
-52.4666127919532
 20
-5.97315950535094
 30
0.0
 41
1.0
 10
-52.4704962973333
 20
-6.29597339069838
 30
0.0
 41
1.0
 10
-52.4762857172906
 20
-6.777360033215049
 30
0.0
 41
1.0
 10
-52.47820954776379
 20
-6.937349620093129
 30
0.0
 41
1.0
 10
-52.48204512884329
 20
-7.25637203082013
 30
0.0
 41
1.0
 10
-52.48395486959999
 20
-7.415237762798989
 30
0.0
 41
1.0
 10
-52.4934166369856
 20
-8.202450524325909
 30
0.0
 41
1.0
 10
-52.500751563032
 20
-8.813084572760489
 30
0.0
 41
1.0
 10
-52.5149678215642
 20
-9.997228426281768
 30
0.0
 41
1.0
 10
-52.52184911688229
 20
-10.570735391905
 30
0.0
 41
1.0
 10
-52.53183062494199
 20
-11.4030414215309
 30
0.0
 41
1.0
 10
-52.53510093738929
 20
-11.6758079484958
 30
0.0
 41
1.0
 10
-52.5399200033584
 20
-12.0778503367795
 30
0.0
 41
1.0
 10
-52.5415119504289
 20
-12.2106792505934
 30
0.0
 41
1.0
 10
-52.5446667445717
 20
-12.4739411891012
 30
0.0
 41
1.0
 10
-52.5462310958541
 20
-12.6044997707977
 30
0.0
 41
1.0
 10
-52.5539623153507
 20
-13.2498138162716
 30
0.0
 41
1.0
 10
-52.5597997070634
 20
-13.7373010941981
 30
0.0
 41
1.0
 10
-52.5708055530578
 20
-14.6567822310783
 30
0.0
 41
1.0
 10
-52.5759739314007
 20
-15.0887700700138
 30
0.0
 41
1.0
 10
-52.5856442352795
 20
-15.8973255816276
 30
0.0
 41
1.0
 10
-52.5901462178923
 20
-16.2738982456022
 30
0.0
 41
1.0
 10
-52.59534430917029
 20
-16.7088271689307
 30
0.0
 41
1.0
 10
-52.59636348053799
 20
-16.7941092204615
 30
0.0
 41
1.0
 10
-52.5983469880366
 20
-16.9600973658342
 30
0.0
 41
1.0
 10
-52.5993125794033
 20
-17.0409084705791
 30
0.0
 41
1.0
 10
-52.6021317959713
 20
-17.2768677326382
 30
0.0
 41
1.0
 10
-52.60390792132629
 20
-17.42554660622969
 30
0.0
 41
1.0
 10
-52.6089315090592
 20
-17.8461209879131
 30
0.0
 41
1.0
 10
-52.6118750379751
 20
-18.0926250437842
 30
0.0
 41
1.0
 10
-52.6169577249346
 20
-18.518342426066
 30
0.0
 41
1.0
 10
-52.6190969283752
 20
-18.6975596843968
 30
0.0
 41
1.0
 10
-52.62125487068829
 20
-18.8783654451242
 30
0.0
 41
1.0
 10
-52.6216605842826
 20
-18.9123598516444
 30
0.0
 41
1.0
 10
-52.6224196293178
 20
-18.9759613575571
 30
0.0
 41
1.0
 10
-52.6227719784971
 20
-19.0054861520522
 30
0.0
 41
1.0
 10
-52.6237450127524
 20
-19.0870225995638
 30
0.0
 41
1.0
 10
-52.6242832234076
 20
-19.1321251986012
 30
0.0
 41
1.0
 10
-52.62557195037389
 20
-19.2401245138568
 30
0.0
 41
1.0
 10
-52.6259991164655
 20
-19.2759259497393
 30
0.0
 41
1.0
 10
-52.6260000472073
 20
-19.2760039564564
 30
0.0
 41
1.0
  0
SPLINE
  5
E6
330
1F
100
AcDbEntity
  8
SK1
100
AcDbSpline
210
0.0
220
0.0
230
1.0
 70
    12
 71
     3
 72
    57
 73
    53
 74
     0
 42
0.000000001
 43
0.0000000001
 40
0.0
 40
0.0
 40
0.0
 40
0.0
 40
0.0624697485952139
 40
0.0624697485952139
 40
0.124971765355533
 40
0.124971765355533
 40
0.140597269545613
 40
0.140597269545613
 40
0.156222773735692
 40
0.156222773735692
 40
0.187473782115851
 40
0.187473782115851
 40
0.24997579887617
 40
0.24997579887617
 40
0.312477815636489
 40
0.312477815636489
 40
0.328103319826569
 40
0.328103319826569
 40
0.343728824016648
 40
0.343728824016648
 40
0.374979832396808
 40
0.374979832396808
 40
0.4374818491571271
 40
0.4374818491571271
 40
0.4999838659174461
 40
0.4999838659174461
 40
0.5156093701075261
 40
0.5156093701075261
 40
0.5312348742976062
 40
0.5312348742976062
 40
0.5624858826777651
 40
0.5624858826777651
 40
0.624987899438084
 40
0.6874899161984029
 40
0.6874899161984029
 40
0.718740924578563
 40
0.718740924578563
 40
0.734366428768643
 40
0.734366428768643
 40
0.7499919329587231
 40
0.7499919329587231
 40
0.8124939497190419
 40
0.8124939497190419
 40
0.8749959664793609
 40
0.8749959664793609
 40
0.9062469748595209
 40
0.9062469748595209
 40
0.9218724790496009
 40
0.9218724790496009
 40
0.9374979832396808
 40
0.9374979832396808
 40
1.0
 40
1.0
 40
1.0
 40
1.0
 10
-19.3740000005244
 20
-19.2759999560448
 30
0.0
 41
1.0
 10
-19.3740005475886
 20
-19.2759541060772
 30
0.0
 41
1.0
 10
-19.3744290317033
 20
-19.2400422192333
 30
0.0
 41
1.0
 10
-19.3761417744912
 20
-19.0965090505715
 30
0.0
 41
1.0
 10
-19.3774263930734
 20
-18.9888575002348
 30
0.0
 41
1.0
 10
-19.3795857818458
 20
-18.8079303320021
 30
0.0
 41
1.0
 10
-19.3800458169399
 20
-18.7693869172357
 30
0.0
 41
1.0
 10
-19.3810159843534
 20
-18.6881059998632
 30
0.0
 41
1.0
 10
-19.3815266997674
 20
-18.6453196400171
 30
0.0
 41
1.0
 10
-19.3831348953582
 20
-18.5105952413011
 30
0.0
 41
1.0
 10
-19.3843083685209
 20
-18.412296560951
 30
0.0
 41
1.0
 10
-19.3881281649738
 20
-18.0923567481581
 30
0.0
 41
1.0
 10
-19.3910730245838
 20
-17.8457414789263
 30
0.0
 41
1.0
 10
-19.3977555707339
 20
-17.286279130655
 30
0.0
 41
1.0
 10
-19.4014932049551
 20
-16.9734361957216
 30
0.0
 41
1.0
 10
-19.4066756358497
 20
-16.5398163252078
 30
0.0
 41
1.0
 10
-19.4077377125539
 20
-16.4509581633083
 30
0.0
 41
1.0
 10
-19.4099137159446
 20
-16.2689196394556
 30
0.0
 41
1.0
 10
-19.4110234855846
 20
-16.1760870547326
 30
0.0
 41
1.0
 10
-19.4144136847193
 20
-15.8925212704622
 30
0.0
 41
1.0
 10
-19.4167565459843
 20
-15.696591054206
 30
0.0
 41
1.0
 10
-19.4240289954632
 20
-15.0885251332166
 30
0.0
 41
1.0
 10
-19.4292017692063
 20
-14.6561705247919
 30
0.0
 41
1.0
 10
-19.4401903951545
 20
-13.7381279716033
 30
0.0
 41
1.0
 10
-19.44600622397
 20
-13.2524417008714
 30
0.0
 41
1.0
 10
-19.4536881220735
 20
-12.6112420742549
 30
0.0
 41
1.0
 10
-19.45524516349889
 20
-12.4812929205745
 30
0.0
 41
1.0
 10
-19.4584010577281
 20
-12.2179379806375
 30
0.0
 41
1.0
 10
-19.4600024028274
 20
-12.0843242841514
 30
0.0
 41
1.0
 10
-19.4648479167798
 20
-11.6800739590719
 30
0.0
 41
1.0
 10
-19.468132900887
 20
-11.4060831783598
 30
0.0
 41
1.0
 10
-19.4781485837214
 20
-10.5709263997968
 30
0.0
 41
1.0
 10
-19.4919305555862
 20
-9.4222990715395
 30
0.0
 41
1.0
 10
-19.5065565592042
 20
-8.204682815957509
 30
0.0
 41
1.0
 10
-19.5178490398024
 20
-7.265152597580139
 30
0.0
 41
1.0
 10
-19.52166714135939
 20
-6.94758032286987
 30
0.0
 41
1.0
 10
-19.5274770868635
 20
-6.464484375699219
 30
0.0
 41
1.0
 10
-19.5294270243352
 20
-6.302371973509139
 30
0.0
 41
1.0
 10
-19.5333308220432
 20
-5.97787097725234
 30
0.0
 41
1.0
 10
-19.535287618977
 20
-5.81523817645407
 30
0.0
 41
1.0
 10
-19.5450958635008
 20
-5.00018368643933
 30
0.0
 41
1.0
 10
-19.5530198932035
 20
-4.342106950246149
 30
0.0
 41
1.0
 10
-19.5690201767428
 20
-3.014154376699479
 30
0.0
 41
1.0
 10
-19.5770964338776
 20
-2.34427818034149
 30
0.0
 41
1.0
 10
-19.5893266917248
 20
-1.330509445400139
 30
0.0
 41
1.0
 10
-19.5934227941087
 20
-0.9910910087254759
 30
0.0
 41
1.0
 10
-19.5995965438358
 20
-0.4796774078548371
 30
0.0
 41
1.0
 10
-19.6016605052817
 20
-0.308733119819181
 30
0.0
 41
1.0
 10
-19.6057937498866
 20
0.0335403784124253
 30
0.0
 41
1.0
 10
-19.60785588100019
 20
0.204277359463191
 30
0.0
 41
1.0
 10
-19.6181443583916
 20
1.05598822336992
 30
0.0
 41
1.0
 10
-19.626304379111
 20
1.73105736819187
 30
0.0
 41
1.0
 10
-19.6343954605697
 20
2.399999999999979
 30
0.0
 41
1.0
  0
SPLINE
  5
E7
330
1F
100
AcDbEntity
  8
SK1
100
AcDbSpline
210
0.0
220
0.0
230
1.0
 70
    12
 71
     3
 72
    38
 73
    34
 74
     0
 42
0.000000001
 43
0.0000000001
 40
0.0
 40
0.0
 40
0.0
 40
0.0
 40
0.124999999999999
 40
0.124999999999999
 40
0.187499999999998
 40
0.187499999999998
 40
0.218749999999998
 40
0.218749999999998
 40
0.249999999999998
 40
0.249999999999998
 40
0.374999999999998
 40
0.374999999999998
 40
0.4062499999999981
 40
0.4062499999999981
 40
0.4374999999999981
 40
0.4374999999999981
 40
0.499999999999999
 40
0.499999999999999
 40
0.5624999999999991
 40
0.5624999999999991
 40
0.5937499999999991
 40
0.5937499999999991
 40
0.625
 40
0.625
 40
0.7499999999999991
 40
0.7499999999999991
 40
0.8124999999999989
 40
0.8124999999999989
 40
0.84375
 40
0.84375
 40
0.875
 40
0.875
 40
1.0
 40
1.0
 40
1.0
 40
1.0
 10
-15.0
 20
2.399999999999979
 30
0.0
 41
1.0
 10
-14.5917127376192
 20
2.399999999999979
 30
0.0
 41
1.0
 10
-14.1904966044509
 20
2.441242163284669
 30
0.0
 41
1.0
 10
-13.5988713430627
 20
2.562418209334029
 30
0.0
 41
1.0
 10
-13.4033766190451
 20
2.612773180551669
 30
0.0
 41
1.0
 10
-13.1127786989728
 20
2.703624320584369
 30
0.0
 41
1.0
 10
-13.0160903350996
 20
2.7365717200635
 30
0.0
 41
1.0
 10
-12.8255282394295
 20
2.806969515285
 30
0.0
 41
1.0
 10
-12.7315322460269
 20
2.84444157055194
 30
0.0
 41
1.0
 10
-12.2678631611138
 20
3.04292664649495
 30
0.0
 41
1.0
 10
-11.9169364347412
 20
3.237000295469529
 30
0.0
 41
1.0
 10
-11.5033953931312
 20
3.523128907357799
 30
0.0
 41
1.0
 10
-11.4219546410262
 20
3.582550888121009
 30
0.0
 41
1.0
 10
-11.2616581535997
 20
3.705852071369069
 30
0.0
 41
1.0
 10
-11.1830777387795
 20
3.769536577459549
 30
0.0
 41
1.0
 10
-10.9538216766223
 20
3.96504913238374
 30
0.0
 41
1.0
 10
-10.8088535465213
 20
4.101905441480279
 30
0.0
 41
1.0
 10
-10.5341969442253
 20
4.38802685757781
 30
0.0
 41
1.0
 10
-10.4045099931631
 20
4.53729362612108
 30
0.0
 41
1.0
 10
-10.2214051401266
 20
4.770290865836839
 30
0.0
 41
1.0
 10
-10.1622774981181
 20
4.84947526437844
 30
0.0
 41
1.0
 10
-10.04786734614
 20
5.010875174613889
 30
0.0
 41
1.0
 10
-9.992439397085719
 20
5.093324542668369
 30
0.0
 41
1.0
 10
-9.726993429901849
 20
5.51007715269822
 30
0.0
 41
1.0
 10
-9.552630867797519
 20
5.85589923069011
 30
0.0
 41
1.0
 10
-9.34342533061309
 20
6.39009134377469
 30
0.0
 41
1.0
 10
-9.282471784310528
 20
6.57075576091958
 30
0.0
 41
1.0
 10
-9.204104260251089
 20
6.84543947695374
 30
0.0
 41
1.0
 10
-9.180208598847858
 20
6.937496339320859
 30
0.0
 41
1.0
 10
-9.137131101820159
 20
7.121071857695
 30
0.0
 41
1.0
 10
-9.117887982103528
 20
7.21279825565253
 30
0.0
 41
1.0
 10
-9.032782970600118
 20
7.67105741662238
 30
0.0
 41
1.0
 10
-9.0
 20
8.036446620180839
 30
0.0
 41
1.0
 10
-9.0
 20
8.400000000000009
 30
0.0
 41
1.0
  0
SPLINE
  5
E8
330
1F
100
AcDbEntity
  8
SK1
100
AcDbSpline
210
0.0
220
0.0
230
1.0
 70
    28
 71
     3
 72
     8
 73
     4
 74
     0
 42
0.000000001
 43
0.0000000001
 40
0.0
 40
0.0
 40
0.0
 40
0.0
 40
1.0
 40
1.0
 40
1.0
 40
1.0
 10
-20.0
 20
2.399999999999979
 30
0.0
 41
1.0
 10
-19.8781417455402
 20
2.399999999999979
 30
0.0
 41
1.0
 10
-19.75627337335
 20
2.399999999999979
 30
0.0
 41
1.0
 10
-19.6343954605697
 20
2.399999999999979
 30
0.0
 41
1.0
  0
SPLINE
  5
E9
330
1F
100
AcDbEntity
  8
SK1
100
AcDbSpline
210
0.0
220
0.0
230
1.0
 70
    12
 71
     3
 72
    38
 73
    34
 74
     0
 42
0.000000001
 43
0.0000000001
 40
0.0
 40
0.0
 40
0.0
 40
0.0
 40
0.124999999999998
 40
0.124999999999998
 40
0.187499999999996
 40
0.187499999999996
 40
0.218749999999996
 40
0.218749999999996
 40
0.249999999999995
 40
0.249999999999995
 40
0.374999999999994
 40
0.374999999999994
 40
0.406249999999994
 40
0.406249999999994
 40
0.437499999999994
 40
0.437499999999994
 40
0.4999999999999951
 40
0.4999999999999951
 40
0.5624999999999951
 40
0.5624999999999951
 40
0.593749999999996
 40
0.593749999999996
 40
0.624999999999996
 40
0.624999999999996
 40
0.7499999999999979
 40
0.7499999999999979
 40
0.8124999999999989
 40
0.8124999999999989
 40
0.8437499999999989
 40
0.8437499999999989
 40
0.875
 40
0.875
 40
1.0
 40
1.0
 40
1.0
 40
1.0
 10
-23.0
 20
2.399999999999979
 30
0.0
 41
1.0
 10
-23.4079025870581
 20
2.399999999999979
 30
0.0
 41
1.0
 10
-23.8087569845313
 20
2.44116525185791
 30
0.0
 41
1.0
 10
-24.3998727697193
 20
2.56212315284725
 30
0.0
 41
1.0
 10
-24.5952032848001
 20
2.612388001692409
 30
0.0
 41
1.0
 10
-24.8855639991691
 20
2.70307715115121
 30
0.0
 41
1.0
 10
-24.98217913846361
 20
2.735967001667009
 30
0.0
 41
1.0
 10
-25.1726388069554
 20
2.80625844736485
 30
0.0
 41
1.0
 10
-25.266586962934
 20
2.843675121774879
 30
0.0
 41
1.0
 10
-25.7300335067374
 20
3.04187356822374
 30
0.0
 41
1.0
 10
-26.0808348577951
 20
3.23568682609593
 30
0.0
 41
1.0
 10
-26.4942881050225
 20
3.521469969058669
 30
0.0
 41
1.0
 10
-26.5757147806073
 20
3.580821860945489
 30
0.0
 41
1.0
 10
-26.7359902929687
 20
3.703981403461229
 30
0.0
 41
1.0
 10
-26.8146187200522
 20
3.7676387026772
 30
0.0
 41
1.0
 10
-27.0439732589315
 20
3.96303831949473
 30
0.0
 41
1.0
 10
-27.1890133984123
 20
4.09982601780141
 30
0.0
 41
1.0
 10
-27.4638257795567
 20
4.38582649365773
 30
0.0
 41
1.0
 10
-27.5935965084885
 20
4.535040925258579
 30
0.0
 41
1.0
 10
-27.7768348920374
 20
4.76797469760055
 30
0.0
 41
1.0
 10
-27.8360083514796
 20
4.84714045409282
 30
0.0
 41
1.0
 10
-27.9505125371641
 20
5.008508683793389
 30
0.0
 41
1.0
 10
-28.0059808095919
 20
5.09093091129733
 30
0.0
 41
1.0
 10
-28.2718421666103
 20
5.507908409592909
 30
0.0
 41
1.0
 10
-28.4464675047859
 20
5.85392898363062
 30
0.0
 41
1.0
 10
-28.6559894766285
 20
6.388432323897719
 30
0.0
 41
1.0
 10
-28.7170353174188
 20
6.569202813884739
 30
0.0
 41
1.0
 10
-28.7955233058747
 20
6.844047751250339
 30
0.0
 41
1.0
 10
-28.8194710598005
 20
6.936215467170089
 30
0.0
 41
1.0
 10
-28.8626334219656
 20
7.11998518209373
 30
0.0
 41
1.0
 10
-28.8819129975708
 20
7.211805215665659
 30
0.0
 41
1.0
 10
-28.9671742857209
 20
7.670514737626549
 30
0.0
 41
1.0
 10
-29.0
 20
8.03620738216307
 30
0.0
 41
1.0
 10
-29.0
 20
8.39999999999998
 30
0.0
 41
1.0
  0
SPLINE
  5
EA
330
1F
100
AcDbEntity
  8
SK1
100
AcDbSpline
210
0.0
220
0.0
230
1.0
 70
    28
 71
     3
 72
     8
 73
     4
 74
     0
 42
0.000000001
 43
0.0000000001
 40
0.0
 40
0.0
 40
0.0
 40
0.0
 40
1.0
 40
1.0
 40
1.0
 40
1.0
 10
-52.3656045394302
 20
2.39999999999995
 30
0.0
 41
1.0
 10
-52.2437266033285
 20
2.39999999999995
 30
0.0
 41
1.0
 10
-52.12185823068111
 20
2.39999999999995
 30
0.0
 41
1.0
 10
-52.0
 20
2.39999999999995
 30
0.0
 41
1.0
  0
SPLINE
  5
EB
330
1F
100
AcDbEntity
  8
SK1
100
AcDbSpline
210
0.0
220
0.0
230
1.0
 70
    12
 71
     3
 72
    38
 73
    34
 74
     0
 42
0.000000001
 43
0.0000000001
 40
0.0
 40
0.0
 40
0.0
 40
0.0
 40
0.124999999999995
 40
0.124999999999995
 40
0.187499999999992
 40
0.187499999999992
 40
0.218749999999991
 40
0.218749999999991
 40
0.24999999999999
 40
0.24999999999999
 40
0.374999999999986
 40
0.374999999999986
 40
0.437499999999985
 40
0.437499999999985
 40
0.468749999999985
 40
0.468749999999985
 40
0.499999999999986
 40
0.499999999999986
 40
0.624999999999988
 40
0.624999999999988
 40
0.6562499999999871
 40
0.6562499999999871
 40
0.6874999999999871
 40
0.6874999999999871
 40
0.749999999999988
 40
0.749999999999988
 40
0.81249999999999
 40
0.81249999999999
 40
0.84374999999999
 40
0.84374999999999
 40
0.8749999999999909
 40
0.8749999999999909
 40
1.0
 40
1.0
 40
1.0
 40
1.0
 10
-62.5
 20
8.39999999999992
 30
0.0
 41
1.0
 10
-62.5
 20
8.036463412034269
 30
0.0
 41
1.0
 10
-62.4672089590569
 20
7.672116363899139
 30
0.0
 41
1.0
 10
-62.3659822612443
 20
7.12540145616148
 30
0.0
 41
1.0
 10
-62.32352195047879
 20
6.943136093521839
 30
0.0
 41
1.0
 10
-62.24592689018329
 20
6.669887500739999
 30
0.0
 41
1.0
 10
-62.217740790818
 20
6.57883005690357
 30
0.0
 41
1.0
 10
-62.1565386268832
 20
6.396804933312549
 30
0.0
 41
1.0
 10
-62.12365855217599
 20
6.30627064131525
 30
0.0
 41
1.0
 10
-61.94878843949069
 20
5.85863919055876
 30
0.0
 41
1.0
 10
-61.774783199094
 20
5.513971608719399
 30
0.0
 41
1.0
 10
-61.4608413523527
 20
5.019441245153669
 30
0.0
 41
1.0
 10
-61.3473242845514
 20
4.858365081271929
 30
0.0
 41
1.0
 10
-61.1630187694641
 20
4.62293915723947
 30
0.0
 41
1.0
 10
-61.099282358918
 20
4.545581207498629
 30
0.0
 41
1.0
 10
-60.9686676232762
 20
4.394884256638079
 30
0.0
 41
1.0
 10
-60.9016040078576
 20
4.32130242933096
 30
0.0
 41
1.0
 10
-60.5576051904096
 20
3.96219563767605
 30
0.0
 41
1.0
 10
-60.25486547282899
 20
3.70283695881758
 30
0.0
 41
1.0
 10
-59.8412624773235
 20
3.415412527872859
 30
0.0
 41
1.0
 10
-59.75670233086169
 20
3.359741230466709
 30
0.0
 41
1.0
 10
-59.58422137040811
 20
3.25238918778669
 30
0.0
 41
1.0
 10
-59.49693812230311
 20
3.201100611627029
 30
0.0
 41
1.0
 10
-59.23202656278711
 20
3.05427248191822
 30
0.0
 41
1.0
 10
-59.05134407371999
 20
2.96575368072354
 30
0.0
 41
1.0
 10
-58.6819902663664
 20
2.807209272772839
 30
0.0
 41
1.0
 10
-58.49331895887249
 20
2.737183415367549
 30
0.0
 41
1.0
 10
-58.20425623911869
 20
2.64624351339293
 30
0.0
 41
1.0
 10
-58.1068907952363
 20
2.61828428285037
 30
0.0
 41
1.0
 10
-57.9101025114192
 20
2.567166591694959
 30
0.0
 41
1.0
 10
-57.8105166503562
 20
2.54398545678521
 30
0.0
 41
1.0
 10
-57.31206149755901
 20
2.44128204531947
 30
0.0
 41
1.0
 10
-56.9084641823929
 20
2.39999999999995
 30
0.0
 41
1.0
 10
-56.5
 20
2.39999999999995
 30
0.0
 41
1.0
  0
SPLINE
  5
EC
330
1F
100
AcDbEntity
  8
1
100
AcDbSpline
210
0.0
220
0.0
230
1.0
 70
    12
 71
     3
 72
    51
 73
    47
 74
     0
 42
0.000000001
 43
0.0000000001
 40
0.0
 40
0.0
 40
0.0
 40
0.0
 40
0.0624755231912851
 40
0.0624755231912851
 40
0.0937132847869276
 40
0.0937132847869276
 40
0.12495104638257
 40
0.12495104638257
 40
0.187426569573855
 40
0.187426569573855
 40
0.249902092765141
 40
0.249902092765141
 40
0.312377615956426
 40
0.312377615956426
 40
0.343615377552068
 40
0.343615377552068
 40
0.374853139147711
 40
0.406090900743353
 40
0.406090900743353
 40
0.437328662338995
 40
0.437328662338995
 40
0.49980418553028
 40
0.49980418553028
 40
0.5310419471259231
 40
0.5310419471259231
 40
0.562279708721565
 40
0.562279708721565
 40
0.6247552319128501
 40
0.6247552319128501
 40
0.655992993508492
 40
0.655992993508492
 40
0.6872307551041342
 40
0.6872307551041342
 40
0.7497062782954202
 40
0.7497062782954202
 40
0.812181801486704
 40
0.812181801486704
 40
0.843419563082347
 40
0.843419563082347
 40
0.874657324677989
 40
0.874657324677989
 40
0.9371328478692738
 40
0.9371328478692738
 40
0.999608371060559
 40
0.999608371060559
 40
1.0
 40
1.0
 40
1.0
 40
1.0
 10
3.300001561841269
 20
25.0000000504618
 30
0.0
 41
1.0
 10
3.29999512705399
 20
24.99999984259681
 30
0.0
 41
1.0
 10
3.294813300266349
 20
24.9998325002155
 30
0.0
 41
1.0
 10
3.2795718564297
 20
24.9993541215263
 30
0.0
 41
1.0
 10
3.273238559488699
 20
24.9991567846012
 30
0.0
 41
1.0
 10
3.25800921987133
 20
24.9986903666692
 30
0.0
 41
1.0
 10
3.249070413088789
 20
24.9984200658917
 30
0.0
 41
1.0
 10
3.218953480390499
 20
24.9975297046531
 30
0.0
 41
1.0
 10
3.194380866493899
 20
24.9968262547678
 30
0.0
 41
1.0
 10
3.13632662640615
 20
24.9952809465861
 30
0.0
 41
1.0
 10
3.102537932355009
 20
24.9944331952951
 30
0.0
 41
1.0
 10
3.028729982090279
 20
24.9927628362313
 30
0.0
 41
1.0
 10
2.98845698523363
 20
24.9919322796717
 30
0.0
 41
1.0
 10
2.92287146594933
 20
24.9907651441094
 30
0.0
 41
1.0
 10
2.90014928762912
 20
24.9903898798295
 30
0.0
 41
1.0
 10
2.8539658283301
 20
24.9896930359255
 30
0.0
 41
1.0
 10
2.806801401938599
 20
24.98904541461661
 30
0.0
 41
1.0
 10
2.757704247472559
 20
24.98851305319301
 30
0.0
 41
1.0
 10
2.707627349697669
 20
24.9880467873496
 30
0.0
 41
1.0
 10
2.681960834873339
 20
24.9878459109393
 30
0.0
 41
1.0
 10
2.60451069958498
 20
24.9873619371875
 30
0.0
 41
1.0
 10
2.55260224934716
 20
24.9871976148036
 30
0.0
 41
1.0
 10
2.474337955887819
 20
24.9871962803285
 30
0.0
 41
1.0
 10
2.44818244045004
 20
24.9872366882809
 30
0.0
 41
1.0
 10
2.39573246368141
 20
24.9874005045708
 30
0.0
 41
1.0
 10
2.36960245975524
 20
24.987523797975
 30
0.0
 41
1.0
 10
2.292648524248309
 20
24.9880043776599
 30
0.0
 41
1.0
 10
2.242778350288459
 20
24.9884737004203
 30
0.0
 41
1.0
 10
2.17013355964519
 20
24.9893622486319
 30
0.0
 41
1.0
 10
2.146155464471749
 20
24.9896912550885
 30
0.0
 41
1.0
 10
2.099806660128479
 20
24.9903905087256
 30
0.0
 41
1.0
 10
2.077390978843709
 20
24.9907608671662
 30
0.0
 41
1.0
 10
2.012365443796539
 20
24.9919168692781
 30
0.0
 41
1.0
 10
1.971955393122329
 20
24.9927476767082
 30
0.0
 41
1.0
 10
1.89724557229886
 20
24.9944377457238
 30
0.0
 41
1.0
 10
1.864074402478589
 20
24.9952707969178
 30
0.0
 41
1.0
 10
1.82060678042225
 20
24.9964270518454
 30
0.0
 41
1.0
 10
1.807157158629139
 20
24.9967973521248
 30
0.0
 41
1.0
 10
1.78238121949701
 20
24.9974963421237
 30
0.0
 41
1.0
 10
1.77102353001737
 20
24.9978260226824
 30
0.0
 41
1.0
 10
1.740885592658459
 20
24.9987169940671
 30
0.0
 41
1.0
 10
1.725749125815899
 20
24.9991871799247
 30
0.0
 41
1.0
 10
1.70526864504168
 20
24.9998298627669
 30
0.0
 41
1.0
 10
1.700018580446909
 20
24.9999994054257
 30
0.0
 41
1.0
 10
1.699998934654719
 20
25.0000000344656
 30
0.0
 41
1.0
 10
1.700000116442149
 20
24.9999999961689
 30
0.0
 41
1.0
 10
1.700001116016589
 20
24.9999999637504
 30
0.0
 41
1.0
  0
SPLINE
  5
ED
330
1F
100
AcDbEntity
  8
1
100
AcDbSpline
210
0.0
220
0.0
230
1.0
 70
    15
 71
     3
 72
    92
 73
    88
 74
     0
 42
0.000000001
 43
0.0000000001
 40
0.0
 40
0.0
 40
0.0
 40
0.0
 40
0.0312500000000014
 40
0.0312500000000014
 40
0.0468750000000022
 40
0.0468750000000022
 40
0.0625000000000029
 40
0.0625000000000029
 40
0.0937500000000044
 40
0.0937500000000044
 40
0.125000000000006
 40
0.125000000000006
 40
0.156250000000007
 40
0.156250000000007
 40
0.171875000000008
 40
0.171875000000008
 40
0.187500000000008
 40
0.203125000000008
 40
0.203125000000008
 40
0.218750000000009
 40
0.218750000000009
 40
0.250000000000009
 40
0.250000000000009
 40
0.265625000000009
 40
0.265625000000009
 40
0.28125000000001
 40
0.28125000000001
 40
0.31250000000001
 40
0.31250000000001
 40
0.32812500000001
 40
0.32812500000001
 40
0.34375000000001
 40
0.34375000000001
 40
0.37500000000001
 40
0.37500000000001
 40
0.40625000000001
 40
0.40625000000001
 40
0.42187500000001
 40
0.42187500000001
 40
0.43750000000001
 40
0.43750000000001
 40
0.468750000000009
 40
0.468750000000009
 40
0.500000000000008
 40
0.500000000000008
 40
0.5312500000000061
 40
0.5312500000000061
 40
0.5468750000000061
 40
0.5468750000000061
 40
0.562500000000005
 40
0.578125000000005
 40
0.578125000000005
 40
0.593750000000004
 40
0.593750000000004
 40
0.6250000000000029
 40
0.6250000000000029
 40
0.6406250000000022
 40
0.6406250000000022
 40
0.656250000000001
 40
0.656250000000001
 40
0.6875
 40
0.6875
 40
0.7031249999999991
 40
0.7031249999999991
 40
0.7187499999999991
 40
0.7187499999999991
 40
0.7499999999999979
 40
0.7499999999999979
 40
0.7812499999999979
 40
0.7812499999999979
 40
0.796874999999997
 40
0.796874999999997
 40
0.8124999999999969
 40
0.8124999999999969
 40
0.8437499999999969
 40
0.8437499999999969
 40
0.874999999999996
 40
0.874999999999996
 40
0.906249999999996
 40
0.906249999999996
 40
0.921874999999996
 40
0.921874999999996
 40
0.937499999999996
 40
0.937499999999996
 40
0.9687499999999978
 40
0.9687499999999978
 40
1.0
 40
1.0
 40
1.0
 40
1.0
 10
3.299999999999979
 20
21.65063509461095
 30
0.0
 41
1.0
 10
3.299999999999979
 20
21.6242073435846
 30
0.0
 41
1.0
 10
3.294813300266349
 20
21.5980764962148
 30
0.0
 41
1.0
 10
3.279571856429669
 20
21.5593192802682
 30
0.0
 41
1.0
 10
3.273238559488699
 20
21.5464741520934
 30
0.0
 41
1.0
 10
3.25800921987133
 20
21.5209401079402
 30
0.0
 41
1.0
 10
3.249070413088789
 20
21.5082163885828
 30
0.0
 41
1.0
 10
3.21895348039047
 20
21.4711151854085
 30
0.0
 41
1.0
 10
3.19438086649387
 20
21.4475316875983
 30
0.0
 41
1.0
 10
3.13632662640612
 20
21.4027135472409
 30
0.0
 41
1.0
 10
3.10253793235498
 20
21.3813942867138
 30
0.0
 41
1.0
 10
3.02872998209026
 20
21.3430504525472
 30
0.0
 41
1.0
 10
2.9884569852336
 20
21.3257738173136
 30
0.0
 41
1.0
 10
2.922871465949299
 20
21.3028318572347
 30
0.0
 41
1.0
 10
2.900149287629089
 20
21.2956981265903
 30
0.0
 41
1.0
 10
2.85396583166198
 20
21.2827543854598
 30
0.0
 41
1.0
 10
2.806801401938569
 20
21.2710449485928
 30
0.0
 41
1.0
 10
2.757704247472529
 20
21.26178297262431
 30
0.0
 41
1.0
 10
2.707627349697649
 20
21.2537681944117
 30
0.0
 41
1.0
 10
2.68196083487331
 20
21.2503712424814
 30
0.0
 41
1.0
 10
2.60451069958495
 20
21.2422455266997
 30
0.0
 41
1.0
 10
2.552602249347129
 20
21.2395618541929
 30
0.0
 41
1.0
 10
2.47433795588779
 20
21.2395398580053
 30
0.0
 41
1.0
 10
2.448182440450009
 20
21.2402043211557
 30
0.0
 41
1.0
 10
2.395732463681379
 20
21.2429167822849
 30
0.0
 41
1.0
 10
2.369602459755209
 20
21.2449631630526
 30
0.0
 41
1.0
 10
2.29264852424828
 20
21.2530317088399
 30
0.0
 41
1.0
 10
2.24277835028843
 20
21.2609875924246
 30
0.0
 41
1.0
 10
2.17013355964517
 20
21.2767738248727
 30
0.0
 41
1.0
 10
2.146155464471749
 20
21.2827212371313
 30
0.0
 41
1.0
 10
2.099806660128479
 20
21.2957096273447
 30
0.0
 41
1.0
 10
2.07739097884368
 20
21.3027510896207
 30
0.0
 41
1.0
 10
2.01236544379651
 20
21.3254643970595
 30
0.0
 41
1.0
 10
1.9719553931223
 20
21.3427102146579
 30
0.0
 41
1.0
 10
1.89724557229883
 20
21.3814910366724
 30
0.0
 41
1.0
 10
1.864074402478589
 20
21.4024522521381
 30
0.0
 41
1.0
 10
1.820606780422219
 20
21.4359375630224
 30
0.0
 41
1.0
 10
1.80715715862911
 20
21.4474511245576
 30
0.0
 41
1.0
 10
1.78238121949701
 20
21.4711875671043
 30
0.0
 41
1.0
 10
1.77102353001737
 20
21.4834635660112
 30
0.0
 41
1.0
 10
1.740885592658459
 20
21.5205876206527
 30
0.0
 41
1.0
 10
1.725749125815899
 20
21.5459280044288
 30
0.0
 41
1.0
 10
1.70526864504168
 20
21.5977309393378
 30
0.0
 41
1.0
 10
1.700018580446909
 20
21.6243879324408
 30
0.0
 41
1.0
 10
1.699981520326649
 20
21.6765983193221
 30
0.0
 41
1.0
 10
1.705024875676659
 20
21.7024023845793
 30
0.0
 41
1.0
 10
1.7203393588494
 20
21.7406597034909
 30
0.0
 41
1.0
 10
1.72676996382992
 20
21.753347462517
 30
0.0
 41
1.0
 10
1.7419625393897
 20
21.77801773495239
 30
0.0
 41
1.0
 10
1.759532990319679
 20
21.8021276170083
 30
0.0
 41
1.0
 10
1.78178008174484
 20
21.8251484000511
 30
0.0
 41
1.0
 10
1.806393628561129
 20
21.8476261897901
 30
0.0
 41
1.0
 10
1.81995416165876
 20
21.8586435016682
 30
0.0
 41
1.0
 10
1.863820400541949
 20
21.890497127308
 30
0.0
 41
1.0
 10
1.896921651046
 20
21.909935677399
 30
0.0
 41
1.0
 10
1.952188437922929
 20
21.9365383964494
 30
0.0
 41
1.0
 10
1.9715533022073
 20
21.9449769924695
 30
0.0
 41
1.0
 10
2.012222783317159
 20
21.960982129227
 30
0.0
 41
1.0
 10
2.033461118283359
 20
21.968512745855
 30
0.0
 41
1.0
 10
2.09870191929389
 20
21.9893272409513
 30
0.0
 41
1.0
 10
2.14462768846855
 20
22.00101856399
 30
0.0
 41
1.0
 10
2.21717487750215
 20
22.0153212273696
 30
0.0
 41
1.0
 10
2.24211520728395
 20
22.0195642238291
 30
0.0
 41
1.0
 10
2.292432418119029
 20
22.0268080554204
 30
0.0
 41
1.0
 10
2.31779752051369
 20
22.0298167352552
 30
0.0
 41
1.0
 10
2.39449659879025
 20
22.0370572119226
 30
0.0
 41
1.0
 10
2.446428495431629
 20
22.0395216565379
 30
0.0
 41
1.0
 10
2.55194825048659
 20
22.0395722149747
 30
0.0
 41
1.0
 10
2.60414697000721
 20
22.0371407574187
 30
0.0
 41
1.0
 10
2.680827977787
 20
22.0299678594058
 30
0.0
 41
1.0
 10
2.706162514167489
 20
22.0269847585921
 30
0.0
 41
1.0
 10
2.75637121472016
 20
22.0198062533995
 30
0.0
 41
1.0
 10
2.78136223557169
 20
22.01558344591861
 30
0.0
 41
1.0
 10
2.854145031340269
 20
22.0013107203812
 30
0.0
 41
1.0
 10
2.900121101934729
 20
21.9896470693906
 30
0.0
 41
1.0
 10
2.98706048727374
 20
21.9620196685396
 30
0.0
 41
1.0
 10
3.02827882510897
 20
21.9458755756497
 30
0.0
 41
1.0
 10
3.102189157616209
 20
21.9104268777259
 30
0.0
 41
1.0
 10
3.135320681748169
 20
21.8910286862626
 30
0.0
 41
1.0
 10
3.179182579636549
 20
21.8593144234856
 30
0.0
 41
1.0
 10
3.192842889332069
 20
21.8482709950308
 30
0.0
 41
1.0
 10
3.21759473490849
 20
21.8257688975534
 30
0.0
 41
1.0
 10
3.228770045080119
 20
21.8142562261836
 30
0.0
 41
1.0
 10
3.258759530502029
 20
21.7789355430234
 30
0.0
 41
1.0
 10
3.27410787203507
 20
21.7542617737714
 30
0.0
 41
1.0
 10
3.29481270311766
 20
21.7030696454621
 30
0.0
 41
1.0
 10
3.299999999999979
 20
21.6770628456373
 30
0.0
 41
1.0
 10
3.299999999999979
 20
21.65063509461095
 30
0.0
 41
1.0
  0
SPLINE
  5
EE
330
1F
100
AcDbEntity
  8
1
100
AcDbSpline
210
0.0
220
0.0
230
1.0
 70
    15
 71
     3
 72
    92
 73
    88
 74
     0
 42
0.000000001
 43
0.0000000001
 40
0.0
 40
0.0
 40
0.0
 40
0.0
 40
0.0312500000000004
 40
0.0312500000000004
 40
0.0468750000000006
 40
0.0468750000000006
 40
0.0625000000000008
 40
0.0625000000000008
 40
0.0937500000000012
 40
0.0937500000000012
 40
0.125000000000002
 40
0.125000000000002
 40
0.156250000000002
 40
0.156250000000002
 40
0.171875000000002
 40
0.171875000000002
 40
0.187500000000001
 40
0.203125000000001
 40
0.203125000000001
 40
0.21875
 40
0.21875
 40
0.249999999999999
 40
0.249999999999999
 40
0.265624999999999
 40
0.265624999999999
 40
0.281249999999998
 40
0.281249999999998
 40
0.312499999999998
 40
0.312499999999998
 40
0.328124999999997
 40
0.328124999999997
 40
0.343749999999997
 40
0.343749999999997
 40
0.374999999999998
 40
0.374999999999998
 40
0.4062499999999981
 40
0.4062499999999981
 40
0.421874999999999
 40
0.421874999999999
 40
0.4375
 40
0.4375
 40
0.4687499999999981
 40
0.4687499999999981
 40
0.499999999999997
 40
0.499999999999997
 40
0.531249999999996
 40
0.531249999999996
 40
0.5468749999999951
 40
0.5468749999999951
 40
0.562499999999994
 40
0.5781249999999921
 40
0.5781249999999921
 40
0.5937499999999911
 40
0.5937499999999911
 40
0.6249999999999911
 40
0.6249999999999911
 40
0.6406249999999921
 40
0.6406249999999921
 40
0.6562499999999921
 40
0.6562499999999921
 40
0.6874999999999929
 40
0.6874999999999929
 40
0.703124999999994
 40
0.703124999999994
 40
0.7187499999999949
 40
0.7187499999999949
 40
0.749999999999996
 40
0.749999999999996
 40
0.781249999999997
 40
0.781249999999997
 40
0.7968749999999979
 40
0.7968749999999979
 40
0.8124999999999989
 40
0.8124999999999989
 40
0.8437499999999989
 40
0.8437499999999989
 40
0.875
 40
0.875
 40
0.906250000000001
 40
0.906250000000001
 40
0.921875000000001
 40
0.921875000000001
 40
0.937500000000001
 40
0.937500000000001
 40
0.96875
 40
0.96875
 40
1.0
 40
1.0
 40
1.0
 40
1.0
 10
3.299999999999979
 20
17.6776695296637
 30
0.0
 41
1.0
 10
3.299999999999979
 20
17.6402950457393
 30
0.0
 41
1.0
 10
3.294813300266349
 20
17.6034271512611
 30
0.0
 41
1.0
 10
3.2795718564297
 20
17.5488637978606
 30
0.0
 41
1.0
 10
3.273238559488699
 20
17.5308001924945
 30
0.0
 41
1.0
 10
3.258009219871349
 20
17.4949310366382
 30
0.0
 41
1.0
 10
3.249070413088789
 20
17.4770768981375
 30
0.0
 41
1.0
 10
3.218953480390499
 20
17.4250687583192
 30
0.0
 41
1.0
 10
3.194380866493899
 20
17.392080788323
 30
0.0
 41
1.0
 10
3.13632662640615
 20
17.3294982767652
 30
0.0
 41
1.0
 10
3.102537932355009
 20
17.2997871177472
 30
0.0
 41
1.0
 10
3.028729982090279
 20
17.2464253889112
 30
0.0
 41
1.0
 10
2.98845698523363
 20
17.222422464763
 30
0.0
 41
1.0
 10
2.92287146594933
 20
17.1905817874954
 30
0.0
 41
1.0
 10
2.90014928762912
 20
17.180687419953
 30
0.0
 41
1.0
 10
2.8539658283301
 20
17.1627429081431
 30
0.0
 41
1.0
 10
2.806801401938599
 20
17.1465185076785
 30
0.0
 41
1.0
 10
2.757704247472559
 20
17.1336956662001
 30
0.0
 41
1.0
 10
2.707627349697669
 20
17.1226024151131
 30
0.0
 41
1.0
 10
2.681960834873339
 20
17.1179023809039
 30
0.0
 41
1.0
 10
2.60451069958498
 20
17.1066614066901
 30
0.0
 41
1.0
 10
2.55260224934716
 20
17.1029511801589
 30
0.0
 41
1.0
 10
2.474337955887819
 20
17.1029207636273
 30
0.0
 41
1.0
 10
2.44818244045004
 20
17.1038395397309
 30
0.0
 41
1.0
 10
2.39573246368141
 20
17.1075907414957
 30
0.0
 41
1.0
 10
2.36960245975524
 20
17.1104209395689
 30
0.0
 41
1.0
 10
2.292648524248309
 20
17.1215828200997
 30
0.0
 41
1.0
 10
2.242778350288459
 20
17.1325911992284
 30
0.0
 41
1.0
 10
2.17013355964519
 20
17.1544563568561
 30
0.0
 41
1.0
 10
2.146155464471749
 20
17.1626969616593
 30
0.0
 41
1.0
 10
2.099806660128479
 20
17.1807033589353
 30
0.0
 41
1.0
 10
2.077390978843709
 20
17.1904697787489
 30
0.0
 41
1.0
 10
2.012365443796539
 20
17.2219928554498
 30
0.0
 41
1.0
 10
1.971955393122329
 20
17.2459520670201
 30
0.0
 41
1.0
 10
1.89724557229886
 20
17.2999215873755
 30
0.0
 41
1.0
 10
1.864074402478589
 20
17.3291340035419
 30
0.0
 41
1.0
 10
1.82060678042225
 20
17.3758908627423
 30
0.0
 41
1.0
 10
1.807157158629139
 20
17.391981816087
 30
0.0
 41
1.0
 10
1.78238121949701
 20
17.425188391211
 30
0.0
 41
1.0
 10
1.77102353001737
 20
17.4423786201421
 30
0.0
 41
1.0
 10
1.740885592658459
 20
17.4944187609802
 30
0.0
 41
1.0
 10
1.725749125815899
 20
17.5300120892829
 30
0.0
 41
1.0
 10
1.70526864504168
 20
17.6029398252829
 30
0.0
 41
1.0
 10
1.700018580446909
 20
17.6405507447231
 30
0.0
 41
1.0
 10
1.699981520326649
 20
17.714386768068
 30
0.0
 41
1.0
 10
1.705024875676659
 20
17.75096358432
 30
0.0
 41
1.0
 10
1.7203393588494
 20
17.8053164531212
 30
0.0
 41
1.0
 10
1.72676996382992
 20
17.8233633673591
 30
0.0
 41
1.0
 10
1.7419625393897
 20
17.8584932638883
 30
0.0
 41
1.0
 10
1.759532990319679
 20
17.892864824828
 30
0.0
 41
1.0
 10
1.78178008174484
 20
17.9257556442247
 30
0.0
 41
1.0
 10
1.806393628561129
 20
17.9579038391272
 30
0.0
 41
1.0
 10
1.819954161658729
 20
17.97367818785839
 30
0.0
 41
1.0
 10
1.863820400541949
 20
18.0193304993546
 30
0.0
 41
1.0
 10
1.896921651046
 20
18.0472507286493
 30
0.0
 41
1.0
 10
1.9521884379229
 20
18.0855207774292
 30
0.0
 41
1.0
 10
1.9715533022073
 20
18.0976713506156
 30
0.0
 41
1.0
 10
2.012222783317129
 20
18.1207340352336
 30
0.0
 41
1.0
 10
2.03346111828333
 20
18.1315944510215
 30
0.0
 41
1.0
 10
2.09870191929386
 20
18.1616316498841
 30
0.0
 41
1.0
 10
2.14462768846852
 20
18.1785302230433
 30
0.0
 41
1.0
 10
2.21717487750215
 20
18.1992186094955
 30
0.0
 41
1.0
 10
2.24211520728389
 20
18.2053592872796
 30
0.0
 41
1.0
 10
2.292432418119009
 20
18.2158461903032
 30
0.0
 41
1.0
 10
2.31779752051367
 20
18.22020372321089
 30
0.0
 41
1.0
 10
2.39449659879023
 20
18.2306921790541
 30
0.0
 41
1.0
 10
2.4464284954316
 20
18.2342647504696
 30
0.0
 41
1.0
 10
2.55194825048659
 20
18.234338025082
 30
0.0
 41
1.0
 10
2.60414697000718
 20
18.2308132630562
 30
0.0
 41
1.0
 10
2.68082797778698
 20
18.2204226102454
 30
0.0
 41
1.0
 10
2.70616251416746
 20
18.2161020792244
 30
0.0
 41
1.0
 10
2.756371214720129
 20
18.2057096024949
 30
0.0
 41
1.0
 10
2.78136223557166
 20
18.199598030341
 30
0.0
 41
1.0
 10
2.85414503134024
 20
18.1789525708678
 30
0.0
 41
1.0
 10
2.9001211019347
 20
18.1620937029076
 30
0.0
 41
1.0
 10
2.987060487273709
 20
18.1222238555411
 30
0.0
 41
1.0
 10
3.02827882510894
 20
18.0989538313101
 30
0.0
 41
1.0
 10
3.10218915761618
 20
18.0479565730121
 30
0.0
 41
1.0
 10
3.135320681748169
 20
18.0200935440409
 30
0.0
 41
1.0
 10
3.179182579636549
 20
17.9746391634678
 30
0.0
 41
1.0
 10
3.192842889332069
 20
17.9588267092043
 30
0.0
 41
1.0
 10
3.217594734908459
 20
17.9266424719256
 30
0.0
 41
1.0
 10
3.2287700450801
 20
17.9101931918069
 30
0.0
 41
1.0
 10
3.258759530502029
 20
17.859783432462
 30
0.0
 41
1.0
 10
3.27410787203507
 20
17.8246428476487
 30
0.0
 41
1.0
 10
3.294812703117629
 20
17.7519099373298
 30
0.0
 41
1.0
 10
3.299999999999979
 20
17.7150440135881
 30
0.0
 41
1.0
 10
3.299999999999979
 20
17.6776695296637
 30
0.0
 41
1.0
  0
SPLINE
  5
EF
330
1F
100
AcDbEntity
  8
1
100
AcDbSpline
210
0.0
220
0.0
230
1.0
 70
    15
 71
     3
 72
    92
 73
    88
 74
     0
 42
0.000000001
 43
0.0000000001
 40
0.0
 40
0.0
 40
0.0
 40
0.0
 40
0.0312499999999983
 40
0.0312499999999983
 40
0.0468749999999974
 40
0.0468749999999974
 40
0.0624999999999966
 40
0.0624999999999966
 40
0.0937499999999966
 40
0.0937499999999966
 40
0.124999999999997
 40
0.124999999999997
 40
0.156249999999997
 40
0.156249999999997
 40
0.171874999999997
 40
0.171874999999997
 40
0.187499999999997
 40
0.203124999999997
 40
0.203124999999997
 40
0.218749999999997
 40
0.218749999999997
 40
0.249999999999997
 40
0.249999999999997
 40
0.265624999999997
 40
0.265624999999997
 40
0.281249999999998
 40
0.281249999999998
 40
0.312499999999998
 40
0.312499999999998
 40
0.3281249999999989
 40
0.3281249999999989
 40
0.3437499999999989
 40
0.3437499999999989
 40
0.375
 40
0.375
 40
0.4062500000000011
 40
0.4062500000000011
 40
0.421875
 40
0.421875
 40
0.4375
 40
0.4375
 40
0.468749999999999
 40
0.468749999999999
 40
0.499999999999999
 40
0.499999999999999
 40
0.5312499999999981
 40
0.5312499999999981
 40
0.5468749999999981
 40
0.5468749999999981
 40
0.5624999999999991
 40
0.5781249999999991
 40
0.5781249999999991
 40
0.59375
 40
0.59375
 40
0.625000000000001
 40
0.625000000000001
 40
0.640625000000001
 40
0.640625000000001
 40
0.656250000000001
 40
0.656250000000001
 40
0.6875000000000022
 40
0.6875000000000022
 40
0.7031250000000022
 40
0.7031250000000022
 40
0.7187500000000022
 40
0.7187500000000022
 40
0.7500000000000022
 40
0.7500000000000022
 40
0.7812500000000022
 40
0.7812500000000022
 40
0.7968750000000022
 40
0.7968750000000022
 40
0.812500000000001
 40
0.812500000000001
 40
0.8437500000000021
 40
0.8437500000000021
 40
0.8750000000000021
 40
0.8750000000000021
 40
0.906250000000003
 40
0.906250000000003
 40
0.9218750000000021
 40
0.9218750000000021
 40
0.9375000000000021
 40
0.9375000000000021
 40
0.968750000000001
 40
0.968750000000001
 40
1.0
 40
1.0
 40
1.0
 40
1.0
 10
3.299999999999979
 20
12.5
 30
0.0
 41
1.0
 10
3.299999999999979
 20
12.4542257924927
 30
0.0
 41
1.0
 10
3.294813300266349
 20
12.4091333369877
 30
0.0
 41
1.0
 10
3.2795718564297
 20
12.3424822484975
 30
0.0
 41
1.0
 10
3.273238559488699
 20
12.3204311707942
 30
0.0
 41
1.0
 10
3.258009219871349
 20
12.27667132693
 30
0.0
 41
1.0
 10
3.249070413088789
 20
12.2549034993194
 30
0.0
 41
1.0
 10
3.218953480390499
 20
12.191532691638
 30
0.0
 41
1.0
 10
3.194380866493899
 20
12.1513883250959
 30
0.0
 41
1.0
 10
3.13632662640615
 20
12.0753063370779
 30
0.0
 41
1.0
 10
3.102537932355009
 20
12.0392280459561
 30
0.0
 41
1.0
 10
3.028729982090279
 20
11.9744849360864
 30
0.0
 41
1.0
 10
2.98845698523363
 20
11.9453914826376
 30
0.0
 41
1.0
 10
2.92287146594933
 20
11.9068219777179
 30
0.0
 41
1.0
 10
2.90014928762912
 20
11.8948412580744
 30
0.0
 41
1.0
 10
2.8539658283301
 20
11.8731188718368
 30
0.0
 41
1.0
 10
2.806801401938599
 20
11.8534851664275
 30
0.0
 41
1.0
 10
2.757704247472559
 20
11.8379753148952
 30
0.0
 41
1.0
 10
2.707627349697669
 20
11.8245595776628
 30
0.0
 41
1.0
 10
2.681960834873339
 20
11.818876760739
 30
0.0
 41
1.0
 10
2.60451069958498
 20
11.8052865819091
 30
0.0
 41
1.0
 10
2.55260224934716
 20
11.8008026471603
 30
0.0
 41
1.0
 10
2.474337955887819
 20
11.800765883121
 30
0.0
 41
1.0
 10
2.44818244045004
 20
11.8018763591047
 30
0.0
 41
1.0
 10
2.39573246368141
 20
11.8064106633041
 30
0.0
 41
1.0
 10
2.36960245975524
 20
11.8098318053612
 30
0.0
 41
1.0
 10
2.292648524248309
 20
11.8233263569232
 30
0.0
 41
1.0
 10
2.242778350288459
 20
11.8366370287505
 30
0.0
 41
1.0
 10
2.17013355964519
 20
11.8630910371991
 30
0.0
 41
1.0
 10
2.146155464471779
 20
11.873063250948
 30
0.0
 41
1.0
 10
2.09980666012851
 20
11.8948605490692
 30
0.0
 41
1.0
 10
2.077390978843709
 20
11.90668636105
 30
0.0
 41
1.0
 10
2.012365443796539
 20
11.9448709614301
 30
0.0
 41
1.0
 10
1.971955393122329
 20
11.9739107862984
 30
0.0
 41
1.0
 10
1.89724557229886
 20
12.0393910713712
 30
0.0
 41
1.0
 10
1.864074402478589
 20
12.0748639103523
 30
0.0
 41
1.0
 10
1.82060678042225
 20
12.1317059151837
 30
0.0
 41
1.0
 10
1.807157158629139
 20
12.1512776884591
 30
0.0
 41
1.0
 10
1.78238121949701
 20
12.191691422942
 30
0.0
 41
1.0
 10
1.77102353001737
 20
12.2126243962039
 30
0.0
 41
1.0
 10
1.740885592658459
 20
12.276034173641
 30
0.0
 41
1.0
 10
1.725749125815899
 20
12.3194548199671
 30
0.0
 41
1.0
 10
1.70526864504168
 20
12.4085374523685
 30
0.0
 41
1.0
 10
1.700018580446909
 20
12.454539176141
 30
0.0
 41
1.0
 10
1.699981520326649
 20
12.5449690329783
 30
0.0
 41
1.0
 10
1.705024875676659
 20
12.5898259506437
 30
0.0
 41
1.0
 10
1.7203393588494
 20
12.656570311148
 30
0.0
 41
1.0
 10
1.72676996382992
 20
12.6787465132163
 30
0.0
 41
1.0
 10
1.7419625393897
 20
12.7219419894457
 30
0.0
 41
1.0
 10
1.759532990319679
 20
12.764232864193
 30
0.0
 41
1.0
 10
1.78178008174484
 20
12.8047522649562
 30
0.0
 41
1.0
 10
1.806393628561129
 20
12.8443800186669
 30
0.0
 41
1.0
 10
1.819954161658729
 20
12.8638364084536
 30
0.0
 41
1.0
 10
1.86382040054192
 20
12.9201762762219
 30
0.0
 41
1.0
 10
1.89692165104597
 20
12.9546754672342
 30
0.0
 41
1.0
 10
1.9521884379229
 20
13.0020048051635
 30
0.0
 41
1.0
 10
1.971553302207269
 20
13.0170393140333
 30
0.0
 41
1.0
 10
2.012222783317129
 20
13.045587862668
 30
0.0
 41
1.0
 10
2.03346111828333
 20
13.0590379582276
 30
0.0
 41
1.0
 10
2.09870191929386
 20
13.0962508753927
 30
0.0
 41
1.0
 10
2.14462768846852
 20
13.1172050888379
 30
0.0
 41
1.0
 10
2.21717487750212
 20
13.1428693190151
 30
0.0
 41
1.0
 10
2.24211520728389
 20
13.1504892010808
 30
0.0
 41
1.0
 10
2.292432418119009
 20
13.163504510426
 30
0.0
 41
1.0
 10
2.31779752051367
 20
13.1689139377401
 30
0.0
 41
1.0
 10
2.39449659879023
 20
13.1819356018265
 30
0.0
 41
1.0
 10
2.4464284954316
 20
13.1863728352041
 30
0.0
 41
1.0
 10
2.55194825048656
 20
13.1864638324482
 30
0.0
 41
1.0
 10
2.60414697000718
 20
13.18208597266
 30
0.0
 41
1.0
 10
2.68082797778698
 20
13.1691856708689
 30
0.0
 41
1.0
 10
2.70616251416746
 20
13.1638221466896
 30
0.0
 41
1.0
 10
2.756371214720129
 20
13.1509239285379
 30
0.0
 41
1.0
 10
2.78136223557166
 20
13.1433400852534
 30
0.0
 41
1.0
 10
2.85414503134024
 20
13.1177288457893
 30
0.0
 41
1.0
 10
2.9001211019347
 20
13.0968236648504
 30
0.0
 41
1.0
 10
2.987060487273709
 20
13.0474284351783
 30
0.0
 41
1.0
 10
3.02827882510894
 20
13.0186182933021
 30
0.0
 41
1.0
 10
3.10218915761618
 20
12.955547853506
 30
0.0
 41
1.0
 10
3.135320681748139
 20
12.9211188064055
 30
0.0
 41
1.0
 10
3.179182579636549
 20
12.8650219489555
 30
0.0
 41
1.0
 10
3.192842889332069
 20
12.84551806151
 30
0.0
 41
1.0
 10
3.217594734908459
 20
12.8058449870134
 30
0.0
 41
1.0
 10
3.2287700450801
 20
12.7855800894023
 30
0.0
 41
1.0
 10
3.258759530502029
 20
12.723516595666
 30
0.0
 41
1.0
 10
3.27410787203507
 20
12.6803039680737
 30
0.0
 41
1.0
 10
3.294812703117629
 20
12.5909869033868
 30
0.0
 41
1.0
 10
3.299999999999979
 20
12.5457742075073
 30
0.0
 41
1.0
 10
3.299999999999979
 20
12.5
 30
0.0
 41
1.0
  0
SPLINE
  5
F0
330
1F
100
AcDbEntity
  8
1
100
AcDbSpline
210
0.0
220
0.0
230
1.0
 70
    12
 71
     3
 72
    53
 73
    49
 74
     0
 42
0.000000001
 43
0.0000000001
 40
0.0
 40
0.0
 40
0.0
 40
0.0
 40
0.0622362042356525
 40
0.0622362042356525
 40
0.0934949974277974
 40
0.0934949974277974
 40
0.124753790619942
 40
0.156012583812087
 40
0.156012583812087
 40
0.187271377004232
 40
0.187271377004232
 40
0.249788963388522
 40
0.249788963388522
 40
0.281047756580667
 40
0.281047756580667
 40
0.312306549772812
 40
0.312306549772812
 40
0.3748241361571021
 40
0.3748241361571021
 40
0.4060829293492471
 40
0.4060829293492471
 40
0.437341722541392
 40
0.437341722541392
 40
0.4998593089256821
 40
0.4998593089256821
 40
0.5311181021178271
 40
0.5311181021178271
 40
0.5623768953099721
 40
0.5936356885021171
 40
0.5936356885021171
 40
0.6248944816942621
 40
0.6248944816942621
 40
0.6874120680785511
 40
0.6874120680785511
 40
0.718670861270696
 40
0.718670861270696
 40
0.749929654462841
 40
0.749929654462841
 40
0.812447240847131
 40
0.812447240847131
 40
0.8437060340392758
 40
0.8437060340392758
 40
0.87496482723142
 40
0.9062236204235649
 40
0.9062236204235649
 40
0.93748241361571
 40
0.93748241361571
 40
1.0
 40
1.0
 40
1.0
 40
1.0
 10
1.00000019936192
 20
-24.9999999877045
 30
0.0
 41
1.0
 10
1.000050323787579
 20
-24.99999693124
 30
0.0
 41
1.0
 10
1.009508458535979
 20
-24.9994240487378
 30
0.0
 41
1.0
 10
1.03815109833795
 20
-24.9977381141546
 30
0.0
 41
1.0
 10
1.050210016401849
 20
-24.9970335997536
 30
0.0
 41
1.0
 10
1.07869714223054
 20
-24.995397522283
 30
0.0
 41
1.0
 10
1.111643389314759
 20
-24.9935292204109
 30
0.0
 41
1.0
 10
1.15336250962105
 20
-24.9912564977514
 30
0.0
 41
1.0
 10
1.199522594105189
 20
-24.9888117022229
 30
0.0
 41
1.0
 10
1.224962762572429
 20
-24.987496286873
 30
0.0
 41
1.0
 10
1.307183735772129
 20
-24.983390753836
 30
0.0
 41
1.0
 10
1.36923280669336
 20
-24.9804697899688
 30
0.0
 41
1.0
 10
1.472853821696279
 20
-24.9760653104552
 30
0.0
 41
1.0
 10
1.50916479951982
 20
-24.9745931354746
 30
0.0
 41
1.0
 10
1.58543349360576
 20
-24.9716835592357
 30
0.0
 41
1.0
 10
1.625228204357849
 20
-24.9702536236889
 30
0.0
 41
1.0
 10
1.747513328461219
 20
-24.9661690601189
 30
0.0
 41
1.0
 10
1.833614057190489
 20
-24.963690591501
 30
0.0
 41
1.0
 10
1.96966539913808
 20
-24.960552862862
 30
0.0
 41
1.0
 10
2.016444382787399
 20
-24.9595994058124
 30
0.0
 41
1.0
 10
2.110767577758939
 20
-24.957950203136
 30
0.0
 41
1.0
 10
2.15832183873672
 20
-24.95725237881389
 30
0.0
 41
1.0
 10
2.30213372898808
 20
-24.9555597091493
 30
0.0
 41
1.0
 10
2.39952931592794
 20
-24.9549654081844
 30
0.0
 41
1.0
 10
2.547990179813129
 20
-24.9549565036425
 30
0.0
 41
1.0
 10
2.59731979892473
 20
-24.9551015256918
 30
0.0
 41
1.0
 10
2.694871186111579
 20
-24.95567264063661
 30
0.0
 41
1.0
 10
2.791576212805379
 20
-24.9565246857389
 30
0.0
 41
1.0
 10
2.886604081021829
 20
-24.9579094930241
 30
0.0
 41
1.0
 10
2.980776750264229
 20
-24.9595458658629
 30
0.0
 41
1.0
 10
3.02763874787874
 20
-24.96049550325011
 30
0.0
 41
1.0
 10
3.164063583369509
 20
-24.9636277996764
 30
0.0
 41
1.0
 10
3.250259971168529
 20
-24.9661020791115
 30
0.0
 41
1.0
 10
3.372529507520479
 20
-24.97017517943281
 30
0.0
 41
1.0
 10
3.41216351572004
 20
-24.9715954233037
 30
0.0
 41
1.0
 10
3.488751200787679
 20
-24.97451029835831
 30
0.0
 41
1.0
 10
3.525183390065049
 20
-24.9759845386302
 30
0.0
 41
1.0
 10
3.629083437640299
 20
-24.9803931148344
 30
0.0
 41
1.0
 10
3.691205600066069
 20
-24.9833138434373
 30
0.0
 41
1.0
 10
3.773468832649999
 20
-24.9874162894495
 30
0.0
 41
1.0
 10
3.799072222181879
 20
-24.9887385046889
 30
0.0
 41
1.0
 10
3.845465721638669
 20
-24.9911932773404
 30
0.0
 41
1.0
 10
3.887368219098529
 20
-24.9934741237924
 30
0.0
 41
1.0
 10
3.92044306141239
 20
-24.9953486579145
 30
0.0
 41
1.0
 10
3.94905314336143
 20
-24.9969908399447
 30
0.0
 41
1.0
 10
3.961158690298899
 20
-24.9976977115423
 30
0.0
 41
1.0
 10
3.990270532320689
 20
-24.9994106109952
 30
0.0
 41
1.0
 10
4.00000798616435
 20
-25.0000004837149
 30
0.0
 41
1.0
 10
4.00000155979694
 20
-25.000000094489
 30
0.0
 41
1.0
  0
LINE
  5
51
330
1F
100
AcDbEntity
  8
1
 60
     1
100
AcDbLine
 10
-245.859082
 20
-166.86772
 30
0.0
 11
-245.859082
 21
130.13228
 31
0.0
  0
LINE
  5
52
330
1F
100
AcDbEntity
  8
1
 60
     1
100
AcDbLine
 10
174.140918
 20
130.13228
 30
0.0
 11
-245.859082
 21
130.13228
 31
0.0
  0
LINE
  5
53
330
1F
100
AcDbEntity
  8
1
 60
     1
100
AcDbLine
 10
174.140918
 20
130.13228
 30
0.0
 11
174.140918
 21
-166.86772
 31
0.0
  0
LINE
  5
54
330
1F
100
AcDbEntity
  8
1
 60
     1
100
AcDbLine
 10
-245.859082
 20
-166.86772
 30
0.0
 11
174.140918
 21
-166.86772
 31
0.0
  0
LINE
  5
55
330
1F
100
AcDbEntity
  8
1
100
AcDbLine
 10
2.5
 20
-21.133975
 30
0.0
 11
1.0
 21
-22.0
 31
0.0
  0
LINE
  5
56
330
1F
100
AcDbEntity
  8
SK1
100
AcDbLine
 10
-69.074185
 20
-19.276
 30
0.0
 11
-52.625866
 21
-19.276
 31
0.0
  0
LINE
  5
58
330
1F
100
AcDbEntity
  8
SK1
100
AcDbLine
 10
-52.626
 20
-19.276
 30
0.0
 11
-52.0
 21
-18.65
 31
0.0
  0
LINE
  5
59
330
1F
100
AcDbEntity
  8
1
100
AcDbLine
 10
4.0
 20
-22.0
 30
0.0
 11
2.5
 21
-21.133975
 31
0.0
  0
LINE
  5
5A
330
1F
100
AcDbEntity
  8
1
100
AcDbLine
 10
4.0
 20
23.95496
 30
0.0
 11
4.0
 21
24.147833
 31
0.0
  0
LINE
  5
5B
330
1F
100
AcDbEntity
  8
1
100
AcDbLine
 10
1.709786999999999
 20
25.0
 30
0.0
 11
0.3
 21
25.0
 31
0.0
  0
LINE
  5
5C
330
1F
100
AcDbEntity
  8
1
100
AcDbLine
 10
4.7
 20
25.0
 30
0.0
 11
3.299999999999999
 21
25.0
 31
0.0
  0
LINE
  5
5D
330
1F
100
AcDbEntity
  8
SK1
100
AcDbLine
 10
-2.5981
 20
18.816
 30
0.0
 11
-9.0
 21
18.816
 31
0.0
  0
LINE
  5
5E
330
1F
100
AcDbEntity
  8
SK1
100
AcDbLine
 10
-69.53399999999999
 20
18.816
 30
0.0
 11
-70.0
 21
18.35
 31
0.0
  0
LINE
  5
5F
330
1F
100
AcDbEntity
  8
SK1
100
AcDbLine
 10
-19.374181
 20
-19.276
 30
0.0
 11
-2.973411
 21
-19.276
 31
0.0
  0
LINE
  5
60
330
1F
100
AcDbEntity
  8
SK1
100
AcDbLine
 10
-29.0
 20
18.65
 30
0.0
 11
-42.5
 21
18.65
 31
0.0
  0
LINE
  5
61
330
1F
100
AcDbEntity
  8
SK1
100
AcDbLine
 10
-52.0
 20
-18.65
 30
0.0
 11
-20.0
 21
-18.65
 31
0.0
  0
LINE
  5
62
330
1F
100
AcDbEntity
  8
1
100
AcDbLine
 10
1.0
 20
24.147833
 30
0.0
 11
1.0
 21
23.95496
 31
0.0
  0
LINE
  5
63
330
1F
100
AcDbEntity
  8
SK1
100
AcDbLine
 10
-36.5
 20
15.88125
 30
0.0
 11
-42.5
 21
15.88125
 31
0.0
  0
LINE
  5
64
330
1F
100
AcDbEntity
  8
1
100
AcDbLine
 10
3.299999999999999
 20
21.260924
 30
0.0
 11
3.299999999999999
 21
21.650635
 31
0.0
  0
LINE
  5
65
330
1F
100
AcDbEntity
  8
1
100
AcDbLine
 10
1.7
 20
21.650368
 30
0.0
 11
1.7
 21
21.260924
 31
0.0
  0
LINE
  5
66
330
1F
100
AcDbEntity
  8
1
100
AcDbLine
 10
3.299999999999999
 20
17.359471
 30
0.0
 11
3.299999999999999
 21
17.67767
 31
0.0
  0
LINE
  5
67
330
1F
100
AcDbEntity
  8
1
100
AcDbLine
 10
1.7
 20
17.677451
 30
0.0
 11
1.7
 21
17.359471
 31
0.0
  0
LINE
  5
68
330
1F
100
AcDbEntity
  8
SK1
100
AcDbLine
 10
-70.0
 20
-18.35
 30
0.0
 11
-69.07399999999999
 21
-19.276
 31
0.0
  0
LINE
  5
69
330
1F
100
AcDbEntity
  8
1
100
AcDbLine
 10
1.8
 20
23.15496
 30
0.0
 11
3.2
 21
23.15496
 31
0.0
  0
LINE
  5
6A
330
1F
100
AcDbEntity
  8
SK1
100
AcDbLine
 10
-62.5
 20
18.816
 30
0.0
 11
-69.53399999999999
 21
18.816
 31
0.0
  0
LINE
  5
6B
330
1F
100
AcDbEntity
  8
1
100
AcDbLine
 10
3.299999999999999
 20
-20.5
 30
0.0
 11
4.799999999999999
 21
-20.5
 31
0.0
  0
LINE
  5
6C
330
1F
100
AcDbEntity
  8
1
100
AcDbLine
 10
4.799999999999999
 20
20.5
 30
0.0
 11
3.299999999999999
 21
20.5
 31
0.0
  0
LINE
  5
6D
330
1F
100
AcDbEntity
  8
1
100
AcDbLine
 10
5.0
 20
20.7
 30
0.0
 11
4.799999999999999
 21
20.5
 31
0.0
  0
LINE
  5
6E
330
1F
100
AcDbEntity
  8
1
100
AcDbLine
 10
3.299999999999999
 20
20.5
 30
0.0
 11
3.206418
 21
20.611527
 31
0.0
  0
LINE
  5
6F
330
1F
100
AcDbEntity
  8
SK1
100
AcDbLine
 10
-0.55
 20
18.65
 30
0.0
 11
-2.046060999999999
 21
18.65
 31
0.0
  0
LINE
  5
70
330
1F
100
AcDbEntity
  8
SK1
100
AcDbLine
 10
-2.046060999999999
 20
-18.65
 30
0.0
 11
-0.55
 21
-18.65
 31
0.0
  0
LINE
  5
71
330
1F
100
AcDbEntity
  8
SK1
100
AcDbLine
 10
-36.5
 20
-16.175
 30
0.0
 11
-8.5
 21
-16.175
 31
0.0
  0
LINE
  5
72
330
1F
100
AcDbEntity
  8
1
100
AcDbLine
 10
4.799999999999999
 20
-20.5
 30
0.0
 11
5.0
 21
-20.7
 31
0.0
  0
LINE
  5
73
330
1F
100
AcDbEntity
  8
1
100
AcDbLine
 10
3.206418
 20
-20.611527
 30
0.0
 11
3.299999999999999
 21
-20.5
 31
0.0
  0
LINE
  5
74
330
1F
100
AcDbEntity
  8
SK1
100
AcDbLine
 10
-29.0
 20
16.175
 30
0.0
 11
-36.5
 21
16.175
 31
0.0
  0
LINE
  5
75
330
1F
100
AcDbEntity
  8
SK1
100
AcDbLine
 10
-8.5
 20
16.175
 30
0.0
 11
-9.0
 21
16.175
 31
0.0
  0
LINE
  5
76
330
1F
100
AcDbEntity
  8
SK1
100
AcDbLine
 10
-62.5
 20
16.175
 30
0.0
 11
-70.0
 21
16.175
 31
0.0
  0
LINE
  5
77
330
1F
100
AcDbEntity
  8
SK1
100
AcDbLine
 10
-29.0
 20
8.4
 30
0.0
 11
-29.0
 21
18.65
 31
0.0
  0
LINE
  5
78
330
1F
100
AcDbEntity
  8
1
100
AcDbLine
 10
0.3
 20
25.0
 30
0.0
 11
0.0
 21
24.7
 31
0.0
  0
LINE
  5
79
330
1F
100
AcDbEntity
  8
1
100
AcDbLine
 10
0.0
 20
-24.7
 30
0.0
 11
0.3
 21
-25.0
 31
0.0
  0
LINE
  5
7A
330
1F
100
AcDbEntity
  8
1
100
AcDbLine
 10
2.5
 20
24.08812
 30
0.0
 11
3.299999999999999
 21
24.55
 31
0.0
  0
LINE
  5
7B
330
1F
100
AcDbEntity
  8
1
100
AcDbLine
 10
1.7
 20
24.55
 30
0.0
 11
2.5
 21
24.08812
 31
0.0
  0
LINE
  5
7C
330
1F
100
AcDbEntity
  8
1
100
AcDbLine
 10
5.0
 20
24.7
 30
0.0
 11
4.7
 21
25.0
 31
0.0
  0
LINE
  5
7D
330
1F
100
AcDbEntity
  8
1
100
AcDbLine
 10
4.7
 20
-25.0
 30
0.0
 11
5.0
 21
-24.7
 31
0.0
  0
LINE
  5
7E
330
1F
100
AcDbEntity
  8
1
100
AcDbLine
 10
1.7
 20
25.0
 30
0.0
 11
1.7
 21
24.55
 31
0.0
  0
LINE
  5
7F
330
1F
100
AcDbEntity
  8
1
100
AcDbLine
 10
0.3
 20
-25.0
 30
0.0
 11
1.018448
 21
-25.0
 31
0.0
  0
LINE
  5
80
330
1F
100
AcDbEntity
  8
1
100
AcDbLine
 10
4.0
 20
-25.0
 30
0.0
 11
4.7
 21
-25.0
 31
0.0
  0
LINE
  5
81
330
1F
100
AcDbEntity
  8
1
100
AcDbLine
 10
1.7
 20
12.499846
 30
0.0
 11
1.7
 21
12.275
 31
0.0
  0
LINE
  5
82
330
1F
100
AcDbEntity
  8
1
100
AcDbLine
 10
3.299999999999999
 20
12.275
 30
0.0
 11
3.299999999999999
 21
12.5
 31
0.0
  0
LINE
  5
83
330
1F
100
AcDbEntity
  8
1
100
AcDbLine
 10
3.299999999999999
 20
24.55
 30
0.0
 11
3.299999999999999
 21
25.0
 31
0.0
  0
LINE
  5
84
330
1F
100
AcDbEntity
  8
1
100
AcDbLine
 10
1.0
 20
-22.0
 30
0.0
 11
1.0
 21
-25.0
 31
0.0
  0
LINE
  5
85
330
1F
100
AcDbEntity
  8
1
100
AcDbLine
 10
4.0
 20
-25.0
 30
0.0
 11
4.0
 21
-22.0
 31
0.0
  0
LINE
  5
86
330
1F
100
AcDbEntity
  8
SK1
100
AcDbLine
 10
-20.0
 20
-18.65
 30
0.0
 11
-19.374
 21
-19.276
 31
0.0
  0
LINE
  5
87
330
1F
100
AcDbEntity
  8
SK1
100
AcDbLine
 10
-70.0
 20
-16.175
 30
0.0
 11
-57.0
 21
-16.175
 31
0.0
  0
LINE
  5
88
330
1F
100
AcDbEntity
  8
1
100
AcDbLine
 10
2.5
 20
16.08125
 30
0.0
 11
2.299999999999999
 21
15.88125
 31
0.0
  0
LINE
  5
89
330
1F
100
AcDbEntity
  8
1
100
AcDbLine
 10
2.299999999999999
 20
-15.88125
 30
0.0
 11
2.5
 21
-16.08125
 31
0.0
  0
LINE
  5
8A
330
1F
100
AcDbEntity
  8
SK1
100
AcDbLine
 10
-8.5
 20
-15.88125
 30
0.0
 11
2.299999999999999
 21
-15.88125
 31
0.0
  0
LINE
  5
8B
330
1F
100
AcDbEntity
  8
SK1
100
AcDbLine
 10
2.299999999999999
 20
15.88125
 30
0.0
 11
-8.5
 21
15.88125
 31
0.0
  0
LINE
  5
8C
330
1F
100
AcDbEntity
  8
SK1
100
AcDbLine
 10
-57.0
 20
-15.88125
 30
0.0
 11
-36.5
 21
-15.88125
 31
0.0
  0
LINE
  5
8D
330
1F
100
AcDbEntity
  8
1
100
AcDbLine
 10
0.45
 20
-19.65
 30
0.0
 11
0.45
 21
19.65
 31
0.0
  0
LINE
  5
8E
330
1F
100
AcDbEntity
  8
1
100
AcDbLine
 10
1.8
 20
24.162016
 30
0.0
 11
3.2
 21
24.162016
 31
0.0
  0
LINE
  5
8F
330
1F
100
AcDbEntity
  8
1
100
AcDbLine
 10
3.2
 20
23.747905
 30
0.0
 11
1.8
 21
23.747905
 31
0.0
  0
LINE
  5
90
330
1F
100
AcDbEntity
  8
1
100
AcDbLine
 10
4.799999999999999
 20
20.5
 30
0.0
 11
4.799999999999999
 21
-20.5
 31
0.0
  0
LINE
  5
91
330
1F
100
AcDbEntity
  8
SK1
100
AcDbLine
 10
-42.5
 20
8.4
 30
0.0
 11
-42.5
 21
18.65
 31
0.0
  0
LINE
  5
92
330
1F
100
AcDbEntity
  8
SK1
100
AcDbLine
 10
-52.365605
 20
2.399999999999999
 30
0.0
 11
-56.5
 21
2.399999999999999
 31
0.0
  0
LINE
  5
93
330
1F
100
AcDbEntity
  8
1
100
AcDbLine
 10
5.0
 20
-24.7
 30
0.0
 11
5.0
 21
24.7
 31
0.0
  0
LINE
  5
94
330
1F
100
AcDbEntity
  8
1
100
AcDbLine
 10
4.7
 20
-25.0
 30
0.0
 11
4.7
 21
25.0
 31
0.0
  0
LINE
  5
95
330
1F
100
AcDbEntity
  8
1
100
AcDbLine
 10
0.3
 20
-25.0
 30
0.0
 11
0.3
 21
25.0
 31
0.0
  0
LINE
  5
96
330
1F
100
AcDbEntity
  8
1
100
AcDbLine
 10
0.0
 20
-24.7
 30
0.0
 11
0.0
 21
24.7
 31
0.0
  0
LINE
  5
97
330
1F
100
AcDbEntity
  8
SK1
100
AcDbLine
 10
-0.55
 20
0.0
 30
0.0
 11
-0.55
 21
18.65
 31
0.0
  0
LINE
  5
98
330
1F
100
AcDbEntity
  8
SK1
100
AcDbLine
 10
-0.55
 20
-18.65
 30
0.0
 11
-0.55
 21
18.65
 31
0.0
  0
LINE
  5
99
330
1F
100
AcDbEntity
  8
SK1
100
AcDbLine
 10
-0.55
 20
-18.65
 30
0.0
 11
-0.55
 21
0.0
 31
0.0
  0
LINE
  5
9A
330
1F
100
AcDbEntity
  8
SK1
100
AcDbLine
 10
-2.046060999999999
 20
0.0
 30
0.0
 11
-2.046060999999999
 21
18.65
 31
0.0
  0
LINE
  5
9B
330
1F
100
AcDbEntity
  8
SK1
100
AcDbLine
 10
-2.046060999999999
 20
-18.65
 30
0.0
 11
-2.046060999999999
 21
18.65
 31
0.0
  0
LINE
  5
9C
330
1F
100
AcDbEntity
  8
SK1
100
AcDbLine
 10
-2.046060999999999
 20
-18.65
 30
0.0
 11
-2.046060999999999
 21
0.0
 31
0.0
  0
LINE
  5
9D
330
1F
100
AcDbEntity
  8
SK1
100
AcDbLine
 10
-70.0
 20
-18.35
 30
0.0
 11
-70.0
 21
18.35
 31
0.0
  0
LINE
  5
9E
330
1F
100
AcDbEntity
  8
SK1
100
AcDbLine
 10
-52.0
 20
-18.65
 30
0.0
 11
-52.0
 21
2.399999999999999
 31
0.0
  0
LINE
  5
9F
330
1F
100
AcDbEntity
  8
SK1
100
AcDbLine
 10
-20.0
 20
-18.65
 30
0.0
 11
-20.0
 21
2.399999999999999
 31
0.0
  0
LINE
  5
A0
330
1F
100
AcDbEntity
  8
SK1
100
AcDbLine
 10
-8.5
 20
0.0
 30
0.0
 11
-8.5
 21
16.175
 31
0.0
  0
LINE
  5
A1
330
1F
100
AcDbEntity
  8
SK1
100
AcDbLine
 10
-8.5
 20
-16.175
 30
0.0
 11
-8.5
 21
0.0
 31
0.0
  0
LINE
  5
A2
330
1F
100
AcDbEntity
  8
SK1
100
AcDbLine
 10
-36.5
 20
0.0
 30
0.0
 11
-36.5
 21
16.175
 31
0.0
  0
LINE
  5
A3
330
1F
100
AcDbEntity
  8
SK1
100
AcDbLine
 10
-36.5
 20
-16.175
 30
0.0
 11
-36.5
 21
0.0
 31
0.0
  0
LINE
  5
A4
330
1F
100
AcDbEntity
  8
SK1
100
AcDbLine
 10
-57.0
 20
-16.175
 30
0.0
 11
-57.0
 21
2.420869999999999
 31
0.0
  0
LINE
  5
A5
330
1F
100
AcDbEntity
  8
SK1
100
AcDbLine
 10
-9.0
 20
8.4
 30
0.0
 11
-9.0
 21
18.816
 31
0.0
  0
LINE
  5
A6
330
1F
100
AcDbEntity
  8
SK1
100
AcDbLine
 10
-15.0
 20
2.399999999999999
 30
0.0
 11
-19.634395
 21
2.399999999999999
 31
0.0
  0
LINE
  5
A7
330
1F
100
AcDbEntity
  8
SK1
100
AcDbLine
 10
-23.0
 20
2.399999999999999
 30
0.0
 11
-20.0
 21
2.399999999999999
 31
0.0
  0
LINE
  5
A8
330
1F
100
AcDbEntity
  8
SK1
100
AcDbLine
 10
-52.0
 20
2.399999999999999
 30
0.0
 11
-48.5
 21
2.399999999999999
 31
0.0
  0
LINE
  5
A9
330
1F
100
AcDbEntity
  8
SK1
100
AcDbLine
 10
-62.5
 20
8.4
 30
0.0
 11
-62.5
 21
18.816
 31
0.0
  0
LINE
  5
AA
330
1F
100
AcDbEntity
  8
1
100
AcDbLine
 10
3.299999999999999
 20
24.55
 30
0.0
 11
1.7
 21
24.55
 31
0.0
  0
LINE
  5
AB
330
1F
100
AcDbEntity
  8
1
100
AcDbLine
 10
4.0
 20
-22.0
 30
0.0
 11
1.0
 21
-22.0
 31
0.0
  0
LINE
  5
AC
330
1F
100
AcDbEntity
  8
1
100
AcDbLine
 10
0.0
 20
-2.049999999999999
 30
0.0
 11
5.0
 21
-2.049999999999999
 31
0.0
  0
LINE
  5
AD
330
1F
100
AcDbEntity
  8
1
100
AcDbLine
 10
0.0
 20
2.049999999999999
 30
0.0
 11
5.0
 21
2.049999999999999
 31
0.0
  0
LINE
  5
AE
330
1F
100
AcDbEntity
  8
1
100
AcDbLine
 10
2.299999999999999
 20
0.0
 30
0.0
 11
2.299999999999999
 21
15.88125
 31
0.0
  0
LINE
  5
AF
330
1F
100
AcDbEntity
  8
1
100
AcDbLine
 10
2.299999999999999
 20
-15.88125
 30
0.0
 11
2.299999999999999
 21
0.0
 31
0.0
  0
LINE
  5
B0
330
1F
100
AcDbEntity
  8
1
100
AcDbLine
 10
2.5
 20
0.0
 30
0.0
 11
2.5
 21
20.354412
 31
0.0
  0
LINE
  5
B1
330
1F
100
AcDbEntity
  8
1
100
AcDbLine
 10
2.5
 20
-20.354412
 30
0.0
 11
2.5
 21
0.0
 31
0.0
  0
LINE
  5
B2
330
1F
100
AcDbEntity
  8
1
100
AcDbLine
 10
3.206418
 20
-20.611527
 30
0.0
 11
3.206418
 21
20.611527
 31
0.0
  0
LINE
  5
B3
330
1F
100
AcDbEntity
  8
1
100
AcDbLine
 10
3.299999999999999
 20
0.0
 30
0.0
 11
3.299999999999999
 21
12.276402
 31
0.0
  0
LINE
  5
B4
330
1F
100
AcDbEntity
  8
1
100
AcDbLine
 10
3.299999999999999
 20
12.500888
 30
0.0
 11
3.299999999999999
 21
17.360293
 31
0.0
  0
LINE
  5
B5
330
1F
100
AcDbEntity
  8
1
100
AcDbLine
 10
3.299999999999999
 20
17.677908
 30
0.0
 11
3.299999999999999
 21
20.5
 31
0.0
  0
LINE
  5
B6
330
1F
100
AcDbEntity
  8
1
100
AcDbLine
 10
3.299999999999999
 20
-20.5
 30
0.0
 11
3.299999999999999
 21
0.0
 31
0.0
  0
LINE
  5
B7
330
1F
100
AcDbEntity
  8
1
100
AcDbLine
 10
3.2
 20
24.342834
 30
0.0
 11
1.8
 21
24.342834
 31
0.0
  0
LINE
  5
B8
330
1F
100
AcDbEntity
  8
1
100
AcDbLine
 10
1.8
 20
23.928723
 30
0.0
 11
3.2
 21
23.928723
 31
0.0
  0
LINE
  5
B9
330
1F
100
AcDbEntity
  8
1
100
AcDbLine
 10
3.2
 20
24.162016
 30
0.0
 11
3.2
 21
24.342834
 31
0.0
  0
LINE
  5
BA
330
1F
100
AcDbEntity
  8
1
100
AcDbLine
 10
3.2
 20
23.747905
 30
0.0
 11
3.2
 21
23.928723
 31
0.0
  0
LINE
  5
BB
330
1F
100
AcDbEntity
  8
1
100
AcDbLine
 10
1.8
 20
24.162016
 30
0.0
 11
1.8
 21
24.342834
 31
0.0
  0
LINE
  5
BC
330
1F
100
AcDbEntity
  8
1
100
AcDbLine
 10
1.8
 20
23.747905
 30
0.0
 11
1.8
 21
23.928723
 31
0.0
  0
LINE
  5
BD
330
1F
100
AcDbEntity
  8
1
100
AcDbLine
 10
1.8
 20
23.929099
 30
0.0
 11
1.8
 21
24.162016
 31
0.0
  0
LINE
  5
BE
330
1F
100
AcDbEntity
  8
1
100
AcDbLine
 10
1.8
 20
23.747905
 30
0.0
 11
1.8
 21
23.929099
 31
0.0
  0
LINE
  5
BF
330
1F
100
AcDbEntity
  8
1
100
AcDbLine
 10
3.2
 20
23.929099
 30
0.0
 11
3.2
 21
24.162016
 31
0.0
  0
LINE
  5
C0
330
1F
100
AcDbEntity
  8
1
100
AcDbLine
 10
3.2
 20
23.747905
 30
0.0
 11
3.2
 21
23.929099
 31
0.0
  0
LINE
  5
C1
330
1F
100
AcDbEntity
  8
81
100
AcDbLine
 10
5.0
 20
0.0
 30
0.0
 11
11.733784
 21
0.0
 31
0.0
  0
LINE
  5
C2
330
1F
100
AcDbEntity
  8
80
100
AcDbLine
 10
0.0
 20
0.0
 30
0.0
 11
-5.690316
 21
0.0
 31
0.0
  0
LINE
  5
F1
330
1F
100
AcDbEntity
  8
SK4
 48
0.05
100
AcDbLine
 10
-76.03399999999999
 20
-0.23
 30
0.0
 11
4.975381999999999
 21
-0.23
 31
0.0
  0
LINE
  5
F3
330
1F
100
AcDbEntity
  8
1
100
AcDbLine
 10
2.5
 20
6.178589999999999
 30
0.0
 11
2.5
 21
18.619727
 31
0.0
  0
MTEXT
  5
F4
330
1F
100
AcDbEntity
  8
SK6
100
AcDbMText
 10
-51.007579
 20
-30.684233
 30
0.0
 40
3.5
 41
0.0
 71
     7
 72
     5
  1
\W00.742;\fsimplex.shx,bigfont.shx;A416.2-LX31-38 
  7
DEFAULT
 73
     1
 44
1.084337
1001
ACAD
1000
MTEXTBEGIN
1070
    73
1070
     1
1070
    44
1040
1.084337
1070
    74
1070
     0
1000
MTEXTEND
  0
DIMENSION
  5
103
330
1F
100
AcDbEntity
  8
2
370
    -3
100
AcDbDimension
  2
DimnDraft3D1
 10
34.317675
 20
25.0
 30
0.0
 11
29.692675
 21
1.455262999999999
 31
0.0
 70
    33
 71
     5
 42
-1.0
  3
Standard
100
AcDbAlignedDimension
 13
6.287499999999999
 23
-25.0
 33
0.0
 14
6.287499999999999
 24
25.0
 34
0.0
1001
ACAD
1000
DSTYLE
1002
{
1070
   279
1070
     0
1070
    74
1070
     0
1070
   173
1070
     1
1070
   340
1005
F5
1070
   271
1070
     2
1070
   272
1070
     2
1070
    77
1070
     1
1070
    73
1070
     0
1070
   171
1070
     3
1070
   274
1070
     4
1070
   177
1070
     2
1070
   176
1070
     2
1070
   178
1070
     2
1070
    78
1070
     8
1070
    48
1040
-0.005
1070
    41
1041
3.5
1070
   147
1041
1.75
1070
    42
1041
1.587499999999999
1070
    44
1041
2.0
1070
   140
1041
3.5
1070
   343
1005
0
1070
   344
1005
0
1002
}
  0
DIMENSION
  5
10E
330
1F
100
AcDbEntity
  8
2
370
    -3
100
AcDbDimension
  2
DimnDraft3D2
 10
24.119877
 20
15.88125
 30
0.0
 11
19.494877
 21
-1.271052999999999
 31
0.0
 70
    33
 71
     5
 42
-1.0
  3
Standard
100
AcDbAlignedDimension
 13
3.8875
 23
-15.88125
 33
0.0
 14
3.8875
 24
15.88125
 34
0.0
1001
ACAD
1000
DSTYLE
1002
{
1070
   279
1070
     0
1070
    74
1070
     0
1070
   173
1070
     1
1070
   340
1005
F5
1070
   271
1070
     2
1070
   272
1070
     2
1070
    77
1070
     1
1070
    73
1070
     0
1070
   171
1070
     3
1070
   274
1070
     4
1070
   177
1070
     2
1070
   176
1070
     2
1070
   178
1070
     2
1070
    78
1070
     8
1070
    48
1040
-0.005
1070
    41
1041
3.5
1070
   147
1041
1.75
1070
    42
1041
1.587499999999999
1070
    44
1041
2.0
1070
   140
1041
3.5
1070
   343
1005
0
1070
   344
1005
0
1002
}
  0
DIMENSION
  5
118
330
1F
100
AcDbEntity
  8
2
370
    -3
100
AcDbDimension
  2
DimnDraft3D3
 10
0.0
 20
37.513817
 30
0.0
 11
1.740132
 21
37.513817
 31
0.0
 70
    32
 71
     5
 42
-1.0
  3
Standard
100
AcDbAlignedDimension
 13
5.0
 23
26.2875
 33
0.0
 14
0.0
 24
26.2875
 34
0.0
100
AcDbRotatedDimension
1001
ACAD
1000
DSTYLE
1002
{
1070
   279
1070
     0
1070
   172
1070
     1
1070
   173
1070
     1
1070
   340
1005
F5
1070
   271
1070
     2
1070
   272
1070
     2
1070
    77
1070
     1
1070
    73
1070
     0
1070
   171
1070
     3
1070
   274
1070
     4
1070
   177
1070
     2
1070
   176
1070
     2
1070
   178
1070
     2
1070
    78
1070
     8
1070
    48
1040
-0.005
1070
    41
1041
3.5
1070
   147
1041
1.75
1070
    42
1041
1.587499999999999
1070
    44
1041
2.0
1070
   140
1041
3.5
1070
   343
1005
0
1070
   344
1005
0
1002
}
  0
DIMENSION
  5
124
330
1F
100
AcDbEntity
  8
SK2
370
    -3
100
AcDbDimension
  2
DimnDraft3D4
 10
-86.292074
 20
18.816
 30
0.0
 11
-86.917074
 21
-0.216184
 31
0.0
 70
    33
 71
     5
 42
-1.0
  3
Standard
100
AcDbAlignedDimension
 13
-70.66168499999999
 23
-19.276
 33
0.0
 14
-71.12149999999999
 24
18.816
 34
0.0
1001
ACAD
1000
DSTYLE
1002
{
1070
   279
1070
     0
1070
    74
1070
     0
1070
   173
1070
     1
1070
   340
1005
F5
1070
   271
1070
     1
1070
   272
1070
     2
1070
    77
1070
     1
1070
    73
1070
     0
1070
   171
1070
     3
1070
   274
1070
     4
1070
   177
1070
     2
1070
   176
1070
     2
1070
   178
1070
     2
1070
    78
1070
     8
1070
    48
1040
-0.005
1070
    41
1041
3.5
1070
   147
1041
1.75
1070
    42
1041
1.587499999999999
1070
    44
1041
2.0
1070
   140
1041
3.5
1070
   343
1005
0
1070
   344
1005
0
1002
}
  0
DIMENSION
  5
12E
330
1F
100
AcDbEntity
  8
SK2
370
    -3
100
AcDbDimension
  2
DimnDraft3D5
 10
-70.0
 20
37.460829
 30
0.0
 11
-37.044737
 21
37.460829
 31
0.0
 70
    32
 71
     5
 42
-1.0
  3
Standard
100
AcDbAlignedDimension
 13
0.0
 23
26.2875
 33
0.0
 14
-70.0
 24
19.9375
 34
0.0
100
AcDbRotatedDimension
1001
ACAD
1000
DSTYLE
1002
{
1070
   279
1070
     0
1070
   172
1070
     1
1070
   173
1070
     1
1070
   340
1005
F5
1070
   271
1070
     2
1070
   272
1070
     2
1070
    77
1070
     1
1070
    73
1070
     0
1070
   171
1070
     3
1070
   274
1070
     4
1070
   177
1070
     2
1070
   176
1070
     2
1070
   178
1070
     2
1070
    78
1070
     8
1070
    48
1040
-0.005
1070
    41
1041
3.5
1070
   147
1041
1.75
1070
    42
1041
1.587499999999999
1070
    44
1041
2.0
1070
   140
1041
3.5
1070
   343
1005
0
1070
   344
1005
0
1002
}
  0
ENDSEC
  0
SECTION
  2
OBJECTS
  0
DICTIONARY
  5
17D
330
0
100
AcDbDictionary
281
     1
  3
ACAD_CIP_PREVIOUS_PRODUCT_INFO
350
1E3
  3
ACAD_COLOR
350
1C0
  3
ACAD_DETAILVIEWSTYLE
350
1DA
  3
ACAD_GROUP
350
17E
  3
ACAD_LAYOUT
350
1DC
  3
ACAD_MATERIAL
350
18E
  3
ACAD_MLEADERSTYLE
350
1D5
  3
ACAD_MLINESTYLE
350
17F
  3
ACAD_PLOTSETTINGS
350
1DD
  3
ACAD_PLOTSTYLENAME
350
18C
  3
ACAD_SCALELIST
350
1C3
  3
ACAD_SECTIONVIEWSTYLE
350
1D7
  3
ACAD_TABLESTYLE
350
1C1
  3
ACAD_VISUALSTYLE
350
1A7
  3
ACDB_RECOMPOSE_DATA
350
205
  3
AcDbVariableDictionary
350
1F8
  3
DWGPROPS
350
206
  0
DICTIONARY
  5
1E6
330
10
100
AcDbDictionary
280
     1
281
     1
  3
ADSK_XREC_LAYER_RECONCILED
360
1E7
  0
DICTIONARY
  5
1E8
330
43
100
AcDbDictionary
280
     1
281
     1
  3
ADSK_XREC_LAYER_RECONCILED
360
1E9
  0
DICTIONARY
  5
1EA
330
4E
100
AcDbDictionary
280
     1
281
     1
  3
ADSK_XREC_LAYER_RECONCILED
360
1EB
  0
DICTIONARY
  5
1EC
330
50
100
AcDbDictionary
280
     1
281
     1
  3
ADSK_XREC_LAYER_RECONCILED
360
1ED
  0
DICTIONARY
  5
1EE
330
FA
100
AcDbDictionary
280
     1
281
     1
  3
ADSK_XREC_LAYER_RECONCILED
360
1EF
  0
DICTIONARY
  5
1F0
330
16C
100
AcDbDictionary
280
     1
281
     1
  3
ADSK_XREC_LAYER_RECONCILED
360
1F1
  0
DICTIONARY
  5
1F2
330
16D
100
AcDbDictionary
280
     1
281
     1
  3
ADSK_XREC_LAYER_RECONCILED
360
1F3
  0
DICTIONARY
  5
1F4
330
16E
100
AcDbDictionary
280
     1
281
     1
  3
ADSK_XREC_LAYER_RECONCILED
360
1F5
  0
DICTIONARY
  5
1F6
330
16F
100
AcDbDictionary
280
     1
281
     1
  3
ADSK_XREC_LAYER_RECONCILED
360
1F7
  0
XRECORD
  5
1E3
102
{ACAD_REACTORS
330
17D
102
}
330
17D
100
AcDbXrecord
280
     1
300
AMECH_PP
300
2013
300
PDSU_F_S
  0
DICTIONARY
  5
1C0
102
{ACAD_REACTORS
330
17D
102
}
330
17D
100
AcDbDictionary
281
     1
  0
DICTIONARY
  5
1DA
102
{ACAD_REACTORS
330
17D
102
}
330
17D
100
AcDbDictionary
281
     1
  3
Imperial24
350
1DB
  0
DICTIONARY
  5
17E
330
17D
100
AcDbDictionary
281
     1
  0
DICTIONARY
  5
1DC
102
{ACAD_REACTORS
330
17D
102
}
330
17D
100
AcDbDictionary
281
     1
  3
Layout1
350
1DF
  3
Model
350
1DE
  0
DICTIONARY
  5
18E
102
{ACAD_REACTORS
330
17D
102
}
330
17D
100
AcDbDictionary
281
     1
  3
ByBlock
350
197
  3
ByLayer
350
18F
  3
Global
350
19F
  0
DICTIONARY
  5
1D5
102
{ACAD_REACTORS
330
17D
102
}
330
17D
100
AcDbDictionary
281
     1
  3
Standard
350
1D6
  0
DICTIONARY
  5
17F
330
17D
100
AcDbDictionary
281
     1
  3
Standard
350
18
  0
DICTIONARY
  5
1DD
102
{ACAD_REACTORS
330
17D
102
}
330
17D
100
AcDbDictionary
281
     1
  0
ACDBDICTIONARYWDFLT
  5
18C
102
{ACAD_REACTORS
330
17D
102
}
330
17D
100
AcDbDictionary
281
     1
  3
Normal
350
18D
100
AcDbDictionaryWithDefault
340
18D
  0
DICTIONARY
  5
1C3
102
{ACAD_REACTORS
330
17D
102
}
330
17D
100
AcDbDictionary
281
     1
  3
A0
350
1C4
  3
A1
350
1C5
  3
A2
350
1C6
  3
A3
350
1C7
  3
A4
350
1C8
  3
A5
350
1C9
  3
A6
350
1CA
  3
A7
350
1CB
  3
A8
350
1CC
  3
A9
350
1CD
  3
B0
350
1CE
  3
B1
350
1CF
  3
B2
350
1D0
  3
B3
350
1D1
  3
B4
350
1D2
  3
B5
350
1D3
  3
B6
350
1D4
  0
DICTIONARY
  5
1D7
102
{ACAD_REACTORS
330
17D
102
}
330
17D
100
AcDbDictionary
281
     1
  3
Imperial24
350
1D9
  0
DICTIONARY
  5
1C1
102
{ACAD_REACTORS
330
17D
102
}
330
17D
100
AcDbDictionary
281
     1
  3
Standard
350
1C2
  0
DICTIONARY
  5
1A7
102
{ACAD_REACTORS
330
17D
102
}
330
17D
100
AcDbDictionary
281
     1
  3
2dWireframe
350
1AD
  3
Basic
350
1AC
  3
Brighten
350
1B3
  3
ColorChange
350
1B7
  3
Conceptual
350
1B0
  3
Dim
350
1B2
  3
EdgeColorOff
350
1BF
  3
Facepattern
350
1B6
  3
Flat
350
1A8
  3
FlatWithEdges
350
1A9
  3
Gouraud
350
1AA
  3
GouraudWithEdges
350
1AB
  3
Hidden
350
1AF
  3
JitterOff
350
1BD
  3
Linepattern
350
1B5
  3
OverhangOff
350
1BE
  3
Realistic
350
1B1
  3
Shaded
350
1BC
  3
Shaded with edges
350
1BB
  3
Shades of Gray
350
1B8
  3
Sketchy
350
1B9
  3
Thicken
350
1B4
  3
Wireframe
350
1AE
  3
X-Ray
350
1BA
  0
XRECORD
  5
205
102
{ACAD_REACTORS
330
17D
102
}
330
17D
100
AcDbXrecord
280
     1
 90
        1
330
1C2
  0
DICTIONARY
  5
1F8
102
{ACAD_REACTORS
330
17D
102
}
330
17D
100
AcDbDictionary
281
     1
  3
CANNOSCALE
350
1FD
  3
CMLEADERSTYLE
350
1FA
  3
CTABLESTYLE
350
1F9
  3
CVIEWDETAILSTYLE
350
1FB
  3
CVIEWSECTIONSTYLE
350
1FC
  3
DIMASSOC
350
200
  3
INDEXCTL
350
1FF
  3
SORTENTS
350
1FE
  3
XCLIPFRAME
350
201
  0
XRECORD
  5
206
102
{ACAD_REACTORS
330
17D
102
}
330
17D
100
AcDbXrecord
280
     1
  1
DWGPROPS COOKIE
  2

  3

  4

  6

  7

  8
Micke
  9

300
=
301
=
302
=
303
=
304
=
305
=
306
=
307
=
308
=
309
=
 40
0.0000067939814815
 41
2456818.987042049
 42
2456818.987048704
  1

 90
        0
  0
XRECORD
  5
1E7
102
{ACAD_REACTORS
330
1E6
102
}
330
1E6
100
AcDbXrecord
280
     1
290
     1
  0
XRECORD
  5
1E9
102
{ACAD_REACTORS
330
1E8
102
}
330
1E8
100
AcDbXrecord
280
     1
290
     1
  0
XRECORD
  5
1EB
102
{ACAD_REACTORS
330
1EA
102
}
330
1EA
100
AcDbXrecord
280
     1
290
     1
  0
XRECORD
  5
1ED
102
{ACAD_REACTORS
330
1EC
102
}
330
1EC
100
AcDbXrecord
280
     1
290
     1
  0
XRECORD
  5
1EF
102
{ACAD_REACTORS
330
1EE
102
}
330
1EE
100
AcDbXrecord
280
     1
290
     1
  0
XRECORD
  5
1F1
102
{ACAD_REACTORS
330
1F0
102
}
330
1F0
100
AcDbXrecord
280
     1
290
     1
  0
XRECORD
  5
1F3
102
{ACAD_REACTORS
330
1F2
102
}
330
1F2
100
AcDbXrecord
280
     1
290
     1
  0
XRECORD
  5
1F5
102
{ACAD_REACTORS
330
1F4
102
}
330
1F4
100
AcDbXrecord
280
     1
290
     1
  0
XRECORD
  5
1F7
102
{ACAD_REACTORS
330
1F6
102
}
330
1F6
100
AcDbXrecord
280
     1
290
     1
  0
ACDBDETAILVIEWSTYLE
  5
1DB
102
{ACAD_REACTORS
330
1DA
102
}
330
1DA
100
AcDbModelDocViewStyle
 70
     0
  3
Imperial24
290
     0
100
AcDbDetailViewStyle
 70
     0
 71
     0
 90
        3
 71
     1
340
11
 40
0.24
340
0
 40
0.24
300

 40
0.36
280
     3
 71
     2
340
16
 90
       25
 71
     3
340
11
 40
0.24
 90
        1
 40
0.75
 90
        1
300
%<\AcVar ViewType \f "%tc1">% %<\AcVar ViewDetailId>%\PSCALE %<\AcVar ViewScale \f "%sn">%
 71
     4
340
16
 90
       25
340
16
 90
       25
280
     0
  0
LAYOUT
  5
1DF
102
{ACAD_XDICTIONARY
360
23F
102
}
102
{ACAD_REACTORS
330
1DC
102
}
330
1DC
100
AcDbPlotSettings
  1

  2
Brother DCP-9020CDW Printer
  4

  6

 40
0.0
 41
0.0
 42
0.0
 43
0.0
 44
0.0
 45
0.0
 46
0.0
 47
0.0
 48
0.0
 49
0.0
140
0.0
141
0.0
142
1.0
143
1.0
 70
   688
 72
     0
 73
     0
 74
     5
  7

 75
    16
147
1.0
148
0.0
149
0.0
100
AcDbLayout
  1
Layout1
 70
     1
 71
     1
 10
0.0
 20
0.0
 11
12.0
 21
9.0
 12
0.0
 22
0.0
 32
0.0
 14
1.000000000000000E+20
 24
1.000000000000000E+20
 34
1.000000000000000E+20
 15
-1.000000000000000E+20
 25
-1.000000000000000E+20
 35
-1.000000000000000E+20
146
0.0
 13
0.0
 23
0.0
 33
0.0
 16
1.0
 26
0.0
 36
0.0
 17
0.0
 27
1.0
 37
0.0
 76
     0
330
1B
  0
LAYOUT
  5
1DE
102
{ACAD_XDICTIONARY
360
23D
102
}
102
{ACAD_REACTORS
330
1DC
102
}
330
1DC
100
AcDbPlotSettings
  1

  2
Brother DCP-9020CDW Printer
  4

  6

 40
0.0
 41
0.0
 42
0.0
 43
0.0
 44
0.0
 45
0.0
 46
0.0
 47
0.0
 48
0.0
 49
0.0
140
0.0
141
0.0
142
1.0
143
1.0
 70
  1712
 72
     0
 73
     0
 74
     0
  7

 75
     0
147
1.0
148
0.0
149
0.0
100
AcDbLayout
  1
Model
 70
     1
 71
     0
 10
0.0
 20
0.0
 11
12.0
 21
9.0
 12
0.0
 22
0.0
 32
0.0
 14
0.0
 24
0.0
 34
0.0
 15
0.0
 25
0.0
 35
0.0
146
0.0
 13
0.0
 23
0.0
 33
0.0
 16
1.0
 26
0.0
 36
0.0
 17
0.0
 27
1.0
 37
0.0
 76
     0
330
1F
331
1
  0
MATERIAL
  5
197
102
{ACAD_XDICTIONARY
360
198
102
}
102
{ACAD_REACTORS
330
18E
102
}
330
18E
100
AcDbMaterial
  1
ByBlock
 72
     0
 43
0.0008202099737533
 43
0.0
 43
0.0
 43
0.0
 43
0.0
 43
0.0008202099737533
 43
0.0
 43
0.0
 43
0.0
 43
0.0
 43
1.0
 43
0.0
 43
0.0
 43
0.0
 43
0.0
 43
1.0
 77
     0
 47
0.0008202099737533
 47
0.0
 47
0.0
 47
0.0
 47
0.0
 47
0.0008202099737533
 47
0.0
 47
0.0
 47
0.0
 47
0.0
 47
1.0
 47
0.0
 47
0.0
 47
0.0
 47
0.0
 47
1.0
171
     0
 49
0.0008202099737533
 49
0.0
 49
0.0
 49
0.0
 49
0.0
 49
0.0008202099737533
 49
0.0
 49
0.0
 49
0.0
 49
0.0
 49
1.0
 49
0.0
 49
0.0
 49
0.0
 49
0.0
 49
1.0
175
     0
142
0.0008202099737533
142
0.0
142
0.0
142
0.0
142
0.0
142
0.0008202099737533
142
0.0
142
0.0
142
0.0
142
0.0
142
1.0
142
0.0
142
0.0
142
0.0
142
0.0
142
1.0
179
     0
144
0.0008202099737533
144
0.0
144
0.0
144
0.0
144
0.0
144
0.0008202099737533
144
0.0
144
0.0
144
0.0
144
0.0
144
1.0
144
0.0
144
0.0
144
0.0
144
0.0
144
1.0
147
0.0008202099737533
147
0.0
147
0.0
147
0.0
147
0.0
147
0.0008202099737533
147
0.0
147
0.0
147
0.0
147
0.0
147
1.0
147
0.0
147
0.0
147
0.0
147
0.0
147
1.0
  0
MATERIAL
  5
18F
102
{ACAD_XDICTIONARY
360
190
102
}
102
{ACAD_REACTORS
330
18E
102
}
330
18E
100
AcDbMaterial
  1
ByLayer
 72
     0
 43
0.0008202099737533
 43
0.0
 43
0.0
 43
0.0
 43
0.0
 43
0.0008202099737533
 43
0.0
 43
0.0
 43
0.0
 43
0.0
 43
1.0
 43
0.0
 43
0.0
 43
0.0
 43
0.0
 43
1.0
 77
     0
 47
0.0008202099737533
 47
0.0
 47
0.0
 47
0.0
 47
0.0
 47
0.0008202099737533
 47
0.0
 47
0.0
 47
0.0
 47
0.0
 47
1.0
 47
0.0
 47
0.0
 47
0.0
 47
0.0
 47
1.0
171
     0
 49
0.0008202099737533
 49
0.0
 49
0.0
 49
0.0
 49
0.0
 49
0.0008202099737533
 49
0.0
 49
0.0
 49
0.0
 49
0.0
 49
1.0
 49
0.0
 49
0.0
 49
0.0
 49
0.0
 49
1.0
175
     0
142
0.0008202099737533
142
0.0
142
0.0
142
0.0
142
0.0
142
0.0008202099737533
142
0.0
142
0.0
142
0.0
142
0.0
142
1.0
142
0.0
142
0.0
142
0.0
142
0.0
142
1.0
179
     0
144
0.0008202099737533
144
0.0
144
0.0
144
0.0
144
0.0
144
0.0008202099737533
144
0.0
144
0.0
144
0.0
144
0.0
144
1.0
144
0.0
144
0.0
144
0.0
144
0.0
144
1.0
147
0.0008202099737533
147
0.0
147
0.0
147
0.0
147
0.0
147
0.0008202099737533
147
0.0
147
0.0
147
0.0
147
0.0
147
1.0
147
0.0
147
0.0
147
0.0
147
0.0
147
1.0
  0
MATERIAL
  5
19F
102
{ACAD_XDICTIONARY
360
1A0
102
}
102
{ACAD_REACTORS
330
18E
102
}
330
18E
100
AcDbMaterial
  1
Global
 72
     0
 43
0.0008202099737533
 43
0.0
 43
0.0
 43
0.0
 43
0.0
 43
0.0008202099737533
 43
0.0
 43
0.0
 43
0.0
 43
0.0
 43
1.0
 43
0.0
 43
0.0
 43
0.0
 43
0.0
 43
1.0
 77
     0
 47
0.0008202099737533
 47
0.0
 47
0.0
 47
0.0
 47
0.0
 47
0.0008202099737533
 47
0.0
 47
0.0
 47
0.0
 47
0.0
 47
1.0
 47
0.0
 47
0.0
 47
0.0
 47
0.0
 47
1.0
171
     0
 49
0.0008202099737533
 49
0.0
 49
0.0
 49
0.0
 49
0.0
 49
0.0008202099737533
 49
0.0
 49
0.0
 49
0.0
 49
0.0
 49
1.0
 49
0.0
 49
0.0
 49
0.0
 49
0.0
 49
1.0
175
     0
142
0.0008202099737533
142
0.0
142
0.0
142
0.0
142
0.0
142
0.0008202099737533
142
0.0
142
0.0
142
0.0
142
0.0
142
1.0
142
0.0
142
0.0
142
0.0
142
0.0
142
1.0
179
     0
144
0.0008202099737533
144
0.0
144
0.0
144
0.0
144
0.0
144
0.0008202099737533
144
0.0
144
0.0
144
0.0
144
0.0
144
1.0
144
0.0
144
0.0
144
0.0
144
0.0
144
1.0
147
0.0008202099737533
147
0.0
147
0.0
147
0.0
147
0.0
147
0.0008202099737533
147
0.0
147
0.0
147
0.0
147
0.0
147
1.0
147
0.0
147
0.0
147
0.0
147
0.0
147
1.0
  0
MLEADERSTYLE
  5
1D6
102
{ACAD_REACTORS
330
1D5
102
}
330
1D5
100
AcDbMLeaderStyle
170
     2
171
     1
172
     0
 90
        2
 40
0.0
 41
0.0
173
     1
 91
-1056964608
340
14
 92
       -2
290
     1
 42
0.09
291
     1
 43
0.36
  3
Standard
 44
0.18
300

342
11
174
     1
178
     6
175
     1
176
     0
 93
-1056964608
 45
0.18
292
     0
297
     0
 46
0.18
 94
-1056964608
 47
1.0
 49
1.0
140
1.0
293
     1
141
0.0
294
     1
177
     0
142
1.0
295
     0
296
     0
143
0.125
1001
ACAD_MLEADERVER
1070
     2
  0
MLINESTYLE
  5
18
330
17F
100
AcDbMlineStyle
  2
STANDARD
 70
     0
  3

 62
   256
 51
90.0
 52
90.0
 71
     2
 49
0.5
 62
   256
  6
BYLAYER
 49
-0.5
 62
   256
  6
BYLAYER
  0
ACDBPLACEHOLDER
  5
18D
102
{ACAD_REACTORS
330
18C
102
}
330
18C
  0
SCALE
  5
1C4
102
{ACAD_REACTORS
330
1C3
102
}
330
1C3
100
AcDbScale
 70
     0
300
1:1
140
1.0
141
1.0
290
     1
  0
SCALE
  5
1C5
102
{ACAD_REACTORS
330
1C3
102
}
330
1C3
100
AcDbScale
 70
     0
300
1/128" = 1'-0"
140
0.0078125
141
12.0
290
     0
  0
SCALE
  5
1C6
102
{ACAD_REACTORS
330
1C3
102
}
330
1C3
100
AcDbScale
 70
     0
300
1/64" = 1'-0"
140
0.015625
141
12.0
290
     0
  0
SCALE
  5
1C7
102
{ACAD_REACTORS
330
1C3
102
}
330
1C3
100
AcDbScale
 70
     0
300
1/32" = 1'-0"
140
0.03125
141
12.0
290
     0
  0
SCALE
  5
1C8
102
{ACAD_REACTORS
330
1C3
102
}
330
1C3
100
AcDbScale
 70
     0
300
1/16" = 1'-0"
140
0.0625
141
12.0
290
     0
  0
SCALE
  5
1C9
102
{ACAD_REACTORS
330
1C3
102
}
330
1C3
100
AcDbScale
 70
     0
300
3/32" = 1'-0"
140
0.09375
141
12.0
290
     0
  0
SCALE
  5
1CA
102
{ACAD_REACTORS
330
1C3
102
}
330
1C3
100
AcDbScale
 70
     0
300
1/8" = 1'-0"
140
0.125
141
12.0
290
     0
  0
SCALE
  5
1CB
102
{ACAD_REACTORS
330
1C3
102
}
330
1C3
100
AcDbScale
 70
     0
300
3/16" = 1'-0"
140
0.1875
141
12.0
290
     0
  0
SCALE
  5
1CC
102
{ACAD_REACTORS
330
1C3
102
}
330
1C3
100
AcDbScale
 70
     0
300
1/4" = 1'-0"
140
0.25
141
12.0
290
     0
  0
SCALE
  5
1CD
102
{ACAD_REACTORS
330
1C3
102
}
330
1C3
100
AcDbScale
 70
     0
300
3/8" = 1'-0"
140
0.375
141
12.0
290
     0
  0
SCALE
  5
1CE
102
{ACAD_REACTORS
330
1C3
102
}
330
1C3
100
AcDbScale
 70
     0
300
1/2" = 1'-0"
140
0.5
141
12.0
290
     0
  0
SCALE
  5
1CF
102
{ACAD_REACTORS
330
1C3
102
}
330
1C3
100
AcDbScale
 70
     0
300
3/4" = 1'-0"
140
0.75
141
12.0
290
     0
  0
SCALE
  5
1D0
102
{ACAD_REACTORS
330
1C3
102
}
330
1C3
100
AcDbScale
 70
     0
300
1" = 1'-0"
140
1.0
141
12.0
290
     0
  0
SCALE
  5
1D1
102
{ACAD_REACTORS
330
1C3
102
}
330
1C3
100
AcDbScale
 70
     0
300
1-1/2" = 1'-0"
140
1.5
141
12.0
290
     0
  0
SCALE
  5
1D2
102
{ACAD_REACTORS
330
1C3
102
}
330
1C3
100
AcDbScale
 70
     0
300
3" = 1'-0"
140
3.0
141
12.0
290
     0
  0
SCALE
  5
1D3
102
{ACAD_REACTORS
330
1C3
102
}
330
1C3
100
AcDbScale
 70
     0
300
6" = 1'-0"
140
6.0
141
12.0
290
     0
  0
SCALE
  5
1D4
102
{ACAD_REACTORS
330
1C3
102
}
330
1C3
100
AcDbScale
 70
     0
300
1'-0" = 1'-0"
140
12.0
141
12.0
290
     0
  0
ACDBSECTIONVIEWSTYLE
  5
1D9
102
{ACAD_REACTORS
330
1D7
102
}
330
1D7
100
AcDbModelDocViewStyle
 70
     0
  3
Imperial24
290
     0
100
AcDbSectionViewStyle
 70
     0
 71
     0
 90
       78
 71
     1
340
11
 40
0.24
340
0
340
0
 40
0.24
300
I, O, Q, S, X, Z
 40
0.48
 90
        3
 40
0.18
 90
        1
 71
     2
340
1D8
 90
       25
340
16
 90
       50
 40
0.24
 40
0.0
 40
0.24
 71
     3
340
11
 40
0.24
 90
        1
 40
0.75
 90
        1
300
%<\AcVar ViewType \f "%tc1">% %<\AcVar ViewSectionStartId>%-%<\AcVar ViewSectionEndId>%\PSCALE %<\AcVar ViewScale \f "%sn">%
 71
     4
300
ANSI31
 40
1.0
 90
        0
290
     0
290
     0
 90
        6
 40
0.0
 40
1.570796326794896
 40
0.2617993877991494
 40
1.308996938995747
 40
-0.2617993877991494
 40
1.832595714594046
  0
TABLESTYLE
  5
1C2
102
{ACAD_XDICTIONARY
360
203
102
}
102
{ACAD_REACTORS
330
1C1
102
}
330
1C1
100
AcDbTableStyle
  3
Standard
 70
     0
 71
     0
 40
0.06
 41
0.06
280
     0
281
     0
  7
Standard
140
0.18
170
     2
 62
     0
 63
     7
283
     0
274
    -2
284
     1
 64
     0
275
    -2
285
     1
 65
     0
276
    -2
286
     1
 66
     0
277
    -2
287
     1
 67
     0
278
    -2
288
     1
 68
     0
279
    -2
289
     1
 69
     0
  7
Standard
140
0.25
170
     5
 62
     0
 63
     7
283
     0
274
    -2
284
     1
 64
     0
275
    -2
285
     1
 65
     0
276
    -2
286
     1
 66
     0
277
    -2
287
     1
 67
     0
278
    -2
288
     1
 68
     0
279
    -2
289
     1
 69
     0
  7
Standard
140
0.18
170
     5
 62
     0
 63
     7
283
     0
274
    -2
284
     1
 64
     0
275
    -2
285
     1
 65
     0
276
    -2
286
     1
 66
     0
277
    -2
287
     1
 67
     0
278
    -2
288
     1
 68
     0
279
    -2
289
     1
 69
     0
  0
VISUALSTYLE
  5
1AD
102
{ACAD_XDICTIONARY
360
215
102
}
102
{ACAD_REACTORS
330
1A7
102
}
330
1A7
100
AcDbVisualStyle
  2
2dWireframe
 70
     4
 71
     0
 72
     2
 73
     0
 90
        0
 40
-0.6
 41
-30.0
 62
     5
 63
     7
 74
     1
 91
        4
 64
     7
 65
   257
 75
     1
175
     1
 42
1.0
 92
        0
 66
   257
 43
1.0
 76
     1
 77
     6
 78
     2
 67
     7
 79
     5
170
     0
171
     0
290
     0
174
     0
 93
        1
 44
0.0
173
     0
291
     0
 45
0.0
1001
ACAD
1000
AcDbSavedByObjectVersion
1070
     0
  0
VISUALSTYLE
  5
1AC
102
{ACAD_XDICTIONARY
360
213
102
}
102
{ACAD_REACTORS
330
1A7
102
}
330
1A7
100
AcDbVisualStyle
  2
Basic
 70
     7
 71
     1
 72
     0
 73
     1
 90
        0
 40
-0.6
 41
-30.0
 62
     5
 63
     7
 74
     0
 91
        4
 64
     7
 65
   257
 75
     1
175
     1
 42
1.0
 92
        8
 66
     7
 43
1.0
 76
     1
 77
     6
 78
     2
 67
     7
 79
     5
170
     0
171
     0
290
     0
174
     0
 93
        1
 44
0.0
173
     0
291
     1
 45
0.0
1001
ACAD
1000
AcDbSavedByObjectVersion
1070
     0
  0
VISUALSTYLE
  5
1B3
102
{ACAD_XDICTIONARY
360
221
102
}
102
{ACAD_REACTORS
330
1A7
102
}
330
1A7
100
AcDbVisualStyle
  2
Brighten
 70
    12
 71
     2
 72
     2
 73
     0
 90
        0
 40
-0.6
 41
-30.0
 62
     5
 63
     7
 74
     1
 91
        4
 64
     7
 65
   257
 75
     1
175
     1
 42
1.0
 92
        8
 66
     7
 43
1.0
 76
     1
 77
     6
 78
     2
 67
     7
 79
     5
170
     0
171
     0
290
     0
174
     0
 93
        1
 44
50.0
173
     0
291
     1
 45
0.0
1001
ACAD
1000
AcDbSavedByObjectVersion
1070
     0
  0
VISUALSTYLE
  5
1B7
102
{ACAD_XDICTIONARY
360
229
102
}
102
{ACAD_REACTORS
330
1A7
102
}
330
1A7
100
AcDbVisualStyle
  2
ColorChange
 70
    16
 71
     2
 72
     2
 73
     3
 90
        0
 40
-0.6
 41
-30.0
 62
     5
 63
     8
 74
     1
 91
        4
 64
     7
 65
   257
 75
     1
175
     1
 42
1.0
 92
        8
 66
     8
 43
1.0
 76
     1
 77
     6
 78
     2
 67
     7
 79
     5
170
     0
171
     0
290
     0
174
     0
 93
        1
 44
0.0
173
     0
291
     1
 45
0.0
1001
ACAD
1000
AcDbSavedByObjectVersion
1070
     0
  0
VISUALSTYLE
  5
1B0
102
{ACAD_XDICTIONARY
360
21B
102
}
102
{ACAD_REACTORS
330
1A7
102
}
330
1A7
100
AcDbVisualStyle
  2
Conceptual
 70
     9
 71
     3
 72
     2
 73
     0
 90
        0
 40
-0.6
 41
-30.0
 62
     5
 63
     7
 74
     2
 91
        2
 64
     7
 65
   257
 75
     1
175
     1
 42
179.0
 92
        8
 66
     7
 43
1.0
 76
     1
 77
     6
 78
     2
 67
     7
 79
     3
170
     0
171
     0
290
     0
174
     0
 93
        1
 44
0.0
173
     0
291
     0
 45
0.0
1001
ACAD
1000
AcDbSavedByObjectVersion
1070
     0
  0
VISUALSTYLE
  5
1B2
102
{ACAD_XDICTIONARY
360
21F
102
}
102
{ACAD_REACTORS
330
1A7
102
}
330
1A7
100
AcDbVisualStyle
  2
Dim
 70
    11
 71
     2
 72
     2
 73
     0
 90
        0
 40
-0.6
 41
-30.0
 62
     5
 63
     7
 74
     1
 91
        4
 64
     7
 65
   257
 75
     1
175
     1
 42
1.0
 92
        8
 66
     7
 43
1.0
 76
     1
 77
     6
 78
     2
 67
     7
 79
     5
170
     0
171
     0
290
     0
174
     0
 93
        1
 44
-50.0
173
     0
291
     1
 45
0.0
1001
ACAD
1000
AcDbSavedByObjectVersion
1070
     0
  0
VISUALSTYLE
  5
1BF
102
{ACAD_XDICTIONARY
360
239
102
}
102
{ACAD_REACTORS
330
1A7
102
}
330
1A7
100
AcDbVisualStyle
  2
EdgeColorOff
 70
    22
 71
     2
 72
     2
 73
     0
 90
        0
 40
-0.6
 41
-30.0
 62
     5
 63
     7
 74
     1
 91
        4
 64
     7
 65
   257
 75
     1
175
     1
 42
1.0
 92
        8
 66
     7
 43
1.0
 76
     1
 77
     6
 78
     2
 67
     7
 79
     5
170
     0
171
     0
290
     0
174
     0
 93
        1
 44
0.0
173
     0
291
     1
 45
0.0
1001
ACAD
1000
AcDbSavedByObjectVersion
1070
     0
  0
VISUALSTYLE
  5
1B6
102
{ACAD_XDICTIONARY
360
227
102
}
102
{ACAD_REACTORS
330
1A7
102
}
330
1A7
100
AcDbVisualStyle
  2
Facepattern
 70
    15
 71
     2
 72
     2
 73
     0
 90
        0
 40
-0.6
 41
-30.0
 62
     5
 63
     7
 74
     1
 91
        4
 64
     7
 65
   257
 75
     1
175
     1
 42
1.0
 92
        8
 66
     7
 43
1.0
 76
     1
 77
     6
 78
     2
 67
     7
 79
     5
170
     0
171
     0
290
     0
174
     0
 93
        1
 44
0.0
173
     0
291
     1
 45
0.0
1001
ACAD
1000
AcDbSavedByObjectVersion
1070
     0
  0
VISUALSTYLE
  5
1A8
102
{ACAD_XDICTIONARY
360
20B
102
}
102
{ACAD_REACTORS
330
1A7
102
}
330
1A7
100
AcDbVisualStyle
  2
Flat
 70
     0
 71
     2
 72
     1
 73
     1
 90
        2
 40
-0.6
 41
30.0
 62
     5
 63
     7
 74
     0
 91
        0
 64
     7
 65
   257
 75
     1
175
     1
 42
1.0
 92
        8
 66
     7
 43
1.0
 76
     1
 77
     6
 78
     2
 67
     7
 79
     5
170
     0
171
     0
290
     0
174
     0
 93
       13
 44
0.0
173
     0
291
     1
 45
0.0
1001
ACAD
1000
AcDbSavedByObjectVersion
1070
     0
  0
VISUALSTYLE
  5
1A9
102
{ACAD_XDICTIONARY
360
20D
102
}
102
{ACAD_REACTORS
330
1A7
102
}
330
1A7
100
AcDbVisualStyle
  2
FlatWithEdges
 70
     1
 71
     2
 72
     1
 73
     1
 90
        2
 40
-0.6
 41
30.0
 62
     5
 63
     7
 74
     1
 91
        0
 64
     7
 65
   257
 75
     1
175
     1
 42
1.0
 92
        0
 66
   257
 43
1.0
 76
     1
 77
     6
 78
     2
 67
     7
 79
     5
170
     0
171
     0
290
     0
174
     0
 93
       13
 44
0.0
173
     0
291
     1
 45
0.0
1001
ACAD
1000
AcDbSavedByObjectVersion
1070
     0
  0
VISUALSTYLE
  5
1AA
102
{ACAD_XDICTIONARY
360
20F
102
}
102
{ACAD_REACTORS
330
1A7
102
}
330
1A7
100
AcDbVisualStyle
  2
Gouraud
 70
     2
 71
     2
 72
     2
 73
     1
 90
        2
 40
-0.6
 41
30.0
 62
     5
 63
     7
 74
     0
 91
        0
 64
     7
 65
   257
 75
     1
175
     1
 42
1.0
 92
        0
 66
     7
 43
1.0
 76
     1
 77
     6
 78
     2
 67
     7
 79
     5
170
     0
171
     0
290
     0
174
     0
 93
       13
 44
0.0
173
     0
291
     1
 45
0.0
1001
ACAD
1000
AcDbSavedByObjectVersion
1070
     0
  0
VISUALSTYLE
  5
1AB
102
{ACAD_XDICTIONARY
360
211
102
}
102
{ACAD_REACTORS
330
1A7
102
}
330
1A7
100
AcDbVisualStyle
  2
GouraudWithEdges
 70
     3
 71
     2
 72
     2
 73
     1
 90
        2
 40
-0.6
 41
30.0
 62
     5
 63
     7
 74
     1
 91
        0
 64
     7
 65
   257
 75
     1
175
     1
 42
1.0
 92
        0
 66
   257
 43
1.0
 76
     1
 77
     6
 78
     2
 67
     7
 79
     5
170
     0
171
     0
290
     0
174
     0
 93
       13
 44
0.0
173
     0
291
     1
 45
0.0
1001
ACAD
1000
AcDbSavedByObjectVersion
1070
     0
  0
VISUALSTYLE
  5
1AF
102
{ACAD_XDICTIONARY
360
219
102
}
102
{ACAD_REACTORS
330
1A7
102
}
330
1A7
100
AcDbVisualStyle
  2
Hidden
 70
     6
 71
     1
 72
     2
 73
     2
 90
        0
 40
-0.6
 41
-30.0
 62
     5
 63
     7
 74
     2
 91
        2
 64
     7
 65
   257
 75
     2
175
     1
 42
40.0
 92
        0
 66
   257
 43
1.0
 76
     1
 77
     6
 78
     2
 67
     7
 79
     3
170
     0
171
     0
290
     0
174
     0
 93
        1
 44
0.0
173
     0
291
     0
 45
0.0
1001
ACAD
1000
AcDbSavedByObjectVersion
1070
     0
  0
VISUALSTYLE
  5
1BD
102
{ACAD_XDICTIONARY
360
235
102
}
102
{ACAD_REACTORS
330
1A7
102
}
330
1A7
100
AcDbVisualStyle
  2
JitterOff
 70
    20
 71
     2
 72
     2
 73
     0
 90
        0
 40
-0.6
 41
-30.0
 62
     5
 63
     7
 74
     1
 91
        4
 64
     7
 65
   257
 75
     1
175
     1
 42
1.0
 92
       10
 66
     7
 43
1.0
 76
     1
 77
     6
 78
     2
 67
     7
 79
     5
170
     0
171
     0
290
     0
174
     0
 93
        1
 44
0.0
173
     0
291
     1
 45
0.0
1001
ACAD
1000
AcDbSavedByObjectVersion
1070
     0
  0
VISUALSTYLE
  5
1B5
102
{ACAD_XDICTIONARY
360
225
102
}
102
{ACAD_REACTORS
330
1A7
102
}
330
1A7
100
AcDbVisualStyle
  2
Linepattern
 70
    14
 71
     2
 72
     2
 73
     0
 90
        0
 40
-0.6
 41
-30.0
 62
     5
 63
     7
 74
     1
 91
        4
 64
     7
 65
   257
 75
     7
175
     7
 42
1.0
 92
        8
 66
     7
 43
1.0
 76
     1
 77
     6
 78
     2
 67
     7
 79
     5
170
     0
171
     0
290
     0
174
     0
 93
        1
 44
0.0
173
     0
291
     1
 45
0.0
1001
ACAD
1000
AcDbSavedByObjectVersion
1070
     0
  0
VISUALSTYLE
  5
1BE
102
{ACAD_XDICTIONARY
360
237
102
}
102
{ACAD_REACTORS
330
1A7
102
}
330
1A7
100
AcDbVisualStyle
  2
OverhangOff
 70
    21
 71
     2
 72
     2
 73
     0
 90
        0
 40
-0.6
 41
-30.0
 62
     5
 63
     7
 74
     1
 91
        4
 64
     7
 65
   257
 75
     1
175
     1
 42
1.0
 92
        9
 66
     7
 43
1.0
 76
     1
 77
     6
 78
     2
 67
     7
 79
     5
170
     0
171
     0
290
     0
174
     0
 93
        1
 44
0.0
173
     0
291
     1
 45
0.0
1001
ACAD
1000
AcDbSavedByObjectVersion
1070
     0
  0
VISUALSTYLE
  5
1B1
102
{ACAD_XDICTIONARY
360
21D
102
}
102
{ACAD_REACTORS
330
1A7
102
}
330
1A7
100
AcDbVisualStyle
  2
Realistic
 70
     8
 71
     2
 72
     3
 73
     0
 90
        2
 40
-0.6
 41
30.0
 62
     5
 63
     7
 74
     0
 91
        0
 64
     7
 65
   257
 75
     1
175
     1
 42
1.0
 92
        8
 66
   257
 43
1.0
 76
     1
 77
     6
 78
     2
 67
     7
 79
     3
170
     0
171
     0
290
     0
174
     0
 93
       13
 44
0.0
173
     0
291
     0
 45
0.0
1001
ACAD
1000
AcDbSavedByObjectVersion
1070
     0
  0
VISUALSTYLE
  5
1BC
102
{ACAD_XDICTIONARY
360
233
102
}
102
{ACAD_REACTORS
330
1A7
102
}
330
1A7
100
AcDbVisualStyle
  2
Shaded
 70
    27
 71
     2
 72
     2
 73
     1
 90
        2
 40
-0.6
 41
30.0
 62
     5
 63
     7
 74
     0
 91
        4
 64
     7
 65
   257
 75
     1
175
     1
 42
1.0
 92
        8
 66
   257
 43
1.0
 76
     1
 77
     6
 78
     2
 67
     8
 79
     3
170
     0
171
     0
290
     0
174
     0
 93
        5
 44
0.0
173
     0
291
     0
 45
0.0
1001
ACAD
1000
AcDbSavedByObjectVersion
1070
     0
  0
VISUALSTYLE
  5
1BB
102
{ACAD_XDICTIONARY
360
231
102
}
102
{ACAD_REACTORS
330
1A7
102
}
330
1A7
100
AcDbVisualStyle
  2
Shaded with edges
 70
    26
 71
     2
 72
     2
 73
     1
 90
        2
 40
-0.6
 41
30.0
 62
     5
 63
     7
 74
     1
 91
       10
 64
     7
 65
   257
 75
     2
175
     1
 42
1.0
 92
        8
 66
   257
 43
1.0
 76
     1
 77
     6
 78
     2
 67
     7
 79
     3
170
     0
171
     0
290
     0
174
     0
 93
        5
 44
0.0
173
     0
291
     0
 45
0.0
1001
ACAD
1000
AcDbSavedByObjectVersion
1070
     0
  0
VISUALSTYLE
  5
1B8
102
{ACAD_XDICTIONARY
360
22B
102
}
102
{ACAD_REACTORS
330
1A7
102
}
330
1A7
100
AcDbVisualStyle
  2
Shades of Gray
 70
    23
 71
     2
 72
     2
 73
     3
 90
        0
 40
-0.6
 41
-30.0
 62
     5
 63
     7
 74
     2
 91
        2
 64
     7
 65
     7
 75
     1
175
     1
 42
40.0
 92
        8
 66
     7
 43
1.0
 76
     1
 77
     6
 78
     2
 67
     7
 79
     3
170
     0
171
     0
290
     0
174
     0
 93
        1
 44
0.0
173
     0
291
     0
 45
0.0
1001
ACAD
1000
AcDbSavedByObjectVersion
1070
     0
  0
VISUALSTYLE
  5
1B9
102
{ACAD_XDICTIONARY
360
22D
102
}
102
{ACAD_REACTORS
330
1A7
102
}
330
1A7
100
AcDbVisualStyle
  2
Sketchy
 70
    24
 71
     1
 72
     2
 73
     2
 90
        0
 40
-0.6
 41
-30.0
 62
     5
 63
     7
 74
     2
 91
        2
 64
     7
 65
     7
 75
     1
175
     1
 42
40.0
 92
       11
 66
     7
 43
1.0
 76
     1
 77
     6
 78
     2
 67
     7
 79
     6
170
     0
171
     0
290
     0
174
     0
 93
        1
 44
0.0
173
     0
291
     0
 45
0.0
1001
ACAD
1000
AcDbSavedByObjectVersion
1070
     0
  0
VISUALSTYLE
  5
1B4
102
{ACAD_XDICTIONARY
360
223
102
}
102
{ACAD_REACTORS
330
1A7
102
}
330
1A7
100
AcDbVisualStyle
  2
Thicken
 70
    13
 71
     2
 72
     2
 73
     0
 90
        0
 40
-0.6
 41
-30.0
 62
     5
 63
     7
 74
     1
 91
        4
 64
     7
 65
   257
 75
     1
175
     1
 42
1.0
 92
       12
 66
     7
 43
1.0
 76
     1
 77
     6
 78
     2
 67
     7
 79
     5
170
     0
171
     0
290
     0
174
     0
 93
        1
 44
0.0
173
     0
291
     1
 45
0.0
1001
ACAD
1000
AcDbSavedByObjectVersion
1070
     0
  0
VISUALSTYLE
  5
1AE
102
{ACAD_XDICTIONARY
360
217
102
}
102
{ACAD_REACTORS
330
1A7
102
}
330
1A7
100
AcDbVisualStyle
  2
Wireframe
 70
     5
 71
     0
 72
     2
 73
     0
 90
        0
 40
-0.6
 41
-30.0
 62
     5
 63
     7
 74
     1
 91
        4
 64
     7
 65
   257
 75
     1
175
     1
 42
1.0
 92
        0
 66
   257
 43
1.0
 76
     1
 77
     6
 78
     2
 67
     7
 79
     3
170
     0
171
     0
290
     0
174
     0
 93
        1
 44
0.0
173
     0
291
     0
 45
0.0
1001
ACAD
1000
AcDbSavedByObjectVersion
1070
     0
  0
VISUALSTYLE
  5
1BA
102
{ACAD_XDICTIONARY
360
22F
102
}
102
{ACAD_REACTORS
330
1A7
102
}
330
1A7
100
AcDbVisualStyle
  2
X-Ray
 70
    25
 71
     2
 72
     2
 73
     1
 90
        1
 40
0.5
 41
-30.0
 62
     5
 63
     7
 74
     1
 91
        0
 64
     7
 65
   257
 75
     1
175
     1
 42
1.0
 92
        8
 66
     7
 43
1.0
 76
     1
 77
     6
 78
     2
 67
     7
 79
     3
170
     0
171
     0
290
     0
174
     0
 93
       13
 44
0.0
173
     0
291
     0
 45
0.0
1001
ACAD
1000
AcDbSavedByObjectVersion
1070
     0
  0
DICTIONARYVAR
  5
1FD
102
{ACAD_REACTORS
330
1F8
102
}
330
1F8
100
DictionaryVariables
280
     0
  1
1:1
  0
DICTIONARYVAR
  5
1FA
102
{ACAD_REACTORS
330
1F8
102
}
330
1F8
100
DictionaryVariables
280
     0
  1
STANDARD
  0
DICTIONARYVAR
  5
1F9
102
{ACAD_REACTORS
330
1F8
102
}
330
1F8
100
DictionaryVariables
280
     0
  1
STANDARD
  0
DICTIONARYVAR
  5
1FB
102
{ACAD_REACTORS
330
1F8
102
}
330
1F8
100
DictionaryVariables
280
     0
  1
Imperial24
  0
DICTIONARYVAR
  5
1FC
102
{ACAD_REACTORS
330
1F8
102
}
330
1F8
100
DictionaryVariables
280
     0
  1
Imperial24
  0
DICTIONARYVAR
  5
200
102
{ACAD_REACTORS
330
1F8
102
}
330
1F8
100
DictionaryVariables
280
     0
  1
1
  0
DICTIONARYVAR
  5
1FF
102
{ACAD_REACTORS
330
1F8
102
}
330
1F8
100
DictionaryVariables
280
     0
  1
0
  0
DICTIONARYVAR
  5
1FE
102
{ACAD_REACTORS
330
1F8
102
}
330
1F8
100
DictionaryVariables
280
     0
  1
127
  0
DICTIONARYVAR
  5
201
102
{ACAD_REACTORS
330
1F8
102
}
330
1F8
100
DictionaryVariables
280
     0
  1
2
  0
DICTIONARY
  5
23F
330
1DF
100
AcDbDictionary
280
     1
281
     1
  3
ACAD_XREC_ROUNDTRIP
360
240
  0
DICTIONARY
  5
23D
330
1DE
100
AcDbDictionary
280
     1
281
     1
  3
ACAD_XREC_ROUNDTRIP
360
23E
  0
DICTIONARY
  5
198
330
197
100
AcDbDictionary
280
     1
281
     1
  3
ACAD_XREC_ROUNDTRIP
360
209
  3
BUMPTILE
360
19A
  3
DIFFUSETILE
360
199
  3
OPACITYTILE
360
19D
  3
REFLECTIONTILE
360
19C
  3
REFRACTIONTILE
360
19E
  3
SPECULARTILE
360
19B
  0
DICTIONARY
  5
190
330
18F
100
AcDbDictionary
280
     1
281
     1
  3
ACAD_XREC_ROUNDTRIP
360
208
  3
BUMPTILE
360
192
  3
DIFFUSETILE
360
191
  3
OPACITYTILE
360
195
  3
REFLECTIONTILE
360
194
  3
REFRACTIONTILE
360
196
  3
SPECULARTILE
360
193
  0
DICTIONARY
  5
1A0
330
19F
100
AcDbDictionary
280
     1
281
     1
  3
ACAD_XREC_ROUNDTRIP
360
20A
  3
BUMPTILE
360
1A2
  3
DIFFUSETILE
360
1A1
  3
OPACITYTILE
360
1A5
  3
REFLECTIONTILE
360
1A4
  3
REFRACTIONTILE
360
1A6
  3
SPECULARTILE
360
1A3
  0
DICTIONARY
  5
203
330
1C2
100
AcDbDictionary
280
     1
281
     1
  3
ACAD_ROUNDTRIP_2008_TABLESTYLE_CELLSTYLEMAP
360
204
  3
ACAD_XREC_ROUNDTRIP
360
23B
  0
DICTIONARY
  5
215
330
1AD
100
AcDbDictionary
280
     1
281
     1
  3
ACAD_XREC_ROUNDTRIP
360
216
  0
DICTIONARY
  5
213
330
1AC
100
AcDbDictionary
280
     1
281
     1
  3
ACAD_XREC_ROUNDTRIP
360
214
  0
DICTIONARY
  5
221
330
1B3
100
AcDbDictionary
280
     1
281
     1
  3
ACAD_XREC_ROUNDTRIP
360
222
  0
DICTIONARY
  5
229
330
1B7
100
AcDbDictionary
280
     1
281
     1
  3
ACAD_XREC_ROUNDTRIP
360
22A
  0
DICTIONARY
  5
21B
330
1B0
100
AcDbDictionary
280
     1
281
     1
  3
ACAD_XREC_ROUNDTRIP
360
21C
  0
DICTIONARY
  5
21F
330
1B2
100
AcDbDictionary
280
     1
281
     1
  3
ACAD_XREC_ROUNDTRIP
360
220
  0
DICTIONARY
  5
239
330
1BF
100
AcDbDictionary
280
     1
281
     1
  3
ACAD_XREC_ROUNDTRIP
360
23A
  0
DICTIONARY
  5
227
330
1B6
100
AcDbDictionary
280
     1
281
     1
  3
ACAD_XREC_ROUNDTRIP
360
228
  0
DICTIONARY
  5
20B
330
1A8
100
AcDbDictionary
280
     1
281
     1
  3
ACAD_XREC_ROUNDTRIP
360
20C
  0
DICTIONARY
  5
20D
330
1A9
100
AcDbDictionary
280
     1
281
     1
  3
ACAD_XREC_ROUNDTRIP
360
20E
  0
DICTIONARY
  5
20F
330
1AA
100
AcDbDictionary
280
     1
281
     1
  3
ACAD_XREC_ROUNDTRIP
360
210
  0
DICTIONARY
  5
211
330
1AB
100
AcDbDictionary
280
     1
281
     1
  3
ACAD_XREC_ROUNDTRIP
360
212
  0
DICTIONARY
  5
219
330
1AF
100
AcDbDictionary
280
     1
281
     1
  3
ACAD_XREC_ROUNDTRIP
360
21A
  0
DICTIONARY
  5
235
330
1BD
100
AcDbDictionary
280
     1
281
     1
  3
ACAD_XREC_ROUNDTRIP
360
236
  0
DICTIONARY
  5
225
330
1B5
100
AcDbDictionary
280
     1
281
     1
  3
ACAD_XREC_ROUNDTRIP
360
226
  0
DICTIONARY
  5
237
330
1BE
100
AcDbDictionary
280
     1
281
     1
  3
ACAD_XREC_ROUNDTRIP
360
238
  0
DICTIONARY
  5
21D
330
1B1
100
AcDbDictionary
280
     1
281
     1
  3
ACAD_XREC_ROUNDTRIP
360
21E
  0
DICTIONARY
  5
233
330
1BC
100
AcDbDictionary
280
     1
281
     1
  3
ACAD_XREC_ROUNDTRIP
360
234
  0
DICTIONARY
  5
231
330
1BB
100
AcDbDictionary
280
     1
281
     1
  3
ACAD_XREC_ROUNDTRIP
360
232
  0
DICTIONARY
  5
22B
330
1B8
100
AcDbDictionary
280
     1
281
     1
  3
ACAD_XREC_ROUNDTRIP
360
22C
  0
DICTIONARY
  5
22D
330
1B9
100
AcDbDictionary
280
     1
281
     1
  3
ACAD_XREC_ROUNDTRIP
360
22E
  0
DICTIONARY
  5
223
330
1B4
100
AcDbDictionary
280
     1
281
     1
  3
ACAD_XREC_ROUNDTRIP
360
224
  0
DICTIONARY
  5
217
330
1AE
100
AcDbDictionary
280
     1
281
     1
  3
ACAD_XREC_ROUNDTRIP
360
218
  0
DICTIONARY
  5
22F
330
1BA
100
AcDbDictionary
280
     1
281
     1
  3
ACAD_XREC_ROUNDTRIP
360
230
  0
XRECORD
  5
240
102
{ACAD_REACTORS
330
23F
102
}
330
23F
100
AcDbXrecord
280
     1
102
SHADEPLOT
 70
     0
102
SHADEPLOTRESLEVEL
 70
     2
102
SHADEPLOTCUSTOMDPI
 70
   300
  0
XRECORD
  5
23E
102
{ACAD_REACTORS
330
23D
102
}
330
23D
100
AcDbXrecord
280
     1
102
SHADEPLOT
 70
     0
102
SHADEPLOTRESLEVEL
 70
     2
102
SHADEPLOTCUSTOMDPI
 70
   300
  0
XRECORD
  5
209
102
{ACAD_REACTORS
330
198
102
}
330
198
100
AcDbXrecord
280
     1
102
MATERIAL
148
0.0
149
0.0
149
0.0
 93
        0
 94
      127
282
     0
 72
     0
 77
     0
171
     0
175
     0
179
     0
273
     0
  0
XRECORD
  5
19A
102
{ACAD_REACTORS
330
198
102
}
330
198
100
AcDbXrecord
280
     1
270
     1
271
     1
  0
XRECORD
  5
199
102
{ACAD_REACTORS
330
198
102
}
330
198
100
AcDbXrecord
280
     1
270
     1
271
     1
  0
XRECORD
  5
19D
102
{ACAD_REACTORS
330
198
102
}
330
198
100
AcDbXrecord
280
     1
270
     1
271
     1
  0
XRECORD
  5
19C
102
{ACAD_REACTORS
330
198
102
}
330
198
100
AcDbXrecord
280
     1
270
     1
271
     1
  0
XRECORD
  5
19E
102
{ACAD_REACTORS
330
198
102
}
330
198
100
AcDbXrecord
280
     1
270
     1
271
     1
  0
XRECORD
  5
19B
102
{ACAD_REACTORS
330
198
102
}
330
198
100
AcDbXrecord
280
     1
270
     1
271
     1
  0
XRECORD
  5
208
102
{ACAD_REACTORS
330
190
102
}
330
190
100
AcDbXrecord
280
     1
102
MATERIAL
148
0.0
149
0.0
149
0.0
 93
        0
 94
      127
282
     0
 72
     0
 77
     0
171
     0
175
     0
179
     0
273
     0
  0
XRECORD
  5
192
102
{ACAD_REACTORS
330
190
102
}
330
190
100
AcDbXrecord
280
     1
270
     1
271
     1
  0
XRECORD
  5
191
102
{ACAD_REACTORS
330
190
102
}
330
190
100
AcDbXrecord
280
     1
270
     1
271
     1
  0
XRECORD
  5
195
102
{ACAD_REACTORS
330
190
102
}
330
190
100
AcDbXrecord
280
     1
270
     1
271
     1
  0
XRECORD
  5
194
102
{ACAD_REACTORS
330
190
102
}
330
190
100
AcDbXrecord
280
     1
270
     1
271
     1
  0
XRECORD
  5
196
102
{ACAD_REACTORS
330
190
102
}
330
190
100
AcDbXrecord
280
     1
270
     1
271
     1
  0
XRECORD
  5
193
102
{ACAD_REACTORS
330
190
102
}
330
190
100
AcDbXrecord
280
     1
270
     1
271
     1
  0
XRECORD
  5
20A
102
{ACAD_REACTORS
330
1A0
102
}
330
1A0
100
AcDbXrecord
280
     1
102
MATERIAL
148
0.0
149
0.0
149
0.0
 93
        0
 94
      127
282
     0
 72
     0
 77
     0
171
     0
175
     0
179
     0
273
     0
  0
XRECORD
  5
1A2
102
{ACAD_REACTORS
330
1A0
102
}
330
1A0
100
AcDbXrecord
280
     1
270
     1
271
     1
  0
XRECORD
  5
1A1
102
{ACAD_REACTORS
330
1A0
102
}
330
1A0
100
AcDbXrecord
280
     1
270
     1
271
     1
  0
XRECORD
  5
1A5
102
{ACAD_REACTORS
330
1A0
102
}
330
1A0
100
AcDbXrecord
280
     1
270
     1
271
     1
  0
XRECORD
  5
1A4
102
{ACAD_REACTORS
330
1A0
102
}
330
1A0
100
AcDbXrecord
280
     1
270
     1
271
     1
  0
XRECORD
  5
1A6
102
{ACAD_REACTORS
330
1A0
102
}
330
1A0
100
AcDbXrecord
280
     1
270
     1
271
     1
  0
XRECORD
  5
1A3
102
{ACAD_REACTORS
330
1A0
102
}
330
1A0
100
AcDbXrecord
280
     1
270
     1
271
     1
  0
CELLSTYLEMAP
  5
204
102
{ACAD_REACTORS
330
203
102
}
330
203
100
AcDbCellStyleMap
 90
        3
300
CELLSTYLE
  1
TABLEFORMAT_BEGIN
 90
        5
170
     1
 91
        0
 92
    32768
 62
   257
 93
        1
300
CONTENTFORMAT
  1
CONTENTFORMAT_BEGIN
 90
        0
 91
        0
 92
      512
 93
        0
300

 40
0.0
140
1.0
 94
        5
 62
     0
340
11
144
0.25
309
CONTENTFORMAT_END
171
     0
 94
        0
309
TABLEFORMAT_END
  1
CELLSTYLE_BEGIN
 90
        1
 91
        1
300
_TITLE
309
CELLSTYLE_END
300
CELLSTYLE
  1
TABLEFORMAT_BEGIN
 90
        5
170
     1
 91
        0
 92
        0
 62
   257
 93
        1
300
CONTENTFORMAT
  1
CONTENTFORMAT_BEGIN
 90
        0
 91
        0
 92
      512
 93
        0
300

 40
0.0
140
1.0
 94
        5
 62
     0
340
11
144
0.18
309
CONTENTFORMAT_END
171
     0
 94
        0
309
TABLEFORMAT_END
  1
CELLSTYLE_BEGIN
 90
        2
 91
        1
300
_HEADER
309
CELLSTYLE_END
300
CELLSTYLE
  1
TABLEFORMAT_BEGIN
 90
        5
170
     1
 91
        0
 92
        0
 62
   257
 93
        1
300
CONTENTFORMAT
  1
CONTENTFORMAT_BEGIN
 90
        0
 91
        0
 92
      512
 93
        0
300

 40
0.0
140
1.0
 94
        2
 62
     0
340
11
144
0.18
309
CONTENTFORMAT_END
171
     0
 94
        0
309
TABLEFORMAT_END
  1
CELLSTYLE_BEGIN
 90
        3
 91
        2
300
_DATA
309
CELLSTYLE_END
  0
XRECORD
  5
23B
102
{ACAD_REACTORS
330
203
102
}
330
203
100
AcDbXrecord
280
     1
102
ACAD_ROUNDTRIP_PRE2007_TABLESTYLE
 90
      512
 91
        0
  1

 92
      512
 93
        0
  2

 94
      512
 95
        0
  3

  0
XRECORD
  5
216
102
{ACAD_REACTORS
330
215
102
}
330
215
100
AcDbXrecord
280
     1
102
RTVSPost2010Prop28
280
     1
102
RTVSPost2010PropOp28
 70
     1
102
RTVSPost2010Prop29
280
     1
102
RTVSPost2010PropOp29
 70
     1
102
RTVSPost2010Prop30
280
     0
102
RTVSPost2010PropOp30
 70
     1
102
RTVSPost2010Prop31
280
     0
102
RTVSPost2010PropOp31
 70
     1
102
RTVSPost2010Prop32
280
     0
102
RTVSPost2010PropOp32
 70
     1
102
RTVSPost2010Prop33
280
     0
102
RTVSPost2010PropOp33
 70
     1
102
RTVSPost2010Prop34
280
     0
102
RTVSPost2010PropOp34
 70
     1
102
RTVSPost2010Prop35
280
     0
102
RTVSPost2010PropOp35
 70
     1
102
RTVSPost2010Prop36
280
     0
102
RTVSPost2010PropOp36
 70
     1
102
RTVSPost2010Prop37
 90
       50
102
RTVSPost2010PropOp37
 70
     1
102
RTVSPost2010Prop38
140
0.0
102
RTVSPost2010PropOp38
 70
     1
102
RTVSPost2010Prop39
140
1.0
102
RTVSPost2010PropOp39
 70
     1
102
RTVSPost2010Prop40
 90
        0
102
RTVSPost2010PropOp40
 70
     1
102
RTVSPost2010Prop41ColorIndex
 90
       18
102
RTVSPost2010Prop41ColorRGB
 90
        0
102
RTVSPost2010PropOp41
 70
     1
102
RTVSPost2010Prop42
 90
       50
102
RTVSPost2010PropOp42
 70
     1
102
RTVSPost2010Prop43
 90
        3
102
RTVSPost2010PropOp43
 70
     1
102
RTVSPost2010Prop44ColorIndex
 90
        5
102
RTVSPost2010Prop44ColorRGB
 90
      255
102
RTVSPost2010PropOp44
 70
     1
102
RTVSPost2010Prop45
280
     0
102
RTVSPost2010PropOp45
 70
     1
102
RTVSPost2010Prop46
 90
       50
102
RTVSPost2010PropOp46
 70
     1
102
RTVSPost2010Prop47
 90
       50
102
RTVSPost2010PropOp47
 70
     1
102
RTVSPost2010Prop48
 90
       50
102
RTVSPost2010PropOp48
 70
     1
102
RTVSPost2010Prop49
280
     0
102
RTVSPost2010PropOp49
 70
     1
102
RTVSPost2010Prop50
 90
       50
102
RTVSPost2010PropOp50
 70
     1
102
RTVSPost2010Prop51ColorIndex
 90
      256
102
RTVSPost2010Prop51ColorRGB
 90
-16777216
102
RTVSPost2010PropOp51
 70
     0
102
RTVSPost2010Prop52
140
1.0
102
RTVSPost2010PropOp52
 70
     0
102
RTVSPost2010Prop53
 90
        2
102
RTVSPost2010PropOp53
 70
     1
102
RTVSPost2010Prop54
  1
strokes_ogs.tif
102
RTVSPost2010PropOp54
 70
     1
102
RTVSPost2010Prop55
280
     0
102
RTVSPost2010PropOp55
 70
     1
102
RTVSPost2010Prop56
140
1.0
102
RTVSPost2010PropOp56
 70
     1
102
RTVSPost2010Prop57
140
1.0
102
RTVSPost2010PropOp57
 70
     1
102
RTVSPropertyOp0
 70
     1
102
RTVSPropertyOp1
 70
     1
102
RTVSPropertyOp2
 70
     1
102
RTVSPropertyOp3
 70
     1
102
RTVSPropertyOp4
 70
     1
102
RTVSPropertyOp5
 70
     1
102
RTVSPropertyOp6
 70
     1
102
RTVSPropertyOp7
 70
     1
102
RTVSPropertyOp8
 70
     1
102
RTVSPropertyOp9
 70
     1
102
RTVSPropertyOp10
 70
     1
102
RTVSPropertyOp11
 70
     1
102
RTVSPropertyOp12
 70
     1
102
RTVSPropertyOp13
 70
     1
102
RTVSPropertyOp14
 70
     1
102
RTVSPropertyOp15
 70
     1
102
RTVSPropertyOp16
 70
     1
102
RTVSPropertyOp17
 70
     1
102
RTVSPropertyOp18
 70
     1
102
RTVSPropertyOp19
 70
     1
102
RTVSPropertyOp20
 70
     1
102
RTVSPropertyOp21
 70
     1
102
RTVSPropertyOp22
 70
     1
102
RTVSPropertyOp23
 70
     1
102
RTVSPropertyOp24
 70
     1
102
RTVSPropertyOp25
 70
     1
102
RTVSPropertyOp26
 70
     1
102
RTVSPropertyOp27
 70
     1
102
RTVSPropertyOp28
 70
     1
102
RTVSPropertyOp29
 70
     1
102
RTVSPropertyOp30
 70
     1
102
RTVSPropertyOp31
 70
     1
102
RTVSPropertyOp32
 70
     1
102
RTVSPropertyOp33
 70
     1
102
RTVSPropertyOp34
 70
     1
102
RTVSPropertyOp35
 70
     1
102
RTVSPropertyOp36
 70
     1
102
RTVSPropertyOp37
 70
     1
102
RTVSPropertyOp38
 70
     1
102
RTVSPropertyOp39
 70
     1
102
RTVSPropertyOp40
 70
     1
102
RTVSPropertyOp41
 70
     1
102
RTVSPropertyOp42
 70
     1
102
RTVSPropertyOp43
 70
     1
102
RTVSPropertyOp44
 70
     1
102
RTVSPropertyOp45
 70
     1
102
RTVSPropertyOp46
 70
     1
102
RTVSPropertyOp47
 70
     1
102
RTVSPropertyOp48
 70
     1
102
RTVSPropertyOp49
 70
     1
102
RTVSPropertyOp50
 70
     1
102
RTVSPropertyOp51
 70
     0
102
RTVSPropertyOp52
 70
     0
102
RTVSPropertyOp53
 70
     1
102
RTVSPropertyOp54
 70
     1
102
RTVSPropertyOp55
 70
     1
102
RTVSPropertyOp56
 70
     1
102
RTVSPropertyOp57
 70
     1
102
RTVSPropertyOp58
 70
     1
102
RTVSPropertyOp59
 70
     1
102
RTVSPropertyOp60
 70
     1
102
RTVSPropertyOp61
 70
     1
102
RTVSPropertyOp62
 70
     1
  0
XRECORD
  5
214
102
{ACAD_REACTORS
330
213
102
}
330
213
100
AcDbXrecord
280
     1
102
RTVSPost2010Prop28
280
     0
102
RTVSPost2010PropOp28
 70
     1
102
RTVSPost2010Prop29
280
     1
102
RTVSPost2010PropOp29
 70
     1
102
RTVSPost2010Prop30
280
     1
102
RTVSPost2010PropOp30
 70
     1
102
RTVSPost2010Prop31
280
     0
102
RTVSPost2010PropOp31
 70
     1
102
RTVSPost2010Prop32
280
     0
102
RTVSPost2010PropOp32
 70
     1
102
RTVSPost2010Prop33
280
     0
102
RTVSPost2010PropOp33
 70
     1
102
RTVSPost2010Prop34
280
     0
102
RTVSPost2010PropOp34
 70
     1
102
RTVSPost2010Prop35
280
     0
102
RTVSPost2010PropOp35
 70
     1
102
RTVSPost2010Prop36
280
     0
102
RTVSPost2010PropOp36
 70
     1
102
RTVSPost2010Prop37
 90
       50
102
RTVSPost2010PropOp37
 70
     1
102
RTVSPost2010Prop38
140
0.0
102
RTVSPost2010PropOp38
 70
     1
102
RTVSPost2010Prop39
140
1.0
102
RTVSPost2010PropOp39
 70
     1
102
RTVSPost2010Prop40
 90
        0
102
RTVSPost2010PropOp40
 70
     1
102
RTVSPost2010Prop41ColorIndex
 90
       18
102
RTVSPost2010Prop41ColorRGB
 90
        0
102
RTVSPost2010PropOp41
 70
     1
102
RTVSPost2010Prop42
 90
       50
102
RTVSPost2010PropOp42
 70
     1
102
RTVSPost2010Prop43
 90
        3
102
RTVSPost2010PropOp43
 70
     1
102
RTVSPost2010Prop44ColorIndex
 90
        5
102
RTVSPost2010Prop44ColorRGB
 90
      255
102
RTVSPost2010PropOp44
 70
     1
102
RTVSPost2010Prop45
280
     0
102
RTVSPost2010PropOp45
 70
     1
102
RTVSPost2010Prop46
 90
       50
102
RTVSPost2010PropOp46
 70
     1
102
RTVSPost2010Prop47
 90
       50
102
RTVSPost2010PropOp47
 70
     1
102
RTVSPost2010Prop48
 90
       50
102
RTVSPost2010PropOp48
 70
     1
102
RTVSPost2010Prop49
280
     0
102
RTVSPost2010PropOp49
 70
     1
102
RTVSPost2010Prop50
 90
       50
102
RTVSPost2010PropOp50
 70
     1
102
RTVSPost2010Prop51ColorIndex
 90
      256
102
RTVSPost2010Prop51ColorRGB
 90
-16777216
102
RTVSPost2010PropOp51
 70
     0
102
RTVSPost2010Prop52
140
1.0
102
RTVSPost2010PropOp52
 70
     0
102
RTVSPost2010Prop53
 90
        2
102
RTVSPost2010PropOp53
 70
     1
102
RTVSPost2010Prop54
  1
strokes_ogs.tif
102
RTVSPost2010PropOp54
 70
     1
102
RTVSPost2010Prop55
280
     0
102
RTVSPost2010PropOp55
 70
     1
102
RTVSPost2010Prop56
140
1.0
102
RTVSPost2010PropOp56
 70
     1
102
RTVSPost2010Prop57
140
1.0
102
RTVSPost2010PropOp57
 70
     1
102
RTVSPropertyOp0
 70
     1
102
RTVSPropertyOp1
 70
     1
102
RTVSPropertyOp2
 70
     1
102
RTVSPropertyOp3
 70
     1
102
RTVSPropertyOp4
 70
     1
102
RTVSPropertyOp5
 70
     1
102
RTVSPropertyOp6
 70
     1
102
RTVSPropertyOp7
 70
     1
102
RTVSPropertyOp8
 70
     1
102
RTVSPropertyOp9
 70
     1
102
RTVSPropertyOp10
 70
     1
102
RTVSPropertyOp11
 70
     1
102
RTVSPropertyOp12
 70
     1
102
RTVSPropertyOp13
 70
     1
102
RTVSPropertyOp14
 70
     1
102
RTVSPropertyOp15
 70
     1
102
RTVSPropertyOp16
 70
     1
102
RTVSPropertyOp17
 70
     1
102
RTVSPropertyOp18
 70
     1
102
RTVSPropertyOp19
 70
     1
102
RTVSPropertyOp20
 70
     1
102
RTVSPropertyOp21
 70
     1
102
RTVSPropertyOp22
 70
     1
102
RTVSPropertyOp23
 70
     1
102
RTVSPropertyOp24
 70
     1
102
RTVSPropertyOp25
 70
     1
102
RTVSPropertyOp26
 70
     1
102
RTVSPropertyOp27
 70
     1
102
RTVSPropertyOp28
 70
     1
102
RTVSPropertyOp29
 70
     1
102
RTVSPropertyOp30
 70
     1
102
RTVSPropertyOp31
 70
     1
102
RTVSPropertyOp32
 70
     1
102
RTVSPropertyOp33
 70
     1
102
RTVSPropertyOp34
 70
     1
102
RTVSPropertyOp35
 70
     1
102
RTVSPropertyOp36
 70
     1
102
RTVSPropertyOp37
 70
     1
102
RTVSPropertyOp38
 70
     1
102
RTVSPropertyOp39
 70
     1
102
RTVSPropertyOp40
 70
     1
102
RTVSPropertyOp41
 70
     1
102
RTVSPropertyOp42
 70
     1
102
RTVSPropertyOp43
 70
     1
102
RTVSPropertyOp44
 70
     1
102
RTVSPropertyOp45
 70
     1
102
RTVSPropertyOp46
 70
     1
102
RTVSPropertyOp47
 70
     1
102
RTVSPropertyOp48
 70
     1
102
RTVSPropertyOp49
 70
     1
102
RTVSPropertyOp50
 70
     1
102
RTVSPropertyOp51
 70
     0
102
RTVSPropertyOp52
 70
     0
102
RTVSPropertyOp53
 70
     1
102
RTVSPropertyOp54
 70
     1
102
RTVSPropertyOp55
 70
     1
102
RTVSPropertyOp56
 70
     1
102
RTVSPropertyOp57
 70
     1
102
RTVSPropertyOp58
 70
     1
102
RTVSPropertyOp59
 70
     1
102
RTVSPropertyOp60
 70
     1
102
RTVSPropertyOp61
 70
     1
102
RTVSPropertyOp62
 70
     1
  0
XRECORD
  5
222
102
{ACAD_REACTORS
330
221
102
}
330
221
100
AcDbXrecord
280
     1
102
RTVSPost2010Prop28
280
     0
102
RTVSPost2010PropOp28
 70
     1
102
RTVSPost2010Prop29
280
     1
102
RTVSPost2010PropOp29
 70
     1
102
RTVSPost2010Prop30
280
     1
102
RTVSPost2010PropOp30
 70
     1
102
RTVSPost2010Prop31
280
     0
102
RTVSPost2010PropOp31
 70
     1
102
RTVSPost2010Prop32
280
     0
102
RTVSPost2010PropOp32
 70
     1
102
RTVSPost2010Prop33
280
     0
102
RTVSPost2010PropOp33
 70
     1
102
RTVSPost2010Prop34
280
     0
102
RTVSPost2010PropOp34
 70
     1
102
RTVSPost2010Prop35
280
     0
102
RTVSPost2010PropOp35
 70
     1
102
RTVSPost2010Prop36
280
     0
102
RTVSPost2010PropOp36
 70
     1
102
RTVSPost2010Prop37
 90
       50
102
RTVSPost2010PropOp37
 70
     1
102
RTVSPost2010Prop38
140
0.0
102
RTVSPost2010PropOp38
 70
     1
102
RTVSPost2010Prop39
140
1.0
102
RTVSPost2010PropOp39
 70
     1
102
RTVSPost2010Prop40
 90
        0
102
RTVSPost2010PropOp40
 70
     1
102
RTVSPost2010Prop41ColorIndex
 90
       18
102
RTVSPost2010Prop41ColorRGB
 90
        0
102
RTVSPost2010PropOp41
 70
     1
102
RTVSPost2010Prop42
 90
       50
102
RTVSPost2010PropOp42
 70
     1
102
RTVSPost2010Prop43
 90
        3
102
RTVSPost2010PropOp43
 70
     1
102
RTVSPost2010Prop44ColorIndex
 90
        5
102
RTVSPost2010Prop44ColorRGB
 90
      255
102
RTVSPost2010PropOp44
 70
     1
102
RTVSPost2010Prop45
280
     0
102
RTVSPost2010PropOp45
 70
     1
102
RTVSPost2010Prop46
 90
       50
102
RTVSPost2010PropOp46
 70
     1
102
RTVSPost2010Prop47
 90
       50
102
RTVSPost2010PropOp47
 70
     1
102
RTVSPost2010Prop48
 90
       50
102
RTVSPost2010PropOp48
 70
     1
102
RTVSPost2010Prop49
280
     0
102
RTVSPost2010PropOp49
 70
     1
102
RTVSPost2010Prop50
 90
       50
102
RTVSPost2010PropOp50
 70
     1
102
RTVSPost2010Prop51ColorIndex
 90
      256
102
RTVSPost2010Prop51ColorRGB
 90
-16777216
102
RTVSPost2010PropOp51
 70
     0
102
RTVSPost2010Prop52
140
1.0
102
RTVSPost2010PropOp52
 70
     0
102
RTVSPost2010Prop53
 90
        2
102
RTVSPost2010PropOp53
 70
     1
102
RTVSPost2010Prop54
  1
strokes_ogs.tif
102
RTVSPost2010PropOp54
 70
     1
102
RTVSPost2010Prop55
280
     0
102
RTVSPost2010PropOp55
 70
     1
102
RTVSPost2010Prop56
140
1.0
102
RTVSPost2010PropOp56
 70
     1
102
RTVSPost2010Prop57
140
1.0
102
RTVSPost2010PropOp57
 70
     1
102
RTVSPropertyOp0
 70
     1
102
RTVSPropertyOp1
 70
     1
102
RTVSPropertyOp2
 70
     1
102
RTVSPropertyOp3
 70
     1
102
RTVSPropertyOp4
 70
     1
102
RTVSPropertyOp5
 70
     1
102
RTVSPropertyOp6
 70
     1
102
RTVSPropertyOp7
 70
     1
102
RTVSPropertyOp8
 70
     1
102
RTVSPropertyOp9
 70
     1
102
RTVSPropertyOp10
 70
     1
102
RTVSPropertyOp11
 70
     1
102
RTVSPropertyOp12
 70
     1
102
RTVSPropertyOp13
 70
     1
102
RTVSPropertyOp14
 70
     1
102
RTVSPropertyOp15
 70
     1
102
RTVSPropertyOp16
 70
     1
102
RTVSPropertyOp17
 70
     1
102
RTVSPropertyOp18
 70
     1
102
RTVSPropertyOp19
 70
     1
102
RTVSPropertyOp20
 70
     1
102
RTVSPropertyOp21
 70
     1
102
RTVSPropertyOp22
 70
     1
102
RTVSPropertyOp23
 70
     1
102
RTVSPropertyOp24
 70
     1
102
RTVSPropertyOp25
 70
     1
102
RTVSPropertyOp26
 70
     1
102
RTVSPropertyOp27
 70
     1
102
RTVSPropertyOp28
 70
     1
102
RTVSPropertyOp29
 70
     1
102
RTVSPropertyOp30
 70
     1
102
RTVSPropertyOp31
 70
     1
102
RTVSPropertyOp32
 70
     1
102
RTVSPropertyOp33
 70
     1
102
RTVSPropertyOp34
 70
     1
102
RTVSPropertyOp35
 70
     1
102
RTVSPropertyOp36
 70
     1
102
RTVSPropertyOp37
 70
     1
102
RTVSPropertyOp38
 70
     1
102
RTVSPropertyOp39
 70
     1
102
RTVSPropertyOp40
 70
     1
102
RTVSPropertyOp41
 70
     1
102
RTVSPropertyOp42
 70
     1
102
RTVSPropertyOp43
 70
     1
102
RTVSPropertyOp44
 70
     1
102
RTVSPropertyOp45
 70
     1
102
RTVSPropertyOp46
 70
     1
102
RTVSPropertyOp47
 70
     1
102
RTVSPropertyOp48
 70
     1
102
RTVSPropertyOp49
 70
     1
102
RTVSPropertyOp50
 70
     1
102
RTVSPropertyOp51
 70
     0
102
RTVSPropertyOp52
 70
     0
102
RTVSPropertyOp53
 70
     1
102
RTVSPropertyOp54
 70
     1
102
RTVSPropertyOp55
 70
     1
102
RTVSPropertyOp56
 70
     1
102
RTVSPropertyOp57
 70
     1
102
RTVSPropertyOp58
 70
     1
102
RTVSPropertyOp59
 70
     1
102
RTVSPropertyOp60
 70
     1
102
RTVSPropertyOp61
 70
     1
102
RTVSPropertyOp62
 70
     1
  0
XRECORD
  5
22A
102
{ACAD_REACTORS
330
229
102
}
330
229
100
AcDbXrecord
280
     1
102
RTVSPost2010Prop28
280
     0
102
RTVSPost2010PropOp28
 70
     1
102
RTVSPost2010Prop29
280
     1
102
RTVSPost2010PropOp29
 70
     1
102
RTVSPost2010Prop30
280
     1
102
RTVSPost2010PropOp30
 70
     1
102
RTVSPost2010Prop31
280
     0
102
RTVSPost2010PropOp31
 70
     1
102
RTVSPost2010Prop32
280
     0
102
RTVSPost2010PropOp32
 70
     1
102
RTVSPost2010Prop33
280
     0
102
RTVSPost2010PropOp33
 70
     1
102
RTVSPost2010Prop34
280
     0
102
RTVSPost2010PropOp34
 70
     1
102
RTVSPost2010Prop35
280
     0
102
RTVSPost2010PropOp35
 70
     1
102
RTVSPost2010Prop36
280
     0
102
RTVSPost2010PropOp36
 70
     1
102
RTVSPost2010Prop37
 90
       50
102
RTVSPost2010PropOp37
 70
     1
102
RTVSPost2010Prop38
140
0.0
102
RTVSPost2010PropOp38
 70
     1
102
RTVSPost2010Prop39
140
1.0
102
RTVSPost2010PropOp39
 70
     1
102
RTVSPost2010Prop40
 90
        0
102
RTVSPost2010PropOp40
 70
     1
102
RTVSPost2010Prop41ColorIndex
 90
       18
102
RTVSPost2010Prop41ColorRGB
 90
        0
102
RTVSPost2010PropOp41
 70
     1
102
RTVSPost2010Prop42
 90
       50
102
RTVSPost2010PropOp42
 70
     1
102
RTVSPost2010Prop43
 90
        3
102
RTVSPost2010PropOp43
 70
     1
102
RTVSPost2010Prop44ColorIndex
 90
        5
102
RTVSPost2010Prop44ColorRGB
 90
      255
102
RTVSPost2010PropOp44
 70
     1
102
RTVSPost2010Prop45
280
     0
102
RTVSPost2010PropOp45
 70
     1
102
RTVSPost2010Prop46
 90
       50
102
RTVSPost2010PropOp46
 70
     1
102
RTVSPost2010Prop47
 90
       50
102
RTVSPost2010PropOp47
 70
     1
102
RTVSPost2010Prop48
 90
       50
102
RTVSPost2010PropOp48
 70
     1
102
RTVSPost2010Prop49
280
     0
102
RTVSPost2010PropOp49
 70
     1
102
RTVSPost2010Prop50
 90
       50
102
RTVSPost2010PropOp50
 70
     1
102
RTVSPost2010Prop51ColorIndex
 90
      256
102
RTVSPost2010Prop51ColorRGB
 90
-16777216
102
RTVSPost2010PropOp51
 70
     0
102
RTVSPost2010Prop52
140
1.0
102
RTVSPost2010PropOp52
 70
     0
102
RTVSPost2010Prop53
 90
        2
102
RTVSPost2010PropOp53
 70
     1
102
RTVSPost2010Prop54
  1
strokes_ogs.tif
102
RTVSPost2010PropOp54
 70
     1
102
RTVSPost2010Prop55
280
     0
102
RTVSPost2010PropOp55
 70
     1
102
RTVSPost2010Prop56
140
1.0
102
RTVSPost2010PropOp56
 70
     1
102
RTVSPost2010Prop57
140
1.0
102
RTVSPost2010PropOp57
 70
     1
102
RTVSPropertyOp0
 70
     1
102
RTVSPropertyOp1
 70
     1
102
RTVSPropertyOp2
 70
     1
102
RTVSPropertyOp3
 70
     1
102
RTVSPropertyOp4
 70
     1
102
RTVSPropertyOp5
 70
     1
102
RTVSPropertyOp6
 70
     1
102
RTVSPropertyOp7
 70
     1
102
RTVSPropertyOp8
 70
     1
102
RTVSPropertyOp9
 70
     1
102
RTVSPropertyOp10
 70
     1
102
RTVSPropertyOp11
 70
     1
102
RTVSPropertyOp12
 70
     1
102
RTVSPropertyOp13
 70
     1
102
RTVSPropertyOp14
 70
     1
102
RTVSPropertyOp15
 70
     1
102
RTVSPropertyOp16
 70
     1
102
RTVSPropertyOp17
 70
     1
102
RTVSPropertyOp18
 70
     1
102
RTVSPropertyOp19
 70
     1
102
RTVSPropertyOp20
 70
     1
102
RTVSPropertyOp21
 70
     1
102
RTVSPropertyOp22
 70
     1
102
RTVSPropertyOp23
 70
     1
102
RTVSPropertyOp24
 70
     1
102
RTVSPropertyOp25
 70
     1
102
RTVSPropertyOp26
 70
     1
102
RTVSPropertyOp27
 70
     1
102
RTVSPropertyOp28
 70
     1
102
RTVSPropertyOp29
 70
     1
102
RTVSPropertyOp30
 70
     1
102
RTVSPropertyOp31
 70
     1
102
RTVSPropertyOp32
 70
     1
102
RTVSPropertyOp33
 70
     1
102
RTVSPropertyOp34
 70
     1
102
RTVSPropertyOp35
 70
     1
102
RTVSPropertyOp36
 70
     1
102
RTVSPropertyOp37
 70
     1
102
RTVSPropertyOp38
 70
     1
102
RTVSPropertyOp39
 70
     1
102
RTVSPropertyOp40
 70
     1
102
RTVSPropertyOp41
 70
     1
102
RTVSPropertyOp42
 70
     1
102
RTVSPropertyOp43
 70
     1
102
RTVSPropertyOp44
 70
     1
102
RTVSPropertyOp45
 70
     1
102
RTVSPropertyOp46
 70
     1
102
RTVSPropertyOp47
 70
     1
102
RTVSPropertyOp48
 70
     1
102
RTVSPropertyOp49
 70
     1
102
RTVSPropertyOp50
 70
     1
102
RTVSPropertyOp51
 70
     0
102
RTVSPropertyOp52
 70
     0
102
RTVSPropertyOp53
 70
     1
102
RTVSPropertyOp54
 70
     1
102
RTVSPropertyOp55
 70
     1
102
RTVSPropertyOp56
 70
     1
102
RTVSPropertyOp57
 70
     1
102
RTVSPropertyOp58
 70
     1
102
RTVSPropertyOp59
 70
     1
102
RTVSPropertyOp60
 70
     1
102
RTVSPropertyOp61
 70
     1
102
RTVSPropertyOp62
 70
     1
  0
XRECORD
  5
21C
102
{ACAD_REACTORS
330
21B
102
}
330
21B
100
AcDbXrecord
280
     1
102
RTVSPost2010Prop28
280
     0
102
RTVSPost2010PropOp28
 70
     1
102
RTVSPost2010Prop29
280
     1
102
RTVSPost2010PropOp29
 70
     1
102
RTVSPost2010Prop30
280
     1
102
RTVSPost2010PropOp30
 70
     1
102
RTVSPost2010Prop31
280
     0
102
RTVSPost2010PropOp31
 70
     1
102
RTVSPost2010Prop32
280
     0
102
RTVSPost2010PropOp32
 70
     1
102
RTVSPost2010Prop33
280
     0
102
RTVSPost2010PropOp33
 70
     1
102
RTVSPost2010Prop34
280
     0
102
RTVSPost2010PropOp34
 70
     1
102
RTVSPost2010Prop35
280
     0
102
RTVSPost2010PropOp35
 70
     1
102
RTVSPost2010Prop36
280
     0
102
RTVSPost2010PropOp36
 70
     1
102
RTVSPost2010Prop37
 90
       50
102
RTVSPost2010PropOp37
 70
     1
102
RTVSPost2010Prop38
140
0.0
102
RTVSPost2010PropOp38
 70
     1
102
RTVSPost2010Prop39
140
1.0
102
RTVSPost2010PropOp39
 70
     1
102
RTVSPost2010Prop40
 90
        0
102
RTVSPost2010PropOp40
 70
     1
102
RTVSPost2010Prop41ColorIndex
 90
       18
102
RTVSPost2010Prop41ColorRGB
 90
        0
102
RTVSPost2010PropOp41
 70
     1
102
RTVSPost2010Prop42
 90
       50
102
RTVSPost2010PropOp42
 70
     1
102
RTVSPost2010Prop43
 90
        3
102
RTVSPost2010PropOp43
 70
     1
102
RTVSPost2010Prop44ColorIndex
 90
        5
102
RTVSPost2010Prop44ColorRGB
 90
      255
102
RTVSPost2010PropOp44
 70
     1
102
RTVSPost2010Prop45
280
     0
102
RTVSPost2010PropOp45
 70
     1
102
RTVSPost2010Prop46
 90
       50
102
RTVSPost2010PropOp46
 70
     1
102
RTVSPost2010Prop47
 90
       50
102
RTVSPost2010PropOp47
 70
     1
102
RTVSPost2010Prop48
 90
       50
102
RTVSPost2010PropOp48
 70
     1
102
RTVSPost2010Prop49
280
     0
102
RTVSPost2010PropOp49
 70
     1
102
RTVSPost2010Prop50
 90
       50
102
RTVSPost2010PropOp50
 70
     1
102
RTVSPost2010Prop51ColorIndex
 90
      256
102
RTVSPost2010Prop51ColorRGB
 90
-16777216
102
RTVSPost2010PropOp51
 70
     0
102
RTVSPost2010Prop52
140
1.0
102
RTVSPost2010PropOp52
 70
     0
102
RTVSPost2010Prop53
 90
        2
102
RTVSPost2010PropOp53
 70
     1
102
RTVSPost2010Prop54
  1
strokes_ogs.tif
102
RTVSPost2010PropOp54
 70
     1
102
RTVSPost2010Prop55
280
     0
102
RTVSPost2010PropOp55
 70
     1
102
RTVSPost2010Prop56
140
1.0
102
RTVSPost2010PropOp56
 70
     1
102
RTVSPost2010Prop57
140
1.0
102
RTVSPost2010PropOp57
 70
     1
102
RTVSPropertyOp0
 70
     1
102
RTVSPropertyOp1
 70
     1
102
RTVSPropertyOp2
 70
     1
102
RTVSPropertyOp3
 70
     1
102
RTVSPropertyOp4
 70
     1
102
RTVSPropertyOp5
 70
     1
102
RTVSPropertyOp6
 70
     1
102
RTVSPropertyOp7
 70
     1
102
RTVSPropertyOp8
 70
     1
102
RTVSPropertyOp9
 70
     1
102
RTVSPropertyOp10
 70
     1
102
RTVSPropertyOp11
 70
     1
102
RTVSPropertyOp12
 70
     1
102
RTVSPropertyOp13
 70
     1
102
RTVSPropertyOp14
 70
     1
102
RTVSPropertyOp15
 70
     1
102
RTVSPropertyOp16
 70
     1
102
RTVSPropertyOp17
 70
     1
102
RTVSPropertyOp18
 70
     1
102
RTVSPropertyOp19
 70
     1
102
RTVSPropertyOp20
 70
     1
102
RTVSPropertyOp21
 70
     1
102
RTVSPropertyOp22
 70
     1
102
RTVSPropertyOp23
 70
     1
102
RTVSPropertyOp24
 70
     1
102
RTVSPropertyOp25
 70
     1
102
RTVSPropertyOp26
 70
     1
102
RTVSPropertyOp27
 70
     1
102
RTVSPropertyOp28
 70
     1
102
RTVSPropertyOp29
 70
     1
102
RTVSPropertyOp30
 70
     1
102
RTVSPropertyOp31
 70
     1
102
RTVSPropertyOp32
 70
     1
102
RTVSPropertyOp33
 70
     1
102
RTVSPropertyOp34
 70
     1
102
RTVSPropertyOp35
 70
     1
102
RTVSPropertyOp36
 70
     1
102
RTVSPropertyOp37
 70
     1
102
RTVSPropertyOp38
 70
     1
102
RTVSPropertyOp39
 70
     1
102
RTVSPropertyOp40
 70
     1
102
RTVSPropertyOp41
 70
     1
102
RTVSPropertyOp42
 70
     1
102
RTVSPropertyOp43
 70
     1
102
RTVSPropertyOp44
 70
     1
102
RTVSPropertyOp45
 70
     1
102
RTVSPropertyOp46
 70
     1
102
RTVSPropertyOp47
 70
     1
102
RTVSPropertyOp48
 70
     1
102
RTVSPropertyOp49
 70
     1
102
RTVSPropertyOp50
 70
     1
102
RTVSPropertyOp51
 70
     0
102
RTVSPropertyOp52
 70
     0
102
RTVSPropertyOp53
 70
     1
102
RTVSPropertyOp54
 70
     1
102
RTVSPropertyOp55
 70
     1
102
RTVSPropertyOp56
 70
     1
102
RTVSPropertyOp57
 70
     1
102
RTVSPropertyOp58
 70
     1
102
RTVSPropertyOp59
 70
     1
102
RTVSPropertyOp60
 70
     1
102
RTVSPropertyOp61
 70
     1
102
RTVSPropertyOp62
 70
     1
  0
XRECORD
  5
220
102
{ACAD_REACTORS
330
21F
102
}
330
21F
100
AcDbXrecord
280
     1
102
RTVSPost2010Prop28
280
     0
102
RTVSPost2010PropOp28
 70
     1
102
RTVSPost2010Prop29
280
     1
102
RTVSPost2010PropOp29
 70
     1
102
RTVSPost2010Prop30
280
     1
102
RTVSPost2010PropOp30
 70
     1
102
RTVSPost2010Prop31
280
     0
102
RTVSPost2010PropOp31
 70
     1
102
RTVSPost2010Prop32
280
     0
102
RTVSPost2010PropOp32
 70
     1
102
RTVSPost2010Prop33
280
     0
102
RTVSPost2010PropOp33
 70
     1
102
RTVSPost2010Prop34
280
     0
102
RTVSPost2010PropOp34
 70
     1
102
RTVSPost2010Prop35
280
     0
102
RTVSPost2010PropOp35
 70
     1
102
RTVSPost2010Prop36
280
     0
102
RTVSPost2010PropOp36
 70
     1
102
RTVSPost2010Prop37
 90
       50
102
RTVSPost2010PropOp37
 70
     1
102
RTVSPost2010Prop38
140
0.0
102
RTVSPost2010PropOp38
 70
     1
102
RTVSPost2010Prop39
140
1.0
102
RTVSPost2010PropOp39
 70
     1
102
RTVSPost2010Prop40
 90
        0
102
RTVSPost2010PropOp40
 70
     1
102
RTVSPost2010Prop41ColorIndex
 90
       18
102
RTVSPost2010Prop41ColorRGB
 90
        0
102
RTVSPost2010PropOp41
 70
     1
102
RTVSPost2010Prop42
 90
       50
102
RTVSPost2010PropOp42
 70
     1
102
RTVSPost2010Prop43
 90
        3
102
RTVSPost2010PropOp43
 70
     1
102
RTVSPost2010Prop44ColorIndex
 90
        5
102
RTVSPost2010Prop44ColorRGB
 90
      255
102
RTVSPost2010PropOp44
 70
     1
102
RTVSPost2010Prop45
280
     0
102
RTVSPost2010PropOp45
 70
     1
102
RTVSPost2010Prop46
 90
       50
102
RTVSPost2010PropOp46
 70
     1
102
RTVSPost2010Prop47
 90
       50
102
RTVSPost2010PropOp47
 70
     1
102
RTVSPost2010Prop48
 90
       50
102
RTVSPost2010PropOp48
 70
     1
102
RTVSPost2010Prop49
280
     0
102
RTVSPost2010PropOp49
 70
     1
102
RTVSPost2010Prop50
 90
       50
102
RTVSPost2010PropOp50
 70
     1
102
RTVSPost2010Prop51ColorIndex
 90
      256
102
RTVSPost2010Prop51ColorRGB
 90
-16777216
102
RTVSPost2010PropOp51
 70
     0
102
RTVSPost2010Prop52
140
1.0
102
RTVSPost2010PropOp52
 70
     0
102
RTVSPost2010Prop53
 90
        2
102
RTVSPost2010PropOp53
 70
     1
102
RTVSPost2010Prop54
  1
strokes_ogs.tif
102
RTVSPost2010PropOp54
 70
     1
102
RTVSPost2010Prop55
280
     0
102
RTVSPost2010PropOp55
 70
     1
102
RTVSPost2010Prop56
140
1.0
102
RTVSPost2010PropOp56
 70
     1
102
RTVSPost2010Prop57
140
1.0
102
RTVSPost2010PropOp57
 70
     1
102
RTVSPropertyOp0
 70
     1
102
RTVSPropertyOp1
 70
     1
102
RTVSPropertyOp2
 70
     1
102
RTVSPropertyOp3
 70
     1
102
RTVSPropertyOp4
 70
     1
102
RTVSPropertyOp5
 70
     1
102
RTVSPropertyOp6
 70
     1
102
RTVSPropertyOp7
 70
     1
102
RTVSPropertyOp8
 70
     1
102
RTVSPropertyOp9
 70
     1
102
RTVSPropertyOp10
 70
     1
102
RTVSPropertyOp11
 70
     1
102
RTVSPropertyOp12
 70
     1
102
RTVSPropertyOp13
 70
     1
102
RTVSPropertyOp14
 70
     1
102
RTVSPropertyOp15
 70
     1
102
RTVSPropertyOp16
 70
     1
102
RTVSPropertyOp17
 70
     1
102
RTVSPropertyOp18
 70
     1
102
RTVSPropertyOp19
 70
     1
102
RTVSPropertyOp20
 70
     1
102
RTVSPropertyOp21
 70
     1
102
RTVSPropertyOp22
 70
     1
102
RTVSPropertyOp23
 70
     1
102
RTVSPropertyOp24
 70
     1
102
RTVSPropertyOp25
 70
     1
102
RTVSPropertyOp26
 70
     1
102
RTVSPropertyOp27
 70
     1
102
RTVSPropertyOp28
 70
     1
102
RTVSPropertyOp29
 70
     1
102
RTVSPropertyOp30
 70
     1
102
RTVSPropertyOp31
 70
     1
102
RTVSPropertyOp32
 70
     1
102
RTVSPropertyOp33
 70
     1
102
RTVSPropertyOp34
 70
     1
102
RTVSPropertyOp35
 70
     1
102
RTVSPropertyOp36
 70
     1
102
RTVSPropertyOp37
 70
     1
102
RTVSPropertyOp38
 70
     1
102
RTVSPropertyOp39
 70
     1
102
RTVSPropertyOp40
 70
     1
102
RTVSPropertyOp41
 70
     1
102
RTVSPropertyOp42
 70
     1
102
RTVSPropertyOp43
 70
     1
102
RTVSPropertyOp44
 70
     1
102
RTVSPropertyOp45
 70
     1
102
RTVSPropertyOp46
 70
     1
102
RTVSPropertyOp47
 70
     1
102
RTVSPropertyOp48
 70
     1
102
RTVSPropertyOp49
 70
     1
102
RTVSPropertyOp50
 70
     1
102
RTVSPropertyOp51
 70
     0
102
RTVSPropertyOp52
 70
     0
102
RTVSPropertyOp53
 70
     1
102
RTVSPropertyOp54
 70
     1
102
RTVSPropertyOp55
 70
     1
102
RTVSPropertyOp56
 70
     1
102
RTVSPropertyOp57
 70
     1
102
RTVSPropertyOp58
 70
     1
102
RTVSPropertyOp59
 70
     1
102
RTVSPropertyOp60
 70
     1
102
RTVSPropertyOp61
 70
     1
102
RTVSPropertyOp62
 70
     1
  0
XRECORD
  5
23A
102
{ACAD_REACTORS
330
239
102
}
330
239
100
AcDbXrecord
280
     1
102
RTVSPost2010Prop28
280
     0
102
RTVSPost2010PropOp28
 70
     1
102
RTVSPost2010Prop29
280
     1
102
RTVSPost2010PropOp29
 70
     1
102
RTVSPost2010Prop30
280
     1
102
RTVSPost2010PropOp30
 70
     1
102
RTVSPost2010Prop31
280
     0
102
RTVSPost2010PropOp31
 70
     1
102
RTVSPost2010Prop32
280
     0
102
RTVSPost2010PropOp32
 70
     1
102
RTVSPost2010Prop33
280
     0
102
RTVSPost2010PropOp33
 70
     1
102
RTVSPost2010Prop34
280
     0
102
RTVSPost2010PropOp34
 70
     1
102
RTVSPost2010Prop35
280
     0
102
RTVSPost2010PropOp35
 70
     1
102
RTVSPost2010Prop36
280
     0
102
RTVSPost2010PropOp36
 70
     1
102
RTVSPost2010Prop37
 90
       50
102
RTVSPost2010PropOp37
 70
     0
102
RTVSPost2010Prop38
140
0.0
102
RTVSPost2010PropOp38
 70
     0
102
RTVSPost2010Prop39
140
1.0
102
RTVSPost2010PropOp39
 70
     0
102
RTVSPost2010Prop40
 90
        0
102
RTVSPost2010PropOp40
 70
     0
102
RTVSPost2010Prop41ColorIndex
 90
       18
102
RTVSPost2010Prop41ColorRGB
 90
        0
102
RTVSPost2010PropOp41
 70
     0
102
RTVSPost2010Prop42
 90
       50
102
RTVSPost2010PropOp42
 70
     0
102
RTVSPost2010Prop43
 90
        3
102
RTVSPost2010PropOp43
 70
     0
102
RTVSPost2010Prop44ColorIndex
 90
        5
102
RTVSPost2010Prop44ColorRGB
 90
      255
102
RTVSPost2010PropOp44
 70
     0
102
RTVSPost2010Prop45
280
     0
102
RTVSPost2010PropOp45
 70
     1
102
RTVSPost2010Prop46
 90
       50
102
RTVSPost2010PropOp46
 70
     0
102
RTVSPost2010Prop47
 90
       50
102
RTVSPost2010PropOp47
 70
     0
102
RTVSPost2010Prop48
 90
       50
102
RTVSPost2010PropOp48
 70
     0
102
RTVSPost2010Prop49
280
     0
102
RTVSPost2010PropOp49
 70
     1
102
RTVSPost2010Prop50
 90
       50
102
RTVSPost2010PropOp50
 70
     0
102
RTVSPost2010Prop51ColorIndex
 90
      256
102
RTVSPost2010Prop51ColorRGB
 90
-16777216
102
RTVSPost2010PropOp51
 70
     0
102
RTVSPost2010Prop52
140
1.0
102
RTVSPost2010PropOp52
 70
     0
102
RTVSPost2010Prop53
 90
        2
102
RTVSPost2010PropOp53
 70
     0
102
RTVSPost2010Prop54
  1
strokes_ogs.tif
102
RTVSPost2010PropOp54
 70
     0
102
RTVSPost2010Prop55
280
     0
102
RTVSPost2010PropOp55
 70
     1
102
RTVSPost2010Prop56
140
1.0
102
RTVSPost2010PropOp56
 70
     0
102
RTVSPost2010Prop57
140
1.0
102
RTVSPost2010PropOp57
 70
     0
102
RTVSPropertyOp0
 70
     0
102
RTVSPropertyOp1
 70
     0
102
RTVSPropertyOp2
 70
     0
102
RTVSPropertyOp3
 70
     0
102
RTVSPropertyOp4
 70
     0
102
RTVSPropertyOp5
 70
     0
102
RTVSPropertyOp6
 70
     0
102
RTVSPropertyOp7
 70
     0
102
RTVSPropertyOp8
 70
     0
102
RTVSPropertyOp9
 70
     0
102
RTVSPropertyOp10
 70
     0
102
RTVSPropertyOp11
 70
     0
102
RTVSPropertyOp12
 70
     0
102
RTVSPropertyOp13
 70
     0
102
RTVSPropertyOp14
 70
     2
102
RTVSPropertyOp15
 70
     0
102
RTVSPropertyOp16
 70
     0
102
RTVSPropertyOp17
 70
     0
102
RTVSPropertyOp18
 70
     0
102
RTVSPropertyOp19
 70
     0
102
RTVSPropertyOp20
 70
     0
102
RTVSPropertyOp21
 70
     0
102
RTVSPropertyOp22
 70
     0
102
RTVSPropertyOp23
 70
     0
102
RTVSPropertyOp24
 70
     0
102
RTVSPropertyOp25
 70
     0
102
RTVSPropertyOp26
 70
     0
102
RTVSPropertyOp27
 70
     0
102
RTVSPropertyOp28
 70
     1
102
RTVSPropertyOp29
 70
     1
102
RTVSPropertyOp30
 70
     1
102
RTVSPropertyOp31
 70
     1
102
RTVSPropertyOp32
 70
     1
102
RTVSPropertyOp33
 70
     1
102
RTVSPropertyOp34
 70
     1
102
RTVSPropertyOp35
 70
     1
102
RTVSPropertyOp36
 70
     1
102
RTVSPropertyOp37
 70
     0
102
RTVSPropertyOp38
 70
     0
102
RTVSPropertyOp39
 70
     0
102
RTVSPropertyOp40
 70
     0
102
RTVSPropertyOp41
 70
     0
102
RTVSPropertyOp42
 70
     0
102
RTVSPropertyOp43
 70
     0
102
RTVSPropertyOp44
 70
     0
102
RTVSPropertyOp45
 70
     1
102
RTVSPropertyOp46
 70
     0
102
RTVSPropertyOp47
 70
     0
102
RTVSPropertyOp48
 70
     0
102
RTVSPropertyOp49
 70
     1
102
RTVSPropertyOp50
 70
     0
102
RTVSPropertyOp51
 70
     0
102
RTVSPropertyOp52
 70
     0
102
RTVSPropertyOp53
 70
     0
102
RTVSPropertyOp54
 70
     0
102
RTVSPropertyOp55
 70
     1
102
RTVSPropertyOp56
 70
     0
102
RTVSPropertyOp57
 70
     0
102
RTVSPropertyOp58
 70
     0
102
RTVSPropertyOp59
 70
     0
102
RTVSPropertyOp60
 70
     0
102
RTVSPropertyOp61
 70
     0
102
RTVSPropertyOp62
 70
     0
  0
XRECORD
  5
228
102
{ACAD_REACTORS
330
227
102
}
330
227
100
AcDbXrecord
280
     1
102
RTVSPost2010Prop28
280
     0
102
RTVSPost2010PropOp28
 70
     1
102
RTVSPost2010Prop29
280
     1
102
RTVSPost2010PropOp29
 70
     1
102
RTVSPost2010Prop30
280
     1
102
RTVSPost2010PropOp30
 70
     1
102
RTVSPost2010Prop31
280
     0
102
RTVSPost2010PropOp31
 70
     1
102
RTVSPost2010Prop32
280
     0
102
RTVSPost2010PropOp32
 70
     1
102
RTVSPost2010Prop33
280
     0
102
RTVSPost2010PropOp33
 70
     1
102
RTVSPost2010Prop34
280
     0
102
RTVSPost2010PropOp34
 70
     1
102
RTVSPost2010Prop35
280
     0
102
RTVSPost2010PropOp35
 70
     1
102
RTVSPost2010Prop36
280
     0
102
RTVSPost2010PropOp36
 70
     1
102
RTVSPost2010Prop37
 90
       50
102
RTVSPost2010PropOp37
 70
     1
102
RTVSPost2010Prop38
140
0.0
102
RTVSPost2010PropOp38
 70
     1
102
RTVSPost2010Prop39
140
1.0
102
RTVSPost2010PropOp39
 70
     1
102
RTVSPost2010Prop40
 90
        0
102
RTVSPost2010PropOp40
 70
     1
102
RTVSPost2010Prop41ColorIndex
 90
       18
102
RTVSPost2010Prop41ColorRGB
 90
        0
102
RTVSPost2010PropOp41
 70
     1
102
RTVSPost2010Prop42
 90
       50
102
RTVSPost2010PropOp42
 70
     1
102
RTVSPost2010Prop43
 90
        3
102
RTVSPost2010PropOp43
 70
     1
102
RTVSPost2010Prop44ColorIndex
 90
        5
102
RTVSPost2010Prop44ColorRGB
 90
      255
102
RTVSPost2010PropOp44
 70
     1
102
RTVSPost2010Prop45
280
     0
102
RTVSPost2010PropOp45
 70
     1
102
RTVSPost2010Prop46
 90
       50
102
RTVSPost2010PropOp46
 70
     1
102
RTVSPost2010Prop47
 90
       50
102
RTVSPost2010PropOp47
 70
     1
102
RTVSPost2010Prop48
 90
       50
102
RTVSPost2010PropOp48
 70
     1
102
RTVSPost2010Prop49
280
     0
102
RTVSPost2010PropOp49
 70
     1
102
RTVSPost2010Prop50
 90
       50
102
RTVSPost2010PropOp50
 70
     1
102
RTVSPost2010Prop51ColorIndex
 90
      256
102
RTVSPost2010Prop51ColorRGB
 90
-16777216
102
RTVSPost2010PropOp51
 70
     0
102
RTVSPost2010Prop52
140
1.0
102
RTVSPost2010PropOp52
 70
     0
102
RTVSPost2010Prop53
 90
        2
102
RTVSPost2010PropOp53
 70
     1
102
RTVSPost2010Prop54
  1
strokes_ogs.tif
102
RTVSPost2010PropOp54
 70
     1
102
RTVSPost2010Prop55
280
     0
102
RTVSPost2010PropOp55
 70
     1
102
RTVSPost2010Prop56
140
1.0
102
RTVSPost2010PropOp56
 70
     1
102
RTVSPost2010Prop57
140
1.0
102
RTVSPost2010PropOp57
 70
     1
102
RTVSPropertyOp0
 70
     1
102
RTVSPropertyOp1
 70
     1
102
RTVSPropertyOp2
 70
     1
102
RTVSPropertyOp3
 70
     1
102
RTVSPropertyOp4
 70
     1
102
RTVSPropertyOp5
 70
     1
102
RTVSPropertyOp6
 70
     1
102
RTVSPropertyOp7
 70
     1
102
RTVSPropertyOp8
 70
     1
102
RTVSPropertyOp9
 70
     1
102
RTVSPropertyOp10
 70
     1
102
RTVSPropertyOp11
 70
     1
102
RTVSPropertyOp12
 70
     1
102
RTVSPropertyOp13
 70
     1
102
RTVSPropertyOp14
 70
     1
102
RTVSPropertyOp15
 70
     1
102
RTVSPropertyOp16
 70
     1
102
RTVSPropertyOp17
 70
     1
102
RTVSPropertyOp18
 70
     1
102
RTVSPropertyOp19
 70
     1
102
RTVSPropertyOp20
 70
     1
102
RTVSPropertyOp21
 70
     1
102
RTVSPropertyOp22
 70
     1
102
RTVSPropertyOp23
 70
     1
102
RTVSPropertyOp24
 70
     1
102
RTVSPropertyOp25
 70
     1
102
RTVSPropertyOp26
 70
     1
102
RTVSPropertyOp27
 70
     1
102
RTVSPropertyOp28
 70
     1
102
RTVSPropertyOp29
 70
     1
102
RTVSPropertyOp30
 70
     1
102
RTVSPropertyOp31
 70
     1
102
RTVSPropertyOp32
 70
     1
102
RTVSPropertyOp33
 70
     1
102
RTVSPropertyOp34
 70
     1
102
RTVSPropertyOp35
 70
     1
102
RTVSPropertyOp36
 70
     1
102
RTVSPropertyOp37
 70
     1
102
RTVSPropertyOp38
 70
     1
102
RTVSPropertyOp39
 70
     1
102
RTVSPropertyOp40
 70
     1
102
RTVSPropertyOp41
 70
     1
102
RTVSPropertyOp42
 70
     1
102
RTVSPropertyOp43
 70
     1
102
RTVSPropertyOp44
 70
     1
102
RTVSPropertyOp45
 70
     1
102
RTVSPropertyOp46
 70
     1
102
RTVSPropertyOp47
 70
     1
102
RTVSPropertyOp48
 70
     1
102
RTVSPropertyOp49
 70
     1
102
RTVSPropertyOp50
 70
     1
102
RTVSPropertyOp51
 70
     0
102
RTVSPropertyOp52
 70
     0
102
RTVSPropertyOp53
 70
     1
102
RTVSPropertyOp54
 70
     1
102
RTVSPropertyOp55
 70
     1
102
RTVSPropertyOp56
 70
     1
102
RTVSPropertyOp57
 70
     1
102
RTVSPropertyOp58
 70
     1
102
RTVSPropertyOp59
 70
     1
102
RTVSPropertyOp60
 70
     1
102
RTVSPropertyOp61
 70
     1
102
RTVSPropertyOp62
 70
     1
  0
XRECORD
  5
20C
102
{ACAD_REACTORS
330
20B
102
}
330
20B
100
AcDbXrecord
280
     1
102
RTVSPost2010Prop28
280
     0
102
RTVSPost2010PropOp28
 70
     1
102
RTVSPost2010Prop29
280
     1
102
RTVSPost2010PropOp29
 70
     1
102
RTVSPost2010Prop30
280
     1
102
RTVSPost2010PropOp30
 70
     1
102
RTVSPost2010Prop31
280
     0
102
RTVSPost2010PropOp31
 70
     1
102
RTVSPost2010Prop32
280
     0
102
RTVSPost2010PropOp32
 70
     1
102
RTVSPost2010Prop33
280
     0
102
RTVSPost2010PropOp33
 70
     1
102
RTVSPost2010Prop34
280
     0
102
RTVSPost2010PropOp34
 70
     1
102
RTVSPost2010Prop35
280
     0
102
RTVSPost2010PropOp35
 70
     1
102
RTVSPost2010Prop36
280
     0
102
RTVSPost2010PropOp36
 70
     1
102
RTVSPost2010Prop37
 90
       50
102
RTVSPost2010PropOp37
 70
     1
102
RTVSPost2010Prop38
140
0.0
102
RTVSPost2010PropOp38
 70
     1
102
RTVSPost2010Prop39
140
1.0
102
RTVSPost2010PropOp39
 70
     1
102
RTVSPost2010Prop40
 90
        0
102
RTVSPost2010PropOp40
 70
     1
102
RTVSPost2010Prop41ColorIndex
 90
       18
102
RTVSPost2010Prop41ColorRGB
 90
        0
102
RTVSPost2010PropOp41
 70
     1
102
RTVSPost2010Prop42
 90
       50
102
RTVSPost2010PropOp42
 70
     1
102
RTVSPost2010Prop43
 90
        3
102
RTVSPost2010PropOp43
 70
     1
102
RTVSPost2010Prop44ColorIndex
 90
        5
102
RTVSPost2010Prop44ColorRGB
 90
      255
102
RTVSPost2010PropOp44
 70
     1
102
RTVSPost2010Prop45
280
     0
102
RTVSPost2010PropOp45
 70
     1
102
RTVSPost2010Prop46
 90
       50
102
RTVSPost2010PropOp46
 70
     1
102
RTVSPost2010Prop47
 90
       50
102
RTVSPost2010PropOp47
 70
     1
102
RTVSPost2010Prop48
 90
       50
102
RTVSPost2010PropOp48
 70
     1
102
RTVSPost2010Prop49
280
     0
102
RTVSPost2010PropOp49
 70
     1
102
RTVSPost2010Prop50
 90
       50
102
RTVSPost2010PropOp50
 70
     1
102
RTVSPost2010Prop51ColorIndex
 90
      256
102
RTVSPost2010Prop51ColorRGB
 90
-16777216
102
RTVSPost2010PropOp51
 70
     0
102
RTVSPost2010Prop52
140
1.0
102
RTVSPost2010PropOp52
 70
     0
102
RTVSPost2010Prop53
 90
        2
102
RTVSPost2010PropOp53
 70
     1
102
RTVSPost2010Prop54
  1
strokes_ogs.tif
102
RTVSPost2010PropOp54
 70
     1
102
RTVSPost2010Prop55
280
     0
102
RTVSPost2010PropOp55
 70
     1
102
RTVSPost2010Prop56
140
1.0
102
RTVSPost2010PropOp56
 70
     1
102
RTVSPost2010Prop57
140
1.0
102
RTVSPost2010PropOp57
 70
     1
102
RTVSPropertyOp0
 70
     1
102
RTVSPropertyOp1
 70
     1
102
RTVSPropertyOp2
 70
     1
102
RTVSPropertyOp3
 70
     1
102
RTVSPropertyOp4
 70
     1
102
RTVSPropertyOp5
 70
     1
102
RTVSPropertyOp6
 70
     1
102
RTVSPropertyOp7
 70
     1
102
RTVSPropertyOp8
 70
     1
102
RTVSPropertyOp9
 70
     1
102
RTVSPropertyOp10
 70
     1
102
RTVSPropertyOp11
 70
     1
102
RTVSPropertyOp12
 70
     1
102
RTVSPropertyOp13
 70
     1
102
RTVSPropertyOp14
 70
     1
102
RTVSPropertyOp15
 70
     1
102
RTVSPropertyOp16
 70
     1
102
RTVSPropertyOp17
 70
     1
102
RTVSPropertyOp18
 70
     1
102
RTVSPropertyOp19
 70
     1
102
RTVSPropertyOp20
 70
     1
102
RTVSPropertyOp21
 70
     1
102
RTVSPropertyOp22
 70
     1
102
RTVSPropertyOp23
 70
     1
102
RTVSPropertyOp24
 70
     1
102
RTVSPropertyOp25
 70
     1
102
RTVSPropertyOp26
 70
     1
102
RTVSPropertyOp27
 70
     1
102
RTVSPropertyOp28
 70
     1
102
RTVSPropertyOp29
 70
     1
102
RTVSPropertyOp30
 70
     1
102
RTVSPropertyOp31
 70
     1
102
RTVSPropertyOp32
 70
     1
102
RTVSPropertyOp33
 70
     1
102
RTVSPropertyOp34
 70
     1
102
RTVSPropertyOp35
 70
     1
102
RTVSPropertyOp36
 70
     1
102
RTVSPropertyOp37
 70
     1
102
RTVSPropertyOp38
 70
     1
102
RTVSPropertyOp39
 70
     1
102
RTVSPropertyOp40
 70
     1
102
RTVSPropertyOp41
 70
     1
102
RTVSPropertyOp42
 70
     1
102
RTVSPropertyOp43
 70
     1
102
RTVSPropertyOp44
 70
     1
102
RTVSPropertyOp45
 70
     1
102
RTVSPropertyOp46
 70
     1
102
RTVSPropertyOp47
 70
     1
102
RTVSPropertyOp48
 70
     1
102
RTVSPropertyOp49
 70
     1
102
RTVSPropertyOp50
 70
     1
102
RTVSPropertyOp51
 70
     0
102
RTVSPropertyOp52
 70
     0
102
RTVSPropertyOp53
 70
     1
102
RTVSPropertyOp54
 70
     1
102
RTVSPropertyOp55
 70
     1
102
RTVSPropertyOp56
 70
     1
102
RTVSPropertyOp57
 70
     1
102
RTVSPropertyOp58
 70
     1
102
RTVSPropertyOp59
 70
     1
102
RTVSPropertyOp60
 70
     1
102
RTVSPropertyOp61
 70
     1
102
RTVSPropertyOp62
 70
     1
  0
XRECORD
  5
20E
102
{ACAD_REACTORS
330
20D
102
}
330
20D
100
AcDbXrecord
280
     1
102
RTVSPost2010Prop28
280
     0
102
RTVSPost2010PropOp28
 70
     1
102
RTVSPost2010Prop29
280
     1
102
RTVSPost2010PropOp29
 70
     1
102
RTVSPost2010Prop30
280
     1
102
RTVSPost2010PropOp30
 70
     1
102
RTVSPost2010Prop31
280
     0
102
RTVSPost2010PropOp31
 70
     1
102
RTVSPost2010Prop32
280
     0
102
RTVSPost2010PropOp32
 70
     1
102
RTVSPost2010Prop33
280
     0
102
RTVSPost2010PropOp33
 70
     1
102
RTVSPost2010Prop34
280
     0
102
RTVSPost2010PropOp34
 70
     1
102
RTVSPost2010Prop35
280
     0
102
RTVSPost2010PropOp35
 70
     1
102
RTVSPost2010Prop36
280
     0
102
RTVSPost2010PropOp36
 70
     1
102
RTVSPost2010Prop37
 90
       50
102
RTVSPost2010PropOp37
 70
     1
102
RTVSPost2010Prop38
140
0.0
102
RTVSPost2010PropOp38
 70
     1
102
RTVSPost2010Prop39
140
1.0
102
RTVSPost2010PropOp39
 70
     1
102
RTVSPost2010Prop40
 90
        0
102
RTVSPost2010PropOp40
 70
     1
102
RTVSPost2010Prop41ColorIndex
 90
       18
102
RTVSPost2010Prop41ColorRGB
 90
        0
102
RTVSPost2010PropOp41
 70
     1
102
RTVSPost2010Prop42
 90
       50
102
RTVSPost2010PropOp42
 70
     1
102
RTVSPost2010Prop43
 90
        3
102
RTVSPost2010PropOp43
 70
     1
102
RTVSPost2010Prop44ColorIndex
 90
        5
102
RTVSPost2010Prop44ColorRGB
 90
      255
102
RTVSPost2010PropOp44
 70
     1
102
RTVSPost2010Prop45
280
     0
102
RTVSPost2010PropOp45
 70
     1
102
RTVSPost2010Prop46
 90
       50
102
RTVSPost2010PropOp46
 70
     1
102
RTVSPost2010Prop47
 90
       50
102
RTVSPost2010PropOp47
 70
     1
102
RTVSPost2010Prop48
 90
       50
102
RTVSPost2010PropOp48
 70
     1
102
RTVSPost2010Prop49
280
     0
102
RTVSPost2010PropOp49
 70
     1
102
RTVSPost2010Prop50
 90
       50
102
RTVSPost2010PropOp50
 70
     1
102
RTVSPost2010Prop51ColorIndex
 90
      256
102
RTVSPost2010Prop51ColorRGB
 90
-16777216
102
RTVSPost2010PropOp51
 70
     0
102
RTVSPost2010Prop52
140
1.0
102
RTVSPost2010PropOp52
 70
     0
102
RTVSPost2010Prop53
 90
        2
102
RTVSPost2010PropOp53
 70
     1
102
RTVSPost2010Prop54
  1
strokes_ogs.tif
102
RTVSPost2010PropOp54
 70
     1
102
RTVSPost2010Prop55
280
     0
102
RTVSPost2010PropOp55
 70
     1
102
RTVSPost2010Prop56
140
1.0
102
RTVSPost2010PropOp56
 70
     1
102
RTVSPost2010Prop57
140
1.0
102
RTVSPost2010PropOp57
 70
     1
102
RTVSPropertyOp0
 70
     1
102
RTVSPropertyOp1
 70
     1
102
RTVSPropertyOp2
 70
     1
102
RTVSPropertyOp3
 70
     1
102
RTVSPropertyOp4
 70
     1
102
RTVSPropertyOp5
 70
     1
102
RTVSPropertyOp6
 70
     1
102
RTVSPropertyOp7
 70
     1
102
RTVSPropertyOp8
 70
     1
102
RTVSPropertyOp9
 70
     1
102
RTVSPropertyOp10
 70
     1
102
RTVSPropertyOp11
 70
     1
102
RTVSPropertyOp12
 70
     1
102
RTVSPropertyOp13
 70
     1
102
RTVSPropertyOp14
 70
     1
102
RTVSPropertyOp15
 70
     1
102
RTVSPropertyOp16
 70
     1
102
RTVSPropertyOp17
 70
     1
102
RTVSPropertyOp18
 70
     1
102
RTVSPropertyOp19
 70
     1
102
RTVSPropertyOp20
 70
     1
102
RTVSPropertyOp21
 70
     1
102
RTVSPropertyOp22
 70
     1
102
RTVSPropertyOp23
 70
     1
102
RTVSPropertyOp24
 70
     1
102
RTVSPropertyOp25
 70
     1
102
RTVSPropertyOp26
 70
     1
102
RTVSPropertyOp27
 70
     1
102
RTVSPropertyOp28
 70
     1
102
RTVSPropertyOp29
 70
     1
102
RTVSPropertyOp30
 70
     1
102
RTVSPropertyOp31
 70
     1
102
RTVSPropertyOp32
 70
     1
102
RTVSPropertyOp33
 70
     1
102
RTVSPropertyOp34
 70
     1
102
RTVSPropertyOp35
 70
     1
102
RTVSPropertyOp36
 70
     1
102
RTVSPropertyOp37
 70
     1
102
RTVSPropertyOp38
 70
     1
102
RTVSPropertyOp39
 70
     1
102
RTVSPropertyOp40
 70
     1
102
RTVSPropertyOp41
 70
     1
102
RTVSPropertyOp42
 70
     1
102
RTVSPropertyOp43
 70
     1
102
RTVSPropertyOp44
 70
     1
102
RTVSPropertyOp45
 70
     1
102
RTVSPropertyOp46
 70
     1
102
RTVSPropertyOp47
 70
     1
102
RTVSPropertyOp48
 70
     1
102
RTVSPropertyOp49
 70
     1
102
RTVSPropertyOp50
 70
     1
102
RTVSPropertyOp51
 70
     0
102
RTVSPropertyOp52
 70
     0
102
RTVSPropertyOp53
 70
     1
102
RTVSPropertyOp54
 70
     1
102
RTVSPropertyOp55
 70
     1
102
RTVSPropertyOp56
 70
     1
102
RTVSPropertyOp57
 70
     1
102
RTVSPropertyOp58
 70
     1
102
RTVSPropertyOp59
 70
     1
102
RTVSPropertyOp60
 70
     1
102
RTVSPropertyOp61
 70
     1
102
RTVSPropertyOp62
 70
     1
  0
XRECORD
  5
210
102
{ACAD_REACTORS
330
20F
102
}
330
20F
100
AcDbXrecord
280
     1
102
RTVSPost2010Prop28
280
     0
102
RTVSPost2010PropOp28
 70
     1
102
RTVSPost2010Prop29
280
     1
102
RTVSPost2010PropOp29
 70
     1
102
RTVSPost2010Prop30
280
     1
102
RTVSPost2010PropOp30
 70
     1
102
RTVSPost2010Prop31
280
     0
102
RTVSPost2010PropOp31
 70
     1
102
RTVSPost2010Prop32
280
     0
102
RTVSPost2010PropOp32
 70
     1
102
RTVSPost2010Prop33
280
     0
102
RTVSPost2010PropOp33
 70
     1
102
RTVSPost2010Prop34
280
     0
102
RTVSPost2010PropOp34
 70
     1
102
RTVSPost2010Prop35
280
     0
102
RTVSPost2010PropOp35
 70
     1
102
RTVSPost2010Prop36
280
     0
102
RTVSPost2010PropOp36
 70
     1
102
RTVSPost2010Prop37
 90
       50
102
RTVSPost2010PropOp37
 70
     1
102
RTVSPost2010Prop38
140
0.0
102
RTVSPost2010PropOp38
 70
     1
102
RTVSPost2010Prop39
140
1.0
102
RTVSPost2010PropOp39
 70
     1
102
RTVSPost2010Prop40
 90
        0
102
RTVSPost2010PropOp40
 70
     1
102
RTVSPost2010Prop41ColorIndex
 90
       18
102
RTVSPost2010Prop41ColorRGB
 90
        0
102
RTVSPost2010PropOp41
 70
     1
102
RTVSPost2010Prop42
 90
       50
102
RTVSPost2010PropOp42
 70
     1
102
RTVSPost2010Prop43
 90
        3
102
RTVSPost2010PropOp43
 70
     1
102
RTVSPost2010Prop44ColorIndex
 90
        5
102
RTVSPost2010Prop44ColorRGB
 90
      255
102
RTVSPost2010PropOp44
 70
     1
102
RTVSPost2010Prop45
280
     0
102
RTVSPost2010PropOp45
 70
     1
102
RTVSPost2010Prop46
 90
       50
102
RTVSPost2010PropOp46
 70
     1
102
RTVSPost2010Prop47
 90
       50
102
RTVSPost2010PropOp47
 70
     1
102
RTVSPost2010Prop48
 90
       50
102
RTVSPost2010PropOp48
 70
     1
102
RTVSPost2010Prop49
280
     0
102
RTVSPost2010PropOp49
 70
     1
102
RTVSPost2010Prop50
 90
       50
102
RTVSPost2010PropOp50
 70
     1
102
RTVSPost2010Prop51ColorIndex
 90
      256
102
RTVSPost2010Prop51ColorRGB
 90
-16777216
102
RTVSPost2010PropOp51
 70
     0
102
RTVSPost2010Prop52
140
1.0
102
RTVSPost2010PropOp52
 70
     0
102
RTVSPost2010Prop53
 90
        2
102
RTVSPost2010PropOp53
 70
     1
102
RTVSPost2010Prop54
  1
strokes_ogs.tif
102
RTVSPost2010PropOp54
 70
     1
102
RTVSPost2010Prop55
280
     0
102
RTVSPost2010PropOp55
 70
     1
102
RTVSPost2010Prop56
140
1.0
102
RTVSPost2010PropOp56
 70
     1
102
RTVSPost2010Prop57
140
1.0
102
RTVSPost2010PropOp57
 70
     1
102
RTVSPropertyOp0
 70
     1
102
RTVSPropertyOp1
 70
     1
102
RTVSPropertyOp2
 70
     1
102
RTVSPropertyOp3
 70
     1
102
RTVSPropertyOp4
 70
     1
102
RTVSPropertyOp5
 70
     1
102
RTVSPropertyOp6
 70
     1
102
RTVSPropertyOp7
 70
     1
102
RTVSPropertyOp8
 70
     1
102
RTVSPropertyOp9
 70
     1
102
RTVSPropertyOp10
 70
     1
102
RTVSPropertyOp11
 70
     1
102
RTVSPropertyOp12
 70
     1
102
RTVSPropertyOp13
 70
     1
102
RTVSPropertyOp14
 70
     1
102
RTVSPropertyOp15
 70
     1
102
RTVSPropertyOp16
 70
     1
102
RTVSPropertyOp17
 70
     1
102
RTVSPropertyOp18
 70
     1
102
RTVSPropertyOp19
 70
     1
102
RTVSPropertyOp20
 70
     1
102
RTVSPropertyOp21
 70
     1
102
RTVSPropertyOp22
 70
     1
102
RTVSPropertyOp23
 70
     1
102
RTVSPropertyOp24
 70
     1
102
RTVSPropertyOp25
 70
     1
102
RTVSPropertyOp26
 70
     1
102
RTVSPropertyOp27
 70
     1
102
RTVSPropertyOp28
 70
     1
102
RTVSPropertyOp29
 70
     1
102
RTVSPropertyOp30
 70
     1
102
RTVSPropertyOp31
 70
     1
102
RTVSPropertyOp32
 70
     1
102
RTVSPropertyOp33
 70
     1
102
RTVSPropertyOp34
 70
     1
102
RTVSPropertyOp35
 70
     1
102
RTVSPropertyOp36
 70
     1
102
RTVSPropertyOp37
 70
     1
102
RTVSPropertyOp38
 70
     1
102
RTVSPropertyOp39
 70
     1
102
RTVSPropertyOp40
 70
     1
102
RTVSPropertyOp41
 70
     1
102
RTVSPropertyOp42
 70
     1
102
RTVSPropertyOp43
 70
     1
102
RTVSPropertyOp44
 70
     1
102
RTVSPropertyOp45
 70
     1
102
RTVSPropertyOp46
 70
     1
102
RTVSPropertyOp47
 70
     1
102
RTVSPropertyOp48
 70
     1
102
RTVSPropertyOp49
 70
     1
102
RTVSPropertyOp50
 70
     1
102
RTVSPropertyOp51
 70
     0
102
RTVSPropertyOp52
 70
     0
102
RTVSPropertyOp53
 70
     1
102
RTVSPropertyOp54
 70
     1
102
RTVSPropertyOp55
 70
     1
102
RTVSPropertyOp56
 70
     1
102
RTVSPropertyOp57
 70
     1
102
RTVSPropertyOp58
 70
     1
102
RTVSPropertyOp59
 70
     1
102
RTVSPropertyOp60
 70
     1
102
RTVSPropertyOp61
 70
     1
102
RTVSPropertyOp62
 70
     1
  0
XRECORD
  5
212
102
{ACAD_REACTORS
330
211
102
}
330
211
100
AcDbXrecord
280
     1
102
RTVSPost2010Prop28
280
     0
102
RTVSPost2010PropOp28
 70
     1
102
RTVSPost2010Prop29
280
     1
102
RTVSPost2010PropOp29
 70
     1
102
RTVSPost2010Prop30
280
     1
102
RTVSPost2010PropOp30
 70
     1
102
RTVSPost2010Prop31
280
     0
102
RTVSPost2010PropOp31
 70
     1
102
RTVSPost2010Prop32
280
     0
102
RTVSPost2010PropOp32
 70
     1
102
RTVSPost2010Prop33
280
     0
102
RTVSPost2010PropOp33
 70
     1
102
RTVSPost2010Prop34
280
     0
102
RTVSPost2010PropOp34
 70
     1
102
RTVSPost2010Prop35
280
     0
102
RTVSPost2010PropOp35
 70
     1
102
RTVSPost2010Prop36
280
     0
102
RTVSPost2010PropOp36
 70
     1
102
RTVSPost2010Prop37
 90
       50
102
RTVSPost2010PropOp37
 70
     1
102
RTVSPost2010Prop38
140
0.0
102
RTVSPost2010PropOp38
 70
     1
102
RTVSPost2010Prop39
140
1.0
102
RTVSPost2010PropOp39
 70
     1
102
RTVSPost2010Prop40
 90
        0
102
RTVSPost2010PropOp40
 70
     1
102
RTVSPost2010Prop41ColorIndex
 90
       18
102
RTVSPost2010Prop41ColorRGB
 90
        0
102
RTVSPost2010PropOp41
 70
     1
102
RTVSPost2010Prop42
 90
       50
102
RTVSPost2010PropOp42
 70
     1
102
RTVSPost2010Prop43
 90
        3
102
RTVSPost2010PropOp43
 70
     1
102
RTVSPost2010Prop44ColorIndex
 90
        5
102
RTVSPost2010Prop44ColorRGB
 90
      255
102
RTVSPost2010PropOp44
 70
     1
102
RTVSPost2010Prop45
280
     0
102
RTVSPost2010PropOp45
 70
     1
102
RTVSPost2010Prop46
 90
       50
102
RTVSPost2010PropOp46
 70
     1
102
RTVSPost2010Prop47
 90
       50
102
RTVSPost2010PropOp47
 70
     1
102
RTVSPost2010Prop48
 90
       50
102
RTVSPost2010PropOp48
 70
     1
102
RTVSPost2010Prop49
280
     0
102
RTVSPost2010PropOp49
 70
     1
102
RTVSPost2010Prop50
 90
       50
102
RTVSPost2010PropOp50
 70
     1
102
RTVSPost2010Prop51ColorIndex
 90
      256
102
RTVSPost2010Prop51ColorRGB
 90
-16777216
102
RTVSPost2010PropOp51
 70
     0
102
RTVSPost2010Prop52
140
1.0
102
RTVSPost2010PropOp52
 70
     0
102
RTVSPost2010Prop53
 90
        2
102
RTVSPost2010PropOp53
 70
     1
102
RTVSPost2010Prop54
  1
strokes_ogs.tif
102
RTVSPost2010PropOp54
 70
     1
102
RTVSPost2010Prop55
280
     0
102
RTVSPost2010PropOp55
 70
     1
102
RTVSPost2010Prop56
140
1.0
102
RTVSPost2010PropOp56
 70
     1
102
RTVSPost2010Prop57
140
1.0
102
RTVSPost2010PropOp57
 70
     1
102
RTVSPropertyOp0
 70
     1
102
RTVSPropertyOp1
 70
     1
102
RTVSPropertyOp2
 70
     1
102
RTVSPropertyOp3
 70
     1
102
RTVSPropertyOp4
 70
     1
102
RTVSPropertyOp5
 70
     1
102
RTVSPropertyOp6
 70
     1
102
RTVSPropertyOp7
 70
     1
102
RTVSPropertyOp8
 70
     1
102
RTVSPropertyOp9
 70
     1
102
RTVSPropertyOp10
 70
     1
102
RTVSPropertyOp11
 70
     1
102
RTVSPropertyOp12
 70
     1
102
RTVSPropertyOp13
 70
     1
102
RTVSPropertyOp14
 70
     1
102
RTVSPropertyOp15
 70
     1
102
RTVSPropertyOp16
 70
     1
102
RTVSPropertyOp17
 70
     1
102
RTVSPropertyOp18
 70
     1
102
RTVSPropertyOp19
 70
     1
102
RTVSPropertyOp20
 70
     1
102
RTVSPropertyOp21
 70
     1
102
RTVSPropertyOp22
 70
     1
102
RTVSPropertyOp23
 70
     1
102
RTVSPropertyOp24
 70
     1
102
RTVSPropertyOp25
 70
     1
102
RTVSPropertyOp26
 70
     1
102
RTVSPropertyOp27
 70
     1
102
RTVSPropertyOp28
 70
     1
102
RTVSPropertyOp29
 70
     1
102
RTVSPropertyOp30
 70
     1
102
RTVSPropertyOp31
 70
     1
102
RTVSPropertyOp32
 70
     1
102
RTVSPropertyOp33
 70
     1
102
RTVSPropertyOp34
 70
     1
102
RTVSPropertyOp35
 70
     1
102
RTVSPropertyOp36
 70
     1
102
RTVSPropertyOp37
 70
     1
102
RTVSPropertyOp38
 70
     1
102
RTVSPropertyOp39
 70
     1
102
RTVSPropertyOp40
 70
     1
102
RTVSPropertyOp41
 70
     1
102
RTVSPropertyOp42
 70
     1
102
RTVSPropertyOp43
 70
     1
102
RTVSPropertyOp44
 70
     1
102
RTVSPropertyOp45
 70
     1
102
RTVSPropertyOp46
 70
     1
102
RTVSPropertyOp47
 70
     1
102
RTVSPropertyOp48
 70
     1
102
RTVSPropertyOp49
 70
     1
102
RTVSPropertyOp50
 70
     1
102
RTVSPropertyOp51
 70
     0
102
RTVSPropertyOp52
 70
     0
102
RTVSPropertyOp53
 70
     1
102
RTVSPropertyOp54
 70
     1
102
RTVSPropertyOp55
 70
     1
102
RTVSPropertyOp56
 70
     1
102
RTVSPropertyOp57
 70
     1
102
RTVSPropertyOp58
 70
     1
102
RTVSPropertyOp59
 70
     1
102
RTVSPropertyOp60
 70
     1
102
RTVSPropertyOp61
 70
     1
102
RTVSPropertyOp62
 70
     1
  0
XRECORD
  5
21A
102
{ACAD_REACTORS
330
219
102
}
330
219
100
AcDbXrecord
280
     1
102
RTVSPost2010Prop28
280
     0
102
RTVSPost2010PropOp28
 70
     1
102
RTVSPost2010Prop29
280
     1
102
RTVSPost2010PropOp29
 70
     1
102
RTVSPost2010Prop30
280
     1
102
RTVSPost2010PropOp30
 70
     1
102
RTVSPost2010Prop31
280
     0
102
RTVSPost2010PropOp31
 70
     1
102
RTVSPost2010Prop32
280
     0
102
RTVSPost2010PropOp32
 70
     1
102
RTVSPost2010Prop33
280
     0
102
RTVSPost2010PropOp33
 70
     1
102
RTVSPost2010Prop34
280
     0
102
RTVSPost2010PropOp34
 70
     1
102
RTVSPost2010Prop35
280
     0
102
RTVSPost2010PropOp35
 70
     1
102
RTVSPost2010Prop36
280
     0
102
RTVSPost2010PropOp36
 70
     1
102
RTVSPost2010Prop37
 90
       50
102
RTVSPost2010PropOp37
 70
     1
102
RTVSPost2010Prop38
140
0.0
102
RTVSPost2010PropOp38
 70
     1
102
RTVSPost2010Prop39
140
1.0
102
RTVSPost2010PropOp39
 70
     1
102
RTVSPost2010Prop40
 90
        0
102
RTVSPost2010PropOp40
 70
     1
102
RTVSPost2010Prop41ColorIndex
 90
       18
102
RTVSPost2010Prop41ColorRGB
 90
        0
102
RTVSPost2010PropOp41
 70
     1
102
RTVSPost2010Prop42
 90
       50
102
RTVSPost2010PropOp42
 70
     1
102
RTVSPost2010Prop43
 90
        3
102
RTVSPost2010PropOp43
 70
     1
102
RTVSPost2010Prop44ColorIndex
 90
        5
102
RTVSPost2010Prop44ColorRGB
 90
      255
102
RTVSPost2010PropOp44
 70
     1
102
RTVSPost2010Prop45
280
     0
102
RTVSPost2010PropOp45
 70
     1
102
RTVSPost2010Prop46
 90
       50
102
RTVSPost2010PropOp46
 70
     1
102
RTVSPost2010Prop47
 90
       50
102
RTVSPost2010PropOp47
 70
     1
102
RTVSPost2010Prop48
 90
       50
102
RTVSPost2010PropOp48
 70
     1
102
RTVSPost2010Prop49
280
     0
102
RTVSPost2010PropOp49
 70
     1
102
RTVSPost2010Prop50
 90
       50
102
RTVSPost2010PropOp50
 70
     1
102
RTVSPost2010Prop51ColorIndex
 90
      256
102
RTVSPost2010Prop51ColorRGB
 90
-16777216
102
RTVSPost2010PropOp51
 70
     0
102
RTVSPost2010Prop52
140
1.0
102
RTVSPost2010PropOp52
 70
     0
102
RTVSPost2010Prop53
 90
        2
102
RTVSPost2010PropOp53
 70
     1
102
RTVSPost2010Prop54
  1
strokes_ogs.tif
102
RTVSPost2010PropOp54
 70
     1
102
RTVSPost2010Prop55
280
     0
102
RTVSPost2010PropOp55
 70
     1
102
RTVSPost2010Prop56
140
1.0
102
RTVSPost2010PropOp56
 70
     1
102
RTVSPost2010Prop57
140
1.0
102
RTVSPost2010PropOp57
 70
     1
102
RTVSPropertyOp0
 70
     1
102
RTVSPropertyOp1
 70
     1
102
RTVSPropertyOp2
 70
     1
102
RTVSPropertyOp3
 70
     1
102
RTVSPropertyOp4
 70
     1
102
RTVSPropertyOp5
 70
     1
102
RTVSPropertyOp6
 70
     1
102
RTVSPropertyOp7
 70
     1
102
RTVSPropertyOp8
 70
     1
102
RTVSPropertyOp9
 70
     1
102
RTVSPropertyOp10
 70
     1
102
RTVSPropertyOp11
 70
     1
102
RTVSPropertyOp12
 70
     1
102
RTVSPropertyOp13
 70
     1
102
RTVSPropertyOp14
 70
     1
102
RTVSPropertyOp15
 70
     1
102
RTVSPropertyOp16
 70
     1
102
RTVSPropertyOp17
 70
     1
102
RTVSPropertyOp18
 70
     1
102
RTVSPropertyOp19
 70
     1
102
RTVSPropertyOp20
 70
     1
102
RTVSPropertyOp21
 70
     1
102
RTVSPropertyOp22
 70
     1
102
RTVSPropertyOp23
 70
     1
102
RTVSPropertyOp24
 70
     1
102
RTVSPropertyOp25
 70
     1
102
RTVSPropertyOp26
 70
     1
102
RTVSPropertyOp27
 70
     1
102
RTVSPropertyOp28
 70
     1
102
RTVSPropertyOp29
 70
     1
102
RTVSPropertyOp30
 70
     1
102
RTVSPropertyOp31
 70
     1
102
RTVSPropertyOp32
 70
     1
102
RTVSPropertyOp33
 70
     1
102
RTVSPropertyOp34
 70
     1
102
RTVSPropertyOp35
 70
     1
102
RTVSPropertyOp36
 70
     1
102
RTVSPropertyOp37
 70
     1
102
RTVSPropertyOp38
 70
     1
102
RTVSPropertyOp39
 70
     1
102
RTVSPropertyOp40
 70
     1
102
RTVSPropertyOp41
 70
     1
102
RTVSPropertyOp42
 70
     1
102
RTVSPropertyOp43
 70
     1
102
RTVSPropertyOp44
 70
     1
102
RTVSPropertyOp45
 70
     1
102
RTVSPropertyOp46
 70
     1
102
RTVSPropertyOp47
 70
     1
102
RTVSPropertyOp48
 70
     1
102
RTVSPropertyOp49
 70
     1
102
RTVSPropertyOp50
 70
     1
102
RTVSPropertyOp51
 70
     0
102
RTVSPropertyOp52
 70
     0
102
RTVSPropertyOp53
 70
     1
102
RTVSPropertyOp54
 70
     1
102
RTVSPropertyOp55
 70
     1
102
RTVSPropertyOp56
 70
     1
102
RTVSPropertyOp57
 70
     1
102
RTVSPropertyOp58
 70
     1
102
RTVSPropertyOp59
 70
     1
102
RTVSPropertyOp60
 70
     1
102
RTVSPropertyOp61
 70
     1
102
RTVSPropertyOp62
 70
     1
  0
XRECORD
  5
236
102
{ACAD_REACTORS
330
235
102
}
330
235
100
AcDbXrecord
280
     1
102
RTVSPost2010Prop28
280
     0
102
RTVSPost2010PropOp28
 70
     1
102
RTVSPost2010Prop29
280
     1
102
RTVSPost2010PropOp29
 70
     1
102
RTVSPost2010Prop30
280
     1
102
RTVSPost2010PropOp30
 70
     1
102
RTVSPost2010Prop31
280
     0
102
RTVSPost2010PropOp31
 70
     1
102
RTVSPost2010Prop32
280
     0
102
RTVSPost2010PropOp32
 70
     1
102
RTVSPost2010Prop33
280
     0
102
RTVSPost2010PropOp33
 70
     1
102
RTVSPost2010Prop34
280
     0
102
RTVSPost2010PropOp34
 70
     1
102
RTVSPost2010Prop35
280
     0
102
RTVSPost2010PropOp35
 70
     1
102
RTVSPost2010Prop36
280
     0
102
RTVSPost2010PropOp36
 70
     1
102
RTVSPost2010Prop37
 90
       50
102
RTVSPost2010PropOp37
 70
     0
102
RTVSPost2010Prop38
140
0.0
102
RTVSPost2010PropOp38
 70
     0
102
RTVSPost2010Prop39
140
1.0
102
RTVSPost2010PropOp39
 70
     0
102
RTVSPost2010Prop40
 90
        0
102
RTVSPost2010PropOp40
 70
     0
102
RTVSPost2010Prop41ColorIndex
 90
       18
102
RTVSPost2010Prop41ColorRGB
 90
        0
102
RTVSPost2010PropOp41
 70
     0
102
RTVSPost2010Prop42
 90
       50
102
RTVSPost2010PropOp42
 70
     0
102
RTVSPost2010Prop43
 90
        3
102
RTVSPost2010PropOp43
 70
     0
102
RTVSPost2010Prop44ColorIndex
 90
        5
102
RTVSPost2010Prop44ColorRGB
 90
      255
102
RTVSPost2010PropOp44
 70
     0
102
RTVSPost2010Prop45
280
     0
102
RTVSPost2010PropOp45
 70
     1
102
RTVSPost2010Prop46
 90
       50
102
RTVSPost2010PropOp46
 70
     0
102
RTVSPost2010Prop47
 90
       50
102
RTVSPost2010PropOp47
 70
     0
102
RTVSPost2010Prop48
 90
       50
102
RTVSPost2010PropOp48
 70
     0
102
RTVSPost2010Prop49
280
     0
102
RTVSPost2010PropOp49
 70
     1
102
RTVSPost2010Prop50
 90
       50
102
RTVSPost2010PropOp50
 70
     0
102
RTVSPost2010Prop51ColorIndex
 90
      256
102
RTVSPost2010Prop51ColorRGB
 90
-16777216
102
RTVSPost2010PropOp51
 70
     0
102
RTVSPost2010Prop52
140
1.0
102
RTVSPost2010PropOp52
 70
     0
102
RTVSPost2010Prop53
 90
        2
102
RTVSPost2010PropOp53
 70
     0
102
RTVSPost2010Prop54
  1
strokes_ogs.tif
102
RTVSPost2010PropOp54
 70
     0
102
RTVSPost2010Prop55
280
     0
102
RTVSPost2010PropOp55
 70
     1
102
RTVSPost2010Prop56
140
1.0
102
RTVSPost2010PropOp56
 70
     0
102
RTVSPost2010Prop57
140
1.0
102
RTVSPost2010PropOp57
 70
     0
102
RTVSPropertyOp0
 70
     0
102
RTVSPropertyOp1
 70
     0
102
RTVSPropertyOp2
 70
     0
102
RTVSPropertyOp3
 70
     0
102
RTVSPropertyOp4
 70
     0
102
RTVSPropertyOp5
 70
     0
102
RTVSPropertyOp6
 70
     0
102
RTVSPropertyOp7
 70
     0
102
RTVSPropertyOp8
 70
     0
102
RTVSPropertyOp9
 70
     0
102
RTVSPropertyOp10
 70
     0
102
RTVSPropertyOp11
 70
     0
102
RTVSPropertyOp12
 70
     0
102
RTVSPropertyOp13
 70
     0
102
RTVSPropertyOp14
 70
     2
102
RTVSPropertyOp15
 70
     0
102
RTVSPropertyOp16
 70
     0
102
RTVSPropertyOp17
 70
     0
102
RTVSPropertyOp18
 70
     0
102
RTVSPropertyOp19
 70
     0
102
RTVSPropertyOp20
 70
     0
102
RTVSPropertyOp21
 70
     0
102
RTVSPropertyOp22
 70
     0
102
RTVSPropertyOp23
 70
     0
102
RTVSPropertyOp24
 70
     0
102
RTVSPropertyOp25
 70
     0
102
RTVSPropertyOp26
 70
     0
102
RTVSPropertyOp27
 70
     0
102
RTVSPropertyOp28
 70
     1
102
RTVSPropertyOp29
 70
     1
102
RTVSPropertyOp30
 70
     1
102
RTVSPropertyOp31
 70
     1
102
RTVSPropertyOp32
 70
     1
102
RTVSPropertyOp33
 70
     1
102
RTVSPropertyOp34
 70
     1
102
RTVSPropertyOp35
 70
     1
102
RTVSPropertyOp36
 70
     1
102
RTVSPropertyOp37
 70
     0
102
RTVSPropertyOp38
 70
     0
102
RTVSPropertyOp39
 70
     0
102
RTVSPropertyOp40
 70
     0
102
RTVSPropertyOp41
 70
     0
102
RTVSPropertyOp42
 70
     0
102
RTVSPropertyOp43
 70
     0
102
RTVSPropertyOp44
 70
     0
102
RTVSPropertyOp45
 70
     1
102
RTVSPropertyOp46
 70
     0
102
RTVSPropertyOp47
 70
     0
102
RTVSPropertyOp48
 70
     0
102
RTVSPropertyOp49
 70
     1
102
RTVSPropertyOp50
 70
     0
102
RTVSPropertyOp51
 70
     0
102
RTVSPropertyOp52
 70
     0
102
RTVSPropertyOp53
 70
     0
102
RTVSPropertyOp54
 70
     0
102
RTVSPropertyOp55
 70
     1
102
RTVSPropertyOp56
 70
     0
102
RTVSPropertyOp57
 70
     0
102
RTVSPropertyOp58
 70
     0
102
RTVSPropertyOp59
 70
     0
102
RTVSPropertyOp60
 70
     0
102
RTVSPropertyOp61
 70
     0
102
RTVSPropertyOp62
 70
     0
  0
XRECORD
  5
226
102
{ACAD_REACTORS
330
225
102
}
330
225
100
AcDbXrecord
280
     1
102
RTVSPost2010Prop28
280
     0
102
RTVSPost2010PropOp28
 70
     1
102
RTVSPost2010Prop29
280
     1
102
RTVSPost2010PropOp29
 70
     1
102
RTVSPost2010Prop30
280
     1
102
RTVSPost2010PropOp30
 70
     1
102
RTVSPost2010Prop31
280
     0
102
RTVSPost2010PropOp31
 70
     1
102
RTVSPost2010Prop32
280
     0
102
RTVSPost2010PropOp32
 70
     1
102
RTVSPost2010Prop33
280
     0
102
RTVSPost2010PropOp33
 70
     1
102
RTVSPost2010Prop34
280
     0
102
RTVSPost2010PropOp34
 70
     1
102
RTVSPost2010Prop35
280
     0
102
RTVSPost2010PropOp35
 70
     1
102
RTVSPost2010Prop36
280
     0
102
RTVSPost2010PropOp36
 70
     1
102
RTVSPost2010Prop37
 90
       50
102
RTVSPost2010PropOp37
 70
     1
102
RTVSPost2010Prop38
140
0.0
102
RTVSPost2010PropOp38
 70
     1
102
RTVSPost2010Prop39
140
1.0
102
RTVSPost2010PropOp39
 70
     1
102
RTVSPost2010Prop40
 90
        0
102
RTVSPost2010PropOp40
 70
     1
102
RTVSPost2010Prop41ColorIndex
 90
       18
102
RTVSPost2010Prop41ColorRGB
 90
        0
102
RTVSPost2010PropOp41
 70
     1
102
RTVSPost2010Prop42
 90
       50
102
RTVSPost2010PropOp42
 70
     1
102
RTVSPost2010Prop43
 90
        3
102
RTVSPost2010PropOp43
 70
     1
102
RTVSPost2010Prop44ColorIndex
 90
        5
102
RTVSPost2010Prop44ColorRGB
 90
      255
102
RTVSPost2010PropOp44
 70
     1
102
RTVSPost2010Prop45
280
     0
102
RTVSPost2010PropOp45
 70
     1
102
RTVSPost2010Prop46
 90
       50
102
RTVSPost2010PropOp46
 70
     1
102
RTVSPost2010Prop47
 90
       50
102
RTVSPost2010PropOp47
 70
     1
102
RTVSPost2010Prop48
 90
       50
102
RTVSPost2010PropOp48
 70
     1
102
RTVSPost2010Prop49
280
     0
102
RTVSPost2010PropOp49
 70
     1
102
RTVSPost2010Prop50
 90
       50
102
RTVSPost2010PropOp50
 70
     1
102
RTVSPost2010Prop51ColorIndex
 90
      256
102
RTVSPost2010Prop51ColorRGB
 90
-16777216
102
RTVSPost2010PropOp51
 70
     0
102
RTVSPost2010Prop52
140
1.0
102
RTVSPost2010PropOp52
 70
     0
102
RTVSPost2010Prop53
 90
        2
102
RTVSPost2010PropOp53
 70
     1
102
RTVSPost2010Prop54
  1
strokes_ogs.tif
102
RTVSPost2010PropOp54
 70
     1
102
RTVSPost2010Prop55
280
     0
102
RTVSPost2010PropOp55
 70
     1
102
RTVSPost2010Prop56
140
1.0
102
RTVSPost2010PropOp56
 70
     1
102
RTVSPost2010Prop57
140
1.0
102
RTVSPost2010PropOp57
 70
     1
102
RTVSPropertyOp0
 70
     1
102
RTVSPropertyOp1
 70
     1
102
RTVSPropertyOp2
 70
     1
102
RTVSPropertyOp3
 70
     1
102
RTVSPropertyOp4
 70
     1
102
RTVSPropertyOp5
 70
     1
102
RTVSPropertyOp6
 70
     1
102
RTVSPropertyOp7
 70
     1
102
RTVSPropertyOp8
 70
     1
102
RTVSPropertyOp9
 70
     1
102
RTVSPropertyOp10
 70
     1
102
RTVSPropertyOp11
 70
     1
102
RTVSPropertyOp12
 70
     1
102
RTVSPropertyOp13
 70
     1
102
RTVSPropertyOp14
 70
     1
102
RTVSPropertyOp15
 70
     1
102
RTVSPropertyOp16
 70
     1
102
RTVSPropertyOp17
 70
     1
102
RTVSPropertyOp18
 70
     1
102
RTVSPropertyOp19
 70
     1
102
RTVSPropertyOp20
 70
     1
102
RTVSPropertyOp21
 70
     1
102
RTVSPropertyOp22
 70
     1
102
RTVSPropertyOp23
 70
     1
102
RTVSPropertyOp24
 70
     1
102
RTVSPropertyOp25
 70
     1
102
RTVSPropertyOp26
 70
     1
102
RTVSPropertyOp27
 70
     1
102
RTVSPropertyOp28
 70
     1
102
RTVSPropertyOp29
 70
     1
102
RTVSPropertyOp30
 70
     1
102
RTVSPropertyOp31
 70
     1
102
RTVSPropertyOp32
 70
     1
102
RTVSPropertyOp33
 70
     1
102
RTVSPropertyOp34
 70
     1
102
RTVSPropertyOp35
 70
     1
102
RTVSPropertyOp36
 70
     1
102
RTVSPropertyOp37
 70
     1
102
RTVSPropertyOp38
 70
     1
102
RTVSPropertyOp39
 70
     1
102
RTVSPropertyOp40
 70
     1
102
RTVSPropertyOp41
 70
     1
102
RTVSPropertyOp42
 70
     1
102
RTVSPropertyOp43
 70
     1
102
RTVSPropertyOp44
 70
     1
102
RTVSPropertyOp45
 70
     1
102
RTVSPropertyOp46
 70
     1
102
RTVSPropertyOp47
 70
     1
102
RTVSPropertyOp48
 70
     1
102
RTVSPropertyOp49
 70
     1
102
RTVSPropertyOp50
 70
     1
102
RTVSPropertyOp51
 70
     0
102
RTVSPropertyOp52
 70
     0
102
RTVSPropertyOp53
 70
     1
102
RTVSPropertyOp54
 70
     1
102
RTVSPropertyOp55
 70
     1
102
RTVSPropertyOp56
 70
     1
102
RTVSPropertyOp57
 70
     1
102
RTVSPropertyOp58
 70
     1
102
RTVSPropertyOp59
 70
     1
102
RTVSPropertyOp60
 70
     1
102
RTVSPropertyOp61
 70
     1
102
RTVSPropertyOp62
 70
     1
  0
XRECORD
  5
238
102
{ACAD_REACTORS
330
237
102
}
330
237
100
AcDbXrecord
280
     1
102
RTVSPost2010Prop28
280
     0
102
RTVSPost2010PropOp28
 70
     1
102
RTVSPost2010Prop29
280
     1
102
RTVSPost2010PropOp29
 70
     1
102
RTVSPost2010Prop30
280
     1
102
RTVSPost2010PropOp30
 70
     1
102
RTVSPost2010Prop31
280
     0
102
RTVSPost2010PropOp31
 70
     1
102
RTVSPost2010Prop32
280
     0
102
RTVSPost2010PropOp32
 70
     1
102
RTVSPost2010Prop33
280
     0
102
RTVSPost2010PropOp33
 70
     1
102
RTVSPost2010Prop34
280
     0
102
RTVSPost2010PropOp34
 70
     1
102
RTVSPost2010Prop35
280
     0
102
RTVSPost2010PropOp35
 70
     1
102
RTVSPost2010Prop36
280
     0
102
RTVSPost2010PropOp36
 70
     1
102
RTVSPost2010Prop37
 90
       50
102
RTVSPost2010PropOp37
 70
     0
102
RTVSPost2010Prop38
140
0.0
102
RTVSPost2010PropOp38
 70
     0
102
RTVSPost2010Prop39
140
1.0
102
RTVSPost2010PropOp39
 70
     0
102
RTVSPost2010Prop40
 90
        0
102
RTVSPost2010PropOp40
 70
     0
102
RTVSPost2010Prop41ColorIndex
 90
       18
102
RTVSPost2010Prop41ColorRGB
 90
        0
102
RTVSPost2010PropOp41
 70
     0
102
RTVSPost2010Prop42
 90
       50
102
RTVSPost2010PropOp42
 70
     0
102
RTVSPost2010Prop43
 90
        3
102
RTVSPost2010PropOp43
 70
     0
102
RTVSPost2010Prop44ColorIndex
 90
        5
102
RTVSPost2010Prop44ColorRGB
 90
      255
102
RTVSPost2010PropOp44
 70
     0
102
RTVSPost2010Prop45
280
     0
102
RTVSPost2010PropOp45
 70
     1
102
RTVSPost2010Prop46
 90
       50
102
RTVSPost2010PropOp46
 70
     0
102
RTVSPost2010Prop47
 90
       50
102
RTVSPost2010PropOp47
 70
     0
102
RTVSPost2010Prop48
 90
       50
102
RTVSPost2010PropOp48
 70
     0
102
RTVSPost2010Prop49
280
     0
102
RTVSPost2010PropOp49
 70
     1
102
RTVSPost2010Prop50
 90
       50
102
RTVSPost2010PropOp50
 70
     0
102
RTVSPost2010Prop51ColorIndex
 90
      256
102
RTVSPost2010Prop51ColorRGB
 90
-16777216
102
RTVSPost2010PropOp51
 70
     0
102
RTVSPost2010Prop52
140
1.0
102
RTVSPost2010PropOp52
 70
     0
102
RTVSPost2010Prop53
 90
        2
102
RTVSPost2010PropOp53
 70
     0
102
RTVSPost2010Prop54
  1
strokes_ogs.tif
102
RTVSPost2010PropOp54
 70
     0
102
RTVSPost2010Prop55
280
     0
102
RTVSPost2010PropOp55
 70
     1
102
RTVSPost2010Prop56
140
1.0
102
RTVSPost2010PropOp56
 70
     0
102
RTVSPost2010Prop57
140
1.0
102
RTVSPost2010PropOp57
 70
     0
102
RTVSPropertyOp0
 70
     0
102
RTVSPropertyOp1
 70
     0
102
RTVSPropertyOp2
 70
     0
102
RTVSPropertyOp3
 70
     0
102
RTVSPropertyOp4
 70
     0
102
RTVSPropertyOp5
 70
     0
102
RTVSPropertyOp6
 70
     0
102
RTVSPropertyOp7
 70
     0
102
RTVSPropertyOp8
 70
     0
102
RTVSPropertyOp9
 70
     0
102
RTVSPropertyOp10
 70
     0
102
RTVSPropertyOp11
 70
     0
102
RTVSPropertyOp12
 70
     0
102
RTVSPropertyOp13
 70
     0
102
RTVSPropertyOp14
 70
     2
102
RTVSPropertyOp15
 70
     0
102
RTVSPropertyOp16
 70
     0
102
RTVSPropertyOp17
 70
     0
102
RTVSPropertyOp18
 70
     0
102
RTVSPropertyOp19
 70
     0
102
RTVSPropertyOp20
 70
     0
102
RTVSPropertyOp21
 70
     0
102
RTVSPropertyOp22
 70
     0
102
RTVSPropertyOp23
 70
     0
102
RTVSPropertyOp24
 70
     0
102
RTVSPropertyOp25
 70
     0
102
RTVSPropertyOp26
 70
     0
102
RTVSPropertyOp27
 70
     0
102
RTVSPropertyOp28
 70
     1
102
RTVSPropertyOp29
 70
     1
102
RTVSPropertyOp30
 70
     1
102
RTVSPropertyOp31
 70
     1
102
RTVSPropertyOp32
 70
     1
102
RTVSPropertyOp33
 70
     1
102
RTVSPropertyOp34
 70
     1
102
RTVSPropertyOp35
 70
     1
102
RTVSPropertyOp36
 70
     1
102
RTVSPropertyOp37
 70
     0
102
RTVSPropertyOp38
 70
     0
102
RTVSPropertyOp39
 70
     0
102
RTVSPropertyOp40
 70
     0
102
RTVSPropertyOp41
 70
     0
102
RTVSPropertyOp42
 70
     0
102
RTVSPropertyOp43
 70
     0
102
RTVSPropertyOp44
 70
     0
102
RTVSPropertyOp45
 70
     1
102
RTVSPropertyOp46
 70
     0
102
RTVSPropertyOp47
 70
     0
102
RTVSPropertyOp48
 70
     0
102
RTVSPropertyOp49
 70
     1
102
RTVSPropertyOp50
 70
     0
102
RTVSPropertyOp51
 70
     0
102
RTVSPropertyOp52
 70
     0
102
RTVSPropertyOp53
 70
     0
102
RTVSPropertyOp54
 70
     0
102
RTVSPropertyOp55
 70
     1
102
RTVSPropertyOp56
 70
     0
102
RTVSPropertyOp57
 70
     0
102
RTVSPropertyOp58
 70
     0
102
RTVSPropertyOp59
 70
     0
102
RTVSPropertyOp60
 70
     0
102
RTVSPropertyOp61
 70
     0
102
RTVSPropertyOp62
 70
     0
  0
XRECORD
  5
21E
102
{ACAD_REACTORS
330
21D
102
}
330
21D
100
AcDbXrecord
280
     1
102
RTVSPost2010Prop28
280
     0
102
RTVSPost2010PropOp28
 70
     1
102
RTVSPost2010Prop29
280
     1
102
RTVSPost2010PropOp29
 70
     1
102
RTVSPost2010Prop30
280
     1
102
RTVSPost2010PropOp30
 70
     1
102
RTVSPost2010Prop31
280
     0
102
RTVSPost2010PropOp31
 70
     1
102
RTVSPost2010Prop32
280
     0
102
RTVSPost2010PropOp32
 70
     1
102
RTVSPost2010Prop33
280
     0
102
RTVSPost2010PropOp33
 70
     1
102
RTVSPost2010Prop34
280
     0
102
RTVSPost2010PropOp34
 70
     1
102
RTVSPost2010Prop35
280
     0
102
RTVSPost2010PropOp35
 70
     1
102
RTVSPost2010Prop36
280
     0
102
RTVSPost2010PropOp36
 70
     1
102
RTVSPost2010Prop37
 90
       50
102
RTVSPost2010PropOp37
 70
     1
102
RTVSPost2010Prop38
140
0.0
102
RTVSPost2010PropOp38
 70
     1
102
RTVSPost2010Prop39
140
1.0
102
RTVSPost2010PropOp39
 70
     1
102
RTVSPost2010Prop40
 90
        0
102
RTVSPost2010PropOp40
 70
     1
102
RTVSPost2010Prop41ColorIndex
 90
       18
102
RTVSPost2010Prop41ColorRGB
 90
        0
102
RTVSPost2010PropOp41
 70
     1
102
RTVSPost2010Prop42
 90
       50
102
RTVSPost2010PropOp42
 70
     1
102
RTVSPost2010Prop43
 90
        3
102
RTVSPost2010PropOp43
 70
     1
102
RTVSPost2010Prop44ColorIndex
 90
        5
102
RTVSPost2010Prop44ColorRGB
 90
      255
102
RTVSPost2010PropOp44
 70
     1
102
RTVSPost2010Prop45
280
     0
102
RTVSPost2010PropOp45
 70
     1
102
RTVSPost2010Prop46
 90
       50
102
RTVSPost2010PropOp46
 70
     1
102
RTVSPost2010Prop47
 90
       50
102
RTVSPost2010PropOp47
 70
     1
102
RTVSPost2010Prop48
 90
       50
102
RTVSPost2010PropOp48
 70
     1
102
RTVSPost2010Prop49
280
     0
102
RTVSPost2010PropOp49
 70
     1
102
RTVSPost2010Prop50
 90
       50
102
RTVSPost2010PropOp50
 70
     1
102
RTVSPost2010Prop51ColorIndex
 90
      256
102
RTVSPost2010Prop51ColorRGB
 90
-16777216
102
RTVSPost2010PropOp51
 70
     0
102
RTVSPost2010Prop52
140
1.0
102
RTVSPost2010PropOp52
 70
     0
102
RTVSPost2010Prop53
 90
        2
102
RTVSPost2010PropOp53
 70
     1
102
RTVSPost2010Prop54
  1
strokes_ogs.tif
102
RTVSPost2010PropOp54
 70
     1
102
RTVSPost2010Prop55
280
     0
102
RTVSPost2010PropOp55
 70
     1
102
RTVSPost2010Prop56
140
1.0
102
RTVSPost2010PropOp56
 70
     1
102
RTVSPost2010Prop57
140
1.0
102
RTVSPost2010PropOp57
 70
     1
102
RTVSPropertyOp0
 70
     1
102
RTVSPropertyOp1
 70
     1
102
RTVSPropertyOp2
 70
     1
102
RTVSPropertyOp3
 70
     1
102
RTVSPropertyOp4
 70
     1
102
RTVSPropertyOp5
 70
     1
102
RTVSPropertyOp6
 70
     1
102
RTVSPropertyOp7
 70
     1
102
RTVSPropertyOp8
 70
     1
102
RTVSPropertyOp9
 70
     1
102
RTVSPropertyOp10
 70
     1
102
RTVSPropertyOp11
 70
     1
102
RTVSPropertyOp12
 70
     1
102
RTVSPropertyOp13
 70
     1
102
RTVSPropertyOp14
 70
     1
102
RTVSPropertyOp15
 70
     1
102
RTVSPropertyOp16
 70
     1
102
RTVSPropertyOp17
 70
     1
102
RTVSPropertyOp18
 70
     1
102
RTVSPropertyOp19
 70
     1
102
RTVSPropertyOp20
 70
     1
102
RTVSPropertyOp21
 70
     1
102
RTVSPropertyOp22
 70
     1
102
RTVSPropertyOp23
 70
     1
102
RTVSPropertyOp24
 70
     1
102
RTVSPropertyOp25
 70
     1
102
RTVSPropertyOp26
 70
     1
102
RTVSPropertyOp27
 70
     1
102
RTVSPropertyOp28
 70
     1
102
RTVSPropertyOp29
 70
     1
102
RTVSPropertyOp30
 70
     1
102
RTVSPropertyOp31
 70
     1
102
RTVSPropertyOp32
 70
     1
102
RTVSPropertyOp33
 70
     1
102
RTVSPropertyOp34
 70
     1
102
RTVSPropertyOp35
 70
     1
102
RTVSPropertyOp36
 70
     1
102
RTVSPropertyOp37
 70
     1
102
RTVSPropertyOp38
 70
     1
102
RTVSPropertyOp39
 70
     1
102
RTVSPropertyOp40
 70
     1
102
RTVSPropertyOp41
 70
     1
102
RTVSPropertyOp42
 70
     1
102
RTVSPropertyOp43
 70
     1
102
RTVSPropertyOp44
 70
     1
102
RTVSPropertyOp45
 70
     1
102
RTVSPropertyOp46
 70
     1
102
RTVSPropertyOp47
 70
     1
102
RTVSPropertyOp48
 70
     1
102
RTVSPropertyOp49
 70
     1
102
RTVSPropertyOp50
 70
     1
102
RTVSPropertyOp51
 70
     0
102
RTVSPropertyOp52
 70
     0
102
RTVSPropertyOp53
 70
     1
102
RTVSPropertyOp54
 70
     1
102
RTVSPropertyOp55
 70
     1
102
RTVSPropertyOp56
 70
     1
102
RTVSPropertyOp57
 70
     1
102
RTVSPropertyOp58
 70
     1
102
RTVSPropertyOp59
 70
     1
102
RTVSPropertyOp60
 70
     1
102
RTVSPropertyOp61
 70
     1
102
RTVSPropertyOp62
 70
     1
  0
XRECORD
  5
234
102
{ACAD_REACTORS
330
233
102
}
330
233
100
AcDbXrecord
280
     1
102
RTVSPost2010Prop28
280
     0
102
RTVSPost2010PropOp28
 70
     1
102
RTVSPost2010Prop29
280
     1
102
RTVSPost2010PropOp29
 70
     1
102
RTVSPost2010Prop30
280
     1
102
RTVSPost2010PropOp30
 70
     1
102
RTVSPost2010Prop31
280
     0
102
RTVSPost2010PropOp31
 70
     1
102
RTVSPost2010Prop32
280
     0
102
RTVSPost2010PropOp32
 70
     1
102
RTVSPost2010Prop33
280
     0
102
RTVSPost2010PropOp33
 70
     1
102
RTVSPost2010Prop34
280
     0
102
RTVSPost2010PropOp34
 70
     1
102
RTVSPost2010Prop35
280
     0
102
RTVSPost2010PropOp35
 70
     1
102
RTVSPost2010Prop36
280
     0
102
RTVSPost2010PropOp36
 70
     1
102
RTVSPost2010Prop37
 90
       50
102
RTVSPost2010PropOp37
 70
     1
102
RTVSPost2010Prop38
140
0.0
102
RTVSPost2010PropOp38
 70
     1
102
RTVSPost2010Prop39
140
1.0
102
RTVSPost2010PropOp39
 70
     1
102
RTVSPost2010Prop40
 90
        0
102
RTVSPost2010PropOp40
 70
     1
102
RTVSPost2010Prop41ColorIndex
 90
       18
102
RTVSPost2010Prop41ColorRGB
 90
        0
102
RTVSPost2010PropOp41
 70
     1
102
RTVSPost2010Prop42
 90
       50
102
RTVSPost2010PropOp42
 70
     1
102
RTVSPost2010Prop43
 90
        3
102
RTVSPost2010PropOp43
 70
     1
102
RTVSPost2010Prop44ColorIndex
 90
        5
102
RTVSPost2010Prop44ColorRGB
 90
      255
102
RTVSPost2010PropOp44
 70
     1
102
RTVSPost2010Prop45
280
     0
102
RTVSPost2010PropOp45
 70
     1
102
RTVSPost2010Prop46
 90
       50
102
RTVSPost2010PropOp46
 70
     1
102
RTVSPost2010Prop47
 90
       50
102
RTVSPost2010PropOp47
 70
     1
102
RTVSPost2010Prop48
 90
       50
102
RTVSPost2010PropOp48
 70
     1
102
RTVSPost2010Prop49
280
     0
102
RTVSPost2010PropOp49
 70
     1
102
RTVSPost2010Prop50
 90
       50
102
RTVSPost2010PropOp50
 70
     1
102
RTVSPost2010Prop51ColorIndex
 90
      256
102
RTVSPost2010Prop51ColorRGB
 90
-16777216
102
RTVSPost2010PropOp51
 70
     0
102
RTVSPost2010Prop52
140
1.0
102
RTVSPost2010PropOp52
 70
     0
102
RTVSPost2010Prop53
 90
        2
102
RTVSPost2010PropOp53
 70
     1
102
RTVSPost2010Prop54
  1
strokes_ogs.tif
102
RTVSPost2010PropOp54
 70
     1
102
RTVSPost2010Prop55
280
     0
102
RTVSPost2010PropOp55
 70
     1
102
RTVSPost2010Prop56
140
1.0
102
RTVSPost2010PropOp56
 70
     1
102
RTVSPost2010Prop57
140
1.0
102
RTVSPost2010PropOp57
 70
     1
102
RTVSPropertyOp0
 70
     1
102
RTVSPropertyOp1
 70
     1
102
RTVSPropertyOp2
 70
     1
102
RTVSPropertyOp3
 70
     1
102
RTVSPropertyOp4
 70
     1
102
RTVSPropertyOp5
 70
     1
102
RTVSPropertyOp6
 70
     1
102
RTVSPropertyOp7
 70
     1
102
RTVSPropertyOp8
 70
     1
102
RTVSPropertyOp9
 70
     1
102
RTVSPropertyOp10
 70
     1
102
RTVSPropertyOp11
 70
     1
102
RTVSPropertyOp12
 70
     1
102
RTVSPropertyOp13
 70
     1
102
RTVSPropertyOp14
 70
     1
102
RTVSPropertyOp15
 70
     1
102
RTVSPropertyOp16
 70
     1
102
RTVSPropertyOp17
 70
     1
102
RTVSPropertyOp18
 70
     1
102
RTVSPropertyOp19
 70
     1
102
RTVSPropertyOp20
 70
     1
102
RTVSPropertyOp21
 70
     1
102
RTVSPropertyOp22
 70
     1
102
RTVSPropertyOp23
 70
     1
102
RTVSPropertyOp24
 70
     1
102
RTVSPropertyOp25
 70
     1
102
RTVSPropertyOp26
 70
     1
102
RTVSPropertyOp27
 70
     1
102
RTVSPropertyOp28
 70
     1
102
RTVSPropertyOp29
 70
     1
102
RTVSPropertyOp30
 70
     1
102
RTVSPropertyOp31
 70
     1
102
RTVSPropertyOp32
 70
     1
102
RTVSPropertyOp33
 70
     1
102
RTVSPropertyOp34
 70
     1
102
RTVSPropertyOp35
 70
     1
102
RTVSPropertyOp36
 70
     1
102
RTVSPropertyOp37
 70
     1
102
RTVSPropertyOp38
 70
     1
102
RTVSPropertyOp39
 70
     1
102
RTVSPropertyOp40
 70
     1
102
RTVSPropertyOp41
 70
     1
102
RTVSPropertyOp42
 70
     1
102
RTVSPropertyOp43
 70
     1
102
RTVSPropertyOp44
 70
     1
102
RTVSPropertyOp45
 70
     1
102
RTVSPropertyOp46
 70
     1
102
RTVSPropertyOp47
 70
     1
102
RTVSPropertyOp48
 70
     1
102
RTVSPropertyOp49
 70
     1
102
RTVSPropertyOp50
 70
     1
102
RTVSPropertyOp51
 70
     0
102
RTVSPropertyOp52
 70
     0
102
RTVSPropertyOp53
 70
     1
102
RTVSPropertyOp54
 70
     1
102
RTVSPropertyOp55
 70
     1
102
RTVSPropertyOp56
 70
     1
102
RTVSPropertyOp57
 70
     1
102
RTVSPropertyOp58
 70
     1
102
RTVSPropertyOp59
 70
     1
102
RTVSPropertyOp60
 70
     1
102
RTVSPropertyOp61
 70
     1
102
RTVSPropertyOp62
 70
     1
  0
XRECORD
  5
232
102
{ACAD_REACTORS
330
231
102
}
330
231
100
AcDbXrecord
280
     1
102
RTVSPost2010Prop28
280
     0
102
RTVSPost2010PropOp28
 70
     1
102
RTVSPost2010Prop29
280
     1
102
RTVSPost2010PropOp29
 70
     1
102
RTVSPost2010Prop30
280
     1
102
RTVSPost2010PropOp30
 70
     1
102
RTVSPost2010Prop31
280
     0
102
RTVSPost2010PropOp31
 70
     1
102
RTVSPost2010Prop32
280
     0
102
RTVSPost2010PropOp32
 70
     1
102
RTVSPost2010Prop33
280
     0
102
RTVSPost2010PropOp33
 70
     1
102
RTVSPost2010Prop34
280
     0
102
RTVSPost2010PropOp34
 70
     1
102
RTVSPost2010Prop35
280
     0
102
RTVSPost2010PropOp35
 70
     1
102
RTVSPost2010Prop36
280
     0
102
RTVSPost2010PropOp36
 70
     1
102
RTVSPost2010Prop37
 90
       50
102
RTVSPost2010PropOp37
 70
     1
102
RTVSPost2010Prop38
140
0.0
102
RTVSPost2010PropOp38
 70
     1
102
RTVSPost2010Prop39
140
1.0
102
RTVSPost2010PropOp39
 70
     1
102
RTVSPost2010Prop40
 90
        0
102
RTVSPost2010PropOp40
 70
     1
102
RTVSPost2010Prop41ColorIndex
 90
       18
102
RTVSPost2010Prop41ColorRGB
 90
        0
102
RTVSPost2010PropOp41
 70
     1
102
RTVSPost2010Prop42
 90
       50
102
RTVSPost2010PropOp42
 70
     1
102
RTVSPost2010Prop43
 90
        3
102
RTVSPost2010PropOp43
 70
     1
102
RTVSPost2010Prop44ColorIndex
 90
        5
102
RTVSPost2010Prop44ColorRGB
 90
      255
102
RTVSPost2010PropOp44
 70
     1
102
RTVSPost2010Prop45
280
     0
102
RTVSPost2010PropOp45
 70
     1
102
RTVSPost2010Prop46
 90
       50
102
RTVSPost2010PropOp46
 70
     1
102
RTVSPost2010Prop47
 90
       50
102
RTVSPost2010PropOp47
 70
     1
102
RTVSPost2010Prop48
 90
       50
102
RTVSPost2010PropOp48
 70
     1
102
RTVSPost2010Prop49
280
     0
102
RTVSPost2010PropOp49
 70
     1
102
RTVSPost2010Prop50
 90
       50
102
RTVSPost2010PropOp50
 70
     1
102
RTVSPost2010Prop51ColorIndex
 90
      256
102
RTVSPost2010Prop51ColorRGB
 90
-16777216
102
RTVSPost2010PropOp51
 70
     0
102
RTVSPost2010Prop52
140
1.0
102
RTVSPost2010PropOp52
 70
     0
102
RTVSPost2010Prop53
 90
        2
102
RTVSPost2010PropOp53
 70
     1
102
RTVSPost2010Prop54
  1
strokes_ogs.tif
102
RTVSPost2010PropOp54
 70
     1
102
RTVSPost2010Prop55
280
     0
102
RTVSPost2010PropOp55
 70
     1
102
RTVSPost2010Prop56
140
1.0
102
RTVSPost2010PropOp56
 70
     1
102
RTVSPost2010Prop57
140
1.0
102
RTVSPost2010PropOp57
 70
     1
102
RTVSPropertyOp0
 70
     1
102
RTVSPropertyOp1
 70
     1
102
RTVSPropertyOp2
 70
     1
102
RTVSPropertyOp3
 70
     1
102
RTVSPropertyOp4
 70
     1
102
RTVSPropertyOp5
 70
     1
102
RTVSPropertyOp6
 70
     1
102
RTVSPropertyOp7
 70
     1
102
RTVSPropertyOp8
 70
     1
102
RTVSPropertyOp9
 70
     1
102
RTVSPropertyOp10
 70
     1
102
RTVSPropertyOp11
 70
     1
102
RTVSPropertyOp12
 70
     1
102
RTVSPropertyOp13
 70
     1
102
RTVSPropertyOp14
 70
     1
102
RTVSPropertyOp15
 70
     1
102
RTVSPropertyOp16
 70
     1
102
RTVSPropertyOp17
 70
     1
102
RTVSPropertyOp18
 70
     1
102
RTVSPropertyOp19
 70
     1
102
RTVSPropertyOp20
 70
     1
102
RTVSPropertyOp21
 70
     1
102
RTVSPropertyOp22
 70
     1
102
RTVSPropertyOp23
 70
     1
102
RTVSPropertyOp24
 70
     1
102
RTVSPropertyOp25
 70
     1
102
RTVSPropertyOp26
 70
     1
102
RTVSPropertyOp27
 70
     1
102
RTVSPropertyOp28
 70
     1
102
RTVSPropertyOp29
 70
     1
102
RTVSPropertyOp30
 70
     1
102
RTVSPropertyOp31
 70
     1
102
RTVSPropertyOp32
 70
     1
102
RTVSPropertyOp33
 70
     1
102
RTVSPropertyOp34
 70
     1
102
RTVSPropertyOp35
 70
     1
102
RTVSPropertyOp36
 70
     1
102
RTVSPropertyOp37
 70
     1
102
RTVSPropertyOp38
 70
     1
102
RTVSPropertyOp39
 70
     1
102
RTVSPropertyOp40
 70
     1
102
RTVSPropertyOp41
 70
     1
102
RTVSPropertyOp42
 70
     1
102
RTVSPropertyOp43
 70
     1
102
RTVSPropertyOp44
 70
     1
102
RTVSPropertyOp45
 70
     1
102
RTVSPropertyOp46
 70
     1
102
RTVSPropertyOp47
 70
     1
102
RTVSPropertyOp48
 70
     1
102
RTVSPropertyOp49
 70
     1
102
RTVSPropertyOp50
 70
     1
102
RTVSPropertyOp51
 70
     0
102
RTVSPropertyOp52
 70
     0
102
RTVSPropertyOp53
 70
     1
102
RTVSPropertyOp54
 70
     1
102
RTVSPropertyOp55
 70
     1
102
RTVSPropertyOp56
 70
     1
102
RTVSPropertyOp57
 70
     1
102
RTVSPropertyOp58
 70
     1
102
RTVSPropertyOp59
 70
     1
102
RTVSPropertyOp60
 70
     1
102
RTVSPropertyOp61
 70
     1
102
RTVSPropertyOp62
 70
     1
  0
XRECORD
  5
22C
102
{ACAD_REACTORS
330
22B
102
}
330
22B
100
AcDbXrecord
280
     1
102
RTVSPost2010Prop28
280
     0
102
RTVSPost2010PropOp28
 70
     1
102
RTVSPost2010Prop29
280
     1
102
RTVSPost2010PropOp29
 70
     1
102
RTVSPost2010Prop30
280
     1
102
RTVSPost2010PropOp30
 70
     1
102
RTVSPost2010Prop31
280
     0
102
RTVSPost2010PropOp31
 70
     1
102
RTVSPost2010Prop32
280
     0
102
RTVSPost2010PropOp32
 70
     1
102
RTVSPost2010Prop33
280
     0
102
RTVSPost2010PropOp33
 70
     1
102
RTVSPost2010Prop34
280
     0
102
RTVSPost2010PropOp34
 70
     1
102
RTVSPost2010Prop35
280
     0
102
RTVSPost2010PropOp35
 70
     1
102
RTVSPost2010Prop36
280
     0
102
RTVSPost2010PropOp36
 70
     1
102
RTVSPost2010Prop37
 90
       50
102
RTVSPost2010PropOp37
 70
     1
102
RTVSPost2010Prop38
140
0.0
102
RTVSPost2010PropOp38
 70
     1
102
RTVSPost2010Prop39
140
1.0
102
RTVSPost2010PropOp39
 70
     1
102
RTVSPost2010Prop40
 90
        0
102
RTVSPost2010PropOp40
 70
     1
102
RTVSPost2010Prop41ColorIndex
 90
       18
102
RTVSPost2010Prop41ColorRGB
 90
        0
102
RTVSPost2010PropOp41
 70
     1
102
RTVSPost2010Prop42
 90
       50
102
RTVSPost2010PropOp42
 70
     1
102
RTVSPost2010Prop43
 90
        3
102
RTVSPost2010PropOp43
 70
     1
102
RTVSPost2010Prop44ColorIndex
 90
        5
102
RTVSPost2010Prop44ColorRGB
 90
      255
102
RTVSPost2010PropOp44
 70
     1
102
RTVSPost2010Prop45
280
     0
102
RTVSPost2010PropOp45
 70
     1
102
RTVSPost2010Prop46
 90
       50
102
RTVSPost2010PropOp46
 70
     1
102
RTVSPost2010Prop47
 90
       50
102
RTVSPost2010PropOp47
 70
     1
102
RTVSPost2010Prop48
 90
       50
102
RTVSPost2010PropOp48
 70
     1
102
RTVSPost2010Prop49
280
     0
102
RTVSPost2010PropOp49
 70
     1
102
RTVSPost2010Prop50
 90
       50
102
RTVSPost2010PropOp50
 70
     1
102
RTVSPost2010Prop51ColorIndex
 90
      256
102
RTVSPost2010Prop51ColorRGB
 90
-16777216
102
RTVSPost2010PropOp51
 70
     0
102
RTVSPost2010Prop52
140
1.0
102
RTVSPost2010PropOp52
 70
     0
102
RTVSPost2010Prop53
 90
        2
102
RTVSPost2010PropOp53
 70
     1
102
RTVSPost2010Prop54
  1
strokes_ogs.tif
102
RTVSPost2010PropOp54
 70
     1
102
RTVSPost2010Prop55
280
     0
102
RTVSPost2010PropOp55
 70
     1
102
RTVSPost2010Prop56
140
1.0
102
RTVSPost2010PropOp56
 70
     1
102
RTVSPost2010Prop57
140
1.0
102
RTVSPost2010PropOp57
 70
     1
102
RTVSPropertyOp0
 70
     1
102
RTVSPropertyOp1
 70
     1
102
RTVSPropertyOp2
 70
     1
102
RTVSPropertyOp3
 70
     1
102
RTVSPropertyOp4
 70
     1
102
RTVSPropertyOp5
 70
     1
102
RTVSPropertyOp6
 70
     1
102
RTVSPropertyOp7
 70
     1
102
RTVSPropertyOp8
 70
     1
102
RTVSPropertyOp9
 70
     1
102
RTVSPropertyOp10
 70
     1
102
RTVSPropertyOp11
 70
     1
102
RTVSPropertyOp12
 70
     1
102
RTVSPropertyOp13
 70
     1
102
RTVSPropertyOp14
 70
     1
102
RTVSPropertyOp15
 70
     1
102
RTVSPropertyOp16
 70
     1
102
RTVSPropertyOp17
 70
     1
102
RTVSPropertyOp18
 70
     1
102
RTVSPropertyOp19
 70
     1
102
RTVSPropertyOp20
 70
     1
102
RTVSPropertyOp21
 70
     1
102
RTVSPropertyOp22
 70
     1
102
RTVSPropertyOp23
 70
     1
102
RTVSPropertyOp24
 70
     1
102
RTVSPropertyOp25
 70
     1
102
RTVSPropertyOp26
 70
     1
102
RTVSPropertyOp27
 70
     1
102
RTVSPropertyOp28
 70
     1
102
RTVSPropertyOp29
 70
     1
102
RTVSPropertyOp30
 70
     1
102
RTVSPropertyOp31
 70
     1
102
RTVSPropertyOp32
 70
     1
102
RTVSPropertyOp33
 70
     1
102
RTVSPropertyOp34
 70
     1
102
RTVSPropertyOp35
 70
     1
102
RTVSPropertyOp36
 70
     1
102
RTVSPropertyOp37
 70
     1
102
RTVSPropertyOp38
 70
     1
102
RTVSPropertyOp39
 70
     1
102
RTVSPropertyOp40
 70
     1
102
RTVSPropertyOp41
 70
     1
102
RTVSPropertyOp42
 70
     1
102
RTVSPropertyOp43
 70
     1
102
RTVSPropertyOp44
 70
     1
102
RTVSPropertyOp45
 70
     1
102
RTVSPropertyOp46
 70
     1
102
RTVSPropertyOp47
 70
     1
102
RTVSPropertyOp48
 70
     1
102
RTVSPropertyOp49
 70
     1
102
RTVSPropertyOp50
 70
     1
102
RTVSPropertyOp51
 70
     0
102
RTVSPropertyOp52
 70
     0
102
RTVSPropertyOp53
 70
     1
102
RTVSPropertyOp54
 70
     1
102
RTVSPropertyOp55
 70
     1
102
RTVSPropertyOp56
 70
     1
102
RTVSPropertyOp57
 70
     1
102
RTVSPropertyOp58
 70
     1
102
RTVSPropertyOp59
 70
     1
102
RTVSPropertyOp60
 70
     1
102
RTVSPropertyOp61
 70
     1
102
RTVSPropertyOp62
 70
     1
  0
XRECORD
  5
22E
102
{ACAD_REACTORS
330
22D
102
}
330
22D
100
AcDbXrecord
280
     1
102
RTVSPost2010Prop28
280
     0
102
RTVSPost2010PropOp28
 70
     1
102
RTVSPost2010Prop29
280
     1
102
RTVSPost2010PropOp29
 70
     1
102
RTVSPost2010Prop30
280
     1
102
RTVSPost2010PropOp30
 70
     1
102
RTVSPost2010Prop31
280
     0
102
RTVSPost2010PropOp31
 70
     1
102
RTVSPost2010Prop32
280
     0
102
RTVSPost2010PropOp32
 70
     1
102
RTVSPost2010Prop33
280
     0
102
RTVSPost2010PropOp33
 70
     1
102
RTVSPost2010Prop34
280
     0
102
RTVSPost2010PropOp34
 70
     1
102
RTVSPost2010Prop35
280
     0
102
RTVSPost2010PropOp35
 70
     1
102
RTVSPost2010Prop36
280
     0
102
RTVSPost2010PropOp36
 70
     1
102
RTVSPost2010Prop37
 90
       50
102
RTVSPost2010PropOp37
 70
     1
102
RTVSPost2010Prop38
140
0.0
102
RTVSPost2010PropOp38
 70
     1
102
RTVSPost2010Prop39
140
1.0
102
RTVSPost2010PropOp39
 70
     1
102
RTVSPost2010Prop40
 90
        0
102
RTVSPost2010PropOp40
 70
     1
102
RTVSPost2010Prop41ColorIndex
 90
       18
102
RTVSPost2010Prop41ColorRGB
 90
        0
102
RTVSPost2010PropOp41
 70
     1
102
RTVSPost2010Prop42
 90
       50
102
RTVSPost2010PropOp42
 70
     1
102
RTVSPost2010Prop43
 90
        3
102
RTVSPost2010PropOp43
 70
     1
102
RTVSPost2010Prop44ColorIndex
 90
        5
102
RTVSPost2010Prop44ColorRGB
 90
      255
102
RTVSPost2010PropOp44
 70
     1
102
RTVSPost2010Prop45
280
     0
102
RTVSPost2010PropOp45
 70
     1
102
RTVSPost2010Prop46
 90
       50
102
RTVSPost2010PropOp46
 70
     1
102
RTVSPost2010Prop47
 90
       50
102
RTVSPost2010PropOp47
 70
     1
102
RTVSPost2010Prop48
 90
       50
102
RTVSPost2010PropOp48
 70
     1
102
RTVSPost2010Prop49
280
     0
102
RTVSPost2010PropOp49
 70
     1
102
RTVSPost2010Prop50
 90
       50
102
RTVSPost2010PropOp50
 70
     1
102
RTVSPost2010Prop51ColorIndex
 90
      256
102
RTVSPost2010Prop51ColorRGB
 90
-16777216
102
RTVSPost2010PropOp51
 70
     0
102
RTVSPost2010Prop52
140
1.0
102
RTVSPost2010PropOp52
 70
     0
102
RTVSPost2010Prop53
 90
        2
102
RTVSPost2010PropOp53
 70
     1
102
RTVSPost2010Prop54
  1
strokes_ogs.tif
102
RTVSPost2010PropOp54
 70
     1
102
RTVSPost2010Prop55
280
     0
102
RTVSPost2010PropOp55
 70
     1
102
RTVSPost2010Prop56
140
1.0
102
RTVSPost2010PropOp56
 70
     1
102
RTVSPost2010Prop57
140
1.0
102
RTVSPost2010PropOp57
 70
     1
102
RTVSPropertyOp0
 70
     1
102
RTVSPropertyOp1
 70
     1
102
RTVSPropertyOp2
 70
     1
102
RTVSPropertyOp3
 70
     1
102
RTVSPropertyOp4
 70
     1
102
RTVSPropertyOp5
 70
     1
102
RTVSPropertyOp6
 70
     1
102
RTVSPropertyOp7
 70
     1
102
RTVSPropertyOp8
 70
     1
102
RTVSPropertyOp9
 70
     1
102
RTVSPropertyOp10
 70
     1
102
RTVSPropertyOp11
 70
     1
102
RTVSPropertyOp12
 70
     1
102
RTVSPropertyOp13
 70
     1
102
RTVSPropertyOp14
 70
     1
102
RTVSPropertyOp15
 70
     1
102
RTVSPropertyOp16
 70
     1
102
RTVSPropertyOp17
 70
     1
102
RTVSPropertyOp18
 70
     1
102
RTVSPropertyOp19
 70
     1
102
RTVSPropertyOp20
 70
     1
102
RTVSPropertyOp21
 70
     1
102
RTVSPropertyOp22
 70
     1
102
RTVSPropertyOp23
 70
     1
102
RTVSPropertyOp24
 70
     1
102
RTVSPropertyOp25
 70
     1
102
RTVSPropertyOp26
 70
     1
102
RTVSPropertyOp27
 70
     1
102
RTVSPropertyOp28
 70
     1
102
RTVSPropertyOp29
 70
     1
102
RTVSPropertyOp30
 70
     1
102
RTVSPropertyOp31
 70
     1
102
RTVSPropertyOp32
 70
     1
102
RTVSPropertyOp33
 70
     1
102
RTVSPropertyOp34
 70
     1
102
RTVSPropertyOp35
 70
     1
102
RTVSPropertyOp36
 70
     1
102
RTVSPropertyOp37
 70
     1
102
RTVSPropertyOp38
 70
     1
102
RTVSPropertyOp39
 70
     1
102
RTVSPropertyOp40
 70
     1
102
RTVSPropertyOp41
 70
     1
102
RTVSPropertyOp42
 70
     1
102
RTVSPropertyOp43
 70
     1
102
RTVSPropertyOp44
 70
     1
102
RTVSPropertyOp45
 70
     1
102
RTVSPropertyOp46
 70
     1
102
RTVSPropertyOp47
 70
     1
102
RTVSPropertyOp48
 70
     1
102
RTVSPropertyOp49
 70
     1
102
RTVSPropertyOp50
 70
     1
102
RTVSPropertyOp51
 70
     0
102
RTVSPropertyOp52
 70
     0
102
RTVSPropertyOp53
 70
     1
102
RTVSPropertyOp54
 70
     1
102
RTVSPropertyOp55
 70
     1
102
RTVSPropertyOp56
 70
     1
102
RTVSPropertyOp57
 70
     1
102
RTVSPropertyOp58
 70
     1
102
RTVSPropertyOp59
 70
     1
102
RTVSPropertyOp60
 70
     1
102
RTVSPropertyOp61
 70
     1
102
RTVSPropertyOp62
 70
     1
  0
XRECORD
  5
224
102
{ACAD_REACTORS
330
223
102
}
330
223
100
AcDbXrecord
280
     1
102
RTVSPost2010Prop28
280
     0
102
RTVSPost2010PropOp28
 70
     1
102
RTVSPost2010Prop29
280
     1
102
RTVSPost2010PropOp29
 70
     1
102
RTVSPost2010Prop30
280
     1
102
RTVSPost2010PropOp30
 70
     1
102
RTVSPost2010Prop31
280
     0
102
RTVSPost2010PropOp31
 70
     1
102
RTVSPost2010Prop32
280
     0
102
RTVSPost2010PropOp32
 70
     1
102
RTVSPost2010Prop33
280
     0
102
RTVSPost2010PropOp33
 70
     1
102
RTVSPost2010Prop34
280
     0
102
RTVSPost2010PropOp34
 70
     1
102
RTVSPost2010Prop35
280
     0
102
RTVSPost2010PropOp35
 70
     1
102
RTVSPost2010Prop36
280
     0
102
RTVSPost2010PropOp36
 70
     1
102
RTVSPost2010Prop37
 90
       50
102
RTVSPost2010PropOp37
 70
     1
102
RTVSPost2010Prop38
140
0.0
102
RTVSPost2010PropOp38
 70
     1
102
RTVSPost2010Prop39
140
1.0
102
RTVSPost2010PropOp39
 70
     1
102
RTVSPost2010Prop40
 90
        0
102
RTVSPost2010PropOp40
 70
     1
102
RTVSPost2010Prop41ColorIndex
 90
       18
102
RTVSPost2010Prop41ColorRGB
 90
        0
102
RTVSPost2010PropOp41
 70
     1
102
RTVSPost2010Prop42
 90
       50
102
RTVSPost2010PropOp42
 70
     1
102
RTVSPost2010Prop43
 90
        3
102
RTVSPost2010PropOp43
 70
     1
102
RTVSPost2010Prop44ColorIndex
 90
        5
102
RTVSPost2010Prop44ColorRGB
 90
      255
102
RTVSPost2010PropOp44
 70
     1
102
RTVSPost2010Prop45
280
     0
102
RTVSPost2010PropOp45
 70
     1
102
RTVSPost2010Prop46
 90
       50
102
RTVSPost2010PropOp46
 70
     1
102
RTVSPost2010Prop47
 90
       50
102
RTVSPost2010PropOp47
 70
     1
102
RTVSPost2010Prop48
 90
       50
102
RTVSPost2010PropOp48
 70
     1
102
RTVSPost2010Prop49
280
     0
102
RTVSPost2010PropOp49
 70
     1
102
RTVSPost2010Prop50
 90
       50
102
RTVSPost2010PropOp50
 70
     1
102
RTVSPost2010Prop51ColorIndex
 90
      256
102
RTVSPost2010Prop51ColorRGB
 90
-16777216
102
RTVSPost2010PropOp51
 70
     0
102
RTVSPost2010Prop52
140
1.0
102
RTVSPost2010PropOp52
 70
     0
102
RTVSPost2010Prop53
 90
        2
102
RTVSPost2010PropOp53
 70
     1
102
RTVSPost2010Prop54
  1
strokes_ogs.tif
102
RTVSPost2010PropOp54
 70
     1
102
RTVSPost2010Prop55
280
     0
102
RTVSPost2010PropOp55
 70
     1
102
RTVSPost2010Prop56
140
1.0
102
RTVSPost2010PropOp56
 70
     1
102
RTVSPost2010Prop57
140
1.0
102
RTVSPost2010PropOp57
 70
     1
102
RTVSPropertyOp0
 70
     1
102
RTVSPropertyOp1
 70
     1
102
RTVSPropertyOp2
 70
     1
102
RTVSPropertyOp3
 70
     1
102
RTVSPropertyOp4
 70
     1
102
RTVSPropertyOp5
 70
     1
102
RTVSPropertyOp6
 70
     1
102
RTVSPropertyOp7
 70
     1
102
RTVSPropertyOp8
 70
     1
102
RTVSPropertyOp9
 70
     1
102
RTVSPropertyOp10
 70
     1
102
RTVSPropertyOp11
 70
     1
102
RTVSPropertyOp12
 70
     1
102
RTVSPropertyOp13
 70
     1
102
RTVSPropertyOp14
 70
     1
102
RTVSPropertyOp15
 70
     1
102
RTVSPropertyOp16
 70
     1
102
RTVSPropertyOp17
 70
     1
102
RTVSPropertyOp18
 70
     1
102
RTVSPropertyOp19
 70
     1
102
RTVSPropertyOp20
 70
     1
102
RTVSPropertyOp21
 70
     1
102
RTVSPropertyOp22
 70
     1
102
RTVSPropertyOp23
 70
     1
102
RTVSPropertyOp24
 70
     1
102
RTVSPropertyOp25
 70
     1
102
RTVSPropertyOp26
 70
     1
102
RTVSPropertyOp27
 70
     1
102
RTVSPropertyOp28
 70
     1
102
RTVSPropertyOp29
 70
     1
102
RTVSPropertyOp30
 70
     1
102
RTVSPropertyOp31
 70
     1
102
RTVSPropertyOp32
 70
     1
102
RTVSPropertyOp33
 70
     1
102
RTVSPropertyOp34
 70
     1
102
RTVSPropertyOp35
 70
     1
102
RTVSPropertyOp36
 70
     1
102
RTVSPropertyOp37
 70
     1
102
RTVSPropertyOp38
 70
     1
102
RTVSPropertyOp39
 70
     1
102
RTVSPropertyOp40
 70
     1
102
RTVSPropertyOp41
 70
     1
102
RTVSPropertyOp42
 70
     1
102
RTVSPropertyOp43
 70
     1
102
RTVSPropertyOp44
 70
     1
102
RTVSPropertyOp45
 70
     1
102
RTVSPropertyOp46
 70
     1
102
RTVSPropertyOp47
 70
     1
102
RTVSPropertyOp48
 70
     1
102
RTVSPropertyOp49
 70
     1
102
RTVSPropertyOp50
 70
     1
102
RTVSPropertyOp51
 70
     0
102
RTVSPropertyOp52
 70
     0
102
RTVSPropertyOp53
 70
     1
102
RTVSPropertyOp54
 70
     1
102
RTVSPropertyOp55
 70
     1
102
RTVSPropertyOp56
 70
     1
102
RTVSPropertyOp57
 70
     1
102
RTVSPropertyOp58
 70
     1
102
RTVSPropertyOp59
 70
     1
102
RTVSPropertyOp60
 70
     1
102
RTVSPropertyOp61
 70
     1
102
RTVSPropertyOp62
 70
     1
  0
XRECORD
  5
218
102
{ACAD_REACTORS
330
217
102
}
330
217
100
AcDbXrecord
280
     1
102
RTVSPost2010Prop28
280
     0
102
RTVSPost2010PropOp28
 70
     1
102
RTVSPost2010Prop29
280
     1
102
RTVSPost2010PropOp29
 70
     1
102
RTVSPost2010Prop30
280
     1
102
RTVSPost2010PropOp30
 70
     1
102
RTVSPost2010Prop31
280
     0
102
RTVSPost2010PropOp31
 70
     1
102
RTVSPost2010Prop32
280
     0
102
RTVSPost2010PropOp32
 70
     1
102
RTVSPost2010Prop33
280
     0
102
RTVSPost2010PropOp33
 70
     1
102
RTVSPost2010Prop34
280
     0
102
RTVSPost2010PropOp34
 70
     1
102
RTVSPost2010Prop35
280
     0
102
RTVSPost2010PropOp35
 70
     1
102
RTVSPost2010Prop36
280
     0
102
RTVSPost2010PropOp36
 70
     1
102
RTVSPost2010Prop37
 90
       50
102
RTVSPost2010PropOp37
 70
     1
102
RTVSPost2010Prop38
140
0.0
102
RTVSPost2010PropOp38
 70
     1
102
RTVSPost2010Prop39
140
1.0
102
RTVSPost2010PropOp39
 70
     1
102
RTVSPost2010Prop40
 90
        0
102
RTVSPost2010PropOp40
 70
     1
102
RTVSPost2010Prop41ColorIndex
 90
       18
102
RTVSPost2010Prop41ColorRGB
 90
        0
102
RTVSPost2010PropOp41
 70
     1
102
RTVSPost2010Prop42
 90
       50
102
RTVSPost2010PropOp42
 70
     1
102
RTVSPost2010Prop43
 90
        3
102
RTVSPost2010PropOp43
 70
     1
102
RTVSPost2010Prop44ColorIndex
 90
        5
102
RTVSPost2010Prop44ColorRGB
 90
      255
102
RTVSPost2010PropOp44
 70
     1
102
RTVSPost2010Prop45
280
     0
102
RTVSPost2010PropOp45
 70
     1
102
RTVSPost2010Prop46
 90
       50
102
RTVSPost2010PropOp46
 70
     1
102
RTVSPost2010Prop47
 90
       50
102
RTVSPost2010PropOp47
 70
     1
102
RTVSPost2010Prop48
 90
       50
102
RTVSPost2010PropOp48
 70
     1
102
RTVSPost2010Prop49
280
     0
102
RTVSPost2010PropOp49
 70
     1
102
RTVSPost2010Prop50
 90
       50
102
RTVSPost2010PropOp50
 70
     1
102
RTVSPost2010Prop51ColorIndex
 90
      256
102
RTVSPost2010Prop51ColorRGB
 90
-16777216
102
RTVSPost2010PropOp51
 70
     0
102
RTVSPost2010Prop52
140
1.0
102
RTVSPost2010PropOp52
 70
     0
102
RTVSPost2010Prop53
 90
        2
102
RTVSPost2010PropOp53
 70
     1
102
RTVSPost2010Prop54
  1
strokes_ogs.tif
102
RTVSPost2010PropOp54
 70
     1
102
RTVSPost2010Prop55
280
     0
102
RTVSPost2010PropOp55
 70
     1
102
RTVSPost2010Prop56
140
1.0
102
RTVSPost2010PropOp56
 70
     1
102
RTVSPost2010Prop57
140
1.0
102
RTVSPost2010PropOp57
 70
     1
102
RTVSPropertyOp0
 70
     1
102
RTVSPropertyOp1
 70
     1
102
RTVSPropertyOp2
 70
     1
102
RTVSPropertyOp3
 70
     1
102
RTVSPropertyOp4
 70
     1
102
RTVSPropertyOp5
 70
     1
102
RTVSPropertyOp6
 70
     1
102
RTVSPropertyOp7
 70
     1
102
RTVSPropertyOp8
 70
     1
102
RTVSPropertyOp9
 70
     1
102
RTVSPropertyOp10
 70
     1
102
RTVSPropertyOp11
 70
     1
102
RTVSPropertyOp12
 70
     1
102
RTVSPropertyOp13
 70
     1
102
RTVSPropertyOp14
 70
     1
102
RTVSPropertyOp15
 70
     1
102
RTVSPropertyOp16
 70
     1
102
RTVSPropertyOp17
 70
     1
102
RTVSPropertyOp18
 70
     1
102
RTVSPropertyOp19
 70
     1
102
RTVSPropertyOp20
 70
     1
102
RTVSPropertyOp21
 70
     1
102
RTVSPropertyOp22
 70
     1
102
RTVSPropertyOp23
 70
     1
102
RTVSPropertyOp24
 70
     1
102
RTVSPropertyOp25
 70
     1
102
RTVSPropertyOp26
 70
     1
102
RTVSPropertyOp27
 70
     1
102
RTVSPropertyOp28
 70
     1
102
RTVSPropertyOp29
 70
     1
102
RTVSPropertyOp30
 70
     1
102
RTVSPropertyOp31
 70
     1
102
RTVSPropertyOp32
 70
     1
102
RTVSPropertyOp33
 70
     1
102
RTVSPropertyOp34
 70
     1
102
RTVSPropertyOp35
 70
     1
102
RTVSPropertyOp36
 70
     1
102
RTVSPropertyOp37
 70
     1
102
RTVSPropertyOp38
 70
     1
102
RTVSPropertyOp39
 70
     1
102
RTVSPropertyOp40
 70
     1
102
RTVSPropertyOp41
 70
     1
102
RTVSPropertyOp42
 70
     1
102
RTVSPropertyOp43
 70
     1
102
RTVSPropertyOp44
 70
     1
102
RTVSPropertyOp45
 70
     1
102
RTVSPropertyOp46
 70
     1
102
RTVSPropertyOp47
 70
     1
102
RTVSPropertyOp48
 70
     1
102
RTVSPropertyOp49
 70
     1
102
RTVSPropertyOp50
 70
     1
102
RTVSPropertyOp51
 70
     0
102
RTVSPropertyOp52
 70
     0
102
RTVSPropertyOp53
 70
     1
102
RTVSPropertyOp54
 70
     1
102
RTVSPropertyOp55
 70
     1
102
RTVSPropertyOp56
 70
     1
102
RTVSPropertyOp57
 70
     1
102
RTVSPropertyOp58
 70
     1
102
RTVSPropertyOp59
 70
     1
102
RTVSPropertyOp60
 70
     1
102
RTVSPropertyOp61
 70
     1
102
RTVSPropertyOp62
 70
     1
  0
XRECORD
  5
230
102
{ACAD_REACTORS
330
22F
102
}
330
22F
100
AcDbXrecord
280
     1
102
RTVSPost2010Prop28
280
     0
102
RTVSPost2010PropOp28
 70
     1
102
RTVSPost2010Prop29
280
     1
102
RTVSPost2010PropOp29
 70
     1
102
RTVSPost2010Prop30
280
     1
102
RTVSPost2010PropOp30
 70
     1
102
RTVSPost2010Prop31
280
     0
102
RTVSPost2010PropOp31
 70
     1
102
RTVSPost2010Prop32
280
     0
102
RTVSPost2010PropOp32
 70
     1
102
RTVSPost2010Prop33
280
     0
102
RTVSPost2010PropOp33
 70
     1
102
RTVSPost2010Prop34
280
     0
102
RTVSPost2010PropOp34
 70
     1
102
RTVSPost2010Prop35
280
     0
102
RTVSPost2010PropOp35
 70
     1
102
RTVSPost2010Prop36
280
     0
102
RTVSPost2010PropOp36
 70
     1
102
RTVSPost2010Prop37
 90
       50
102
RTVSPost2010PropOp37
 70
     1
102
RTVSPost2010Prop38
140
0.0
102
RTVSPost2010PropOp38
 70
     1
102
RTVSPost2010Prop39
140
1.0
102
RTVSPost2010PropOp39
 70
     1
102
RTVSPost2010Prop40
 90
        0
102
RTVSPost2010PropOp40
 70
     1
102
RTVSPost2010Prop41ColorIndex
 90
       18
102
RTVSPost2010Prop41ColorRGB
 90
        0
102
RTVSPost2010PropOp41
 70
     1
102
RTVSPost2010Prop42
 90
       50
102
RTVSPost2010PropOp42
 70
     1
102
RTVSPost2010Prop43
 90
        3
102
RTVSPost2010PropOp43
 70
     1
102
RTVSPost2010Prop44ColorIndex
 90
        5
102
RTVSPost2010Prop44ColorRGB
 90
      255
102
RTVSPost2010PropOp44
 70
     1
102
RTVSPost2010Prop45
280
     0
102
RTVSPost2010PropOp45
 70
     1
102
RTVSPost2010Prop46
 90
       50
102
RTVSPost2010PropOp46
 70
     1
102
RTVSPost2010Prop47
 90
       50
102
RTVSPost2010PropOp47
 70
     1
102
RTVSPost2010Prop48
 90
       50
102
RTVSPost2010PropOp48
 70
     1
102
RTVSPost2010Prop49
280
     0
102
RTVSPost2010PropOp49
 70
     1
102
RTVSPost2010Prop50
 90
       50
102
RTVSPost2010PropOp50
 70
     1
102
RTVSPost2010Prop51ColorIndex
 90
      256
102
RTVSPost2010Prop51ColorRGB
 90
-16777216
102
RTVSPost2010PropOp51
 70
     0
102
RTVSPost2010Prop52
140
1.0
102
RTVSPost2010PropOp52
 70
     0
102
RTVSPost2010Prop53
 90
        2
102
RTVSPost2010PropOp53
 70
     1
102
RTVSPost2010Prop54
  1
strokes_ogs.tif
102
RTVSPost2010PropOp54
 70
     1
102
RTVSPost2010Prop55
280
     0
102
RTVSPost2010PropOp55
 70
     1
102
RTVSPost2010Prop56
140
1.0
102
RTVSPost2010PropOp56
 70
     1
102
RTVSPost2010Prop57
140
1.0
102
RTVSPost2010PropOp57
 70
     1
102
RTVSPropertyOp0
 70
     1
102
RTVSPropertyOp1
 70
     1
102
RTVSPropertyOp2
 70
     1
102
RTVSPropertyOp3
 70
     1
102
RTVSPropertyOp4
 70
     1
102
RTVSPropertyOp5
 70
     1
102
RTVSPropertyOp6
 70
     1
102
RTVSPropertyOp7
 70
     1
102
RTVSPropertyOp8
 70
     1
102
RTVSPropertyOp9
 70
     1
102
RTVSPropertyOp10
 70
     1
102
RTVSPropertyOp11
 70
     1
102
RTVSPropertyOp12
 70
     1
102
RTVSPropertyOp13
 70
     1
102
RTVSPropertyOp14
 70
     1
102
RTVSPropertyOp15
 70
     1
102
RTVSPropertyOp16
 70
     1
102
RTVSPropertyOp17
 70
     1
102
RTVSPropertyOp18
 70
     1
102
RTVSPropertyOp19
 70
     1
102
RTVSPropertyOp20
 70
     1
102
RTVSPropertyOp21
 70
     1
102
RTVSPropertyOp22
 70
     1
102
RTVSPropertyOp23
 70
     1
102
RTVSPropertyOp24
 70
     1
102
RTVSPropertyOp25
 70
     1
102
RTVSPropertyOp26
 70
     1
102
RTVSPropertyOp27
 70
     1
102
RTVSPropertyOp28
 70
     1
102
RTVSPropertyOp29
 70
     1
102
RTVSPropertyOp30
 70
     1
102
RTVSPropertyOp31
 70
     1
102
RTVSPropertyOp32
 70
     1
102
RTVSPropertyOp33
 70
     1
102
RTVSPropertyOp34
 70
     1
102
RTVSPropertyOp35
 70
     1
102
RTVSPropertyOp36
 70
     1
102
RTVSPropertyOp37
 70
     1
102
RTVSPropertyOp38
 70
     1
102
RTVSPropertyOp39
 70
     1
102
RTVSPropertyOp40
 70
     1
102
RTVSPropertyOp41
 70
     1
102
RTVSPropertyOp42
 70
     1
102
RTVSPropertyOp43
 70
     1
102
RTVSPropertyOp44
 70
     1
102
RTVSPropertyOp45
 70
     1
102
RTVSPropertyOp46
 70
     1
102
RTVSPropertyOp47
 70
     1
102
RTVSPropertyOp48
 70
     1
102
RTVSPropertyOp49
 70
     1
102
RTVSPropertyOp50
 70
     1
102
RTVSPropertyOp51
 70
     0
102
RTVSPropertyOp52
 70
     0
102
RTVSPropertyOp53
 70
     1
102
RTVSPropertyOp54
 70
     1
102
RTVSPropertyOp55
 70
     1
102
RTVSPropertyOp56
 70
     1
102
RTVSPropertyOp57
 70
     1
102
RTVSPropertyOp58
 70
     1
102
RTVSPropertyOp59
 70
     1
102
RTVSPropertyOp60
 70
     1
102
RTVSPropertyOp61
 70
     1
102
RTVSPropertyOp62
 70
     1
  0
ENDSEC
  0
EOF
