  0
SECTION
  2
HEADER
  9
$ACADVER
  1
AC1015
  9
$ACADMAINTVER
 70
    20
  9
$DWGCODEPAGE
  3
ANSI_1252
  9
$INSBASE
 10
0.0
 20
0.0
 30
0.0
  9
$EXTMIN
 10
-79.72975000000005
 20
-25.911841
 30
0.0
  9
$EXTMAX
 10
34.773644
 20
36.99040099999999
 30
0.0
  9
$LIMMIN
 10
0.0
 20
0.0
  9
$LIMMAX
 10
12.0
 20
9.0
  9
$ORTHOMODE
 70
     0
  9
$REGENMODE
 70
     1
  9
$FILLMODE
 70
     1
  9
$QTEXTMODE
 70
     0
  9
$MIRRTEXT
 70
     0
  9
$LTSCALE
 40
1.0
  9
$ATTMODE
 70
     1
  9
$TEXTSIZE
 40
0.0
  9
$TRACEWID
 40
0.05
  9
$TEXTSTYLE
  7
Standard
  9
$CLAYER
  8
0
  9
$CELTYPE
  6
ByLayer
  9
$CECOLOR
 62
   256
  9
$CELTSCALE
 40
1.0
  9
$DISPSILH
 70
     0
  9
$DIMSCALE
 40
1.0
  9
$DIMASZ
 40
0.18
  9
$DIMEXO
 40
0.0625
  9
$DIMDLI
 40
0.38
  9
$DIMRND
 40
0.0
  9
$DIMDLE
 40
0.0
  9
$DIMEXE
 40
0.18
  9
$DIMTP
 40
0.0
  9
$DIMTM
 40
0.0
  9
$DIMTXT
 40
0.18
  9
$DIMCEN
 40
0.09
  9
$DIMTSZ
 40
0.0
  9
$DIMTOL
 70
     0
  9
$DIMLIM
 70
     0
  9
$DIMTIH
 70
     1
  9
$DIMTOH
 70
     1
  9
$DIMSE1
 70
     0
  9
$DIMSE2
 70
     0
  9
$DIMTAD
 70
     0
  9
$DIMZIN
 70
     0
  9
$DIMBLK
  1

  9
$DIMASO
 70
     1
  9
$DIMSHO
 70
     1
  9
$DIMPOST
  1

  9
$DIMAPOST
  1

  9
$DIMALT
 70
     0
  9
$DIMALTD
 70
     2
  9
$DIMALTF
 40
25.4
  9
$DIMLFAC
 40
1.0
  9
$DIMTOFL
 70
     0
  9
$DIMTVP
 40
0.0
  9
$DIMTIX
 70
     0
  9
$DIMSOXD
 70
     0
  9
$DIMSAH
 70
     0
  9
$DIMBLK1
  1

  9
$DIMBLK2
  1

  9
$DIMSTYLE
  2
Standard
  9
$DIMCLRD
 70
     0
  9
$DIMCLRE
 70
     0
  9
$DIMCLRT
 70
     0
  9
$DIMTFAC
 40
1.0
  9
$DIMGAP
 40
0.09
  9
$DIMJUST
 70
     0
  9
$DIMSD1
 70
     0
  9
$DIMSD2
 70
     0
  9
$DIMTOLJ
 70
     1
  9
$DIMTZIN
 70
     0
  9
$DIMALTZ
 70
     0
  9
$DIMALTTZ
 70
     0
  9
$DIMUPT
 70
     0
  9
$DIMDEC
 70
     4
  9
$DIMTDEC
 70
     4
  9
$DIMALTU
 70
     2
  9
$DIMALTTD
 70
     2
  9
$DIMTXSTY
  7
Standard
  9
$DIMAUNIT
 70
     0
  9
$DIMADEC
 70
     0
  9
$DIMALTRND
 40
0.0
  9
$DIMAZIN
 70
     0
  9
$DIMDSEP
 70
    46
  9
$DIMATFIT
 70
     3
  9
$DIMFRAC
 70
     0
  9
$DIMLDRBLK
  1

  9
$DIMLUNIT
 70
     2
  9
$DIMLWD
 70
    -2
  9
$DIMLWE
 70
    -2
  9
$DIMTMOVE
 70
     0
  9
$LUNITS
 70
     2
  9
$LUPREC
 70
     4
  9
$SKETCHINC
 40
0.1
  9
$FILLETRAD
 40
0.0
  9
$AUNITS
 70
     0
  9
$AUPREC
 70
     0
  9
$MENU
  1
.
  9
$ELEVATION
 40
0.0
  9
$PELEVATION
 40
0.0
  9
$THICKNESS
 40
0.0
  9
$LIMCHECK
 70
     0
  9
$CHAMFERA
 40
0.0
  9
$CHAMFERB
 40
0.0
  9
$CHAMFERC
 40
0.0
  9
$CHAMFERD
 40
0.0
  9
$SKPOLY
 70
     0
  9
$TDCREATE
 40
2456818.987055069
  9
$TDUCREATE
 40
2456818.903721736
  9
$TDUPDATE
 40
2456818.987061493
  9
$TDUUPDATE
 40
2456818.903728160
  9
$TDINDWG
 40
0.0000073727
  9
$TDUSRTIMER
 40
0.0000073727
  9
$USRTIMER
 70
     1
  9
$ANGBASE
 50
0.0
  9
$ANGDIR
 70
     0
  9
$PDMODE
 70
     0
  9
$PDSIZE
 40
0.0
  9
$PLINEWID
 40
0.0
  9
$SPLFRAME
 70
     0
  9
$SPLINETYPE
 70
     6
  9
$SPLINESEGS
 70
     8
  9
$HANDSEED
  5
23F
  9
$SURFTAB1
 70
     6
  9
$SURFTAB2
 70
     6
  9
$SURFTYPE
 70
     6
  9
$SURFU
 70
     6
  9
$SURFV
 70
     6
  9
$UCSBASE
  2

  9
$UCSNAME
  2

  9
$UCSORG
 10
0.0
 20
0.0
 30
0.0
  9
$UCSXDIR
 10
1.0
 20
0.0
 30
0.0
  9
$UCSYDIR
 10
0.0
 20
1.0
 30
0.0
  9
$UCSORTHOREF
  2

  9
$UCSORTHOVIEW
 70
     0
  9
$UCSORGTOP
 10
0.0
 20
0.0
 30
0.0
  9
$UCSORGBOTTOM
 10
0.0
 20
0.0
 30
0.0
  9
$UCSORGLEFT
 10
0.0
 20
0.0
 30
0.0
  9
$UCSORGRIGHT
 10
0.0
 20
0.0
 30
0.0
  9
$UCSORGFRONT
 10
0.0
 20
0.0
 30
0.0
  9
$UCSORGBACK
 10
0.0
 20
0.0
 30
0.0
  9
$PUCSBASE
  2

  9
$PUCSNAME
  2

  9
$PUCSORG
 10
0.0
 20
0.0
 30
0.0
  9
$PUCSXDIR
 10
1.0
 20
0.0
 30
0.0
  9
$PUCSYDIR
 10
0.0
 20
1.0
 30
0.0
  9
$PUCSORTHOREF
  2

  9
$PUCSORTHOVIEW
 70
     0
  9
$PUCSORGTOP
 10
0.0
 20
0.0
 30
0.0
  9
$PUCSORGBOTTOM
 10
0.0
 20
0.0
 30
0.0
  9
$PUCSORGLEFT
 10
0.0
 20
0.0
 30
0.0
  9
$PUCSORGRIGHT
 10
0.0
 20
0.0
 30
0.0
  9
$PUCSORGFRONT
 10
0.0
 20
0.0
 30
0.0
  9
$PUCSORGBACK
 10
0.0
 20
0.0
 30
0.0
  9
$USERI1
 70
     0
  9
$USERI2
 70
     0
  9
$USERI3
 70
     0
  9
$USERI4
 70
     0
  9
$USERI5
 70
     0
  9
$USERR1
 40
0.0
  9
$USERR2
 40
0.0
  9
$USERR3
 40
0.0
  9
$USERR4
 40
0.0
  9
$USERR5
 40
0.0
  9
$WORLDVIEW
 70
     1
  9
$SHADEDGE
 70
     3
  9
$SHADEDIF
 70
    70
  9
$TILEMODE
 70
     1
  9
$MAXACTVP
 70
    64
  9
$PINSBASE
 10
0.0
 20
0.0
 30
0.0
  9
$PLIMCHECK
 70
     0
  9
$PEXTMIN
 10
1.000000000000000E+20
 20
1.000000000000000E+20
 30
1.000000000000000E+20
  9
$PEXTMAX
 10
-1.000000000000000E+20
 20
-1.000000000000000E+20
 30
-1.000000000000000E+20
  9
$PLIMMIN
 10
0.0
 20
0.0
  9
$PLIMMAX
 10
12.0
 20
9.0
  9
$UNITMODE
 70
     0
  9
$VISRETAIN
 70
     1
  9
$PLINEGEN
 70
     0
  9
$PSLTSCALE
 70
     1
  9
$TREEDEPTH
 70
  3020
  9
$CMLSTYLE
  2
Standard
  9
$CMLJUST
 70
     0
  9
$CMLSCALE
 40
1.0
  9
$PROXYGRAPHICS
 70
     1
  9
$MEASUREMENT
 70
     0
  9
$CELWEIGHT
370
    -1
  9
$ENDCAPS
280
     0
  9
$JOINSTYLE
280
     0
  9
$LWDISPLAY
290
     0
  9
$INSUNITS
 70
     4
  9
$HYPERLINKBASE
  1

  9
$STYLESHEET
  1

  9
$XEDIT
290
     1
  9
$CEPSNTYPE
380
     0
  9
$PSTYLEMODE
290
     1
  9
$FINGERPRINTGUID
  2
{82B88732-888D-4EA9-B522-39DCBEB1FB00}
  9
$VERSIONGUID
  2
{215E0A78-0586-4C7D-85A5-059D878179EB}
  9
$EXTNAMES
290
     1
  9
$PSVPSCALE
 40
0.0
  9
$OLESTARTUP
290
     0
  0
ENDSEC
  0
SECTION
  2
CLASSES
  0
CLASS
  1
RASTERVARIABLES
  2
AcDbRasterVariables
  3
ISM
 90
        0
280
     0
281
     0
  0
CLASS
  1
ACDBDICTIONARYWDFLT
  2
AcDbDictionaryWithDefault
  3
ObjectDBX Classes
 90
        0
280
     0
281
     0
  0
CLASS
  1
MATERIAL
  2
AcDbMaterial
  3
ObjectDBX Classes
 90
     1153
280
     0
281
     0
  0
CLASS
  1
VISUALSTYLE
  2
AcDbVisualStyle
  3
ObjectDBX Classes
 90
     4095
280
     0
281
     0
  0
CLASS
  1
TABLESTYLE
  2
AcDbTableStyle
  3
ObjectDBX Classes
 90
     4095
280
     0
281
     0
  0
CLASS
  1
SCALE
  2
AcDbScale
  3
ObjectDBX Classes
 90
     1153
280
     0
281
     0
  0
CLASS
  1
MLEADERSTYLE
  2
AcDbMLeaderStyle
  3
ACDB_MLEADERSTYLE_CLASS
 90
     4095
280
     0
281
     0
  0
CLASS
  1
ACDBSECTIONVIEWSTYLE
  2
AcDbSectionViewStyle
  3
ObjectDBX Classes
 90
     1025
280
     0
281
     0
  0
CLASS
  1
ACDBDETAILVIEWSTYLE
  2
AcDbDetailViewStyle
  3
ObjectDBX Classes
 90
     1025
280
     0
281
     0
  0
CLASS
  1
EXACXREFPANELOBJECT
  2
ExAcXREFPanelObject
  3
EXAC_ESW
 90
     1025
280
     0
281
     0
  0
CLASS
  1
NPOCOLLECTION
  2
AcDbImpNonPersistentObjectsCollection
  3
ObjectDBX Classes
 90
     1153
280
     0
281
     0
  0
CLASS
  1
DICTIONARYVAR
  2
AcDbDictionaryVar
  3
ObjectDBX Classes
 90
        0
280
     0
281
     0
  0
CLASS
  1
CELLSTYLEMAP
  2
AcDbCellStyleMap
  3
ObjectDBX Classes
 90
     1152
280
     0
281
     0
  0
CLASS
  1
ACDBPLACEHOLDER
  2
AcDbPlaceHolder
  3
ObjectDBX Classes
 90
        0
280
     0
281
     0
  0
CLASS
  1
LAYOUT
  2
AcDbLayout
  3
ObjectDBX Classes
 90
        0
280
     0
281
     0
  0
ENDSEC
  0
SECTION
  2
TABLES
  0
TABLE
  2
VPORT
  5
17E
330
0
100
AcDbSymbolTable
 70
     1
  0
VPORT
  5
1
330
17E
100
AcDbSymbolTableRecord
100
AcDbViewportTableRecord
  2
*Active
 70
     0
 10
0.0
 20
0.0
 11
1.0
 21
1.0
 12
-22.47805300000004
 22
5.539279999999994
 13
0.0
 23
0.0
 14
0.5
 24
0.5
 15
10.0
 25
10.0
 16
0.0
 26
0.0
 36
1.0
 17
0.0
 27
0.0
 37
0.0
 40
70.39299277511961
 41
2.220359281437125
 42
50.0
 43
0.0
 44
0.0
 50
0.0
 51
0.0
 71
     0
 72
   100
 73
     1
 74
     1
 75
     0
 76
     0
 77
     0
 78
     0
281
     0
 65
     1
110
0.0
120
0.0
130
0.0
111
1.0
121
0.0
131
0.0
112
0.0
122
1.0
132
0.0
 79
     0
146
0.0
1001
ACAD_NAV_VCDISPLAY
1070
     3
  0
ENDTAB
  0
TABLE
  2
LTYPE
  5
17F
330
0
100
AcDbSymbolTable
 70
     8
  0
LTYPE
  5
14
330
17F
100
AcDbSymbolTableRecord
100
AcDbLinetypeTableRecord
  2
ByBlock
 70
     0
  3

 72
    65
 73
     0
 40
0.0
  0
LTYPE
  5
15
330
17F
100
AcDbSymbolTableRecord
100
AcDbLinetypeTableRecord
  2
ByLayer
 70
     0
  3

 72
    65
 73
     0
 40
0.0
  0
LTYPE
  5
16
330
17F
100
AcDbSymbolTableRecord
100
AcDbLinetypeTableRecord
  2
CONTINUOUS
 70
     0
  3
Solid line
 72
    65
 73
     0
 40
0.0
  0
LTYPE
  5
3C
330
17F
100
AcDbSymbolTableRecord
100
AcDbLinetypeTableRecord
  2
DASHED
 70
     0
  3
__ __ __ __ __ __ __ __ __
 72
    65
 73
     2
 40
25.72
 49
12.86
 74
     0
 49
-12.86
 74
     0
  0
LTYPE
  5
3D
330
17F
100
AcDbSymbolTableRecord
100
AcDbLinetypeTableRecord
  2
HIDDEN
 70
     0
  3
_ _ _ _ _ _ _ _ _ _ _ _ _ _ _
 72
    65
 73
     2
 40
0.5
 49
0.25
 74
     0
 49
-0.25
 74
     0
  0
LTYPE
  5
3E
330
17F
100
AcDbSymbolTableRecord
100
AcDbLinetypeTableRecord
  2
PHANTOM
 70
     0
  3
____ _ _ ____ _ _ _____ _ _ ____
 72
    65
 73
     6
 40
50.5
 49
18.0
 74
     0
 49
-6.5
 74
     0
 49
6.5
 74
     0
 49
-6.5
 74
     0
 49
6.5
 74
     0
 49
-6.5
 74
     0
  0
LTYPE
  5
3F
330
17F
100
AcDbSymbolTableRecord
100
AcDbLinetypeTableRecord
  2
CENTER
 70
     0
  3
____ _ ____ _ ____ _ ____
 72
    65
 73
     4
 40
47.5
 49
22.0
 74
     0
 49
-8.5
 74
     0
 49
8.5
 74
     0
 49
-8.5
 74
     0
  0
LTYPE
  5
40
330
17F
100
AcDbSymbolTableRecord
100
AcDbLinetypeTableRecord
  2
DOT
 70
     0
  3
.........................
 72
    65
 73
     2
 40
10.0
 49
0.0
 74
     0
 49
-10.0
 74
     0
  0
LTYPE
  5
41
330
17F
100
AcDbSymbolTableRecord
100
AcDbLinetypeTableRecord
  2
DASHDOT
 70
     0
  3
_._._._._._._._._._._._._._._._.
 72
    65
 73
     4
 40
70.0
 49
31.0
 74
     0
 49
-13.0
 74
     0
 49
13.0
 74
     0
 49
-13.0
 74
     0
  0
LTYPE
  5
1D6
330
17F
100
AcDbSymbolTableRecord
100
AcDbLinetypeTableRecord
  2
PHANTOM2
 70
     0
  3
Phantom (.5x) ___ _ _ ___ _ _ ___ _ _ ___ _ _
 72
    65
 73
     6
 40
1.25
 49
0.625
 74
     0
 49
-0.125
 74
     0
 49
0.125
 74
     0
 49
-0.125
 74
     0
 49
0.125
 74
     0
 49
-0.125
 74
     0
  0
ENDTAB
  0
TABLE
  2
LAYER
  5
180
330
0
100
AcDbSymbolTable
 70
     9
  0
LAYER
  5
10
102
{ACAD_XDICTIONARY
360
1E4
102
}
330
180
100
AcDbSymbolTableRecord
100
AcDbLayerTableRecord
  2
0
 70
     0
 62
     7
  6
CONTINUOUS
370
    -3
390
18B
  0
LAYER
  5
43
102
{ACAD_XDICTIONARY
360
1E6
102
}
330
180
100
AcDbSymbolTableRecord
100
AcDbLayerTableRecord
  2
1
 70
     0
 62
     4
  6
CONTINUOUS
370
    -3
390
18B
  0
LAYER
  5
4E
102
{ACAD_XDICTIONARY
360
1E8
102
}
330
180
100
AcDbSymbolTableRecord
100
AcDbLayerTableRecord
  2
80
 70
     0
 62
    -6
  6
CONTINUOUS
370
    -3
390
18B
  0
LAYER
  5
50
102
{ACAD_XDICTIONARY
360
1EA
102
}
330
180
100
AcDbSymbolTableRecord
100
AcDbLayerTableRecord
  2
81
 70
     0
 62
    -3
  6
CONTINUOUS
370
    -3
390
18B
  0
LAYER
  5
F8
102
{ACAD_XDICTIONARY
360
1EC
102
}
330
180
100
AcDbSymbolTableRecord
100
AcDbLayerTableRecord
  2
2
 70
     0
 62
     7
  6
CONTINUOUS
370
    -3
390
18B
  0
LAYER
  5
16A
102
{ACAD_XDICTIONARY
360
1EE
102
}
330
180
100
AcDbSymbolTableRecord
100
AcDbLayerTableRecord
  2
SK1
 70
     0
 62
     4
  6
CONTINUOUS
370
    -3
390
18B
  0
LAYER
  5
16B
102
{ACAD_XDICTIONARY
360
1F0
102
}
330
180
100
AcDbSymbolTableRecord
100
AcDbLayerTableRecord
  2
SK4
 70
     0
 62
     2
  6
CENTER
370
    -3
390
18B
  0
LAYER
  5
16C
102
{ACAD_XDICTIONARY
360
1F2
102
}
330
180
100
AcDbSymbolTableRecord
100
AcDbLayerTableRecord
  2
SK6
 70
     0
 62
     5
  6
CONTINUOUS
370
    -3
390
18B
  0
LAYER
  5
16D
102
{ACAD_XDICTIONARY
360
1F4
102
}
330
180
100
AcDbSymbolTableRecord
100
AcDbLayerTableRecord
  2
SK2
 70
     0
 62
     7
  6
CONTINUOUS
370
    -3
390
18B
  0
ENDTAB
  0
TABLE
  2
STYLE
  5
181
330
0
100
AcDbSymbolTable
 70
     3
  0
STYLE
  5
11
330
181
100
AcDbSymbolTableRecord
100
AcDbTextStyleTableRecord
  2
Standard
 70
     0
 40
0.0
 41
1.0
 50
0.0
 71
     0
 42
0.0
  3
txt
  4

  0
STYLE
  5
F3
330
181
100
AcDbSymbolTableRecord
100
AcDbTextStyleTableRecord
  2
DEFAULT
 70
     0
 40
0.0
 41
1.0
 50
0.0
 71
     0
 42
0.0
  3
simplex.shx
  4

  0
STYLE
  5
F4
330
181
100
AcDbSymbolTableRecord
100
AcDbTextStyleTableRecord
  2
DWGDirectTextStyle
 70
     0
 40
0.0
 41
1.0
 50
0.0
 71
     0
 42
0.0
  3
SIMPLEX
  4

  0
ENDTAB
  0
TABLE
  2
VIEW
  5
183
330
0
100
AcDbSymbolTable
 70
     0
  0
ENDTAB
  0
TABLE
  2
UCS
  5
184
330
0
100
AcDbSymbolTable
 70
     0
  0
ENDTAB
  0
TABLE
  2
APPID
  5
185
330
0
100
AcDbSymbolTable
 70
     3
  0
APPID
  5
12
330
185
100
AcDbSymbolTableRecord
100
AcDbRegAppTableRecord
  2
ACAD
 70
     0
  0
APPID
  5
200
330
185
100
AcDbSymbolTableRecord
100
AcDbRegAppTableRecord
  2
ACAD_NAV_VCDISPLAY
 70
     0
  0
APPID
  5
23A
330
185
100
AcDbSymbolTableRecord
100
AcDbRegAppTableRecord
  2
ACAD_MLEADERVER
 70
     0
  0
ENDTAB
  0
TABLE
  2
DIMSTYLE
  5
182
330
0
100
AcDbSymbolTable
 70
     1
100
AcDbDimStyleTable
 71
     0
  0
DIMSTYLE
105
27
102
{ACAD_REACTORS
330
100
330
10B
330
116
330
121
330
12C
102
}
330
182
100
AcDbSymbolTableRecord
100
AcDbDimStyleTableRecord
  2
Standard
 70
     0
  3
<>
 73
     0
 74
     0
 77
     1
271
     2
278
    52
340
11
  0
ENDTAB
  0
TABLE
  2
BLOCK_RECORD
  5
186
330
0
100
AcDbSymbolTable
 70
     6
  0
BLOCK_RECORD
  5
1F
330
186
100
AcDbSymbolTableRecord
100
AcDbBlockTableRecord
  2
*Model_Space
340
1DC
  0
BLOCK_RECORD
  5
1B
330
186
100
AcDbSymbolTableRecord
100
AcDbBlockTableRecord
  2
*Paper_Space
340
1DD
  0
BLOCK_RECORD
  5
23
330
186
100
AcDbSymbolTableRecord
100
AcDbBlockTableRecord
  2
*Paper_Space0
340
0
  0
BLOCK_RECORD
  5
F6
330
186
100
AcDbSymbolTableRecord
100
AcDbBlockTableRecord
  2
DimnDraft3D1
340
0
  0
BLOCK_RECORD
  5
101
330
186
100
AcDbSymbolTableRecord
100
AcDbBlockTableRecord
  2
DimnDraft3D2
340
0
  0
BLOCK_RECORD
  5
10C
330
186
100
AcDbSymbolTableRecord
100
AcDbBlockTableRecord
  2
DimnDraft3D3
340
0
  0
BLOCK_RECORD
  5
117
330
186
100
AcDbSymbolTableRecord
100
AcDbBlockTableRecord
  2
DimnDraft3D4
340
0
  0
BLOCK_RECORD
  5
122
330
186
100
AcDbSymbolTableRecord
100
AcDbBlockTableRecord
  2
DimnDraft3D5
340
0
  0
ENDTAB
  0
ENDSEC
  0
SECTION
  2
BLOCKS
  0
BLOCK
  5
20
330
1F
100
AcDbEntity
  8
0
100
AcDbBlockBegin
  2
*Model_Space
 70
     0
 10
0.0
 20
0.0
 30
0.0
  3
*Model_Space
  1

  0
ENDBLK
  5
21
330
1F
100
AcDbEntity
  8
0
100
AcDbBlockEnd
  0
BLOCK
  5
1C
330
1B
100
AcDbEntity
 67
     1
  8
0
100
AcDbBlockBegin
  2
*Paper_Space
 70
     0
 10
0.0
 20
0.0
 30
0.0
  3
*Paper_Space
  1

  0
ENDBLK
  5
1D
330
1B
100
AcDbEntity
 67
     1
  8
0
100
AcDbBlockEnd
  0
BLOCK
  5
24
330
23
100
AcDbEntity
  8
0
100
AcDbBlockBegin
  2
*Paper_Space0
 70
     0
 10
0.0
 20
0.0
 30
0.0
  3
*Paper_Space0
  1

  0
ENDBLK
  5
25
330
23
100
AcDbEntity
  8
0
100
AcDbBlockEnd
  0
BLOCK
  5
FE
330
F6
100
AcDbEntity
  8
0
100
AcDbBlockBegin
  2
DimnDraft3D1
 70
     0
 10
0.0
 20
0.0
 30
0.0
  3
DimnDraft3D1
  1

  0
MTEXT
  5
F7
330
F6
100
AcDbEntity
  8
2
100
AcDbMText
 10
2.615132
 20
33.665401
 30
0.0
 40
3.5
 41
0.0
 71
     7
 72
     5
  1
\W01.000;\fsimplex.shx,bigfont.shx;5 
  7
DEFAULT
 73
     1
 44
1.084337
1001
ACAD
1000
MTEXTBEGIN
1070
    73
1070
     1
1070
    44
1040
1.084337
1070
    74
1070
     0
1000
MTEXTEND
  0
LINE
  5
F9
330
F6
100
AcDbEntity
  8
2
100
AcDbLine
 10
0.0
 20
21.2875
 30
0.0
 11
0.0
 21
34.79040100000001
 31
0.0
  0
LINE
  5
FA
330
F6
100
AcDbEntity
  8
2
100
AcDbLine
 10
5.0
 20
21.2875
 30
0.0
 11
5.0
 21
34.79040100000001
 31
0.0
  0
LINE
  5
FB
330
F6
100
AcDbEntity
  8
2
100
AcDbLine
 10
-8.75
 20
32.790401
 30
0.0
 11
13.75
 21
32.790401
 31
0.0
  0
SOLID
  5
FC
330
F6
100
AcDbEntity
  8
2
100
AcDbTrace
 10
0.0
 20
32.790401
 30
0.0
 11
-3.499998
 21
32.329617
 31
0.0
 12
-3.500001999999999
 22
33.251185
 32
0.0
 13
0.0
 23
32.790401
 33
0.0
  0
SOLID
  5
FD
330
F6
100
AcDbEntity
  8
2
100
AcDbTrace
 10
5.0
 20
32.790401
 30
0.0
 11
8.499997999999999
 21
33.251185
 31
0.0
 12
8.500002
 22
32.329617
 32
0.0
 13
5.0
 23
32.790401
 33
0.0
  0
ENDBLK
  5
FF
330
F6
100
AcDbEntity
  8
0
100
AcDbBlockEnd
  0
BLOCK
  5
109
330
101
100
AcDbEntity
  8
0
100
AcDbBlockBegin
  2
DimnDraft3D2
 70
     0
 10
0.0
 20
0.0
 30
0.0
  3
DimnDraft3D2
  1

  0
MTEXT
  5
102
330
101
100
AcDbEntity
  8
2
100
AcDbMText
 10
31.023644
 20
2.146052999999999
 30
0.0
 40
3.5
 41
0.0
 71
     7
 72
     5
  1
\W01.000;\fsimplex.shx,bigfont.shx;40 
  7
DEFAULT
 11
0.0000000000000001
 21
1.0
 31
0.0
 73
     1
 44
1.084337
1001
ACAD
1000
MTEXTBEGIN
1070
    73
1070
     1
1070
    44
1040
1.084337
1070
    74
1070
     0
1000
MTEXTEND
  0
MTEXT
  5
103
330
101
100
AcDbEntity
  8
2
100
AcDbMText
 10
31.023644
 20
-4.853946999999999
 30
0.0
 40
3.5
 41
0.0
 71
     7
 72
     5
  1
\W01.000;\fsimplex.shx,bigfont.shx;%%c 
  7
DEFAULT
 11
0.0000000000000001
 21
1.0
 31
0.0
 73
     1
 44
1.084337
1001
ACAD
1000
MTEXTBEGIN
1070
    73
1070
     1
1070
    44
1040
1.084337
1070
    74
1070
     0
1000
MTEXTEND
  0
LINE
  5
104
330
101
100
AcDbEntity
  8
2
100
AcDbLine
 10
6.287499999999999
 20
20.0
 30
0.0
 11
34.773644
 21
20.0
 31
0.0
  0
LINE
  5
105
330
101
100
AcDbEntity
  8
2
100
AcDbLine
 10
6.287499999999999
 20
-20.0
 30
0.0
 11
34.773644
 21
-20.0
 31
0.0
  0
LINE
  5
106
330
101
100
AcDbEntity
  8
2
100
AcDbLine
 10
32.773644
 20
20.0
 30
0.0
 11
32.773644
 21
-20.0
 31
0.0
  0
SOLID
  5
107
330
101
100
AcDbEntity
  8
2
100
AcDbTrace
 10
32.773644
 20
20.0
 30
0.0
 11
33.23442700000001
 21
16.500002
 31
0.0
 12
32.31286
 22
16.499998
 32
0.0
 13
32.773644
 23
20.0
 33
0.0
  0
SOLID
  5
108
330
101
100
AcDbEntity
  8
2
100
AcDbTrace
 10
32.773644
 20
-20.0
 30
0.0
 11
32.31286
 21
-16.500002
 31
0.0
 12
33.23442700000001
 22
-16.499998
 32
0.0
 13
32.773644
 23
-20.0
 33
0.0
  0
ENDBLK
  5
10A
330
101
100
AcDbEntity
  8
0
100
AcDbBlockEnd
  0
BLOCK
  5
114
330
10C
100
AcDbEntity
  8
0
100
AcDbBlockBegin
  2
DimnDraft3D3
 70
     0
 10
0.0
 20
0.0
 30
0.0
  3
DimnDraft3D3
  1

  0
MTEXT
  5
10D
330
10C
100
AcDbEntity
  8
2
100
AcDbMText
 10
21.45011
 20
-0.309678
 30
0.0
 40
3.5
 41
0.0
 71
     7
 72
     5
  1
\W01.000;\fsimplex.shx,bigfont.shx;25,4 
  7
DEFAULT
 11
0.0000000000000001
 21
1.0
 31
0.0
 73
     1
 44
1.084337
1001
ACAD
1000
MTEXTBEGIN
1070
    73
1070
     1
1070
    44
1040
1.084337
1070
    74
1070
     0
1000
MTEXTEND
  0
MTEXT
  5
10E
330
10C
100
AcDbEntity
  8
2
100
AcDbMText
 10
21.45011
 20
-7.309677999999999
 30
0.0
 40
3.5
 41
0.0
 71
     7
 72
     5
  1
\W01.000;\fsimplex.shx,bigfont.shx;%%c 
  7
DEFAULT
 11
0.0000000000000001
 21
1.0
 31
0.0
 73
     1
 44
1.084337
1001
ACAD
1000
MTEXTBEGIN
1070
    73
1070
     1
1070
    44
1040
1.084337
1070
    74
1070
     0
1000
MTEXTEND
  0
LINE
  5
10F
330
10C
100
AcDbEntity
  8
2
100
AcDbLine
 10
4.8875
 20
-12.70525
 30
0.0
 11
25.20011
 21
-12.70525
 31
0.0
  0
LINE
  5
110
330
10C
100
AcDbEntity
  8
2
100
AcDbLine
 10
4.8875
 20
12.70525
 30
0.0
 11
25.20011
 21
12.70525
 31
0.0
  0
LINE
  5
111
330
10C
100
AcDbEntity
  8
2
100
AcDbLine
 10
23.20011
 20
-12.70525
 30
0.0
 11
23.20011
 21
12.70525
 31
0.0
  0
SOLID
  5
112
330
10C
100
AcDbEntity
  8
2
100
AcDbTrace
 10
23.20011
 20
-12.70525
 30
0.0
 11
22.739326
 21
-9.205251999999999
 31
0.0
 12
23.660894
 22
-9.205247999999999
 32
0.0
 13
23.20011
 23
-12.70525
 33
0.0
  0
SOLID
  5
113
330
10C
100
AcDbEntity
  8
2
100
AcDbTrace
 10
23.20011
 20
12.70525
 30
0.0
 11
23.660894
 21
9.205251999999999
 31
0.0
 12
22.739326
 22
9.205247999999999
 32
0.0
 13
23.20011
 23
12.70525
 33
0.0
  0
ENDBLK
  5
115
330
10C
100
AcDbEntity
  8
0
100
AcDbBlockEnd
  0
BLOCK
  5
11F
330
117
100
AcDbEntity
  8
0
100
AcDbBlockBegin
  2
DimnDraft3D4
 70
     0
 10
0.0
 20
0.0
 30
0.0
  3
DimnDraft3D4
  1

  0
MTEXT
  5
118
330
117
100
AcDbEntity
  8
SK2
100
AcDbMText
 10
-31.169737
 20
33.633626
 30
0.0
 40
3.5
 41
0.0
 71
     7
 72
     5
  1
\W01.000;\fsimplex.shx,bigfont.shx;60 
  7
DEFAULT
 73
     1
 44
1.084337
1001
ACAD
1000
MTEXTBEGIN
1070
    73
1070
     1
1070
    44
1040
1.084337
1070
    74
1070
     0
1000
MTEXTEND
  0
LINE
  5
11A
330
117
100
AcDbEntity
  8
SK2
100
AcDbLine
 10
0.0
 20
21.2875
 30
0.0
 11
0.0
 21
34.758626
 31
0.0
  0
LINE
  5
11B
330
117
100
AcDbEntity
  8
SK2
100
AcDbLine
 10
-60.0
 20
16.2285
 30
0.0
 11
-60.0
 21
34.758626
 31
0.0
  0
LINE
  5
11C
330
117
100
AcDbEntity
  8
SK2
100
AcDbLine
 10
0.0
 20
32.758626
 30
0.0
 11
-60.0
 21
32.758626
 31
0.0
  0
SOLID
  5
11D
330
117
100
AcDbEntity
  8
SK2
100
AcDbTrace
 10
0.0
 20
32.758626
 30
0.0
 11
-3.499998
 21
32.297842
 31
0.0
 12
-3.500001999999999
 22
33.21941
 32
0.0
 13
0.0
 23
32.758626
 33
0.0
  0
SOLID
  5
11E
330
117
100
AcDbEntity
  8
SK2
100
AcDbTrace
 10
-60.0
 20
32.758626
 30
0.0
 11
-56.500002
 21
33.21941
 31
0.0
 12
-56.49999799999999
 22
32.297842
 32
0.0
 13
-60.0
 23
32.758626
 33
0.0
  0
ENDBLK
  5
120
330
117
100
AcDbEntity
  8
0
100
AcDbBlockEnd
  0
BLOCK
  5
12A
330
122
100
AcDbEntity
  8
0
100
AcDbBlockBegin
  2
DimnDraft3D5
 70
     0
 10
0.0
 20
0.0
 30
0.0
  3
DimnDraft3D5
  1

  0
MTEXT
  5
123
330
122
100
AcDbEntity
  8
SK2
100
AcDbMText
 10
-75.87975
 20
-0.7189
 30
0.0
 40
3.5
 41
0.0
 71
     7
 72
     5
  1
\W01.000;\fsimplex.shx,bigfont.shx;31,75 
  7
DEFAULT
 11
0.0000000000000001
 21
1.0
 31
0.0
 73
     1
 44
1.084337
1001
ACAD
1000
MTEXTBEGIN
1070
    73
1070
     1
1070
    44
1040
1.084337
1070
    74
1070
     0
1000
MTEXTEND
  0
MTEXT
  5
124
330
122
100
AcDbEntity
  8
SK2
100
AcDbMText
 10
-75.87975
 20
-7.718899999999999
 30
0.0
 40
3.5
 41
0.0
 71
     7
 72
     5
  1
\W01.000;\fsimplex.shx,bigfont.shx;%%c 
  7
DEFAULT
 11
0.0000000000000001
 21
1.0
 31
0.0
 73
     1
 44
1.084337
1001
ACAD
1000
MTEXTBEGIN
1070
    73
1070
     1
1070
    44
1040
1.084337
1070
    74
1070
     0
1000
MTEXTEND
  0
LINE
  5
125
330
122
100
AcDbEntity
  8
SK2
100
AcDbLine
 10
-60.58749999999999
 20
-16.101
 30
0.0
 11
-76.12975
 21
-16.101
 31
0.0
  0
LINE
  5
126
330
122
100
AcDbEntity
  8
SK2
100
AcDbLine
 10
-60.58749999999999
 20
15.641
 30
0.0
 11
-76.12975
 21
15.641
 31
0.0
  0
LINE
  5
127
330
122
100
AcDbEntity
  8
SK2
100
AcDbLine
 10
-74.12975
 20
-16.101
 30
0.0
 11
-74.12975
 21
15.641
 31
0.0
  0
SOLID
  5
128
330
122
100
AcDbEntity
  8
SK2
100
AcDbTrace
 10
-74.12975
 20
-16.101
 30
0.0
 11
-74.59053399999999
 21
-12.601002
 31
0.0
 12
-73.668966
 22
-12.600998
 32
0.0
 13
-74.12975
 23
-16.101
 33
0.0
  0
SOLID
  5
129
330
122
100
AcDbEntity
  8
SK2
100
AcDbTrace
 10
-74.12975
 20
15.641
 30
0.0
 11
-73.668966
 21
12.141002
 31
0.0
 12
-74.59053399999999
 22
12.140998
 32
0.0
 13
-74.12975
 23
15.641
 33
0.0
  0
ENDBLK
  5
12B
330
122
100
AcDbEntity
  8
0
100
AcDbBlockEnd
  0
ENDSEC
  0
SECTION
  2
ENTITIES
  0
ARC
  5
C4
330
1F
100
AcDbEntity
  8
1
100
AcDbCircle
 10
-0.55
 20
16.475
 30
0.0
 40
1.0
100
AcDbArc
 50
0.0
 51
56.632987
  0
ARC
  5
C5
330
1F
100
AcDbEntity
  8
1
100
AcDbCircle
 10
3.9
 20
-16.354412
 30
0.0
 40
0.4
100
AcDbArc
 50
180.0
 51
320.0
  0
ARC
  5
C6
330
1F
100
AcDbEntity
  8
1
100
AcDbCircle
 10
3.9
 20
16.354412
 30
0.0
 40
0.4
100
AcDbArc
 50
40.0
 51
180.0
  0
ARC
  5
C7
330
1F
100
AcDbEntity
  8
SK1
100
AcDbCircle
 10
2.015432
 20
16.475
 30
0.0
 40
1.0
210
0.0
220
0.0
230
-1.0
100
AcDbArc
 50
270.0
 51
303.163796
  0
ARC
  5
C8
330
1F
100
AcDbEntity
  8
SK1
100
AcDbCircle
 10
2.015432
 20
-16.475
 30
0.0
 40
1.0
210
0.0
220
0.0
230
-1.0
100
AcDbArc
 50
22.079365
 51
90.0
  0
ARC
  5
C9
330
1F
100
AcDbEntity
  8
1
100
AcDbCircle
 10
1.8
 20
19.125331
 30
0.0
 40
0.8
100
AcDbArc
 50
180.0
 51
270.0
  0
ARC
  5
CA
330
1F
100
AcDbEntity
  8
1
100
AcDbCircle
 10
3.2
 20
19.125331
 30
0.0
 40
0.8
100
AcDbArc
 50
270.0
 51
0.0
  0
ARC
  5
CB
330
1F
100
AcDbEntity
  8
SK1
100
AcDbCircle
 10
0.55
 20
-16.475
 30
0.0
 40
1.0
210
0.0
220
0.0
230
-1.0
100
AcDbArc
 50
90.0
 51
123.367515
  0
ARC
  5
CC
330
1F
100
AcDbEntity
  8
1
100
AcDbCircle
 10
0.55
 20
-16.475
 30
0.0
 40
1.0
210
0.0
220
0.0
230
-1.0
100
AcDbArc
 50
123.367476
 51
180.0
  0
ARC
  5
CD
330
1F
100
AcDbEntity
  8
1
100
AcDbCircle
 10
0.55
 20
16.475
 30
0.0
 40
1.0
210
0.0
220
0.0
230
-1.0
100
AcDbArc
 50
180.0
 51
236.632524
  0
ARC
  5
CE
330
1F
100
AcDbEntity
  8
SK1
100
AcDbCircle
 10
0.55
 20
16.475
 30
0.0
 40
1.0
210
0.0
220
0.0
230
-1.0
100
AcDbArc
 50
236.632485
 51
270.0
  0
ARC
  5
CF
330
1F
100
AcDbEntity
  8
1
100
AcDbCircle
 10
-0.55
 20
-16.475
 30
0.0
 40
1.0
100
AcDbArc
 50
303.367013
 51
0.0
  0
ELLIPSE
  5
D0
330
1F
100
AcDbEntity
  8
1
100
AcDbEllipse
 10
3.2
 20
19.125331
 30
0.0
 11
0.8
 21
0.0
 31
0.0
210
0.0
220
0.0
230
1.0
 40
0.258819
 41
0.477030653715332
 42
1.5707963267949
  0
ELLIPSE
  5
D1
330
1F
100
AcDbEntity
  8
1
100
AcDbEllipse
 10
3.2
 20
19.125331
 30
0.0
 11
0.8
 21
0.0
 31
0.0
210
0.0
220
0.0
230
1.0
 40
0.258819
 41
-1.5707963267949
 42
0.477030213297369
  0
ELLIPSE
  5
D2
330
1F
100
AcDbEntity
  8
1
100
AcDbEllipse
 10
1.8
 20
19.125331
 30
0.0
 11
0.8
 21
0.0
 31
0.0
210
0.0
220
0.0
230
1.0
 40
0.258819
 41
2.664611127904709
 42
4.712388980384686
  0
ELLIPSE
  5
D3
330
1F
100
AcDbEntity
  8
1
100
AcDbEllipse
 10
1.8
 20
19.125331
 30
0.0
 11
0.8
 21
0.0
 31
0.0
210
0.0
220
0.0
230
1.0
 40
0.258819
 41
1.5707963267949
 42
2.66461068745578
  0
ELLIPSE
  5
D4
330
1F
100
AcDbEntity
  8
1
100
AcDbEllipse
 10
2.5
 20
16.930797
 30
0.0
 11
0.8
 21
0.0
 31
0.0
210
0.0
220
0.0
230
1.0
 40
0.5
 41
0.5077600707218641
 42
1.570796909500209
  0
ELLIPSE
  5
D5
330
1F
100
AcDbEntity
  8
1
100
AcDbEllipse
 10
2.5
 20
16.930797
 30
0.0
 11
0.8
 21
0.0
 31
0.0
210
0.0
220
0.0
230
1.0
 40
0.5
 41
2.63147674814749
 42
6.283185307179586
  0
ELLIPSE
  5
D6
330
1F
100
AcDbEntity
  8
1
100
AcDbEllipse
 10
2.5
 20
16.930797
 30
0.0
 11
0.8
 21
0.0
 31
0.0
210
0.0
220
0.0
230
1.0
 40
0.5
 41
0.0
 42
0.50775951958166
  0
ELLIPSE
  5
D7
330
1F
100
AcDbEntity
  8
1
100
AcDbEllipse
 10
2.5
 20
16.930797
 30
0.0
 11
0.8
 21
0.0
 31
0.0
210
0.0
220
0.0
230
1.0
 40
0.5
 41
1.570796909500209
 42
2.631476748147499
  0
ELLIPSE
  5
D8
330
1F
100
AcDbEntity
  8
1
100
AcDbEllipse
 10
2.5
 20
13.823938
 30
0.0
 11
0.8
 21
0.0
 31
0.0
210
0.0
220
0.0
230
1.0
 40
0.7071069999999999
 41
0.293738594841595
 42
1.57079546993787
  0
ELLIPSE
  5
D9
330
1F
100
AcDbEntity
  8
1
100
AcDbEllipse
 10
2.5
 20
13.823938
 30
0.0
 11
0.8
 21
0.0
 31
0.0
210
0.0
220
0.0
230
1.0
 40
0.7071069999999999
 41
2.86316862870985
 42
6.283185307179586
  0
ELLIPSE
  5
DA
330
1F
100
AcDbEntity
  8
1
100
AcDbEllipse
 10
2.5
 20
13.823938
 30
0.0
 11
0.8
 21
0.0
 31
0.0
210
0.0
220
0.0
230
1.0
 40
0.7071069999999999
 41
0.0
 42
0.293739580796576
  0
ELLIPSE
  5
DB
330
1F
100
AcDbEntity
  8
1
100
AcDbEllipse
 10
2.5
 20
13.823938
 30
0.0
 11
0.8
 21
0.0
 31
0.0
210
0.0
220
0.0
230
1.0
 40
0.7071069999999999
 41
1.57079671993787
 42
2.86317033327003
  0
ELLIPSE
  5
DC
330
1F
100
AcDbEntity
  8
1
100
AcDbEllipse
 10
2.5
 20
9.775
 30
0.0
 11
0.8
 21
0.0
 31
0.0
210
0.0
220
0.0
230
1.0
 40
0.8660250000000001
 41
0.181623363486408
 42
1.570796704813139
  0
ELLIPSE
  5
DD
330
1F
100
AcDbEntity
  8
1
100
AcDbEllipse
 10
2.5
 20
9.775
 30
0.0
 11
0.8
 21
0.0
 31
0.0
210
0.0
220
0.0
230
1.0
 40
0.8660250000000001
 41
2.988832909397419
 42
6.283185307179586
  0
ELLIPSE
  5
DE
330
1F
100
AcDbEntity
  8
1
100
AcDbEllipse
 10
2.5
 20
9.775
 30
0.0
 11
0.8
 21
0.0
 31
0.0
210
0.0
220
0.0
230
1.0
 40
0.8660250000000001
 41
0.0
 42
0.181623263158537
  0
ELLIPSE
  5
DF
330
1F
100
AcDbEntity
  8
1
100
AcDbEllipse
 10
2.5
 20
9.775
 30
0.0
 11
0.8
 21
0.0
 31
0.0
210
0.0
220
0.0
230
1.0
 40
0.8660250000000001
 41
1.570796704813139
 42
2.98883290939741
  0
POINT
  5
42
330
1F
100
AcDbEntity
  8
1
 60
     1
100
AcDbPoint
 10
-45.06035599999999
 20
0.0
 30
0.0
 50
360.0
  0
POINT
  5
44
330
1F
100
AcDbEntity
  8
1
 60
     1
100
AcDbPoint
 10
0.95
 20
0.0
 30
0.0
 50
360.0
  0
POINT
  5
45
330
1F
100
AcDbEntity
  8
1
 60
     1
100
AcDbPoint
 10
-61.5
 20
-0.23
 30
0.0
 50
360.0
  0
POINT
  5
46
330
1F
100
AcDbEntity
  8
1
 60
     1
100
AcDbPoint
 10
-0.174177
 20
-0.23
 30
0.0
 50
360.0
  0
POINT
  5
47
330
1F
100
AcDbEntity
  8
1
 60
     1
100
AcDbPoint
 10
2.5
 20
19.257121
 30
0.0
 50
360.0
  0
POINT
  5
48
330
1F
100
AcDbEntity
  8
1
 60
     1
100
AcDbPoint
 10
2.5
 20
15.031759
 30
0.0
 50
360.0
  0
POINT
  5
49
330
1F
100
AcDbEntity
  8
1
 60
     1
100
AcDbPoint
 10
2.5
 20
15.800482
 30
0.0
 50
360.0
  0
POINT
  5
4A
330
1F
100
AcDbEntity
  8
1
 60
     1
100
AcDbPoint
 10
2.5
 20
12.197592
 30
0.0
 50
360.0
  0
POINT
  5
4B
330
1F
100
AcDbEntity
  8
1
 60
     1
100
AcDbPoint
 10
2.5
 20
11.118157
 30
0.0
 50
360.0
  0
POINT
  5
4C
330
1F
100
AcDbEntity
  8
1
 60
     1
100
AcDbPoint
 10
2.5
 20
8.678589999999999
 30
0.0
 50
360.0
  0
POINT
  5
4D
330
1F
100
AcDbEntity
  8
80
100
AcDbPoint
 10
0.0
 20
0.0
 30
0.0
 50
360.0
  0
POINT
  5
4F
330
1F
100
AcDbEntity
  8
81
100
AcDbPoint
 10
5.0
 20
0.0
 30
0.0
 50
360.0
  0
SPLINE
  5
E0
330
1F
100
AcDbEntity
  8
1
100
AcDbSpline
210
0.0
220
0.0
230
1.0
 70
    12
 71
     3
 72
    49
 73
    45
 74
     0
 42
0.000000001
 43
0.0000000001
 40
0.0
 40
0.0
 40
0.0
 40
0.0
 40
0.0624999999999995
 40
0.0624999999999995
 40
0.0937499999999993
 40
0.0937499999999993
 40
0.124999999999999
 40
0.124999999999999
 40
0.187499999999999
 40
0.187499999999999
 40
0.249999999999999
 40
0.249999999999999
 40
0.3124999999999989
 40
0.3124999999999989
 40
0.3437499999999989
 40
0.3437499999999989
 40
0.374999999999998
 40
0.4062499999999981
 40
0.4062499999999981
 40
0.4374999999999981
 40
0.4374999999999981
 40
0.4999999999999981
 40
0.4999999999999981
 40
0.5312499999999981
 40
0.5312499999999981
 40
0.5624999999999972
 40
0.5624999999999972
 40
0.624999999999996
 40
0.624999999999996
 40
0.656249999999996
 40
0.656249999999996
 40
0.687499999999996
 40
0.687499999999996
 40
0.749999999999996
 40
0.749999999999996
 40
0.812499999999996
 40
0.812499999999996
 40
0.8437499999999969
 40
0.8437499999999969
 40
0.8749999999999969
 40
0.8749999999999969
 40
0.9374999999999989
 40
0.9374999999999989
 40
1.0
 40
1.0
 40
1.0
 40
1.0
 10
1.79999999999998
 20
19.5101105528927
 30
0.0
 41
1.0
 10
1.74714745275321
 20
19.5101105528928
 30
0.0
 41
1.0
 10
1.69517908034729
 20
19.5089706696889
 30
0.0
 41
1.0
 10
1.618498300304199
 20
19.5056043631213
 30
0.0
 41
1.0
 10
1.593151577870259
 20
19.504203813329
 30
0.0
 41
1.0
 10
1.54289488621046
 20
19.5008261900689
 30
0.0
 41
1.0
 10
1.517917638150779
 20
19.4988395385715
 30
0.0
 41
1.0
 10
1.445263552513039
 20
19.4921214959142
 30
0.0
 41
1.0
 10
1.399318921815879
 20
19.4866124079044
 30
0.0
 41
1.0
 10
1.312366041943959
 20
19.4734558871357
 30
0.0
 41
1.0
 10
1.2711995621971
 20
19.4657362562235
 30
0.0
 41
1.0
 10
1.19740942681631
 20
19.4486541065554
 30
0.0
 41
1.0
 10
1.164295380127899
 20
19.4392354780465
 30
0.0
 41
1.0
 10
1.120431569058069
 20
19.4236727268237
 30
0.0
 41
1.0
 10
1.106813447435659
 20
19.4182459048249
 30
0.0
 41
1.0
 10
1.082130726369829
 20
19.4071360165369
 30
0.0
 41
1.0
 10
1.05983057248008
 20
19.3957127455454
 30
0.0
 41
1.0
 10
1.04222420640886
 20
19.3836498843028
 30
0.0
 41
1.0
 10
1.0269971008548
 20
19.3712535458181
 30
0.0
 41
1.0
 10
1.020548201646189
 20
19.3648538255202
 30
0.0
 41
1.0
 10
1.00512552886636
 20
19.3453945501625
 30
0.0
 41
1.0
 10
1.00003571887353
 20
19.3321592683039
 30
0.0
 41
1.0
 10
0.999982418875618
 20
19.3119063035832
 30
0.0
 41
1.0
 10
1.001237314645209
 20
19.3050885225176
 30
0.0
 41
1.0
 10
1.00637006719674
 20
19.2913167373634
 30
0.0
 41
1.0
 10
1.01024494128117
 20
19.2844053907504
 30
0.0
 41
1.0
 10
1.02553627496226
 20
19.263909413204
 30
0.0
 41
1.0
 10
1.04062571554695
 20
19.2504363065115
 30
0.0
 41
1.0
 10
1.07064381766779
 20
19.2305626852624
 30
0.0
 41
1.0
 10
1.08196339978878
 20
19.2239597918266
 30
0.0
 41
1.0
 10
1.10671762774376
 20
19.2111202228748
 30
0.0
 41
1.0
 10
1.12015323987671
 20
19.2048716688883
 30
0.0
 41
1.0
 10
1.163559774634649
 20
19.1866463382657
 30
0.0
 41
1.0
 10
1.196600079672069
 20
19.1751839882058
 30
0.0
 41
1.0
 10
1.271209361973769
 20
19.1538050138693
 30
0.0
 41
1.0
 10
1.311674448162959
 20
19.1442126423513
 30
0.0
 41
1.0
 10
1.376623916666889
 20
19.1315628698199
 30
0.0
 41
1.0
 10
1.39900375946132
 20
19.1276334050336
 30
0.0
 41
1.0
 10
1.445254822065269
 20
19.1203739123036
 30
0.0
 41
1.0
 10
1.469230373075159
 20
19.1170345871489
 30
0.0
 41
1.0
 10
1.541919832776759
 20
19.1081532043514
 30
0.0
 41
1.0
 10
1.591777619128659
 20
19.1036638166814
 30
0.0
 41
1.0
 10
1.6942569684937
 20
19.0975783723237
 30
0.0
 41
1.0
 10
1.74714747619248
 20
19.0960000073541
 30
0.0
 41
1.0
 10
1.79999999999998
 20
19.0960000073541
 30
0.0
 41
1.0
  0
SPLINE
  5
E1
330
1F
100
AcDbEntity
  8
1
100
AcDbSpline
210
0.0
220
0.0
230
1.0
 70
    12
 71
     3
 72
    49
 73
    45
 74
     0
 42
0.000000001
 43
0.0000000001
 40
0.0
 40
0.0
 40
0.0
 40
0.0
 40
0.0624999999999998
 40
0.0624999999999998
 40
0.0937499999999996
 40
0.0937499999999996
 40
0.124999999999999
 40
0.124999999999999
 40
0.187499999999999
 40
0.187499999999999
 40
0.249999999999999
 40
0.249999999999999
 40
0.312499999999998
 40
0.312499999999998
 40
0.343749999999998
 40
0.343749999999998
 40
0.374999999999998
 40
0.4062499999999981
 40
0.4062499999999981
 40
0.4374999999999981
 40
0.4374999999999981
 40
0.499999999999997
 40
0.499999999999997
 40
0.531249999999996
 40
0.531249999999996
 40
0.5624999999999951
 40
0.5624999999999951
 40
0.6249999999999951
 40
0.6249999999999951
 40
0.6562499999999951
 40
0.6562499999999951
 40
0.6874999999999949
 40
0.6874999999999949
 40
0.749999999999996
 40
0.749999999999996
 40
0.812499999999996
 40
0.812499999999996
 40
0.8437499999999969
 40
0.8437499999999969
 40
0.8749999999999978
 40
0.8749999999999978
 40
0.9374999999999989
 40
0.9374999999999989
 40
1.0
 40
1.0
 40
1.0
 40
1.0
 10
3.19999999999996
 20
19.0960000073541
 30
0.0
 41
1.0
 10
3.252852547248009
 20
19.0960000073541
 30
0.0
 41
1.0
 10
3.304820919650809
 20
19.0975446588914
 30
0.0
 41
1.0
 10
3.381501699683779
 20
19.1020668816078
 30
0.0
 41
1.0
 10
3.40684842211343
 20
19.1039442501957
 30
0.0
 41
1.0
 10
3.457105113763049
 20
19.1084488130102
 30
0.0
 41
1.0
 10
3.48208236181191
 20
19.1110885266212
 30
0.0
 41
1.0
 10
3.55473644740837
 20
19.1199576072402
 30
0.0
 41
1.0
 10
3.600681078075349
 20
19.1271660274373
 30
0.0
 41
1.0
 10
3.68763395788869
 20
19.1440550948007
 30
0.0
 41
1.0
 10
3.728800437588999
 20
19.1538221230022
 30
0.0
 41
1.0
 10
3.80259057289902
 20
19.1749379261881
 30
0.0
 41
1.0
 10
3.835704619566659
 20
19.1863620247392
 30
0.0
 41
1.0
 10
3.879568430628669
 20
19.204742800057
 30
0.0
 41
1.0
 10
3.893186552243379
 20
19.2110756476108
 30
0.0
 41
1.0
 10
3.91786927330924
 20
19.2238679319244
 30
0.0
 41
1.0
 10
3.94016941905048
 20
19.2368548278908
 30
0.0
 41
1.0
 10
3.95777579331468
 20
19.2502030201791
 30
0.0
 41
1.0
 10
3.973002898909359
 20
19.2637251890276
 30
0.0
 41
1.0
 10
3.97945179814269
 20
19.2706099773669
 30
0.0
 41
1.0
 10
3.99487447100083
 20
19.2912381084986
 30
0.0
 41
1.0
 10
3.99996428105905
 20
19.304870531728
 30
0.0
 41
1.0
 10
4.00001758115698
 20
19.3251276151571
 30
0.0
 41
1.0
 10
3.99876268542104
 20
19.3318481815578
 30
0.0
 41
1.0
 10
3.993629932934569
 20
19.3452252208803
 30
0.0
 41
1.0
 10
3.98975505888049
 20
19.3518393094295
 30
0.0
 41
1.0
 10
3.97446372528231
 20
19.3711762889083
 30
0.0
 41
1.0
 10
3.95937428474181
 20
19.3835172119622
 30
0.0
 41
1.0
 10
3.929356182662419
 20
19.4012467830838
 30
0.0
 41
1.0
 10
3.918036600550379
 20
19.4070557197431
 30
0.0
 41
1.0
 10
3.89328237260091
 20
19.4182077044297
 30
0.0
 41
1.0
 10
3.879846760466849
 20
19.4235623496701
 30
0.0
 41
1.0
 10
3.836440225695009
 20
19.4389972293568
 30
0.0
 41
1.0
 10
3.803399920634259
 20
19.4484537342485
 30
0.0
 41
1.0
 10
3.728790638264289
 20
19.4657513974377
 30
0.0
 41
1.0
 10
3.688325552040479
 20
19.4733316956013
 30
0.0
 41
1.0
 10
3.62337608347787
 20
19.4831879935458
 30
0.0
 41
1.0
 10
3.60099624066348
 20
19.4862227049149
 30
0.0
 41
1.0
 10
3.554745178019939
 20
19.491793006448
 30
0.0
 41
1.0
 10
3.53076962699714
 20
19.49433550411489
 30
0.0
 41
1.0
 10
3.45808016727261
 20
19.5010631198829
 30
0.0
 41
1.0
 10
3.40822238090433
 20
19.5044154357448
 30
0.0
 41
1.0
 10
3.305743031506299
 20
19.5089457516648
 30
0.0
 41
1.0
 10
3.252852523804879
 20
19.5101105528927
 30
0.0
 41
1.0
 10
3.19999999999996
 20
19.5101105528927
 30
0.0
 41
1.0
  0
SPLINE
  5
E2
330
1F
100
AcDbEntity
  8
SK1
100
AcDbSpline
210
0.0
220
0.0
230
1.0
 70
    12
 71
     3
 72
    38
 73
    34
 74
     0
 42
0.000000001
 43
0.0000000001
 40
0.0
 40
0.0
 40
0.0
 40
0.0
 40
0.125000000000002
 40
0.125000000000002
 40
0.187500000000002
 40
0.187500000000002
 40
0.218750000000003
 40
0.218750000000003
 40
0.250000000000003
 40
0.250000000000003
 40
0.375000000000003
 40
0.375000000000003
 40
0.4062500000000031
 40
0.4062500000000031
 40
0.4375000000000031
 40
0.4375000000000031
 40
0.500000000000002
 40
0.500000000000002
 40
0.6250000000000022
 40
0.6250000000000022
 40
0.6562500000000022
 40
0.6562500000000022
 40
0.6875000000000022
 40
0.6875000000000022
 40
0.7500000000000022
 40
0.7500000000000022
 40
0.812500000000003
 40
0.812500000000003
 40
0.843750000000003
 40
0.843750000000003
 40
0.875000000000003
 40
0.875000000000003
 40
1.0
 40
1.0
 40
1.0
 40
1.0
 10
-37.20000000000001
 20
6.49999999999994
 30
0.0
 41
1.0
 10
-37.20000000000001
 20
6.133302070160429
 30
0.0
 41
1.0
 10
-37.2333607711366
 20
5.765437499659039
 30
0.0
 41
1.0
 10
-37.3366560711384
 20
5.213030920938369
 30
0.0
 41
1.0
 10
-37.3800095220221
 20
5.02879871596744
 30
0.0
 41
1.0
 10
-37.4593156749358
 20
4.752509205908209
 30
0.0
 41
1.0
 10
-37.4882146361683
 20
4.660191865545099
 30
0.0
 41
1.0
 10
-37.5505911789974
 20
4.476743716859799
 30
0.0
 41
1.0
 10
-37.58396679837871
 20
4.38587212803284
 30
0.0
 41
1.0
 10
-37.7617229938708
 20
3.93582518215598
 30
0.0
 41
1.0
 10
-37.9384773132302
 20
3.589461660636629
 30
0.0
 41
1.0
 10
-38.20423764161891
 20
3.175539613846979
 30
0.0
 41
1.0
 10
-38.2596472773915
 20
3.093714713520279
 30
0.0
 41
1.0
 10
-38.37509392074001
 20
2.93206701254172
 30
0.0
 41
1.0
 10
-38.4353237346944
 20
2.85201108791802
 30
0.0
 41
1.0
 10
-38.621289985855
 20
2.617311927320569
 30
0.0
 41
1.0
 10
-38.75240196802721
 20
2.467847222481649
 30
0.0
 41
1.0
 10
-39.166645772912
 20
2.040225254582849
 30
0.0
 41
1.0
 10
-39.470487058947
 20
1.782640350880169
 30
0.0
 41
1.0
 10
-39.8861591820721
 20
1.497137735683249
 30
0.0
 41
1.0
 10
-39.97070236526211
 20
1.442163674583979
 30
0.0
 41
1.0
 10
-40.1416576882078
 20
1.336995660245549
 30
0.0
 41
1.0
 10
-40.22820962265329
 20
1.286705066261929
 30
0.0
 41
1.0
 10
-40.49104032421129
 20
1.14262508992809
 30
0.0
 41
1.0
 10
-40.6704862323781
 20
1.055611232080709
 30
0.0
 41
1.0
 10
-41.0377658404047
 20
0.899593550829223
 30
0.0
 41
1.0
 10
-41.22559911261579
 20
0.8305887117562919
 30
0.0
 41
1.0
 10
-41.5137831160591
 20
0.740938147132368
 30
0.0
 41
1.0
 10
-41.61116901083979
 20
0.7133090472874529
 30
0.0
 41
1.0
 10
-41.80659262388989
 20
0.6631693549904301
 30
0.0
 41
1.0
 10
-41.9046482807076
 20
0.6406359822187261
 30
0.0
 41
1.0
 10
-42.39662138871929
 20
0.540477609772154
 30
0.0
 41
1.0
 10
-42.7955713588634
 20
0.499999999999943
 30
0.0
 41
1.0
 10
-43.2
 20
0.499999999999943
 30
0.0
 41
1.0
  0
SPLINE
  5
E3
330
1F
100
AcDbEntity
  8
SK1
100
AcDbSpline
210
0.0
220
0.0
230
1.0
 70
    12
 71
     3
 72
   100
 73
    96
 74
     0
 42
0.000000001
 43
0.0000000001
 40
0.0
 40
0.0
 40
0.0
 40
0.0
 40
0.0275856723605613
 40
0.0275856723605613
 40
0.0353977822765859
 40
0.0353977822765859
 40
0.0432098921926105
 40
0.0588341120246598
 40
0.0588341120246598
 40
0.0900825516887583
 40
0.0900825516887583
 40
0.121330991352857
 40
0.121330991352857
 40
0.136955211184906
 40
0.136955211184906
 40
0.144767321100931
 40
0.144767321100931
 40
0.152579431016955
 40
0.152579431016955
 40
0.183827870681054
 40
0.183827870681054
 40
0.215076310345153
 40
0.215076310345153
 40
0.246324750009251
 40
0.246324750009251
 40
0.2619489698413
 40
0.2619489698413
 40
0.27757318967335
 40
0.27757318967335
 40
0.308821629337448
 40
0.308821629337448
 40
0.340070069001547
 40
0.340070069001547
 40
0.347882178917571
 40
0.347882178917571
 40
0.3556942888335961
 40
0.3556942888335961
 40
0.371318508665645
 40
0.371318508665645
 40
0.402566948329744
 40
0.402566948329744
 40
0.4338153879938421
 40
0.4338153879938421
 40
0.4494396078258921
 40
0.4494396078258921
 40
0.4572517177419161
 40
0.4572517177419161
 40
0.4650638276579411
 40
0.4650638276579411
 40
0.49631226732204
 40
0.49631226732204
 40
0.5275607069861379
 40
0.5275607069861379
 40
0.5588091466502371
 40
0.5588091466502371
 40
0.5666212565662621
 40
0.5666212565662621
 40
0.5744333664822861
 40
0.5744333664822861
 40
0.5900575863143361
 40
0.5900575863143361
 40
0.6213060259784341
 40
0.652554465642533
 40
0.652554465642533
 40
0.6681786854745821
 40
0.6681786854745821
 40
0.6838029053066311
 40
0.6838029053066311
 40
0.71505134497073
 40
0.71505134497073
 40
0.7462997846348292
 40
0.7462997846348292
 40
0.777548224298927
 40
0.777548224298927
 40
0.785360334214952
 40
0.785360334214952
 40
0.7931724441309771
 40
0.8087966639630257
 40
0.8087966639630257
 40
0.840045103627124
 40
0.871293543291223
 40
0.871293543291223
 40
0.8869177631232718
 40
0.8869177631232718
 40
0.8947298730392969
 40
0.8947298730392969
 40
0.9025419829553209
 40
0.9025419829553209
 40
0.9337904226194201
 40
0.9337904226194201
 40
0.965038862283519
 40
0.965038862283519
 40
0.996287301947617
 40
0.996287301947617
 40
1.0
 40
1.0
 40
1.0
 40
1.0
 10
-2.567196092573369
 20
15.6409981128678
 30
0.0
 41
1.0
 10
-2.567203253897869
 20
15.6406840567278
 30
0.0
 41
1.0
 10
-2.567649575395309
 20
15.620629078702
 30
0.0
 41
1.0
 10
-2.56879609083671
 20
15.56886206045169
 30
0.0
 41
1.0
 10
-2.56908547931437
 20
15.5557843925277
 30
0.0
 41
1.0
 10
-2.56973316589165
 20
15.52647367788
 30
0.0
 41
1.0
 10
-2.570808126776509
 20
15.4777685255451
 30
0.0
 41
1.0
 10
-2.57218722770423
 20
15.415017229242
 30
0.0
 41
1.0
 10
-2.57533556288843
 20
15.2710881540666
 30
0.0
 41
1.0
 10
-2.5779543121935
 20
15.1506101646572
 30
0.0
 41
1.0
 10
-2.58415703687527
 20
14.8611227672264
 30
0.0
 41
1.0
 10
-2.587740948413939
 20
14.6921142368487
 30
0.0
 41
1.0
 10
-2.59379307354658
 20
14.4015378275969
 30
0.0
 41
1.0
 10
-2.595923250150209
 20
14.2984907560646
 30
0.0
 41
1.0
 10
-2.59928270549312
 20
14.1344489970996
 30
0.0
 41
1.0
 10
-2.60043014230783
 20
14.0781760281232
 30
0.0
 41
1.0
 10
-2.60276550118428
 20
13.9631001198434
 30
0.0
 41
1.0
 10
-2.60395497072497
 20
13.9042218686881
 30
0.0
 41
1.0
 10
-2.61000656415976
 20
13.6031988132147
 30
0.0
 41
1.0
 10
-2.61518043790588
 20
13.3412076051959
 30
0.0
 41
1.0
 10
-2.62608935331468
 20
12.7758546393774
 30
0.0
 41
1.0
 10
-2.631824503243049
 20
12.4724911069566
 30
0.0
 41
1.0
 10
-2.643775400035619
 20
11.8241594948926
 30
0.0
 41
1.0
 10
-2.64999119941942
 20
11.4791955085727
 30
0.0
 41
1.0
 10
-2.65963046317171
 20
10.9294498201764
 30
0.0
 41
1.0
 10
-2.66287428746168
 20
10.7420576815631
 30
0.0
 41
1.0
 10
-2.669399045826339
 20
10.3600053763702
 30
0.0
 41
1.0
 10
-2.67268241712429
 20
10.1652065642297
 30
0.0
 41
1.0
 10
-2.682583576121259
 20
9.569653397981278
 30
0.0
 41
1.0
 10
-2.68925188350227
 20
9.157768550759159
 30
0.0
 41
1.0
 10
-2.70267433495724
 20
8.304506157136529
 30
0.0
 41
1.0
 10
-2.709428594273699
 20
7.86312966706316
 30
0.0
 41
1.0
 10
-2.717904158287689
 20
7.2925702520314
 30
0.0
 41
1.0
 10
-2.719600941761339
 20
7.17751425897418
 30
0.0
 41
1.0
 10
-2.72299745422362
 20
6.945494929271919
 30
0.0
 41
1.0
 10
-2.72469887772758
 20
6.82841395139937
 30
0.0
 41
1.0
 10
-2.72979535775164
 20
6.4750869115075
 30
0.0
 41
1.0
 10
-2.73316953698324
 20
6.237671319940799
 30
0.0
 41
1.0
 10
-2.7432195312222
 20
5.51994741328889
 30
0.0
 41
1.0
 10
-2.74982262464695
 20
5.03417496807538
 30
0.0
 41
1.0
 10
-2.762828921194739
 20
4.048333238444029
 30
0.0
 41
1.0
 10
-2.76923218215381
 20
3.548263595685599
 30
0.0
 41
1.0
 10
-2.77868649143068
 20
2.787336974870299
 30
0.0
 41
1.0
 10
-2.781812864909799
 20
2.531887888714069
 30
0.0
 41
1.0
 10
-2.786465013422399
 20
2.14596163574612
 30
0.0
 41
1.0
 10
-2.78800949607557
 20
2.016860565811529
 30
0.0
 41
1.0
 10
-2.791086045307049
 20
1.75773071960162
 30
0.0
 41
1.0
 10
-2.792620149712059
 20
1.627526309835699
 30
0.0
 41
1.0
 10
-2.80022381415722
 20
0.9772464001586341
 30
0.0
 41
1.0
 10
-2.806106357944059
 20
0.4583188688065151
 30
0.0
 41
1.0
 10
-2.817501790061039
 20
-0.5770260062098771
 30
0.0
 41
1.0
 10
-2.823014639578669
 20
-1.093443130766099
 30
0.0
 41
1.0
 10
-2.83369676904056
 20
-2.1237749453615
 30
0.0
 41
1.0
 10
-2.838866022053879
 20
-2.63768976974396
 30
0.0
 41
1.0
 10
-2.84512668911242
 20
-3.27847883540471
 30
0.0
 41
1.0
 10
-2.846368768892519
 20
-3.40655623829537
 30
0.0
 41
1.0
 10
-2.8488331343695
 20
-3.662548434706279
 30
0.0
 41
1.0
 10
-2.85005553134485
 20
-3.79047832507081
 30
0.0
 41
1.0
 10
-2.85367334535448
 20
-4.17187779230949
 30
0.0
 41
1.0
 10
-2.85602639039021
 20
-4.423679350657639
 30
0.0
 41
1.0
 10
-2.862918997341809
 20
-5.171828755416269
 30
0.0
 41
1.0
 10
-2.87166619669068
 20
-6.150049070165809
 30
0.0
 41
1.0
 10
-2.879615367972629
 20
-7.09025521631386
 30
0.0
 41
1.0
 10
-2.885303872726499
 20
-7.780970912177679
 30
0.0
 41
1.0
 10
-2.887154409467229
 20
-8.00879873202103
 30
0.0
 41
1.0
 10
-2.890767761301959
 20
-8.459548487972909
 30
0.0
 41
1.0
 10
-2.892534635533
 20
-8.683000528152749
 30
0.0
 41
1.0
 10
-2.8976575057219
 20
-9.339248909498991
 30
0.0
 41
1.0
 10
-2.90084912584229
 20
-9.759516243304659
 30
0.0
 41
1.0
 10
-2.906837624175549
 20
-10.566564906319
 30
0.0
 41
1.0
 10
-2.909634388509859
 20
-10.953343915378
 30
0.0
 41
1.0
 10
-2.914871514877039
 20
-11.6934044742875
 30
0.0
 41
1.0
 10
-2.917311823792769
 20
-12.0466884122382
 30
0.0
 41
1.0
 10
-2.92015632630145
 20
-12.4667405353006
 30
0.0
 41
1.0
 10
-2.92071544510608
 20
-12.5497512463694
 30
0.0
 41
1.0
 10
-2.92181089727981
 20
-12.7132176693231
 30
0.0
 41
1.0
 10
-2.92341670943938
 20
-12.9541093181262
 30
0.0
 41
1.0
 10
-2.92491434226943
 20
-13.1822385161768
 30
0.0
 41
1.0
 10
-2.92777403102187
 20
-13.6217694320384
 30
0.0
 41
1.0
 10
-2.931226358481919
 20
-14.163282420503
 30
0.0
 41
1.0
 10
-2.93402582925737
 20
-14.6168365622601
 30
0.0
 41
1.0
 10
-2.935896027945569
 20
-14.9234726644897
 30
0.0
 41
1.0
 10
-2.936481092104859
 20
-15.0200865211925
 30
0.0
 41
1.0
 10
-2.93730220392914
 20
-15.1564471126283
 30
0.0
 41
1.0
 10
-2.93756681663177
 20
-15.2005284041278
 30
0.0
 41
1.0
 10
-2.938074934762339
 20
-15.2854057249315
 30
0.0
 41
1.0
 10
-2.938318613394499
 20
-15.3262301162374
 30
0.0
 41
1.0
 10
-2.93948641936908
 20
-15.5223683805465
 30
0.0
 41
1.0
 10
-2.940259404991419
 20
-15.6537904735854
 30
0.0
 41
1.0
 10
-2.941506169511849
 20
-15.8669207560304
 30
0.0
 41
1.0
 10
-2.94197989903097
 20
-15.9486263855346
 30
0.0
 41
1.0
 10
-2.94263657958879
 20
-16.062129909604
 30
0.0
 41
1.0
 10
-2.942819554064299
 20
-16.0939322667178
 30
0.0
 41
1.0
 10
-2.94285834649972
 20
-16.1006660689277
 30
0.0
 41
1.0
 10
-2.942860356431589
 20
-16.1010149582828
 30
0.0
 41
1.0
 10
-2.942860261060389
 20
-16.100998373661
 30
0.0
 41
1.0
  0
SPLINE
  5
E4
330
1F
100
AcDbEntity
  8
SK1
100
AcDbSpline
210
0.0
220
0.0
230
1.0
 70
    12
 71
     3
 72
    57
 73
    53
 74
     0
 42
0.000000001
 43
0.0000000001
 40
0.0
 40
0.0
 40
0.0
 40
0.0
 40
0.0156239715758505
 40
0.0156239715758505
 40
0.031247943151701
 40
0.031247943151701
 40
0.062495886303402
 40
0.062495886303402
 40
0.124991772606804
 40
0.124991772606804
 40
0.187487658910206
 40
0.187487658910206
 40
0.203111630486056
 40
0.203111630486056
 40
0.218735602061907
 40
0.218735602061907
 40
0.249983545213608
 40
0.249983545213608
 40
0.31247943151701
 40
0.374975317820412
 40
0.374975317820412
 40
0.4062232609721131
 40
0.4062232609721131
 40
0.421847232547964
 40
0.421847232547964
 40
0.437471204123814
 40
0.437471204123814
 40
0.499967090427216
 40
0.499967090427216
 40
0.562462976730618
 40
0.562462976730618
 40
0.6249588630340201
 40
0.6249588630340201
 40
0.64058283460987
 40
0.64058283460987
 40
0.6562068061857211
 40
0.6874547493374211
 40
0.6874547493374211
 40
0.749950635640823
 40
0.749950635640823
 40
0.8124465219442249
 40
0.8124465219442249
 40
0.8280704935200748
 40
0.8280704935200748
 40
0.8436944650959251
 40
0.8436944650959251
 40
0.8749424082476259
 40
0.8749424082476259
 40
0.937438294551028
 40
0.999934180854429
 40
0.999934180854429
 40
1.0
 40
1.0
 40
1.0
 40
1.0
 10
-43.8870850142723
 20
0.499999999999943
 30
0.0
 41
1.0
 10
-43.88903789515789
 20
0.365318423345087
 30
0.0
 41
1.0
 10
-43.890992379005
 20
0.230501363029788
 30
0.0
 41
1.0
 10
-43.8948898846471
 20
-0.0383916373578757
 30
0.0
 41
1.0
 10
-43.8968351033228
 20
-0.172619079974851
 30
0.0
 41
1.0
 10
-43.9026602665154
 20
-0.5746509951305821
 30
0.0
 41
1.0
 10
-43.9065297244343
 20
-0.8418054820849649
 30
0.0
 41
1.0
 10
-43.91809678871429
 20
-1.640706674171699
 30
0.0
 41
1.0
 10
-43.9257531782852
 20
-2.1698974934001
 30
0.0
 41
1.0
 10
-43.94095709646889
 20
-3.221503275776
 30
0.0
 41
1.0
 10
-43.9485046287733
 20
-3.74391854413869
 30
0.0
 41
1.0
 10
-43.9578698118747
 20
-4.39259985626634
 30
0.0
 41
1.0
 10
-43.9597393792084
 20
-4.522118698014249
 30
0.0
 41
1.0
 10
-43.9634715136654
 20
-4.78071676025112
 30
0.0
 41
1.0
 10
-43.96533631340321
 20
-4.909950774682809
 30
0.0
 41
1.0
 10
-43.97089080955729
 20
-5.294954343769549
 30
0.0
 41
1.0
 10
-43.97454769227979
 20
-5.548516398998169
 30
0.0
 41
1.0
 10
-43.9853829546497
 20
-6.30006713043662
 30
0.0
 41
1.0
 10
-43.999469612664
 20
-7.277819539695799
 30
0.0
 41
1.0
 10
-44.0128500574034
 20
-8.207752287554969
 30
0.0
 41
1.0
 10
-44.0226180104751
 20
-8.88702262531388
 30
0.0
 41
1.0
 10
-44.0258293491893
 20
-9.110410518626618
 30
0.0
 41
1.0
 10
-44.03057829106511
 20
-9.44085418605451
 30
0.0
 41
1.0
 10
-44.0321511820207
 20
-9.550316379808288
 30
0.0
 41
1.0
 10
-44.0352684596302
 20
-9.76728852190314
 30
0.0
 41
1.0
 10
-44.0368088779095
 20
-9.874522228098131
 30
0.0
 41
1.0
 10
-44.0444209977795
 20
-10.4045022167456
 30
0.0
 41
1.0
 10
-44.05022349752629
 20
-10.8087318099405
 30
0.0
 41
1.0
 10
-44.06127122959911
 20
-11.5787466003723
 30
0.0
 41
1.0
 10
-44.06651642471079
 20
-11.9445294323958
 30
0.0
 41
1.0
 10
-44.0764492723221
 20
-12.6375175577471
 30
0.0
 41
1.0
 10
-44.0811369760508
 20
-12.9647265927541
 30
0.0
 41
1.0
 10
-44.08663712365409
 20
-13.3487932214763
 30
0.0
 41
1.0
 10
-44.0877180930819
 20
-13.4242835235011
 30
0.0
 41
1.0
 10
-44.0898318669579
 20
-13.5719147752519
 30
0.0
 41
1.0
 10
-44.0929347256489
 20
-13.7886480470442
 30
0.0
 41
1.0
 10
-44.0958365593361
 20
-13.9913984930939
 30
0.0
 41
1.0
 10
-44.1013764731814
 20
-14.3785344938546
 30
0.0
 41
1.0
 10
-44.10471874088279
 20
-14.6121843908422
 30
0.0
 41
1.0
 10
-44.1107074334898
 20
-15.0309427602556
 30
0.0
 41
1.0
 10
-44.1133538860781
 20
-15.21605329551
 30
0.0
 41
1.0
 10
-44.1162173820619
 20
-15.4163815408393
 30
0.0
 41
1.0
 10
-44.1167677977807
 20
-15.4548903891705
 30
0.0
 41
1.0
 10
-44.11782359266729
 20
-15.528760665292
 30
0.0
 41
1.0
 10
-44.11832960637321
 20
-15.5641664958193
 30
0.0
 41
1.0
 10
-44.1197723843596
 20
-15.6651221286651
 30
0.0
 41
1.0
 10
-44.12063537183289
 20
-15.7255139912931
 30
0.0
 41
1.0
 10
-44.12293385928339
 20
-15.886372151831
 30
0.0
 41
1.0
 10
-44.1252253930201
 20
-16.0467722470425
 30
0.0
 41
1.0
 10
-44.12599821176349
 20
-16.1008748156681
 30
0.0
 41
1.0
 10
-44.12599998265139
 20
-16.1009987855212
 30
0.0
 41
1.0
 10
-44.12599999693621
 20
-16.1009997855192
 30
0.0
 41
1.0
 10
-44.12600001122129
 20
-16.1010007855171
 30
0.0
 41
1.0
  0
SPLINE
  5
E5
330
1F
100
AcDbEntity
  8
SK1
100
AcDbSpline
210
0.0
220
0.0
230
1.0
 70
    12
 71
     3
 72
    56
 73
    52
 74
     0
 42
0.000000001
 43
0.0000000001
 40
0.0
 40
0.0
 40
0.0
 40
0.0
 40
0.0000017587555273
 40
0.0000017587555273
 40
0.062501648833307
 40
0.062501648833307
 40
0.125001538911087
 40
0.125001538911087
 40
0.140626511430532
 40
0.140626511430532
 40
0.156251483949977
 40
0.187501428988866
 40
0.187501428988866
 40
0.250001319066646
 40
0.250001319066646
 40
0.312501209144425
 40
0.312501209144425
 40
0.343751154183315
 40
0.343751154183315
 40
0.359376126702759
 40
0.359376126702759
 40
0.375001099222204
 40
0.375001099222204
 40
0.437500989299984
 40
0.437500989299984
 40
0.500000879377763
 40
0.500000879377763
 40
0.531250824416653
 40
0.531250824416653
 40
0.5468757969360972
 40
0.5468757969360972
 40
0.562500769455543
 40
0.562500769455543
 40
0.625000659533322
 40
0.625000659533322
 40
0.6875005496111021
 40
0.6875005496111021
 40
0.7500004396888821
 40
0.7500004396888821
 40
0.781250384727771
 40
0.781250384727771
 40
0.8125003297666609
 40
0.8125003297666609
 40
0.8750002198444409
 40
0.9375001099222199
 40
0.9375001099222199
 40
0.9687500549611101
 40
0.9687500549611101
 40
0.984375027480555
 40
0.984375027480555
 40
1.0
 40
1.0
 40
1.0
 40
1.0
 10
-15.37399998765
 20
-16.1010008640009
 30
0.0
 41
1.0
 10
-15.3740000019426
 20
-16.100999864003
 30
0.0
 41
1.0
 10
-15.3740000162274
 20
-16.1009988640051
 30
0.0
 41
1.0
 10
-15.3740010127838
 20
-16.1009291007281
 30
0.0
 41
1.0
 10
-15.3743843374783
 20
-16.07409375367369
 30
0.0
 41
1.0
 10
-15.3759147591336
 20
-15.9669652329018
 30
0.0
 41
1.0
 10
-15.3770617999819
 20
-15.8866759097165
 30
0.0
 41
1.0
 10
-15.3789874208638
 20
-15.7519126073651
 30
0.0
 41
1.0
 10
-15.3793976372991
 20
-15.7232048471124
 30
0.0
 41
1.0
 10
-15.3802659937691
 20
-15.6624381365494
 30
0.0
 41
1.0
 10
-15.3816375980272
 20
-15.5664583501226
 30
0.0
 41
1.0
 10
-15.3832138926643
 20
-15.4561691824468
 30
0.0
 41
1.0
 10
-15.3866348359172
 20
-15.2168422860972
 30
0.0
 41
1.0
 10
-15.3892725934668
 20
-15.0323396729974
 30
0.0
 41
1.0
 10
-15.3952551393819
 20
-14.6140105105661
 30
0.0
 41
1.0
 10
-15.3985999126119
 20
-14.38018486501
 30
0.0
 41
1.0
 10
-15.4041583924654
 20
-13.9917511771681
 30
0.0
 41
1.0
 10
-15.4061016109359
 20
-13.85597890055
 30
0.0
 41
1.0
 10
-15.4091550645462
 20
-13.6426770741131
 30
0.0
 41
1.0
 10
-15.4101947151735
 20
-13.5700580918489
 30
0.0
 41
1.0
 10
-15.4123086092239
 20
-13.4224186916844
 30
0.0
 41
1.0
 10
-15.4133841041566
 20
-13.3473108458113
 30
0.0
 41
1.0
 10
-15.4188534191067
 20
-12.9653975707604
 30
0.0
 41
1.0
 10
-15.4235220432979
 20
-12.6395196318426
 30
0.0
 41
1.0
 10
-15.4334344285899
 20
-11.9479574304434
 30
0.0
 41
1.0
 10
-15.438678206867
 20
-11.5822717840042
 30
0.0
 41
1.0
 10
-15.4469801710771
 20
-11.0036325614725
 30
0.0
 41
1.0
 10
-15.4498203448537
 20
-10.8057249709236
 30
0.0
 41
1.0
 10
-15.4541917809927
 20
-10.5012018846477
 30
0.0
 41
1.0
 10
-15.4556674648404
 20
-10.3984166058223
 30
0.0
 41
1.0
 10
-15.4586563409933
 20
-10.1902629783856
 30
0.0
 41
1.0
 10
-15.4601715473877
 20
-10.08475442805
 30
0.0
 41
1.0
 10
-15.4678032218323
 20
-9.553413956109919
 30
0.0
 41
1.0
 10
-15.474104084904
 20
-9.114971638981419
 30
0.0
 41
1.0
 10
-15.4870858884827
 20
-8.212205446625489
 30
0.0
 41
1.0
 10
-15.4937668598175
 20
-7.74787927070744
 30
0.0
 41
1.0
 10
-15.5075096895126
 20
-6.793388259060209
 30
0.0
 41
1.0
 10
-15.5145715194017
 20
-6.30322521530945
 30
0.0
 41
1.0
 10
-15.5254592104764
 20
-5.548037446447919
 30
0.0
 41
1.0
 10
-15.5291444023602
 20
-5.29251325056165
 30
0.0
 41
1.0
 10
-15.5365323715652
 20
-4.780425428567549
 30
0.0
 41
1.0
 10
-15.5402441076112
 20
-4.52324009308305
 30
0.0
 41
1.0
 10
-15.5514318151274
 20
-3.74831980322904
 30
0.0
 41
1.0
 10
-15.5664885169511
 20
-2.70613796068972
 30
0.0
 41
1.0
 10
-15.5818227809708
 20
-1.646263562284049
 30
0.0
 41
1.0
 10
-15.5934297978373
 20
-0.844600254386677
 30
0.0
 41
1.0
 10
-15.5973165541575
 20
-0.57625077870091
 30
0.0
 41
1.0
 10
-15.6031738915393
 20
-0.171998272110983
 30
0.0
 41
1.0
 10
-15.6051297509425
 20
-0.0370367879309299
 30
0.0
 41
1.0
 10
-15.6090281985394
 20
0.231920858109902
 30
0.0
 41
1.0
 10
-15.6109735220835
 20
0.3661058201013529
 30
0.0
 41
1.0
 10
-15.6129149857278
 20
0.4999999999999722
 30
0.0
 41
1.0
  0
SPLINE
  5
E6
330
1F
100
AcDbEntity
  8
SK1
100
AcDbSpline
210
0.0
220
0.0
230
1.0
 70
    12
 71
     3
 72
    36
 73
    32
 74
     0
 42
0.000000001
 43
0.0000000001
 40
0.0
 40
0.0
 40
0.0
 40
0.0
 40
0.125
 40
0.125
 40
0.187500000000001
 40
0.187500000000001
 40
0.218750000000001
 40
0.218750000000001
 40
0.250000000000001
 40
0.250000000000001
 40
0.375
 40
0.375
 40
0.40625
 40
0.40625
 40
0.4375
 40
0.4375
 40
0.5
 40
0.5
 40
0.625000000000001
 40
0.625000000000001
 40
0.687500000000001
 40
0.687500000000001
 40
0.750000000000001
 40
0.750000000000001
 40
0.812500000000001
 40
0.812500000000001
 40
0.843750000000001
 40
0.843750000000001
 40
0.875000000000001
 40
0.875000000000001
 40
1.0
 40
1.0
 40
1.0
 40
1.0
 10
-14.8
 20
0.4999999999999722
 30
0.0
 41
1.0
 10
-14.3951649868461
 20
0.4999999999999722
 30
0.0
 41
1.0
 10
-13.9972252875554
 20
0.5405541288734241
 30
0.0
 41
1.0
 10
-13.410253021982
 20
0.659754806555895
 30
0.0
 41
1.0
 10
-13.2162648352609
 20
0.7092916882396591
 30
0.0
 41
1.0
 10
-12.9278526334285
 20
0.7986673317705592
 30
0.0
 41
1.0
 10
-12.8318743116791
 20
0.8310786538566789
 30
0.0
 41
1.0
 10
-12.642310308683
 20
0.9004854540976058
 30
0.0
 41
1.0
 10
-12.5487839966038
 20
0.9374396150586219
 30
0.0
 41
1.0
 10
-12.0873161497007
 20
1.133234604588919
 30
0.0
 41
1.0
 10
-11.7376848646495
 20
1.32483340859235
 30
0.0
 41
1.0
 10
-11.3251159451884
 20
1.60763978146232
 30
0.0
 41
1.0
 10
-11.2438369360171
 20
1.66638598726209
 30
0.0
 41
1.0
 10
-11.083795709482
 20
1.788318152410169
 30
0.0
 41
1.0
 10
-11.0049475526804
 20
1.85159721649987
 30
0.0
 41
1.0
 10
-10.774947317974
 20
2.045874163301189
 30
0.0
 41
1.0
 10
-10.629401046974
 20
2.181966298894479
 30
0.0
 41
1.0
 10
-10.2154489699976
 20
2.609095922955329
 30
0.0
 41
1.0
 10
-9.969535782489659
 20
2.91883013924996
 30
0.0
 41
1.0
 10
-9.646732915207479
 20
3.42049047982607
 30
0.0
 41
1.0
 10
-9.548575033814961
 20
3.591300102581899
 30
0.0
 41
1.0
 10
-9.370847247235561
 20
3.938301411980319
 30
0.0
 41
1.0
 10
-9.291157936282051
 20
4.114684843905539
 30
0.0
 41
1.0
 10
-9.149564045316788
 20
4.472774605795959
 30
0.0
 41
1.0
 10
-9.087660735407869
 20
4.654481801262879
 30
0.0
 41
1.0
 10
-9.008034218527029
 20
4.930821326245959
 30
0.0
 41
1.0
 10
-8.98365525278143
 20
5.02378130118282
 30
0.0
 41
1.0
 10
-8.93969345990456
 20
5.209304404071469
 30
0.0
 41
1.0
 10
-8.92006613508957
 20
5.30198100077894
 30
0.0
 41
1.0
 10
-8.833298096957118
 20
5.76486950024639
 30
0.0
 41
1.0
 10
-8.800000000000009
 20
6.13357442958588
 30
0.0
 41
1.0
 10
-8.800000000000009
 20
6.5
 30
0.0
 41
1.0
  0
SPLINE
  5
E7
330
1F
100
AcDbEntity
  8
SK1
100
AcDbSpline
210
0.0
220
0.0
230
1.0
 70
    28
 71
     3
 72
     8
 73
     4
 74
     0
 42
0.000000001
 43
0.0000000001
 40
0.0
 40
0.0
 40
0.0
 40
0.0
 40
1.0
 40
1.0
 40
1.0
 40
1.0
 10
-16.0
 20
0.4999999999999722
 30
0.0
 41
1.0
 10
-15.8709724848946
 20
0.4999999999999722
 30
0.0
 41
1.0
 10
-15.7419441267103
 20
0.4999999999999722
 30
0.0
 41
1.0
 10
-15.6129149857277
 20
0.4999999999999722
 30
0.0
 41
1.0
  0
SPLINE
  5
E8
330
1F
100
AcDbEntity
  8
SK1
100
AcDbSpline
210
0.0
220
0.0
230
1.0
 70
    12
 71
     3
 72
    38
 73
    34
 74
     0
 42
0.000000001
 43
0.0000000001
 40
0.0
 40
0.0
 40
0.0
 40
0.0
 40
0.125000000000004
 40
0.125000000000004
 40
0.187500000000006
 40
0.187500000000006
 40
0.218750000000007
 40
0.218750000000007
 40
0.250000000000008
 40
0.250000000000008
 40
0.3750000000000089
 40
0.3750000000000089
 40
0.406250000000009
 40
0.406250000000009
 40
0.437500000000009
 40
0.437500000000009
 40
0.500000000000009
 40
0.500000000000009
 40
0.6250000000000071
 40
0.6250000000000071
 40
0.6562500000000071
 40
0.6562500000000071
 40
0.6875000000000071
 40
0.6875000000000071
 40
0.7500000000000052
 40
0.7500000000000052
 40
0.8125000000000039
 40
0.8125000000000039
 40
0.843750000000003
 40
0.843750000000003
 40
0.875000000000003
 40
0.875000000000003
 40
1.0
 40
1.0
 40
1.0
 40
1.0
 10
-18.8
 20
0.4999999999999722
 30
0.0
 41
1.0
 10
-19.2044154361998
 20
0.4999999999999722
 30
0.0
 41
1.0
 10
-19.60195167098139
 20
0.540470829557023
 30
0.0
 41
1.0
 10
-20.1883445111727
 20
0.6594282709408791
 30
0.0
 41
1.0
 10
-20.3821439591345
 20
0.7088640806414331
 30
0.0
 41
1.0
 10
-20.6702808430404
 20
0.7980566247871078
 30
0.0
 41
1.0
 10
-20.7661652760507
 20
0.830399926562649
 30
0.0
 41
1.0
 10
-20.9555953600462
 20
0.8996804082967171
 30
0.0
 41
1.0
 10
-21.0490581837173
 20
0.9365682935750779
 30
0.0
 41
1.0
 10
-21.5102264434387
 20
1.132017727480959
 30
0.0
 41
1.0
 10
-21.8596745609056
 20
1.323294337195729
 30
0.0
 41
1.0
 10
-22.2721000587962
 20
1.60566508064375
 30
0.0
 41
1.0
 10
-22.3533546987772
 20
1.664322548103629
 30
0.0
 41
1.0
 10
-22.5133563374453
 20
1.786074804872639
 30
0.0
 41
1.0
 10
-22.5922153504543
 20
1.84928284371534
 30
0.0
 41
1.0
 10
-22.8222869532497
 20
2.04337829812266
 30
0.0
 41
1.0
 10
-22.9678950233683
 20
2.179357263823189
 30
0.0
 41
1.0
 10
-23.3820731766577
 20
2.6061823717931
 30
0.0
 41
1.0
 10
-23.6281920733352
 20
2.91575888920545
 30
0.0
 41
1.0
 10
-23.8975065423986
 20
3.33372206052019
 30
0.0
 41
1.0
 10
-23.9491274949489
 20
3.418412185304759
 30
0.0
 41
1.0
 10
-24.0474805386568
 20
3.589047335435569
 30
0.0
 41
1.0
 10
-24.0942993662315
 20
3.67512636381011
 30
0.0
 41
1.0
 10
-24.2278545827121
 20
3.935538655427109
 30
0.0
 41
1.0
 10
-24.3077031200798
 20
4.11204193451874
 30
0.0
 41
1.0
 10
-24.4495882824258
 20
4.4703966839524
 30
0.0
 41
1.0
 10
-24.5116236337327
 20
4.65224902581647
 30
0.0
 41
1.0
 10
-24.5914264273531
 20
4.928826239539599
 30
0.0
 41
1.0
 10
-24.6158649402664
 20
5.021882830467769
 30
0.0
 41
1.0
 10
-24.6599493759667
 20
5.20767315225862
 30
0.0
 41
1.0
 10
-24.6796300561179
 20
5.30048034266466
 30
0.0
 41
1.0
 10
-24.7666293055566
 20
5.764006241679279
 30
0.0
 41
1.0
 10
-24.8
 20
6.13317155579529
 30
0.0
 41
1.0
 10
-24.8
 20
6.499999999999969
 30
0.0
 41
1.0
  0
SPLINE
  5
E9
330
1F
100
AcDbEntity
  8
SK1
100
AcDbSpline
210
0.0
220
0.0
230
1.0
 70
    28
 71
     3
 72
     8
 73
     4
 74
     0
 42
0.000000001
 43
0.0000000001
 40
0.0
 40
0.0
 40
0.0
 40
0.0
 40
1.0
 40
1.0
 40
1.0
 40
1.0
 10
-43.8870850142722
 20
0.499999999999943
 30
0.0
 41
1.0
 10
-43.75805587320929
 20
0.499999999999943
 30
0.0
 41
1.0
 10
-43.629027515023
 20
0.499999999999943
 30
0.0
 41
1.0
 10
-43.5
 20
0.499999999999943
 30
0.0
 41
1.0
  0
SPLINE
  5
EA
330
1F
100
AcDbEntity
  8
SK1
100
AcDbSpline
210
0.0
220
0.0
230
1.0
 70
    12
 71
     3
 72
    38
 73
    34
 74
     0
 42
0.000000001
 43
0.0000000001
 40
0.0
 40
0.0
 40
0.0
 40
0.0
 40
0.124999999999997
 40
0.124999999999997
 40
0.187499999999995
 40
0.187499999999995
 40
0.218749999999995
 40
0.218749999999995
 40
0.249999999999994
 40
0.249999999999994
 40
0.374999999999992
 40
0.374999999999992
 40
0.406249999999992
 40
0.406249999999992
 40
0.437499999999992
 40
0.437499999999992
 40
0.4999999999999911
 40
0.4999999999999911
 40
0.624999999999988
 40
0.624999999999988
 40
0.656249999999988
 40
0.656249999999988
 40
0.6874999999999871
 40
0.6874999999999871
 40
0.749999999999989
 40
0.749999999999989
 40
0.81249999999999
 40
0.81249999999999
 40
0.8437499999999921
 40
0.8437499999999921
 40
0.8749999999999928
 40
0.8749999999999928
 40
1.0
 40
1.0
 40
1.0
 40
1.0
 10
-53.2
 20
6.49999999999994
 30
0.0
 41
1.0
 10
-53.2
 20
6.13369331906773
 30
0.0
 41
1.0
 10
-53.166709978451
 20
5.766263042551829
 30
0.0
 41
1.0
 10
-53.0636711052122
 20
5.214558191780669
 30
0.0
 41
1.0
 10
-53.02042834300991
 20
5.03056834117379
 30
0.0
 41
1.0
 10
-52.9413342944943
 20
4.754653503489269
 30
0.0
 41
1.0
 10
-52.91252496872839
 20
4.66249374918513
 30
0.0
 41
1.0
 10
-52.85027546671621
 20
4.4791690099479
 30
0.0
 41
1.0
 10
-52.8169666420287
 20
4.38835704546648
 30
0.0
 41
1.0
 10
-52.6395611102523
 20
3.938598327217619
 30
0.0
 41
1.0
 10
-52.46313908355349
 20
3.5924343136825
 30
0.0
 41
1.0
 10
-52.19787932626021
 20
3.178725705063159
 30
0.0
 41
1.0
 10
-52.1425741743273
 20
3.096941655009149
 30
0.0
 41
1.0
 10
-52.0273462492269
 20
2.935371862562049
 30
0.0
 41
1.0
 10
-51.96723199362899
 20
2.85535031768333
 30
0.0
 41
1.0
 10
-51.78134294725329
 20
2.62041425520508
 30
0.0
 41
1.0
 10
-51.6502821916481
 20
2.470807321858619
 30
0.0
 41
1.0
 10
-51.23620927562821
 20
2.04279958102788
 30
0.0
 41
1.0
 10
-50.93250337114199
 20
1.785013052097699
 30
0.0
 41
1.0
 10
-50.5171000370729
 20
1.499298543958419
 30
0.0
 41
1.0
 10
-50.43239431909061
 20
1.444139433951189
 30
0.0
 41
1.0
 10
-50.26126709037839
 20
1.338726620417929
 30
0.0
 41
1.0
 10
-50.1746336454828
 20
1.288324651366959
 30
0.0
 41
1.0
 10
-49.9115742405687
 20
1.143939302487919
 30
0.0
 41
1.0
 10
-49.73199693965999
 20
1.05676015788851
 30
0.0
 41
1.0
 10
-49.3645101648853
 20
0.9004674992187348
 30
0.0
 41
1.0
 10
-49.1766010625842
 20
0.8313530658337809
 30
0.0
 41
1.0
 10
-48.8883562050081
 20
0.7415643807348721
 30
0.0
 41
1.0
 10
-48.79097646763839
 20
0.713895600485699
 30
0.0
 41
1.0
 10
-48.59524244537059
 20
0.6636048145028891
 30
0.0
 41
1.0
 10
-48.4970358628965
 20
0.641005899555125
 30
0.0
 41
1.0
 10
-48.00433014308239
 20
0.540564171004121
 30
0.0
 41
1.0
 10
-47.6048641463983
 20
0.499999999999943
 30
0.0
 41
1.0
 10
-47.2
 20
0.499999999999943
 30
0.0
 41
1.0
  0
SPLINE
  5
EB
330
1F
100
AcDbEntity
  8
1
100
AcDbSpline
210
0.0
220
0.0
230
1.0
 70
    12
 71
     3
 72
    49
 73
    45
 74
     0
 42
0.000000001
 43
0.0000000001
 40
0.0
 40
0.0
 40
0.0
 40
0.0
 40
0.06251279526949
 40
0.06251279526949
 40
0.093769192904235
 40
0.093769192904235
 40
0.12502559053898
 40
0.12502559053898
 40
0.18753838580847
 40
0.18753838580847
 40
0.25005118107796
 40
0.25005118107796
 40
0.312563976347449
 40
0.312563976347449
 40
0.343820373982195
 40
0.343820373982195
 40
0.37507677161694
 40
0.406333169251685
 40
0.406333169251685
 40
0.4375895668864301
 40
0.4375895668864301
 40
0.50010236215592
 40
0.50010236215592
 40
0.531358759790665
 40
0.531358759790665
 40
0.5626151574254101
 40
0.5626151574254101
 40
0.6251279526949001
 40
0.6251279526949001
 40
0.6563843503296451
 40
0.6563843503296451
 40
0.6876407479643901
 40
0.6876407479643901
 40
0.7501535432338791
 40
0.7501535432338791
 40
0.812666338503369
 40
0.812666338503369
 40
0.843922736138114
 40
0.843922736138114
 40
0.8751791337728588
 40
0.8751791337728588
 40
0.9376919290423492
 40
0.9376919290423492
 40
1.0
 40
1.0
 40
1.0
 40
1.0
 10
3.3000015613834
 20
20.0000000630583
 30
0.0
 41
1.0
 10
3.299995128481779
 20
19.9999998033049
 30
0.0
 41
1.0
 10
3.29481290922672
 20
19.9997906104668
 30
0.0
 41
1.0
 10
3.279570584143359
 20
19.9991925967305
 30
0.0
 41
1.0
 10
3.273236942369009
 20
19.998945908848
 30
0.0
 41
1.0
 10
3.258006839668469
 20
19.9983628446173
 30
0.0
 41
1.0
 10
3.249067738983259
 20
19.99802494825219
 30
0.0
 41
1.0
 10
3.218950322138709
 20
19.9969119360725
 30
0.0
 41
1.0
 10
3.19437759504157
 20
19.9960325716257
 30
0.0
 41
1.0
 10
3.13632341558684
 20
19.9941007762351
 30
0.0
 41
1.0
 10
3.10253598996187
 20
19.9930410123082
 30
0.0
 41
1.0
 10
3.028731126546229
 20
19.990952851348
 30
0.0
 41
1.0
 10
2.988459445686259
 20
19.9899145032993
 30
0.0
 41
1.0
 10
2.92287449139297
 20
19.9884552965019
 30
0.0
 41
1.0
 10
2.90015345229693
 20
19.9879861362937
 30
0.0
 41
1.0
 10
2.85397161734335
 20
19.9871149219983
 30
0.0
 41
1.0
 10
2.80680829147457
 20
19.9863051899642
 30
0.0
 41
1.0
 10
2.757710972953249
 20
19.985639546517
 30
0.0
 41
1.0
 10
2.70763314342574
 20
19.9850565338198
 30
0.0
 41
1.0
 10
2.68196546793197
 20
19.9848053520372
 30
0.0
 41
1.0
 10
2.604514705711499
 20
19.9842001949762
 30
0.0
 41
1.0
 10
2.552605023074249
 20
19.9839947137268
 30
0.0
 41
1.0
 10
2.47433764206022
 20
19.9839930422843
 30
0.0
 41
1.0
 10
2.44818088979193
 20
19.9840435699188
 30
0.0
 41
1.0
 10
2.3957280057046
 20
19.9842484180172
 30
0.0
 41
1.0
 10
2.36959826727099
 20
19.984402584148
 30
0.0
 41
1.0
 10
2.29264334233233
 20
19.9850035005524
 30
0.0
 41
1.0
 10
2.24277229822266
 20
19.9855903359607
 30
0.0
 41
1.0
 10
2.1701257896421
 20
19.9867013471766
 30
0.0
 41
1.0
 10
2.14614740491248
 20
19.9871127192403
 30
0.0
 41
1.0
 10
2.099800948564
 20
19.9879869540016
 30
0.0
 41
1.0
 10
2.07738620557481
 20
19.9884499866459
 30
0.0
 41
1.0
 10
2.01236279348433
 20
19.9898952434174
 30
0.0
 41
1.0
 10
1.971953230049649
 20
19.9909339223741
 30
0.0
 41
1.0
 10
1.897242624714839
 20
19.9930468451143
 30
0.0
 41
1.0
 10
1.86407687327457
 20
19.9940881117618
 30
0.0
 41
1.0
 10
1.82060971062927
 20
19.9955335378864
 30
0.0
 41
1.0
 10
1.807159909008129
 20
19.9959964520553
 30
0.0
 41
1.0
 10
1.782383148202399
 20
19.9968702717427
 30
0.0
 41
1.0
 10
1.771025479599269
 20
19.9972823921599
 30
0.0
 41
1.0
 10
1.740888179403129
 20
19.9983961266334
 30
0.0
 41
1.0
 10
1.7257509552623
 20
19.9989838958432
 30
0.0
 41
1.0
 10
1.705302457254729
 20
19.9997860026581
 30
0.0
 41
1.0
 10
1.700053065292389
 20
19.9999978648855
 30
0.0
 41
1.0
 10
1.700000401411189
 20
19.999999983882
 30
0.0
 41
1.0
  0
SPLINE
  5
EC
330
1F
100
AcDbEntity
  8
1
100
AcDbSpline
210
0.0
220
0.0
230
1.0
 70
    15
 71
     3
 72
    92
 73
    88
 74
     0
 42
0.000000001
 43
0.0000000001
 40
0.0
 40
0.0
 40
0.0
 40
0.0
 40
0.0312500000000002
 40
0.0312500000000002
 40
0.0468750000000004
 40
0.0468750000000004
 40
0.0625000000000006
 40
0.0625000000000006
 40
0.0937500000000018
 40
0.0937500000000018
 40
0.125000000000003
 40
0.125000000000003
 40
0.156250000000004
 40
0.156250000000004
 40
0.171875000000005
 40
0.171875000000005
 40
0.187500000000005
 40
0.203125000000006
 40
0.203125000000006
 40
0.218750000000006
 40
0.218750000000006
 40
0.250000000000007
 40
0.250000000000007
 40
0.265625000000008
 40
0.265625000000008
 40
0.281250000000009
 40
0.281250000000009
 40
0.312500000000009
 40
0.312500000000009
 40
0.32812500000001
 40
0.32812500000001
 40
0.34375000000001
 40
0.34375000000001
 40
0.37500000000001
 40
0.37500000000001
 40
0.40625000000001
 40
0.40625000000001
 40
0.42187500000001
 40
0.42187500000001
 40
0.437500000000011
 40
0.437500000000011
 40
0.468750000000012
 40
0.468750000000012
 40
0.5000000000000141
 40
0.5000000000000141
 40
0.531250000000016
 40
0.531250000000016
 40
0.546875000000016
 40
0.546875000000016
 40
0.562500000000016
 40
0.5781250000000171
 40
0.5781250000000171
 40
0.5937500000000171
 40
0.5937500000000171
 40
0.6250000000000171
 40
0.6250000000000171
 40
0.6406250000000171
 40
0.6406250000000171
 40
0.656250000000016
 40
0.656250000000016
 40
0.687500000000016
 40
0.687500000000016
 40
0.7031250000000151
 40
0.7031250000000151
 40
0.7187500000000151
 40
0.7187500000000151
 40
0.750000000000013
 40
0.750000000000013
 40
0.7812500000000121
 40
0.7812500000000121
 40
0.7968750000000121
 40
0.7968750000000121
 40
0.812500000000011
 40
0.812500000000011
 40
0.843750000000009
 40
0.843750000000009
 40
0.8750000000000078
 40
0.8750000000000078
 40
0.906250000000006
 40
0.906250000000006
 40
0.9218750000000051
 40
0.9218750000000051
 40
0.9375000000000039
 40
0.9375000000000039
 40
0.9687500000000021
 40
0.9687500000000021
 40
1.0
 40
1.0
 40
1.0
 40
1.0
 10
3.29999999999998
 20
17.3205080756887
 30
0.0
 41
1.0
 10
3.299999999999979
 20
17.2940793101738
 30
0.0
 41
1.0
 10
3.29481290922672
 20
17.2679113771223
 30
0.0
 41
1.0
 10
3.279570584143329
 20
17.2290495955594
 30
0.0
 41
1.0
 10
3.273236942369009
 20
17.2161614509785
 30
0.0
 41
1.0
 10
3.258006839668469
 20
17.190525909107
 30
0.0
 41
1.0
 10
3.249067738983229
 20
17.177743645107
 30
0.0
 41
1.0
 10
3.21895032213868
 20
17.1404499872504
 30
0.0
 41
1.0
 10
3.19437759504154
 20
17.1167145252602
 30
0.0
 41
1.0
 10
3.136323415586819
 20
17.0715624095915
 30
0.0
 41
1.0
 10
3.10253598996184
 20
17.0500606049189
 30
0.0
 41
1.0
 10
3.028731126546229
 20
17.0113565388791
 30
0.0
 41
1.0
 10
2.988459445686229
 20
16.9939003105387
 30
0.0
 41
1.0
 10
2.92287449139295
 20
16.9707053957962
 30
0.0
 41
1.0
 10
2.9001534522969
 20
16.9634906221775
 30
0.0
 41
1.0
 10
2.85397161438914
 20
16.9503960733051
 30
0.0
 41
1.0
 10
2.80680829147454
 20
16.9385462623237
 30
0.0
 41
1.0
 10
2.75771097295322
 20
16.9291685579595
 30
0.0
 41
1.0
 10
2.70763314342571
 20
16.9210523087028
 30
0.0
 41
1.0
 10
2.68196546793197
 20
16.9176115589893
 30
0.0
 41
1.0
 10
2.604514705711499
 20
16.9093806059983
 30
0.0
 41
1.0
 10
2.55260502307422
 20
16.90666106564
 30
0.0
 41
1.0
 10
2.474337642060189
 20
16.9066387418147
 30
0.0
 41
1.0
 10
2.448180889791899
 20
16.9073120066589
 30
0.0
 41
1.0
 10
2.395728005704569
 20
16.910060244779
 30
0.0
 41
1.0
 10
2.369598267270959
 20
16.9121334337291
 30
0.0
 41
1.0
 10
2.29264334233233
 20
16.9203065231024
 30
0.0
 41
1.0
 10
2.24277229822263
 20
16.9283644816619
 30
0.0
 41
1.0
 10
2.17012578964207
 20
16.9443441419055
 30
0.0
 41
1.0
 10
2.14614740491246
 20
16.95036314856819
 30
0.0
 41
1.0
 10
2.09980094856397
 20
16.9635027402815
 30
0.0
 41
1.0
 10
2.07738620557481
 20
16.9706242875154
 30
0.0
 41
1.0
 10
2.0123627934843
 20
16.9935876752636
 30
0.0
 41
1.0
 10
1.971953230049619
 20
17.0110133503678
 30
0.0
 41
1.0
 10
1.897242624714809
 20
17.0501611032853
 30
0.0
 41
1.0
 10
1.864076873274539
 20
17.0712994438779
 30
0.0
 41
1.0
 10
1.82060971062927
 20
17.1050344022931
 30
0.0
 41
1.0
 10
1.80715990900811
 20
17.1166281102005
 30
0.0
 41
1.0
 10
1.782383148202399
 20
17.1405163825422
 30
0.0
 41
1.0
 10
1.771025479599269
 20
17.1528636394223
 30
0.0
 41
1.0
 10
1.740888179403129
 20
17.1901791187894
 30
0.0
 41
1.0
 10
1.7257509552623
 20
17.2156212532808
 30
0.0
 41
1.0
 10
1.70526891875426
 20
17.26756549637
 30
0.0
 41
1.0
 10
1.700018623185879
 20
17.2942600310013
 30
0.0
 41
1.0
 10
1.69998147804722
 20
17.3464715355143
 30
0.0
 41
1.0
 10
1.705024947356889
 20
17.3722414300254
 30
0.0
 41
1.0
 10
1.720341115029019
 20
17.4103972965916
 30
0.0
 41
1.0
 10
1.72677191401635
 20
17.423041363018
 30
0.0
 41
1.0
 10
1.741964609895549
 20
17.447610294928
 30
0.0
 41
1.0
 10
1.75953525196979
 20
17.4716048335007
 30
0.0
 41
1.0
 10
1.781783029815239
 20
17.4944859283301
 30
0.0
 41
1.0
 10
1.80639772235483
 20
17.5168137039343
 30
0.0
 41
1.0
 10
1.819959992255149
 20
17.5277510385731
 30
0.0
 41
1.0
 10
1.86382284406625
 20
17.5593485378275
 30
0.0
 41
1.0
 10
1.89692219800688
 20
17.5786061566061
 30
0.0
 41
1.0
 10
1.952188459258959
 20
17.6049373288924
 30
0.0
 41
1.0
 10
1.971553537106219
 20
17.6132853751046
 30
0.0
 41
1.0
 10
2.01222460194074
 20
17.6291119035842
 30
0.0
 41
1.0
 10
2.033459777533979
 20
17.6365532173474
 30
0.0
 41
1.0
 10
2.09869561855609
 20
17.6571147056627
 30
0.0
 41
1.0
 10
2.14462016754285
 20
17.66865356686
 30
0.0
 41
1.0
 10
2.217170348488589
 20
17.6827639056807
 30
0.0
 41
1.0
 10
2.242112650955959
 20
17.6869485503844
 30
0.0
 41
1.0
 10
2.292427275458319
 20
17.6940905504893
 30
0.0
 41
1.0
 10
2.31779173782039
 20
17.6970562872861
 30
0.0
 41
1.0
 10
2.394490924504229
 20
17.7041928084738
 30
0.0
 41
1.0
 10
2.44642557668391
 20
17.70662111098969
 30
0.0
 41
1.0
 10
2.551956993219589
 20
17.7066707530446
 30
0.0
 41
1.0
 10
2.604148730377629
 20
17.7042754214498
 30
0.0
 41
1.0
 10
2.68083242207922
 20
17.6972054112446
 30
0.0
 41
1.0
 10
2.70616834007606
 20
17.6942647165556
 30
0.0
 41
1.0
 10
2.756380757232019
 20
17.6871861689252
 30
0.0
 41
1.0
 10
2.781372355227829
 20
17.6830215031461
 30
0.0
 41
1.0
 10
2.85414998427191
 20
17.6689422808713
 30
0.0
 41
1.0
 10
2.900124985847949
 20
17.6574312977307
 30
0.0
 41
1.0
 10
2.987066080584129
 20
17.6301373704498
 30
0.0
 41
1.0
 10
3.028282110280089
 20
17.6141774151917
 30
0.0
 41
1.0
 10
3.102186601001649
 20
17.5790935943723
 30
0.0
 41
1.0
 10
3.135318169710729
 20
17.559875822947
 30
0.0
 41
1.0
 10
3.179182687238439
 20
17.52841239142069
 30
0.0
 41
1.0
 10
3.192841935052289
 20
17.5174511814958
 30
0.0
 41
1.0
 10
3.21759182808322
 20
17.4951023634155
 30
0.0
 41
1.0
 10
3.22876683347823
 20
17.4836605912435
 30
0.0
 41
1.0
 10
3.258756629605609
 20
17.4485324963804
 30
0.0
 41
1.0
 10
3.274108167490029
 20
17.423957028917
 30
0.0
 41
1.0
 10
3.294812311785509
 20
17.3729073475968
 30
0.0
 41
1.0
 10
3.299999999999979
 20
17.3469368412036
 30
0.0
 41
1.0
 10
3.299999999999979
 20
17.3205080756887
 30
0.0
 41
1.0
  0
SPLINE
  5
ED
330
1F
100
AcDbEntity
  8
1
100
AcDbSpline
210
0.0
220
0.0
230
1.0
 70
    15
 71
     3
 72
    92
 73
    88
 74
     0
 42
0.000000001
 43
0.0000000001
 40
0.0
 40
0.0
 40
0.0
 40
0.0
 40
0.0312500000000005
 40
0.0312500000000005
 40
0.0468750000000004
 40
0.0468750000000004
 40
0.0625000000000004
 40
0.0625000000000004
 40
0.0937500000000001
 40
0.0937500000000001
 40
0.125
 40
0.125
 40
0.15625
 40
0.15625
 40
0.171874999999999
 40
0.171874999999999
 40
0.187499999999999
 40
0.203124999999998
 40
0.203124999999998
 40
0.218749999999998
 40
0.218749999999998
 40
0.249999999999997
 40
0.249999999999997
 40
0.265624999999996
 40
0.265624999999996
 40
0.281249999999996
 40
0.281249999999996
 40
0.312499999999995
 40
0.312499999999995
 40
0.328124999999994
 40
0.328124999999994
 40
0.343749999999994
 40
0.343749999999994
 40
0.374999999999993
 40
0.374999999999993
 40
0.406249999999993
 40
0.406249999999993
 40
0.421874999999993
 40
0.421874999999993
 40
0.437499999999992
 40
0.437499999999992
 40
0.4687499999999911
 40
0.4687499999999911
 40
0.4999999999999901
 40
0.4999999999999901
 40
0.531249999999989
 40
0.531249999999989
 40
0.546874999999989
 40
0.546874999999989
 40
0.562499999999989
 40
0.578124999999989
 40
0.578124999999989
 40
0.593749999999989
 40
0.593749999999989
 40
0.6249999999999901
 40
0.6249999999999901
 40
0.6406249999999901
 40
0.6406249999999901
 40
0.6562499999999901
 40
0.6562499999999901
 40
0.687499999999991
 40
0.687499999999991
 40
0.703124999999991
 40
0.703124999999991
 40
0.7187499999999921
 40
0.7187499999999921
 40
0.7499999999999921
 40
0.7499999999999921
 40
0.7812499999999929
 40
0.7812499999999929
 40
0.7968749999999929
 40
0.7968749999999929
 40
0.8124999999999939
 40
0.8124999999999939
 40
0.8437499999999948
 40
0.8437499999999948
 40
0.874999999999996
 40
0.874999999999996
 40
0.9062499999999969
 40
0.9062499999999969
 40
0.9218749999999969
 40
0.9218749999999969
 40
0.9374999999999978
 40
0.9374999999999978
 40
0.9687499999999989
 40
0.9687499999999989
 40
1.0
 40
1.0
 40
1.0
 40
1.0
 10
3.299999999999979
 20
14.14213562373095
 30
0.0
 41
1.0
 10
3.299999999999979
 20
14.104759705103
 30
0.0
 41
1.0
 10
3.29481290922672
 20
14.0678610472802
 30
0.0
 41
1.0
 10
3.279570584143359
 20
14.0132117434244
 30
0.0
 41
1.0
 10
3.273236942369009
 20
13.9951128496086
 30
0.0
 41
1.0
 10
3.258006839668469
 20
13.9591605348701
 30
0.0
 41
1.0
 10
3.249067738983259
 20
13.9412585917925
 30
0.0
 41
1.0
 10
3.218950322138709
 20
13.8890935325603
 30
0.0
 41
1.0
 10
3.19437759504157
 20
13.8559817128374
 30
0.0
 41
1.0
 10
3.13632341558684
 20
13.7931269493656
 30
0.0
 41
1.0
 10
3.10253598996184
 20
13.7632673797573
 30
0.0
 41
1.0
 10
3.028731126546229
 20
13.7096124762963
 30
0.0
 41
1.0
 10
2.988459445686259
 20
13.6854631299303
 30
0.0
 41
1.0
 10
2.92287449139297
 20
13.6534159079432
 30
0.0
 41
1.0
 10
2.9001534522969
 20
13.6434555324364
 30
0.0
 41
1.0
 10
2.853971614389169
 20
13.6253880262538
 30
0.0
 41
1.0
 10
2.80680829147457
 20
13.6090490022741
 30
0.0
 41
1.0
 10
2.757710972953249
 20
13.5961314879812
 30
0.0
 41
1.0
 10
2.70763314342574
 20
13.5849551677858
 30
0.0
 41
1.0
 10
2.68196546793197
 20
13.5802192341345
 30
0.0
 41
1.0
 10
2.604514705711499
 20
13.5688921611287
 30
0.0
 41
1.0
 10
2.552605023074249
 20
13.565152515192
 30
0.0
 41
1.0
 10
2.47433764206022
 20
13.5651218097378
 30
0.0
 41
1.0
 10
2.44818088979193
 20
13.5660477949834
 30
0.0
 41
1.0
 10
2.3957280057046
 20
13.569828353427
 30
0.0
 41
1.0
 10
2.36959826727099
 20
13.5726804830961
 30
0.0
 41
1.0
 10
2.29264334233233
 20
13.5839279197143
 30
0.0
 41
1.0
 10
2.24277229822266
 20
13.5950198256343
 30
0.0
 41
1.0
 10
2.1701257896421
 20
13.6170433761488
 30
0.0
 41
1.0
 10
2.14614740491248
 20
13.6253425951538
 30
0.0
 41
1.0
 10
2.099800948564
 20
13.6434722467465
 30
0.0
 41
1.0
 10
2.07738620557481
 20
13.6533039520962
 30
0.0
 41
1.0
 10
2.01236279348433
 20
13.6850309665326
 30
0.0
 41
1.0
 10
1.971953230049649
 20
13.709136932807
 30
0.0
 41
1.0
 10
1.897242624714839
 20
13.7634064866273
 30
0.0
 41
1.0
 10
1.86407687327457
 20
13.7927616153007
 30
0.0
 41
1.0
 10
1.82060971062927
 20
13.8397218433989
 30
0.0
 41
1.0
 10
1.807159909008129
 20
13.8558782003535
 30
0.0
 41
1.0
 10
1.782383148202399
 20
13.8892089967265
 30
0.0
 41
1.0
 10
1.771025479599269
 20
13.9064573256388
 30
0.0
 41
1.0
 10
1.740888179403129
 20
13.9586528712603
 30
0.0
 41
1.0
 10
1.7257509552623
 20
13.9943292311826
 30
0.0
 41
1.0
 10
1.70526891875426
 20
14.0673736022168
 30
0.0
 41
1.0
 10
1.70001862318591
 20
14.1050156685509
 30
0.0
 41
1.0
 10
1.69998147804722
 20
14.1788531172356
 30
0.0
 41
1.0
 10
1.705024947356889
 20
14.2154027001459
 30
0.0
 41
1.0
 10
1.72034111502899
 20
14.2696743431705
 30
0.0
 41
1.0
 10
1.726771914016319
 20
14.287685400568
 30
0.0
 41
1.0
 10
1.741964609895549
 20
14.3227322045271
 30
0.0
 41
1.0
 10
1.75953525196979
 20
14.3570094183236
 30
0.0
 41
1.0
 10
1.781783029815239
 20
14.3897863505997
 30
0.0
 41
1.0
 10
1.80639772235483
 20
14.4218123908091
 30
0.0
 41
1.0
 10
1.819959992255119
 20
14.4375220605029
 30
0.0
 41
1.0
 10
1.86382284406625
 20
14.48296327852269
 30
0.0
 41
1.0
 10
1.89692219800685
 20
14.5107351555058
 30
0.0
 41
1.0
 10
1.952188459258929
 20
14.548783318378
 30
0.0
 41
1.0
 10
1.971553537106219
 20
14.5608600300569
 30
0.0
 41
1.0
 10
2.01222460194074
 20
14.583777236974
 30
0.0
 41
1.0
 10
2.033459777533949
 20
14.5945639968916
 30
0.0
 41
1.0
 10
2.09869561855606
 20
14.6243937521008
 30
0.0
 41
1.0
 10
2.14462016754285
 20
14.6411679546474
 30
0.0
 41
1.0
 10
2.217170348488589
 20
14.6616998705592
 30
0.0
 41
1.0
 10
2.24211265095593
 20
14.6677931298314
 30
0.0
 41
1.0
 10
2.292427275458319
 20
14.6781967353923
 30
0.0
 41
1.0
 10
2.317791737820359
 20
14.6825192282062
 30
0.0
 41
1.0
 10
2.394490924504229
 20
14.6929229858226
 30
0.0
 41
1.0
 10
2.44642557668391
 20
14.6964663260439
 30
0.0
 41
1.0
 10
2.551956993219589
 20
14.6965387411677
 30
0.0
 41
1.0
 10
2.604148730377629
 20
14.6930434983378
 30
0.0
 41
1.0
 10
2.68083242207922
 20
14.6827365866594
 30
0.0
 41
1.0
 10
2.706168340076029
 20
14.6784505351436
 30
0.0
 41
1.0
 10
2.75638075723199
 20
14.6681391737042
 30
0.0
 41
1.0
 10
2.781372355227829
 20
14.6620748635984
 30
0.0
 41
1.0
 10
2.85414998427191
 20
14.6415877479279
 30
0.0
 41
1.0
 10
2.900124985847949
 20
14.6248536976211
 30
0.0
 41
1.0
 10
2.987066080584129
 20
14.585255522848
 30
0.0
 41
1.0
 10
3.028282110280089
 20
14.5621361276381
 30
0.0
 41
1.0
 10
3.10218660100162
 20
14.5114385049542
 30
0.0
 41
1.0
 10
3.135318169710699
 20
14.4837231114136
 30
0.0
 41
1.0
 10
3.179182687238439
 20
14.4384724382058
 30
0.0
 41
1.0
 10
3.192841935052289
 20
14.4227275865164
 30
0.0
 41
1.0
 10
3.21759182808322
 20
14.390669760442
 30
0.0
 41
1.0
 10
3.2287668334782
 20
14.3742787670163
 30
0.0
 41
1.0
 10
3.258756629605609
 20
14.3240266482535
 30
0.0
 41
1.0
 10
3.274108167490029
 20
14.2889633630979
 30
0.0
 41
1.0
 10
3.294812311785509
 20
14.2163478355109
 30
0.0
 41
1.0
 10
3.299999999999979
 20
14.1795115423589
 30
0.0
 41
1.0
 10
3.299999999999979
 20
14.14213562373095
 30
0.0
 41
1.0
  0
SPLINE
  5
EE
330
1F
100
AcDbEntity
  8
1
100
AcDbSpline
210
0.0
220
0.0
230
1.0
 70
    15
 71
     3
 72
    92
 73
    88
 74
     0
 42
0.000000001
 43
0.0000000001
 40
0.0
 40
0.0
 40
0.0
 40
0.0
 40
0.0312499999999993
 40
0.0312499999999993
 40
0.0468749999999989
 40
0.0468749999999989
 40
0.0624999999999985
 40
0.0624999999999985
 40
0.0937499999999995
 40
0.0937499999999995
 40
0.125000000000001
 40
0.125000000000001
 40
0.156250000000001
 40
0.156250000000001
 40
0.171875000000002
 40
0.171875000000002
 40
0.187500000000002
 40
0.2031250000000019
 40
0.2031250000000019
 40
0.2187500000000019
 40
0.2187500000000019
 40
0.250000000000003
 40
0.250000000000003
 40
0.265625000000003
 40
0.265625000000003
 40
0.281250000000003
 40
0.281250000000003
 40
0.312500000000003
 40
0.312500000000003
 40
0.328125000000003
 40
0.328125000000003
 40
0.343750000000003
 40
0.343750000000003
 40
0.3750000000000039
 40
0.3750000000000039
 40
0.4062500000000039
 40
0.4062500000000039
 40
0.4218750000000039
 40
0.4218750000000039
 40
0.437500000000005
 40
0.437500000000005
 40
0.4687500000000039
 40
0.4687500000000039
 40
0.500000000000004
 40
0.500000000000004
 40
0.5312500000000031
 40
0.5312500000000031
 40
0.5468750000000031
 40
0.5468750000000031
 40
0.5625000000000029
 40
0.5781250000000022
 40
0.5781250000000022
 40
0.5937500000000022
 40
0.5937500000000022
 40
0.625000000000001
 40
0.625000000000001
 40
0.640625000000001
 40
0.640625000000001
 40
0.6562500000000022
 40
0.6562500000000022
 40
0.6875000000000022
 40
0.6875000000000022
 40
0.703125000000001
 40
0.703125000000001
 40
0.718750000000001
 40
0.718750000000001
 40
0.750000000000001
 40
0.750000000000001
 40
0.78125
 40
0.78125
 40
0.796875
 40
0.796875
 40
0.8124999999999989
 40
0.8124999999999989
 40
0.8437499999999989
 40
0.8437499999999989
 40
0.8749999999999989
 40
0.8749999999999989
 40
0.90625
 40
0.90625
 40
0.921875
 40
0.921875
 40
0.9375
 40
0.9375
 40
0.96875
 40
0.96875
 40
1.0
 40
1.0
 40
1.0
 40
1.0
 10
3.300000000000009
 20
10.00000000000001
 30
0.0
 41
1.0
 10
3.300000000000009
 20
9.95422403534684
 30
0.0
 41
1.0
 10
3.29481290922675
 20
9.90910923530564
 30
0.0
 41
1.0
 10
3.27957058414339
 20
9.842396668902349
 30
0.0
 41
1.0
 10
3.27323694236907
 20
9.82032043555546
 30
0.0
 41
1.0
 10
3.25800683966852
 20
9.776501438785349
 30
0.0
 41
1.0
 10
3.24906773898328
 20
9.754699804466438
 30
0.0
 41
1.0
 10
3.21895032213874
 20
9.691218306438569
 30
0.0
 41
1.0
 10
3.194377595041599
 20
9.650986644777189
 30
0.0
 41
1.0
 10
3.136323415586899
 20
9.574712681760358
 30
0.0
 41
1.0
 10
3.102535989961889
 20
9.538530227539949
 30
0.0
 41
1.0
 10
3.028731126546289
 20
9.47358097965974
 30
0.0
 41
1.0
 10
2.98845944568632
 20
9.44438425331433
 30
0.0
 41
1.0
 10
2.922874491392999
 20
9.40566868930048
 30
0.0
 41
1.0
 10
2.900153452296959
 20
9.393641495036039
 30
0.0
 41
1.0
 10
2.8539716143892
 20
9.371832302231519
 30
0.0
 41
1.0
 10
2.80680829147462
 20
9.352117542736349
 30
0.0
 41
1.0
 10
2.7577109729533
 20
9.33654052576648
 30
0.0
 41
1.0
 10
2.707633143425799
 20
9.323065782384109
 30
0.0
 41
1.0
 10
2.681965467932029
 20
9.317357410846769
 30
0.0
 41
1.0
 10
2.604514705711549
 20
9.30370613913266
 30
0.0
 41
1.0
 10
2.55260502307431
 20
9.299201238308169
 30
0.0
 41
1.0
 10
2.474337642060279
 20
9.29916424375105
 30
0.0
 41
1.0
 10
2.448180889791979
 20
9.300279845033768
 30
0.0
 41
1.0
 10
2.395728005704659
 20
9.30483508499066
 30
0.0
 41
1.0
 10
2.36959826727104
 20
9.30827178745508
 30
0.0
 41
1.0
 10
2.292643342332379
 20
9.321827077100039
 30
0.0
 41
1.0
 10
2.24277229822272
 20
9.335197035322149
 30
0.0
 41
1.0
 10
2.170125789642159
 20
9.361763607535809
 30
0.0
 41
1.0
 10
2.146147404912509
 20
9.371777460822901
 30
0.0
 41
1.0
 10
2.09980094856405
 20
9.393661666499749
 30
0.0
 41
1.0
 10
2.07738620557487
 20
9.405533515493198
 30
0.0
 41
1.0
 10
2.012362793484379
 20
9.443862013015349
 30
0.0
 41
1.0
 10
1.97195323004971
 20
9.473005488695289
 30
0.0
 41
1.0
 10
1.897242624714889
 20
9.538698463010348
 30
0.0
 41
1.0
 10
1.8640768732746
 20
9.57426987625698
 30
0.0
 41
1.0
 10
1.820609710629329
 20
9.631255112098779
 30
0.0
 41
1.0
 10
1.807159909008159
 20
9.650873089073661
 30
0.0
 41
1.0
 10
1.782383148202429
 20
9.691374970786998
 30
0.0
 41
1.0
 10
1.77102547959933
 20
9.712348926620359
 30
0.0
 41
1.0
 10
1.74088817940319
 20
9.775867498319339
 30
0.0
 41
1.0
 10
1.725750955262359
 20
9.819346798701731
 30
0.0
 41
1.0
 10
1.705268918754289
 20
9.908513444506551
 30
0.0
 41
1.0
 10
1.70001862318594
 20
9.954537797929249
 30
0.0
 41
1.0
 10
1.699981478047249
 20
10.04496929068
 30
0.0
 41
1.0
 10
1.705024947356919
 20
10.0898077683152
 30
0.0
 41
1.0
 10
1.720341115029019
 20
10.1564966650143
 30
0.0
 41
1.0
 10
1.72677191401635
 20
10.1786472895859
 30
0.0
 41
1.0
 10
1.74196460989558
 20
10.2217835838217
 30
0.0
 41
1.0
 10
1.75953525196979
 20
10.2640075373675
 30
0.0
 41
1.0
 10
1.781783029815239
 20
10.3044466133223
 30
0.0
 41
1.0
 10
1.80639772235483
 20
10.3439883964222
 30
0.0
 41
1.0
 10
1.819959992255149
 20
10.3633998131427
 30
0.0
 41
1.0
 10
1.86382284406625
 20
10.4195880060151
 30
0.0
 41
1.0
 10
1.89692219800688
 20
10.4539815336814
 30
0.0
 41
1.0
 10
1.952188459258959
 20
10.5011537677173
 30
0.0
 41
1.0
 10
1.971553537106219
 20
10.5161361369197
 30
0.0
 41
1.0
 10
2.01222460194074
 20
10.5445822524954
 30
0.0
 41
1.0
 10
2.033459777533949
 20
10.5579793587051
 30
0.0
 41
1.0
 10
2.09869561855606
 20
10.5950445322867
 30
0.0
 41
1.0
 10
2.14462016754285
 20
10.6159109419997
 30
0.0
 41
1.0
 10
2.217170348488589
 20
10.6414652188637
 30
0.0
 41
1.0
 10
2.24211265095593
 20
10.6490518471547
 30
0.0
 41
1.0
 10
2.292427275458319
 20
10.6620080696453
 30
0.0
 41
1.0
 10
2.317791737820329
 20
10.6673927477342
 30
0.0
 41
1.0
 10
2.3944909245042
 20
10.6803547428909
 30
0.0
 41
1.0
 10
2.446425576683879
 20
10.6847716480372
 30
0.0
 41
1.0
 10
2.55195699321956
 20
10.6848619012587
 30
0.0
 41
1.0
 10
2.604148730377569
 20
10.6805049422165
 30
0.0
 41
1.0
 10
2.680832422079189
 20
10.6676635280628
 30
0.0
 41
1.0
 10
2.706168340076029
 20
10.662324207048
 30
0.0
 41
1.0
 10
2.756380757232019
 20
10.6494827340414
 30
0.0
 41
1.0
 10
2.781372355227829
 20
10.6419320523207
 30
0.0
 41
1.0
 10
2.85414998427191
 20
10.6164332063309
 30
0.0
 41
1.0
 10
2.900124985847949
 20
10.5956164867321
 30
0.0
 41
1.0
 10
2.98706608058416
 20
10.5464126146385
 30
0.0
 41
1.0
 10
3.028282110280089
 20
10.5177093280538
 30
0.0
 41
1.0
 10
3.102186601001649
 20
10.4548528627094
 30
0.0
 41
1.0
 10
3.135318169710729
 20
10.4205286053216
 30
0.0
 41
1.0
 10
3.17918268723847
 20
10.3645744490311
 30
0.0
 41
1.0
 10
3.192841935052289
 20
10.3451189412002
 30
0.0
 41
1.0
 10
3.21759182808324
 20
10.3055367950007
 30
0.0
 41
1.0
 10
3.22876683347823
 20
10.2853135994356
 30
0.0
 41
1.0
 10
3.258756629605609
 20
10.2233620556214
 30
0.0
 41
1.0
 10
3.274108167490029
 20
10.1802004577122
 30
0.0
 41
1.0
 10
3.294812311785539
 20
10.0909677120606
 30
0.0
 41
1.0
 10
3.300000000000009
 20
10.0457759646532
 30
0.0
 41
1.0
 10
3.300000000000009
 20
10.00000000000002
 30
0.0
 41
1.0
  0
SPLINE
  5
EF
330
1F
100
AcDbEntity
  8
1
100
AcDbSpline
210
0.0
220
0.0
230
1.0
 70
    12
 71
     3
 72
    52
 73
    48
 74
     0
 42
0.000000001
 43
0.0000000001
 40
0.0
 40
0.0
 40
0.0
 40
0.0
 40
0.0623144018913387
 40
0.0623144018913387
 40
0.0935705884949607
 40
0.0935705884949607
 40
0.124826775098583
 40
0.156082961702205
 40
0.156082961702205
 40
0.187339148305827
 40
0.187339148305827
 40
0.249851521513071
 40
0.249851521513071
 40
0.281107708116693
 40
0.281107708116693
 40
0.312363894720315
 40
0.312363894720315
 40
0.374876267927559
 40
0.374876267927559
 40
0.406132454531182
 40
0.406132454531182
 40
0.437388641134804
 40
0.437388641134804
 40
0.499901014342048
 40
0.499901014342048
 40
0.5624133875492921
 40
0.5624133875492921
 40
0.5936695741529139
 40
0.5936695741529139
 40
0.624925760756536
 40
0.624925760756536
 40
0.68743813396378
 40
0.68743813396378
 40
0.718694320567402
 40
0.718694320567402
 40
0.7499505071710241
 40
0.7499505071710241
 40
0.8124628803782679
 40
0.8124628803782679
 40
0.84371906698189
 40
0.84371906698189
 40
0.8749752535855121
 40
0.906231440189134
 40
0.906231440189134
 40
0.9374876267927559
 40
0.9374876267927559
 40
1.0
 40
1.0
 40
1.0
 40
1.0
 10
1.00000004744706
 20
-19.9999999962346
 30
0.0
 41
1.0
 10
1.000024720349899
 20
-19.9999981024794
 30
0.0
 41
1.0
 10
1.009483440440509
 20
-19.9992819071688
 30
0.0
 41
1.0
 10
1.038162868715289
 20
-19.9971717129745
 30
0.0
 41
1.0
 10
1.050222824712709
 20
-19.996290956387
 30
0.0
 41
1.0
 10
1.078710805954729
 20
-19.9942457003911
 30
0.0
 41
1.0
 10
1.11165847568577
 20
-19.99190993102689
 30
0.0
 41
1.0
 10
1.15338229736304
 20
-19.9890682300676
 30
0.0
 41
1.0
 10
1.199550133936559
 20
-19.9860110908452
 30
0.0
 41
1.0
 10
1.225000731279749
 20
-19.9843657722226
 30
0.0
 41
1.0
 10
1.307199837251199
 20
-19.9792337430451
 30
0.0
 41
1.0
 10
1.369236742598469
 20
-19.9755817727825
 30
0.0
 41
1.0
 10
1.472854803925659
 20
-19.9700735516429
 30
0.0
 41
1.0
 10
1.509167361823409
 20
-19.968232219918
 30
0.0
 41
1.0
 10
1.58544685013354
 20
-19.9645925612226
 30
0.0
 41
1.0
 10
1.625218987127479
 20
-19.9628050152291
 30
0.0
 41
1.0
 10
1.74747197148051
 20
-19.9576969476943
 30
0.0
 41
1.0
 10
1.8335650294203
 20
-19.9545962950421
 30
0.0
 41
1.0
 10
1.969636805852699
 20
-19.9506699022797
 30
0.0
 41
1.0
 10
2.016427033853999
 20
-19.9494766961873
 30
0.0
 41
1.0
 10
2.110733471447109
 20
-19.9474135182581
 30
0.0
 41
1.0
 10
2.15828367177085
 20
-19.9465403647562
 30
0.0
 41
1.0
 10
2.30209682112104
 20
-19.9444221667035
 30
0.0
 41
1.0
 10
2.399511025736249
 20
-19.9436780575445
 30
0.0
 41
1.0
 10
2.597536993929539
 20
-19.9436634020487
 30
0.0
 41
1.0
 10
2.695302468364499
 20
-19.9443965134209
 30
0.0
 41
1.0
 10
2.839120546769319
 20
-19.9464960595299
 30
0.0
 41
1.0
 10
2.88664382948565
 20
-19.9473626376948
 30
0.0
 41
1.0
 10
2.980841492332439
 20
-19.9494108005618
 30
0.0
 41
1.0
 10
3.027704692830269
 20
-19.950599163374
 30
0.0
 41
1.0
 10
3.164096551948599
 20
-19.9545173624782
 30
0.0
 41
1.0
 10
3.250286460693589
 20
-19.9576124810533
 30
0.0
 41
1.0
 10
3.37256515972447
 20
-19.9627080202227
 30
0.0
 41
1.0
 10
3.412229429424139
 20
-19.96448599319769
 30
0.0
 41
1.0
 10
3.488776908350899
 20
-19.9681300630571
 30
0.0
 41
1.0
 10
3.52519497769154
 20
-19.9699731921004
 30
0.0
 41
1.0
 10
3.629067131793049
 20
-19.9754852454653
 30
0.0
 41
1.0
 10
3.691190055916679
 20
-19.9791375310648
 30
0.0
 41
1.0
 10
3.77347109260179
 20
-19.9842682955285
 30
0.0
 41
1.0
 10
3.79906543896519
 20
-19.9859209336956
 30
0.0
 41
1.0
 10
3.84544648711869
 20
-19.9889892391516
 30
0.0
 41
1.0
 10
3.887345292227509
 20
-19.9918405060938
 30
0.0
 41
1.0
 10
3.920427133432869
 20
-19.9941843928057
 30
0.0
 41
1.0
 10
3.949046156757849
 20
-19.9962379225828
 30
0.0
 41
1.0
 10
3.961159513445609
 20
-19.9971221301598
 30
0.0
 41
1.0
 10
3.99026794089343
 20
-19.9992630862947
 30
0.0
 41
1.0
 10
4.000007977968009
 20
-20.0000006040094
 30
0.0
 41
1.0
 10
4.000001558195629
 20
-20.0000001179869
 30
0.0
 41
1.0
  0
LINE
  5
51
330
1F
100
AcDbEntity
  8
1
 60
     1
100
AcDbLine
 10
-236.700219
 20
-172.298177
 30
0.0
 11
-236.700219
 21
124.701823
 31
0.0
  0
LINE
  5
52
330
1F
100
AcDbEntity
  8
1
 60
     1
100
AcDbLine
 10
183.299781
 20
124.701823
 30
0.0
 11
-236.700219
 21
124.701823
 31
0.0
  0
LINE
  5
53
330
1F
100
AcDbEntity
  8
1
 60
     1
100
AcDbLine
 10
183.299781
 20
124.701823
 30
0.0
 11
183.299781
 21
-172.298177
 31
0.0
  0
LINE
  5
54
330
1F
100
AcDbEntity
  8
1
 60
     1
100
AcDbLine
 10
-236.700219
 20
-172.298177
 30
0.0
 11
183.299781
 21
-172.298177
 31
0.0
  0
LINE
  5
55
330
1F
100
AcDbEntity
  8
1
100
AcDbLine
 10
1.8
 20
18.325331
 30
0.0
 11
3.2
 21
18.325331
 31
0.0
  0
LINE
  5
56
330
1F
100
AcDbEntity
  8
SK1
100
AcDbLine
 10
-53.2
 20
15.641
 30
0.0
 11
-59.0
 21
15.641
 31
0.0
  0
LINE
  5
58
330
1F
100
AcDbEntity
  8
1
100
AcDbLine
 10
4.799999999999999
 20
16.5
 30
0.0
 11
4.299999999999999
 21
16.5
 31
0.0
  0
LINE
  5
59
330
1F
100
AcDbEntity
  8
1
100
AcDbLine
 10
4.0
 20
-17.3
 30
0.0
 11
2.5
 21
-16.433975
 31
0.0
  0
LINE
  5
5A
330
1F
100
AcDbEntity
  8
SK1
100
AcDbLine
 10
-31.0
 20
12.70525
 30
0.0
 11
-37.20000000000001
 21
12.70525
 31
0.0
  0
LINE
  5
5B
330
1F
100
AcDbEntity
  8
1
100
AcDbLine
 10
1.0
 20
19.318125
 30
0.0
 11
1.0
 21
19.125331
 31
0.0
  0
LINE
  5
5C
330
1F
100
AcDbEntity
  8
SK1
100
AcDbLine
 10
-15.374183
 20
-16.101
 30
0.0
 11
-2.942849999999999
 21
-16.101
 31
0.0
  0
LINE
  5
5D
330
1F
100
AcDbEntity
  8
SK1
100
AcDbLine
 10
-16.0
 20
-15.475
 30
0.0
 11
-15.374
 21
-16.101
 31
0.0
  0
LINE
  5
5E
330
1F
100
AcDbEntity
  8
SK1
100
AcDbLine
 10
-44.126
 20
-16.101
 30
0.0
 11
-43.5
 21
-15.475
 31
0.0
  0
LINE
  5
5F
330
1F
100
AcDbEntity
  8
SK1
100
AcDbLine
 10
-2.567404
 20
15.641
 30
0.0
 11
-8.8
 21
15.641
 31
0.0
  0
LINE
  5
60
330
1F
100
AcDbEntity
  8
1
100
AcDbLine
 10
3.299999999999999
 20
16.930797
 30
0.0
 11
3.299999999999999
 21
17.320508
 31
0.0
  0
LINE
  5
61
330
1F
100
AcDbEntity
  8
1
100
AcDbLine
 10
1.7
 20
17.320173
 30
0.0
 11
1.7
 21
16.930797
 31
0.0
  0
LINE
  5
62
330
1F
100
AcDbEntity
  8
1
100
AcDbLine
 10
3.299999999999999
 20
13.823938
 30
0.0
 11
3.299999999999999
 21
14.142136
 31
0.0
  0
LINE
  5
63
330
1F
100
AcDbEntity
  8
SK1
100
AcDbLine
 10
-43.5
 20
-15.475
 30
0.0
 11
-16.0
 21
-15.475
 31
0.0
  0
LINE
  5
64
330
1F
100
AcDbEntity
  8
1
100
AcDbLine
 10
1.7
 20
14.141862
 30
0.0
 11
1.7
 21
13.823938
 31
0.0
  0
LINE
  5
65
330
1F
100
AcDbEntity
  8
SK1
100
AcDbLine
 10
-24.8
 20
15.475
 30
0.0
 11
-37.20000000000001
 21
15.475
 31
0.0
  0
LINE
  5
66
330
1F
100
AcDbEntity
  8
SK1
100
AcDbLine
 10
-2.015432
 20
-15.475
 30
0.0
 11
-0.55
 21
-15.475
 31
0.0
  0
LINE
  5
67
330
1F
100
AcDbEntity
  8
SK1
100
AcDbLine
 10
-60.0
 20
-15.101
 30
0.0
 11
-59.0
 21
-16.101
 31
0.0
  0
LINE
  5
68
330
1F
100
AcDbEntity
  8
SK1
100
AcDbLine
 10
-59.0
 20
15.641
 30
0.0
 11
-60.0
 21
14.641
 31
0.0
  0
LINE
  5
69
330
1F
100
AcDbEntity
  8
1
100
AcDbLine
 10
2.5
 20
-16.433975
 30
0.0
 11
1.0
 21
-17.3
 31
0.0
  0
LINE
  5
6A
330
1F
100
AcDbEntity
  8
1
100
AcDbLine
 10
4.206418
 20
-16.611527
 30
0.0
 11
4.299999999999999
 21
-16.5
 31
0.0
  0
LINE
  5
6B
330
1F
100
AcDbEntity
  8
1
100
AcDbLine
 10
4.299999999999999
 20
16.5
 30
0.0
 11
4.206418
 21
16.611527
 31
0.0
  0
LINE
  5
6C
330
1F
100
AcDbEntity
  8
1
100
AcDbLine
 10
4.0
 20
19.125331
 30
0.0
 11
4.0
 21
19.318125
 31
0.0
  0
LINE
  5
6D
330
1F
100
AcDbEntity
  8
1
100
AcDbLine
 10
5.0
 20
16.7
 30
0.0
 11
4.799999999999999
 21
16.5
 31
0.0
  0
LINE
  5
6E
330
1F
100
AcDbEntity
  8
1
100
AcDbLine
 10
4.7
 20
20.0
 30
0.0
 11
3.299999999999999
 21
20.0
 31
0.0
  0
LINE
  5
6F
330
1F
100
AcDbEntity
  8
1
100
AcDbLine
 10
4.299999999999999
 20
-16.5
 30
0.0
 11
4.799999999999999
 21
-16.5
 31
0.0
  0
LINE
  5
70
330
1F
100
AcDbEntity
  8
SK1
100
AcDbLine
 10
-0.55
 20
15.475
 30
0.0
 11
-2.015432
 21
15.475
 31
0.0
  0
LINE
  5
71
330
1F
100
AcDbEntity
  8
SK1
100
AcDbLine
 10
-31.0
 20
-13.0
 30
0.0
 11
-8.5
 21
-13.0
 31
0.0
  0
LINE
  5
72
330
1F
100
AcDbEntity
  8
1
100
AcDbLine
 10
1.709799
 20
20.0
 30
0.0
 11
0.3
 21
20.0
 31
0.0
  0
LINE
  5
73
330
1F
100
AcDbEntity
  8
1
100
AcDbLine
 10
4.799999999999999
 20
-16.5
 30
0.0
 11
5.0
 21
-16.7
 31
0.0
  0
LINE
  5
74
330
1F
100
AcDbEntity
  8
SK1
100
AcDbLine
 10
-24.8
 20
13.0
 30
0.0
 11
-31.0
 21
13.0
 31
0.0
  0
LINE
  5
75
330
1F
100
AcDbEntity
  8
SK1
100
AcDbLine
 10
-8.5
 20
13.0
 30
0.0
 11
-8.8
 21
13.0
 31
0.0
  0
LINE
  5
76
330
1F
100
AcDbEntity
  8
SK1
100
AcDbLine
 10
-53.2
 20
13.0
 30
0.0
 11
-60.0
 21
13.0
 31
0.0
  0
LINE
  5
77
330
1F
100
AcDbEntity
  8
SK1
100
AcDbLine
 10
-24.8
 20
6.5
 30
0.0
 11
-24.8
 21
15.475
 31
0.0
  0
LINE
  5
78
330
1F
100
AcDbEntity
  8
1
100
AcDbLine
 10
4.7
 20
-20.0
 30
0.0
 11
5.0
 21
-19.7
 31
0.0
  0
LINE
  5
79
330
1F
100
AcDbEntity
  8
1
100
AcDbLine
 10
5.0
 20
19.7
 30
0.0
 11
4.7
 21
20.0
 31
0.0
  0
LINE
  5
7A
330
1F
100
AcDbEntity
  8
1
100
AcDbLine
 10
2.5
 20
19.08812
 30
0.0
 11
3.299999999999999
 21
19.55
 31
0.0
  0
LINE
  5
7B
330
1F
100
AcDbEntity
  8
1
100
AcDbLine
 10
1.7
 20
19.55
 30
0.0
 11
2.5
 21
19.08812
 31
0.0
  0
LINE
  5
7C
330
1F
100
AcDbEntity
  8
1
100
AcDbLine
 10
0.0
 20
-19.7
 30
0.0
 11
0.3
 21
-20.0
 31
0.0
  0
LINE
  5
7D
330
1F
100
AcDbEntity
  8
1
100
AcDbLine
 10
0.3
 20
20.0
 30
0.0
 11
0.0
 21
19.7
 31
0.0
  0
LINE
  5
7E
330
1F
100
AcDbEntity
  8
1
100
AcDbLine
 10
1.7
 20
20.0
 30
0.0
 11
1.7
 21
19.55
 31
0.0
  0
LINE
  5
7F
330
1F
100
AcDbEntity
  8
1
100
AcDbLine
 10
0.3
 20
-20.0
 30
0.0
 11
1.018521999999999
 21
-20.0
 31
0.0
  0
LINE
  5
80
330
1F
100
AcDbEntity
  8
1
100
AcDbLine
 10
4.0
 20
-20.0
 30
0.0
 11
4.7
 21
-20.0
 31
0.0
  0
LINE
  5
81
330
1F
100
AcDbEntity
  8
1
100
AcDbLine
 10
1.7
 20
9.999807
 30
0.0
 11
1.7
 21
9.775
 31
0.0
  0
LINE
  5
82
330
1F
100
AcDbEntity
  8
1
100
AcDbLine
 10
3.299999999999999
 20
9.775
 30
0.0
 11
3.299999999999999
 21
10.0
 31
0.0
  0
LINE
  5
83
330
1F
100
AcDbEntity
  8
1
100
AcDbLine
 10
3.299999999999999
 20
19.55
 30
0.0
 11
3.299999999999999
 21
20.0
 31
0.0
  0
LINE
  5
84
330
1F
100
AcDbEntity
  8
1
100
AcDbLine
 10
1.0
 20
-17.3
 30
0.0
 11
1.0
 21
-20.0
 31
0.0
  0
LINE
  5
85
330
1F
100
AcDbEntity
  8
1
100
AcDbLine
 10
4.0
 20
-20.0
 30
0.0
 11
4.0
 21
-17.3
 31
0.0
  0
LINE
  5
86
330
1F
100
AcDbEntity
  8
SK1
100
AcDbLine
 10
-59.0
 20
-16.101
 30
0.0
 11
-44.125906
 21
-16.101
 31
0.0
  0
LINE
  5
87
330
1F
100
AcDbEntity
  8
SK1
100
AcDbLine
 10
-60.0
 20
-13.0
 30
0.0
 11
-52.0
 21
-13.0
 31
0.0
  0
LINE
  5
88
330
1F
100
AcDbEntity
  8
1
100
AcDbLine
 10
3.5
 20
12.90525
 30
0.0
 11
3.299999999999999
 21
12.70525
 31
0.0
  0
LINE
  5
89
330
1F
100
AcDbEntity
  8
1
100
AcDbLine
 10
3.299999999999999
 20
-12.70525
 30
0.0
 11
3.5
 21
-12.90525
 31
0.0
  0
LINE
  5
8A
330
1F
100
AcDbEntity
  8
SK1
100
AcDbLine
 10
-8.5
 20
-12.70525
 30
0.0
 11
3.299999999999999
 21
-12.70525
 31
0.0
  0
LINE
  5
8B
330
1F
100
AcDbEntity
  8
SK1
100
AcDbLine
 10
3.299999999999999
 20
12.70525
 30
0.0
 11
-8.5
 21
12.70525
 31
0.0
  0
LINE
  5
8C
330
1F
100
AcDbEntity
  8
SK1
100
AcDbLine
 10
-52.0
 20
-12.70525
 30
0.0
 11
-31.0
 21
-12.70525
 31
0.0
  0
LINE
  5
8D
330
1F
100
AcDbEntity
  8
1
100
AcDbLine
 10
0.45
 20
-16.475
 30
0.0
 11
0.45
 21
16.475
 31
0.0
  0
LINE
  5
8E
330
1F
100
AcDbEntity
  8
1
100
AcDbLine
 10
3.2
 20
18.918276
 30
0.0
 11
1.8
 21
18.918276
 31
0.0
  0
LINE
  5
8F
330
1F
100
AcDbEntity
  8
1
100
AcDbLine
 10
1.8
 20
19.332386
 30
0.0
 11
3.2
 21
19.332386
 31
0.0
  0
LINE
  5
90
330
1F
100
AcDbEntity
  8
SK1
100
AcDbLine
 10
-60.0
 20
-0.23
 30
0.0
 11
-60.0
 21
14.641
 31
0.0
  0
LINE
  5
91
330
1F
100
AcDbEntity
  8
SK1
100
AcDbLine
 10
-60.0
 20
-15.101
 30
0.0
 11
-60.0
 21
-0.23
 31
0.0
  0
LINE
  5
92
330
1F
100
AcDbEntity
  8
SK1
100
AcDbLine
 10
-59.0
 20
-16.101
 30
0.0
 11
-59.0
 21
15.641
 31
0.0
  0
LINE
  5
93
330
1F
100
AcDbEntity
  8
1
100
AcDbLine
 10
4.799999999999999
 20
-16.5
 30
0.0
 11
4.799999999999999
 21
16.5
 31
0.0
  0
LINE
  5
94
330
1F
100
AcDbEntity
  8
SK1
100
AcDbLine
 10
-37.20000000000001
 20
6.5
 30
0.0
 11
-37.20000000000001
 21
15.475
 31
0.0
  0
LINE
  5
95
330
1F
100
AcDbEntity
  8
SK1
100
AcDbLine
 10
-43.88708499999999
 20
0.5
 30
0.0
 11
-47.2
 21
0.5
 31
0.0
  0
LINE
  5
96
330
1F
100
AcDbEntity
  8
1
100
AcDbLine
 10
5.0
 20
-19.7
 30
0.0
 11
5.0
 21
19.7
 31
0.0
  0
LINE
  5
97
330
1F
100
AcDbEntity
  8
1
100
AcDbLine
 10
4.7
 20
-20.0
 30
0.0
 11
4.7
 21
20.0
 31
0.0
  0
LINE
  5
98
330
1F
100
AcDbEntity
  8
1
100
AcDbLine
 10
0.3
 20
-20.0
 30
0.0
 11
0.3
 21
20.0
 31
0.0
  0
LINE
  5
99
330
1F
100
AcDbEntity
  8
1
100
AcDbLine
 10
0.0
 20
-19.7
 30
0.0
 11
0.0
 21
19.7
 31
0.0
  0
LINE
  5
9A
330
1F
100
AcDbEntity
  8
SK1
100
AcDbLine
 10
-0.55
 20
0.0
 30
0.0
 11
-0.55
 21
15.475
 31
0.0
  0
LINE
  5
9B
330
1F
100
AcDbEntity
  8
1
100
AcDbLine
 10
-0.55
 20
-15.475
 30
0.0
 11
-0.55
 21
15.475
 31
0.0
  0
LINE
  5
9C
330
1F
100
AcDbEntity
  8
1
100
AcDbLine
 10
-0.55
 20
-15.475
 30
0.0
 11
-0.55
 21
0.0
 31
0.0
  0
LINE
  5
9D
330
1F
100
AcDbEntity
  8
SK1
100
AcDbLine
 10
-2.015432
 20
0.0
 30
0.0
 11
-2.015432
 21
15.475
 31
0.0
  0
LINE
  5
9E
330
1F
100
AcDbEntity
  8
SK1
100
AcDbLine
 10
-2.015432
 20
-15.475
 30
0.0
 11
-2.015432
 21
15.475
 31
0.0
  0
LINE
  5
9F
330
1F
100
AcDbEntity
  8
SK1
100
AcDbLine
 10
-2.015432
 20
-15.475
 30
0.0
 11
-2.015432
 21
0.0
 31
0.0
  0
LINE
  5
A0
330
1F
100
AcDbEntity
  8
SK1
100
AcDbLine
 10
-43.5
 20
-15.475
 30
0.0
 11
-43.5
 21
0.5
 31
0.0
  0
LINE
  5
A1
330
1F
100
AcDbEntity
  8
SK1
100
AcDbLine
 10
-16.0
 20
-15.475
 30
0.0
 11
-16.0
 21
0.5
 31
0.0
  0
LINE
  5
A2
330
1F
100
AcDbEntity
  8
SK1
100
AcDbLine
 10
-8.5
 20
0.0
 30
0.0
 11
-8.5
 21
13.0
 31
0.0
  0
LINE
  5
A3
330
1F
100
AcDbEntity
  8
SK1
100
AcDbLine
 10
-8.5
 20
-13.0
 30
0.0
 11
-8.5
 21
0.0
 31
0.0
  0
LINE
  5
A4
330
1F
100
AcDbEntity
  8
SK1
100
AcDbLine
 10
-31.0
 20
0.0
 30
0.0
 11
-31.0
 21
13.0
 31
0.0
  0
LINE
  5
A5
330
1F
100
AcDbEntity
  8
SK1
100
AcDbLine
 10
-31.0
 20
-13.0
 30
0.0
 11
-31.0
 21
0.0
 31
0.0
  0
LINE
  5
A6
330
1F
100
AcDbEntity
  8
SK1
100
AcDbLine
 10
-52.0
 20
-13.0
 30
0.0
 11
-52.0
 21
2.9
 31
0.0
  0
LINE
  5
A7
330
1F
100
AcDbEntity
  8
SK1
100
AcDbLine
 10
-8.8
 20
6.5
 30
0.0
 11
-8.8
 21
15.641
 31
0.0
  0
LINE
  5
A8
330
1F
100
AcDbEntity
  8
SK1
100
AcDbLine
 10
-14.8
 20
0.5
 30
0.0
 11
-15.612915
 21
0.5
 31
0.0
  0
LINE
  5
A9
330
1F
100
AcDbEntity
  8
SK1
100
AcDbLine
 10
-18.8
 20
0.5
 30
0.0
 11
-16.0
 21
0.5
 31
0.0
  0
LINE
  5
AA
330
1F
100
AcDbEntity
  8
SK1
100
AcDbLine
 10
-43.5
 20
0.5
 30
0.0
 11
-43.2
 21
0.5
 31
0.0
  0
LINE
  5
AB
330
1F
100
AcDbEntity
  8
SK1
100
AcDbLine
 10
-53.2
 20
15.641
 30
0.0
 11
-53.2
 21
6.5
 31
0.0
  0
LINE
  5
AC
330
1F
100
AcDbEntity
  8
1
100
AcDbLine
 10
3.299999999999999
 20
19.55
 30
0.0
 11
1.7
 21
19.55
 31
0.0
  0
LINE
  5
AD
330
1F
100
AcDbEntity
  8
1
100
AcDbLine
 10
4.0
 20
-17.3
 30
0.0
 11
1.0
 21
-17.3
 31
0.0
  0
LINE
  5
AE
330
1F
100
AcDbEntity
  8
1
100
AcDbLine
 10
0.0
 20
2.049999999999999
 30
0.0
 11
5.0
 21
2.049999999999999
 31
0.0
  0
LINE
  5
AF
330
1F
100
AcDbEntity
  8
1
100
AcDbLine
 10
0.0
 20
-2.049999999999999
 30
0.0
 11
5.0
 21
-2.049999999999999
 31
0.0
  0
LINE
  5
B0
330
1F
100
AcDbEntity
  8
1
100
AcDbLine
 10
4.299999999999999
 20
0.0
 30
0.0
 11
4.299999999999999
 21
16.5
 31
0.0
  0
LINE
  5
B1
330
1F
100
AcDbEntity
  8
1
100
AcDbLine
 10
4.299999999999999
 20
-16.5
 30
0.0
 11
4.299999999999999
 21
0.0
 31
0.0
  0
LINE
  5
B2
330
1F
100
AcDbEntity
  8
1
100
AcDbLine
 10
4.206418
 20
-16.611527
 30
0.0
 11
4.206418
 21
16.611527
 31
0.0
  0
LINE
  5
B3
330
1F
100
AcDbEntity
  8
1
100
AcDbLine
 10
3.5
 20
0.0
 30
0.0
 11
3.5
 21
16.354412
 31
0.0
  0
LINE
  5
B4
330
1F
100
AcDbEntity
  8
1
100
AcDbLine
 10
3.5
 20
-16.354412
 30
0.0
 11
3.5
 21
0.0
 31
0.0
  0
LINE
  5
B5
330
1F
100
AcDbEntity
  8
1
100
AcDbLine
 10
3.299999999999999
 20
0.0
 30
0.0
 11
3.299999999999999
 21
9.775236999999998
 31
0.0
  0
LINE
  5
B6
330
1F
100
AcDbEntity
  8
1
100
AcDbLine
 10
3.299999999999999
 20
10.000002
 30
0.0
 11
3.299999999999999
 21
12.70525
 31
0.0
  0
LINE
  5
B7
330
1F
100
AcDbEntity
  8
1
100
AcDbLine
 10
3.299999999999999
 20
-12.70525
 30
0.0
 11
3.299999999999999
 21
0.0
 31
0.0
  0
LINE
  5
B8
330
1F
100
AcDbEntity
  8
1
100
AcDbLine
 10
3.2
 20
19.510111
 30
0.0
 11
1.8
 21
19.510111
 31
0.0
  0
LINE
  5
B9
330
1F
100
AcDbEntity
  8
1
100
AcDbLine
 10
1.8
 20
19.096
 30
0.0
 11
3.2
 21
19.096
 31
0.0
  0
LINE
  5
BA
330
1F
100
AcDbEntity
  8
1
100
AcDbLine
 10
3.2
 20
19.332386
 30
0.0
 11
3.2
 21
19.510111
 31
0.0
  0
LINE
  5
BB
330
1F
100
AcDbEntity
  8
1
100
AcDbLine
 10
3.2
 20
18.918276
 30
0.0
 11
3.2
 21
19.096
 31
0.0
  0
LINE
  5
BC
330
1F
100
AcDbEntity
  8
1
100
AcDbLine
 10
1.8
 20
19.332386
 30
0.0
 11
1.8
 21
19.510111
 31
0.0
  0
LINE
  5
BD
330
1F
100
AcDbEntity
  8
1
100
AcDbLine
 10
1.8
 20
18.918276
 30
0.0
 11
1.8
 21
19.096
 31
0.0
  0
LINE
  5
BE
330
1F
100
AcDbEntity
  8
1
100
AcDbLine
 10
3.2
 20
18.325331
 30
0.0
 11
3.2
 21
19.096212
 31
0.0
  0
LINE
  5
BF
330
1F
100
AcDbEntity
  8
1
100
AcDbLine
 10
3.2
 20
19.096212
 30
0.0
 11
3.2
 21
19.332386
 31
0.0
  0
LINE
  5
C0
330
1F
100
AcDbEntity
  8
1
100
AcDbLine
 10
1.8
 20
18.325331
 30
0.0
 11
1.8
 21
19.096212
 31
0.0
  0
LINE
  5
C1
330
1F
100
AcDbEntity
  8
1
100
AcDbLine
 10
1.8
 20
19.096212
 30
0.0
 11
1.8
 21
19.332386
 31
0.0
  0
LINE
  5
C2
330
1F
100
AcDbEntity
  8
81
100
AcDbLine
 10
5.0
 20
0.0
 30
0.0
 11
11.455888
 21
0.0
 31
0.0
  0
LINE
  5
C3
330
1F
100
AcDbEntity
  8
80
100
AcDbLine
 10
0.0
 20
0.0
 30
0.0
 11
-7.665063
 21
0.0
 31
0.0
  0
LINE
  5
F0
330
1F
100
AcDbEntity
  8
SK4
 48
0.05
100
AcDbLine
 10
-66.5
 20
-0.23
 30
0.0
 11
4.825823
 21
-0.23
 31
0.0
  0
MTEXT
  5
F2
330
1F
100
AcDbEntity
  8
SK6
100
AcDbMText
 10
-46.67271099999999
 20
-26.086841
 30
0.0
 40
3.5
 41
0.0
 71
     7
 72
     5
  1
\W00.762;\fsimplex.shx,bigfont.shx;A416.2-LX25-32 
  7
DEFAULT
 73
     1
 44
1.084337
1001
ACAD
1000
MTEXTBEGIN
1070
    73
1070
     1
1070
    44
1040
1.084337
1070
    74
1070
     0
1000
MTEXTEND
  0
DIMENSION
  5
100
330
1F
100
AcDbEntity
  8
2
370
    -3
100
AcDbDimension
  2
DimnDraft3D1
 10
5.0
 20
32.790401
 30
0.0
 11
1.740132
 21
32.790401
 31
0.0
 70
    32
 71
     5
 42
-1.0
  3
Standard
100
AcDbAlignedDimension
 13
0.0
 23
21.2875
 33
0.0
 14
5.0
 24
21.2875
 34
0.0
100
AcDbRotatedDimension
1001
ACAD
1000
DSTYLE
1002
{
1070
   279
1070
     0
1070
   172
1070
     1
1070
   173
1070
     1
1070
   340
1005
F3
1070
   271
1070
     2
1070
   272
1070
     2
1070
    77
1070
     1
1070
    73
1070
     0
1070
   171
1070
     3
1070
   274
1070
     4
1070
   177
1070
     2
1070
   176
1070
     2
1070
   178
1070
     2
1070
    78
1070
     8
1070
    48
1040
-0.005
1070
    41
1041
3.5
1070
   147
1041
1.75
1070
    42
1041
1.587499999999999
1070
    44
1041
2.0
1070
   140
1041
3.5
1070
   343
1005
0
1070
   344
1005
0
1002
}
  0
DIMENSION
  5
10B
330
1F
100
AcDbEntity
  8
2
370
    -3
100
AcDbDimension
  2
DimnDraft3D2
 10
34.773644
 20
-20.0
 30
0.0
 11
30.148644
 21
1.271052999999999
 31
0.0
 70
    33
 71
     5
 42
-1.0
  3
Standard
100
AcDbAlignedDimension
 13
6.287499999999999
 23
20.0
 33
0.0
 14
6.287499999999999
 24
-20.0
 34
0.0
1001
ACAD
1000
DSTYLE
1002
{
1070
   279
1070
     0
1070
    74
1070
     0
1070
   173
1070
     1
1070
   340
1005
F3
1070
   271
1070
     2
1070
   272
1070
     2
1070
    77
1070
     1
1070
    73
1070
     0
1070
   171
1070
     3
1070
   274
1070
     4
1070
   177
1070
     2
1070
   176
1070
     2
1070
   178
1070
     2
1070
    78
1070
     8
1070
    48
1040
-0.005
1070
    41
1041
3.5
1070
   147
1041
1.75
1070
    42
1041
1.587499999999999
1070
    44
1041
2.0
1070
   140
1041
3.5
1070
   343
1005
0
1070
   344
1005
0
1002
}
  0
DIMENSION
  5
116
330
1F
100
AcDbEntity
  8
2
370
    -3
100
AcDbDimension
  2
DimnDraft3D3
 10
25.20011
 20
12.70525
 30
0.0
 11
20.57511
 21
-1.184678
 31
0.0
 70
    33
 71
     5
 42
-1.0
  3
Standard
100
AcDbAlignedDimension
 13
4.8875
 23
-12.70525
 33
0.0
 14
4.8875
 24
12.70525
 34
0.0
1001
ACAD
1000
DSTYLE
1002
{
1070
   279
1070
     0
1070
    74
1070
     0
1070
   173
1070
     1
1070
   340
1005
F3
1070
   271
1070
     1
1070
   272
1070
     2
1070
    77
1070
     1
1070
    73
1070
     0
1070
   171
1070
     3
1070
   274
1070
     4
1070
   177
1070
     2
1070
   176
1070
     2
1070
   178
1070
     2
1070
    78
1070
     8
1070
    48
1040
-0.005
1070
    41
1041
3.5
1070
   147
1041
1.75
1070
    42
1041
1.587499999999999
1070
    44
1041
2.0
1070
   140
1041
3.5
1070
   343
1005
0
1070
   344
1005
0
1002
}
  0
DIMENSION
  5
121
330
1F
100
AcDbEntity
  8
SK2
370
    -3
100
AcDbDimension
  2
DimnDraft3D4
 10
-60.0
 20
32.758626
 30
0.0
 11
-32.044737
 21
32.758626
 31
0.0
 70
    32
 71
     5
 42
-1.0
  3
Standard
100
AcDbAlignedDimension
 13
0.0
 23
21.2875
 33
0.0
 14
-60.0
 24
16.2285
 34
0.0
100
AcDbRotatedDimension
1001
ACAD
1000
DSTYLE
1002
{
1070
   279
1070
     0
1070
   172
1070
     1
1070
   173
1070
     1
1070
   340
1005
F3
1070
   271
1070
     2
1070
   272
1070
     2
1070
    77
1070
     1
1070
    73
1070
     0
1070
   171
1070
     3
1070
   274
1070
     4
1070
   177
1070
     2
1070
   176
1070
     2
1070
   178
1070
     2
1070
    78
1070
     8
1070
    48
1040
-0.005
1070
    41
1041
3.5
1070
   147
1041
1.75
1070
    42
1041
1.587499999999999
1070
    44
1041
2.0
1070
   140
1041
3.5
1070
   343
1005
0
1070
   344
1005
0
1002
}
  0
DIMENSION
  5
12C
330
1F
100
AcDbEntity
  8
SK2
370
    -3
100
AcDbDimension
  2
DimnDraft3D5
 10
-76.12975
 20
15.641
 30
0.0
 11
-76.75475
 21
-1.5939
 31
0.0
 70
    33
 71
     5
 42
-1.0
  3
Standard
100
AcDbAlignedDimension
 13
-60.58749999999999
 23
-16.101
 33
0.0
 14
-60.58749999999999
 24
15.641
 34
0.0
1001
ACAD
1000
DSTYLE
1002
{
1070
   279
1070
     0
1070
    74
1070
     0
1070
   173
1070
     1
1070
   340
1005
F3
1070
   271
1070
     2
1070
   272
1070
     2
1070
    77
1070
     1
1070
    73
1070
     0
1070
   171
1070
     3
1070
   274
1070
     4
1070
   177
1070
     2
1070
   176
1070
     2
1070
   178
1070
     2
1070
    78
1070
     8
1070
    48
1040
-0.005
1070
    41
1041
3.5
1070
   147
1041
1.75
1070
    42
1041
1.587499999999999
1070
    44
1041
2.0
1070
   140
1041
3.5
1070
   343
1005
0
1070
   344
1005
0
1002
}
  0
ENDSEC
  0
SECTION
  2
OBJECTS
  0
DICTIONARY
  5
17B
330
0
100
AcDbDictionary
281
     1
  3
ACAD_CIP_PREVIOUS_PRODUCT_INFO
350
1E1
  3
ACAD_COLOR
350
1BE
  3
ACAD_DETAILVIEWSTYLE
350
1D8
  3
ACAD_GROUP
350
17C
  3
ACAD_LAYOUT
350
1DA
  3
ACAD_MATERIAL
350
18C
  3
ACAD_MLEADERSTYLE
350
1D3
  3
ACAD_MLINESTYLE
350
17D
  3
ACAD_PLOTSETTINGS
350
1DB
  3
ACAD_PLOTSTYLENAME
350
18A
  3
ACAD_SCALELIST
350
1C1
  3
ACAD_SECTIONVIEWSTYLE
350
1D5
  3
ACAD_TABLESTYLE
350
1BF
  3
ACAD_VISUALSTYLE
350
1A5
  3
ACDB_RECOMPOSE_DATA
350
203
  3
AcDbVariableDictionary
350
1F6
  3
DWGPROPS
350
204
  0
DICTIONARY
  5
1E4
330
10
100
AcDbDictionary
280
     1
281
     1
  3
ADSK_XREC_LAYER_RECONCILED
360
1E5
  0
DICTIONARY
  5
1E6
330
43
100
AcDbDictionary
280
     1
281
     1
  3
ADSK_XREC_LAYER_RECONCILED
360
1E7
  0
DICTIONARY
  5
1E8
330
4E
100
AcDbDictionary
280
     1
281
     1
  3
ADSK_XREC_LAYER_RECONCILED
360
1E9
  0
DICTIONARY
  5
1EA
330
50
100
AcDbDictionary
280
     1
281
     1
  3
ADSK_XREC_LAYER_RECONCILED
360
1EB
  0
DICTIONARY
  5
1EC
330
F8
100
AcDbDictionary
280
     1
281
     1
  3
ADSK_XREC_LAYER_RECONCILED
360
1ED
  0
DICTIONARY
  5
1EE
330
16A
100
AcDbDictionary
280
     1
281
     1
  3
ADSK_XREC_LAYER_RECONCILED
360
1EF
  0
DICTIONARY
  5
1F0
330
16B
100
AcDbDictionary
280
     1
281
     1
  3
ADSK_XREC_LAYER_RECONCILED
360
1F1
  0
DICTIONARY
  5
1F2
330
16C
100
AcDbDictionary
280
     1
281
     1
  3
ADSK_XREC_LAYER_RECONCILED
360
1F3
  0
DICTIONARY
  5
1F4
330
16D
100
AcDbDictionary
280
     1
281
     1
  3
ADSK_XREC_LAYER_RECONCILED
360
1F5
  0
XRECORD
  5
1E1
102
{ACAD_REACTORS
330
17B
102
}
330
17B
100
AcDbXrecord
280
     1
300
AMECH_PP
300
2013
300
PDSU_F_S
  0
DICTIONARY
  5
1BE
102
{ACAD_REACTORS
330
17B
102
}
330
17B
100
AcDbDictionary
281
     1
  0
DICTIONARY
  5
1D8
102
{ACAD_REACTORS
330
17B
102
}
330
17B
100
AcDbDictionary
281
     1
  3
Imperial24
350
1D9
  0
DICTIONARY
  5
17C
330
17B
100
AcDbDictionary
281
     1
  0
DICTIONARY
  5
1DA
102
{ACAD_REACTORS
330
17B
102
}
330
17B
100
AcDbDictionary
281
     1
  3
Layout1
350
1DD
  3
Model
350
1DC
  0
DICTIONARY
  5
18C
102
{ACAD_REACTORS
330
17B
102
}
330
17B
100
AcDbDictionary
281
     1
  3
ByBlock
350
195
  3
ByLayer
350
18D
  3
Global
350
19D
  0
DICTIONARY
  5
1D3
102
{ACAD_REACTORS
330
17B
102
}
330
17B
100
AcDbDictionary
281
     1
  3
Standard
350
1D4
  0
DICTIONARY
  5
17D
330
17B
100
AcDbDictionary
281
     1
  3
Standard
350
18
  0
DICTIONARY
  5
1DB
102
{ACAD_REACTORS
330
17B
102
}
330
17B
100
AcDbDictionary
281
     1
  0
ACDBDICTIONARYWDFLT
  5
18A
102
{ACAD_REACTORS
330
17B
102
}
330
17B
100
AcDbDictionary
281
     1
  3
Normal
350
18B
100
AcDbDictionaryWithDefault
340
18B
  0
DICTIONARY
  5
1C1
102
{ACAD_REACTORS
330
17B
102
}
330
17B
100
AcDbDictionary
281
     1
  3
A0
350
1C2
  3
A1
350
1C3
  3
A2
350
1C4
  3
A3
350
1C5
  3
A4
350
1C6
  3
A5
350
1C7
  3
A6
350
1C8
  3
A7
350
1C9
  3
A8
350
1CA
  3
A9
350
1CB
  3
B0
350
1CC
  3
B1
350
1CD
  3
B2
350
1CE
  3
B3
350
1CF
  3
B4
350
1D0
  3
B5
350
1D1
  3
B6
350
1D2
  0
DICTIONARY
  5
1D5
102
{ACAD_REACTORS
330
17B
102
}
330
17B
100
AcDbDictionary
281
     1
  3
Imperial24
350
1D7
  0
DICTIONARY
  5
1BF
102
{ACAD_REACTORS
330
17B
102
}
330
17B
100
AcDbDictionary
281
     1
  3
Standard
350
1C0
  0
DICTIONARY
  5
1A5
102
{ACAD_REACTORS
330
17B
102
}
330
17B
100
AcDbDictionary
281
     1
  3
2dWireframe
350
1AB
  3
Basic
350
1AA
  3
Brighten
350
1B1
  3
ColorChange
350
1B5
  3
Conceptual
350
1AE
  3
Dim
350
1B0
  3
EdgeColorOff
350
1BD
  3
Facepattern
350
1B4
  3
Flat
350
1A6
  3
FlatWithEdges
350
1A7
  3
Gouraud
350
1A8
  3
GouraudWithEdges
350
1A9
  3
Hidden
350
1AD
  3
JitterOff
350
1BB
  3
Linepattern
350
1B3
  3
OverhangOff
350
1BC
  3
Realistic
350
1AF
  3
Shaded
350
1BA
  3
Shaded with edges
350
1B9
  3
Shades of Gray
350
1B6
  3
Sketchy
350
1B7
  3
Thicken
350
1B2
  3
Wireframe
350
1AC
  3
X-Ray
350
1B8
  0
XRECORD
  5
203
102
{ACAD_REACTORS
330
17B
102
}
330
17B
100
AcDbXrecord
280
     1
 90
        1
330
1C0
  0
DICTIONARY
  5
1F6
102
{ACAD_REACTORS
330
17B
102
}
330
17B
100
AcDbDictionary
281
     1
  3
CANNOSCALE
350
1FB
  3
CMLEADERSTYLE
350
1F8
  3
CTABLESTYLE
350
1F7
  3
CVIEWDETAILSTYLE
350
1F9
  3
CVIEWSECTIONSTYLE
350
1FA
  3
DIMASSOC
350
1FE
  3
INDEXCTL
350
1FD
  3
SORTENTS
350
1FC
  3
XCLIPFRAME
350
1FF
  0
XRECORD
  5
204
102
{ACAD_REACTORS
330
17B
102
}
330
17B
100
AcDbXrecord
280
     1
  1
DWGPROPS COOKIE
  2

  3

  4

  6

  7

  8
Micke
  9

300
=
301
=
302
=
303
=
304
=
305
=
306
=
307
=
308
=
309
=
 40
0.0000065509259259
 41
2456818.987055069
 42
2456818.987061493
  1

 90
        0
  0
XRECORD
  5
1E5
102
{ACAD_REACTORS
330
1E4
102
}
330
1E4
100
AcDbXrecord
280
     1
290
     1
  0
XRECORD
  5
1E7
102
{ACAD_REACTORS
330
1E6
102
}
330
1E6
100
AcDbXrecord
280
     1
290
     1
  0
XRECORD
  5
1E9
102
{ACAD_REACTORS
330
1E8
102
}
330
1E8
100
AcDbXrecord
280
     1
290
     1
  0
XRECORD
  5
1EB
102
{ACAD_REACTORS
330
1EA
102
}
330
1EA
100
AcDbXrecord
280
     1
290
     1
  0
XRECORD
  5
1ED
102
{ACAD_REACTORS
330
1EC
102
}
330
1EC
100
AcDbXrecord
280
     1
290
     1
  0
XRECORD
  5
1EF
102
{ACAD_REACTORS
330
1EE
102
}
330
1EE
100
AcDbXrecord
280
     1
290
     1
  0
XRECORD
  5
1F1
102
{ACAD_REACTORS
330
1F0
102
}
330
1F0
100
AcDbXrecord
280
     1
290
     1
  0
XRECORD
  5
1F3
102
{ACAD_REACTORS
330
1F2
102
}
330
1F2
100
AcDbXrecord
280
     1
290
     1
  0
XRECORD
  5
1F5
102
{ACAD_REACTORS
330
1F4
102
}
330
1F4
100
AcDbXrecord
280
     1
290
     1
  0
ACDBDETAILVIEWSTYLE
  5
1D9
102
{ACAD_REACTORS
330
1D8
102
}
330
1D8
100
AcDbModelDocViewStyle
 70
     0
  3
Imperial24
290
     0
100
AcDbDetailViewStyle
 70
     0
 71
     0
 90
        3
 71
     1
340
11
 40
0.24
340
0
 40
0.24
300

 40
0.36
280
     3
 71
     2
340
16
 90
       25
 71
     3
340
11
 40
0.24
 90
        1
 40
0.75
 90
        1
300
%<\AcVar ViewType \f "%tc1">% %<\AcVar ViewDetailId>%\PSCALE %<\AcVar ViewScale \f "%sn">%
 71
     4
340
16
 90
       25
340
16
 90
       25
280
     0
  0
LAYOUT
  5
1DD
102
{ACAD_XDICTIONARY
360
23D
102
}
102
{ACAD_REACTORS
330
1DA
102
}
330
1DA
100
AcDbPlotSettings
  1

  2
Brother DCP-9020CDW Printer
  4

  6

 40
0.0
 41
0.0
 42
0.0
 43
0.0
 44
0.0
 45
0.0
 46
0.0
 47
0.0
 48
0.0
 49
0.0
140
0.0
141
0.0
142
1.0
143
1.0
 70
   688
 72
     0
 73
     0
 74
     5
  7

 75
    16
147
1.0
148
0.0
149
0.0
100
AcDbLayout
  1
Layout1
 70
     1
 71
     1
 10
0.0
 20
0.0
 11
12.0
 21
9.0
 12
0.0
 22
0.0
 32
0.0
 14
1.000000000000000E+20
 24
1.000000000000000E+20
 34
1.000000000000000E+20
 15
-1.000000000000000E+20
 25
-1.000000000000000E+20
 35
-1.000000000000000E+20
146
0.0
 13
0.0
 23
0.0
 33
0.0
 16
1.0
 26
0.0
 36
0.0
 17
0.0
 27
1.0
 37
0.0
 76
     0
330
1B
  0
LAYOUT
  5
1DC
102
{ACAD_XDICTIONARY
360
23B
102
}
102
{ACAD_REACTORS
330
1DA
102
}
330
1DA
100
AcDbPlotSettings
  1

  2
Brother DCP-9020CDW Printer
  4

  6

 40
0.0
 41
0.0
 42
0.0
 43
0.0
 44
0.0
 45
0.0
 46
0.0
 47
0.0
 48
0.0
 49
0.0
140
0.0
141
0.0
142
1.0
143
1.0
 70
  1712
 72
     0
 73
     0
 74
     0
  7

 75
     0
147
1.0
148
0.0
149
0.0
100
AcDbLayout
  1
Model
 70
     1
 71
     0
 10
0.0
 20
0.0
 11
12.0
 21
9.0
 12
0.0
 22
0.0
 32
0.0
 14
0.0
 24
0.0
 34
0.0
 15
0.0
 25
0.0
 35
0.0
146
0.0
 13
0.0
 23
0.0
 33
0.0
 16
1.0
 26
0.0
 36
0.0
 17
0.0
 27
1.0
 37
0.0
 76
     0
330
1F
331
1
  0
MATERIAL
  5
195
102
{ACAD_XDICTIONARY
360
196
102
}
102
{ACAD_REACTORS
330
18C
102
}
330
18C
100
AcDbMaterial
  1
ByBlock
 72
     0
 43
0.0008202099737533
 43
0.0
 43
0.0
 43
0.0
 43
0.0
 43
0.0008202099737533
 43
0.0
 43
0.0
 43
0.0
 43
0.0
 43
1.0
 43
0.0
 43
0.0
 43
0.0
 43
0.0
 43
1.0
 77
     0
 47
0.0008202099737533
 47
0.0
 47
0.0
 47
0.0
 47
0.0
 47
0.0008202099737533
 47
0.0
 47
0.0
 47
0.0
 47
0.0
 47
1.0
 47
0.0
 47
0.0
 47
0.0
 47
0.0
 47
1.0
171
     0
 49
0.0008202099737533
 49
0.0
 49
0.0
 49
0.0
 49
0.0
 49
0.0008202099737533
 49
0.0
 49
0.0
 49
0.0
 49
0.0
 49
1.0
 49
0.0
 49
0.0
 49
0.0
 49
0.0
 49
1.0
175
     0
142
0.0008202099737533
142
0.0
142
0.0
142
0.0
142
0.0
142
0.0008202099737533
142
0.0
142
0.0
142
0.0
142
0.0
142
1.0
142
0.0
142
0.0
142
0.0
142
0.0
142
1.0
179
     0
144
0.0008202099737533
144
0.0
144
0.0
144
0.0
144
0.0
144
0.0008202099737533
144
0.0
144
0.0
144
0.0
144
0.0
144
1.0
144
0.0
144
0.0
144
0.0
144
0.0
144
1.0
147
0.0008202099737533
147
0.0
147
0.0
147
0.0
147
0.0
147
0.0008202099737533
147
0.0
147
0.0
147
0.0
147
0.0
147
1.0
147
0.0
147
0.0
147
0.0
147
0.0
147
1.0
  0
MATERIAL
  5
18D
102
{ACAD_XDICTIONARY
360
18E
102
}
102
{ACAD_REACTORS
330
18C
102
}
330
18C
100
AcDbMaterial
  1
ByLayer
 72
     0
 43
0.0008202099737533
 43
0.0
 43
0.0
 43
0.0
 43
0.0
 43
0.0008202099737533
 43
0.0
 43
0.0
 43
0.0
 43
0.0
 43
1.0
 43
0.0
 43
0.0
 43
0.0
 43
0.0
 43
1.0
 77
     0
 47
0.0008202099737533
 47
0.0
 47
0.0
 47
0.0
 47
0.0
 47
0.0008202099737533
 47
0.0
 47
0.0
 47
0.0
 47
0.0
 47
1.0
 47
0.0
 47
0.0
 47
0.0
 47
0.0
 47
1.0
171
     0
 49
0.0008202099737533
 49
0.0
 49
0.0
 49
0.0
 49
0.0
 49
0.0008202099737533
 49
0.0
 49
0.0
 49
0.0
 49
0.0
 49
1.0
 49
0.0
 49
0.0
 49
0.0
 49
0.0
 49
1.0
175
     0
142
0.0008202099737533
142
0.0
142
0.0
142
0.0
142
0.0
142
0.0008202099737533
142
0.0
142
0.0
142
0.0
142
0.0
142
1.0
142
0.0
142
0.0
142
0.0
142
0.0
142
1.0
179
     0
144
0.0008202099737533
144
0.0
144
0.0
144
0.0
144
0.0
144
0.0008202099737533
144
0.0
144
0.0
144
0.0
144
0.0
144
1.0
144
0.0
144
0.0
144
0.0
144
0.0
144
1.0
147
0.0008202099737533
147
0.0
147
0.0
147
0.0
147
0.0
147
0.0008202099737533
147
0.0
147
0.0
147
0.0
147
0.0
147
1.0
147
0.0
147
0.0
147
0.0
147
0.0
147
1.0
  0
MATERIAL
  5
19D
102
{ACAD_XDICTIONARY
360
19E
102
}
102
{ACAD_REACTORS
330
18C
102
}
330
18C
100
AcDbMaterial
  1
Global
 72
     0
 43
0.0008202099737533
 43
0.0
 43
0.0
 43
0.0
 43
0.0
 43
0.0008202099737533
 43
0.0
 43
0.0
 43
0.0
 43
0.0
 43
1.0
 43
0.0
 43
0.0
 43
0.0
 43
0.0
 43
1.0
 77
     0
 47
0.0008202099737533
 47
0.0
 47
0.0
 47
0.0
 47
0.0
 47
0.0008202099737533
 47
0.0
 47
0.0
 47
0.0
 47
0.0
 47
1.0
 47
0.0
 47
0.0
 47
0.0
 47
0.0
 47
1.0
171
     0
 49
0.0008202099737533
 49
0.0
 49
0.0
 49
0.0
 49
0.0
 49
0.0008202099737533
 49
0.0
 49
0.0
 49
0.0
 49
0.0
 49
1.0
 49
0.0
 49
0.0
 49
0.0
 49
0.0
 49
1.0
175
     0
142
0.0008202099737533
142
0.0
142
0.0
142
0.0
142
0.0
142
0.0008202099737533
142
0.0
142
0.0
142
0.0
142
0.0
142
1.0
142
0.0
142
0.0
142
0.0
142
0.0
142
1.0
179
     0
144
0.0008202099737533
144
0.0
144
0.0
144
0.0
144
0.0
144
0.0008202099737533
144
0.0
144
0.0
144
0.0
144
0.0
144
1.0
144
0.0
144
0.0
144
0.0
144
0.0
144
1.0
147
0.0008202099737533
147
0.0
147
0.0
147
0.0
147
0.0
147
0.0008202099737533
147
0.0
147
0.0
147
0.0
147
0.0
147
1.0
147
0.0
147
0.0
147
0.0
147
0.0
147
1.0
  0
MLEADERSTYLE
  5
1D4
102
{ACAD_REACTORS
330
1D3
102
}
330
1D3
100
AcDbMLeaderStyle
170
     2
171
     1
172
     0
 90
        2
 40
0.0
 41
0.0
173
     1
 91
-1056964608
340
14
 92
       -2
290
     1
 42
0.09
291
     1
 43
0.36
  3
Standard
 44
0.18
300

342
11
174
     1
178
     6
175
     1
176
     0
 93
-1056964608
 45
0.18
292
     0
297
     0
 46
0.18
 94
-1056964608
 47
1.0
 49
1.0
140
1.0
293
     1
141
0.0
294
     1
177
     0
142
1.0
295
     0
296
     0
143
0.125
1001
ACAD_MLEADERVER
1070
     2
  0
MLINESTYLE
  5
18
330
17D
100
AcDbMlineStyle
  2
STANDARD
 70
     0
  3

 62
   256
 51
90.0
 52
90.0
 71
     2
 49
0.5
 62
   256
  6
BYLAYER
 49
-0.5
 62
   256
  6
BYLAYER
  0
ACDBPLACEHOLDER
  5
18B
102
{ACAD_REACTORS
330
18A
102
}
330
18A
  0
SCALE
  5
1C2
102
{ACAD_REACTORS
330
1C1
102
}
330
1C1
100
AcDbScale
 70
     0
300
1:1
140
1.0
141
1.0
290
     1
  0
SCALE
  5
1C3
102
{ACAD_REACTORS
330
1C1
102
}
330
1C1
100
AcDbScale
 70
     0
300
1/128" = 1'-0"
140
0.0078125
141
12.0
290
     0
  0
SCALE
  5
1C4
102
{ACAD_REACTORS
330
1C1
102
}
330
1C1
100
AcDbScale
 70
     0
300
1/64" = 1'-0"
140
0.015625
141
12.0
290
     0
  0
SCALE
  5
1C5
102
{ACAD_REACTORS
330
1C1
102
}
330
1C1
100
AcDbScale
 70
     0
300
1/32" = 1'-0"
140
0.03125
141
12.0
290
     0
  0
SCALE
  5
1C6
102
{ACAD_REACTORS
330
1C1
102
}
330
1C1
100
AcDbScale
 70
     0
300
1/16" = 1'-0"
140
0.0625
141
12.0
290
     0
  0
SCALE
  5
1C7
102
{ACAD_REACTORS
330
1C1
102
}
330
1C1
100
AcDbScale
 70
     0
300
3/32" = 1'-0"
140
0.09375
141
12.0
290
     0
  0
SCALE
  5
1C8
102
{ACAD_REACTORS
330
1C1
102
}
330
1C1
100
AcDbScale
 70
     0
300
1/8" = 1'-0"
140
0.125
141
12.0
290
     0
  0
SCALE
  5
1C9
102
{ACAD_REACTORS
330
1C1
102
}
330
1C1
100
AcDbScale
 70
     0
300
3/16" = 1'-0"
140
0.1875
141
12.0
290
     0
  0
SCALE
  5
1CA
102
{ACAD_REACTORS
330
1C1
102
}
330
1C1
100
AcDbScale
 70
     0
300
1/4" = 1'-0"
140
0.25
141
12.0
290
     0
  0
SCALE
  5
1CB
102
{ACAD_REACTORS
330
1C1
102
}
330
1C1
100
AcDbScale
 70
     0
300
3/8" = 1'-0"
140
0.375
141
12.0
290
     0
  0
SCALE
  5
1CC
102
{ACAD_REACTORS
330
1C1
102
}
330
1C1
100
AcDbScale
 70
     0
300
1/2" = 1'-0"
140
0.5
141
12.0
290
     0
  0
SCALE
  5
1CD
102
{ACAD_REACTORS
330
1C1
102
}
330
1C1
100
AcDbScale
 70
     0
300
3/4" = 1'-0"
140
0.75
141
12.0
290
     0
  0
SCALE
  5
1CE
102
{ACAD_REACTORS
330
1C1
102
}
330
1C1
100
AcDbScale
 70
     0
300
1" = 1'-0"
140
1.0
141
12.0
290
     0
  0
SCALE
  5
1CF
102
{ACAD_REACTORS
330
1C1
102
}
330
1C1
100
AcDbScale
 70
     0
300
1-1/2" = 1'-0"
140
1.5
141
12.0
290
     0
  0
SCALE
  5
1D0
102
{ACAD_REACTORS
330
1C1
102
}
330
1C1
100
AcDbScale
 70
     0
300
3" = 1'-0"
140
3.0
141
12.0
290
     0
  0
SCALE
  5
1D1
102
{ACAD_REACTORS
330
1C1
102
}
330
1C1
100
AcDbScale
 70
     0
300
6" = 1'-0"
140
6.0
141
12.0
290
     0
  0
SCALE
  5
1D2
102
{ACAD_REACTORS
330
1C1
102
}
330
1C1
100
AcDbScale
 70
     0
300
1'-0" = 1'-0"
140
12.0
141
12.0
290
     0
  0
ACDBSECTIONVIEWSTYLE
  5
1D7
102
{ACAD_REACTORS
330
1D5
102
}
330
1D5
100
AcDbModelDocViewStyle
 70
     0
  3
Imperial24
290
     0
100
AcDbSectionViewStyle
 70
     0
 71
     0
 90
       78
 71
     1
340
11
 40
0.24
340
0
340
0
 40
0.24
300
I, O, Q, S, X, Z
 40
0.48
 90
        3
 40
0.18
 90
        1
 71
     2
340
1D6
 90
       25
340
16
 90
       50
 40
0.24
 40
0.0
 40
0.24
 71
     3
340
11
 40
0.24
 90
        1
 40
0.75
 90
        1
300
%<\AcVar ViewType \f "%tc1">% %<\AcVar ViewSectionStartId>%-%<\AcVar ViewSectionEndId>%\PSCALE %<\AcVar ViewScale \f "%sn">%
 71
     4
300
ANSI31
 40
1.0
 90
        0
290
     0
290
     0
 90
        6
 40
0.0
 40
1.570796326794896
 40
0.2617993877991494
 40
1.308996938995747
 40
-0.2617993877991494
 40
1.832595714594046
  0
TABLESTYLE
  5
1C0
102
{ACAD_XDICTIONARY
360
201
102
}
102
{ACAD_REACTORS
330
1BF
102
}
330
1BF
100
AcDbTableStyle
  3
Standard
 70
     0
 71
     0
 40
0.06
 41
0.06
280
     0
281
     0
  7
Standard
140
0.18
170
     2
 62
     0
 63
     7
283
     0
274
    -2
284
     1
 64
     0
275
    -2
285
     1
 65
     0
276
    -2
286
     1
 66
     0
277
    -2
287
     1
 67
     0
278
    -2
288
     1
 68
     0
279
    -2
289
     1
 69
     0
  7
Standard
140
0.25
170
     5
 62
     0
 63
     7
283
     0
274
    -2
284
     1
 64
     0
275
    -2
285
     1
 65
     0
276
    -2
286
     1
 66
     0
277
    -2
287
     1
 67
     0
278
    -2
288
     1
 68
     0
279
    -2
289
     1
 69
     0
  7
Standard
140
0.18
170
     5
 62
     0
 63
     7
283
     0
274
    -2
284
     1
 64
     0
275
    -2
285
     1
 65
     0
276
    -2
286
     1
 66
     0
277
    -2
287
     1
 67
     0
278
    -2
288
     1
 68
     0
279
    -2
289
     1
 69
     0
  0
VISUALSTYLE
  5
1AB
102
{ACAD_XDICTIONARY
360
213
102
}
102
{ACAD_REACTORS
330
1A5
102
}
330
1A5
100
AcDbVisualStyle
  2
2dWireframe
 70
     4
 71
     0
 72
     2
 73
     0
 90
        0
 40
-0.6
 41
-30.0
 62
     5
 63
     7
 74
     1
 91
        4
 64
     7
 65
   257
 75
     1
175
     1
 42
1.0
 92
        0
 66
   257
 43
1.0
 76
     1
 77
     6
 78
     2
 67
     7
 79
     5
170
     0
171
     0
290
     0
174
     0
 93
        1
 44
0.0
173
     0
291
     0
 45
0.0
1001
ACAD
1000
AcDbSavedByObjectVersion
1070
     0
  0
VISUALSTYLE
  5
1AA
102
{ACAD_XDICTIONARY
360
211
102
}
102
{ACAD_REACTORS
330
1A5
102
}
330
1A5
100
AcDbVisualStyle
  2
Basic
 70
     7
 71
     1
 72
     0
 73
     1
 90
        0
 40
-0.6
 41
-30.0
 62
     5
 63
     7
 74
     0
 91
        4
 64
     7
 65
   257
 75
     1
175
     1
 42
1.0
 92
        8
 66
     7
 43
1.0
 76
     1
 77
     6
 78
     2
 67
     7
 79
     5
170
     0
171
     0
290
     0
174
     0
 93
        1
 44
0.0
173
     0
291
     1
 45
0.0
1001
ACAD
1000
AcDbSavedByObjectVersion
1070
     0
  0
VISUALSTYLE
  5
1B1
102
{ACAD_XDICTIONARY
360
21F
102
}
102
{ACAD_REACTORS
330
1A5
102
}
330
1A5
100
AcDbVisualStyle
  2
Brighten
 70
    12
 71
     2
 72
     2
 73
     0
 90
        0
 40
-0.6
 41
-30.0
 62
     5
 63
     7
 74
     1
 91
        4
 64
     7
 65
   257
 75
     1
175
     1
 42
1.0
 92
        8
 66
     7
 43
1.0
 76
     1
 77
     6
 78
     2
 67
     7
 79
     5
170
     0
171
     0
290
     0
174
     0
 93
        1
 44
50.0
173
     0
291
     1
 45
0.0
1001
ACAD
1000
AcDbSavedByObjectVersion
1070
     0
  0
VISUALSTYLE
  5
1B5
102
{ACAD_XDICTIONARY
360
227
102
}
102
{ACAD_REACTORS
330
1A5
102
}
330
1A5
100
AcDbVisualStyle
  2
ColorChange
 70
    16
 71
     2
 72
     2
 73
     3
 90
        0
 40
-0.6
 41
-30.0
 62
     5
 63
     8
 74
     1
 91
        4
 64
     7
 65
   257
 75
     1
175
     1
 42
1.0
 92
        8
 66
     8
 43
1.0
 76
     1
 77
     6
 78
     2
 67
     7
 79
     5
170
     0
171
     0
290
     0
174
     0
 93
        1
 44
0.0
173
     0
291
     1
 45
0.0
1001
ACAD
1000
AcDbSavedByObjectVersion
1070
     0
  0
VISUALSTYLE
  5
1AE
102
{ACAD_XDICTIONARY
360
219
102
}
102
{ACAD_REACTORS
330
1A5
102
}
330
1A5
100
AcDbVisualStyle
  2
Conceptual
 70
     9
 71
     3
 72
     2
 73
     0
 90
        0
 40
-0.6
 41
-30.0
 62
     5
 63
     7
 74
     2
 91
        2
 64
     7
 65
   257
 75
     1
175
     1
 42
179.0
 92
        8
 66
     7
 43
1.0
 76
     1
 77
     6
 78
     2
 67
     7
 79
     3
170
     0
171
     0
290
     0
174
     0
 93
        1
 44
0.0
173
     0
291
     0
 45
0.0
1001
ACAD
1000
AcDbSavedByObjectVersion
1070
     0
  0
VISUALSTYLE
  5
1B0
102
{ACAD_XDICTIONARY
360
21D
102
}
102
{ACAD_REACTORS
330
1A5
102
}
330
1A5
100
AcDbVisualStyle
  2
Dim
 70
    11
 71
     2
 72
     2
 73
     0
 90
        0
 40
-0.6
 41
-30.0
 62
     5
 63
     7
 74
     1
 91
        4
 64
     7
 65
   257
 75
     1
175
     1
 42
1.0
 92
        8
 66
     7
 43
1.0
 76
     1
 77
     6
 78
     2
 67
     7
 79
     5
170
     0
171
     0
290
     0
174
     0
 93
        1
 44
-50.0
173
     0
291
     1
 45
0.0
1001
ACAD
1000
AcDbSavedByObjectVersion
1070
     0
  0
VISUALSTYLE
  5
1BD
102
{ACAD_XDICTIONARY
360
237
102
}
102
{ACAD_REACTORS
330
1A5
102
}
330
1A5
100
AcDbVisualStyle
  2
EdgeColorOff
 70
    22
 71
     2
 72
     2
 73
     0
 90
        0
 40
-0.6
 41
-30.0
 62
     5
 63
     7
 74
     1
 91
        4
 64
     7
 65
   257
 75
     1
175
     1
 42
1.0
 92
        8
 66
     7
 43
1.0
 76
     1
 77
     6
 78
     2
 67
     7
 79
     5
170
     0
171
     0
290
     0
174
     0
 93
        1
 44
0.0
173
     0
291
     1
 45
0.0
1001
ACAD
1000
AcDbSavedByObjectVersion
1070
     0
  0
VISUALSTYLE
  5
1B4
102
{ACAD_XDICTIONARY
360
225
102
}
102
{ACAD_REACTORS
330
1A5
102
}
330
1A5
100
AcDbVisualStyle
  2
Facepattern
 70
    15
 71
     2
 72
     2
 73
     0
 90
        0
 40
-0.6
 41
-30.0
 62
     5
 63
     7
 74
     1
 91
        4
 64
     7
 65
   257
 75
     1
175
     1
 42
1.0
 92
        8
 66
     7
 43
1.0
 76
     1
 77
     6
 78
     2
 67
     7
 79
     5
170
     0
171
     0
290
     0
174
     0
 93
        1
 44
0.0
173
     0
291
     1
 45
0.0
1001
ACAD
1000
AcDbSavedByObjectVersion
1070
     0
  0
VISUALSTYLE
  5
1A6
102
{ACAD_XDICTIONARY
360
209
102
}
102
{ACAD_REACTORS
330
1A5
102
}
330
1A5
100
AcDbVisualStyle
  2
Flat
 70
     0
 71
     2
 72
     1
 73
     1
 90
        2
 40
-0.6
 41
30.0
 62
     5
 63
     7
 74
     0
 91
        0
 64
     7
 65
   257
 75
     1
175
     1
 42
1.0
 92
        8
 66
     7
 43
1.0
 76
     1
 77
     6
 78
     2
 67
     7
 79
     5
170
     0
171
     0
290
     0
174
     0
 93
       13
 44
0.0
173
     0
291
     1
 45
0.0
1001
ACAD
1000
AcDbSavedByObjectVersion
1070
     0
  0
VISUALSTYLE
  5
1A7
102
{ACAD_XDICTIONARY
360
20B
102
}
102
{ACAD_REACTORS
330
1A5
102
}
330
1A5
100
AcDbVisualStyle
  2
FlatWithEdges
 70
     1
 71
     2
 72
     1
 73
     1
 90
        2
 40
-0.6
 41
30.0
 62
     5
 63
     7
 74
     1
 91
        0
 64
     7
 65
   257
 75
     1
175
     1
 42
1.0
 92
        0
 66
   257
 43
1.0
 76
     1
 77
     6
 78
     2
 67
     7
 79
     5
170
     0
171
     0
290
     0
174
     0
 93
       13
 44
0.0
173
     0
291
     1
 45
0.0
1001
ACAD
1000
AcDbSavedByObjectVersion
1070
     0
  0
VISUALSTYLE
  5
1A8
102
{ACAD_XDICTIONARY
360
20D
102
}
102
{ACAD_REACTORS
330
1A5
102
}
330
1A5
100
AcDbVisualStyle
  2
Gouraud
 70
     2
 71
     2
 72
     2
 73
     1
 90
        2
 40
-0.6
 41
30.0
 62
     5
 63
     7
 74
     0
 91
        0
 64
     7
 65
   257
 75
     1
175
     1
 42
1.0
 92
        0
 66
     7
 43
1.0
 76
     1
 77
     6
 78
     2
 67
     7
 79
     5
170
     0
171
     0
290
     0
174
     0
 93
       13
 44
0.0
173
     0
291
     1
 45
0.0
1001
ACAD
1000
AcDbSavedByObjectVersion
1070
     0
  0
VISUALSTYLE
  5
1A9
102
{ACAD_XDICTIONARY
360
20F
102
}
102
{ACAD_REACTORS
330
1A5
102
}
330
1A5
100
AcDbVisualStyle
  2
GouraudWithEdges
 70
     3
 71
     2
 72
     2
 73
     1
 90
        2
 40
-0.6
 41
30.0
 62
     5
 63
     7
 74
     1
 91
        0
 64
     7
 65
   257
 75
     1
175
     1
 42
1.0
 92
        0
 66
   257
 43
1.0
 76
     1
 77
     6
 78
     2
 67
     7
 79
     5
170
     0
171
     0
290
     0
174
     0
 93
       13
 44
0.0
173
     0
291
     1
 45
0.0
1001
ACAD
1000
AcDbSavedByObjectVersion
1070
     0
  0
VISUALSTYLE
  5
1AD
102
{ACAD_XDICTIONARY
360
217
102
}
102
{ACAD_REACTORS
330
1A5
102
}
330
1A5
100
AcDbVisualStyle
  2
Hidden
 70
     6
 71
     1
 72
     2
 73
     2
 90
        0
 40
-0.6
 41
-30.0
 62
     5
 63
     7
 74
     2
 91
        2
 64
     7
 65
   257
 75
     2
175
     1
 42
40.0
 92
        0
 66
   257
 43
1.0
 76
     1
 77
     6
 78
     2
 67
     7
 79
     3
170
     0
171
     0
290
     0
174
     0
 93
        1
 44
0.0
173
     0
291
     0
 45
0.0
1001
ACAD
1000
AcDbSavedByObjectVersion
1070
     0
  0
VISUALSTYLE
  5
1BB
102
{ACAD_XDICTIONARY
360
233
102
}
102
{ACAD_REACTORS
330
1A5
102
}
330
1A5
100
AcDbVisualStyle
  2
JitterOff
 70
    20
 71
     2
 72
     2
 73
     0
 90
        0
 40
-0.6
 41
-30.0
 62
     5
 63
     7
 74
     1
 91
        4
 64
     7
 65
   257
 75
     1
175
     1
 42
1.0
 92
       10
 66
     7
 43
1.0
 76
     1
 77
     6
 78
     2
 67
     7
 79
     5
170
     0
171
     0
290
     0
174
     0
 93
        1
 44
0.0
173
     0
291
     1
 45
0.0
1001
ACAD
1000
AcDbSavedByObjectVersion
1070
     0
  0
VISUALSTYLE
  5
1B3
102
{ACAD_XDICTIONARY
360
223
102
}
102
{ACAD_REACTORS
330
1A5
102
}
330
1A5
100
AcDbVisualStyle
  2
Linepattern
 70
    14
 71
     2
 72
     2
 73
     0
 90
        0
 40
-0.6
 41
-30.0
 62
     5
 63
     7
 74
     1
 91
        4
 64
     7
 65
   257
 75
     7
175
     7
 42
1.0
 92
        8
 66
     7
 43
1.0
 76
     1
 77
     6
 78
     2
 67
     7
 79
     5
170
     0
171
     0
290
     0
174
     0
 93
        1
 44
0.0
173
     0
291
     1
 45
0.0
1001
ACAD
1000
AcDbSavedByObjectVersion
1070
     0
  0
VISUALSTYLE
  5
1BC
102
{ACAD_XDICTIONARY
360
235
102
}
102
{ACAD_REACTORS
330
1A5
102
}
330
1A5
100
AcDbVisualStyle
  2
OverhangOff
 70
    21
 71
     2
 72
     2
 73
     0
 90
        0
 40
-0.6
 41
-30.0
 62
     5
 63
     7
 74
     1
 91
        4
 64
     7
 65
   257
 75
     1
175
     1
 42
1.0
 92
        9
 66
     7
 43
1.0
 76
     1
 77
     6
 78
     2
 67
     7
 79
     5
170
     0
171
     0
290
     0
174
     0
 93
        1
 44
0.0
173
     0
291
     1
 45
0.0
1001
ACAD
1000
AcDbSavedByObjectVersion
1070
     0
  0
VISUALSTYLE
  5
1AF
102
{ACAD_XDICTIONARY
360
21B
102
}
102
{ACAD_REACTORS
330
1A5
102
}
330
1A5
100
AcDbVisualStyle
  2
Realistic
 70
     8
 71
     2
 72
     3
 73
     0
 90
        2
 40
-0.6
 41
30.0
 62
     5
 63
     7
 74
     0
 91
        0
 64
     7
 65
   257
 75
     1
175
     1
 42
1.0
 92
        8
 66
   257
 43
1.0
 76
     1
 77
     6
 78
     2
 67
     7
 79
     3
170
     0
171
     0
290
     0
174
     0
 93
       13
 44
0.0
173
     0
291
     0
 45
0.0
1001
ACAD
1000
AcDbSavedByObjectVersion
1070
     0
  0
VISUALSTYLE
  5
1BA
102
{ACAD_XDICTIONARY
360
231
102
}
102
{ACAD_REACTORS
330
1A5
102
}
330
1A5
100
AcDbVisualStyle
  2
Shaded
 70
    27
 71
     2
 72
     2
 73
     1
 90
        2
 40
-0.6
 41
30.0
 62
     5
 63
     7
 74
     0
 91
        4
 64
     7
 65
   257
 75
     1
175
     1
 42
1.0
 92
        8
 66
   257
 43
1.0
 76
     1
 77
     6
 78
     2
 67
     8
 79
     3
170
     0
171
     0
290
     0
174
     0
 93
        5
 44
0.0
173
     0
291
     0
 45
0.0
1001
ACAD
1000
AcDbSavedByObjectVersion
1070
     0
  0
VISUALSTYLE
  5
1B9
102
{ACAD_XDICTIONARY
360
22F
102
}
102
{ACAD_REACTORS
330
1A5
102
}
330
1A5
100
AcDbVisualStyle
  2
Shaded with edges
 70
    26
 71
     2
 72
     2
 73
     1
 90
        2
 40
-0.6
 41
30.0
 62
     5
 63
     7
 74
     1
 91
       10
 64
     7
 65
   257
 75
     2
175
     1
 42
1.0
 92
        8
 66
   257
 43
1.0
 76
     1
 77
     6
 78
     2
 67
     7
 79
     3
170
     0
171
     0
290
     0
174
     0
 93
        5
 44
0.0
173
     0
291
     0
 45
0.0
1001
ACAD
1000
AcDbSavedByObjectVersion
1070
     0
  0
VISUALSTYLE
  5
1B6
102
{ACAD_XDICTIONARY
360
229
102
}
102
{ACAD_REACTORS
330
1A5
102
}
330
1A5
100
AcDbVisualStyle
  2
Shades of Gray
 70
    23
 71
     2
 72
     2
 73
     3
 90
        0
 40
-0.6
 41
-30.0
 62
     5
 63
     7
 74
     2
 91
        2
 64
     7
 65
     7
 75
     1
175
     1
 42
40.0
 92
        8
 66
     7
 43
1.0
 76
     1
 77
     6
 78
     2
 67
     7
 79
     3
170
     0
171
     0
290
     0
174
     0
 93
        1
 44
0.0
173
     0
291
     0
 45
0.0
1001
ACAD
1000
AcDbSavedByObjectVersion
1070
     0
  0
VISUALSTYLE
  5
1B7
102
{ACAD_XDICTIONARY
360
22B
102
}
102
{ACAD_REACTORS
330
1A5
102
}
330
1A5
100
AcDbVisualStyle
  2
Sketchy
 70
    24
 71
     1
 72
     2
 73
     2
 90
        0
 40
-0.6
 41
-30.0
 62
     5
 63
     7
 74
     2
 91
        2
 64
     7
 65
     7
 75
     1
175
     1
 42
40.0
 92
       11
 66
     7
 43
1.0
 76
     1
 77
     6
 78
     2
 67
     7
 79
     6
170
     0
171
     0
290
     0
174
     0
 93
        1
 44
0.0
173
     0
291
     0
 45
0.0
1001
ACAD
1000
AcDbSavedByObjectVersion
1070
     0
  0
VISUALSTYLE
  5
1B2
102
{ACAD_XDICTIONARY
360
221
102
}
102
{ACAD_REACTORS
330
1A5
102
}
330
1A5
100
AcDbVisualStyle
  2
Thicken
 70
    13
 71
     2
 72
     2
 73
     0
 90
        0
 40
-0.6
 41
-30.0
 62
     5
 63
     7
 74
     1
 91
        4
 64
     7
 65
   257
 75
     1
175
     1
 42
1.0
 92
       12
 66
     7
 43
1.0
 76
     1
 77
     6
 78
     2
 67
     7
 79
     5
170
     0
171
     0
290
     0
174
     0
 93
        1
 44
0.0
173
     0
291
     1
 45
0.0
1001
ACAD
1000
AcDbSavedByObjectVersion
1070
     0
  0
VISUALSTYLE
  5
1AC
102
{ACAD_XDICTIONARY
360
215
102
}
102
{ACAD_REACTORS
330
1A5
102
}
330
1A5
100
AcDbVisualStyle
  2
Wireframe
 70
     5
 71
     0
 72
     2
 73
     0
 90
        0
 40
-0.6
 41
-30.0
 62
     5
 63
     7
 74
     1
 91
        4
 64
     7
 65
   257
 75
     1
175
     1
 42
1.0
 92
        0
 66
   257
 43
1.0
 76
     1
 77
     6
 78
     2
 67
     7
 79
     3
170
     0
171
     0
290
     0
174
     0
 93
        1
 44
0.0
173
     0
291
     0
 45
0.0
1001
ACAD
1000
AcDbSavedByObjectVersion
1070
     0
  0
VISUALSTYLE
  5
1B8
102
{ACAD_XDICTIONARY
360
22D
102
}
102
{ACAD_REACTORS
330
1A5
102
}
330
1A5
100
AcDbVisualStyle
  2
X-Ray
 70
    25
 71
     2
 72
     2
 73
     1
 90
        1
 40
0.5
 41
-30.0
 62
     5
 63
     7
 74
     1
 91
        0
 64
     7
 65
   257
 75
     1
175
     1
 42
1.0
 92
        8
 66
     7
 43
1.0
 76
     1
 77
     6
 78
     2
 67
     7
 79
     3
170
     0
171
     0
290
     0
174
     0
 93
       13
 44
0.0
173
     0
291
     0
 45
0.0
1001
ACAD
1000
AcDbSavedByObjectVersion
1070
     0
  0
DICTIONARYVAR
  5
1FB
102
{ACAD_REACTORS
330
1F6
102
}
330
1F6
100
DictionaryVariables
280
     0
  1
1:1
  0
DICTIONARYVAR
  5
1F8
102
{ACAD_REACTORS
330
1F6
102
}
330
1F6
100
DictionaryVariables
280
     0
  1
STANDARD
  0
DICTIONARYVAR
  5
1F7
102
{ACAD_REACTORS
330
1F6
102
}
330
1F6
100
DictionaryVariables
280
     0
  1
STANDARD
  0
DICTIONARYVAR
  5
1F9
102
{ACAD_REACTORS
330
1F6
102
}
330
1F6
100
DictionaryVariables
280
     0
  1
Imperial24
  0
DICTIONARYVAR
  5
1FA
102
{ACAD_REACTORS
330
1F6
102
}
330
1F6
100
DictionaryVariables
280
     0
  1
Imperial24
  0
DICTIONARYVAR
  5
1FE
102
{ACAD_REACTORS
330
1F6
102
}
330
1F6
100
DictionaryVariables
280
     0
  1
1
  0
DICTIONARYVAR
  5
1FD
102
{ACAD_REACTORS
330
1F6
102
}
330
1F6
100
DictionaryVariables
280
     0
  1
0
  0
DICTIONARYVAR
  5
1FC
102
{ACAD_REACTORS
330
1F6
102
}
330
1F6
100
DictionaryVariables
280
     0
  1
127
  0
DICTIONARYVAR
  5
1FF
102
{ACAD_REACTORS
330
1F6
102
}
330
1F6
100
DictionaryVariables
280
     0
  1
2
  0
DICTIONARY
  5
23D
330
1DD
100
AcDbDictionary
280
     1
281
     1
  3
ACAD_XREC_ROUNDTRIP
360
23E
  0
DICTIONARY
  5
23B
330
1DC
100
AcDbDictionary
280
     1
281
     1
  3
ACAD_XREC_ROUNDTRIP
360
23C
  0
DICTIONARY
  5
196
330
195
100
AcDbDictionary
280
     1
281
     1
  3
ACAD_XREC_ROUNDTRIP
360
207
  3
BUMPTILE
360
198
  3
DIFFUSETILE
360
197
  3
OPACITYTILE
360
19B
  3
REFLECTIONTILE
360
19A
  3
REFRACTIONTILE
360
19C
  3
SPECULARTILE
360
199
  0
DICTIONARY
  5
18E
330
18D
100
AcDbDictionary
280
     1
281
     1
  3
ACAD_XREC_ROUNDTRIP
360
206
  3
BUMPTILE
360
190
  3
DIFFUSETILE
360
18F
  3
OPACITYTILE
360
193
  3
REFLECTIONTILE
360
192
  3
REFRACTIONTILE
360
194
  3
SPECULARTILE
360
191
  0
DICTIONARY
  5
19E
330
19D
100
AcDbDictionary
280
     1
281
     1
  3
ACAD_XREC_ROUNDTRIP
360
208
  3
BUMPTILE
360
1A0
  3
DIFFUSETILE
360
19F
  3
OPACITYTILE
360
1A3
  3
REFLECTIONTILE
360
1A2
  3
REFRACTIONTILE
360
1A4
  3
SPECULARTILE
360
1A1
  0
DICTIONARY
  5
201
330
1C0
100
AcDbDictionary
280
     1
281
     1
  3
ACAD_ROUNDTRIP_2008_TABLESTYLE_CELLSTYLEMAP
360
202
  3
ACAD_XREC_ROUNDTRIP
360
239
  0
DICTIONARY
  5
213
330
1AB
100
AcDbDictionary
280
     1
281
     1
  3
ACAD_XREC_ROUNDTRIP
360
214
  0
DICTIONARY
  5
211
330
1AA
100
AcDbDictionary
280
     1
281
     1
  3
ACAD_XREC_ROUNDTRIP
360
212
  0
DICTIONARY
  5
21F
330
1B1
100
AcDbDictionary
280
     1
281
     1
  3
ACAD_XREC_ROUNDTRIP
360
220
  0
DICTIONARY
  5
227
330
1B5
100
AcDbDictionary
280
     1
281
     1
  3
ACAD_XREC_ROUNDTRIP
360
228
  0
DICTIONARY
  5
219
330
1AE
100
AcDbDictionary
280
     1
281
     1
  3
ACAD_XREC_ROUNDTRIP
360
21A
  0
DICTIONARY
  5
21D
330
1B0
100
AcDbDictionary
280
     1
281
     1
  3
ACAD_XREC_ROUNDTRIP
360
21E
  0
DICTIONARY
  5
237
330
1BD
100
AcDbDictionary
280
     1
281
     1
  3
ACAD_XREC_ROUNDTRIP
360
238
  0
DICTIONARY
  5
225
330
1B4
100
AcDbDictionary
280
     1
281
     1
  3
ACAD_XREC_ROUNDTRIP
360
226
  0
DICTIONARY
  5
209
330
1A6
100
AcDbDictionary
280
     1
281
     1
  3
ACAD_XREC_ROUNDTRIP
360
20A
  0
DICTIONARY
  5
20B
330
1A7
100
AcDbDictionary
280
     1
281
     1
  3
ACAD_XREC_ROUNDTRIP
360
20C
  0
DICTIONARY
  5
20D
330
1A8
100
AcDbDictionary
280
     1
281
     1
  3
ACAD_XREC_ROUNDTRIP
360
20E
  0
DICTIONARY
  5
20F
330
1A9
100
AcDbDictionary
280
     1
281
     1
  3
ACAD_XREC_ROUNDTRIP
360
210
  0
DICTIONARY
  5
217
330
1AD
100
AcDbDictionary
280
     1
281
     1
  3
ACAD_XREC_ROUNDTRIP
360
218
  0
DICTIONARY
  5
233
330
1BB
100
AcDbDictionary
280
     1
281
     1
  3
ACAD_XREC_ROUNDTRIP
360
234
  0
DICTIONARY
  5
223
330
1B3
100
AcDbDictionary
280
     1
281
     1
  3
ACAD_XREC_ROUNDTRIP
360
224
  0
DICTIONARY
  5
235
330
1BC
100
AcDbDictionary
280
     1
281
     1
  3
ACAD_XREC_ROUNDTRIP
360
236
  0
DICTIONARY
  5
21B
330
1AF
100
AcDbDictionary
280
     1
281
     1
  3
ACAD_XREC_ROUNDTRIP
360
21C
  0
DICTIONARY
  5
231
330
1BA
100
AcDbDictionary
280
     1
281
     1
  3
ACAD_XREC_ROUNDTRIP
360
232
  0
DICTIONARY
  5
22F
330
1B9
100
AcDbDictionary
280
     1
281
     1
  3
ACAD_XREC_ROUNDTRIP
360
230
  0
DICTIONARY
  5
229
330
1B6
100
AcDbDictionary
280
     1
281
     1
  3
ACAD_XREC_ROUNDTRIP
360
22A
  0
DICTIONARY
  5
22B
330
1B7
100
AcDbDictionary
280
     1
281
     1
  3
ACAD_XREC_ROUNDTRIP
360
22C
  0
DICTIONARY
  5
221
330
1B2
100
AcDbDictionary
280
     1
281
     1
  3
ACAD_XREC_ROUNDTRIP
360
222
  0
DICTIONARY
  5
215
330
1AC
100
AcDbDictionary
280
     1
281
     1
  3
ACAD_XREC_ROUNDTRIP
360
216
  0
DICTIONARY
  5
22D
330
1B8
100
AcDbDictionary
280
     1
281
     1
  3
ACAD_XREC_ROUNDTRIP
360
22E
  0
XRECORD
  5
23E
102
{ACAD_REACTORS
330
23D
102
}
330
23D
100
AcDbXrecord
280
     1
102
SHADEPLOT
 70
     0
102
SHADEPLOTRESLEVEL
 70
     2
102
SHADEPLOTCUSTOMDPI
 70
   300
  0
XRECORD
  5
23C
102
{ACAD_REACTORS
330
23B
102
}
330
23B
100
AcDbXrecord
280
     1
102
SHADEPLOT
 70
     0
102
SHADEPLOTRESLEVEL
 70
     2
102
SHADEPLOTCUSTOMDPI
 70
   300
  0
XRECORD
  5
207
102
{ACAD_REACTORS
330
196
102
}
330
196
100
AcDbXrecord
280
     1
102
MATERIAL
148
0.0
149
0.0
149
0.0
 93
        0
 94
      127
282
     0
 72
     0
 77
     0
171
     0
175
     0
179
     0
273
     0
  0
XRECORD
  5
198
102
{ACAD_REACTORS
330
196
102
}
330
196
100
AcDbXrecord
280
     1
270
     1
271
     1
  0
XRECORD
  5
197
102
{ACAD_REACTORS
330
196
102
}
330
196
100
AcDbXrecord
280
     1
270
     1
271
     1
  0
XRECORD
  5
19B
102
{ACAD_REACTORS
330
196
102
}
330
196
100
AcDbXrecord
280
     1
270
     1
271
     1
  0
XRECORD
  5
19A
102
{ACAD_REACTORS
330
196
102
}
330
196
100
AcDbXrecord
280
     1
270
     1
271
     1
  0
XRECORD
  5
19C
102
{ACAD_REACTORS
330
196
102
}
330
196
100
AcDbXrecord
280
     1
270
     1
271
     1
  0
XRECORD
  5
199
102
{ACAD_REACTORS
330
196
102
}
330
196
100
AcDbXrecord
280
     1
270
     1
271
     1
  0
XRECORD
  5
206
102
{ACAD_REACTORS
330
18E
102
}
330
18E
100
AcDbXrecord
280
     1
102
MATERIAL
148
0.0
149
0.0
149
0.0
 93
        0
 94
      127
282
     0
 72
     0
 77
     0
171
     0
175
     0
179
     0
273
     0
  0
XRECORD
  5
190
102
{ACAD_REACTORS
330
18E
102
}
330
18E
100
AcDbXrecord
280
     1
270
     1
271
     1
  0
XRECORD
  5
18F
102
{ACAD_REACTORS
330
18E
102
}
330
18E
100
AcDbXrecord
280
     1
270
     1
271
     1
  0
XRECORD
  5
193
102
{ACAD_REACTORS
330
18E
102
}
330
18E
100
AcDbXrecord
280
     1
270
     1
271
     1
  0
XRECORD
  5
192
102
{ACAD_REACTORS
330
18E
102
}
330
18E
100
AcDbXrecord
280
     1
270
     1
271
     1
  0
XRECORD
  5
194
102
{ACAD_REACTORS
330
18E
102
}
330
18E
100
AcDbXrecord
280
     1
270
     1
271
     1
  0
XRECORD
  5
191
102
{ACAD_REACTORS
330
18E
102
}
330
18E
100
AcDbXrecord
280
     1
270
     1
271
     1
  0
XRECORD
  5
208
102
{ACAD_REACTORS
330
19E
102
}
330
19E
100
AcDbXrecord
280
     1
102
MATERIAL
148
0.0
149
0.0
149
0.0
 93
        0
 94
      127
282
     0
 72
     0
 77
     0
171
     0
175
     0
179
     0
273
     0
  0
XRECORD
  5
1A0
102
{ACAD_REACTORS
330
19E
102
}
330
19E
100
AcDbXrecord
280
     1
270
     1
271
     1
  0
XRECORD
  5
19F
102
{ACAD_REACTORS
330
19E
102
}
330
19E
100
AcDbXrecord
280
     1
270
     1
271
     1
  0
XRECORD
  5
1A3
102
{ACAD_REACTORS
330
19E
102
}
330
19E
100
AcDbXrecord
280
     1
270
     1
271
     1
  0
XRECORD
  5
1A2
102
{ACAD_REACTORS
330
19E
102
}
330
19E
100
AcDbXrecord
280
     1
270
     1
271
     1
  0
XRECORD
  5
1A4
102
{ACAD_REACTORS
330
19E
102
}
330
19E
100
AcDbXrecord
280
     1
270
     1
271
     1
  0
XRECORD
  5
1A1
102
{ACAD_REACTORS
330
19E
102
}
330
19E
100
AcDbXrecord
280
     1
270
     1
271
     1
  0
CELLSTYLEMAP
  5
202
102
{ACAD_REACTORS
330
201
102
}
330
201
100
AcDbCellStyleMap
 90
        3
300
CELLSTYLE
  1
TABLEFORMAT_BEGIN
 90
        5
170
     1
 91
        0
 92
    32768
 62
   257
 93
        1
300
CONTENTFORMAT
  1
CONTENTFORMAT_BEGIN
 90
        0
 91
        0
 92
      512
 93
        0
300

 40
0.0
140
1.0
 94
        5
 62
     0
340
11
144
0.25
309
CONTENTFORMAT_END
171
     0
 94
        0
309
TABLEFORMAT_END
  1
CELLSTYLE_BEGIN
 90
        1
 91
        1
300
_TITLE
309
CELLSTYLE_END
300
CELLSTYLE
  1
TABLEFORMAT_BEGIN
 90
        5
170
     1
 91
        0
 92
        0
 62
   257
 93
        1
300
CONTENTFORMAT
  1
CONTENTFORMAT_BEGIN
 90
        0
 91
        0
 92
      512
 93
        0
300

 40
0.0
140
1.0
 94
        5
 62
     0
340
11
144
0.18
309
CONTENTFORMAT_END
171
     0
 94
        0
309
TABLEFORMAT_END
  1
CELLSTYLE_BEGIN
 90
        2
 91
        1
300
_HEADER
309
CELLSTYLE_END
300
CELLSTYLE
  1
TABLEFORMAT_BEGIN
 90
        5
170
     1
 91
        0
 92
        0
 62
   257
 93
        1
300
CONTENTFORMAT
  1
CONTENTFORMAT_BEGIN
 90
        0
 91
        0
 92
      512
 93
        0
300

 40
0.0
140
1.0
 94
        2
 62
     0
340
11
144
0.18
309
CONTENTFORMAT_END
171
     0
 94
        0
309
TABLEFORMAT_END
  1
CELLSTYLE_BEGIN
 90
        3
 91
        2
300
_DATA
309
CELLSTYLE_END
  0
XRECORD
  5
239
102
{ACAD_REACTORS
330
201
102
}
330
201
100
AcDbXrecord
280
     1
102
ACAD_ROUNDTRIP_PRE2007_TABLESTYLE
 90
      512
 91
        0
  1

 92
      512
 93
        0
  2

 94
      512
 95
        0
  3

  0
XRECORD
  5
214
102
{ACAD_REACTORS
330
213
102
}
330
213
100
AcDbXrecord
280
     1
102
RTVSPost2010Prop28
280
     1
102
RTVSPost2010PropOp28
 70
     1
102
RTVSPost2010Prop29
280
     1
102
RTVSPost2010PropOp29
 70
     1
102
RTVSPost2010Prop30
280
     0
102
RTVSPost2010PropOp30
 70
     1
102
RTVSPost2010Prop31
280
     0
102
RTVSPost2010PropOp31
 70
     1
102
RTVSPost2010Prop32
280
     0
102
RTVSPost2010PropOp32
 70
     1
102
RTVSPost2010Prop33
280
     0
102
RTVSPost2010PropOp33
 70
     1
102
RTVSPost2010Prop34
280
     0
102
RTVSPost2010PropOp34
 70
     1
102
RTVSPost2010Prop35
280
     0
102
RTVSPost2010PropOp35
 70
     1
102
RTVSPost2010Prop36
280
     0
102
RTVSPost2010PropOp36
 70
     1
102
RTVSPost2010Prop37
 90
       50
102
RTVSPost2010PropOp37
 70
     1
102
RTVSPost2010Prop38
140
0.0
102
RTVSPost2010PropOp38
 70
     1
102
RTVSPost2010Prop39
140
1.0
102
RTVSPost2010PropOp39
 70
     1
102
RTVSPost2010Prop40
 90
        0
102
RTVSPost2010PropOp40
 70
     1
102
RTVSPost2010Prop41ColorIndex
 90
       18
102
RTVSPost2010Prop41ColorRGB
 90
        0
102
RTVSPost2010PropOp41
 70
     1
102
RTVSPost2010Prop42
 90
       50
102
RTVSPost2010PropOp42
 70
     1
102
RTVSPost2010Prop43
 90
        3
102
RTVSPost2010PropOp43
 70
     1
102
RTVSPost2010Prop44ColorIndex
 90
        5
102
RTVSPost2010Prop44ColorRGB
 90
      255
102
RTVSPost2010PropOp44
 70
     1
102
RTVSPost2010Prop45
280
     0
102
RTVSPost2010PropOp45
 70
     1
102
RTVSPost2010Prop46
 90
       50
102
RTVSPost2010PropOp46
 70
     1
102
RTVSPost2010Prop47
 90
       50
102
RTVSPost2010PropOp47
 70
     1
102
RTVSPost2010Prop48
 90
       50
102
RTVSPost2010PropOp48
 70
     1
102
RTVSPost2010Prop49
280
     0
102
RTVSPost2010PropOp49
 70
     1
102
RTVSPost2010Prop50
 90
       50
102
RTVSPost2010PropOp50
 70
     1
102
RTVSPost2010Prop51ColorIndex
 90
      256
102
RTVSPost2010Prop51ColorRGB
 90
-16777216
102
RTVSPost2010PropOp51
 70
     0
102
RTVSPost2010Prop52
140
1.0
102
RTVSPost2010PropOp52
 70
     0
102
RTVSPost2010Prop53
 90
        2
102
RTVSPost2010PropOp53
 70
     1
102
RTVSPost2010Prop54
  1
strokes_ogs.tif
102
RTVSPost2010PropOp54
 70
     1
102
RTVSPost2010Prop55
280
     0
102
RTVSPost2010PropOp55
 70
     1
102
RTVSPost2010Prop56
140
1.0
102
RTVSPost2010PropOp56
 70
     1
102
RTVSPost2010Prop57
140
1.0
102
RTVSPost2010PropOp57
 70
     1
102
RTVSPropertyOp0
 70
     1
102
RTVSPropertyOp1
 70
     1
102
RTVSPropertyOp2
 70
     1
102
RTVSPropertyOp3
 70
     1
102
RTVSPropertyOp4
 70
     1
102
RTVSPropertyOp5
 70
     1
102
RTVSPropertyOp6
 70
     1
102
RTVSPropertyOp7
 70
     1
102
RTVSPropertyOp8
 70
     1
102
RTVSPropertyOp9
 70
     1
102
RTVSPropertyOp10
 70
     1
102
RTVSPropertyOp11
 70
     1
102
RTVSPropertyOp12
 70
     1
102
RTVSPropertyOp13
 70
     1
102
RTVSPropertyOp14
 70
     1
102
RTVSPropertyOp15
 70
     1
102
RTVSPropertyOp16
 70
     1
102
RTVSPropertyOp17
 70
     1
102
RTVSPropertyOp18
 70
     1
102
RTVSPropertyOp19
 70
     1
102
RTVSPropertyOp20
 70
     1
102
RTVSPropertyOp21
 70
     1
102
RTVSPropertyOp22
 70
     1
102
RTVSPropertyOp23
 70
     1
102
RTVSPropertyOp24
 70
     1
102
RTVSPropertyOp25
 70
     1
102
RTVSPropertyOp26
 70
     1
102
RTVSPropertyOp27
 70
     1
102
RTVSPropertyOp28
 70
     1
102
RTVSPropertyOp29
 70
     1
102
RTVSPropertyOp30
 70
     1
102
RTVSPropertyOp31
 70
     1
102
RTVSPropertyOp32
 70
     1
102
RTVSPropertyOp33
 70
     1
102
RTVSPropertyOp34
 70
     1
102
RTVSPropertyOp35
 70
     1
102
RTVSPropertyOp36
 70
     1
102
RTVSPropertyOp37
 70
     1
102
RTVSPropertyOp38
 70
     1
102
RTVSPropertyOp39
 70
     1
102
RTVSPropertyOp40
 70
     1
102
RTVSPropertyOp41
 70
     1
102
RTVSPropertyOp42
 70
     1
102
RTVSPropertyOp43
 70
     1
102
RTVSPropertyOp44
 70
     1
102
RTVSPropertyOp45
 70
     1
102
RTVSPropertyOp46
 70
     1
102
RTVSPropertyOp47
 70
     1
102
RTVSPropertyOp48
 70
     1
102
RTVSPropertyOp49
 70
     1
102
RTVSPropertyOp50
 70
     1
102
RTVSPropertyOp51
 70
     0
102
RTVSPropertyOp52
 70
     0
102
RTVSPropertyOp53
 70
     1
102
RTVSPropertyOp54
 70
     1
102
RTVSPropertyOp55
 70
     1
102
RTVSPropertyOp56
 70
     1
102
RTVSPropertyOp57
 70
     1
102
RTVSPropertyOp58
 70
     1
102
RTVSPropertyOp59
 70
     1
102
RTVSPropertyOp60
 70
     1
102
RTVSPropertyOp61
 70
     1
102
RTVSPropertyOp62
 70
     1
  0
XRECORD
  5
212
102
{ACAD_REACTORS
330
211
102
}
330
211
100
AcDbXrecord
280
     1
102
RTVSPost2010Prop28
280
     0
102
RTVSPost2010PropOp28
 70
     1
102
RTVSPost2010Prop29
280
     1
102
RTVSPost2010PropOp29
 70
     1
102
RTVSPost2010Prop30
280
     1
102
RTVSPost2010PropOp30
 70
     1
102
RTVSPost2010Prop31
280
     0
102
RTVSPost2010PropOp31
 70
     1
102
RTVSPost2010Prop32
280
     0
102
RTVSPost2010PropOp32
 70
     1
102
RTVSPost2010Prop33
280
     0
102
RTVSPost2010PropOp33
 70
     1
102
RTVSPost2010Prop34
280
     0
102
RTVSPost2010PropOp34
 70
     1
102
RTVSPost2010Prop35
280
     0
102
RTVSPost2010PropOp35
 70
     1
102
RTVSPost2010Prop36
280
     0
102
RTVSPost2010PropOp36
 70
     1
102
RTVSPost2010Prop37
 90
       50
102
RTVSPost2010PropOp37
 70
     1
102
RTVSPost2010Prop38
140
0.0
102
RTVSPost2010PropOp38
 70
     1
102
RTVSPost2010Prop39
140
1.0
102
RTVSPost2010PropOp39
 70
     1
102
RTVSPost2010Prop40
 90
        0
102
RTVSPost2010PropOp40
 70
     1
102
RTVSPost2010Prop41ColorIndex
 90
       18
102
RTVSPost2010Prop41ColorRGB
 90
        0
102
RTVSPost2010PropOp41
 70
     1
102
RTVSPost2010Prop42
 90
       50
102
RTVSPost2010PropOp42
 70
     1
102
RTVSPost2010Prop43
 90
        3
102
RTVSPost2010PropOp43
 70
     1
102
RTVSPost2010Prop44ColorIndex
 90
        5
102
RTVSPost2010Prop44ColorRGB
 90
      255
102
RTVSPost2010PropOp44
 70
     1
102
RTVSPost2010Prop45
280
     0
102
RTVSPost2010PropOp45
 70
     1
102
RTVSPost2010Prop46
 90
       50
102
RTVSPost2010PropOp46
 70
     1
102
RTVSPost2010Prop47
 90
       50
102
RTVSPost2010PropOp47
 70
     1
102
RTVSPost2010Prop48
 90
       50
102
RTVSPost2010PropOp48
 70
     1
102
RTVSPost2010Prop49
280
     0
102
RTVSPost2010PropOp49
 70
     1
102
RTVSPost2010Prop50
 90
       50
102
RTVSPost2010PropOp50
 70
     1
102
RTVSPost2010Prop51ColorIndex
 90
      256
102
RTVSPost2010Prop51ColorRGB
 90
-16777216
102
RTVSPost2010PropOp51
 70
     0
102
RTVSPost2010Prop52
140
1.0
102
RTVSPost2010PropOp52
 70
     0
102
RTVSPost2010Prop53
 90
        2
102
RTVSPost2010PropOp53
 70
     1
102
RTVSPost2010Prop54
  1
strokes_ogs.tif
102
RTVSPost2010PropOp54
 70
     1
102
RTVSPost2010Prop55
280
     0
102
RTVSPost2010PropOp55
 70
     1
102
RTVSPost2010Prop56
140
1.0
102
RTVSPost2010PropOp56
 70
     1
102
RTVSPost2010Prop57
140
1.0
102
RTVSPost2010PropOp57
 70
     1
102
RTVSPropertyOp0
 70
     1
102
RTVSPropertyOp1
 70
     1
102
RTVSPropertyOp2
 70
     1
102
RTVSPropertyOp3
 70
     1
102
RTVSPropertyOp4
 70
     1
102
RTVSPropertyOp5
 70
     1
102
RTVSPropertyOp6
 70
     1
102
RTVSPropertyOp7
 70
     1
102
RTVSPropertyOp8
 70
     1
102
RTVSPropertyOp9
 70
     1
102
RTVSPropertyOp10
 70
     1
102
RTVSPropertyOp11
 70
     1
102
RTVSPropertyOp12
 70
     1
102
RTVSPropertyOp13
 70
     1
102
RTVSPropertyOp14
 70
     1
102
RTVSPropertyOp15
 70
     1
102
RTVSPropertyOp16
 70
     1
102
RTVSPropertyOp17
 70
     1
102
RTVSPropertyOp18
 70
     1
102
RTVSPropertyOp19
 70
     1
102
RTVSPropertyOp20
 70
     1
102
RTVSPropertyOp21
 70
     1
102
RTVSPropertyOp22
 70
     1
102
RTVSPropertyOp23
 70
     1
102
RTVSPropertyOp24
 70
     1
102
RTVSPropertyOp25
 70
     1
102
RTVSPropertyOp26
 70
     1
102
RTVSPropertyOp27
 70
     1
102
RTVSPropertyOp28
 70
     1
102
RTVSPropertyOp29
 70
     1
102
RTVSPropertyOp30
 70
     1
102
RTVSPropertyOp31
 70
     1
102
RTVSPropertyOp32
 70
     1
102
RTVSPropertyOp33
 70
     1
102
RTVSPropertyOp34
 70
     1
102
RTVSPropertyOp35
 70
     1
102
RTVSPropertyOp36
 70
     1
102
RTVSPropertyOp37
 70
     1
102
RTVSPropertyOp38
 70
     1
102
RTVSPropertyOp39
 70
     1
102
RTVSPropertyOp40
 70
     1
102
RTVSPropertyOp41
 70
     1
102
RTVSPropertyOp42
 70
     1
102
RTVSPropertyOp43
 70
     1
102
RTVSPropertyOp44
 70
     1
102
RTVSPropertyOp45
 70
     1
102
RTVSPropertyOp46
 70
     1
102
RTVSPropertyOp47
 70
     1
102
RTVSPropertyOp48
 70
     1
102
RTVSPropertyOp49
 70
     1
102
RTVSPropertyOp50
 70
     1
102
RTVSPropertyOp51
 70
     0
102
RTVSPropertyOp52
 70
     0
102
RTVSPropertyOp53
 70
     1
102
RTVSPropertyOp54
 70
     1
102
RTVSPropertyOp55
 70
     1
102
RTVSPropertyOp56
 70
     1
102
RTVSPropertyOp57
 70
     1
102
RTVSPropertyOp58
 70
     1
102
RTVSPropertyOp59
 70
     1
102
RTVSPropertyOp60
 70
     1
102
RTVSPropertyOp61
 70
     1
102
RTVSPropertyOp62
 70
     1
  0
XRECORD
  5
220
102
{ACAD_REACTORS
330
21F
102
}
330
21F
100
AcDbXrecord
280
     1
102
RTVSPost2010Prop28
280
     0
102
RTVSPost2010PropOp28
 70
     1
102
RTVSPost2010Prop29
280
     1
102
RTVSPost2010PropOp29
 70
     1
102
RTVSPost2010Prop30
280
     1
102
RTVSPost2010PropOp30
 70
     1
102
RTVSPost2010Prop31
280
     0
102
RTVSPost2010PropOp31
 70
     1
102
RTVSPost2010Prop32
280
     0
102
RTVSPost2010PropOp32
 70
     1
102
RTVSPost2010Prop33
280
     0
102
RTVSPost2010PropOp33
 70
     1
102
RTVSPost2010Prop34
280
     0
102
RTVSPost2010PropOp34
 70
     1
102
RTVSPost2010Prop35
280
     0
102
RTVSPost2010PropOp35
 70
     1
102
RTVSPost2010Prop36
280
     0
102
RTVSPost2010PropOp36
 70
     1
102
RTVSPost2010Prop37
 90
       50
102
RTVSPost2010PropOp37
 70
     1
102
RTVSPost2010Prop38
140
0.0
102
RTVSPost2010PropOp38
 70
     1
102
RTVSPost2010Prop39
140
1.0
102
RTVSPost2010PropOp39
 70
     1
102
RTVSPost2010Prop40
 90
        0
102
RTVSPost2010PropOp40
 70
     1
102
RTVSPost2010Prop41ColorIndex
 90
       18
102
RTVSPost2010Prop41ColorRGB
 90
        0
102
RTVSPost2010PropOp41
 70
     1
102
RTVSPost2010Prop42
 90
       50
102
RTVSPost2010PropOp42
 70
     1
102
RTVSPost2010Prop43
 90
        3
102
RTVSPost2010PropOp43
 70
     1
102
RTVSPost2010Prop44ColorIndex
 90
        5
102
RTVSPost2010Prop44ColorRGB
 90
      255
102
RTVSPost2010PropOp44
 70
     1
102
RTVSPost2010Prop45
280
     0
102
RTVSPost2010PropOp45
 70
     1
102
RTVSPost2010Prop46
 90
       50
102
RTVSPost2010PropOp46
 70
     1
102
RTVSPost2010Prop47
 90
       50
102
RTVSPost2010PropOp47
 70
     1
102
RTVSPost2010Prop48
 90
       50
102
RTVSPost2010PropOp48
 70
     1
102
RTVSPost2010Prop49
280
     0
102
RTVSPost2010PropOp49
 70
     1
102
RTVSPost2010Prop50
 90
       50
102
RTVSPost2010PropOp50
 70
     1
102
RTVSPost2010Prop51ColorIndex
 90
      256
102
RTVSPost2010Prop51ColorRGB
 90
-16777216
102
RTVSPost2010PropOp51
 70
     0
102
RTVSPost2010Prop52
140
1.0
102
RTVSPost2010PropOp52
 70
     0
102
RTVSPost2010Prop53
 90
        2
102
RTVSPost2010PropOp53
 70
     1
102
RTVSPost2010Prop54
  1
strokes_ogs.tif
102
RTVSPost2010PropOp54
 70
     1
102
RTVSPost2010Prop55
280
     0
102
RTVSPost2010PropOp55
 70
     1
102
RTVSPost2010Prop56
140
1.0
102
RTVSPost2010PropOp56
 70
     1
102
RTVSPost2010Prop57
140
1.0
102
RTVSPost2010PropOp57
 70
     1
102
RTVSPropertyOp0
 70
     1
102
RTVSPropertyOp1
 70
     1
102
RTVSPropertyOp2
 70
     1
102
RTVSPropertyOp3
 70
     1
102
RTVSPropertyOp4
 70
     1
102
RTVSPropertyOp5
 70
     1
102
RTVSPropertyOp6
 70
     1
102
RTVSPropertyOp7
 70
     1
102
RTVSPropertyOp8
 70
     1
102
RTVSPropertyOp9
 70
     1
102
RTVSPropertyOp10
 70
     1
102
RTVSPropertyOp11
 70
     1
102
RTVSPropertyOp12
 70
     1
102
RTVSPropertyOp13
 70
     1
102
RTVSPropertyOp14
 70
     1
102
RTVSPropertyOp15
 70
     1
102
RTVSPropertyOp16
 70
     1
102
RTVSPropertyOp17
 70
     1
102
RTVSPropertyOp18
 70
     1
102
RTVSPropertyOp19
 70
     1
102
RTVSPropertyOp20
 70
     1
102
RTVSPropertyOp21
 70
     1
102
RTVSPropertyOp22
 70
     1
102
RTVSPropertyOp23
 70
     1
102
RTVSPropertyOp24
 70
     1
102
RTVSPropertyOp25
 70
     1
102
RTVSPropertyOp26
 70
     1
102
RTVSPropertyOp27
 70
     1
102
RTVSPropertyOp28
 70
     1
102
RTVSPropertyOp29
 70
     1
102
RTVSPropertyOp30
 70
     1
102
RTVSPropertyOp31
 70
     1
102
RTVSPropertyOp32
 70
     1
102
RTVSPropertyOp33
 70
     1
102
RTVSPropertyOp34
 70
     1
102
RTVSPropertyOp35
 70
     1
102
RTVSPropertyOp36
 70
     1
102
RTVSPropertyOp37
 70
     1
102
RTVSPropertyOp38
 70
     1
102
RTVSPropertyOp39
 70
     1
102
RTVSPropertyOp40
 70
     1
102
RTVSPropertyOp41
 70
     1
102
RTVSPropertyOp42
 70
     1
102
RTVSPropertyOp43
 70
     1
102
RTVSPropertyOp44
 70
     1
102
RTVSPropertyOp45
 70
     1
102
RTVSPropertyOp46
 70
     1
102
RTVSPropertyOp47
 70
     1
102
RTVSPropertyOp48
 70
     1
102
RTVSPropertyOp49
 70
     1
102
RTVSPropertyOp50
 70
     1
102
RTVSPropertyOp51
 70
     0
102
RTVSPropertyOp52
 70
     0
102
RTVSPropertyOp53
 70
     1
102
RTVSPropertyOp54
 70
     1
102
RTVSPropertyOp55
 70
     1
102
RTVSPropertyOp56
 70
     1
102
RTVSPropertyOp57
 70
     1
102
RTVSPropertyOp58
 70
     1
102
RTVSPropertyOp59
 70
     1
102
RTVSPropertyOp60
 70
     1
102
RTVSPropertyOp61
 70
     1
102
RTVSPropertyOp62
 70
     1
  0
XRECORD
  5
228
102
{ACAD_REACTORS
330
227
102
}
330
227
100
AcDbXrecord
280
     1
102
RTVSPost2010Prop28
280
     0
102
RTVSPost2010PropOp28
 70
     1
102
RTVSPost2010Prop29
280
     1
102
RTVSPost2010PropOp29
 70
     1
102
RTVSPost2010Prop30
280
     1
102
RTVSPost2010PropOp30
 70
     1
102
RTVSPost2010Prop31
280
     0
102
RTVSPost2010PropOp31
 70
     1
102
RTVSPost2010Prop32
280
     0
102
RTVSPost2010PropOp32
 70
     1
102
RTVSPost2010Prop33
280
     0
102
RTVSPost2010PropOp33
 70
     1
102
RTVSPost2010Prop34
280
     0
102
RTVSPost2010PropOp34
 70
     1
102
RTVSPost2010Prop35
280
     0
102
RTVSPost2010PropOp35
 70
     1
102
RTVSPost2010Prop36
280
     0
102
RTVSPost2010PropOp36
 70
     1
102
RTVSPost2010Prop37
 90
       50
102
RTVSPost2010PropOp37
 70
     1
102
RTVSPost2010Prop38
140
0.0
102
RTVSPost2010PropOp38
 70
     1
102
RTVSPost2010Prop39
140
1.0
102
RTVSPost2010PropOp39
 70
     1
102
RTVSPost2010Prop40
 90
        0
102
RTVSPost2010PropOp40
 70
     1
102
RTVSPost2010Prop41ColorIndex
 90
       18
102
RTVSPost2010Prop41ColorRGB
 90
        0
102
RTVSPost2010PropOp41
 70
     1
102
RTVSPost2010Prop42
 90
       50
102
RTVSPost2010PropOp42
 70
     1
102
RTVSPost2010Prop43
 90
        3
102
RTVSPost2010PropOp43
 70
     1
102
RTVSPost2010Prop44ColorIndex
 90
        5
102
RTVSPost2010Prop44ColorRGB
 90
      255
102
RTVSPost2010PropOp44
 70
     1
102
RTVSPost2010Prop45
280
     0
102
RTVSPost2010PropOp45
 70
     1
102
RTVSPost2010Prop46
 90
       50
102
RTVSPost2010PropOp46
 70
     1
102
RTVSPost2010Prop47
 90
       50
102
RTVSPost2010PropOp47
 70
     1
102
RTVSPost2010Prop48
 90
       50
102
RTVSPost2010PropOp48
 70
     1
102
RTVSPost2010Prop49
280
     0
102
RTVSPost2010PropOp49
 70
     1
102
RTVSPost2010Prop50
 90
       50
102
RTVSPost2010PropOp50
 70
     1
102
RTVSPost2010Prop51ColorIndex
 90
      256
102
RTVSPost2010Prop51ColorRGB
 90
-16777216
102
RTVSPost2010PropOp51
 70
     0
102
RTVSPost2010Prop52
140
1.0
102
RTVSPost2010PropOp52
 70
     0
102
RTVSPost2010Prop53
 90
        2
102
RTVSPost2010PropOp53
 70
     1
102
RTVSPost2010Prop54
  1
strokes_ogs.tif
102
RTVSPost2010PropOp54
 70
     1
102
RTVSPost2010Prop55
280
     0
102
RTVSPost2010PropOp55
 70
     1
102
RTVSPost2010Prop56
140
1.0
102
RTVSPost2010PropOp56
 70
     1
102
RTVSPost2010Prop57
140
1.0
102
RTVSPost2010PropOp57
 70
     1
102
RTVSPropertyOp0
 70
     1
102
RTVSPropertyOp1
 70
     1
102
RTVSPropertyOp2
 70
     1
102
RTVSPropertyOp3
 70
     1
102
RTVSPropertyOp4
 70
     1
102
RTVSPropertyOp5
 70
     1
102
RTVSPropertyOp6
 70
     1
102
RTVSPropertyOp7
 70
     1
102
RTVSPropertyOp8
 70
     1
102
RTVSPropertyOp9
 70
     1
102
RTVSPropertyOp10
 70
     1
102
RTVSPropertyOp11
 70
     1
102
RTVSPropertyOp12
 70
     1
102
RTVSPropertyOp13
 70
     1
102
RTVSPropertyOp14
 70
     1
102
RTVSPropertyOp15
 70
     1
102
RTVSPropertyOp16
 70
     1
102
RTVSPropertyOp17
 70
     1
102
RTVSPropertyOp18
 70
     1
102
RTVSPropertyOp19
 70
     1
102
RTVSPropertyOp20
 70
     1
102
RTVSPropertyOp21
 70
     1
102
RTVSPropertyOp22
 70
     1
102
RTVSPropertyOp23
 70
     1
102
RTVSPropertyOp24
 70
     1
102
RTVSPropertyOp25
 70
     1
102
RTVSPropertyOp26
 70
     1
102
RTVSPropertyOp27
 70
     1
102
RTVSPropertyOp28
 70
     1
102
RTVSPropertyOp29
 70
     1
102
RTVSPropertyOp30
 70
     1
102
RTVSPropertyOp31
 70
     1
102
RTVSPropertyOp32
 70
     1
102
RTVSPropertyOp33
 70
     1
102
RTVSPropertyOp34
 70
     1
102
RTVSPropertyOp35
 70
     1
102
RTVSPropertyOp36
 70
     1
102
RTVSPropertyOp37
 70
     1
102
RTVSPropertyOp38
 70
     1
102
RTVSPropertyOp39
 70
     1
102
RTVSPropertyOp40
 70
     1
102
RTVSPropertyOp41
 70
     1
102
RTVSPropertyOp42
 70
     1
102
RTVSPropertyOp43
 70
     1
102
RTVSPropertyOp44
 70
     1
102
RTVSPropertyOp45
 70
     1
102
RTVSPropertyOp46
 70
     1
102
RTVSPropertyOp47
 70
     1
102
RTVSPropertyOp48
 70
     1
102
RTVSPropertyOp49
 70
     1
102
RTVSPropertyOp50
 70
     1
102
RTVSPropertyOp51
 70
     0
102
RTVSPropertyOp52
 70
     0
102
RTVSPropertyOp53
 70
     1
102
RTVSPropertyOp54
 70
     1
102
RTVSPropertyOp55
 70
     1
102
RTVSPropertyOp56
 70
     1
102
RTVSPropertyOp57
 70
     1
102
RTVSPropertyOp58
 70
     1
102
RTVSPropertyOp59
 70
     1
102
RTVSPropertyOp60
 70
     1
102
RTVSPropertyOp61
 70
     1
102
RTVSPropertyOp62
 70
     1
  0
XRECORD
  5
21A
102
{ACAD_REACTORS
330
219
102
}
330
219
100
AcDbXrecord
280
     1
102
RTVSPost2010Prop28
280
     0
102
RTVSPost2010PropOp28
 70
     1
102
RTVSPost2010Prop29
280
     1
102
RTVSPost2010PropOp29
 70
     1
102
RTVSPost2010Prop30
280
     1
102
RTVSPost2010PropOp30
 70
     1
102
RTVSPost2010Prop31
280
     0
102
RTVSPost2010PropOp31
 70
     1
102
RTVSPost2010Prop32
280
     0
102
RTVSPost2010PropOp32
 70
     1
102
RTVSPost2010Prop33
280
     0
102
RTVSPost2010PropOp33
 70
     1
102
RTVSPost2010Prop34
280
     0
102
RTVSPost2010PropOp34
 70
     1
102
RTVSPost2010Prop35
280
     0
102
RTVSPost2010PropOp35
 70
     1
102
RTVSPost2010Prop36
280
     0
102
RTVSPost2010PropOp36
 70
     1
102
RTVSPost2010Prop37
 90
       50
102
RTVSPost2010PropOp37
 70
     1
102
RTVSPost2010Prop38
140
0.0
102
RTVSPost2010PropOp38
 70
     1
102
RTVSPost2010Prop39
140
1.0
102
RTVSPost2010PropOp39
 70
     1
102
RTVSPost2010Prop40
 90
        0
102
RTVSPost2010PropOp40
 70
     1
102
RTVSPost2010Prop41ColorIndex
 90
       18
102
RTVSPost2010Prop41ColorRGB
 90
        0
102
RTVSPost2010PropOp41
 70
     1
102
RTVSPost2010Prop42
 90
       50
102
RTVSPost2010PropOp42
 70
     1
102
RTVSPost2010Prop43
 90
        3
102
RTVSPost2010PropOp43
 70
     1
102
RTVSPost2010Prop44ColorIndex
 90
        5
102
RTVSPost2010Prop44ColorRGB
 90
      255
102
RTVSPost2010PropOp44
 70
     1
102
RTVSPost2010Prop45
280
     0
102
RTVSPost2010PropOp45
 70
     1
102
RTVSPost2010Prop46
 90
       50
102
RTVSPost2010PropOp46
 70
     1
102
RTVSPost2010Prop47
 90
       50
102
RTVSPost2010PropOp47
 70
     1
102
RTVSPost2010Prop48
 90
       50
102
RTVSPost2010PropOp48
 70
     1
102
RTVSPost2010Prop49
280
     0
102
RTVSPost2010PropOp49
 70
     1
102
RTVSPost2010Prop50
 90
       50
102
RTVSPost2010PropOp50
 70
     1
102
RTVSPost2010Prop51ColorIndex
 90
      256
102
RTVSPost2010Prop51ColorRGB
 90
-16777216
102
RTVSPost2010PropOp51
 70
     0
102
RTVSPost2010Prop52
140
1.0
102
RTVSPost2010PropOp52
 70
     0
102
RTVSPost2010Prop53
 90
        2
102
RTVSPost2010PropOp53
 70
     1
102
RTVSPost2010Prop54
  1
strokes_ogs.tif
102
RTVSPost2010PropOp54
 70
     1
102
RTVSPost2010Prop55
280
     0
102
RTVSPost2010PropOp55
 70
     1
102
RTVSPost2010Prop56
140
1.0
102
RTVSPost2010PropOp56
 70
     1
102
RTVSPost2010Prop57
140
1.0
102
RTVSPost2010PropOp57
 70
     1
102
RTVSPropertyOp0
 70
     1
102
RTVSPropertyOp1
 70
     1
102
RTVSPropertyOp2
 70
     1
102
RTVSPropertyOp3
 70
     1
102
RTVSPropertyOp4
 70
     1
102
RTVSPropertyOp5
 70
     1
102
RTVSPropertyOp6
 70
     1
102
RTVSPropertyOp7
 70
     1
102
RTVSPropertyOp8
 70
     1
102
RTVSPropertyOp9
 70
     1
102
RTVSPropertyOp10
 70
     1
102
RTVSPropertyOp11
 70
     1
102
RTVSPropertyOp12
 70
     1
102
RTVSPropertyOp13
 70
     1
102
RTVSPropertyOp14
 70
     1
102
RTVSPropertyOp15
 70
     1
102
RTVSPropertyOp16
 70
     1
102
RTVSPropertyOp17
 70
     1
102
RTVSPropertyOp18
 70
     1
102
RTVSPropertyOp19
 70
     1
102
RTVSPropertyOp20
 70
     1
102
RTVSPropertyOp21
 70
     1
102
RTVSPropertyOp22
 70
     1
102
RTVSPropertyOp23
 70
     1
102
RTVSPropertyOp24
 70
     1
102
RTVSPropertyOp25
 70
     1
102
RTVSPropertyOp26
 70
     1
102
RTVSPropertyOp27
 70
     1
102
RTVSPropertyOp28
 70
     1
102
RTVSPropertyOp29
 70
     1
102
RTVSPropertyOp30
 70
     1
102
RTVSPropertyOp31
 70
     1
102
RTVSPropertyOp32
 70
     1
102
RTVSPropertyOp33
 70
     1
102
RTVSPropertyOp34
 70
     1
102
RTVSPropertyOp35
 70
     1
102
RTVSPropertyOp36
 70
     1
102
RTVSPropertyOp37
 70
     1
102
RTVSPropertyOp38
 70
     1
102
RTVSPropertyOp39
 70
     1
102
RTVSPropertyOp40
 70
     1
102
RTVSPropertyOp41
 70
     1
102
RTVSPropertyOp42
 70
     1
102
RTVSPropertyOp43
 70
     1
102
RTVSPropertyOp44
 70
     1
102
RTVSPropertyOp45
 70
     1
102
RTVSPropertyOp46
 70
     1
102
RTVSPropertyOp47
 70
     1
102
RTVSPropertyOp48
 70
     1
102
RTVSPropertyOp49
 70
     1
102
RTVSPropertyOp50
 70
     1
102
RTVSPropertyOp51
 70
     0
102
RTVSPropertyOp52
 70
     0
102
RTVSPropertyOp53
 70
     1
102
RTVSPropertyOp54
 70
     1
102
RTVSPropertyOp55
 70
     1
102
RTVSPropertyOp56
 70
     1
102
RTVSPropertyOp57
 70
     1
102
RTVSPropertyOp58
 70
     1
102
RTVSPropertyOp59
 70
     1
102
RTVSPropertyOp60
 70
     1
102
RTVSPropertyOp61
 70
     1
102
RTVSPropertyOp62
 70
     1
  0
XRECORD
  5
21E
102
{ACAD_REACTORS
330
21D
102
}
330
21D
100
AcDbXrecord
280
     1
102
RTVSPost2010Prop28
280
     0
102
RTVSPost2010PropOp28
 70
     1
102
RTVSPost2010Prop29
280
     1
102
RTVSPost2010PropOp29
 70
     1
102
RTVSPost2010Prop30
280
     1
102
RTVSPost2010PropOp30
 70
     1
102
RTVSPost2010Prop31
280
     0
102
RTVSPost2010PropOp31
 70
     1
102
RTVSPost2010Prop32
280
     0
102
RTVSPost2010PropOp32
 70
     1
102
RTVSPost2010Prop33
280
     0
102
RTVSPost2010PropOp33
 70
     1
102
RTVSPost2010Prop34
280
     0
102
RTVSPost2010PropOp34
 70
     1
102
RTVSPost2010Prop35
280
     0
102
RTVSPost2010PropOp35
 70
     1
102
RTVSPost2010Prop36
280
     0
102
RTVSPost2010PropOp36
 70
     1
102
RTVSPost2010Prop37
 90
       50
102
RTVSPost2010PropOp37
 70
     1
102
RTVSPost2010Prop38
140
0.0
102
RTVSPost2010PropOp38
 70
     1
102
RTVSPost2010Prop39
140
1.0
102
RTVSPost2010PropOp39
 70
     1
102
RTVSPost2010Prop40
 90
        0
102
RTVSPost2010PropOp40
 70
     1
102
RTVSPost2010Prop41ColorIndex
 90
       18
102
RTVSPost2010Prop41ColorRGB
 90
        0
102
RTVSPost2010PropOp41
 70
     1
102
RTVSPost2010Prop42
 90
       50
102
RTVSPost2010PropOp42
 70
     1
102
RTVSPost2010Prop43
 90
        3
102
RTVSPost2010PropOp43
 70
     1
102
RTVSPost2010Prop44ColorIndex
 90
        5
102
RTVSPost2010Prop44ColorRGB
 90
      255
102
RTVSPost2010PropOp44
 70
     1
102
RTVSPost2010Prop45
280
     0
102
RTVSPost2010PropOp45
 70
     1
102
RTVSPost2010Prop46
 90
       50
102
RTVSPost2010PropOp46
 70
     1
102
RTVSPost2010Prop47
 90
       50
102
RTVSPost2010PropOp47
 70
     1
102
RTVSPost2010Prop48
 90
       50
102
RTVSPost2010PropOp48
 70
     1
102
RTVSPost2010Prop49
280
     0
102
RTVSPost2010PropOp49
 70
     1
102
RTVSPost2010Prop50
 90
       50
102
RTVSPost2010PropOp50
 70
     1
102
RTVSPost2010Prop51ColorIndex
 90
      256
102
RTVSPost2010Prop51ColorRGB
 90
-16777216
102
RTVSPost2010PropOp51
 70
     0
102
RTVSPost2010Prop52
140
1.0
102
RTVSPost2010PropOp52
 70
     0
102
RTVSPost2010Prop53
 90
        2
102
RTVSPost2010PropOp53
 70
     1
102
RTVSPost2010Prop54
  1
strokes_ogs.tif
102
RTVSPost2010PropOp54
 70
     1
102
RTVSPost2010Prop55
280
     0
102
RTVSPost2010PropOp55
 70
     1
102
RTVSPost2010Prop56
140
1.0
102
RTVSPost2010PropOp56
 70
     1
102
RTVSPost2010Prop57
140
1.0
102
RTVSPost2010PropOp57
 70
     1
102
RTVSPropertyOp0
 70
     1
102
RTVSPropertyOp1
 70
     1
102
RTVSPropertyOp2
 70
     1
102
RTVSPropertyOp3
 70
     1
102
RTVSPropertyOp4
 70
     1
102
RTVSPropertyOp5
 70
     1
102
RTVSPropertyOp6
 70
     1
102
RTVSPropertyOp7
 70
     1
102
RTVSPropertyOp8
 70
     1
102
RTVSPropertyOp9
 70
     1
102
RTVSPropertyOp10
 70
     1
102
RTVSPropertyOp11
 70
     1
102
RTVSPropertyOp12
 70
     1
102
RTVSPropertyOp13
 70
     1
102
RTVSPropertyOp14
 70
     1
102
RTVSPropertyOp15
 70
     1
102
RTVSPropertyOp16
 70
     1
102
RTVSPropertyOp17
 70
     1
102
RTVSPropertyOp18
 70
     1
102
RTVSPropertyOp19
 70
     1
102
RTVSPropertyOp20
 70
     1
102
RTVSPropertyOp21
 70
     1
102
RTVSPropertyOp22
 70
     1
102
RTVSPropertyOp23
 70
     1
102
RTVSPropertyOp24
 70
     1
102
RTVSPropertyOp25
 70
     1
102
RTVSPropertyOp26
 70
     1
102
RTVSPropertyOp27
 70
     1
102
RTVSPropertyOp28
 70
     1
102
RTVSPropertyOp29
 70
     1
102
RTVSPropertyOp30
 70
     1
102
RTVSPropertyOp31
 70
     1
102
RTVSPropertyOp32
 70
     1
102
RTVSPropertyOp33
 70
     1
102
RTVSPropertyOp34
 70
     1
102
RTVSPropertyOp35
 70
     1
102
RTVSPropertyOp36
 70
     1
102
RTVSPropertyOp37
 70
     1
102
RTVSPropertyOp38
 70
     1
102
RTVSPropertyOp39
 70
     1
102
RTVSPropertyOp40
 70
     1
102
RTVSPropertyOp41
 70
     1
102
RTVSPropertyOp42
 70
     1
102
RTVSPropertyOp43
 70
     1
102
RTVSPropertyOp44
 70
     1
102
RTVSPropertyOp45
 70
     1
102
RTVSPropertyOp46
 70
     1
102
RTVSPropertyOp47
 70
     1
102
RTVSPropertyOp48
 70
     1
102
RTVSPropertyOp49
 70
     1
102
RTVSPropertyOp50
 70
     1
102
RTVSPropertyOp51
 70
     0
102
RTVSPropertyOp52
 70
     0
102
RTVSPropertyOp53
 70
     1
102
RTVSPropertyOp54
 70
     1
102
RTVSPropertyOp55
 70
     1
102
RTVSPropertyOp56
 70
     1
102
RTVSPropertyOp57
 70
     1
102
RTVSPropertyOp58
 70
     1
102
RTVSPropertyOp59
 70
     1
102
RTVSPropertyOp60
 70
     1
102
RTVSPropertyOp61
 70
     1
102
RTVSPropertyOp62
 70
     1
  0
XRECORD
  5
238
102
{ACAD_REACTORS
330
237
102
}
330
237
100
AcDbXrecord
280
     1
102
RTVSPost2010Prop28
280
     0
102
RTVSPost2010PropOp28
 70
     1
102
RTVSPost2010Prop29
280
     1
102
RTVSPost2010PropOp29
 70
     1
102
RTVSPost2010Prop30
280
     1
102
RTVSPost2010PropOp30
 70
     1
102
RTVSPost2010Prop31
280
     0
102
RTVSPost2010PropOp31
 70
     1
102
RTVSPost2010Prop32
280
     0
102
RTVSPost2010PropOp32
 70
     1
102
RTVSPost2010Prop33
280
     0
102
RTVSPost2010PropOp33
 70
     1
102
RTVSPost2010Prop34
280
     0
102
RTVSPost2010PropOp34
 70
     1
102
RTVSPost2010Prop35
280
     0
102
RTVSPost2010PropOp35
 70
     1
102
RTVSPost2010Prop36
280
     0
102
RTVSPost2010PropOp36
 70
     1
102
RTVSPost2010Prop37
 90
       50
102
RTVSPost2010PropOp37
 70
     0
102
RTVSPost2010Prop38
140
0.0
102
RTVSPost2010PropOp38
 70
     0
102
RTVSPost2010Prop39
140
1.0
102
RTVSPost2010PropOp39
 70
     0
102
RTVSPost2010Prop40
 90
        0
102
RTVSPost2010PropOp40
 70
     0
102
RTVSPost2010Prop41ColorIndex
 90
       18
102
RTVSPost2010Prop41ColorRGB
 90
        0
102
RTVSPost2010PropOp41
 70
     0
102
RTVSPost2010Prop42
 90
       50
102
RTVSPost2010PropOp42
 70
     0
102
RTVSPost2010Prop43
 90
        3
102
RTVSPost2010PropOp43
 70
     0
102
RTVSPost2010Prop44ColorIndex
 90
        5
102
RTVSPost2010Prop44ColorRGB
 90
      255
102
RTVSPost2010PropOp44
 70
     0
102
RTVSPost2010Prop45
280
     0
102
RTVSPost2010PropOp45
 70
     1
102
RTVSPost2010Prop46
 90
       50
102
RTVSPost2010PropOp46
 70
     0
102
RTVSPost2010Prop47
 90
       50
102
RTVSPost2010PropOp47
 70
     0
102
RTVSPost2010Prop48
 90
       50
102
RTVSPost2010PropOp48
 70
     0
102
RTVSPost2010Prop49
280
     0
102
RTVSPost2010PropOp49
 70
     1
102
RTVSPost2010Prop50
 90
       50
102
RTVSPost2010PropOp50
 70
     0
102
RTVSPost2010Prop51ColorIndex
 90
      256
102
RTVSPost2010Prop51ColorRGB
 90
-16777216
102
RTVSPost2010PropOp51
 70
     0
102
RTVSPost2010Prop52
140
1.0
102
RTVSPost2010PropOp52
 70
     0
102
RTVSPost2010Prop53
 90
        2
102
RTVSPost2010PropOp53
 70
     0
102
RTVSPost2010Prop54
  1
strokes_ogs.tif
102
RTVSPost2010PropOp54
 70
     0
102
RTVSPost2010Prop55
280
     0
102
RTVSPost2010PropOp55
 70
     1
102
RTVSPost2010Prop56
140
1.0
102
RTVSPost2010PropOp56
 70
     0
102
RTVSPost2010Prop57
140
1.0
102
RTVSPost2010PropOp57
 70
     0
102
RTVSPropertyOp0
 70
     0
102
RTVSPropertyOp1
 70
     0
102
RTVSPropertyOp2
 70
     0
102
RTVSPropertyOp3
 70
     0
102
RTVSPropertyOp4
 70
     0
102
RTVSPropertyOp5
 70
     0
102
RTVSPropertyOp6
 70
     0
102
RTVSPropertyOp7
 70
     0
102
RTVSPropertyOp8
 70
     0
102
RTVSPropertyOp9
 70
     0
102
RTVSPropertyOp10
 70
     0
102
RTVSPropertyOp11
 70
     0
102
RTVSPropertyOp12
 70
     0
102
RTVSPropertyOp13
 70
     0
102
RTVSPropertyOp14
 70
     2
102
RTVSPropertyOp15
 70
     0
102
RTVSPropertyOp16
 70
     0
102
RTVSPropertyOp17
 70
     0
102
RTVSPropertyOp18
 70
     0
102
RTVSPropertyOp19
 70
     0
102
RTVSPropertyOp20
 70
     0
102
RTVSPropertyOp21
 70
     0
102
RTVSPropertyOp22
 70
     0
102
RTVSPropertyOp23
 70
     0
102
RTVSPropertyOp24
 70
     0
102
RTVSPropertyOp25
 70
     0
102
RTVSPropertyOp26
 70
     0
102
RTVSPropertyOp27
 70
     0
102
RTVSPropertyOp28
 70
     1
102
RTVSPropertyOp29
 70
     1
102
RTVSPropertyOp30
 70
     1
102
RTVSPropertyOp31
 70
     1
102
RTVSPropertyOp32
 70
     1
102
RTVSPropertyOp33
 70
     1
102
RTVSPropertyOp34
 70
     1
102
RTVSPropertyOp35
 70
     1
102
RTVSPropertyOp36
 70
     1
102
RTVSPropertyOp37
 70
     0
102
RTVSPropertyOp38
 70
     0
102
RTVSPropertyOp39
 70
     0
102
RTVSPropertyOp40
 70
     0
102
RTVSPropertyOp41
 70
     0
102
RTVSPropertyOp42
 70
     0
102
RTVSPropertyOp43
 70
     0
102
RTVSPropertyOp44
 70
     0
102
RTVSPropertyOp45
 70
     1
102
RTVSPropertyOp46
 70
     0
102
RTVSPropertyOp47
 70
     0
102
RTVSPropertyOp48
 70
     0
102
RTVSPropertyOp49
 70
     1
102
RTVSPropertyOp50
 70
     0
102
RTVSPropertyOp51
 70
     0
102
RTVSPropertyOp52
 70
     0
102
RTVSPropertyOp53
 70
     0
102
RTVSPropertyOp54
 70
     0
102
RTVSPropertyOp55
 70
     1
102
RTVSPropertyOp56
 70
     0
102
RTVSPropertyOp57
 70
     0
102
RTVSPropertyOp58
 70
     0
102
RTVSPropertyOp59
 70
     0
102
RTVSPropertyOp60
 70
     0
102
RTVSPropertyOp61
 70
     0
102
RTVSPropertyOp62
 70
     0
  0
XRECORD
  5
226
102
{ACAD_REACTORS
330
225
102
}
330
225
100
AcDbXrecord
280
     1
102
RTVSPost2010Prop28
280
     0
102
RTVSPost2010PropOp28
 70
     1
102
RTVSPost2010Prop29
280
     1
102
RTVSPost2010PropOp29
 70
     1
102
RTVSPost2010Prop30
280
     1
102
RTVSPost2010PropOp30
 70
     1
102
RTVSPost2010Prop31
280
     0
102
RTVSPost2010PropOp31
 70
     1
102
RTVSPost2010Prop32
280
     0
102
RTVSPost2010PropOp32
 70
     1
102
RTVSPost2010Prop33
280
     0
102
RTVSPost2010PropOp33
 70
     1
102
RTVSPost2010Prop34
280
     0
102
RTVSPost2010PropOp34
 70
     1
102
RTVSPost2010Prop35
280
     0
102
RTVSPost2010PropOp35
 70
     1
102
RTVSPost2010Prop36
280
     0
102
RTVSPost2010PropOp36
 70
     1
102
RTVSPost2010Prop37
 90
       50
102
RTVSPost2010PropOp37
 70
     1
102
RTVSPost2010Prop38
140
0.0
102
RTVSPost2010PropOp38
 70
     1
102
RTVSPost2010Prop39
140
1.0
102
RTVSPost2010PropOp39
 70
     1
102
RTVSPost2010Prop40
 90
        0
102
RTVSPost2010PropOp40
 70
     1
102
RTVSPost2010Prop41ColorIndex
 90
       18
102
RTVSPost2010Prop41ColorRGB
 90
        0
102
RTVSPost2010PropOp41
 70
     1
102
RTVSPost2010Prop42
 90
       50
102
RTVSPost2010PropOp42
 70
     1
102
RTVSPost2010Prop43
 90
        3
102
RTVSPost2010PropOp43
 70
     1
102
RTVSPost2010Prop44ColorIndex
 90
        5
102
RTVSPost2010Prop44ColorRGB
 90
      255
102
RTVSPost2010PropOp44
 70
     1
102
RTVSPost2010Prop45
280
     0
102
RTVSPost2010PropOp45
 70
     1
102
RTVSPost2010Prop46
 90
       50
102
RTVSPost2010PropOp46
 70
     1
102
RTVSPost2010Prop47
 90
       50
102
RTVSPost2010PropOp47
 70
     1
102
RTVSPost2010Prop48
 90
       50
102
RTVSPost2010PropOp48
 70
     1
102
RTVSPost2010Prop49
280
     0
102
RTVSPost2010PropOp49
 70
     1
102
RTVSPost2010Prop50
 90
       50
102
RTVSPost2010PropOp50
 70
     1
102
RTVSPost2010Prop51ColorIndex
 90
      256
102
RTVSPost2010Prop51ColorRGB
 90
-16777216
102
RTVSPost2010PropOp51
 70
     0
102
RTVSPost2010Prop52
140
1.0
102
RTVSPost2010PropOp52
 70
     0
102
RTVSPost2010Prop53
 90
        2
102
RTVSPost2010PropOp53
 70
     1
102
RTVSPost2010Prop54
  1
strokes_ogs.tif
102
RTVSPost2010PropOp54
 70
     1
102
RTVSPost2010Prop55
280
     0
102
RTVSPost2010PropOp55
 70
     1
102
RTVSPost2010Prop56
140
1.0
102
RTVSPost2010PropOp56
 70
     1
102
RTVSPost2010Prop57
140
1.0
102
RTVSPost2010PropOp57
 70
     1
102
RTVSPropertyOp0
 70
     1
102
RTVSPropertyOp1
 70
     1
102
RTVSPropertyOp2
 70
     1
102
RTVSPropertyOp3
 70
     1
102
RTVSPropertyOp4
 70
     1
102
RTVSPropertyOp5
 70
     1
102
RTVSPropertyOp6
 70
     1
102
RTVSPropertyOp7
 70
     1
102
RTVSPropertyOp8
 70
     1
102
RTVSPropertyOp9
 70
     1
102
RTVSPropertyOp10
 70
     1
102
RTVSPropertyOp11
 70
     1
102
RTVSPropertyOp12
 70
     1
102
RTVSPropertyOp13
 70
     1
102
RTVSPropertyOp14
 70
     1
102
RTVSPropertyOp15
 70
     1
102
RTVSPropertyOp16
 70
     1
102
RTVSPropertyOp17
 70
     1
102
RTVSPropertyOp18
 70
     1
102
RTVSPropertyOp19
 70
     1
102
RTVSPropertyOp20
 70
     1
102
RTVSPropertyOp21
 70
     1
102
RTVSPropertyOp22
 70
     1
102
RTVSPropertyOp23
 70
     1
102
RTVSPropertyOp24
 70
     1
102
RTVSPropertyOp25
 70
     1
102
RTVSPropertyOp26
 70
     1
102
RTVSPropertyOp27
 70
     1
102
RTVSPropertyOp28
 70
     1
102
RTVSPropertyOp29
 70
     1
102
RTVSPropertyOp30
 70
     1
102
RTVSPropertyOp31
 70
     1
102
RTVSPropertyOp32
 70
     1
102
RTVSPropertyOp33
 70
     1
102
RTVSPropertyOp34
 70
     1
102
RTVSPropertyOp35
 70
     1
102
RTVSPropertyOp36
 70
     1
102
RTVSPropertyOp37
 70
     1
102
RTVSPropertyOp38
 70
     1
102
RTVSPropertyOp39
 70
     1
102
RTVSPropertyOp40
 70
     1
102
RTVSPropertyOp41
 70
     1
102
RTVSPropertyOp42
 70
     1
102
RTVSPropertyOp43
 70
     1
102
RTVSPropertyOp44
 70
     1
102
RTVSPropertyOp45
 70
     1
102
RTVSPropertyOp46
 70
     1
102
RTVSPropertyOp47
 70
     1
102
RTVSPropertyOp48
 70
     1
102
RTVSPropertyOp49
 70
     1
102
RTVSPropertyOp50
 70
     1
102
RTVSPropertyOp51
 70
     0
102
RTVSPropertyOp52
 70
     0
102
RTVSPropertyOp53
 70
     1
102
RTVSPropertyOp54
 70
     1
102
RTVSPropertyOp55
 70
     1
102
RTVSPropertyOp56
 70
     1
102
RTVSPropertyOp57
 70
     1
102
RTVSPropertyOp58
 70
     1
102
RTVSPropertyOp59
 70
     1
102
RTVSPropertyOp60
 70
     1
102
RTVSPropertyOp61
 70
     1
102
RTVSPropertyOp62
 70
     1
  0
XRECORD
  5
20A
102
{ACAD_REACTORS
330
209
102
}
330
209
100
AcDbXrecord
280
     1
102
RTVSPost2010Prop28
280
     0
102
RTVSPost2010PropOp28
 70
     1
102
RTVSPost2010Prop29
280
     1
102
RTVSPost2010PropOp29
 70
     1
102
RTVSPost2010Prop30
280
     1
102
RTVSPost2010PropOp30
 70
     1
102
RTVSPost2010Prop31
280
     0
102
RTVSPost2010PropOp31
 70
     1
102
RTVSPost2010Prop32
280
     0
102
RTVSPost2010PropOp32
 70
     1
102
RTVSPost2010Prop33
280
     0
102
RTVSPost2010PropOp33
 70
     1
102
RTVSPost2010Prop34
280
     0
102
RTVSPost2010PropOp34
 70
     1
102
RTVSPost2010Prop35
280
     0
102
RTVSPost2010PropOp35
 70
     1
102
RTVSPost2010Prop36
280
     0
102
RTVSPost2010PropOp36
 70
     1
102
RTVSPost2010Prop37
 90
       50
102
RTVSPost2010PropOp37
 70
     1
102
RTVSPost2010Prop38
140
0.0
102
RTVSPost2010PropOp38
 70
     1
102
RTVSPost2010Prop39
140
1.0
102
RTVSPost2010PropOp39
 70
     1
102
RTVSPost2010Prop40
 90
        0
102
RTVSPost2010PropOp40
 70
     1
102
RTVSPost2010Prop41ColorIndex
 90
       18
102
RTVSPost2010Prop41ColorRGB
 90
        0
102
RTVSPost2010PropOp41
 70
     1
102
RTVSPost2010Prop42
 90
       50
102
RTVSPost2010PropOp42
 70
     1
102
RTVSPost2010Prop43
 90
        3
102
RTVSPost2010PropOp43
 70
     1
102
RTVSPost2010Prop44ColorIndex
 90
        5
102
RTVSPost2010Prop44ColorRGB
 90
      255
102
RTVSPost2010PropOp44
 70
     1
102
RTVSPost2010Prop45
280
     0
102
RTVSPost2010PropOp45
 70
     1
102
RTVSPost2010Prop46
 90
       50
102
RTVSPost2010PropOp46
 70
     1
102
RTVSPost2010Prop47
 90
       50
102
RTVSPost2010PropOp47
 70
     1
102
RTVSPost2010Prop48
 90
       50
102
RTVSPost2010PropOp48
 70
     1
102
RTVSPost2010Prop49
280
     0
102
RTVSPost2010PropOp49
 70
     1
102
RTVSPost2010Prop50
 90
       50
102
RTVSPost2010PropOp50
 70
     1
102
RTVSPost2010Prop51ColorIndex
 90
      256
102
RTVSPost2010Prop51ColorRGB
 90
-16777216
102
RTVSPost2010PropOp51
 70
     0
102
RTVSPost2010Prop52
140
1.0
102
RTVSPost2010PropOp52
 70
     0
102
RTVSPost2010Prop53
 90
        2
102
RTVSPost2010PropOp53
 70
     1
102
RTVSPost2010Prop54
  1
strokes_ogs.tif
102
RTVSPost2010PropOp54
 70
     1
102
RTVSPost2010Prop55
280
     0
102
RTVSPost2010PropOp55
 70
     1
102
RTVSPost2010Prop56
140
1.0
102
RTVSPost2010PropOp56
 70
     1
102
RTVSPost2010Prop57
140
1.0
102
RTVSPost2010PropOp57
 70
     1
102
RTVSPropertyOp0
 70
     1
102
RTVSPropertyOp1
 70
     1
102
RTVSPropertyOp2
 70
     1
102
RTVSPropertyOp3
 70
     1
102
RTVSPropertyOp4
 70
     1
102
RTVSPropertyOp5
 70
     1
102
RTVSPropertyOp6
 70
     1
102
RTVSPropertyOp7
 70
     1
102
RTVSPropertyOp8
 70
     1
102
RTVSPropertyOp9
 70
     1
102
RTVSPropertyOp10
 70
     1
102
RTVSPropertyOp11
 70
     1
102
RTVSPropertyOp12
 70
     1
102
RTVSPropertyOp13
 70
     1
102
RTVSPropertyOp14
 70
     1
102
RTVSPropertyOp15
 70
     1
102
RTVSPropertyOp16
 70
     1
102
RTVSPropertyOp17
 70
     1
102
RTVSPropertyOp18
 70
     1
102
RTVSPropertyOp19
 70
     1
102
RTVSPropertyOp20
 70
     1
102
RTVSPropertyOp21
 70
     1
102
RTVSPropertyOp22
 70
     1
102
RTVSPropertyOp23
 70
     1
102
RTVSPropertyOp24
 70
     1
102
RTVSPropertyOp25
 70
     1
102
RTVSPropertyOp26
 70
     1
102
RTVSPropertyOp27
 70
     1
102
RTVSPropertyOp28
 70
     1
102
RTVSPropertyOp29
 70
     1
102
RTVSPropertyOp30
 70
     1
102
RTVSPropertyOp31
 70
     1
102
RTVSPropertyOp32
 70
     1
102
RTVSPropertyOp33
 70
     1
102
RTVSPropertyOp34
 70
     1
102
RTVSPropertyOp35
 70
     1
102
RTVSPropertyOp36
 70
     1
102
RTVSPropertyOp37
 70
     1
102
RTVSPropertyOp38
 70
     1
102
RTVSPropertyOp39
 70
     1
102
RTVSPropertyOp40
 70
     1
102
RTVSPropertyOp41
 70
     1
102
RTVSPropertyOp42
 70
     1
102
RTVSPropertyOp43
 70
     1
102
RTVSPropertyOp44
 70
     1
102
RTVSPropertyOp45
 70
     1
102
RTVSPropertyOp46
 70
     1
102
RTVSPropertyOp47
 70
     1
102
RTVSPropertyOp48
 70
     1
102
RTVSPropertyOp49
 70
     1
102
RTVSPropertyOp50
 70
     1
102
RTVSPropertyOp51
 70
     0
102
RTVSPropertyOp52
 70
     0
102
RTVSPropertyOp53
 70
     1
102
RTVSPropertyOp54
 70
     1
102
RTVSPropertyOp55
 70
     1
102
RTVSPropertyOp56
 70
     1
102
RTVSPropertyOp57
 70
     1
102
RTVSPropertyOp58
 70
     1
102
RTVSPropertyOp59
 70
     1
102
RTVSPropertyOp60
 70
     1
102
RTVSPropertyOp61
 70
     1
102
RTVSPropertyOp62
 70
     1
  0
XRECORD
  5
20C
102
{ACAD_REACTORS
330
20B
102
}
330
20B
100
AcDbXrecord
280
     1
102
RTVSPost2010Prop28
280
     0
102
RTVSPost2010PropOp28
 70
     1
102
RTVSPost2010Prop29
280
     1
102
RTVSPost2010PropOp29
 70
     1
102
RTVSPost2010Prop30
280
     1
102
RTVSPost2010PropOp30
 70
     1
102
RTVSPost2010Prop31
280
     0
102
RTVSPost2010PropOp31
 70
     1
102
RTVSPost2010Prop32
280
     0
102
RTVSPost2010PropOp32
 70
     1
102
RTVSPost2010Prop33
280
     0
102
RTVSPost2010PropOp33
 70
     1
102
RTVSPost2010Prop34
280
     0
102
RTVSPost2010PropOp34
 70
     1
102
RTVSPost2010Prop35
280
     0
102
RTVSPost2010PropOp35
 70
     1
102
RTVSPost2010Prop36
280
     0
102
RTVSPost2010PropOp36
 70
     1
102
RTVSPost2010Prop37
 90
       50
102
RTVSPost2010PropOp37
 70
     1
102
RTVSPost2010Prop38
140
0.0
102
RTVSPost2010PropOp38
 70
     1
102
RTVSPost2010Prop39
140
1.0
102
RTVSPost2010PropOp39
 70
     1
102
RTVSPost2010Prop40
 90
        0
102
RTVSPost2010PropOp40
 70
     1
102
RTVSPost2010Prop41ColorIndex
 90
       18
102
RTVSPost2010Prop41ColorRGB
 90
        0
102
RTVSPost2010PropOp41
 70
     1
102
RTVSPost2010Prop42
 90
       50
102
RTVSPost2010PropOp42
 70
     1
102
RTVSPost2010Prop43
 90
        3
102
RTVSPost2010PropOp43
 70
     1
102
RTVSPost2010Prop44ColorIndex
 90
        5
102
RTVSPost2010Prop44ColorRGB
 90
      255
102
RTVSPost2010PropOp44
 70
     1
102
RTVSPost2010Prop45
280
     0
102
RTVSPost2010PropOp45
 70
     1
102
RTVSPost2010Prop46
 90
       50
102
RTVSPost2010PropOp46
 70
     1
102
RTVSPost2010Prop47
 90
       50
102
RTVSPost2010PropOp47
 70
     1
102
RTVSPost2010Prop48
 90
       50
102
RTVSPost2010PropOp48
 70
     1
102
RTVSPost2010Prop49
280
     0
102
RTVSPost2010PropOp49
 70
     1
102
RTVSPost2010Prop50
 90
       50
102
RTVSPost2010PropOp50
 70
     1
102
RTVSPost2010Prop51ColorIndex
 90
      256
102
RTVSPost2010Prop51ColorRGB
 90
-16777216
102
RTVSPost2010PropOp51
 70
     0
102
RTVSPost2010Prop52
140
1.0
102
RTVSPost2010PropOp52
 70
     0
102
RTVSPost2010Prop53
 90
        2
102
RTVSPost2010PropOp53
 70
     1
102
RTVSPost2010Prop54
  1
strokes_ogs.tif
102
RTVSPost2010PropOp54
 70
     1
102
RTVSPost2010Prop55
280
     0
102
RTVSPost2010PropOp55
 70
     1
102
RTVSPost2010Prop56
140
1.0
102
RTVSPost2010PropOp56
 70
     1
102
RTVSPost2010Prop57
140
1.0
102
RTVSPost2010PropOp57
 70
     1
102
RTVSPropertyOp0
 70
     1
102
RTVSPropertyOp1
 70
     1
102
RTVSPropertyOp2
 70
     1
102
RTVSPropertyOp3
 70
     1
102
RTVSPropertyOp4
 70
     1
102
RTVSPropertyOp5
 70
     1
102
RTVSPropertyOp6
 70
     1
102
RTVSPropertyOp7
 70
     1
102
RTVSPropertyOp8
 70
     1
102
RTVSPropertyOp9
 70
     1
102
RTVSPropertyOp10
 70
     1
102
RTVSPropertyOp11
 70
     1
102
RTVSPropertyOp12
 70
     1
102
RTVSPropertyOp13
 70
     1
102
RTVSPropertyOp14
 70
     1
102
RTVSPropertyOp15
 70
     1
102
RTVSPropertyOp16
 70
     1
102
RTVSPropertyOp17
 70
     1
102
RTVSPropertyOp18
 70
     1
102
RTVSPropertyOp19
 70
     1
102
RTVSPropertyOp20
 70
     1
102
RTVSPropertyOp21
 70
     1
102
RTVSPropertyOp22
 70
     1
102
RTVSPropertyOp23
 70
     1
102
RTVSPropertyOp24
 70
     1
102
RTVSPropertyOp25
 70
     1
102
RTVSPropertyOp26
 70
     1
102
RTVSPropertyOp27
 70
     1
102
RTVSPropertyOp28
 70
     1
102
RTVSPropertyOp29
 70
     1
102
RTVSPropertyOp30
 70
     1
102
RTVSPropertyOp31
 70
     1
102
RTVSPropertyOp32
 70
     1
102
RTVSPropertyOp33
 70
     1
102
RTVSPropertyOp34
 70
     1
102
RTVSPropertyOp35
 70
     1
102
RTVSPropertyOp36
 70
     1
102
RTVSPropertyOp37
 70
     1
102
RTVSPropertyOp38
 70
     1
102
RTVSPropertyOp39
 70
     1
102
RTVSPropertyOp40
 70
     1
102
RTVSPropertyOp41
 70
     1
102
RTVSPropertyOp42
 70
     1
102
RTVSPropertyOp43
 70
     1
102
RTVSPropertyOp44
 70
     1
102
RTVSPropertyOp45
 70
     1
102
RTVSPropertyOp46
 70
     1
102
RTVSPropertyOp47
 70
     1
102
RTVSPropertyOp48
 70
     1
102
RTVSPropertyOp49
 70
     1
102
RTVSPropertyOp50
 70
     1
102
RTVSPropertyOp51
 70
     0
102
RTVSPropertyOp52
 70
     0
102
RTVSPropertyOp53
 70
     1
102
RTVSPropertyOp54
 70
     1
102
RTVSPropertyOp55
 70
     1
102
RTVSPropertyOp56
 70
     1
102
RTVSPropertyOp57
 70
     1
102
RTVSPropertyOp58
 70
     1
102
RTVSPropertyOp59
 70
     1
102
RTVSPropertyOp60
 70
     1
102
RTVSPropertyOp61
 70
     1
102
RTVSPropertyOp62
 70
     1
  0
XRECORD
  5
20E
102
{ACAD_REACTORS
330
20D
102
}
330
20D
100
AcDbXrecord
280
     1
102
RTVSPost2010Prop28
280
     0
102
RTVSPost2010PropOp28
 70
     1
102
RTVSPost2010Prop29
280
     1
102
RTVSPost2010PropOp29
 70
     1
102
RTVSPost2010Prop30
280
     1
102
RTVSPost2010PropOp30
 70
     1
102
RTVSPost2010Prop31
280
     0
102
RTVSPost2010PropOp31
 70
     1
102
RTVSPost2010Prop32
280
     0
102
RTVSPost2010PropOp32
 70
     1
102
RTVSPost2010Prop33
280
     0
102
RTVSPost2010PropOp33
 70
     1
102
RTVSPost2010Prop34
280
     0
102
RTVSPost2010PropOp34
 70
     1
102
RTVSPost2010Prop35
280
     0
102
RTVSPost2010PropOp35
 70
     1
102
RTVSPost2010Prop36
280
     0
102
RTVSPost2010PropOp36
 70
     1
102
RTVSPost2010Prop37
 90
       50
102
RTVSPost2010PropOp37
 70
     1
102
RTVSPost2010Prop38
140
0.0
102
RTVSPost2010PropOp38
 70
     1
102
RTVSPost2010Prop39
140
1.0
102
RTVSPost2010PropOp39
 70
     1
102
RTVSPost2010Prop40
 90
        0
102
RTVSPost2010PropOp40
 70
     1
102
RTVSPost2010Prop41ColorIndex
 90
       18
102
RTVSPost2010Prop41ColorRGB
 90
        0
102
RTVSPost2010PropOp41
 70
     1
102
RTVSPost2010Prop42
 90
       50
102
RTVSPost2010PropOp42
 70
     1
102
RTVSPost2010Prop43
 90
        3
102
RTVSPost2010PropOp43
 70
     1
102
RTVSPost2010Prop44ColorIndex
 90
        5
102
RTVSPost2010Prop44ColorRGB
 90
      255
102
RTVSPost2010PropOp44
 70
     1
102
RTVSPost2010Prop45
280
     0
102
RTVSPost2010PropOp45
 70
     1
102
RTVSPost2010Prop46
 90
       50
102
RTVSPost2010PropOp46
 70
     1
102
RTVSPost2010Prop47
 90
       50
102
RTVSPost2010PropOp47
 70
     1
102
RTVSPost2010Prop48
 90
       50
102
RTVSPost2010PropOp48
 70
     1
102
RTVSPost2010Prop49
280
     0
102
RTVSPost2010PropOp49
 70
     1
102
RTVSPost2010Prop50
 90
       50
102
RTVSPost2010PropOp50
 70
     1
102
RTVSPost2010Prop51ColorIndex
 90
      256
102
RTVSPost2010Prop51ColorRGB
 90
-16777216
102
RTVSPost2010PropOp51
 70
     0
102
RTVSPost2010Prop52
140
1.0
102
RTVSPost2010PropOp52
 70
     0
102
RTVSPost2010Prop53
 90
        2
102
RTVSPost2010PropOp53
 70
     1
102
RTVSPost2010Prop54
  1
strokes_ogs.tif
102
RTVSPost2010PropOp54
 70
     1
102
RTVSPost2010Prop55
280
     0
102
RTVSPost2010PropOp55
 70
     1
102
RTVSPost2010Prop56
140
1.0
102
RTVSPost2010PropOp56
 70
     1
102
RTVSPost2010Prop57
140
1.0
102
RTVSPost2010PropOp57
 70
     1
102
RTVSPropertyOp0
 70
     1
102
RTVSPropertyOp1
 70
     1
102
RTVSPropertyOp2
 70
     1
102
RTVSPropertyOp3
 70
     1
102
RTVSPropertyOp4
 70
     1
102
RTVSPropertyOp5
 70
     1
102
RTVSPropertyOp6
 70
     1
102
RTVSPropertyOp7
 70
     1
102
RTVSPropertyOp8
 70
     1
102
RTVSPropertyOp9
 70
     1
102
RTVSPropertyOp10
 70
     1
102
RTVSPropertyOp11
 70
     1
102
RTVSPropertyOp12
 70
     1
102
RTVSPropertyOp13
 70
     1
102
RTVSPropertyOp14
 70
     1
102
RTVSPropertyOp15
 70
     1
102
RTVSPropertyOp16
 70
     1
102
RTVSPropertyOp17
 70
     1
102
RTVSPropertyOp18
 70
     1
102
RTVSPropertyOp19
 70
     1
102
RTVSPropertyOp20
 70
     1
102
RTVSPropertyOp21
 70
     1
102
RTVSPropertyOp22
 70
     1
102
RTVSPropertyOp23
 70
     1
102
RTVSPropertyOp24
 70
     1
102
RTVSPropertyOp25
 70
     1
102
RTVSPropertyOp26
 70
     1
102
RTVSPropertyOp27
 70
     1
102
RTVSPropertyOp28
 70
     1
102
RTVSPropertyOp29
 70
     1
102
RTVSPropertyOp30
 70
     1
102
RTVSPropertyOp31
 70
     1
102
RTVSPropertyOp32
 70
     1
102
RTVSPropertyOp33
 70
     1
102
RTVSPropertyOp34
 70
     1
102
RTVSPropertyOp35
 70
     1
102
RTVSPropertyOp36
 70
     1
102
RTVSPropertyOp37
 70
     1
102
RTVSPropertyOp38
 70
     1
102
RTVSPropertyOp39
 70
     1
102
RTVSPropertyOp40
 70
     1
102
RTVSPropertyOp41
 70
     1
102
RTVSPropertyOp42
 70
     1
102
RTVSPropertyOp43
 70
     1
102
RTVSPropertyOp44
 70
     1
102
RTVSPropertyOp45
 70
     1
102
RTVSPropertyOp46
 70
     1
102
RTVSPropertyOp47
 70
     1
102
RTVSPropertyOp48
 70
     1
102
RTVSPropertyOp49
 70
     1
102
RTVSPropertyOp50
 70
     1
102
RTVSPropertyOp51
 70
     0
102
RTVSPropertyOp52
 70
     0
102
RTVSPropertyOp53
 70
     1
102
RTVSPropertyOp54
 70
     1
102
RTVSPropertyOp55
 70
     1
102
RTVSPropertyOp56
 70
     1
102
RTVSPropertyOp57
 70
     1
102
RTVSPropertyOp58
 70
     1
102
RTVSPropertyOp59
 70
     1
102
RTVSPropertyOp60
 70
     1
102
RTVSPropertyOp61
 70
     1
102
RTVSPropertyOp62
 70
     1
  0
XRECORD
  5
210
102
{ACAD_REACTORS
330
20F
102
}
330
20F
100
AcDbXrecord
280
     1
102
RTVSPost2010Prop28
280
     0
102
RTVSPost2010PropOp28
 70
     1
102
RTVSPost2010Prop29
280
     1
102
RTVSPost2010PropOp29
 70
     1
102
RTVSPost2010Prop30
280
     1
102
RTVSPost2010PropOp30
 70
     1
102
RTVSPost2010Prop31
280
     0
102
RTVSPost2010PropOp31
 70
     1
102
RTVSPost2010Prop32
280
     0
102
RTVSPost2010PropOp32
 70
     1
102
RTVSPost2010Prop33
280
     0
102
RTVSPost2010PropOp33
 70
     1
102
RTVSPost2010Prop34
280
     0
102
RTVSPost2010PropOp34
 70
     1
102
RTVSPost2010Prop35
280
     0
102
RTVSPost2010PropOp35
 70
     1
102
RTVSPost2010Prop36
280
     0
102
RTVSPost2010PropOp36
 70
     1
102
RTVSPost2010Prop37
 90
       50
102
RTVSPost2010PropOp37
 70
     1
102
RTVSPost2010Prop38
140
0.0
102
RTVSPost2010PropOp38
 70
     1
102
RTVSPost2010Prop39
140
1.0
102
RTVSPost2010PropOp39
 70
     1
102
RTVSPost2010Prop40
 90
        0
102
RTVSPost2010PropOp40
 70
     1
102
RTVSPost2010Prop41ColorIndex
 90
       18
102
RTVSPost2010Prop41ColorRGB
 90
        0
102
RTVSPost2010PropOp41
 70
     1
102
RTVSPost2010Prop42
 90
       50
102
RTVSPost2010PropOp42
 70
     1
102
RTVSPost2010Prop43
 90
        3
102
RTVSPost2010PropOp43
 70
     1
102
RTVSPost2010Prop44ColorIndex
 90
        5
102
RTVSPost2010Prop44ColorRGB
 90
      255
102
RTVSPost2010PropOp44
 70
     1
102
RTVSPost2010Prop45
280
     0
102
RTVSPost2010PropOp45
 70
     1
102
RTVSPost2010Prop46
 90
       50
102
RTVSPost2010PropOp46
 70
     1
102
RTVSPost2010Prop47
 90
       50
102
RTVSPost2010PropOp47
 70
     1
102
RTVSPost2010Prop48
 90
       50
102
RTVSPost2010PropOp48
 70
     1
102
RTVSPost2010Prop49
280
     0
102
RTVSPost2010PropOp49
 70
     1
102
RTVSPost2010Prop50
 90
       50
102
RTVSPost2010PropOp50
 70
     1
102
RTVSPost2010Prop51ColorIndex
 90
      256
102
RTVSPost2010Prop51ColorRGB
 90
-16777216
102
RTVSPost2010PropOp51
 70
     0
102
RTVSPost2010Prop52
140
1.0
102
RTVSPost2010PropOp52
 70
     0
102
RTVSPost2010Prop53
 90
        2
102
RTVSPost2010PropOp53
 70
     1
102
RTVSPost2010Prop54
  1
strokes_ogs.tif
102
RTVSPost2010PropOp54
 70
     1
102
RTVSPost2010Prop55
280
     0
102
RTVSPost2010PropOp55
 70
     1
102
RTVSPost2010Prop56
140
1.0
102
RTVSPost2010PropOp56
 70
     1
102
RTVSPost2010Prop57
140
1.0
102
RTVSPost2010PropOp57
 70
     1
102
RTVSPropertyOp0
 70
     1
102
RTVSPropertyOp1
 70
     1
102
RTVSPropertyOp2
 70
     1
102
RTVSPropertyOp3
 70
     1
102
RTVSPropertyOp4
 70
     1
102
RTVSPropertyOp5
 70
     1
102
RTVSPropertyOp6
 70
     1
102
RTVSPropertyOp7
 70
     1
102
RTVSPropertyOp8
 70
     1
102
RTVSPropertyOp9
 70
     1
102
RTVSPropertyOp10
 70
     1
102
RTVSPropertyOp11
 70
     1
102
RTVSPropertyOp12
 70
     1
102
RTVSPropertyOp13
 70
     1
102
RTVSPropertyOp14
 70
     1
102
RTVSPropertyOp15
 70
     1
102
RTVSPropertyOp16
 70
     1
102
RTVSPropertyOp17
 70
     1
102
RTVSPropertyOp18
 70
     1
102
RTVSPropertyOp19
 70
     1
102
RTVSPropertyOp20
 70
     1
102
RTVSPropertyOp21
 70
     1
102
RTVSPropertyOp22
 70
     1
102
RTVSPropertyOp23
 70
     1
102
RTVSPropertyOp24
 70
     1
102
RTVSPropertyOp25
 70
     1
102
RTVSPropertyOp26
 70
     1
102
RTVSPropertyOp27
 70
     1
102
RTVSPropertyOp28
 70
     1
102
RTVSPropertyOp29
 70
     1
102
RTVSPropertyOp30
 70
     1
102
RTVSPropertyOp31
 70
     1
102
RTVSPropertyOp32
 70
     1
102
RTVSPropertyOp33
 70
     1
102
RTVSPropertyOp34
 70
     1
102
RTVSPropertyOp35
 70
     1
102
RTVSPropertyOp36
 70
     1
102
RTVSPropertyOp37
 70
     1
102
RTVSPropertyOp38
 70
     1
102
RTVSPropertyOp39
 70
     1
102
RTVSPropertyOp40
 70
     1
102
RTVSPropertyOp41
 70
     1
102
RTVSPropertyOp42
 70
     1
102
RTVSPropertyOp43
 70
     1
102
RTVSPropertyOp44
 70
     1
102
RTVSPropertyOp45
 70
     1
102
RTVSPropertyOp46
 70
     1
102
RTVSPropertyOp47
 70
     1
102
RTVSPropertyOp48
 70
     1
102
RTVSPropertyOp49
 70
     1
102
RTVSPropertyOp50
 70
     1
102
RTVSPropertyOp51
 70
     0
102
RTVSPropertyOp52
 70
     0
102
RTVSPropertyOp53
 70
     1
102
RTVSPropertyOp54
 70
     1
102
RTVSPropertyOp55
 70
     1
102
RTVSPropertyOp56
 70
     1
102
RTVSPropertyOp57
 70
     1
102
RTVSPropertyOp58
 70
     1
102
RTVSPropertyOp59
 70
     1
102
RTVSPropertyOp60
 70
     1
102
RTVSPropertyOp61
 70
     1
102
RTVSPropertyOp62
 70
     1
  0
XRECORD
  5
218
102
{ACAD_REACTORS
330
217
102
}
330
217
100
AcDbXrecord
280
     1
102
RTVSPost2010Prop28
280
     0
102
RTVSPost2010PropOp28
 70
     1
102
RTVSPost2010Prop29
280
     1
102
RTVSPost2010PropOp29
 70
     1
102
RTVSPost2010Prop30
280
     1
102
RTVSPost2010PropOp30
 70
     1
102
RTVSPost2010Prop31
280
     0
102
RTVSPost2010PropOp31
 70
     1
102
RTVSPost2010Prop32
280
     0
102
RTVSPost2010PropOp32
 70
     1
102
RTVSPost2010Prop33
280
     0
102
RTVSPost2010PropOp33
 70
     1
102
RTVSPost2010Prop34
280
     0
102
RTVSPost2010PropOp34
 70
     1
102
RTVSPost2010Prop35
280
     0
102
RTVSPost2010PropOp35
 70
     1
102
RTVSPost2010Prop36
280
     0
102
RTVSPost2010PropOp36
 70
     1
102
RTVSPost2010Prop37
 90
       50
102
RTVSPost2010PropOp37
 70
     1
102
RTVSPost2010Prop38
140
0.0
102
RTVSPost2010PropOp38
 70
     1
102
RTVSPost2010Prop39
140
1.0
102
RTVSPost2010PropOp39
 70
     1
102
RTVSPost2010Prop40
 90
        0
102
RTVSPost2010PropOp40
 70
     1
102
RTVSPost2010Prop41ColorIndex
 90
       18
102
RTVSPost2010Prop41ColorRGB
 90
        0
102
RTVSPost2010PropOp41
 70
     1
102
RTVSPost2010Prop42
 90
       50
102
RTVSPost2010PropOp42
 70
     1
102
RTVSPost2010Prop43
 90
        3
102
RTVSPost2010PropOp43
 70
     1
102
RTVSPost2010Prop44ColorIndex
 90
        5
102
RTVSPost2010Prop44ColorRGB
 90
      255
102
RTVSPost2010PropOp44
 70
     1
102
RTVSPost2010Prop45
280
     0
102
RTVSPost2010PropOp45
 70
     1
102
RTVSPost2010Prop46
 90
       50
102
RTVSPost2010PropOp46
 70
     1
102
RTVSPost2010Prop47
 90
       50
102
RTVSPost2010PropOp47
 70
     1
102
RTVSPost2010Prop48
 90
       50
102
RTVSPost2010PropOp48
 70
     1
102
RTVSPost2010Prop49
280
     0
102
RTVSPost2010PropOp49
 70
     1
102
RTVSPost2010Prop50
 90
       50
102
RTVSPost2010PropOp50
 70
     1
102
RTVSPost2010Prop51ColorIndex
 90
      256
102
RTVSPost2010Prop51ColorRGB
 90
-16777216
102
RTVSPost2010PropOp51
 70
     0
102
RTVSPost2010Prop52
140
1.0
102
RTVSPost2010PropOp52
 70
     0
102
RTVSPost2010Prop53
 90
        2
102
RTVSPost2010PropOp53
 70
     1
102
RTVSPost2010Prop54
  1
strokes_ogs.tif
102
RTVSPost2010PropOp54
 70
     1
102
RTVSPost2010Prop55
280
     0
102
RTVSPost2010PropOp55
 70
     1
102
RTVSPost2010Prop56
140
1.0
102
RTVSPost2010PropOp56
 70
     1
102
RTVSPost2010Prop57
140
1.0
102
RTVSPost2010PropOp57
 70
     1
102
RTVSPropertyOp0
 70
     1
102
RTVSPropertyOp1
 70
     1
102
RTVSPropertyOp2
 70
     1
102
RTVSPropertyOp3
 70
     1
102
RTVSPropertyOp4
 70
     1
102
RTVSPropertyOp5
 70
     1
102
RTVSPropertyOp6
 70
     1
102
RTVSPropertyOp7
 70
     1
102
RTVSPropertyOp8
 70
     1
102
RTVSPropertyOp9
 70
     1
102
RTVSPropertyOp10
 70
     1
102
RTVSPropertyOp11
 70
     1
102
RTVSPropertyOp12
 70
     1
102
RTVSPropertyOp13
 70
     1
102
RTVSPropertyOp14
 70
     1
102
RTVSPropertyOp15
 70
     1
102
RTVSPropertyOp16
 70
     1
102
RTVSPropertyOp17
 70
     1
102
RTVSPropertyOp18
 70
     1
102
RTVSPropertyOp19
 70
     1
102
RTVSPropertyOp20
 70
     1
102
RTVSPropertyOp21
 70
     1
102
RTVSPropertyOp22
 70
     1
102
RTVSPropertyOp23
 70
     1
102
RTVSPropertyOp24
 70
     1
102
RTVSPropertyOp25
 70
     1
102
RTVSPropertyOp26
 70
     1
102
RTVSPropertyOp27
 70
     1
102
RTVSPropertyOp28
 70
     1
102
RTVSPropertyOp29
 70
     1
102
RTVSPropertyOp30
 70
     1
102
RTVSPropertyOp31
 70
     1
102
RTVSPropertyOp32
 70
     1
102
RTVSPropertyOp33
 70
     1
102
RTVSPropertyOp34
 70
     1
102
RTVSPropertyOp35
 70
     1
102
RTVSPropertyOp36
 70
     1
102
RTVSPropertyOp37
 70
     1
102
RTVSPropertyOp38
 70
     1
102
RTVSPropertyOp39
 70
     1
102
RTVSPropertyOp40
 70
     1
102
RTVSPropertyOp41
 70
     1
102
RTVSPropertyOp42
 70
     1
102
RTVSPropertyOp43
 70
     1
102
RTVSPropertyOp44
 70
     1
102
RTVSPropertyOp45
 70
     1
102
RTVSPropertyOp46
 70
     1
102
RTVSPropertyOp47
 70
     1
102
RTVSPropertyOp48
 70
     1
102
RTVSPropertyOp49
 70
     1
102
RTVSPropertyOp50
 70
     1
102
RTVSPropertyOp51
 70
     0
102
RTVSPropertyOp52
 70
     0
102
RTVSPropertyOp53
 70
     1
102
RTVSPropertyOp54
 70
     1
102
RTVSPropertyOp55
 70
     1
102
RTVSPropertyOp56
 70
     1
102
RTVSPropertyOp57
 70
     1
102
RTVSPropertyOp58
 70
     1
102
RTVSPropertyOp59
 70
     1
102
RTVSPropertyOp60
 70
     1
102
RTVSPropertyOp61
 70
     1
102
RTVSPropertyOp62
 70
     1
  0
XRECORD
  5
234
102
{ACAD_REACTORS
330
233
102
}
330
233
100
AcDbXrecord
280
     1
102
RTVSPost2010Prop28
280
     0
102
RTVSPost2010PropOp28
 70
     1
102
RTVSPost2010Prop29
280
     1
102
RTVSPost2010PropOp29
 70
     1
102
RTVSPost2010Prop30
280
     1
102
RTVSPost2010PropOp30
 70
     1
102
RTVSPost2010Prop31
280
     0
102
RTVSPost2010PropOp31
 70
     1
102
RTVSPost2010Prop32
280
     0
102
RTVSPost2010PropOp32
 70
     1
102
RTVSPost2010Prop33
280
     0
102
RTVSPost2010PropOp33
 70
     1
102
RTVSPost2010Prop34
280
     0
102
RTVSPost2010PropOp34
 70
     1
102
RTVSPost2010Prop35
280
     0
102
RTVSPost2010PropOp35
 70
     1
102
RTVSPost2010Prop36
280
     0
102
RTVSPost2010PropOp36
 70
     1
102
RTVSPost2010Prop37
 90
       50
102
RTVSPost2010PropOp37
 70
     0
102
RTVSPost2010Prop38
140
0.0
102
RTVSPost2010PropOp38
 70
     0
102
RTVSPost2010Prop39
140
1.0
102
RTVSPost2010PropOp39
 70
     0
102
RTVSPost2010Prop40
 90
        0
102
RTVSPost2010PropOp40
 70
     0
102
RTVSPost2010Prop41ColorIndex
 90
       18
102
RTVSPost2010Prop41ColorRGB
 90
        0
102
RTVSPost2010PropOp41
 70
     0
102
RTVSPost2010Prop42
 90
       50
102
RTVSPost2010PropOp42
 70
     0
102
RTVSPost2010Prop43
 90
        3
102
RTVSPost2010PropOp43
 70
     0
102
RTVSPost2010Prop44ColorIndex
 90
        5
102
RTVSPost2010Prop44ColorRGB
 90
      255
102
RTVSPost2010PropOp44
 70
     0
102
RTVSPost2010Prop45
280
     0
102
RTVSPost2010PropOp45
 70
     1
102
RTVSPost2010Prop46
 90
       50
102
RTVSPost2010PropOp46
 70
     0
102
RTVSPost2010Prop47
 90
       50
102
RTVSPost2010PropOp47
 70
     0
102
RTVSPost2010Prop48
 90
       50
102
RTVSPost2010PropOp48
 70
     0
102
RTVSPost2010Prop49
280
     0
102
RTVSPost2010PropOp49
 70
     1
102
RTVSPost2010Prop50
 90
       50
102
RTVSPost2010PropOp50
 70
     0
102
RTVSPost2010Prop51ColorIndex
 90
      256
102
RTVSPost2010Prop51ColorRGB
 90
-16777216
102
RTVSPost2010PropOp51
 70
     0
102
RTVSPost2010Prop52
140
1.0
102
RTVSPost2010PropOp52
 70
     0
102
RTVSPost2010Prop53
 90
        2
102
RTVSPost2010PropOp53
 70
     0
102
RTVSPost2010Prop54
  1
strokes_ogs.tif
102
RTVSPost2010PropOp54
 70
     0
102
RTVSPost2010Prop55
280
     0
102
RTVSPost2010PropOp55
 70
     1
102
RTVSPost2010Prop56
140
1.0
102
RTVSPost2010PropOp56
 70
     0
102
RTVSPost2010Prop57
140
1.0
102
RTVSPost2010PropOp57
 70
     0
102
RTVSPropertyOp0
 70
     0
102
RTVSPropertyOp1
 70
     0
102
RTVSPropertyOp2
 70
     0
102
RTVSPropertyOp3
 70
     0
102
RTVSPropertyOp4
 70
     0
102
RTVSPropertyOp5
 70
     0
102
RTVSPropertyOp6
 70
     0
102
RTVSPropertyOp7
 70
     0
102
RTVSPropertyOp8
 70
     0
102
RTVSPropertyOp9
 70
     0
102
RTVSPropertyOp10
 70
     0
102
RTVSPropertyOp11
 70
     0
102
RTVSPropertyOp12
 70
     0
102
RTVSPropertyOp13
 70
     0
102
RTVSPropertyOp14
 70
     2
102
RTVSPropertyOp15
 70
     0
102
RTVSPropertyOp16
 70
     0
102
RTVSPropertyOp17
 70
     0
102
RTVSPropertyOp18
 70
     0
102
RTVSPropertyOp19
 70
     0
102
RTVSPropertyOp20
 70
     0
102
RTVSPropertyOp21
 70
     0
102
RTVSPropertyOp22
 70
     0
102
RTVSPropertyOp23
 70
     0
102
RTVSPropertyOp24
 70
     0
102
RTVSPropertyOp25
 70
     0
102
RTVSPropertyOp26
 70
     0
102
RTVSPropertyOp27
 70
     0
102
RTVSPropertyOp28
 70
     1
102
RTVSPropertyOp29
 70
     1
102
RTVSPropertyOp30
 70
     1
102
RTVSPropertyOp31
 70
     1
102
RTVSPropertyOp32
 70
     1
102
RTVSPropertyOp33
 70
     1
102
RTVSPropertyOp34
 70
     1
102
RTVSPropertyOp35
 70
     1
102
RTVSPropertyOp36
 70
     1
102
RTVSPropertyOp37
 70
     0
102
RTVSPropertyOp38
 70
     0
102
RTVSPropertyOp39
 70
     0
102
RTVSPropertyOp40
 70
     0
102
RTVSPropertyOp41
 70
     0
102
RTVSPropertyOp42
 70
     0
102
RTVSPropertyOp43
 70
     0
102
RTVSPropertyOp44
 70
     0
102
RTVSPropertyOp45
 70
     1
102
RTVSPropertyOp46
 70
     0
102
RTVSPropertyOp47
 70
     0
102
RTVSPropertyOp48
 70
     0
102
RTVSPropertyOp49
 70
     1
102
RTVSPropertyOp50
 70
     0
102
RTVSPropertyOp51
 70
     0
102
RTVSPropertyOp52
 70
     0
102
RTVSPropertyOp53
 70
     0
102
RTVSPropertyOp54
 70
     0
102
RTVSPropertyOp55
 70
     1
102
RTVSPropertyOp56
 70
     0
102
RTVSPropertyOp57
 70
     0
102
RTVSPropertyOp58
 70
     0
102
RTVSPropertyOp59
 70
     0
102
RTVSPropertyOp60
 70
     0
102
RTVSPropertyOp61
 70
     0
102
RTVSPropertyOp62
 70
     0
  0
XRECORD
  5
224
102
{ACAD_REACTORS
330
223
102
}
330
223
100
AcDbXrecord
280
     1
102
RTVSPost2010Prop28
280
     0
102
RTVSPost2010PropOp28
 70
     1
102
RTVSPost2010Prop29
280
     1
102
RTVSPost2010PropOp29
 70
     1
102
RTVSPost2010Prop30
280
     1
102
RTVSPost2010PropOp30
 70
     1
102
RTVSPost2010Prop31
280
     0
102
RTVSPost2010PropOp31
 70
     1
102
RTVSPost2010Prop32
280
     0
102
RTVSPost2010PropOp32
 70
     1
102
RTVSPost2010Prop33
280
     0
102
RTVSPost2010PropOp33
 70
     1
102
RTVSPost2010Prop34
280
     0
102
RTVSPost2010PropOp34
 70
     1
102
RTVSPost2010Prop35
280
     0
102
RTVSPost2010PropOp35
 70
     1
102
RTVSPost2010Prop36
280
     0
102
RTVSPost2010PropOp36
 70
     1
102
RTVSPost2010Prop37
 90
       50
102
RTVSPost2010PropOp37
 70
     1
102
RTVSPost2010Prop38
140
0.0
102
RTVSPost2010PropOp38
 70
     1
102
RTVSPost2010Prop39
140
1.0
102
RTVSPost2010PropOp39
 70
     1
102
RTVSPost2010Prop40
 90
        0
102
RTVSPost2010PropOp40
 70
     1
102
RTVSPost2010Prop41ColorIndex
 90
       18
102
RTVSPost2010Prop41ColorRGB
 90
        0
102
RTVSPost2010PropOp41
 70
     1
102
RTVSPost2010Prop42
 90
       50
102
RTVSPost2010PropOp42
 70
     1
102
RTVSPost2010Prop43
 90
        3
102
RTVSPost2010PropOp43
 70
     1
102
RTVSPost2010Prop44ColorIndex
 90
        5
102
RTVSPost2010Prop44ColorRGB
 90
      255
102
RTVSPost2010PropOp44
 70
     1
102
RTVSPost2010Prop45
280
     0
102
RTVSPost2010PropOp45
 70
     1
102
RTVSPost2010Prop46
 90
       50
102
RTVSPost2010PropOp46
 70
     1
102
RTVSPost2010Prop47
 90
       50
102
RTVSPost2010PropOp47
 70
     1
102
RTVSPost2010Prop48
 90
       50
102
RTVSPost2010PropOp48
 70
     1
102
RTVSPost2010Prop49
280
     0
102
RTVSPost2010PropOp49
 70
     1
102
RTVSPost2010Prop50
 90
       50
102
RTVSPost2010PropOp50
 70
     1
102
RTVSPost2010Prop51ColorIndex
 90
      256
102
RTVSPost2010Prop51ColorRGB
 90
-16777216
102
RTVSPost2010PropOp51
 70
     0
102
RTVSPost2010Prop52
140
1.0
102
RTVSPost2010PropOp52
 70
     0
102
RTVSPost2010Prop53
 90
        2
102
RTVSPost2010PropOp53
 70
     1
102
RTVSPost2010Prop54
  1
strokes_ogs.tif
102
RTVSPost2010PropOp54
 70
     1
102
RTVSPost2010Prop55
280
     0
102
RTVSPost2010PropOp55
 70
     1
102
RTVSPost2010Prop56
140
1.0
102
RTVSPost2010PropOp56
 70
     1
102
RTVSPost2010Prop57
140
1.0
102
RTVSPost2010PropOp57
 70
     1
102
RTVSPropertyOp0
 70
     1
102
RTVSPropertyOp1
 70
     1
102
RTVSPropertyOp2
 70
     1
102
RTVSPropertyOp3
 70
     1
102
RTVSPropertyOp4
 70
     1
102
RTVSPropertyOp5
 70
     1
102
RTVSPropertyOp6
 70
     1
102
RTVSPropertyOp7
 70
     1
102
RTVSPropertyOp8
 70
     1
102
RTVSPropertyOp9
 70
     1
102
RTVSPropertyOp10
 70
     1
102
RTVSPropertyOp11
 70
     1
102
RTVSPropertyOp12
 70
     1
102
RTVSPropertyOp13
 70
     1
102
RTVSPropertyOp14
 70
     1
102
RTVSPropertyOp15
 70
     1
102
RTVSPropertyOp16
 70
     1
102
RTVSPropertyOp17
 70
     1
102
RTVSPropertyOp18
 70
     1
102
RTVSPropertyOp19
 70
     1
102
RTVSPropertyOp20
 70
     1
102
RTVSPropertyOp21
 70
     1
102
RTVSPropertyOp22
 70
     1
102
RTVSPropertyOp23
 70
     1
102
RTVSPropertyOp24
 70
     1
102
RTVSPropertyOp25
 70
     1
102
RTVSPropertyOp26
 70
     1
102
RTVSPropertyOp27
 70
     1
102
RTVSPropertyOp28
 70
     1
102
RTVSPropertyOp29
 70
     1
102
RTVSPropertyOp30
 70
     1
102
RTVSPropertyOp31
 70
     1
102
RTVSPropertyOp32
 70
     1
102
RTVSPropertyOp33
 70
     1
102
RTVSPropertyOp34
 70
     1
102
RTVSPropertyOp35
 70
     1
102
RTVSPropertyOp36
 70
     1
102
RTVSPropertyOp37
 70
     1
102
RTVSPropertyOp38
 70
     1
102
RTVSPropertyOp39
 70
     1
102
RTVSPropertyOp40
 70
     1
102
RTVSPropertyOp41
 70
     1
102
RTVSPropertyOp42
 70
     1
102
RTVSPropertyOp43
 70
     1
102
RTVSPropertyOp44
 70
     1
102
RTVSPropertyOp45
 70
     1
102
RTVSPropertyOp46
 70
     1
102
RTVSPropertyOp47
 70
     1
102
RTVSPropertyOp48
 70
     1
102
RTVSPropertyOp49
 70
     1
102
RTVSPropertyOp50
 70
     1
102
RTVSPropertyOp51
 70
     0
102
RTVSPropertyOp52
 70
     0
102
RTVSPropertyOp53
 70
     1
102
RTVSPropertyOp54
 70
     1
102
RTVSPropertyOp55
 70
     1
102
RTVSPropertyOp56
 70
     1
102
RTVSPropertyOp57
 70
     1
102
RTVSPropertyOp58
 70
     1
102
RTVSPropertyOp59
 70
     1
102
RTVSPropertyOp60
 70
     1
102
RTVSPropertyOp61
 70
     1
102
RTVSPropertyOp62
 70
     1
  0
XRECORD
  5
236
102
{ACAD_REACTORS
330
235
102
}
330
235
100
AcDbXrecord
280
     1
102
RTVSPost2010Prop28
280
     0
102
RTVSPost2010PropOp28
 70
     1
102
RTVSPost2010Prop29
280
     1
102
RTVSPost2010PropOp29
 70
     1
102
RTVSPost2010Prop30
280
     1
102
RTVSPost2010PropOp30
 70
     1
102
RTVSPost2010Prop31
280
     0
102
RTVSPost2010PropOp31
 70
     1
102
RTVSPost2010Prop32
280
     0
102
RTVSPost2010PropOp32
 70
     1
102
RTVSPost2010Prop33
280
     0
102
RTVSPost2010PropOp33
 70
     1
102
RTVSPost2010Prop34
280
     0
102
RTVSPost2010PropOp34
 70
     1
102
RTVSPost2010Prop35
280
     0
102
RTVSPost2010PropOp35
 70
     1
102
RTVSPost2010Prop36
280
     0
102
RTVSPost2010PropOp36
 70
     1
102
RTVSPost2010Prop37
 90
       50
102
RTVSPost2010PropOp37
 70
     0
102
RTVSPost2010Prop38
140
0.0
102
RTVSPost2010PropOp38
 70
     0
102
RTVSPost2010Prop39
140
1.0
102
RTVSPost2010PropOp39
 70
     0
102
RTVSPost2010Prop40
 90
        0
102
RTVSPost2010PropOp40
 70
     0
102
RTVSPost2010Prop41ColorIndex
 90
       18
102
RTVSPost2010Prop41ColorRGB
 90
        0
102
RTVSPost2010PropOp41
 70
     0
102
RTVSPost2010Prop42
 90
       50
102
RTVSPost2010PropOp42
 70
     0
102
RTVSPost2010Prop43
 90
        3
102
RTVSPost2010PropOp43
 70
     0
102
RTVSPost2010Prop44ColorIndex
 90
        5
102
RTVSPost2010Prop44ColorRGB
 90
      255
102
RTVSPost2010PropOp44
 70
     0
102
RTVSPost2010Prop45
280
     0
102
RTVSPost2010PropOp45
 70
     1
102
RTVSPost2010Prop46
 90
       50
102
RTVSPost2010PropOp46
 70
     0
102
RTVSPost2010Prop47
 90
       50
102
RTVSPost2010PropOp47
 70
     0
102
RTVSPost2010Prop48
 90
       50
102
RTVSPost2010PropOp48
 70
     0
102
RTVSPost2010Prop49
280
     0
102
RTVSPost2010PropOp49
 70
     1
102
RTVSPost2010Prop50
 90
       50
102
RTVSPost2010PropOp50
 70
     0
102
RTVSPost2010Prop51ColorIndex
 90
      256
102
RTVSPost2010Prop51ColorRGB
 90
-16777216
102
RTVSPost2010PropOp51
 70
     0
102
RTVSPost2010Prop52
140
1.0
102
RTVSPost2010PropOp52
 70
     0
102
RTVSPost2010Prop53
 90
        2
102
RTVSPost2010PropOp53
 70
     0
102
RTVSPost2010Prop54
  1
strokes_ogs.tif
102
RTVSPost2010PropOp54
 70
     0
102
RTVSPost2010Prop55
280
     0
102
RTVSPost2010PropOp55
 70
     1
102
RTVSPost2010Prop56
140
1.0
102
RTVSPost2010PropOp56
 70
     0
102
RTVSPost2010Prop57
140
1.0
102
RTVSPost2010PropOp57
 70
     0
102
RTVSPropertyOp0
 70
     0
102
RTVSPropertyOp1
 70
     0
102
RTVSPropertyOp2
 70
     0
102
RTVSPropertyOp3
 70
     0
102
RTVSPropertyOp4
 70
     0
102
RTVSPropertyOp5
 70
     0
102
RTVSPropertyOp6
 70
     0
102
RTVSPropertyOp7
 70
     0
102
RTVSPropertyOp8
 70
     0
102
RTVSPropertyOp9
 70
     0
102
RTVSPropertyOp10
 70
     0
102
RTVSPropertyOp11
 70
     0
102
RTVSPropertyOp12
 70
     0
102
RTVSPropertyOp13
 70
     0
102
RTVSPropertyOp14
 70
     2
102
RTVSPropertyOp15
 70
     0
102
RTVSPropertyOp16
 70
     0
102
RTVSPropertyOp17
 70
     0
102
RTVSPropertyOp18
 70
     0
102
RTVSPropertyOp19
 70
     0
102
RTVSPropertyOp20
 70
     0
102
RTVSPropertyOp21
 70
     0
102
RTVSPropertyOp22
 70
     0
102
RTVSPropertyOp23
 70
     0
102
RTVSPropertyOp24
 70
     0
102
RTVSPropertyOp25
 70
     0
102
RTVSPropertyOp26
 70
     0
102
RTVSPropertyOp27
 70
     0
102
RTVSPropertyOp28
 70
     1
102
RTVSPropertyOp29
 70
     1
102
RTVSPropertyOp30
 70
     1
102
RTVSPropertyOp31
 70
     1
102
RTVSPropertyOp32
 70
     1
102
RTVSPropertyOp33
 70
     1
102
RTVSPropertyOp34
 70
     1
102
RTVSPropertyOp35
 70
     1
102
RTVSPropertyOp36
 70
     1
102
RTVSPropertyOp37
 70
     0
102
RTVSPropertyOp38
 70
     0
102
RTVSPropertyOp39
 70
     0
102
RTVSPropertyOp40
 70
     0
102
RTVSPropertyOp41
 70
     0
102
RTVSPropertyOp42
 70
     0
102
RTVSPropertyOp43
 70
     0
102
RTVSPropertyOp44
 70
     0
102
RTVSPropertyOp45
 70
     1
102
RTVSPropertyOp46
 70
     0
102
RTVSPropertyOp47
 70
     0
102
RTVSPropertyOp48
 70
     0
102
RTVSPropertyOp49
 70
     1
102
RTVSPropertyOp50
 70
     0
102
RTVSPropertyOp51
 70
     0
102
RTVSPropertyOp52
 70
     0
102
RTVSPropertyOp53
 70
     0
102
RTVSPropertyOp54
 70
     0
102
RTVSPropertyOp55
 70
     1
102
RTVSPropertyOp56
 70
     0
102
RTVSPropertyOp57
 70
     0
102
RTVSPropertyOp58
 70
     0
102
RTVSPropertyOp59
 70
     0
102
RTVSPropertyOp60
 70
     0
102
RTVSPropertyOp61
 70
     0
102
RTVSPropertyOp62
 70
     0
  0
XRECORD
  5
21C
102
{ACAD_REACTORS
330
21B
102
}
330
21B
100
AcDbXrecord
280
     1
102
RTVSPost2010Prop28
280
     0
102
RTVSPost2010PropOp28
 70
     1
102
RTVSPost2010Prop29
280
     1
102
RTVSPost2010PropOp29
 70
     1
102
RTVSPost2010Prop30
280
     1
102
RTVSPost2010PropOp30
 70
     1
102
RTVSPost2010Prop31
280
     0
102
RTVSPost2010PropOp31
 70
     1
102
RTVSPost2010Prop32
280
     0
102
RTVSPost2010PropOp32
 70
     1
102
RTVSPost2010Prop33
280
     0
102
RTVSPost2010PropOp33
 70
     1
102
RTVSPost2010Prop34
280
     0
102
RTVSPost2010PropOp34
 70
     1
102
RTVSPost2010Prop35
280
     0
102
RTVSPost2010PropOp35
 70
     1
102
RTVSPost2010Prop36
280
     0
102
RTVSPost2010PropOp36
 70
     1
102
RTVSPost2010Prop37
 90
       50
102
RTVSPost2010PropOp37
 70
     1
102
RTVSPost2010Prop38
140
0.0
102
RTVSPost2010PropOp38
 70
     1
102
RTVSPost2010Prop39
140
1.0
102
RTVSPost2010PropOp39
 70
     1
102
RTVSPost2010Prop40
 90
        0
102
RTVSPost2010PropOp40
 70
     1
102
RTVSPost2010Prop41ColorIndex
 90
       18
102
RTVSPost2010Prop41ColorRGB
 90
        0
102
RTVSPost2010PropOp41
 70
     1
102
RTVSPost2010Prop42
 90
       50
102
RTVSPost2010PropOp42
 70
     1
102
RTVSPost2010Prop43
 90
        3
102
RTVSPost2010PropOp43
 70
     1
102
RTVSPost2010Prop44ColorIndex
 90
        5
102
RTVSPost2010Prop44ColorRGB
 90
      255
102
RTVSPost2010PropOp44
 70
     1
102
RTVSPost2010Prop45
280
     0
102
RTVSPost2010PropOp45
 70
     1
102
RTVSPost2010Prop46
 90
       50
102
RTVSPost2010PropOp46
 70
     1
102
RTVSPost2010Prop47
 90
       50
102
RTVSPost2010PropOp47
 70
     1
102
RTVSPost2010Prop48
 90
       50
102
RTVSPost2010PropOp48
 70
     1
102
RTVSPost2010Prop49
280
     0
102
RTVSPost2010PropOp49
 70
     1
102
RTVSPost2010Prop50
 90
       50
102
RTVSPost2010PropOp50
 70
     1
102
RTVSPost2010Prop51ColorIndex
 90
      256
102
RTVSPost2010Prop51ColorRGB
 90
-16777216
102
RTVSPost2010PropOp51
 70
     0
102
RTVSPost2010Prop52
140
1.0
102
RTVSPost2010PropOp52
 70
     0
102
RTVSPost2010Prop53
 90
        2
102
RTVSPost2010PropOp53
 70
     1
102
RTVSPost2010Prop54
  1
strokes_ogs.tif
102
RTVSPost2010PropOp54
 70
     1
102
RTVSPost2010Prop55
280
     0
102
RTVSPost2010PropOp55
 70
     1
102
RTVSPost2010Prop56
140
1.0
102
RTVSPost2010PropOp56
 70
     1
102
RTVSPost2010Prop57
140
1.0
102
RTVSPost2010PropOp57
 70
     1
102
RTVSPropertyOp0
 70
     1
102
RTVSPropertyOp1
 70
     1
102
RTVSPropertyOp2
 70
     1
102
RTVSPropertyOp3
 70
     1
102
RTVSPropertyOp4
 70
     1
102
RTVSPropertyOp5
 70
     1
102
RTVSPropertyOp6
 70
     1
102
RTVSPropertyOp7
 70
     1
102
RTVSPropertyOp8
 70
     1
102
RTVSPropertyOp9
 70
     1
102
RTVSPropertyOp10
 70
     1
102
RTVSPropertyOp11
 70
     1
102
RTVSPropertyOp12
 70
     1
102
RTVSPropertyOp13
 70
     1
102
RTVSPropertyOp14
 70
     1
102
RTVSPropertyOp15
 70
     1
102
RTVSPropertyOp16
 70
     1
102
RTVSPropertyOp17
 70
     1
102
RTVSPropertyOp18
 70
     1
102
RTVSPropertyOp19
 70
     1
102
RTVSPropertyOp20
 70
     1
102
RTVSPropertyOp21
 70
     1
102
RTVSPropertyOp22
 70
     1
102
RTVSPropertyOp23
 70
     1
102
RTVSPropertyOp24
 70
     1
102
RTVSPropertyOp25
 70
     1
102
RTVSPropertyOp26
 70
     1
102
RTVSPropertyOp27
 70
     1
102
RTVSPropertyOp28
 70
     1
102
RTVSPropertyOp29
 70
     1
102
RTVSPropertyOp30
 70
     1
102
RTVSPropertyOp31
 70
     1
102
RTVSPropertyOp32
 70
     1
102
RTVSPropertyOp33
 70
     1
102
RTVSPropertyOp34
 70
     1
102
RTVSPropertyOp35
 70
     1
102
RTVSPropertyOp36
 70
     1
102
RTVSPropertyOp37
 70
     1
102
RTVSPropertyOp38
 70
     1
102
RTVSPropertyOp39
 70
     1
102
RTVSPropertyOp40
 70
     1
102
RTVSPropertyOp41
 70
     1
102
RTVSPropertyOp42
 70
     1
102
RTVSPropertyOp43
 70
     1
102
RTVSPropertyOp44
 70
     1
102
RTVSPropertyOp45
 70
     1
102
RTVSPropertyOp46
 70
     1
102
RTVSPropertyOp47
 70
     1
102
RTVSPropertyOp48
 70
     1
102
RTVSPropertyOp49
 70
     1
102
RTVSPropertyOp50
 70
     1
102
RTVSPropertyOp51
 70
     0
102
RTVSPropertyOp52
 70
     0
102
RTVSPropertyOp53
 70
     1
102
RTVSPropertyOp54
 70
     1
102
RTVSPropertyOp55
 70
     1
102
RTVSPropertyOp56
 70
     1
102
RTVSPropertyOp57
 70
     1
102
RTVSPropertyOp58
 70
     1
102
RTVSPropertyOp59
 70
     1
102
RTVSPropertyOp60
 70
     1
102
RTVSPropertyOp61
 70
     1
102
RTVSPropertyOp62
 70
     1
  0
XRECORD
  5
232
102
{ACAD_REACTORS
330
231
102
}
330
231
100
AcDbXrecord
280
     1
102
RTVSPost2010Prop28
280
     0
102
RTVSPost2010PropOp28
 70
     1
102
RTVSPost2010Prop29
280
     1
102
RTVSPost2010PropOp29
 70
     1
102
RTVSPost2010Prop30
280
     1
102
RTVSPost2010PropOp30
 70
     1
102
RTVSPost2010Prop31
280
     0
102
RTVSPost2010PropOp31
 70
     1
102
RTVSPost2010Prop32
280
     0
102
RTVSPost2010PropOp32
 70
     1
102
RTVSPost2010Prop33
280
     0
102
RTVSPost2010PropOp33
 70
     1
102
RTVSPost2010Prop34
280
     0
102
RTVSPost2010PropOp34
 70
     1
102
RTVSPost2010Prop35
280
     0
102
RTVSPost2010PropOp35
 70
     1
102
RTVSPost2010Prop36
280
     0
102
RTVSPost2010PropOp36
 70
     1
102
RTVSPost2010Prop37
 90
       50
102
RTVSPost2010PropOp37
 70
     1
102
RTVSPost2010Prop38
140
0.0
102
RTVSPost2010PropOp38
 70
     1
102
RTVSPost2010Prop39
140
1.0
102
RTVSPost2010PropOp39
 70
     1
102
RTVSPost2010Prop40
 90
        0
102
RTVSPost2010PropOp40
 70
     1
102
RTVSPost2010Prop41ColorIndex
 90
       18
102
RTVSPost2010Prop41ColorRGB
 90
        0
102
RTVSPost2010PropOp41
 70
     1
102
RTVSPost2010Prop42
 90
       50
102
RTVSPost2010PropOp42
 70
     1
102
RTVSPost2010Prop43
 90
        3
102
RTVSPost2010PropOp43
 70
     1
102
RTVSPost2010Prop44ColorIndex
 90
        5
102
RTVSPost2010Prop44ColorRGB
 90
      255
102
RTVSPost2010PropOp44
 70
     1
102
RTVSPost2010Prop45
280
     0
102
RTVSPost2010PropOp45
 70
     1
102
RTVSPost2010Prop46
 90
       50
102
RTVSPost2010PropOp46
 70
     1
102
RTVSPost2010Prop47
 90
       50
102
RTVSPost2010PropOp47
 70
     1
102
RTVSPost2010Prop48
 90
       50
102
RTVSPost2010PropOp48
 70
     1
102
RTVSPost2010Prop49
280
     0
102
RTVSPost2010PropOp49
 70
     1
102
RTVSPost2010Prop50
 90
       50
102
RTVSPost2010PropOp50
 70
     1
102
RTVSPost2010Prop51ColorIndex
 90
      256
102
RTVSPost2010Prop51ColorRGB
 90
-16777216
102
RTVSPost2010PropOp51
 70
     0
102
RTVSPost2010Prop52
140
1.0
102
RTVSPost2010PropOp52
 70
     0
102
RTVSPost2010Prop53
 90
        2
102
RTVSPost2010PropOp53
 70
     1
102
RTVSPost2010Prop54
  1
strokes_ogs.tif
102
RTVSPost2010PropOp54
 70
     1
102
RTVSPost2010Prop55
280
     0
102
RTVSPost2010PropOp55
 70
     1
102
RTVSPost2010Prop56
140
1.0
102
RTVSPost2010PropOp56
 70
     1
102
RTVSPost2010Prop57
140
1.0
102
RTVSPost2010PropOp57
 70
     1
102
RTVSPropertyOp0
 70
     1
102
RTVSPropertyOp1
 70
     1
102
RTVSPropertyOp2
 70
     1
102
RTVSPropertyOp3
 70
     1
102
RTVSPropertyOp4
 70
     1
102
RTVSPropertyOp5
 70
     1
102
RTVSPropertyOp6
 70
     1
102
RTVSPropertyOp7
 70
     1
102
RTVSPropertyOp8
 70
     1
102
RTVSPropertyOp9
 70
     1
102
RTVSPropertyOp10
 70
     1
102
RTVSPropertyOp11
 70
     1
102
RTVSPropertyOp12
 70
     1
102
RTVSPropertyOp13
 70
     1
102
RTVSPropertyOp14
 70
     1
102
RTVSPropertyOp15
 70
     1
102
RTVSPropertyOp16
 70
     1
102
RTVSPropertyOp17
 70
     1
102
RTVSPropertyOp18
 70
     1
102
RTVSPropertyOp19
 70
     1
102
RTVSPropertyOp20
 70
     1
102
RTVSPropertyOp21
 70
     1
102
RTVSPropertyOp22
 70
     1
102
RTVSPropertyOp23
 70
     1
102
RTVSPropertyOp24
 70
     1
102
RTVSPropertyOp25
 70
     1
102
RTVSPropertyOp26
 70
     1
102
RTVSPropertyOp27
 70
     1
102
RTVSPropertyOp28
 70
     1
102
RTVSPropertyOp29
 70
     1
102
RTVSPropertyOp30
 70
     1
102
RTVSPropertyOp31
 70
     1
102
RTVSPropertyOp32
 70
     1
102
RTVSPropertyOp33
 70
     1
102
RTVSPropertyOp34
 70
     1
102
RTVSPropertyOp35
 70
     1
102
RTVSPropertyOp36
 70
     1
102
RTVSPropertyOp37
 70
     1
102
RTVSPropertyOp38
 70
     1
102
RTVSPropertyOp39
 70
     1
102
RTVSPropertyOp40
 70
     1
102
RTVSPropertyOp41
 70
     1
102
RTVSPropertyOp42
 70
     1
102
RTVSPropertyOp43
 70
     1
102
RTVSPropertyOp44
 70
     1
102
RTVSPropertyOp45
 70
     1
102
RTVSPropertyOp46
 70
     1
102
RTVSPropertyOp47
 70
     1
102
RTVSPropertyOp48
 70
     1
102
RTVSPropertyOp49
 70
     1
102
RTVSPropertyOp50
 70
     1
102
RTVSPropertyOp51
 70
     0
102
RTVSPropertyOp52
 70
     0
102
RTVSPropertyOp53
 70
     1
102
RTVSPropertyOp54
 70
     1
102
RTVSPropertyOp55
 70
     1
102
RTVSPropertyOp56
 70
     1
102
RTVSPropertyOp57
 70
     1
102
RTVSPropertyOp58
 70
     1
102
RTVSPropertyOp59
 70
     1
102
RTVSPropertyOp60
 70
     1
102
RTVSPropertyOp61
 70
     1
102
RTVSPropertyOp62
 70
     1
  0
XRECORD
  5
230
102
{ACAD_REACTORS
330
22F
102
}
330
22F
100
AcDbXrecord
280
     1
102
RTVSPost2010Prop28
280
     0
102
RTVSPost2010PropOp28
 70
     1
102
RTVSPost2010Prop29
280
     1
102
RTVSPost2010PropOp29
 70
     1
102
RTVSPost2010Prop30
280
     1
102
RTVSPost2010PropOp30
 70
     1
102
RTVSPost2010Prop31
280
     0
102
RTVSPost2010PropOp31
 70
     1
102
RTVSPost2010Prop32
280
     0
102
RTVSPost2010PropOp32
 70
     1
102
RTVSPost2010Prop33
280
     0
102
RTVSPost2010PropOp33
 70
     1
102
RTVSPost2010Prop34
280
     0
102
RTVSPost2010PropOp34
 70
     1
102
RTVSPost2010Prop35
280
     0
102
RTVSPost2010PropOp35
 70
     1
102
RTVSPost2010Prop36
280
     0
102
RTVSPost2010PropOp36
 70
     1
102
RTVSPost2010Prop37
 90
       50
102
RTVSPost2010PropOp37
 70
     1
102
RTVSPost2010Prop38
140
0.0
102
RTVSPost2010PropOp38
 70
     1
102
RTVSPost2010Prop39
140
1.0
102
RTVSPost2010PropOp39
 70
     1
102
RTVSPost2010Prop40
 90
        0
102
RTVSPost2010PropOp40
 70
     1
102
RTVSPost2010Prop41ColorIndex
 90
       18
102
RTVSPost2010Prop41ColorRGB
 90
        0
102
RTVSPost2010PropOp41
 70
     1
102
RTVSPost2010Prop42
 90
       50
102
RTVSPost2010PropOp42
 70
     1
102
RTVSPost2010Prop43
 90
        3
102
RTVSPost2010PropOp43
 70
     1
102
RTVSPost2010Prop44ColorIndex
 90
        5
102
RTVSPost2010Prop44ColorRGB
 90
      255
102
RTVSPost2010PropOp44
 70
     1
102
RTVSPost2010Prop45
280
     0
102
RTVSPost2010PropOp45
 70
     1
102
RTVSPost2010Prop46
 90
       50
102
RTVSPost2010PropOp46
 70
     1
102
RTVSPost2010Prop47
 90
       50
102
RTVSPost2010PropOp47
 70
     1
102
RTVSPost2010Prop48
 90
       50
102
RTVSPost2010PropOp48
 70
     1
102
RTVSPost2010Prop49
280
     0
102
RTVSPost2010PropOp49
 70
     1
102
RTVSPost2010Prop50
 90
       50
102
RTVSPost2010PropOp50
 70
     1
102
RTVSPost2010Prop51ColorIndex
 90
      256
102
RTVSPost2010Prop51ColorRGB
 90
-16777216
102
RTVSPost2010PropOp51
 70
     0
102
RTVSPost2010Prop52
140
1.0
102
RTVSPost2010PropOp52
 70
     0
102
RTVSPost2010Prop53
 90
        2
102
RTVSPost2010PropOp53
 70
     1
102
RTVSPost2010Prop54
  1
strokes_ogs.tif
102
RTVSPost2010PropOp54
 70
     1
102
RTVSPost2010Prop55
280
     0
102
RTVSPost2010PropOp55
 70
     1
102
RTVSPost2010Prop56
140
1.0
102
RTVSPost2010PropOp56
 70
     1
102
RTVSPost2010Prop57
140
1.0
102
RTVSPost2010PropOp57
 70
     1
102
RTVSPropertyOp0
 70
     1
102
RTVSPropertyOp1
 70
     1
102
RTVSPropertyOp2
 70
     1
102
RTVSPropertyOp3
 70
     1
102
RTVSPropertyOp4
 70
     1
102
RTVSPropertyOp5
 70
     1
102
RTVSPropertyOp6
 70
     1
102
RTVSPropertyOp7
 70
     1
102
RTVSPropertyOp8
 70
     1
102
RTVSPropertyOp9
 70
     1
102
RTVSPropertyOp10
 70
     1
102
RTVSPropertyOp11
 70
     1
102
RTVSPropertyOp12
 70
     1
102
RTVSPropertyOp13
 70
     1
102
RTVSPropertyOp14
 70
     1
102
RTVSPropertyOp15
 70
     1
102
RTVSPropertyOp16
 70
     1
102
RTVSPropertyOp17
 70
     1
102
RTVSPropertyOp18
 70
     1
102
RTVSPropertyOp19
 70
     1
102
RTVSPropertyOp20
 70
     1
102
RTVSPropertyOp21
 70
     1
102
RTVSPropertyOp22
 70
     1
102
RTVSPropertyOp23
 70
     1
102
RTVSPropertyOp24
 70
     1
102
RTVSPropertyOp25
 70
     1
102
RTVSPropertyOp26
 70
     1
102
RTVSPropertyOp27
 70
     1
102
RTVSPropertyOp28
 70
     1
102
RTVSPropertyOp29
 70
     1
102
RTVSPropertyOp30
 70
     1
102
RTVSPropertyOp31
 70
     1
102
RTVSPropertyOp32
 70
     1
102
RTVSPropertyOp33
 70
     1
102
RTVSPropertyOp34
 70
     1
102
RTVSPropertyOp35
 70
     1
102
RTVSPropertyOp36
 70
     1
102
RTVSPropertyOp37
 70
     1
102
RTVSPropertyOp38
 70
     1
102
RTVSPropertyOp39
 70
     1
102
RTVSPropertyOp40
 70
     1
102
RTVSPropertyOp41
 70
     1
102
RTVSPropertyOp42
 70
     1
102
RTVSPropertyOp43
 70
     1
102
RTVSPropertyOp44
 70
     1
102
RTVSPropertyOp45
 70
     1
102
RTVSPropertyOp46
 70
     1
102
RTVSPropertyOp47
 70
     1
102
RTVSPropertyOp48
 70
     1
102
RTVSPropertyOp49
 70
     1
102
RTVSPropertyOp50
 70
     1
102
RTVSPropertyOp51
 70
     0
102
RTVSPropertyOp52
 70
     0
102
RTVSPropertyOp53
 70
     1
102
RTVSPropertyOp54
 70
     1
102
RTVSPropertyOp55
 70
     1
102
RTVSPropertyOp56
 70
     1
102
RTVSPropertyOp57
 70
     1
102
RTVSPropertyOp58
 70
     1
102
RTVSPropertyOp59
 70
     1
102
RTVSPropertyOp60
 70
     1
102
RTVSPropertyOp61
 70
     1
102
RTVSPropertyOp62
 70
     1
  0
XRECORD
  5
22A
102
{ACAD_REACTORS
330
229
102
}
330
229
100
AcDbXrecord
280
     1
102
RTVSPost2010Prop28
280
     0
102
RTVSPost2010PropOp28
 70
     1
102
RTVSPost2010Prop29
280
     1
102
RTVSPost2010PropOp29
 70
     1
102
RTVSPost2010Prop30
280
     1
102
RTVSPost2010PropOp30
 70
     1
102
RTVSPost2010Prop31
280
     0
102
RTVSPost2010PropOp31
 70
     1
102
RTVSPost2010Prop32
280
     0
102
RTVSPost2010PropOp32
 70
     1
102
RTVSPost2010Prop33
280
     0
102
RTVSPost2010PropOp33
 70
     1
102
RTVSPost2010Prop34
280
     0
102
RTVSPost2010PropOp34
 70
     1
102
RTVSPost2010Prop35
280
     0
102
RTVSPost2010PropOp35
 70
     1
102
RTVSPost2010Prop36
280
     0
102
RTVSPost2010PropOp36
 70
     1
102
RTVSPost2010Prop37
 90
       50
102
RTVSPost2010PropOp37
 70
     1
102
RTVSPost2010Prop38
140
0.0
102
RTVSPost2010PropOp38
 70
     1
102
RTVSPost2010Prop39
140
1.0
102
RTVSPost2010PropOp39
 70
     1
102
RTVSPost2010Prop40
 90
        0
102
RTVSPost2010PropOp40
 70
     1
102
RTVSPost2010Prop41ColorIndex
 90
       18
102
RTVSPost2010Prop41ColorRGB
 90
        0
102
RTVSPost2010PropOp41
 70
     1
102
RTVSPost2010Prop42
 90
       50
102
RTVSPost2010PropOp42
 70
     1
102
RTVSPost2010Prop43
 90
        3
102
RTVSPost2010PropOp43
 70
     1
102
RTVSPost2010Prop44ColorIndex
 90
        5
102
RTVSPost2010Prop44ColorRGB
 90
      255
102
RTVSPost2010PropOp44
 70
     1
102
RTVSPost2010Prop45
280
     0
102
RTVSPost2010PropOp45
 70
     1
102
RTVSPost2010Prop46
 90
       50
102
RTVSPost2010PropOp46
 70
     1
102
RTVSPost2010Prop47
 90
       50
102
RTVSPost2010PropOp47
 70
     1
102
RTVSPost2010Prop48
 90
       50
102
RTVSPost2010PropOp48
 70
     1
102
RTVSPost2010Prop49
280
     0
102
RTVSPost2010PropOp49
 70
     1
102
RTVSPost2010Prop50
 90
       50
102
RTVSPost2010PropOp50
 70
     1
102
RTVSPost2010Prop51ColorIndex
 90
      256
102
RTVSPost2010Prop51ColorRGB
 90
-16777216
102
RTVSPost2010PropOp51
 70
     0
102
RTVSPost2010Prop52
140
1.0
102
RTVSPost2010PropOp52
 70
     0
102
RTVSPost2010Prop53
 90
        2
102
RTVSPost2010PropOp53
 70
     1
102
RTVSPost2010Prop54
  1
strokes_ogs.tif
102
RTVSPost2010PropOp54
 70
     1
102
RTVSPost2010Prop55
280
     0
102
RTVSPost2010PropOp55
 70
     1
102
RTVSPost2010Prop56
140
1.0
102
RTVSPost2010PropOp56
 70
     1
102
RTVSPost2010Prop57
140
1.0
102
RTVSPost2010PropOp57
 70
     1
102
RTVSPropertyOp0
 70
     1
102
RTVSPropertyOp1
 70
     1
102
RTVSPropertyOp2
 70
     1
102
RTVSPropertyOp3
 70
     1
102
RTVSPropertyOp4
 70
     1
102
RTVSPropertyOp5
 70
     1
102
RTVSPropertyOp6
 70
     1
102
RTVSPropertyOp7
 70
     1
102
RTVSPropertyOp8
 70
     1
102
RTVSPropertyOp9
 70
     1
102
RTVSPropertyOp10
 70
     1
102
RTVSPropertyOp11
 70
     1
102
RTVSPropertyOp12
 70
     1
102
RTVSPropertyOp13
 70
     1
102
RTVSPropertyOp14
 70
     1
102
RTVSPropertyOp15
 70
     1
102
RTVSPropertyOp16
 70
     1
102
RTVSPropertyOp17
 70
     1
102
RTVSPropertyOp18
 70
     1
102
RTVSPropertyOp19
 70
     1
102
RTVSPropertyOp20
 70
     1
102
RTVSPropertyOp21
 70
     1
102
RTVSPropertyOp22
 70
     1
102
RTVSPropertyOp23
 70
     1
102
RTVSPropertyOp24
 70
     1
102
RTVSPropertyOp25
 70
     1
102
RTVSPropertyOp26
 70
     1
102
RTVSPropertyOp27
 70
     1
102
RTVSPropertyOp28
 70
     1
102
RTVSPropertyOp29
 70
     1
102
RTVSPropertyOp30
 70
     1
102
RTVSPropertyOp31
 70
     1
102
RTVSPropertyOp32
 70
     1
102
RTVSPropertyOp33
 70
     1
102
RTVSPropertyOp34
 70
     1
102
RTVSPropertyOp35
 70
     1
102
RTVSPropertyOp36
 70
     1
102
RTVSPropertyOp37
 70
     1
102
RTVSPropertyOp38
 70
     1
102
RTVSPropertyOp39
 70
     1
102
RTVSPropertyOp40
 70
     1
102
RTVSPropertyOp41
 70
     1
102
RTVSPropertyOp42
 70
     1
102
RTVSPropertyOp43
 70
     1
102
RTVSPropertyOp44
 70
     1
102
RTVSPropertyOp45
 70
     1
102
RTVSPropertyOp46
 70
     1
102
RTVSPropertyOp47
 70
     1
102
RTVSPropertyOp48
 70
     1
102
RTVSPropertyOp49
 70
     1
102
RTVSPropertyOp50
 70
     1
102
RTVSPropertyOp51
 70
     0
102
RTVSPropertyOp52
 70
     0
102
RTVSPropertyOp53
 70
     1
102
RTVSPropertyOp54
 70
     1
102
RTVSPropertyOp55
 70
     1
102
RTVSPropertyOp56
 70
     1
102
RTVSPropertyOp57
 70
     1
102
RTVSPropertyOp58
 70
     1
102
RTVSPropertyOp59
 70
     1
102
RTVSPropertyOp60
 70
     1
102
RTVSPropertyOp61
 70
     1
102
RTVSPropertyOp62
 70
     1
  0
XRECORD
  5
22C
102
{ACAD_REACTORS
330
22B
102
}
330
22B
100
AcDbXrecord
280
     1
102
RTVSPost2010Prop28
280
     0
102
RTVSPost2010PropOp28
 70
     1
102
RTVSPost2010Prop29
280
     1
102
RTVSPost2010PropOp29
 70
     1
102
RTVSPost2010Prop30
280
     1
102
RTVSPost2010PropOp30
 70
     1
102
RTVSPost2010Prop31
280
     0
102
RTVSPost2010PropOp31
 70
     1
102
RTVSPost2010Prop32
280
     0
102
RTVSPost2010PropOp32
 70
     1
102
RTVSPost2010Prop33
280
     0
102
RTVSPost2010PropOp33
 70
     1
102
RTVSPost2010Prop34
280
     0
102
RTVSPost2010PropOp34
 70
     1
102
RTVSPost2010Prop35
280
     0
102
RTVSPost2010PropOp35
 70
     1
102
RTVSPost2010Prop36
280
     0
102
RTVSPost2010PropOp36
 70
     1
102
RTVSPost2010Prop37
 90
       50
102
RTVSPost2010PropOp37
 70
     1
102
RTVSPost2010Prop38
140
0.0
102
RTVSPost2010PropOp38
 70
     1
102
RTVSPost2010Prop39
140
1.0
102
RTVSPost2010PropOp39
 70
     1
102
RTVSPost2010Prop40
 90
        0
102
RTVSPost2010PropOp40
 70
     1
102
RTVSPost2010Prop41ColorIndex
 90
       18
102
RTVSPost2010Prop41ColorRGB
 90
        0
102
RTVSPost2010PropOp41
 70
     1
102
RTVSPost2010Prop42
 90
       50
102
RTVSPost2010PropOp42
 70
     1
102
RTVSPost2010Prop43
 90
        3
102
RTVSPost2010PropOp43
 70
     1
102
RTVSPost2010Prop44ColorIndex
 90
        5
102
RTVSPost2010Prop44ColorRGB
 90
      255
102
RTVSPost2010PropOp44
 70
     1
102
RTVSPost2010Prop45
280
     0
102
RTVSPost2010PropOp45
 70
     1
102
RTVSPost2010Prop46
 90
       50
102
RTVSPost2010PropOp46
 70
     1
102
RTVSPost2010Prop47
 90
       50
102
RTVSPost2010PropOp47
 70
     1
102
RTVSPost2010Prop48
 90
       50
102
RTVSPost2010PropOp48
 70
     1
102
RTVSPost2010Prop49
280
     0
102
RTVSPost2010PropOp49
 70
     1
102
RTVSPost2010Prop50
 90
       50
102
RTVSPost2010PropOp50
 70
     1
102
RTVSPost2010Prop51ColorIndex
 90
      256
102
RTVSPost2010Prop51ColorRGB
 90
-16777216
102
RTVSPost2010PropOp51
 70
     0
102
RTVSPost2010Prop52
140
1.0
102
RTVSPost2010PropOp52
 70
     0
102
RTVSPost2010Prop53
 90
        2
102
RTVSPost2010PropOp53
 70
     1
102
RTVSPost2010Prop54
  1
strokes_ogs.tif
102
RTVSPost2010PropOp54
 70
     1
102
RTVSPost2010Prop55
280
     0
102
RTVSPost2010PropOp55
 70
     1
102
RTVSPost2010Prop56
140
1.0
102
RTVSPost2010PropOp56
 70
     1
102
RTVSPost2010Prop57
140
1.0
102
RTVSPost2010PropOp57
 70
     1
102
RTVSPropertyOp0
 70
     1
102
RTVSPropertyOp1
 70
     1
102
RTVSPropertyOp2
 70
     1
102
RTVSPropertyOp3
 70
     1
102
RTVSPropertyOp4
 70
     1
102
RTVSPropertyOp5
 70
     1
102
RTVSPropertyOp6
 70
     1
102
RTVSPropertyOp7
 70
     1
102
RTVSPropertyOp8
 70
     1
102
RTVSPropertyOp9
 70
     1
102
RTVSPropertyOp10
 70
     1
102
RTVSPropertyOp11
 70
     1
102
RTVSPropertyOp12
 70
     1
102
RTVSPropertyOp13
 70
     1
102
RTVSPropertyOp14
 70
     1
102
RTVSPropertyOp15
 70
     1
102
RTVSPropertyOp16
 70
     1
102
RTVSPropertyOp17
 70
     1
102
RTVSPropertyOp18
 70
     1
102
RTVSPropertyOp19
 70
     1
102
RTVSPropertyOp20
 70
     1
102
RTVSPropertyOp21
 70
     1
102
RTVSPropertyOp22
 70
     1
102
RTVSPropertyOp23
 70
     1
102
RTVSPropertyOp24
 70
     1
102
RTVSPropertyOp25
 70
     1
102
RTVSPropertyOp26
 70
     1
102
RTVSPropertyOp27
 70
     1
102
RTVSPropertyOp28
 70
     1
102
RTVSPropertyOp29
 70
     1
102
RTVSPropertyOp30
 70
     1
102
RTVSPropertyOp31
 70
     1
102
RTVSPropertyOp32
 70
     1
102
RTVSPropertyOp33
 70
     1
102
RTVSPropertyOp34
 70
     1
102
RTVSPropertyOp35
 70
     1
102
RTVSPropertyOp36
 70
     1
102
RTVSPropertyOp37
 70
     1
102
RTVSPropertyOp38
 70
     1
102
RTVSPropertyOp39
 70
     1
102
RTVSPropertyOp40
 70
     1
102
RTVSPropertyOp41
 70
     1
102
RTVSPropertyOp42
 70
     1
102
RTVSPropertyOp43
 70
     1
102
RTVSPropertyOp44
 70
     1
102
RTVSPropertyOp45
 70
     1
102
RTVSPropertyOp46
 70
     1
102
RTVSPropertyOp47
 70
     1
102
RTVSPropertyOp48
 70
     1
102
RTVSPropertyOp49
 70
     1
102
RTVSPropertyOp50
 70
     1
102
RTVSPropertyOp51
 70
     0
102
RTVSPropertyOp52
 70
     0
102
RTVSPropertyOp53
 70
     1
102
RTVSPropertyOp54
 70
     1
102
RTVSPropertyOp55
 70
     1
102
RTVSPropertyOp56
 70
     1
102
RTVSPropertyOp57
 70
     1
102
RTVSPropertyOp58
 70
     1
102
RTVSPropertyOp59
 70
     1
102
RTVSPropertyOp60
 70
     1
102
RTVSPropertyOp61
 70
     1
102
RTVSPropertyOp62
 70
     1
  0
XRECORD
  5
222
102
{ACAD_REACTORS
330
221
102
}
330
221
100
AcDbXrecord
280
     1
102
RTVSPost2010Prop28
280
     0
102
RTVSPost2010PropOp28
 70
     1
102
RTVSPost2010Prop29
280
     1
102
RTVSPost2010PropOp29
 70
     1
102
RTVSPost2010Prop30
280
     1
102
RTVSPost2010PropOp30
 70
     1
102
RTVSPost2010Prop31
280
     0
102
RTVSPost2010PropOp31
 70
     1
102
RTVSPost2010Prop32
280
     0
102
RTVSPost2010PropOp32
 70
     1
102
RTVSPost2010Prop33
280
     0
102
RTVSPost2010PropOp33
 70
     1
102
RTVSPost2010Prop34
280
     0
102
RTVSPost2010PropOp34
 70
     1
102
RTVSPost2010Prop35
280
     0
102
RTVSPost2010PropOp35
 70
     1
102
RTVSPost2010Prop36
280
     0
102
RTVSPost2010PropOp36
 70
     1
102
RTVSPost2010Prop37
 90
       50
102
RTVSPost2010PropOp37
 70
     1
102
RTVSPost2010Prop38
140
0.0
102
RTVSPost2010PropOp38
 70
     1
102
RTVSPost2010Prop39
140
1.0
102
RTVSPost2010PropOp39
 70
     1
102
RTVSPost2010Prop40
 90
        0
102
RTVSPost2010PropOp40
 70
     1
102
RTVSPost2010Prop41ColorIndex
 90
       18
102
RTVSPost2010Prop41ColorRGB
 90
        0
102
RTVSPost2010PropOp41
 70
     1
102
RTVSPost2010Prop42
 90
       50
102
RTVSPost2010PropOp42
 70
     1
102
RTVSPost2010Prop43
 90
        3
102
RTVSPost2010PropOp43
 70
     1
102
RTVSPost2010Prop44ColorIndex
 90
        5
102
RTVSPost2010Prop44ColorRGB
 90
      255
102
RTVSPost2010PropOp44
 70
     1
102
RTVSPost2010Prop45
280
     0
102
RTVSPost2010PropOp45
 70
     1
102
RTVSPost2010Prop46
 90
       50
102
RTVSPost2010PropOp46
 70
     1
102
RTVSPost2010Prop47
 90
       50
102
RTVSPost2010PropOp47
 70
     1
102
RTVSPost2010Prop48
 90
       50
102
RTVSPost2010PropOp48
 70
     1
102
RTVSPost2010Prop49
280
     0
102
RTVSPost2010PropOp49
 70
     1
102
RTVSPost2010Prop50
 90
       50
102
RTVSPost2010PropOp50
 70
     1
102
RTVSPost2010Prop51ColorIndex
 90
      256
102
RTVSPost2010Prop51ColorRGB
 90
-16777216
102
RTVSPost2010PropOp51
 70
     0
102
RTVSPost2010Prop52
140
1.0
102
RTVSPost2010PropOp52
 70
     0
102
RTVSPost2010Prop53
 90
        2
102
RTVSPost2010PropOp53
 70
     1
102
RTVSPost2010Prop54
  1
strokes_ogs.tif
102
RTVSPost2010PropOp54
 70
     1
102
RTVSPost2010Prop55
280
     0
102
RTVSPost2010PropOp55
 70
     1
102
RTVSPost2010Prop56
140
1.0
102
RTVSPost2010PropOp56
 70
     1
102
RTVSPost2010Prop57
140
1.0
102
RTVSPost2010PropOp57
 70
     1
102
RTVSPropertyOp0
 70
     1
102
RTVSPropertyOp1
 70
     1
102
RTVSPropertyOp2
 70
     1
102
RTVSPropertyOp3
 70
     1
102
RTVSPropertyOp4
 70
     1
102
RTVSPropertyOp5
 70
     1
102
RTVSPropertyOp6
 70
     1
102
RTVSPropertyOp7
 70
     1
102
RTVSPropertyOp8
 70
     1
102
RTVSPropertyOp9
 70
     1
102
RTVSPropertyOp10
 70
     1
102
RTVSPropertyOp11
 70
     1
102
RTVSPropertyOp12
 70
     1
102
RTVSPropertyOp13
 70
     1
102
RTVSPropertyOp14
 70
     1
102
RTVSPropertyOp15
 70
     1
102
RTVSPropertyOp16
 70
     1
102
RTVSPropertyOp17
 70
     1
102
RTVSPropertyOp18
 70
     1
102
RTVSPropertyOp19
 70
     1
102
RTVSPropertyOp20
 70
     1
102
RTVSPropertyOp21
 70
     1
102
RTVSPropertyOp22
 70
     1
102
RTVSPropertyOp23
 70
     1
102
RTVSPropertyOp24
 70
     1
102
RTVSPropertyOp25
 70
     1
102
RTVSPropertyOp26
 70
     1
102
RTVSPropertyOp27
 70
     1
102
RTVSPropertyOp28
 70
     1
102
RTVSPropertyOp29
 70
     1
102
RTVSPropertyOp30
 70
     1
102
RTVSPropertyOp31
 70
     1
102
RTVSPropertyOp32
 70
     1
102
RTVSPropertyOp33
 70
     1
102
RTVSPropertyOp34
 70
     1
102
RTVSPropertyOp35
 70
     1
102
RTVSPropertyOp36
 70
     1
102
RTVSPropertyOp37
 70
     1
102
RTVSPropertyOp38
 70
     1
102
RTVSPropertyOp39
 70
     1
102
RTVSPropertyOp40
 70
     1
102
RTVSPropertyOp41
 70
     1
102
RTVSPropertyOp42
 70
     1
102
RTVSPropertyOp43
 70
     1
102
RTVSPropertyOp44
 70
     1
102
RTVSPropertyOp45
 70
     1
102
RTVSPropertyOp46
 70
     1
102
RTVSPropertyOp47
 70
     1
102
RTVSPropertyOp48
 70
     1
102
RTVSPropertyOp49
 70
     1
102
RTVSPropertyOp50
 70
     1
102
RTVSPropertyOp51
 70
     0
102
RTVSPropertyOp52
 70
     0
102
RTVSPropertyOp53
 70
     1
102
RTVSPropertyOp54
 70
     1
102
RTVSPropertyOp55
 70
     1
102
RTVSPropertyOp56
 70
     1
102
RTVSPropertyOp57
 70
     1
102
RTVSPropertyOp58
 70
     1
102
RTVSPropertyOp59
 70
     1
102
RTVSPropertyOp60
 70
     1
102
RTVSPropertyOp61
 70
     1
102
RTVSPropertyOp62
 70
     1
  0
XRECORD
  5
216
102
{ACAD_REACTORS
330
215
102
}
330
215
100
AcDbXrecord
280
     1
102
RTVSPost2010Prop28
280
     0
102
RTVSPost2010PropOp28
 70
     1
102
RTVSPost2010Prop29
280
     1
102
RTVSPost2010PropOp29
 70
     1
102
RTVSPost2010Prop30
280
     1
102
RTVSPost2010PropOp30
 70
     1
102
RTVSPost2010Prop31
280
     0
102
RTVSPost2010PropOp31
 70
     1
102
RTVSPost2010Prop32
280
     0
102
RTVSPost2010PropOp32
 70
     1
102
RTVSPost2010Prop33
280
     0
102
RTVSPost2010PropOp33
 70
     1
102
RTVSPost2010Prop34
280
     0
102
RTVSPost2010PropOp34
 70
     1
102
RTVSPost2010Prop35
280
     0
102
RTVSPost2010PropOp35
 70
     1
102
RTVSPost2010Prop36
280
     0
102
RTVSPost2010PropOp36
 70
     1
102
RTVSPost2010Prop37
 90
       50
102
RTVSPost2010PropOp37
 70
     1
102
RTVSPost2010Prop38
140
0.0
102
RTVSPost2010PropOp38
 70
     1
102
RTVSPost2010Prop39
140
1.0
102
RTVSPost2010PropOp39
 70
     1
102
RTVSPost2010Prop40
 90
        0
102
RTVSPost2010PropOp40
 70
     1
102
RTVSPost2010Prop41ColorIndex
 90
       18
102
RTVSPost2010Prop41ColorRGB
 90
        0
102
RTVSPost2010PropOp41
 70
     1
102
RTVSPost2010Prop42
 90
       50
102
RTVSPost2010PropOp42
 70
     1
102
RTVSPost2010Prop43
 90
        3
102
RTVSPost2010PropOp43
 70
     1
102
RTVSPost2010Prop44ColorIndex
 90
        5
102
RTVSPost2010Prop44ColorRGB
 90
      255
102
RTVSPost2010PropOp44
 70
     1
102
RTVSPost2010Prop45
280
     0
102
RTVSPost2010PropOp45
 70
     1
102
RTVSPost2010Prop46
 90
       50
102
RTVSPost2010PropOp46
 70
     1
102
RTVSPost2010Prop47
 90
       50
102
RTVSPost2010PropOp47
 70
     1
102
RTVSPost2010Prop48
 90
       50
102
RTVSPost2010PropOp48
 70
     1
102
RTVSPost2010Prop49
280
     0
102
RTVSPost2010PropOp49
 70
     1
102
RTVSPost2010Prop50
 90
       50
102
RTVSPost2010PropOp50
 70
     1
102
RTVSPost2010Prop51ColorIndex
 90
      256
102
RTVSPost2010Prop51ColorRGB
 90
-16777216
102
RTVSPost2010PropOp51
 70
     0
102
RTVSPost2010Prop52
140
1.0
102
RTVSPost2010PropOp52
 70
     0
102
RTVSPost2010Prop53
 90
        2
102
RTVSPost2010PropOp53
 70
     1
102
RTVSPost2010Prop54
  1
strokes_ogs.tif
102
RTVSPost2010PropOp54
 70
     1
102
RTVSPost2010Prop55
280
     0
102
RTVSPost2010PropOp55
 70
     1
102
RTVSPost2010Prop56
140
1.0
102
RTVSPost2010PropOp56
 70
     1
102
RTVSPost2010Prop57
140
1.0
102
RTVSPost2010PropOp57
 70
     1
102
RTVSPropertyOp0
 70
     1
102
RTVSPropertyOp1
 70
     1
102
RTVSPropertyOp2
 70
     1
102
RTVSPropertyOp3
 70
     1
102
RTVSPropertyOp4
 70
     1
102
RTVSPropertyOp5
 70
     1
102
RTVSPropertyOp6
 70
     1
102
RTVSPropertyOp7
 70
     1
102
RTVSPropertyOp8
 70
     1
102
RTVSPropertyOp9
 70
     1
102
RTVSPropertyOp10
 70
     1
102
RTVSPropertyOp11
 70
     1
102
RTVSPropertyOp12
 70
     1
102
RTVSPropertyOp13
 70
     1
102
RTVSPropertyOp14
 70
     1
102
RTVSPropertyOp15
 70
     1
102
RTVSPropertyOp16
 70
     1
102
RTVSPropertyOp17
 70
     1
102
RTVSPropertyOp18
 70
     1
102
RTVSPropertyOp19
 70
     1
102
RTVSPropertyOp20
 70
     1
102
RTVSPropertyOp21
 70
     1
102
RTVSPropertyOp22
 70
     1
102
RTVSPropertyOp23
 70
     1
102
RTVSPropertyOp24
 70
     1
102
RTVSPropertyOp25
 70
     1
102
RTVSPropertyOp26
 70
     1
102
RTVSPropertyOp27
 70
     1
102
RTVSPropertyOp28
 70
     1
102
RTVSPropertyOp29
 70
     1
102
RTVSPropertyOp30
 70
     1
102
RTVSPropertyOp31
 70
     1
102
RTVSPropertyOp32
 70
     1
102
RTVSPropertyOp33
 70
     1
102
RTVSPropertyOp34
 70
     1
102
RTVSPropertyOp35
 70
     1
102
RTVSPropertyOp36
 70
     1
102
RTVSPropertyOp37
 70
     1
102
RTVSPropertyOp38
 70
     1
102
RTVSPropertyOp39
 70
     1
102
RTVSPropertyOp40
 70
     1
102
RTVSPropertyOp41
 70
     1
102
RTVSPropertyOp42
 70
     1
102
RTVSPropertyOp43
 70
     1
102
RTVSPropertyOp44
 70
     1
102
RTVSPropertyOp45
 70
     1
102
RTVSPropertyOp46
 70
     1
102
RTVSPropertyOp47
 70
     1
102
RTVSPropertyOp48
 70
     1
102
RTVSPropertyOp49
 70
     1
102
RTVSPropertyOp50
 70
     1
102
RTVSPropertyOp51
 70
     0
102
RTVSPropertyOp52
 70
     0
102
RTVSPropertyOp53
 70
     1
102
RTVSPropertyOp54
 70
     1
102
RTVSPropertyOp55
 70
     1
102
RTVSPropertyOp56
 70
     1
102
RTVSPropertyOp57
 70
     1
102
RTVSPropertyOp58
 70
     1
102
RTVSPropertyOp59
 70
     1
102
RTVSPropertyOp60
 70
     1
102
RTVSPropertyOp61
 70
     1
102
RTVSPropertyOp62
 70
     1
  0
XRECORD
  5
22E
102
{ACAD_REACTORS
330
22D
102
}
330
22D
100
AcDbXrecord
280
     1
102
RTVSPost2010Prop28
280
     0
102
RTVSPost2010PropOp28
 70
     1
102
RTVSPost2010Prop29
280
     1
102
RTVSPost2010PropOp29
 70
     1
102
RTVSPost2010Prop30
280
     1
102
RTVSPost2010PropOp30
 70
     1
102
RTVSPost2010Prop31
280
     0
102
RTVSPost2010PropOp31
 70
     1
102
RTVSPost2010Prop32
280
     0
102
RTVSPost2010PropOp32
 70
     1
102
RTVSPost2010Prop33
280
     0
102
RTVSPost2010PropOp33
 70
     1
102
RTVSPost2010Prop34
280
     0
102
RTVSPost2010PropOp34
 70
     1
102
RTVSPost2010Prop35
280
     0
102
RTVSPost2010PropOp35
 70
     1
102
RTVSPost2010Prop36
280
     0
102
RTVSPost2010PropOp36
 70
     1
102
RTVSPost2010Prop37
 90
       50
102
RTVSPost2010PropOp37
 70
     1
102
RTVSPost2010Prop38
140
0.0
102
RTVSPost2010PropOp38
 70
     1
102
RTVSPost2010Prop39
140
1.0
102
RTVSPost2010PropOp39
 70
     1
102
RTVSPost2010Prop40
 90
        0
102
RTVSPost2010PropOp40
 70
     1
102
RTVSPost2010Prop41ColorIndex
 90
       18
102
RTVSPost2010Prop41ColorRGB
 90
        0
102
RTVSPost2010PropOp41
 70
     1
102
RTVSPost2010Prop42
 90
       50
102
RTVSPost2010PropOp42
 70
     1
102
RTVSPost2010Prop43
 90
        3
102
RTVSPost2010PropOp43
 70
     1
102
RTVSPost2010Prop44ColorIndex
 90
        5
102
RTVSPost2010Prop44ColorRGB
 90
      255
102
RTVSPost2010PropOp44
 70
     1
102
RTVSPost2010Prop45
280
     0
102
RTVSPost2010PropOp45
 70
     1
102
RTVSPost2010Prop46
 90
       50
102
RTVSPost2010PropOp46
 70
     1
102
RTVSPost2010Prop47
 90
       50
102
RTVSPost2010PropOp47
 70
     1
102
RTVSPost2010Prop48
 90
       50
102
RTVSPost2010PropOp48
 70
     1
102
RTVSPost2010Prop49
280
     0
102
RTVSPost2010PropOp49
 70
     1
102
RTVSPost2010Prop50
 90
       50
102
RTVSPost2010PropOp50
 70
     1
102
RTVSPost2010Prop51ColorIndex
 90
      256
102
RTVSPost2010Prop51ColorRGB
 90
-16777216
102
RTVSPost2010PropOp51
 70
     0
102
RTVSPost2010Prop52
140
1.0
102
RTVSPost2010PropOp52
 70
     0
102
RTVSPost2010Prop53
 90
        2
102
RTVSPost2010PropOp53
 70
     1
102
RTVSPost2010Prop54
  1
strokes_ogs.tif
102
RTVSPost2010PropOp54
 70
     1
102
RTVSPost2010Prop55
280
     0
102
RTVSPost2010PropOp55
 70
     1
102
RTVSPost2010Prop56
140
1.0
102
RTVSPost2010PropOp56
 70
     1
102
RTVSPost2010Prop57
140
1.0
102
RTVSPost2010PropOp57
 70
     1
102
RTVSPropertyOp0
 70
     1
102
RTVSPropertyOp1
 70
     1
102
RTVSPropertyOp2
 70
     1
102
RTVSPropertyOp3
 70
     1
102
RTVSPropertyOp4
 70
     1
102
RTVSPropertyOp5
 70
     1
102
RTVSPropertyOp6
 70
     1
102
RTVSPropertyOp7
 70
     1
102
RTVSPropertyOp8
 70
     1
102
RTVSPropertyOp9
 70
     1
102
RTVSPropertyOp10
 70
     1
102
RTVSPropertyOp11
 70
     1
102
RTVSPropertyOp12
 70
     1
102
RTVSPropertyOp13
 70
     1
102
RTVSPropertyOp14
 70
     1
102
RTVSPropertyOp15
 70
     1
102
RTVSPropertyOp16
 70
     1
102
RTVSPropertyOp17
 70
     1
102
RTVSPropertyOp18
 70
     1
102
RTVSPropertyOp19
 70
     1
102
RTVSPropertyOp20
 70
     1
102
RTVSPropertyOp21
 70
     1
102
RTVSPropertyOp22
 70
     1
102
RTVSPropertyOp23
 70
     1
102
RTVSPropertyOp24
 70
     1
102
RTVSPropertyOp25
 70
     1
102
RTVSPropertyOp26
 70
     1
102
RTVSPropertyOp27
 70
     1
102
RTVSPropertyOp28
 70
     1
102
RTVSPropertyOp29
 70
     1
102
RTVSPropertyOp30
 70
     1
102
RTVSPropertyOp31
 70
     1
102
RTVSPropertyOp32
 70
     1
102
RTVSPropertyOp33
 70
     1
102
RTVSPropertyOp34
 70
     1
102
RTVSPropertyOp35
 70
     1
102
RTVSPropertyOp36
 70
     1
102
RTVSPropertyOp37
 70
     1
102
RTVSPropertyOp38
 70
     1
102
RTVSPropertyOp39
 70
     1
102
RTVSPropertyOp40
 70
     1
102
RTVSPropertyOp41
 70
     1
102
RTVSPropertyOp42
 70
     1
102
RTVSPropertyOp43
 70
     1
102
RTVSPropertyOp44
 70
     1
102
RTVSPropertyOp45
 70
     1
102
RTVSPropertyOp46
 70
     1
102
RTVSPropertyOp47
 70
     1
102
RTVSPropertyOp48
 70
     1
102
RTVSPropertyOp49
 70
     1
102
RTVSPropertyOp50
 70
     1
102
RTVSPropertyOp51
 70
     0
102
RTVSPropertyOp52
 70
     0
102
RTVSPropertyOp53
 70
     1
102
RTVSPropertyOp54
 70
     1
102
RTVSPropertyOp55
 70
     1
102
RTVSPropertyOp56
 70
     1
102
RTVSPropertyOp57
 70
     1
102
RTVSPropertyOp58
 70
     1
102
RTVSPropertyOp59
 70
     1
102
RTVSPropertyOp60
 70
     1
102
RTVSPropertyOp61
 70
     1
102
RTVSPropertyOp62
 70
     1
  0
ENDSEC
  0
EOF
