0
SECTION
2
HEADER
9
$ACADVER
1
AC1015
9
$DWGCODEPAGE
3
ANSI_1252
9
$HANDSEED
5
18f
9
$ANGBASE
50
0
9
$ANGDIR
70
0
9
$ATTMODE
70
1
9
$AUNITS
70
0
9
$AUPREC
70
0
9
$CECOLOR
62
256
9
$CELTSCALE
40
1
9
$CELTYPE
6
ByLayer
9
$CELWEIGHT
370
-1
9
$CLAYER
8
0
9
$CMLJUST
70
0
9
$CMLSCALE
40
1
9
$CMLSTYLE
2
Standard
9
$DIMSTYLE
2
Standard
9
$TEXTSIZE
40
0.2
9
$TEXTSTYLE
7
Standard
9
$LUNITS
70
2
9
$LUPREC
70
4
9
$EXTNAMES
290
1
9
$INSUNITS
70
4
9
$LTSCALE
40
1
9
$LWDISPLAY
290
0
9
$PDMODE
70
0
9
$PDSIZE
40
0
9
$PLINEGEN
70
0
0
ENDSEC
0
SECTION
2
CLASSES
0
CLASS
1
RASTERVARIABLES
2
AcDbRasterVariables
3
ISM
90
0
280
0
281
0
0
ENDSEC
0
SECTION
2
TABLES
0
TABLE
2
VPORT
5
185
100
AcDbSymbolTable
0
VPORT
5
1
100
AcDbSymbolTableRecord
100
AcDbViewportTableRecord
2
*Active
70
0
10
0
20
0
11
1
21
1
12
-1
22
1
13
0
23
0
14
0.5
24
0.5
15
10
25
10
16
0
26
0
36
1
17
0
27
0
37
0
0
ENDTAB
0
TABLE
2
LTYPE
5
186
100
AcDbSymbolTable
0
LTYPE
5
14
100
AcDbSymbolTableRecord
100
AcDbLinetypeTableRecord
70
0
2
ByBlock
3

72
65
73
0
40
0
0
LTYPE
5
15
100
AcDbSymbolTableRecord
100
AcDbLinetypeTableRecord
70
0
2
ByLayer
3

72
65
73
0
40
0
0
LTYPE
5
16
100
AcDbSymbolTableRecord
100
AcDbLinetypeTableRecord
70
0
2
CONTINUOUS
3
Solid line
72
65
73
0
40
0
0
LTYPE
5
3B
100
AcDbSymbolTableRecord
100
AcDbLinetypeTableRecord
70
0
2
DASHED
3
__ __ __ __ __ __ __ __ __
72
65
73
2
40
25.72
49
12.86
74
0
49
-12.86
74
0
0
LTYPE
5
3C
100
AcDbSymbolTableRecord
100
AcDbLinetypeTableRecord
70
0
2
HIDDEN
3
_ _ _ _ _ _ _ _ _ _ _ _ _ _ _
72
65
73
2
40
0.5
49
0.25
74
0
49
-0.25
74
0
0
LTYPE
5
3D
100
AcDbSymbolTableRecord
100
AcDbLinetypeTableRecord
70
0
2
PHANTOM
3
____ _ _ ____ _ _ _____ _ _ ____
72
65
73
6
40
50.5
49
18
74
0
49
-6.5
74
0
49
6.5
74
0
49
-6.5
74
0
49
6.5
74
0
49
-6.5
74
0
0
LTYPE
5
3E
100
AcDbSymbolTableRecord
100
AcDbLinetypeTableRecord
70
0
2
CENTER
3
____ _ ____ _ ____ _ ____
72
65
73
4
40
47.5
49
22
74
0
49
-8.5
74
0
49
8.5
74
0
49
-8.5
74
0
0
LTYPE
5
3F
100
AcDbSymbolTableRecord
100
AcDbLinetypeTableRecord
70
0
2
DOT
3
.........................
72
65
73
2
40
10
49
0
74
0
49
-10
74
0
0
LTYPE
5
40
100
AcDbSymbolTableRecord
100
AcDbLinetypeTableRecord
70
0
2
DASHDOT
3
_._._._._._._._._._._._._._._._.
72
65
73
4
40
70
49
31
74
0
49
-13
74
0
49
13
74
0
49
-13
74
0
0
ENDTAB
0
TABLE
2
LAYER
5
187
100
AcDbSymbolTable
0
LAYER
5
10
100
AcDbSymbolTableRecord
100
AcDbLayerTableRecord
2
0
70
0
62
7
6
CONTINUOUS
290
1
370
-3
390
0
0
LAYER
5
42
100
AcDbSymbolTableRecord
100
AcDbLayerTableRecord
2
80
70
0
62
-6
6
CONTINUOUS
290
1
370
-3
390
0
0
LAYER
5
44
100
AcDbSymbolTableRecord
100
AcDbLayerTableRecord
2
81
70
0
62
-3
6
CONTINUOUS
290
1
370
-3
390
0
0
LAYER
5
46
100
AcDbSymbolTableRecord
100
AcDbLayerTableRecord
2
1
70
0
62
4
6
CONTINUOUS
290
1
370
-3
390
0
0
LAYER
5
48
100
AcDbSymbolTableRecord
100
AcDbLayerTableRecord
2
2
70
0
62
7
6
CONTINUOUS
290
1
370
-3
390
0
0
LAYER
5
4F
100
AcDbSymbolTableRecord
100
AcDbLayerTableRecord
2
4
70
0
62
-2
6
CENTER
290
1
370
-3
390
0
0
LAYER
5
171
100
AcDbSymbolTableRecord
100
AcDbLayerTableRecord
2
SK4
70
0
62
2
6
CENTER
290
1
370
-3
390
0
0
LAYER
5
172
100
AcDbSymbolTableRecord
100
AcDbLayerTableRecord
2
SK1
70
0
62
4
6
CONTINUOUS
290
1
370
-3
390
0
0
LAYER
5
173
100
AcDbSymbolTableRecord
100
AcDbLayerTableRecord
2
SK6
70
0
62
5
6
CONTINUOUS
290
1
370
-3
390
0
0
LAYER
5
174
100
AcDbSymbolTableRecord
100
AcDbLayerTableRecord
2
SK2
70
0
62
7
6
CONTINUOUS
290
1
370
-3
390
0
0
ENDTAB
0
TABLE
2
STYLE
5
188
100
AcDbSymbolTable
0
STYLE
5
11
100
AcDbSymbolTableRecord
100
AcDbTextStyleTableRecord
2
Standard
3
txt
70
0
71
0
40
0
41
1
42
0
50
0
0
STYLE
5
ED
100
AcDbSymbolTableRecord
100
AcDbTextStyleTableRecord
2
DEFAULT
3
simplex.shx
70
0
71
0
40
0
41
1
42
0
50
0
0
STYLE
5
110
100
AcDbSymbolTableRecord
100
AcDbTextStyleTableRecord
2
DWGDirectTextStyle
3
SIMPLEX
70
0
71
0
40
0
41
1
42
0
50
0
0
ENDTAB
0
TABLE
2
DIMSTYLE
5
189
100
AcDbSymbolTable
100
AcDbDimStyleTable
0
DIMSTYLE
105
27
100
AcDbSymbolTableRecord
100
AcDbDimStyleTableRecord
2
Standard
70
0
3
<>
41
0.18
42
0.0625
44
0.18
140
0.18
147
0.09
73
0
74
0
77
1
271
2
275
0
278
52
280
0
340
11
0
ENDTAB
0
TABLE
2
VIEW
5
18a
100
AcDbSymbolTable
0
ENDTAB
0
TABLE
2
UCS
5
18b
100
AcDbSymbolTable
0
ENDTAB
0
TABLE
2
APPID
5
18c
100
AcDbSymbolTable
0
APPID
5
12
100
AcDbSymbolTableRecord
100
AcDbRegAppTableRecord
2
ACAD
70
0
0
ENDTAB
0
TABLE
2
BLOCK_RECORD
5
18d
100
AcDbSymbolTable
0
BLOCK_RECORD
5
1F
100
AcDbSymbolTableRecord
100
AcDbBlockTableRecord
2
*Model_Space
340
0
70
0
0
BLOCK_RECORD
5
1B
100
AcDbSymbolTableRecord
100
AcDbBlockTableRecord
2
*Paper_Space
340
0
70
0
0
BLOCK_RECORD
5
23
100
AcDbSymbolTableRecord
100
AcDbBlockTableRecord
2
*Paper_Space0
340
0
70
0
0
BLOCK_RECORD
5
112
100
AcDbSymbolTableRecord
100
AcDbBlockTableRecord
2
DimnDraft3D1
340
0
70
0
0
BLOCK_RECORD
5
120
100
AcDbSymbolTableRecord
100
AcDbBlockTableRecord
2
_CLOSED
340
0
70
0
0
BLOCK_RECORD
5
127
100
AcDbSymbolTableRecord
100
AcDbBlockTableRecord
2
DimnDraft3D2
340
0
70
0
0
BLOCK_RECORD
5
136
100
AcDbSymbolTableRecord
100
AcDbBlockTableRecord
2
DimnDraft3D3
340
0
70
0
0
BLOCK_RECORD
5
144
100
AcDbSymbolTableRecord
100
AcDbBlockTableRecord
2
DimnDraft3D4
340
0
70
0
0
ENDTAB
0
ENDSEC
0
SECTION
2
BLOCKS
0
BLOCK
5
20
100
AcDbEntity
8
0
100
AcDbBlockBegin
2
*Model_Space
70
0
10
0
20
0
30
0
3
*Model_Space
0
ENDBLK
5
21
100
AcDbEntity
8
0
100
AcDbBlockEnd
0
BLOCK
5
1C
100
AcDbEntity
8
0
100
AcDbBlockBegin
2
*Paper_Space
70
0
10
0
20
0
30
0
3
*Paper_Space
0
ENDBLK
5
1D
100
AcDbEntity
8
0
100
AcDbBlockEnd
0
BLOCK
5
24
100
AcDbEntity
8
0
100
AcDbBlockBegin
2
*Paper_Space0
70
0
10
0
20
0
30
0
3
*Paper_Space0
0
ENDBLK
5
25
100
AcDbEntity
8
0
100
AcDbBlockEnd
0
BLOCK
5
11D
100
AcDbEntity
8
0
100
AcDbBlockBegin
2
DimnDraft3D1
70
0
10
0
20
0
30
0
3
DimnDraft3D1
0
MTEXT
5
113
100
AcDbEntity
8
2
62
256
6
ByLayer
370
-1
48
1
60
0
100
AcDbMText
10
171.039
20
-17.488158
30
0
210
0
220
0
230
1
1
\W01.000;\fsimplex.shx,bigfont.shx;27.0 
40
4.5
41
0
44
1.084337
50
90
71
7
72
5
7
DEFAULT
0
LINE
5
114
100
AcDbEntity
8
2
62
256
6
ByLayer
370
-1
48
1
60
0
100
AcDbLine
10
161.914
20
-26.9
30
0
11
174.164
21
-26.9
31
0
39
0
210
0
220
0
230
1
0
LINE
5
115
100
AcDbEntity
8
2
62
256
6
ByLayer
370
-1
48
1
60
0
100
AcDbLine
10
161.914
20
0
30
0
11
174.164
21
0
31
0
39
0
210
0
220
0
230
1
0
LINE
5
116
100
AcDbEntity
8
2
62
256
6
ByLayer
370
-1
48
1
60
0
100
AcDbLine
10
172.164
20
-26.9
30
0
11
172.164
21
0
31
0
39
0
210
0
220
0
230
1
0
LINE
5
117
100
AcDbEntity
8
2
62
256
6
ByLayer
370
-1
48
1
60
0
100
AcDbLine
10
172.164
20
-26.9
30
0
11
171.746003
21
-23.725002
31
0
39
0
210
0
220
0
230
1
0
LINE
5
118
100
AcDbEntity
8
2
62
256
6
ByLayer
370
-1
48
1
60
0
100
AcDbLine
10
172.164
20
-26.9
30
0
11
172.581997
21
-23.724998
31
0
39
0
210
0
220
0
230
1
0
LINE
5
119
100
AcDbEntity
8
2
62
256
6
ByLayer
370
-1
48
1
60
0
100
AcDbLine
10
171.746003
20
-23.725002
30
0
11
172.581997
21
-23.724998
31
0
39
0
210
0
220
0
230
1
0
LINE
5
11A
100
AcDbEntity
8
2
62
256
6
ByLayer
370
-1
48
1
60
0
100
AcDbLine
10
172.164
20
0
30
0
11
172.581997
21
-3.174998
31
0
39
0
210
0
220
0
230
1
0
LINE
5
11B
100
AcDbEntity
8
2
62
256
6
ByLayer
370
-1
48
1
60
0
100
AcDbLine
10
172.164
20
0
30
0
11
171.746003
21
-3.175002
31
0
39
0
210
0
220
0
230
1
0
LINE
5
11C
100
AcDbEntity
8
2
62
256
6
ByLayer
370
-1
48
1
60
0
100
AcDbLine
10
172.581997
20
-3.174998
30
0
11
171.746003
21
-3.175002
31
0
39
0
210
0
220
0
230
1
0
ENDBLK
5
11E
100
AcDbEntity
8
0
100
AcDbBlockEnd
0
BLOCK
5
121
100
AcDbEntity
8
0
100
AcDbBlockBegin
2
_CLOSED
70
0
10
0
20
0
30
0
3
_CLOSED
0
LINE
5
123
100
AcDbEntity
8
0
62
256
6
ByLayer
370
-2
48
1
60
0
100
AcDbLine
10
-1
20
0.166667
30
0
11
0
21
0
31
0
39
0
210
0
220
0
230
1
0
LINE
5
124
100
AcDbEntity
8
0
62
256
6
ByLayer
370
-2
48
1
60
0
100
AcDbLine
10
0
20
0
30
0
11
-1
21
-0.166667
31
0
39
0
210
0
220
0
230
1
0
LINE
5
125
100
AcDbEntity
8
0
62
256
6
ByLayer
370
-2
48
1
60
0
100
AcDbLine
10
-1
20
0.166667
30
0
11
-1
21
-0.166667
31
0
39
0
210
0
220
0
230
1
0
LINE
5
126
100
AcDbEntity
8
0
62
256
6
ByLayer
370
-2
48
1
60
0
100
AcDbLine
10
0
20
0
30
0
11
-1
21
0
31
0
39
0
210
0
220
0
230
1
0
ENDBLK
5
122
100
AcDbEntity
8
0
100
AcDbBlockEnd
0
BLOCK
5
133
100
AcDbEntity
8
0
100
AcDbBlockBegin
2
DimnDraft3D2
70
0
10
0
20
0
30
0
3
DimnDraft3D2
0
MTEXT
5
128
100
AcDbEntity
8
SK2
62
256
6
ByLayer
370
-1
48
1
60
0
100
AcDbMText
10
-152.211
20
-3.896053
30
0
210
0
220
0
230
1
1
\W01.000;\fsimplex.shx,bigfont.shx;%%c40 
40
4.5
41
0
44
1.084337
50
90
71
7
72
5
7
DEFAULT
0
LINE
5
12A
100
AcDbEntity
8
SK2
62
256
6
ByLayer
370
-1
48
1
60
0
100
AcDbLine
10
-143.336
20
-19.98925
30
0
11
-153.086
21
-19.98925
31
0
39
0
210
0
220
0
230
1
0
LINE
5
12B
100
AcDbEntity
8
SK2
62
256
6
ByLayer
370
-1
48
1
60
0
100
AcDbLine
10
-143.336
20
19.98925
30
0
11
-153.086
21
19.98925
31
0
39
0
210
0
220
0
230
1
0
LINE
5
12C
100
AcDbEntity
8
SK2
62
256
6
ByLayer
370
-1
48
1
60
0
100
AcDbLine
10
-151.086
20
-19.98925
30
0
11
-151.086
21
19.98925
31
0
39
0
210
0
220
0
230
1
0
LINE
5
12D
100
AcDbEntity
8
SK2
62
256
6
ByLayer
370
-1
48
1
60
0
100
AcDbLine
10
-151.086
20
-19.98925
30
0
11
-151.503997
21
-16.814252
31
0
39
0
210
0
220
0
230
1
0
LINE
5
12E
100
AcDbEntity
8
SK2
62
256
6
ByLayer
370
-1
48
1
60
0
100
AcDbLine
10
-151.086
20
-19.98925
30
0
11
-150.668003
21
-16.814248
31
0
39
0
210
0
220
0
230
1
0
LINE
5
12F
100
AcDbEntity
8
SK2
62
256
6
ByLayer
370
-1
48
1
60
0
100
AcDbLine
10
-151.503997
20
-16.814252
30
0
11
-150.668003
21
-16.814248
31
0
39
0
210
0
220
0
230
1
0
LINE
5
130
100
AcDbEntity
8
SK2
62
256
6
ByLayer
370
-1
48
1
60
0
100
AcDbLine
10
-151.086
20
19.98925
30
0
11
-150.668003
21
16.814252
31
0
39
0
210
0
220
0
230
1
0
LINE
5
131
100
AcDbEntity
8
SK2
62
256
6
ByLayer
370
-1
48
1
60
0
100
AcDbLine
10
-151.086
20
19.98925
30
0
11
-151.503997
21
16.814248
31
0
39
0
210
0
220
0
230
1
0
LINE
5
132
100
AcDbEntity
8
SK2
62
256
6
ByLayer
370
-1
48
1
60
0
100
AcDbLine
10
-150.668003
20
16.814252
30
0
11
-151.503997
21
16.814248
31
0
39
0
210
0
220
0
230
1
0
ENDBLK
5
134
100
AcDbEntity
8
0
100
AcDbBlockEnd
0
BLOCK
5
141
100
AcDbEntity
8
0
100
AcDbBlockBegin
2
DimnDraft3D3
70
0
10
0
20
0
30
0
3
DimnDraft3D3
0
MTEXT
5
137
100
AcDbEntity
8
SK2
62
256
6
ByLayer
370
-1
48
1
60
0
100
AcDbMText
10
3.598868
20
-43.025
30
0
210
0
220
0
230
1
1
\W01.000;\fsimplex.shx,bigfont.shx;300.0 
40
4.5
41
0
44
1.084337
50
0
71
7
72
5
7
DEFAULT
0
LINE
5
138
100
AcDbEntity
8
SK2
62
256
6
ByLayer
370
-1
48
1
60
0
100
AcDbLine
10
-141.336
20
-21.98925
30
0
11
-141.336
21
-46.15
31
0
39
0
210
0
220
0
230
1
0
LINE
5
139
100
AcDbEntity
8
SK2
62
256
6
ByLayer
370
-1
48
1
60
0
100
AcDbLine
10
159.914
20
-28.9
30
0
11
159.914
21
-46.15
31
0
39
0
210
0
220
0
230
1
0
LINE
5
13A
100
AcDbEntity
8
SK2
62
256
6
ByLayer
370
-1
48
1
60
0
100
AcDbLine
10
-141.336
20
-44.15
30
0
11
159.914
21
-44.15
31
0
39
0
210
0
220
0
230
1
0
LINE
5
13B
100
AcDbEntity
8
SK2
62
256
6
ByLayer
370
-1
48
1
60
0
100
AcDbLine
10
-141.336
20
-44.15
30
0
11
-138.161002
21
-43.732003
31
0
39
0
210
0
220
0
230
1
0
LINE
5
13C
100
AcDbEntity
8
SK2
62
256
6
ByLayer
370
-1
48
1
60
0
100
AcDbLine
10
-141.336
20
-44.15
30
0
11
-138.160998
21
-44.567997
31
0
39
0
210
0
220
0
230
1
0
LINE
5
13D
100
AcDbEntity
8
SK2
62
256
6
ByLayer
370
-1
48
1
60
0
100
AcDbLine
10
-138.161002
20
-43.732003
30
0
11
-138.160998
21
-44.567997
31
0
39
0
210
0
220
0
230
1
0
LINE
5
13E
100
AcDbEntity
8
SK2
62
256
6
ByLayer
370
-1
48
1
60
0
100
AcDbLine
10
159.914
20
-44.15
30
0
11
156.739002
21
-44.567997
31
0
39
0
210
0
220
0
230
1
0
LINE
5
13F
100
AcDbEntity
8
SK2
62
256
6
ByLayer
370
-1
48
1
60
0
100
AcDbLine
10
159.914
20
-44.15
30
0
11
156.738998
21
-43.732003
31
0
39
0
210
0
220
0
230
1
0
LINE
5
140
100
AcDbEntity
8
SK2
62
256
6
ByLayer
370
-1
48
1
60
0
100
AcDbLine
10
156.739002
20
-44.567997
30
0
11
156.738998
21
-43.732003
31
0
39
0
210
0
220
0
230
1
0
ENDBLK
5
142
100
AcDbEntity
8
0
100
AcDbBlockEnd
0
BLOCK
5
14F
100
AcDbEntity
8
0
100
AcDbBlockBegin
2
DimnDraft3D4
70
0
10
0
20
0
30
0
3
DimnDraft3D4
0
MTEXT
5
145
100
AcDbEntity
8
2
62
256
6
ByLayer
370
-1
48
1
60
0
100
AcDbMText
10
159.821851
20
37.237403
30
0
210
0
220
0
230
1
1
\W01.000;\fsimplex.shx,bigfont.shx;117%%d30' 
40
4.5
41
0
44
1.084337
50
328.75
71
7
72
5
7
DEFAULT
0
LINE
5
146
100
AcDbEntity
8
2
62
256
6
ByLayer
370
-1
48
1
60
0
100
AcDbLine
10
151.602525
20
-10.933805
30
0
11
127.474783
21
35.415155
31
0
39
0
210
0
220
0
230
1
0
LINE
5
147
100
AcDbEntity
8
2
62
256
6
ByLayer
370
-1
48
1
60
0
100
AcDbLine
10
161.914
20
0
30
0
11
185.837153
21
0
31
0
39
0
210
0
220
0
230
1
0
ARC
5
148
100
AcDbEntity
8
2
62
256
6
ByLayer
370
-1
48
1
60
0
100
AcDbCircle
39
0
10
145.910746
20
0
30
0
40
37.9264068640928
210
0
220
0
230
1
100
AcDbArc
50
0
51
117.5
0
LINE
5
149
100
AcDbEntity
8
2
62
256
6
ByLayer
370
-1
48
1
60
0
100
AcDbLine
10
128.398281
20
33.641134
30
0
11
131.059372
21
35.422686
31
0
39
0
210
0
220
0
230
1
0
LINE
5
14A
100
AcDbEntity
8
2
62
256
6
ByLayer
370
-1
48
1
60
0
100
AcDbLine
10
128.398281
20
33.641134
30
0
11
131.4298
21
34.67324
31
0
39
0
210
0
220
0
230
1
0
LINE
5
14B
100
AcDbEntity
8
2
62
256
6
ByLayer
370
-1
48
1
60
0
100
AcDbLine
10
131.059372
20
35.422686
30
0
11
131.4298
21
34.67324
31
0
39
0
210
0
220
0
230
1
0
LINE
5
14C
100
AcDbEntity
8
2
62
256
6
ByLayer
370
-1
48
1
60
0
100
AcDbLine
10
183.837153
20
0
30
0
11
183.352843
21
3.165562
31
0
39
0
210
0
220
0
230
1
0
LINE
5
14D
100
AcDbEntity
8
2
62
256
6
ByLayer
370
-1
48
1
60
0
100
AcDbLine
10
183.837153
20
0
30
0
11
184.188653
21
3.183049
31
0
39
0
210
0
220
0
230
1
0
LINE
5
14E
100
AcDbEntity
8
2
62
256
6
ByLayer
370
-1
48
1
60
0
100
AcDbLine
10
183.352843
20
3.165562
30
0
11
184.188653
21
3.183049
31
0
39
0
210
0
220
0
230
1
0
ENDBLK
5
150
100
AcDbEntity
8
0
100
AcDbBlockEnd
0
ENDSEC
0
SECTION
2
ENTITIES
0
ELLIPSE
5
96
100
AcDbEntity
8
1
62
256
6
ByLayer
370
-1
48
1
60
0
100
AcDbEllipse
10
139.695992
20
-8.571613
30
0
11
1.74298313832705
21
0.907339591480256
31
0
210
0
220
0
230
1
40
0.98748
41
1.98218070164048
42
-2.5307274153915
0
ELLIPSE
5
97
100
AcDbEntity
8
1
62
256
6
ByLayer
370
-1
48
1
60
0
100
AcDbEllipse
10
138.886698
20
-5.48803
30
0
11
-1.33051624976734
21
-0.692622919852544
31
0
210
0
220
0
230
1
40
0.98748
41
0.407941867974657
42
2.13066616624789
0
ELLIPSE
5
98
100
AcDbEntity
8
1
62
256
6
ByLayer
370
-1
48
1
60
0
100
AcDbEllipse
10
204.314427
20
-0.151479
30
0
11
271.554833343666
21
2.75862685905993
31
0
210
0
220
0
230
-1
40
0.072064
41
1.83497533226106
42
1.83676778536957
0
ELLIPSE
5
99
100
AcDbEntity
8
1
62
256
6
ByLayer
370
-1
48
1
60
0
100
AcDbEllipse
10
138.839353
20
-5.39708
30
0
11
1.33051624976736
21
0.6926229198525
31
0
210
0
220
0
230
1
40
0.98748
41
-2.69554925115479
42
-0.445972675465487
0
ELLIPSE
5
9A
100
AcDbEntity
8
1
62
256
6
ByLayer
370
-1
48
1
60
0
100
AcDbEllipse
10
160.335851
20
-11.441856
30
0
11
7.09608666542587
21
3.69398890587998
31
0
210
0
220
0
230
1
40
0.98748
41
2.78853139647605
42
2.84315978503166
0
ELLIPSE
5
9B
100
AcDbEntity
8
1
62
256
6
ByLayer
370
-1
48
1
60
0
100
AcDbEllipse
10
64.162264
20
-296.297501
30
0
11
110.057067586159
21
408.887031281713
31
0
210
4.12919380076623E-31
220
1.73565639128712E-16
230
1
40
0.116849
41
0.765005407053453
42
0.81871556723674
0
ELLIPSE
5
9C
100
AcDbEntity
8
1
62
256
6
ByLayer
370
-1
48
1
60
0
100
AcDbEllipse
10
139.429358
20
-6.53047
30
0
11
-1.33051624976734
21
-0.692622919852544
31
0
210
0
220
0
230
1
40
0.98748
41
2.3582768429027
42
0.104917041938762
0
ELLIPSE
5
9D
100
AcDbEntity
8
1
62
256
6
ByLayer
370
-1
48
1
60
0
100
AcDbEllipse
10
139.153332
20
-7.529173
30
0
11
-1.44139260391462
21
-0.750341496506922
31
0
210
0
220
0
230
1
40
0.98748
41
0.150360909194723
42
0.610865238198039
0
ELLIPSE
5
9E
100
AcDbEntity
8
1
62
256
6
ByLayer
370
-1
48
1
60
0
100
AcDbEllipse
10
139.180821
20
-6.053034
30
0
11
2.49140710183648
21
-1.54808470514123
31
0
210
0
220
0
230
-1
40
0.048107
41
-1.09194951291426
42
-0.864338833842926
0
ELLIPSE
5
9F
100
AcDbEntity
8
1
62
256
6
ByLayer
370
-1
48
1
60
0
100
AcDbEllipse
10
139.37535
20
-7.955664
30
0
11
-1.44139260391462
21
-0.750341496506922
31
0
210
0
220
0
230
1
40
0.98748
41
-0.323305650953507
42
0.610865238198005
0
ELLIPSE
5
A0
100
AcDbEntity
8
1
62
256
6
ByLayer
370
-1
48
1
60
0
100
AcDbEllipse
10
146.621381
20
-20.139422
30
0
11
0.341423626907064
21
0.211383561773283
31
0
210
0
220
0
230
-1
40
0.98392
41
2.60633173579925
42
-3.06838749424513
0
ELLIPSE
5
A1
100
AcDbEntity
8
1
62
256
6
ByLayer
370
-1
48
1
60
0
100
AcDbEllipse
10
140.442619
20
-6.698351
30
0
11
0.382781434971666
21
1.55015619147291
31
0
210
0
220
0
230
-1
40
0.350517
41
-2.43007311451627
42
-1.86823319309878
0
ELLIPSE
5
A2
100
AcDbEntity
8
1
62
256
6
ByLayer
370
-1
48
1
60
0
100
AcDbEllipse
10
140.442619
20
-6.698351
30
0
11
0.872128061017904
21
-0.484186727118336
31
0
210
0
220
0
230
-1
40
0.04248
41
1.03607666449462
42
1.80803396954086
0
ELLIPSE
5
A3
100
AcDbEntity
8
1
62
256
6
ByLayer
370
-1
48
1
60
0
100
AcDbEllipse
10
149.788355
20
-16.77865
30
0
11
2.66103249953477
21
1.38524583970503
31
0
210
0
220
0
230
1
40
0.98748
41
2.89079128037102
42
0
0
ELLIPSE
5
A4
100
AcDbEntity
8
1
62
256
6
ByLayer
370
-1
48
1
60
0
100
AcDbEllipse
10
149.788355
20
-16.77865
30
0
11
2.66103249953477
21
1.38524583970503
31
0
210
0
220
0
230
1
40
0.98748
41
0
42
0.250871537658555
0
ELLIPSE
5
A5
100
AcDbEntity
8
1
62
256
6
ByLayer
370
-1
48
1
60
0
100
AcDbEllipse
10
140.535714
20
-7.340113
30
0
11
0.741596170015153
21
0.284715813437526
31
0
210
0
220
0
230
-1
40
0.990322
41
-2.35931640280401
42
-1.61994531581358
0
ELLIPSE
5
A6
100
AcDbEntity
8
1
62
256
6
ByLayer
370
-1
48
1
60
0
100
AcDbEllipse
10
140.590253
20
-7.716085
30
0
11
0.741596169998023
21
0.28471581346999
31
0
210
0
220
0
230
-1
40
0.990322
41
-3.13127370744119
42
-0.847988011087641
0
ELLIPSE
5
A7
100
AcDbEntity
8
1
62
256
6
ByLayer
370
-1
48
1
60
0
100
AcDbEllipse
10
159.13505
20
-26.126658
30
0
11
0.741596169998638
21
0.284715813468281
31
0
210
0
220
0
230
-1
40
0.990322
41
0.0103189461469542
42
2.29360464250005
0
ELLIPSE
5
A8
100
AcDbEntity
8
1
62
256
6
ByLayer
370
-1
48
1
60
0
100
AcDbEllipse
10
153.103922
20
-13.703321
30
0
11
0.341423626196597
21
0.211383563407227
31
0
210
0
220
0
230
-1
40
0.98392
41
-0.535260913295183
42
0.0732051636407056
0
ELLIPSE
5
A9
100
AcDbEntity
8
1
62
256
6
ByLayer
370
-1
48
1
60
0
100
AcDbEllipse
10
149.776612
20
-16.756092
30
0
11
2.61176051938556
21
1.35959647032391
31
0
210
0
220
0
230
1
40
0.98748
41
2.65644809193817
42
0
0
ELLIPSE
5
AA
100
AcDbEntity
8
1
62
256
6
ByLayer
370
-1
48
1
60
0
100
AcDbEllipse
10
149.776612
20
-16.756092
30
0
11
2.61176051938556
21
1.35959647032391
31
0
210
0
220
0
230
1
40
0.98748
41
0
42
0.532142466245242
0
ELLIPSE
5
AB
100
AcDbEntity
8
1
62
256
6
ByLayer
370
-1
48
1
60
0
100
AcDbEllipse
10
149.776612
20
-16.756092
30
0
11
2.61176051938556
21
1.35959647032391
31
0
210
0
220
0
230
1
40
0.98748
41
2.6094222514474
42
2.65644809193816
0
ELLIPSE
5
AC
100
AcDbEntity
8
1
62
256
6
ByLayer
370
-1
48
1
60
0
100
AcDbEllipse
10
149.862651
20
-16.921372
30
0
11
2.70053478346831
21
1.40580942714236
31
0
210
0
220
0
230
1
40
0.98748
41
0
42
6.28318530717959
0
ELLIPSE
5
AD
100
AcDbEntity
8
1
62
256
6
ByLayer
370
-1
48
1
60
0
100
AcDbEllipse
10
151.55712
20
-17.158514
30
0
11
-0.608489431560262
21
-0.31675954867923
31
0
210
0
220
0
230
1
40
0.98748
41
-0.743160205938296
42
-1.1187400832839E-05
0
ELLIPSE
5
AE
100
AcDbEntity
8
1
62
256
6
ByLayer
370
-1
48
1
60
0
100
AcDbEllipse
10
148.401332
20
-18.006661
30
0
11
-0.608489431560262
21
-0.31675954867923
31
0
210
0
220
0
230
1
40
0.98748
41
3.14158306341965
42
-2.95777407570813
0
ELLIPSE
5
AF
100
AcDbEntity
8
1
62
256
6
ByLayer
370
-1
48
1
60
0
100
AcDbEllipse
10
148.400629
20
-17.038341
30
0
11
-0.259007163288042
21
-0.134830595064628
31
0
210
0
220
0
230
1
40
0.98748
41
0.474679371481426
42
1.09669395402039
0
ELLIPSE
5
B0
100
AcDbEntity
8
1
62
256
6
ByLayer
370
-1
48
1
60
0
100
AcDbEllipse
10
149.821224
20
-16.841791
30
0
11
1.07017857022955
21
0.557099701868029
31
0
210
0
220
0
230
1
40
0.98748
41
-2.9051926679029
42
-2.76712740107866
0
ELLIPSE
5
B1
100
AcDbEntity
8
1
62
256
6
ByLayer
370
-1
48
1
60
0
100
AcDbEllipse
10
149.840989
20
-16.879759
30
0
11
1.48707366182331
21
0.774121550088471
31
0
210
0
220
0
230
1
40
0.98748
41
-0.220956704180596
42
0.831821942378668
0
ELLIPSE
5
B2
100
AcDbEntity
8
1
62
256
6
ByLayer
370
-1
48
1
60
0
100
AcDbEllipse
10
150.708549
20
-17.644694
30
0
11
-0.259007163288042
21
-0.134830595064628
31
0
210
0
220
0
230
1
40
0.98748
41
0.570034800514994
42
3.06682402163577
0
ELLIPSE
5
B3
100
AcDbEntity
8
1
62
256
6
ByLayer
370
-1
48
1
60
0
100
AcDbEllipse
10
149.820927
20
-16.841219
30
0
11
2.32840343709291
21
1.21209010974189
31
0
210
0
220
0
230
1
40
0.98748
41
0
42
6.28318530717959
0
ELLIPSE
5
B4
100
AcDbEntity
8
1
62
256
6
ByLayer
370
-1
48
1
60
0
100
AcDbEllipse
10
151.073758
20
-16.322398
30
0
11
-0.259007163288042
21
-0.134830595064628
31
0
210
0
220
0
230
1
40
0.98748
41
1.61444180403041
42
2.74437666529653
0
ELLIPSE
5
B5
100
AcDbEntity
8
1
62
256
6
ByLayer
370
-1
48
1
60
0
100
AcDbEllipse
10
149.737194
20
-16.680369
30
0
11
1.07017857022955
21
0.557099701868029
31
0
210
0
220
0
230
1
40
0.98748
41
-1.78756720945353
42
-0.743160205938275
0
ELLIPSE
5
B6
100
AcDbEntity
8
1
62
256
6
ByLayer
370
-1
48
1
60
0
100
AcDbEllipse
10
149.840989
20
-16.879759
30
0
11
1.48707366182331
21
0.774121550088471
31
0
210
0
220
0
230
1
40
0.98748
41
2.92063594940916
42
-2.30977071121113
0
ELLIPSE
5
B7
100
AcDbEntity
8
1
62
256
6
ByLayer
370
-1
48
1
60
0
100
AcDbEllipse
10
149.737194
20
-16.680369
30
0
11
-1.07017857022954
21
-0.557099701868069
31
0
210
0
220
0
230
1
40
0.98748
41
2.39843244765154
42
-3.07128921803202
0
ELLIPSE
5
B8
100
AcDbEntity
8
1
62
256
6
ByLayer
370
-1
48
1
60
0
100
AcDbEllipse
10
149.840989
20
-16.879759
30
0
11
1.48707366182331
21
0.774121550088471
31
0
210
0
220
0
230
1
40
0.98748
41
0.831821942378668
42
1.87622894589386
0
ELLIPSE
5
B9
100
AcDbEntity
8
1
62
256
6
ByLayer
370
-1
48
1
60
0
100
AcDbEllipse
10
149.737194
20
-16.680369
30
0
11
-1.07017857022954
21
-0.557099701868069
31
0
210
0
220
0
230
1
40
0.98748
41
-2.74175079360801
42
-2.13407164419911
0
ELLIPSE
5
BA
100
AcDbEntity
8
1
62
256
6
ByLayer
370
-1
48
1
60
0
100
AcDbEllipse
10
149.737194
20
-16.680369
30
0
11
-1.07017857022954
21
-0.557099701868069
31
0
210
0
220
0
230
1
40
0.98748
41
-0.42059428962489
42
0.236399985686789
0
ELLIPSE
5
BB
100
AcDbEntity
8
1
62
256
6
ByLayer
370
-1
48
1
60
0
100
AcDbEllipse
10
149.840989
20
-16.879759
30
0
11
1.48707366182331
21
0.774121550088471
31
0
210
0
220
0
230
1
40
0.98748
41
-1.26536370769582
42
-0.220956704180596
0
ELLIPSE
5
BC
100
AcDbEntity
8
1
62
256
6
ByLayer
370
-1
48
1
60
0
100
AcDbEllipse
10
149.840989
20
-16.879759
30
0
11
1.59661949972085
21
0.831147503823009
31
0
210
0
220
0
230
1
40
0.98748
41
0
42
6.28318530717959
0
ELLIPSE
5
BD
100
AcDbEntity
8
1
62
256
6
ByLayer
370
-1
48
1
60
0
100
AcDbEllipse
10
149.737194
20
-16.680369
30
0
11
1.07017857022955
21
0.557099701868029
31
0
210
0
220
0
230
1
40
0.98748
41
-2.90519266790297
42
-2.76712740107857
0
ELLIPSE
5
BE
100
AcDbEntity
8
1
62
256
6
ByLayer
370
-1
48
1
60
0
100
AcDbEllipse
10
151.55712
20
-17.158514
30
0
11
-0.608489431560262
21
-0.31675954867923
31
0
210
0
220
0
230
1
40
0.98748
41
-1.5271508495592
42
-0.743160205938296
0
ELLIPSE
5
BF
100
AcDbEntity
8
1
62
256
6
ByLayer
370
-1
48
1
60
0
100
AcDbEllipse
10
149.737194
20
-16.680369
30
0
11
-1.07017857022954
21
-0.557099701868069
31
0
210
0
220
0
230
1
40
0.98748
41
-1.48467248296985
42
-0.903002737004466
0
ELLIPSE
5
C0
100
AcDbEntity
8
1
62
256
6
ByLayer
370
-1
48
1
60
0
100
AcDbEllipse
10
150.218874
20
-18.487173
30
0
11
-0.608489431560262
21
-0.31675954867923
31
0
210
0
220
0
230
1
40
0.98748
41
-2.5715578530742
42
-1.78756720945357
0
ELLIPSE
5
C1
100
AcDbEntity
8
1
62
256
6
ByLayer
370
-1
48
1
60
0
100
AcDbEllipse
10
149.376675
20
-18.007323
30
0
11
-0.259007163288042
21
-0.134830595064628
31
0
210
0
220
0
230
1
40
0.98748
41
0.360321391266275
42
2.13801608775686
0
ELLIPSE
5
C2
100
AcDbEntity
8
1
62
256
6
ByLayer
370
-1
48
1
60
0
100
AcDbEllipse
10
150.218874
20
-18.487173
30
0
11
-0.608489431560262
21
-0.31675954867923
31
0
210
0
220
0
230
1
40
0.98748
41
-1.78756720945357
42
-1.00357656583274
0
ELLIPSE
5
C3
100
AcDbEntity
8
1
62
256
6
ByLayer
370
-1
48
1
60
0
100
AcDbEllipse
10
149.821224
20
-16.841791
30
0
11
1.07017857022955
21
0.557099701868029
31
0
210
0
220
0
230
1
40
0.98748
41
0.2363999856873
42
0.374465252510728
0
ELLIPSE
5
C4
100
AcDbEntity
8
1
62
256
6
ByLayer
370
-1
48
1
60
0
100
AcDbEllipse
10
149.840989
20
-16.879759
30
0
11
1.48707366182331
21
0.774121550088471
31
0
210
0
220
0
230
1
40
0.98748
41
-2.30977071121113
42
-1.26536370769582
0
ELLIPSE
5
C5
100
AcDbEntity
8
1
62
256
6
ByLayer
370
-1
48
1
60
0
100
AcDbEllipse
10
148.401332
20
-18.006661
30
0
11
-0.608489431560262
21
-0.31675954867923
31
0
210
0
220
0
230
1
40
0.98748
41
-2.71454599327333
42
-2.04489869956945
0
ELLIPSE
5
C6
100
AcDbEntity
8
1
62
256
6
ByLayer
370
-1
48
1
60
0
100
AcDbEllipse
10
149.737194
20
-16.680369
30
0
11
-1.07017857022954
21
-0.557099701868069
31
0
210
0
220
0
230
1
40
0.98748
41
0.374465252511224
42
1.35402544413624
0
ELLIPSE
5
C7
100
AcDbEntity
8
1
62
256
6
ByLayer
370
-1
48
1
60
0
100
AcDbEllipse
10
149.840989
20
-16.879759
30
0
11
1.48707366182331
21
0.774121550088471
31
0
210
0
220
0
230
1
40
0.98748
41
1.87622894589386
42
2.92063594940916
0
ELLIPSE
5
C8
100
AcDbEntity
8
1
62
256
6
ByLayer
370
-1
48
1
60
0
100
AcDbEllipse
10
151.073055
20
-15.354078
30
0
11
-0.608489431560262
21
-0.31675954867923
31
0
210
0
220
0
230
1
40
0.98748
41
-0.485828715822206
42
-9.73216889959427E-06
0
ELLIPSE
5
C9
100
AcDbEntity
8
1
62
256
6
ByLayer
370
-1
48
1
60
0
100
AcDbEllipse
10
149.739014
20
-16.683867
30
0
11
2.32840343709292
21
1.2120901097419
31
0
210
0
220
0
230
1
40
0.98748
41
2.6564480576931
42
-3.14155744377803
0
ELLIPSE
5
CA
100
AcDbEntity
8
1
62
256
6
ByLayer
370
-1
48
1
60
0
100
AcDbEllipse
10
149.739014
20
-16.683867
30
0
11
2.32840343709292
21
1.2120901097419
31
0
210
0
220
0
230
1
40
0.98748
41
0
42
2.65644823577753
0
ELLIPSE
5
CB
100
AcDbEntity
8
1
62
256
6
ByLayer
370
-1
48
1
60
0
100
AcDbEllipse
10
140.229167
20
-6.91144
30
0
11
-0.381414658266637
21
-0.198551903691062
31
0
210
0
220
0
230
1
40
0.98748
41
-2.22913703703767
42
-0.228953926910078
0
POINT
5
41
100
AcDbEntity
8
80
62
256
6
ByLayer
370
-1
48
1
60
0
100
AcDbPoint
10
0
20
0
30
0
39
0
210
0
220
0
230
1
50
360
0
POINT
5
43
100
AcDbEntity
8
81
62
256
6
ByLayer
370
-1
48
1
60
0
100
AcDbPoint
10
159.914
20
-26.9
30
0
39
0
210
0
220
0
230
1
50
360
0
POINT
5
45
100
AcDbEntity
8
1
62
256
6
ByLayer
370
-1
48
1
60
0
100
AcDbPoint
10
-141.336
20
0
30
0
39
0
210
0
220
0
230
1
50
360
0
POINT
5
47
100
AcDbEntity
8
2
62
256
6
ByLayer
370
-1
48
1
60
0
100
AcDbPoint
10
159.914
20
26.9
30
0
39
0
210
0
220
0
230
1
50
360
0
POINT
5
49
100
AcDbEntity
8
2
62
256
6
ByLayer
370
-1
48
1
60
0
100
AcDbPoint
10
159.23986
20
24.64784
30
0
39
0
210
0
220
0
230
1
50
360
0
SPLINE
5
CC
100
AcDbEntity
8
1
62
256
6
ByLayer
370
-1
48
1
60
0
100
AcDbSpline
70
4
71
3
72
8
73
4
40
0
40
0
40
0
40
0
40
1
40
1
40
1
40
1
41
1
10
133.850654099974
20
-20.0226880519885
30
0
41
1
10
133.766666212147
20
-19.935880761163
30
0
41
1
10
133.682709886893
20
-19.8490433347742
30
0
41
1
10
133.598786409999
20
-19.7621746130698
30
0
0
SPLINE
5
CD
100
AcDbEntity
8
1
62
256
6
ByLayer
370
-1
48
1
60
0
100
AcDbSpline
70
4
71
3
72
8
73
4
40
0
40
0
40
0
40
0
40
1
40
1
40
1
40
1
41
1
10
130.748786409999
20
17.5031937455787
30
0
41
1
10
130.786916015807
20
17.5093459367381
30
0
41
1
10
130.825061038039
20
17.5154654228493
30
0
41
1
10
130.863221299546
20
17.5215524133305
30
0
0
SPLINE
5
CE
100
AcDbEntity
8
1
62
256
6
ByLayer
370
-1
48
1
60
0
100
AcDbSpline
70
4
71
3
72
10
73
6
40
0
40
0
40
0
40
0
40
0.679347771445116
40
0.679347771445116
40
1
40
1
40
1
40
1
41
1
10
138.079391931734
20
-7.00280710756695
30
0
41
1
10
138.095910231426
20
-7.09007332658877
30
0
41
1
10
138.1160755135
20
-7.17256453618444
30
0
41
1
10
138.151912837513
20
-7.28684534721765
30
0
41
1
10
138.164340368033
20
-7.32240822935051
30
0
41
1
10
138.177784384356
20
-7.35687772067857
30
0
0
SPLINE
5
CF
100
AcDbEntity
8
1
62
256
6
ByLayer
370
-1
48
1
60
0
100
AcDbSpline
70
4
71
3
72
8
73
4
40
0
40
0
40
0
40
0
40
1
40
1
40
1
40
1
41
1
10
133.128944607654
20
-19.7577570731616
30
0
41
1
10
132.82996639716
20
-19.7549252929093
30
0
41
1
10
132.531177890224
20
-19.7517222067586
30
0
41
1
10
132.232652363572
20
-19.7481159535721
30
0
0
SPLINE
5
D0
100
AcDbEntity
8
1
62
256
6
ByLayer
370
-1
48
1
60
0
100
AcDbSpline
70
4
71
3
72
38
73
34
40
-0.12500000000002
40
-0.12500000000002
40
0
40
0
40
0.124999999999998
40
0.124999999999998
40
0.187499999999995
40
0.187499999999995
40
0.218749999999992
40
0.218749999999992
40
0.249999999999988
40
0.249999999999988
40
0.312499999999982
40
0.312499999999982
40
0.374999999999977
40
0.374999999999977
40
0.499999999999969
40
0.499999999999969
40
0.624999999999962
40
0.624999999999962
40
0.687499999999956
40
0.687499999999956
40
0.703124999999958
40
0.703124999999958
40
0.71874999999996
40
0.71874999999996
40
0.734374999999962
40
0.734374999999962
40
0.749999999999964
40
0.749999999999964
40
0.812499999999972
40
0.812499999999972
40
0.87499999999998
40
0.87499999999998
40
1
40
1
40
1.125
40
1.125
41
1
10
128.095930015227
20
-7.40924275572755
30
0
41
1
10
125.491739058781
20
-6.38434472589714
30
0
41
1
10
124.164340334176
20
-5.98370077231229
30
0
41
1
10
122.100254385209
20
-5.90212555244963
30
0
41
1
10
121.389828250583
20
-5.94965352051898
30
0
41
1
10
120.43532325533
20
-6.45189614168771
30
0
41
1
10
120.139709116739
20
-6.7135007956133
30
0
41
1
10
119.855556400654
20
-7.41104894685307
30
0
41
1
10
119.888611867334
20
-7.79568146449338
30
0
41
1
10
120.240275529154
20
-8.78127475568158
30
0
41
1
10
120.740243455416
20
-9.2771908531231
30
0
41
1
10
121.807882053392
20
-10.1147285696699
30
0
41
1
10
122.39592961562
20
-10.4505080994334
30
0
41
1
10
124.252391109802
20
-11.3360057643761
30
0
41
1
10
125.593001221936
20
-11.7508024773492
30
0
41
1
10
128.334169375453
20
-12.3953813737498
30
0
41
1
10
129.757742455481
20
-12.6334366661083
30
0
41
1
10
131.932822545489
20
-12.801492454854
30
0
41
1
10
132.671430940172
20
-12.8424250166776
30
0
41
1
10
133.580413795204
20
-12.7146789585602
30
0
41
1
10
133.762710835025
20
-12.6790760109025
30
0
41
1
10
134.108028836279
20
-12.5486849217512
30
0
41
1
10
134.286086235338
20
-12.4430258138505
30
0
41
1
10
134.411868343519
20
-12.0999201816595
30
0
41
1
10
134.345008325741
20
-11.9063925753328
30
0
41
1
10
134.171526756719
20
-11.5892376306935
30
0
41
1
10
134.060044328013
20
-11.4478431118028
30
0
41
1
10
133.462393837641
20
-10.7694768613489
30
0
41
1
10
132.892873619578
20
-10.3379440388651
30
0
41
1
10
131.738212586683
20
-9.50433791772323
30
0
41
1
10
131.140426973334
20
-9.11817349405123
30
0
41
1
10
129.327034430396
20
-8.03490117672516
30
0
41
1
10
128.095930015227
20
-7.40924275572755
30
0
41
1
10
125.491739058781
20
-6.38434472589714
30
0
0
SPLINE
5
D1
100
AcDbEntity
8
1
62
256
6
ByLayer
370
-1
48
1
60
0
100
AcDbSpline
70
4
71
3
72
8
73
4
40
0
40
0
40
0
40
0
40
1
40
1
40
1
40
1
41
1
10
130.67378641
20
17.5676074962193
30
0
41
1
10
130.69878574945
20
17.5461528721398
30
0
41
1
10
130.723785747266
20
17.5246816125841
30
0
41
1
10
130.748786409999
20
17.5031937455787
30
0
0
SPLINE
5
D2
100
AcDbEntity
8
1
62
256
6
ByLayer
370
-1
48
1
60
0
100
AcDbSpline
70
4
71
3
72
8
73
4
40
0
40
0
40
0
40
0
40
1
40
1
40
1
40
1
41
1
10
132.354695129792
20
-19.8701587197924
30
0
41
1
10
132.769392223195
20
-19.8701587197822
30
0
41
1
10
133.184089316597
20
-19.870158719772
30
0
41
1
10
133.598786409999
20
-19.8701587197618
30
0
0
SPLINE
5
D3
100
AcDbEntity
8
1
62
256
6
ByLayer
370
-1
48
1
60
0
100
AcDbSpline
70
4
71
3
72
8
73
4
40
0
40
0
40
0
40
0
40
1
40
1
40
1
40
1
41
1
10
133.598786409999
20
-19.8701587197619
30
0
41
1
10
133.67378407854
20
-19.9212767122641
30
0
41
1
10
133.758000266483
20
-19.9721431582202
30
0
41
1
10
133.850654099974
20
-20.0226880519885
30
0
0
SPLINE
5
D4
100
AcDbEntity
8
1
62
256
6
ByLayer
370
-1
48
1
60
0
100
AcDbSpline
70
4
71
3
72
10
73
6
40
0
40
0
40
0
40
0
40
0.5
40
0.5
40
1
40
1
40
1
40
1
41
1
10
130.67378641
20
17.5676074962204
30
0
41
1
10
126.746966340325
20
16.929905403343
30
0
41
1
10
123.065436066184
20
15.9730060481408
30
0
41
1
10
116.203788686563
20
12.8168032878994
30
0
41
1
10
113.048555249686
20
10.5822481725507
30
0
41
1
10
110.466717492123
20
7.57100492421563
30
0
0
SPLINE
5
D5
100
AcDbEntity
8
1
62
256
6
ByLayer
370
-1
48
1
60
0
100
AcDbSpline
70
4
71
3
72
10
73
6
40
0
40
0
40
0
40
0
40
0.5
40
0.5
40
1
40
1
40
1
40
1
41
1
10
104.457882720868
20
-7.57100492421623
30
0
41
1
10
104.496595002889
20
-10.0301185010823
30
0
41
1
10
105.173454265519
20
-12.2224687394915
30
0
41
1
10
107.730030787643
20
-15.5738440815869
30
0
41
1
10
109.553593257959
20
-16.7177084362392
30
0
41
1
10
111.615571738861
20
-17.5107500000007
30
0
0
SPLINE
5
D6
100
AcDbEntity
8
SK1
62
256
6
ByLayer
370
-1
48
1
60
0
100
AcDbSpline
70
4
71
3
72
8
73
4
40
0
40
0
40
0
40
0
40
1
40
1
40
1
40
1
41
1
10
-141.314472909231
20
-17.51075
30
0
41
1
10
-141.320375309052
20
-17.51075
30
0
41
1
10
-140.302889179465
20
-17.51075
30
0
41
1
10
-138.836
20
-17.51075
30
0
0
SPLINE
5
D7
100
AcDbEntity
8
SK1
62
256
6
ByLayer
370
-1
48
1
60
0
100
AcDbSpline
70
4
71
3
72
10
73
6
40
0
40
0
40
0
40
0
40
0.5
40
0.5
40
1
40
1
40
1
40
1
41
1
10
-138.836
20
-7.57100492421586
30
0
41
1
10
-139.751720015059
20
-5.15328673564841
30
0
41
1
10
-140.323815900012
20
-2.61766499305557
30
0
41
1
10
-140.326678525705
20
2.597354971751
30
0
41
1
10
-139.748549752422
20
5.16165698148063
30
0
41
1
10
-138.836
20
7.57100492421586
30
0
0
SPLINE
5
D8
100
AcDbEntity
8
1
62
256
6
ByLayer
370
-1
48
1
60
0
100
AcDbSpline
70
4
71
3
72
18
73
14
40
0
40
0
40
0
40
0
40
0.0275341850518354
40
0.0275341850518354
40
0.251186499007451
40
0.251186499007451
40
0.47558975025682
40
0.47558975025682
40
0.712788946594694
40
0.712788946594694
40
0.972335679914448
40
0.972335679914448
40
1
40
1
40
1
40
1
41
1
10
148.664768638274
20
-15.7120518854471
30
0
41
1
10
148.667389743258
20
-15.709449557476
30
0
41
1
10
148.670058292122
20
-15.7068909135499
30
0
41
1
10
148.694568445593
20
-15.6841955994143
30
0
41
1
10
148.71961770201
20
-15.6668460477334
30
0
41
1
10
148.772051478932
20
-15.6403318239967
30
0
41
1
10
148.800105066039
20
-15.6308371626272
30
0
41
1
10
148.857025116528
20
-15.6198446004897
30
0
41
1
10
148.886556672437
20
-15.6186663583746
30
0
41
1
10
148.944729622225
20
-15.6247071799369
30
0
41
1
10
148.973761681767
20
-15.6327695488382
30
0
41
1
10
149.002422285939
20
-15.6459533308843
30
0
41
1
10
149.005178032155
20
-15.6472811376879
30
0
41
1
10
149.007900109547
20
-15.6486529679729
30
0
0
SPLINE
5
D9
100
AcDbEntity
8
1
62
256
6
ByLayer
370
-1
48
1
60
0
100
AcDbSpline
70
4
71
3
72
12
73
8
40
0
40
0
40
0
40
0
40
0.316327140099803
40
0.316327140099803
40
0.756180507273988
40
0.756180507273988
40
1
40
1
40
1
40
1
41
1
10
148.496572659339
20
-17.5113536558908
30
0
41
1
10
148.540343413911
20
-17.5075276054689
30
0
41
1
10
148.584969779646
20
-17.5083522546189
30
0
41
1
10
148.691248946948
20
-17.5226238684425
30
0
41
1
10
148.754104258661
20
-17.5412332887134
30
0
41
1
10
148.846640549258
20
-17.5874414249273
30
0
41
1
10
148.87905590876
20
-17.6075620336587
30
0
41
1
10
148.909651578929
20
-17.6308982771603
30
0
0
SPLINE
5
DA
100
AcDbEntity
8
1
62
256
6
ByLayer
370
-1
48
1
60
0
100
AcDbSpline
70
4
71
3
72
16
73
12
40
0
40
0
40
0
40
0
40
0.180092167922608
40
0.180092167922608
40
0.4851699035098
40
0.4851699035098
40
0.754992565013111
40
0.754992565013111
40
0.99462841809572
40
0.99462841809572
40
1
40
1
40
1
40
1
41
1
10
149.942118266171
20
-15.3942937706664
30
0
41
1
10
149.95362601324
20
-15.3775393541736
30
0
41
1
10
149.967299097748
20
-15.3615917599809
30
0
41
1
10
150.009073335078
20
-15.3225243794469
30
0
41
1
10
150.04152641357
20
-15.3014347796226
30
0
41
1
10
150.10908946801
20
-15.2738728756546
30
0
41
1
10
150.144530823578
20
-15.2656322617436
30
0
41
1
10
150.211854031522
20
-15.2617023450326
30
0
41
1
10
150.244658151025
20
-15.2646878614347
30
0
41
1
10
150.276143306416
20
-15.2725835444083
30
0
41
1
10
150.27684361117
20
-15.2727617821221
30
0
41
1
10
150.277543109615
20
-15.272942436493
30
0
0
SPLINE
5
DB
100
AcDbEntity
8
1
62
256
6
ByLayer
370
-1
48
1
60
0
100
AcDbSpline
70
4
71
3
72
16
73
12
40
0
40
0
40
0
40
0
40
0.217256232331346
40
0.217256232331346
40
0.438664641319926
40
0.438664641319926
40
0.671171585122195
40
0.671171585122195
40
0.924618255663395
40
0.924618255663395
40
1
40
1
40
1
40
1
41
1
10
150.277543109615
20
-15.272942436493
30
0
41
1
10
150.305589240216
20
-15.2801857064672
30
0
41
1
10
150.332669243339
20
-15.2915336675491
30
0
41
1
10
150.381187783714
20
-15.3207067220156
30
0
41
1
10
150.403137105538
20
-15.339014849267
30
0
41
1
10
150.440012501967
20
-15.3805709622976
30
0
41
1
10
150.455017716888
20
-15.404523867347
30
0
41
1
10
150.476932175753
20
-15.4561443123859
30
0
41
1
10
150.483297987028
20
-15.4845859432666
30
0
41
1
10
150.485113110023
20
-15.5208507003555
30
0
41
1
10
150.485095236568
20
-15.5292122458193
30
0
41
1
10
150.484652175329
20
-15.5375162992579
30
0
0
SPLINE
5
DC
100
AcDbEntity
8
1
62
256
6
ByLayer
370
-1
48
1
60
0
100
AcDbSpline
70
4
71
3
72
18
73
14
40
0
40
0
40
0
40
0
40
0.2002006787957
40
0.2002006787957
40
0.376515926295079
40
0.376515926295079
40
0.554656116088054
40
0.554656116088054
40
0.708098527855351
40
0.708098527855351
40
0.90881555944864
40
0.90881555944864
40
1
40
1
40
1
40
1
41
1
10
151.057766243238
20
-17.6836825246746
30
0
41
1
10
151.022355319583
20
-17.6215699617574
30
0
41
1
10
150.994665498579
20
-17.5530358374351
30
0
41
1
10
150.962773731222
20
-17.4182300453653
30
0
41
1
10
150.95597445142
20
-17.3510930648748
30
0
41
1
10
150.96270502954
20
-17.2181530146813
30
0
41
1
10
150.976779708159
20
-17.1504133380753
30
0
41
1
10
151.020904691253
20
-17.0360459762756
30
0
41
1
10
151.048911260436
20
-16.9863775926597
30
0
41
1
10
151.124580394173
20
-16.8864656063697
30
0
41
1
10
151.176716120423
20
-16.838859853609
30
0
41
1
10
151.259081285177
20
-16.7844561401531
30
0
41
1
10
151.286119690501
20
-16.7693190099353
30
0
41
1
10
151.313935475258
20
-16.7561820037527
30
0
0
SPLINE
5
DD
100
AcDbEntity
8
1
62
256
6
ByLayer
370
-1
48
1
60
0
100
AcDbSpline
70
4
71
3
72
14
73
10
40
0
40
0
40
0
40
0
40
0.234077214514098
40
0.234077214514098
40
0.526649019666909
40
0.526649019666909
40
0.790997442040889
40
0.790997442040889
40
1
40
1
40
1
40
1
41
1
10
148.608341892982
20
-16.0453488383653
30
0
41
1
10
148.595785868538
20
-16.0236736791593
30
0
41
1
10
148.586332642943
20
-15.9993756233991
30
0
41
1
10
148.57402153757
20
-15.9415618369714
30
0
41
1
10
148.573292349259
20
-15.9062629210593
30
0
41
1
10
148.585377018656
20
-15.839627232715
30
0
41
1
10
148.597140041945
20
-15.8072263668333
30
0
41
1
10
148.627810275222
20
-15.7540361731666
30
0
41
1
10
148.645040537008
20
-15.7316386589844
30
0
41
1
10
148.664768638274
20
-15.7120518854471
30
0
0
SPLINE
5
DE
100
AcDbEntity
8
1
62
256
6
ByLayer
370
-1
48
1
60
0
100
AcDbSpline
70
4
71
3
72
18
73
14
40
0
40
0
40
0
40
0
40
0.0421378280668173
40
0.0421378280668173
40
0.26540245232652
40
0.26540245232652
40
0.490268329867197
40
0.490268329867197
40
0.728620208697947
40
0.728620208697947
40
0.989833066937911
40
0.989833066937911
40
1
40
1
40
1
40
1
41
1
10
148.222534461161
20
-17.3132294601746
30
0
41
1
10
148.22111924466
20
-17.3078291646369
30
0
41
1
10
148.21985609732
20
-17.3023726811724
30
0
41
1
10
148.212933676693
20
-17.2680169350587
30
0
41
1
10
148.211455908301
20
-17.2375857362753
30
0
41
1
10
148.217078600065
20
-17.178312299653
30
0
41
1
10
148.22429038844
20
-17.1487253239465
30
0
41
1
10
148.246364268673
20
-17.0924079207535
30
0
41
1
10
148.26190760379
20
-17.0652384305136
30
0
41
1
10
148.300119145714
20
-17.0154754455056
30
0
41
1
10
148.323781232709
20
-16.9929232235295
30
0
41
1
10
148.350166764799
20
-16.9742431441838
30
0
41
1
10
148.351168215259
20
-16.97354293634
30
0
41
1
10
148.352172660964
20
-16.9728493592892
30
0
0
SPLINE
5
DF
100
AcDbEntity
8
1
62
256
6
ByLayer
370
-1
48
1
60
0
100
AcDbSpline
70
4
71
3
72
18
73
14
40
0
40
0
40
0
40
0
40
0.0300491691406322
40
0.0300491691406322
40
0.251534427465213
40
0.251534427465213
40
0.473925783542378
40
0.473925783542378
40
0.709125278434725
40
0.709125278434725
40
0.966562087069101
40
0.966562087069101
40
1
40
1
40
1
40
1
41
1
10
149.404435802912
20
-18.4865764041707
30
0
41
1
10
149.400515264493
20
-18.485563875255
30
0
41
1
10
149.396612910837
20
-18.4844636903564
30
0
41
1
10
149.364446241267
20
-18.4746258104583
30
0
41
1
10
149.337071776761
20
-18.4611310415012
30
0
41
1
10
149.288356062765
20
-18.4268860869977
30
0
41
1
10
149.266405223572
20
-18.4056876218114
30
0
41
1
10
149.229124649559
20
-18.3575332010808
30
0
41
1
10
149.213757694462
20
-18.3297323827206
30
0
41
1
10
149.190841400736
20
-18.2696593613777
30
0
41
1
10
149.183847798224
20
-18.2364719671954
30
0
41
1
10
149.181500569041
20
-18.1995666293155
30
0
41
1
10
149.181310898337
20
-18.1952943074274
30
0
41
1
10
149.181202601362
20
-18.191028364654
30
0
0
SPLINE
5
E0
100
AcDbEntity
8
1
62
256
6
ByLayer
370
-1
48
1
60
0
100
AcDbSpline
70
4
71
3
72
12
73
8
40
0
40
0
40
0
40
0
40
0.313657593361624
40
0.313657593361624
40
0.779935809348444
40
0.779935809348444
40
1
40
1
40
1
40
1
41
1
10
150.616021200118
20
-15.9367527083154
30
0
41
1
10
150.585421746176
20
-15.8980778404409
30
0
41
1
10
150.559837092984
20
-15.8566969283223
30
0
41
1
10
150.510741202855
20
-15.7529869184702
30
0
41
1
10
150.493313759289
20
-15.6885504336623
30
0
41
1
10
150.483779708634
20
-15.5962189249918
30
0
41
1
10
150.483097002169
20
-15.5666640555526
30
0
41
1
10
150.484652175329
20
-15.5375162992579
30
0
0
SPLINE
5
E1
100
AcDbEntity
8
1
62
256
6
ByLayer
370
-1
48
1
60
0
100
AcDbSpline
70
4
71
3
72
16
73
12
40
0
40
0
40
0
40
0
40
0.117063668292763
40
0.117063668292763
40
0.339271988229737
40
0.339271988229737
40
0.567295187218339
40
0.567295187218339
40
0.81220148083026
40
0.81220148083026
40
1
40
1
40
1
40
1
41
1
10
151.459444451365
20
-16.4462893804891
30
0
41
1
10
151.463353123033
20
-16.4612044003073
30
0
41
1
10
151.46601434754
20
-16.4764194077952
30
0
41
1
10
151.469956793635
20
-16.5202861783782
30
0
41
1
10
151.467832594237
20
-16.5493573549272
30
0
41
1
10
151.454847862081
20
-16.6044400755431
30
0
41
1
10
151.443621893034
20
-16.6310547607691
30
0
41
1
10
151.413187713304
20
-16.6799451502146
30
0
41
1
10
151.393098715778
20
-16.7023821037963
30
0
41
1
10
151.353098022119
20
-16.7348008010699
30
0
41
1
10
151.333999532976
20
-16.7467060298563
30
0
41
1
10
151.313935475258
20
-16.7561820037535
30
0
0
SPLINE
5
E2
100
AcDbEntity
8
1
62
256
6
ByLayer
370
-1
48
1
60
0
100
AcDbSpline
70
4
71
3
72
18
73
14
40
0
40
0
40
0
40
0
40
0.200409196924524
40
0.200409196924524
40
0.376686480633105
40
0.376686480633105
40
0.554786285715725
40
0.554786285715725
40
0.708219453557518
40
0.708219453557518
40
0.908971900940294
40
0.908971900940294
40
1
40
1
40
1
40
1
41
1
10
149.723989870044
20
-18.3347375923723
30
0
41
1
10
149.755138881077
20
-18.272310960661
30
0
41
1
10
149.796007305504
20
-18.2132457685955
30
0
41
1
10
149.88969614393
20
-18.1166247931748
30
0
41
1
10
149.941696032745
20
-18.0763675933084
30
0
41
1
10
150.05705392392
20
-18.0140779003282
30
0
41
1
10
150.122388606072
20
-17.9915242103157
30
0
41
1
10
150.245344571842
20
-17.9710142237345
30
0
41
1
10
150.304227309066
20
-17.9697391872426
30
0
41
1
10
150.434431430874
20
-17.9838511261126
30
0
41
1
10
150.506220783053
20
-18.0044523130082
30
0
41
1
10
150.601619314537
20
-18.0476162027373
30
0
41
1
10
150.630554043755
20
-18.0631537826519
30
0
41
1
10
150.658208026675
20
-18.080378395069
30
0
0
SPLINE
5
E3
100
AcDbEntity
8
1
62
256
6
ByLayer
370
-1
48
1
60
0
100
AcDbSpline
70
4
71
3
72
18
73
14
40
0
40
0
40
0
40
0
40
0.0310424551331964
40
0.0310424551331964
40
0.254589205812167
40
0.254589205812167
40
0.479091688040414
40
0.479091688040414
40
0.716556386386676
40
0.716556386386676
40
0.976492508137341
40
0.976492508137341
40
1
40
1
40
1
40
1
41
1
10
151.017210274252
20
-18.0474669552165
30
0
41
1
10
151.014256267379
20
-18.0503998002417
30
0
41
1
10
151.011235697708
20
-18.0532653339729
30
0
41
1
10
150.986185781371
20
-18.0759698186342
30
0
41
1
10
150.960664560903
20
-18.0924051030255
30
0
41
1
10
150.906736106466
20
-18.1159888040664
30
0
41
1
10
150.877637538617
20
-18.1234191297198
30
0
41
1
10
150.818126486314
20
-18.1292746348808
30
0
41
1
10
150.786993707325
20
-18.1272599965615
30
0
41
1
10
150.725140014282
20
-18.1138440470385
30
0
41
1
10
150.693954432083
20
-18.1014396801892
30
0
41
1
10
150.663273117156
20
-18.0834851017968
30
0
41
1
10
150.660729000414
20
-18.0819486135685
30
0
41
1
10
150.658208026675
20
-18.080378395069
30
0
0
SPLINE
5
E4
100
AcDbEntity
8
1
62
256
6
ByLayer
370
-1
48
1
60
0
100
AcDbSpline
70
4
71
3
72
14
73
10
40
0
40
0
40
0
40
0
40
0.231173313118562
40
0.231173313118562
40
0.530832015983859
40
0.530832015983859
40
0.794965840268776
40
0.794965840268776
40
1
40
1
40
1
40
1
41
1
10
151.057766243242
20
-17.6836825246731
30
0
41
1
10
151.072204971336
20
-17.7090087888486
30
0
41
1
10
151.083543015356
20
-17.73671791416
30
0
41
1
10
151.10030642261
20
-17.8027439582447
30
0
41
1
10
151.103135792039
20
-17.8429577847739
30
0
41
1
10
151.09359620308
20
-17.9163048969484
30
0
41
1
10
151.082774402199
20
-17.9508196372028
30
0
41
1
10
151.053270198886
20
-18.0057733430863
30
0
41
1
10
151.036581469104
20
-18.028234531295
30
0
41
1
10
151.017210274252
20
-18.0474669552165
30
0
0
SPLINE
5
E5
100
AcDbEntity
8
1
62
256
6
ByLayer
370
-1
48
1
60
0
100
AcDbSpline
70
4
71
3
72
20
73
16
40
0
40
0
40
0
40
0
40
0.0906086726792121
40
0.0906086726792121
40
0.28952030243906
40
0.28952030243906
40
0.451013668770549
40
0.451013668770549
40
0.613277518216859
40
0.613277518216859
40
0.765778884312964
40
0.765778884312964
40
0.983082543595066
40
0.983082543595066
40
1
40
1
40
1
40
1
41
1
10
148.608341892982
20
-16.045348838365
30
0
41
1
10
148.622131302675
20
-16.0691531604862
30
0
41
1
10
148.63435495487
20
-16.0942952958432
30
0
41
1
10
148.667641353332
20
-16.1781627018361
30
0
41
1
10
148.68224805218
20
-16.2425498971284
30
0
41
1
10
148.689264762558
20
-16.3658213720216
30
0
41
1
10
148.685264690192
20
-16.424872137344
30
0
41
1
10
148.662058140249
20
-16.542128157589
30
0
41
1
10
148.642416986056
20
-16.6018463145456
30
0
41
1
10
148.592553432133
20
-16.7092228961651
30
0
41
1
10
148.562541130179
20
-16.7586743146156
30
0
41
1
10
148.481528855544
20
-16.8656484021058
30
0
41
1
10
148.425716995689
20
-16.9197494481796
30
0
41
1
10
148.361620294981
20
-16.9662443446087
30
0
41
1
10
148.356909493962
20
-16.969578541719
30
0
41
1
10
148.352172660964
20
-16.9728493592893
30
0
0
SPLINE
5
E6
100
AcDbEntity
8
1
62
256
6
ByLayer
370
-1
48
1
60
0
100
AcDbSpline
70
4
71
3
72
12
73
8
40
0
40
0
40
0
40
0
40
0.147166896845038
40
0.147166896845038
40
0.503612866472995
40
0.503612866472995
40
1
40
1
40
1
40
1
41
1
10
149.026427169744
20
-17.7468286664209
30
0
41
1
10
149.041203348644
20
-17.7657546185591
30
0
41
1
10
149.055027025578
20
-17.785552086774
30
0
41
1
10
149.098518962877
20
-17.8551738626784
30
0
41
1
10
149.123208439301
20
-17.9084980632229
30
0
41
1
10
149.166248583826
20
-18.0372174181467
30
0
41
1
10
149.17927679076
20
-18.1151684635431
30
0
41
1
10
149.181202601362
20
-18.1910283646541
30
0
0
SPLINE
5
E7
100
AcDbEntity
8
1
62
256
6
ByLayer
370
-1
48
1
60
0
100
AcDbSpline
70
4
71
3
72
14
73
10
40
0
40
0
40
0
40
0
40
0.238042428146395
40
0.238042428146395
40
0.530120114218701
40
0.530120114218701
40
0.794045812691471
40
0.794045812691471
40
1
40
1
40
1
40
1
41
1
10
149.723989870044
20
-18.3347375923725
30
0
41
1
10
149.710903570088
20
-18.3609642236752
30
0
41
1
10
149.693874982407
20
-18.385659139138
30
0
41
1
10
149.648683288938
20
-18.4335538104716
30
0
41
1
10
149.618048240086
20
-18.4558647088882
30
0
41
1
10
149.553719399647
20
-18.4849170663746
30
0
41
1
10
149.519598725354
20
-18.4933323830336
30
0
41
1
10
149.458447175514
20
-18.4962213997647
30
0
41
1
10
149.430841303285
20
-18.4933959605196
30
0
41
1
10
149.404435802912
20
-18.4865764041707
30
0
0
SPLINE
5
E8
100
AcDbEntity
8
1
62
256
6
ByLayer
370
-1
48
1
60
0
100
AcDbSpline
70
4
71
3
72
12
73
8
40
0
40
0
40
0
40
0
40
0.482128700270432
40
0.482128700270432
40
0.889383223595016
40
0.889383223595016
40
1
40
1
40
1
40
1
41
1
10
151.169282117352
20
-16.2171910080212
30
0
41
1
10
151.097416255206
20
-16.2128877064584
30
0
41
1
10
151.023468053548
20
-16.1982956112934
30
0
41
1
10
150.891574474125
20
-16.1514565957384
30
0
41
1
10
150.831486214732
20
-16.121638720812
30
0
41
1
10
150.761668692426
20
-16.0745303723953
30
0
41
1
10
150.747008494281
20
-16.0638547241577
30
0
41
1
10
150.732796790933
20
-16.0526830975754
30
0
0
SPLINE
5
E9
100
AcDbEntity
8
1
62
256
6
ByLayer
370
-1
48
1
60
0
100
AcDbSpline
70
4
71
3
72
16
73
12
40
0
40
0
40
0
40
0
40
0.0438596034315884
40
0.0438596034315884
40
0.355186160189189
40
0.355186160189189
40
0.638776189487555
40
0.638776189487555
40
0.888527387651777
40
0.888527387651777
40
1
40
1
40
1
40
1
41
1
10
151.169282117352
20
-16.2171910080209
30
0
41
1
10
151.174739543333
20
-16.2175177966942
30
0
41
1
10
151.180210171789
20
-16.217982365196
30
0
41
1
10
151.224043649364
20
-16.2228175471404
30
0
41
1
10
151.263363445622
20
-16.2341969452403
30
0
41
1
10
151.332306261736
20
-16.2692398176777
30
0
41
1
10
151.36353465551
20
-16.2923439378788
30
0
41
1
10
151.412067401347
20
-16.3445334656482
30
0
41
1
10
151.431268952839
20
-16.3733859609203
30
0
41
1
10
151.450716937008
20
-16.4176907609458
30
0
41
1
10
151.455674415453
20
-16.4319033780003
30
0
41
1
10
151.459444451365
20
-16.4462893804891
30
0
0
SPLINE
5
EA
100
AcDbEntity
8
1
62
256
6
ByLayer
370
-1
48
1
60
0
100
AcDbSpline
70
4
71
3
72
14
73
10
40
0
40
0
40
0
40
0
40
0.261628858299626
40
0.261628858299626
40
0.548931583015183
40
0.548931583015183
40
0.808666689341122
40
0.808666689341122
40
1
40
1
40
1
40
1
41
1
10
148.496572659339
20
-17.5113536558908
30
0
41
1
10
148.46668453536
20
-17.513966210106
30
0
41
1
10
148.435877919794
20
-17.5114477453106
30
0
41
1
10
148.374046619274
20
-17.4946805672602
30
0
41
1
10
148.342332432476
20
-17.4789574012668
30
0
41
1
10
148.290008838292
20
-17.4373134482674
30
0
41
1
10
148.267870651913
20
-17.4118319852259
30
0
41
1
10
148.238730703276
20
-17.3615248556218
30
0
41
1
10
148.228978307802
20
-17.3378184020229
30
0
41
1
10
148.222534461161
20
-17.3132294601746
30
0
0
SPLINE
5
EB
100
AcDbEntity
8
1
62
256
6
ByLayer
370
-1
48
1
60
0
100
AcDbSpline
70
4
71
3
72
18
73
14
40
0
40
0
40
0
40
0
40
0.201170645853692
40
0.201170645853692
40
0.377213080163447
40
0.377213080163447
40
0.555067308413634
40
0.555067308413634
40
0.708393476929709
40
0.708393476929709
40
0.909199968246338
40
0.909199968246338
40
1
40
1
40
1
40
1
41
1
10
149.942118266178
20
-15.3942937706697
30
0
41
1
10
149.905758476528
20
-15.4472308969159
30
0
41
1
10
149.859865985378
20
-15.497306848802
30
0
41
1
10
149.758456124411
20
-15.5797813880137
30
0
41
1
10
149.703585937759
20
-15.6144614907732
30
0
41
1
10
149.584825714718
20
-15.6700045260669
30
0
41
1
10
149.518984236572
20
-15.6914257866796
30
0
41
1
10
149.397556487692
20
-15.7146295349919
30
0
41
1
10
149.340358927747
20
-15.719049045433
30
0
41
1
10
149.215513311528
20
-15.7151466195838
30
0
41
1
10
149.147922748146
20
-15.7025817516556
30
0
41
1
10
149.059539183983
20
-15.6724709215666
30
0
41
1
10
149.033055525766
20
-15.6613304039302
30
0
41
1
10
149.007900109547
20
-15.6486529679729
30
0
0
LINE
5
4A
100
AcDbEntity
8
80
62
256
6
ByLayer
370
-1
48
1
60
0
100
AcDbLine
10
0
20
0
30
0
11
-10
21
0
31
0
39
0
210
0
220
0
230
1
0
LINE
5
4B
100
AcDbEntity
8
81
62
256
6
ByLayer
370
-1
48
1
60
0
100
AcDbLine
10
159.914
20
-26.9
30
0
11
169.914
21
-26.9
31
0
39
0
210
0
220
0
230
1
0
LINE
5
4C
100
AcDbEntity
8
SK4
62
256
6
ByLayer
370
-1
48
0.05
60
0
100
AcDbLine
10
-146.336
20
0
30
0
11
164.23986
21
0
31
0
39
0
210
0
220
0
230
1
0
LINE
5
4E
100
AcDbEntity
8
4
62
256
6
ByLayer
370
-1
48
0.05
60
0
100
AcDbLine
10
0
20
0
30
0
11
164.23986
21
0
31
0
39
0
210
0
220
0
230
1
0
LINE
5
50
100
AcDbEntity
8
1
62
256
6
ByLayer
370
-1
48
1
60
0
100
AcDbLine
10
139.797909
20
-7.78479
30
0
11
139.804951
21
-7.833333
31
0
39
0
210
0
220
0
230
1
0
LINE
5
51
100
AcDbEntity
8
1
62
256
6
ByLayer
370
-1
48
1
60
0
100
AcDbLine
10
153.300629
20
-13.354987
30
0
11
152.644392
21
-12.996258
31
0
39
0
210
0
220
0
230
1
0
LINE
5
52
100
AcDbEntity
8
SK1
62
256
6
ByLayer
370
-1
48
1
60
0
100
AcDbLine
10
-138.836
20
19.98925
30
0
11
-141.336
21
17.48925
31
0
39
0
210
0
220
0
230
1
0
LINE
5
54
100
AcDbEntity
8
SK1
62
256
6
ByLayer
370
-1
48
1
60
0
100
AcDbLine
10
-141.336
20
-17.48925
30
0
11
-141.3145
21
-17.51075
31
0
39
0
210
0
220
0
230
1
0
LINE
5
55
100
AcDbEntity
8
SK1
62
256
6
ByLayer
370
-1
48
1
60
0
100
AcDbLine
10
0
20
19.98925
30
0
11
-138.836
21
19.98925
31
0
39
0
210
0
220
0
230
1
0
LINE
5
56
100
AcDbEntity
8
1
62
256
6
ByLayer
370
-1
48
1
60
0
100
AcDbLine
10
128.673786
20
19.98925
30
0
11
0
21
19.98925
31
0
39
0
210
0
220
0
230
1
0
LINE
5
57
100
AcDbEntity
8
1
62
256
6
ByLayer
370
-1
48
1
60
0
100
AcDbLine
10
147.410611
20
-17.895957
30
0
11
147.492523
21
-18.053309
31
0
39
0
210
0
220
0
230
1
0
LINE
5
58
100
AcDbEntity
8
1
62
256
6
ByLayer
370
-1
48
1
60
0
100
AcDbLine
10
152.14933
20
-15.629129
30
0
11
152.067418
21
-15.471777
31
0
39
0
210
0
220
0
230
1
0
LINE
5
59
100
AcDbEntity
8
1
62
256
6
ByLayer
370
-1
48
1
60
0
100
AcDbLine
10
148.620607
20
-16.067671
30
0
11
148.606541
21
-16.040651
31
0
39
0
210
0
220
0
230
1
0
LINE
5
5A
100
AcDbEntity
8
1
62
256
6
ByLayer
370
-1
48
1
60
0
100
AcDbLine
10
150.464565
20
-15.670837
30
0
11
150.550452
21
-15.835824
31
0
39
0
210
0
220
0
230
1
0
LINE
5
5B
100
AcDbEntity
8
1
62
256
6
ByLayer
370
-1
48
1
60
0
100
AcDbLine
10
150.948631
20
-17.475273
30
0
11
151.04356
21
-17.657631
31
0
39
0
210
0
220
0
230
1
0
LINE
5
5C
100
AcDbEntity
8
1
62
256
6
ByLayer
370
-1
48
1
60
0
100
AcDbLine
10
149.095818
20
-17.855098
30
0
11
149.009822
21
-17.689901
31
0
39
0
210
0
220
0
230
1
0
LINE
5
5D
100
AcDbEntity
8
1
62
256
6
ByLayer
370
-1
48
1
60
0
100
AcDbLine
10
152.740634
20
-12.162943
30
0
11
146.409007
21
0
31
0
39
0
210
0
220
0
230
1
0
LINE
5
5E
100
AcDbEntity
8
1
62
256
6
ByLayer
370
-1
48
1
60
0
100
AcDbLine
10
0
20
-17.51075
30
0
11
111.615572
21
-17.51075
31
0
39
0
210
0
220
0
230
1
0
LINE
5
5F
100
AcDbEntity
8
1
62
256
6
ByLayer
370
-1
48
1
60
0
100
AcDbLine
10
111.615572
20
-17.51075
30
0
11
129.995286
21
-17.51075
31
0
39
0
210
0
220
0
230
1
0
LINE
5
60
100
AcDbEntity
8
1
62
256
6
ByLayer
370
-1
48
1
60
0
100
AcDbLine
10
0
20
-7.571005
30
0
11
0
21
-17.51075
31
0
39
0
210
0
220
0
230
1
0
LINE
5
61
100
AcDbEntity
8
1
62
256
6
ByLayer
370
-1
48
1
60
0
100
AcDbLine
10
130.673786
20
17.735063
30
0
11
128.673786
21
19.98925
31
0
39
0
210
0
220
0
230
1
0
LINE
5
62
100
AcDbEntity
8
1
62
256
6
ByLayer
370
-1
48
1
60
0
100
AcDbLine
10
104.457883
20
-7.571005
30
0
11
0
21
-7.571005
31
0
39
0
210
0
220
0
230
1
0
LINE
5
63
100
AcDbEntity
8
1
62
256
6
ByLayer
370
-1
48
1
60
0
100
AcDbLine
10
130.673786
20
17.567607
30
0
11
130.673786
21
17.735063
31
0
39
0
210
0
220
0
230
1
0
LINE
5
64
100
AcDbEntity
8
1
62
256
6
ByLayer
370
-1
48
1
60
0
100
AcDbLine
10
144.938607
20
-19.909078
30
0
11
145.670512
21
-19.182416
31
0
39
0
210
0
220
0
230
1
0
LINE
5
65
100
AcDbEntity
8
1
62
256
6
ByLayer
370
-1
48
1
60
0
100
AcDbLine
10
130.863221
20
17.521552
30
0
11
140.300222
21
6.885171
31
0
39
0
210
0
220
0
230
1
0
LINE
5
66
100
AcDbEntity
8
1
62
256
6
ByLayer
370
-1
48
1
60
0
100
AcDbLine
10
140.300222
20
6.885171
30
0
11
146.409007
21
0
31
0
39
0
210
0
220
0
230
1
0
LINE
5
67
100
AcDbEntity
8
1
62
256
6
ByLayer
370
-1
48
1
60
0
100
AcDbLine
10
0
20
7.571005
30
0
11
110.466717
21
7.571005
31
0
39
0
210
0
220
0
230
1
0
LINE
5
68
100
AcDbEntity
8
1
62
256
6
ByLayer
370
-1
48
1
60
0
100
AcDbLine
10
133.128945
20
-19.757757
30
0
11
140.300222
21
6.885171
31
0
39
0
210
0
220
0
230
1
0
LINE
5
69
100
AcDbEntity
8
1
62
256
6
ByLayer
370
-1
48
1
60
0
100
AcDbLine
10
138.397602
20
-8.960214
30
0
11
138.61962
21
-9.386706
31
0
39
0
210
0
220
0
230
1
0
LINE
5
6A
100
AcDbEntity
8
1
62
256
6
ByLayer
370
-1
48
1
60
0
100
AcDbLine
10
130.748786
20
17.503194
30
0
11
130.748786
21
17.650531
31
0
39
0
210
0
220
0
230
1
0
LINE
5
6B
100
AcDbEntity
8
1
62
256
6
ByLayer
370
-1
48
1
60
0
100
AcDbLine
10
138.782137
20
-10.302079
30
0
11
138.61962
21
-9.386706
31
0
39
0
210
0
220
0
230
1
0
LINE
5
6C
100
AcDbEntity
8
1
62
256
6
ByLayer
370
-1
48
1
60
0
100
AcDbLine
10
130.863221
20
17.521552
30
0
11
130.748786
21
17.650531
31
0
39
0
210
0
220
0
230
1
0
LINE
5
6D
100
AcDbEntity
8
1
62
256
6
ByLayer
370
-1
48
1
60
0
100
AcDbLine
10
0
20
-7.571005
30
0
11
0
21
7.571005
31
0
39
0
210
0
220
0
230
1
0
LINE
5
6E
100
AcDbEntity
8
1
62
256
6
ByLayer
370
-1
48
1
60
0
100
AcDbLine
10
141.873278
20
-11.887989
30
0
11
138.782137
21
-10.302079
31
0
39
0
210
0
220
0
230
1
0
LINE
5
6F
100
AcDbEntity
8
1
62
256
6
ByLayer
370
-1
48
1
60
0
100
AcDbLine
10
138.397602
20
-8.960214
30
0
11
141.060306
21
-10.326315
31
0
39
0
210
0
220
0
230
1
0
LINE
5
70
100
AcDbEntity
8
1
62
256
6
ByLayer
370
-1
48
1
60
0
100
AcDbLine
10
130.748786
20
17.650531
30
0
11
130.673786
21
17.735063
31
0
39
0
210
0
220
0
230
1
0
LINE
5
71
100
AcDbEntity
8
1
62
256
6
ByLayer
370
-1
48
1
60
0
100
AcDbLine
10
132.354695
20
-19.870159
30
0
11
132.232652
21
-19.748116
31
0
39
0
210
0
220
0
230
1
0
LINE
5
72
100
AcDbEntity
8
1
62
256
6
ByLayer
370
-1
48
1
60
0
100
AcDbLine
10
140.172832
20
-6.233458
30
0
11
140.394849
21
-6.65995
31
0
39
0
210
0
220
0
230
1
0
LINE
5
73
100
AcDbEntity
8
1
62
256
6
ByLayer
370
-1
48
1
60
0
100
AcDbLine
10
129.995286
20
-17.51075
30
0
11
132.232652
21
-19.748116
31
0
39
0
210
0
220
0
230
1
0
LINE
5
74
100
AcDbEntity
8
1
62
256
6
ByLayer
370
-1
48
1
60
0
100
AcDbLine
10
0
20
7.571005
30
0
11
0
21
19.98925
31
0
39
0
210
0
220
0
230
1
0
LINE
5
75
100
AcDbEntity
8
1
62
256
6
ByLayer
370
-1
48
1
60
0
100
AcDbLine
10
152.141714
20
-12.757572
30
0
11
140.85475
21
-6.966794
31
0
39
0
210
0
220
0
230
1
0
LINE
5
76
100
AcDbEntity
8
1
62
256
6
ByLayer
370
-1
48
1
60
0
100
AcDbLine
10
144.938607
20
-19.909078
30
0
11
133.850654
21
-20.022688
31
0
39
0
210
0
220
0
230
1
0
LINE
5
77
100
AcDbEntity
8
1
62
256
6
ByLayer
370
-1
48
1
60
0
100
AcDbLine
10
133.598786
20
-19.870159
30
0
11
133.598786
21
-19.762175
31
0
39
0
210
0
220
0
230
1
0
LINE
5
78
100
AcDbEntity
8
1
62
256
6
ByLayer
370
-1
48
1
60
0
100
AcDbLine
10
152.740634
20
-12.162943
30
0
11
152.141714
21
-12.757572
31
0
39
0
210
0
220
0
230
1
0
LINE
5
79
100
AcDbEntity
8
1
62
256
6
ByLayer
370
-1
48
1
60
0
100
AcDbLine
10
138.079392
20
-7.002807
30
0
11
137.947493
21
-6.749431
31
0
39
0
210
0
220
0
230
1
0
LINE
5
7A
100
AcDbEntity
8
1
62
256
6
ByLayer
370
-1
48
1
60
0
100
AcDbLine
10
138.61962
20
-9.386706
30
0
11
141.282324
21
-10.752806
31
0
39
0
210
0
220
0
230
1
0
LINE
5
7B
100
AcDbEntity
8
SK1
62
256
6
ByLayer
370
-1
48
1
60
0
100
AcDbLine
10
0
20
-7.571005
30
0
11
0
21
-17.51075
31
0
39
0
210
0
220
0
230
1
0
LINE
5
7C
100
AcDbEntity
8
SK1
62
256
6
ByLayer
370
-1
48
1
60
0
100
AcDbLine
10
-138.836
20
-17.51075
30
0
11
0
21
-17.51075
31
0
39
0
210
0
220
0
230
1
0
LINE
5
7D
100
AcDbEntity
8
SK1
62
256
6
ByLayer
370
-1
48
1
60
0
100
AcDbLine
10
0
20
19.98925
30
0
11
0
21
7.571005
31
0
39
0
210
0
220
0
230
1
0
LINE
5
7E
100
AcDbEntity
8
SK1
62
256
6
ByLayer
370
-1
48
1
60
0
100
AcDbLine
10
-138.836
20
7.571005
30
0
11
0
21
7.571005
31
0
39
0
210
0
220
0
230
1
0
LINE
5
7F
100
AcDbEntity
8
SK1
62
256
6
ByLayer
370
-1
48
1
60
0
100
AcDbLine
10
0
20
-7.571005
30
0
11
-138.836
21
-7.571005
31
0
39
0
210
0
220
0
230
1
0
LINE
5
80
100
AcDbEntity
8
1
62
256
6
ByLayer
370
-1
48
1
60
0
100
AcDbLine
10
152.63527
20
-12.991426
30
0
11
152.154476
21
-12.744754
31
0
39
0
210
0
220
0
230
1
0
LINE
5
81
100
AcDbEntity
8
1
62
256
6
ByLayer
370
-1
48
1
60
0
100
AcDbLine
10
140.736095
20
-6.886552
30
0
11
140.21766
21
-6.620569
31
0
39
0
210
0
220
0
230
1
0
LINE
5
82
100
AcDbEntity
8
1
62
256
6
ByLayer
370
-1
48
1
60
0
100
AcDbLine
10
139.845787
20
-7.993208
30
0
11
146.26566
21
-20.32567
31
0
39
0
210
0
220
0
230
1
0
LINE
5
83
100
AcDbEntity
8
1
62
256
6
ByLayer
370
-1
48
1
60
0
100
AcDbLine
10
146.433796
20
-20.492589
30
0
11
158.855945
21
-26.865774
31
0
39
0
210
0
220
0
230
1
0
LINE
5
84
100
AcDbEntity
8
1
62
256
6
ByLayer
370
-1
48
1
60
0
100
AcDbLine
10
152.63527
20
-12.991426
30
0
11
153.291507
21
-13.350155
31
0
39
0
210
0
220
0
230
1
0
LINE
5
85
100
AcDbEntity
8
1
62
256
6
ByLayer
370
-1
48
1
60
0
100
AcDbLine
10
159.879516
20
-25.849536
30
0
11
153.459643
21
-13.517074
31
0
39
0
210
0
220
0
230
1
0
LINE
5
86
100
AcDbEntity
8
1
62
256
6
ByLayer
370
-1
48
1
60
0
100
AcDbLine
10
153.291507
20
-13.350155
30
0
11
140.869358
21
-6.97697
31
0
39
0
210
0
220
0
230
1
0
LINE
5
87
100
AcDbEntity
8
1
62
256
6
ByLayer
370
-1
48
1
60
0
100
AcDbLine
10
150.562347
20
-17.896232
30
0
11
150.658208
21
-18.080378
31
0
39
0
210
0
220
0
230
1
0
LINE
5
88
100
AcDbEntity
8
1
62
256
6
ByLayer
370
-1
48
1
60
0
100
AcDbLine
10
149.628129
20
-18.150591
30
0
11
149.72399
21
-18.334738
31
0
39
0
210
0
220
0
230
1
0
LINE
5
89
100
AcDbEntity
8
1
62
256
6
ByLayer
370
-1
48
1
60
0
100
AcDbLine
10
148.909652
20
-17.630898
30
0
11
148.825621
21
-17.469477
31
0
39
0
210
0
220
0
230
1
0
LINE
5
8A
100
AcDbEntity
8
1
62
256
6
ByLayer
370
-1
48
1
60
0
100
AcDbLine
10
151.218075
20
-16.572036
30
0
11
151.313935
21
-16.756182
31
0
39
0
210
0
220
0
230
1
0
LINE
5
8B
100
AcDbEntity
8
1
62
256
6
ByLayer
370
-1
48
1
60
0
100
AcDbLine
10
148.942396
20
-17.585407
30
0
11
149.026427
21
-17.746829
31
0
39
0
210
0
220
0
230
1
0
LINE
5
8C
100
AcDbEntity
8
1
62
256
6
ByLayer
370
-1
48
1
60
0
100
AcDbLine
10
150.388918
20
-15.353613
30
0
11
150.484652
21
-15.537516
31
0
39
0
210
0
220
0
230
1
0
LINE
5
8D
100
AcDbEntity
8
1
62
256
6
ByLayer
370
-1
48
1
60
0
100
AcDbLine
10
148.400839
20
-17.327451
30
0
11
148.496573
21
-17.511354
31
0
39
0
210
0
220
0
230
1
0
LINE
5
8E
100
AcDbEntity
8
1
62
256
6
ByLayer
370
-1
48
1
60
0
100
AcDbLine
10
140.568571
20
-6.8006
30
0
11
140.547925
21
-6.760938
31
0
39
0
210
0
220
0
230
1
0
LINE
5
8F
100
AcDbEntity
8
1
62
256
6
ByLayer
370
-1
48
1
60
0
100
AcDbLine
10
152.286219
20
-12.812347
30
0
11
152.218186
21
-12.681656
31
0
39
0
210
0
220
0
230
1
0
LINE
5
90
100
AcDbEntity
8
1
62
256
6
ByLayer
370
-1
48
1
60
0
100
AcDbLine
10
152.172161
20
-12.753823
30
0
11
152.163071
21
-12.736362
31
0
39
0
210
0
220
0
230
1
0
LINE
5
91
100
AcDbEntity
8
SK1
62
256
6
ByLayer
370
-1
48
1
60
0
100
AcDbLine
10
-141.336
20
17.48925
30
0
11
-141.336
21
-17.48925
31
0
39
0
210
0
220
0
230
1
0
LINE
5
92
100
AcDbEntity
8
SK1
62
256
6
ByLayer
370
-1
48
1
60
0
100
AcDbLine
10
-138.836
20
-7.571005
30
0
11
-138.836
21
-17.51075
31
0
39
0
210
0
220
0
230
1
0
LINE
5
93
100
AcDbEntity
8
SK1
62
256
6
ByLayer
370
-1
48
1
60
0
100
AcDbLine
10
-138.836
20
19.98925
30
0
11
-138.836
21
7.571005
31
0
39
0
210
0
220
0
230
1
0
LINE
5
94
100
AcDbEntity
8
SK1
62
256
6
ByLayer
370
-1
48
1
60
0
100
AcDbLine
10
0
20
-7.571005
30
0
11
0
21
7.571005
31
0
39
0
210
0
220
0
230
1
0
LINE
5
95
100
AcDbEntity
8
2
62
256
6
ByLayer
370
-1
48
1
60
1
100
AcDbLine
10
159.914
20
0
30
0
11
159.915
21
0.001
31
0
39
0
210
0
220
0
230
1
0
MTEXT
5
EC
100
AcDbEntity
8
SK6
62
256
6
ByLayer
370
-1
48
1
60
0
100
AcDbMText
10
12.664
20
25.651708
30
0
210
0
220
0
230
1
1
\W00.808;\fsimplex.shx,bigfont.shx;A40T-SVPBL 16 
40
3.5
41
0
44
1.084337
50
0
71
7
72
5
7
DEFAULT
0
DIMENSION
5
11F
100
AcDbEntity
8
2
62
256
6
ByLayer
370
-3
48
1
60
0
100
AcDbDimension
2
DimnDraft3D1
10
172.164
20
0
30
0
11
172.164
21
-18.613158
31
0
70
32
71
5
72
1
41
1
210
0
220
0
230
1
3
Standard
100
AcDbAlignedDimension
13
161.914
23
-26.9
33
0
14
161.914
24
0
34
0
50
90
100
AcDbRotatedDimension
1001
ACAD
1000
DSTYLE
1002
{
1070
    74
1070
     0
1070
   279
1070
     0
1070
   172
1070
     1
1070
   173
1070
     1
1070
   340
1005
ED
1070
    77
1070
     1
1070
    73
1070
     0
1070
   171
1070
     4
1070
   274
1070
     4
1070
   177
1070
     2
1070
   176
1070
     2
1070
   178
1070
     7
1070
    78
1070
     8
1070
    41
1041
3.175
1070
   147
1041
2.25
1070
    42
1041
2.0
1070
    44
1041
2.0
1070
   140
1041
4.5
1070
   343
1005
120
1070
   344
1005
120
1002
}
0
DIMENSION
5
135
100
AcDbEntity
8
SK2
62
256
6
ByLayer
370
-3
48
1
60
0
100
AcDbDimension
2
DimnDraft3D2
10
-151.086
20
19.98925
30
0
11
-151.086
21
-5.021053
31
0
70
32
71
5
72
1
41
1
210
0
220
0
230
1
3
Standard
100
AcDbAlignedDimension
13
-143.336
23
-19.98925
33
0
14
-143.336
24
19.98925
34
0
50
90
100
AcDbRotatedDimension
1001
ACAD
1000
DSTYLE
1002
{
1070
    74
1070
     0
1070
   279
1070
     0
1070
   172
1070
     1
1070
   173
1070
     1
1070
   340
1005
ED
1070
    77
1070
     1
1070
    73
1070
     0
1070
   171
1070
     4
1070
   274
1070
     4
1070
   177
1070
     2
1070
   176
1070
     2
1070
   178
1070
     7
1070
    78
1070
     8
1070
    41
1041
3.175
1070
   147
1041
2.25
1070
    42
1041
2.0
1070
    44
1041
2.0
1070
   140
1041
4.5
1070
   343
1005
120
1070
   344
1005
120
1002
}
0
DIMENSION
5
143
100
AcDbEntity
8
SK2
62
256
6
ByLayer
370
-3
48
1
60
0
100
AcDbDimension
2
DimnDraft3D3
10
159.914
20
-44.15
30
0
11
2.473868
21
-44.15
31
0
70
32
71
5
72
1
41
1
210
0
220
0
230
1
3
Standard
100
AcDbAlignedDimension
13
-141.336
23
-21.98925
33
0
14
159.914
24
-28.9
34
0
50
0
100
AcDbRotatedDimension
1001
ACAD
1000
DSTYLE
1002
{
1070
   279
1070
     0
1070
   172
1070
     1
1070
   173
1070
     1
1070
   340
1005
ED
1070
    77
1070
     1
1070
    73
1070
     0
1070
   171
1070
     4
1070
   274
1070
     4
1070
   177
1070
     2
1070
   176
1070
     2
1070
   178
1070
     7
1070
    78
1070
     8
1070
    41
1041
3.175
1070
   147
1041
2.25
1070
    42
1041
2.0
1070
    44
1041
2.0
1070
   140
1041
4.5
1070
   343
1005
120
1070
   344
1005
120
1002
}
0
DIMENSION
5
151
100
AcDbEntity
8
2
62
256
6
ByLayer
370
-3
48
1
60
0
100
AcDbDimension
2
DimnDraft3D4
10
185.837153
20
0
30
0
11
159.443695
21
38.782799
31
0
70
34
71
5
72
1
41
1
210
0
220
0
230
1
3
Standard
100
AcDb2LineAngularDimension
13
151.602525
23
-10.933805
33
0
14
127.474783
24
35.415155
34
0
15
161.914
25
0
35
0
16
167.920432
26
36.270839
36
0
40
0
0
ENDSEC
0
SECTION
2
OBJECTS
0
DICTIONARY
5
182
330
0
100
AcDbDictionary
280
0
281
1
3
ACAD_GROUP
350
183
3
ACAD_MLINESTYLE
350
184
0
DICTIONARY
5
183
330
0
100
AcDbDictionary
280
0
281
1
0
DICTIONARY
5
184
330
0
100
AcDbDictionary
280
0
281
1
3
Standard
350
18
0
MLINESTYLE
5
18
330
184
100
AcDbMlineStyle
2
Standard
70
0
3

62
256
51
90
52
90
71
2
49
-0.5
62
256
6
ByLayer
49
0.5
62
256
6
ByLayer
0
RASTERVARIABLES
5
170
330

100
AcDbRasterVariables
90
0
70
1
71
1
72
1
0
ENDSEC
0
EOF
