0
SECTION
2
HEADER
9
$ACADVER
1
AC1015
9
$DWGCODEPAGE
3
ANSI_1252
9
$HANDSEED
5
18b
9
$ANGBASE
50
0
9
$ANGDIR
70
0
9
$ATTMODE
70
1
9
$AUNITS
70
0
9
$AUPREC
70
0
9
$CECOLOR
62
256
9
$CELTSCALE
40
1
9
$CELTYPE
6
ByLayer
9
$CELWEIGHT
370
-1
9
$CLAYER
8
0
9
$CMLJUST
70
0
9
$CMLSCALE
40
1
9
$CMLSTYLE
2
Standard
9
$DIMSTYLE
2
Standard
9
$TEXTSIZE
40
0.2
9
$TEXTSTYLE
7
Standard
9
$LUNITS
70
2
9
$LUPREC
70
4
9
$EXTNAMES
290
1
9
$INSUNITS
70
4
9
$LTSCALE
40
1
9
$LWDISPLAY
290
0
9
$PDMODE
70
0
9
$PDSIZE
40
0
9
$PLINEGEN
70
0
0
ENDSEC
0
SECTION
2
CLASSES
0
CLASS
1
RASTERVARIABLES
2
AcDbRasterVariables
3
ISM
90
0
280
0
281
0
0
ENDSEC
0
SECTION
2
TABLES
0
TABLE
2
VPORT
5
181
100
AcDbSymbolTable
0
VPORT
5
1
100
AcDbSymbolTableRecord
100
AcDbViewportTableRecord
2
*Active
70
0
10
0
20
0
11
1
21
1
12
-1
22
1
13
0
23
0
14
0.5
24
0.5
15
10
25
10
16
0
26
0
36
1
17
0
27
0
37
0
0
ENDTAB
0
TABLE
2
LTYPE
5
182
100
AcDbSymbolTable
0
LTYPE
5
14
100
AcDbSymbolTableRecord
100
AcDbLinetypeTableRecord
70
0
2
ByBlock
3

72
65
73
0
40
0
0
LTYPE
5
15
100
AcDbSymbolTableRecord
100
AcDbLinetypeTableRecord
70
0
2
ByLayer
3

72
65
73
0
40
0
0
LTYPE
5
16
100
AcDbSymbolTableRecord
100
AcDbLinetypeTableRecord
70
0
2
CONTINUOUS
3
Solid line
72
65
73
0
40
0
0
LTYPE
5
3B
100
AcDbSymbolTableRecord
100
AcDbLinetypeTableRecord
70
0
2
DASHED
3
__ __ __ __ __ __ __ __ __
72
65
73
2
40
25.72
49
12.86
74
0
49
-12.86
74
0
0
LTYPE
5
3C
100
AcDbSymbolTableRecord
100
AcDbLinetypeTableRecord
70
0
2
HIDDEN
3
_ _ _ _ _ _ _ _ _ _ _ _ _ _ _
72
65
73
2
40
0.5
49
0.25
74
0
49
-0.25
74
0
0
LTYPE
5
3D
100
AcDbSymbolTableRecord
100
AcDbLinetypeTableRecord
70
0
2
PHANTOM
3
____ _ _ ____ _ _ _____ _ _ ____
72
65
73
6
40
50.5
49
18
74
0
49
-6.5
74
0
49
6.5
74
0
49
-6.5
74
0
49
6.5
74
0
49
-6.5
74
0
0
LTYPE
5
3E
100
AcDbSymbolTableRecord
100
AcDbLinetypeTableRecord
70
0
2
CENTER
3
____ _ ____ _ ____ _ ____
72
65
73
4
40
47.5
49
22
74
0
49
-8.5
74
0
49
8.5
74
0
49
-8.5
74
0
0
LTYPE
5
3F
100
AcDbSymbolTableRecord
100
AcDbLinetypeTableRecord
70
0
2
DOT
3
.........................
72
65
73
2
40
10
49
0
74
0
49
-10
74
0
0
LTYPE
5
40
100
AcDbSymbolTableRecord
100
AcDbLinetypeTableRecord
70
0
2
DASHDOT
3
_._._._._._._._._._._._._._._._.
72
65
73
4
40
70
49
31
74
0
49
-13
74
0
49
13
74
0
49
-13
74
0
0
ENDTAB
0
TABLE
2
LAYER
5
183
100
AcDbSymbolTable
0
LAYER
5
10
100
AcDbSymbolTableRecord
100
AcDbLayerTableRecord
2
0
70
0
62
7
6
CONTINUOUS
290
1
370
-3
390
0
0
LAYER
5
42
100
AcDbSymbolTableRecord
100
AcDbLayerTableRecord
2
80
70
0
62
-6
6
CONTINUOUS
290
1
370
-3
390
0
0
LAYER
5
44
100
AcDbSymbolTableRecord
100
AcDbLayerTableRecord
2
81
70
0
62
-3
6
CONTINUOUS
290
1
370
-3
390
0
0
LAYER
5
46
100
AcDbSymbolTableRecord
100
AcDbLayerTableRecord
2
1
70
0
62
4
6
CONTINUOUS
290
1
370
-3
390
0
0
LAYER
5
48
100
AcDbSymbolTableRecord
100
AcDbLayerTableRecord
2
2
70
0
62
7
6
CONTINUOUS
290
1
370
-3
390
0
0
LAYER
5
4E
100
AcDbSymbolTableRecord
100
AcDbLayerTableRecord
2
4
70
0
62
-2
6
CENTER
290
1
370
-3
390
0
0
LAYER
5
16d
100
AcDbSymbolTableRecord
100
AcDbLayerTableRecord
2
SK4
70
0
62
2
6
CENTER
290
1
370
-3
390
0
0
LAYER
5
16e
100
AcDbSymbolTableRecord
100
AcDbLayerTableRecord
2
SK1
70
0
62
4
6
CONTINUOUS
290
1
370
-3
390
0
0
LAYER
5
16f
100
AcDbSymbolTableRecord
100
AcDbLayerTableRecord
2
SK6
70
0
62
5
6
CONTINUOUS
290
1
370
-3
390
0
0
LAYER
5
170
100
AcDbSymbolTableRecord
100
AcDbLayerTableRecord
2
SK2
70
0
62
7
6
CONTINUOUS
290
1
370
-3
390
0
0
ENDTAB
0
TABLE
2
STYLE
5
184
100
AcDbSymbolTable
0
STYLE
5
11
100
AcDbSymbolTableRecord
100
AcDbTextStyleTableRecord
2
Standard
3
txt
70
0
71
0
40
0
41
1
42
0
50
0
0
STYLE
5
E9
100
AcDbSymbolTableRecord
100
AcDbTextStyleTableRecord
2
DEFAULT
3
simplex.shx
70
0
71
0
40
0
41
1
42
0
50
0
0
STYLE
5
10C
100
AcDbSymbolTableRecord
100
AcDbTextStyleTableRecord
2
DWGDirectTextStyle
3
SIMPLEX
70
0
71
0
40
0
41
1
42
0
50
0
0
ENDTAB
0
TABLE
2
DIMSTYLE
5
185
100
AcDbSymbolTable
100
AcDbDimStyleTable
0
DIMSTYLE
105
27
100
AcDbSymbolTableRecord
100
AcDbDimStyleTableRecord
2
Standard
70
0
3
<>
41
0.18
42
0.0625
44
0.18
140
0.18
147
0.09
73
0
74
0
77
1
271
2
275
0
278
52
280
0
340
11
0
ENDTAB
0
TABLE
2
VIEW
5
186
100
AcDbSymbolTable
0
ENDTAB
0
TABLE
2
UCS
5
187
100
AcDbSymbolTable
0
ENDTAB
0
TABLE
2
APPID
5
188
100
AcDbSymbolTable
0
APPID
5
12
100
AcDbSymbolTableRecord
100
AcDbRegAppTableRecord
2
ACAD
70
0
0
ENDTAB
0
TABLE
2
BLOCK_RECORD
5
189
100
AcDbSymbolTable
0
BLOCK_RECORD
5
1F
100
AcDbSymbolTableRecord
100
AcDbBlockTableRecord
2
*Model_Space
340
0
70
0
0
BLOCK_RECORD
5
1B
100
AcDbSymbolTableRecord
100
AcDbBlockTableRecord
2
*Paper_Space
340
0
70
0
0
BLOCK_RECORD
5
23
100
AcDbSymbolTableRecord
100
AcDbBlockTableRecord
2
*Paper_Space0
340
0
70
0
0
BLOCK_RECORD
5
10E
100
AcDbSymbolTableRecord
100
AcDbBlockTableRecord
2
DimnDraft3D1
340
0
70
0
0
BLOCK_RECORD
5
11C
100
AcDbSymbolTableRecord
100
AcDbBlockTableRecord
2
_CLOSED
340
0
70
0
0
BLOCK_RECORD
5
123
100
AcDbSymbolTableRecord
100
AcDbBlockTableRecord
2
DimnDraft3D2
340
0
70
0
0
BLOCK_RECORD
5
132
100
AcDbSymbolTableRecord
100
AcDbBlockTableRecord
2
DimnDraft3D3
340
0
70
0
0
BLOCK_RECORD
5
140
100
AcDbSymbolTableRecord
100
AcDbBlockTableRecord
2
DimnDraft3D4
340
0
70
0
0
ENDTAB
0
ENDSEC
0
SECTION
2
BLOCKS
0
BLOCK
5
20
100
AcDbEntity
8
0
100
AcDbBlockBegin
2
*Model_Space
70
0
10
0
20
0
30
0
3
*Model_Space
0
ENDBLK
5
21
100
AcDbEntity
8
0
100
AcDbBlockEnd
0
BLOCK
5
1C
100
AcDbEntity
8
0
100
AcDbBlockBegin
2
*Paper_Space
70
0
10
0
20
0
30
0
3
*Paper_Space
0
ENDBLK
5
1D
100
AcDbEntity
8
0
100
AcDbBlockEnd
0
BLOCK
5
24
100
AcDbEntity
8
0
100
AcDbBlockBegin
2
*Paper_Space0
70
0
10
0
20
0
30
0
3
*Paper_Space0
0
ENDBLK
5
25
100
AcDbEntity
8
0
100
AcDbBlockEnd
0
BLOCK
5
119
100
AcDbEntity
8
0
100
AcDbBlockBegin
2
DimnDraft3D1
70
0
10
0
20
0
30
0
3
DimnDraft3D1
0
MTEXT
5
10F
100
AcDbEntity
8
2
62
256
6
ByLayer
370
-1
48
1
60
0
100
AcDbMText
10
171.039
20
9.411842
30
0
210
0
220
0
230
1
1
\W01.000;\fsimplex.shx,bigfont.shx;27.0 
40
4.5
41
0
44
1.084337
50
90
71
7
72
5
7
DEFAULT
0
LINE
5
110
100
AcDbEntity
8
2
62
256
6
ByLayer
370
-1
48
1
60
0
100
AcDbLine
10
161.914
20
26.9
30
0
11
174.164
21
26.9
31
0
39
0
210
0
220
0
230
1
0
LINE
5
111
100
AcDbEntity
8
2
62
256
6
ByLayer
370
-1
48
1
60
0
100
AcDbLine
10
161.914
20
0
30
0
11
174.164
21
0
31
0
39
0
210
0
220
0
230
1
0
LINE
5
112
100
AcDbEntity
8
2
62
256
6
ByLayer
370
-1
48
1
60
0
100
AcDbLine
10
172.164
20
26.9
30
0
11
172.164
21
0
31
0
39
0
210
0
220
0
230
1
0
LINE
5
113
100
AcDbEntity
8
2
62
256
6
ByLayer
370
-1
48
1
60
0
100
AcDbLine
10
172.164
20
26.9
30
0
11
172.581997
21
23.725002
31
0
39
0
210
0
220
0
230
1
0
LINE
5
114
100
AcDbEntity
8
2
62
256
6
ByLayer
370
-1
48
1
60
0
100
AcDbLine
10
172.164
20
26.9
30
0
11
171.746003
21
23.724998
31
0
39
0
210
0
220
0
230
1
0
LINE
5
115
100
AcDbEntity
8
2
62
256
6
ByLayer
370
-1
48
1
60
0
100
AcDbLine
10
172.581997
20
23.725002
30
0
11
171.746003
21
23.724998
31
0
39
0
210
0
220
0
230
1
0
LINE
5
116
100
AcDbEntity
8
2
62
256
6
ByLayer
370
-1
48
1
60
0
100
AcDbLine
10
172.164
20
0
30
0
11
171.746003
21
3.174998
31
0
39
0
210
0
220
0
230
1
0
LINE
5
117
100
AcDbEntity
8
2
62
256
6
ByLayer
370
-1
48
1
60
0
100
AcDbLine
10
172.164
20
0
30
0
11
172.581997
21
3.175002
31
0
39
0
210
0
220
0
230
1
0
LINE
5
118
100
AcDbEntity
8
2
62
256
6
ByLayer
370
-1
48
1
60
0
100
AcDbLine
10
171.746003
20
3.174998
30
0
11
172.581997
21
3.175002
31
0
39
0
210
0
220
0
230
1
0
ENDBLK
5
11A
100
AcDbEntity
8
0
100
AcDbBlockEnd
0
BLOCK
5
11D
100
AcDbEntity
8
0
100
AcDbBlockBegin
2
_CLOSED
70
0
10
0
20
0
30
0
3
_CLOSED
0
LINE
5
11F
100
AcDbEntity
8
0
62
256
6
ByLayer
370
-2
48
1
60
0
100
AcDbLine
10
-1
20
0.166667
30
0
11
0
21
0
31
0
39
0
210
0
220
0
230
1
0
LINE
5
120
100
AcDbEntity
8
0
62
256
6
ByLayer
370
-2
48
1
60
0
100
AcDbLine
10
0
20
0
30
0
11
-1
21
-0.166667
31
0
39
0
210
0
220
0
230
1
0
LINE
5
121
100
AcDbEntity
8
0
62
256
6
ByLayer
370
-2
48
1
60
0
100
AcDbLine
10
-1
20
0.166667
30
0
11
-1
21
-0.166667
31
0
39
0
210
0
220
0
230
1
0
LINE
5
122
100
AcDbEntity
8
0
62
256
6
ByLayer
370
-2
48
1
60
0
100
AcDbLine
10
0
20
0
30
0
11
-1
21
0
31
0
39
0
210
0
220
0
230
1
0
ENDBLK
5
11E
100
AcDbEntity
8
0
100
AcDbBlockEnd
0
BLOCK
5
12F
100
AcDbEntity
8
0
100
AcDbBlockBegin
2
DimnDraft3D2
70
0
10
0
20
0
30
0
3
DimnDraft3D2
0
MTEXT
5
124
100
AcDbEntity
8
SK2
62
256
6
ByLayer
370
-1
48
1
60
0
100
AcDbMText
10
-152.211
20
-3.896053
30
0
210
0
220
0
230
1
1
\W01.000;\fsimplex.shx,bigfont.shx;%%c40 
40
4.5
41
0
44
1.084337
50
90
71
7
72
5
7
DEFAULT
0
LINE
5
126
100
AcDbEntity
8
SK2
62
256
6
ByLayer
370
-1
48
1
60
0
100
AcDbLine
10
-143.336
20
-19.98925
30
0
11
-153.086
21
-19.98925
31
0
39
0
210
0
220
0
230
1
0
LINE
5
127
100
AcDbEntity
8
SK2
62
256
6
ByLayer
370
-1
48
1
60
0
100
AcDbLine
10
-143.336
20
19.98925
30
0
11
-153.086
21
19.98925
31
0
39
0
210
0
220
0
230
1
0
LINE
5
128
100
AcDbEntity
8
SK2
62
256
6
ByLayer
370
-1
48
1
60
0
100
AcDbLine
10
-151.086
20
-19.98925
30
0
11
-151.086
21
19.98925
31
0
39
0
210
0
220
0
230
1
0
LINE
5
129
100
AcDbEntity
8
SK2
62
256
6
ByLayer
370
-1
48
1
60
0
100
AcDbLine
10
-151.086
20
-19.98925
30
0
11
-151.503997
21
-16.814252
31
0
39
0
210
0
220
0
230
1
0
LINE
5
12A
100
AcDbEntity
8
SK2
62
256
6
ByLayer
370
-1
48
1
60
0
100
AcDbLine
10
-151.086
20
-19.98925
30
0
11
-150.668003
21
-16.814248
31
0
39
0
210
0
220
0
230
1
0
LINE
5
12B
100
AcDbEntity
8
SK2
62
256
6
ByLayer
370
-1
48
1
60
0
100
AcDbLine
10
-151.503997
20
-16.814252
30
0
11
-150.668003
21
-16.814248
31
0
39
0
210
0
220
0
230
1
0
LINE
5
12C
100
AcDbEntity
8
SK2
62
256
6
ByLayer
370
-1
48
1
60
0
100
AcDbLine
10
-151.086
20
19.98925
30
0
11
-150.668003
21
16.814252
31
0
39
0
210
0
220
0
230
1
0
LINE
5
12D
100
AcDbEntity
8
SK2
62
256
6
ByLayer
370
-1
48
1
60
0
100
AcDbLine
10
-151.086
20
19.98925
30
0
11
-151.503997
21
16.814248
31
0
39
0
210
0
220
0
230
1
0
LINE
5
12E
100
AcDbEntity
8
SK2
62
256
6
ByLayer
370
-1
48
1
60
0
100
AcDbLine
10
-150.668003
20
16.814252
30
0
11
-151.503997
21
16.814248
31
0
39
0
210
0
220
0
230
1
0
ENDBLK
5
130
100
AcDbEntity
8
0
100
AcDbBlockEnd
0
BLOCK
5
13D
100
AcDbEntity
8
0
100
AcDbBlockBegin
2
DimnDraft3D3
70
0
10
0
20
0
30
0
3
DimnDraft3D3
0
MTEXT
5
133
100
AcDbEntity
8
SK2
62
256
6
ByLayer
370
-1
48
1
60
0
100
AcDbMText
10
3.598868
20
40.775
30
0
210
0
220
0
230
1
1
\W01.000;\fsimplex.shx,bigfont.shx;300.0 
40
4.5
41
0
44
1.084337
50
0
71
7
72
5
7
DEFAULT
0
LINE
5
134
100
AcDbEntity
8
SK2
62
256
6
ByLayer
370
-1
48
1
60
0
100
AcDbLine
10
159.914
20
28.9
30
0
11
159.914
21
41.65
31
0
39
0
210
0
220
0
230
1
0
LINE
5
135
100
AcDbEntity
8
SK2
62
256
6
ByLayer
370
-1
48
1
60
0
100
AcDbLine
10
-141.336
20
21.98925
30
0
11
-141.336
21
41.65
31
0
39
0
210
0
220
0
230
1
0
LINE
5
136
100
AcDbEntity
8
SK2
62
256
6
ByLayer
370
-1
48
1
60
0
100
AcDbLine
10
159.914
20
39.65
30
0
11
-141.336
21
39.65
31
0
39
0
210
0
220
0
230
1
0
LINE
5
137
100
AcDbEntity
8
SK2
62
256
6
ByLayer
370
-1
48
1
60
0
100
AcDbLine
10
159.914
20
39.65
30
0
11
156.739002
21
39.232003
31
0
39
0
210
0
220
0
230
1
0
LINE
5
138
100
AcDbEntity
8
SK2
62
256
6
ByLayer
370
-1
48
1
60
0
100
AcDbLine
10
159.914
20
39.65
30
0
11
156.738998
21
40.067997
31
0
39
0
210
0
220
0
230
1
0
LINE
5
139
100
AcDbEntity
8
SK2
62
256
6
ByLayer
370
-1
48
1
60
0
100
AcDbLine
10
156.739002
20
39.232003
30
0
11
156.738998
21
40.067997
31
0
39
0
210
0
220
0
230
1
0
LINE
5
13A
100
AcDbEntity
8
SK2
62
256
6
ByLayer
370
-1
48
1
60
0
100
AcDbLine
10
-141.336
20
39.65
30
0
11
-138.161002
21
40.067997
31
0
39
0
210
0
220
0
230
1
0
LINE
5
13B
100
AcDbEntity
8
SK2
62
256
6
ByLayer
370
-1
48
1
60
0
100
AcDbLine
10
-141.336
20
39.65
30
0
11
-138.160998
21
39.232003
31
0
39
0
210
0
220
0
230
1
0
LINE
5
13C
100
AcDbEntity
8
SK2
62
256
6
ByLayer
370
-1
48
1
60
0
100
AcDbLine
10
-138.161002
20
40.067997
30
0
11
-138.160998
21
39.232003
31
0
39
0
210
0
220
0
230
1
0
ENDBLK
5
13E
100
AcDbEntity
8
0
100
AcDbBlockEnd
0
BLOCK
5
14B
100
AcDbEntity
8
0
100
AcDbBlockBegin
2
DimnDraft3D4
70
0
10
0
20
0
30
0
3
DimnDraft3D4
0
MTEXT
5
141
100
AcDbEntity
8
2
62
256
6
ByLayer
370
-1
48
1
60
0
100
AcDbMText
10
184.635741
20
-37.312521
30
0
210
0
220
0
230
1
1
\W01.000;\fsimplex.shx,bigfont.shx;95%%d0' 
40
4.5
41
0
44
1.084337
50
42.4999999999998
71
7
72
5
7
DEFAULT
0
LINE
5
142
100
AcDbEntity
8
2
62
256
6
ByLayer
370
-1
48
1
60
0
100
AcDbLine
10
158.69382
20
12.953274
30
0
11
153.296338
21
-48.740227
31
0
39
0
210
0
220
0
230
1
0
LINE
5
143
100
AcDbEntity
8
2
62
256
6
ByLayer
370
-1
48
1
60
0
100
AcDbLine
10
161.914
20
0
30
0
11
206.486962
21
0
31
0
39
0
210
0
220
0
230
1
0
ARC
5
144
100
AcDbEntity
8
2
62
256
6
ByLayer
370
-1
48
1
60
0
100
AcDbCircle
39
0
10
157.560555
20
0
30
0
40
46.926406878293
210
0
220
0
230
1
100
AcDbArc
50
265
51
0
0
LINE
5
145
100
AcDbEntity
8
2
62
256
6
ByLayer
370
-1
48
1
60
0
100
AcDbLine
10
153.470649
20
-46.747838
30
0
11
156.667177
21
-46.554078
31
0
39
0
210
0
220
0
230
1
0
LINE
5
146
100
AcDbEntity
8
2
62
256
6
ByLayer
370
-1
48
1
60
0
100
AcDbLine
10
153.470649
20
-46.747838
30
0
11
156.60841
21
-47.388003
31
0
39
0
210
0
220
0
230
1
0
LINE
5
147
100
AcDbEntity
8
2
62
256
6
ByLayer
370
-1
48
1
60
0
100
AcDbLine
10
156.667177
20
-46.554078
30
0
11
156.60841
21
-47.388003
31
0
39
0
210
0
220
0
230
1
0
LINE
5
148
100
AcDbEntity
8
2
62
256
6
ByLayer
370
-1
48
1
60
0
100
AcDbLine
10
204.486962
20
0
30
0
11
204.851217
21
-3.181612
31
0
39
0
210
0
220
0
230
1
0
LINE
5
149
100
AcDbEntity
8
2
62
256
6
ByLayer
370
-1
48
1
60
0
100
AcDbLine
10
204.486962
20
0
30
0
11
204.015343
21
-3.16748
31
0
39
0
210
0
220
0
230
1
0
LINE
5
14A
100
AcDbEntity
8
2
62
256
6
ByLayer
370
-1
48
1
60
0
100
AcDbLine
10
204.851217
20
-3.181612
30
0
11
204.015343
21
-3.16748
31
0
39
0
210
0
220
0
230
1
0
ENDBLK
5
14C
100
AcDbEntity
8
0
100
AcDbBlockEnd
0
ENDSEC
0
SECTION
2
ENTITIES
0
ELLIPSE
5
91
100
AcDbEntity
8
1
62
256
6
ByLayer
370
-1
48
1
60
0
100
AcDbEllipse
10
146.629396
20
12.730483
30
0
11
1.74334072166055
21
-0.152522549808402
31
0
210
0
220
0
230
1
40
0.992214
41
1.93855059250304
42
2.48941641776591
0
ELLIPSE
5
92
100
AcDbEntity
8
1
62
256
6
ByLayer
370
-1
48
1
60
0
100
AcDbEllipse
10
146.914112
20
14.867202
30
0
11
-1.49429204713762
21
0.130733614121485
31
0
210
0
220
0
230
1
40
0.992214
41
-1.06511617319815
42
-0.00436332312999604
0
ELLIPSE
5
93
100
AcDbEntity
8
1
62
256
6
ByLayer
370
-1
48
1
60
0
100
AcDbEllipse
10
52.814559
20
360.928478
30
0
11
131.778167422081
21
-488.208551382264
31
-8.47362292487653E-14
210
-6.16297582203915E-33
220
1.73565639128712E-16
230
-1
40
0.117064
41
0.747609613450123
42
0.793636708181607
0
ELLIPSE
5
94
100
AcDbEntity
8
1
62
256
6
ByLayer
370
-1
48
1
60
0
100
AcDbEllipse
10
146.717865
20
13.741685
30
0
11
1.74334072166055
21
-0.152522549808402
31
0
210
0
220
0
230
1
40
0.992214
41
2.72391523167024
42
-0.151921250830863
0
ELLIPSE
5
95
100
AcDbEntity
8
1
62
256
6
ByLayer
370
-1
48
1
60
0
100
AcDbEllipse
10
146.62234
20
12.649837
30
0
11
-1.74334072166055
21
0.1525225498084
31
0
210
0
220
0
230
1
40
0.992214
41
-1.20305667955747
42
-0.321054774122654
0
ELLIPSE
5
96
100
AcDbEntity
8
1
62
256
6
ByLayer
370
-1
48
1
60
0
100
AcDbEllipse
10
146.941693
20
15.182453
30
0
11
1.77523000875774
21
-0.155312500917328
31
0
210
0
220
0
230
1
40
0.992214
41
1.99077648309989
42
3.13722933046009
0
ELLIPSE
5
97
100
AcDbEntity
8
1
62
256
6
ByLayer
370
-1
48
1
60
0
100
AcDbEllipse
10
146.922661
20
14.975402
30
0
11
1.77523000875774
21
-0.155312500917328
31
0
210
0
220
0
230
1
40
0.992214
41
3.13722933046011
42
-2.82972345804642
0
ELLIPSE
5
98
100
AcDbEntity
8
1
62
256
6
ByLayer
370
-1
48
1
60
0
100
AcDbEllipse
10
146.853225
20
14.171252
30
0
11
-1.49429204713762
21
0.130733614121485
31
0
210
0
220
0
230
1
40
0.992214
41
-1.06511617319816
42
-0.125283052689952
0
ELLIPSE
5
99
100
AcDbEntity
8
1
62
256
6
ByLayer
370
-1
48
1
60
0
100
AcDbEllipse
10
146.89508
20
14.660151
30
0
11
-1.49429204713762
21
0.130733614121485
31
0
210
0
220
0
230
1
40
0.992214
41
-0.00436332312999246
42
0.130067207292119
0
ELLIPSE
5
9A
100
AcDbEntity
8
1
62
256
6
ByLayer
370
-1
48
1
60
0
100
AcDbEllipse
10
158.144264
20
14.959147
30
0
11
0.79097859012335
21
-0.0692016597275109
31
0
210
0
220
0
230
1
40
0.992214
41
-1.39626340156023
42
3.55714244814151E-11
0
ELLIPSE
5
9B
100
AcDbEntity
8
1
62
256
6
ByLayer
370
-1
48
1
60
0
100
AcDbEllipse
10
153.012566
20
20.05152
30
0
11
4.05583272606582
21
-0.354839384688201
31
0
210
0
220
0
230
1
40
0.992214
41
0
42
6.28318530717959
0
ELLIPSE
5
9C
100
AcDbEntity
8
1
62
256
6
ByLayer
370
-1
48
1
60
0
100
AcDbEllipse
10
147.880868
20
25.143893
30
0
11
0.790978590123454
21
-0.06920165972752
31
0
210
0
220
0
230
1
40
0.992214
41
1.74532925202983
42
-3.1415926535543
0
ELLIPSE
5
9D
100
AcDbEntity
8
1
62
256
6
ByLayer
370
-1
48
1
60
0
100
AcDbEllipse
10
153.000697
20
19.915858
30
0
11
-3.92153120152563
21
0.343089523796683
31
0
210
0
220
0
230
1
40
0.992214
41
0.0879478287242548
42
1.37922347488041
0
ELLIPSE
5
9E
100
AcDbEntity
8
1
62
256
6
ByLayer
370
-1
48
1
60
0
100
AcDbEllipse
10
153.000697
20
19.915858
30
0
11
-3.92153120152563
21
0.343089523796683
31
0
210
0
220
0
230
1
40
0.992214
41
1.76230129833579
42
0
0
ELLIPSE
5
9F
100
AcDbEntity
8
1
62
256
6
ByLayer
370
-1
48
1
60
0
100
AcDbEllipse
10
153.000697
20
19.915858
30
0
11
-3.92153120152563
21
0.343089523796683
31
0
210
0
220
0
230
1
40
0.992214
41
0
42
0.0879478520564413
0
ELLIPSE
5
A0
100
AcDbEntity
8
1
62
256
6
ByLayer
370
-1
48
1
60
0
100
AcDbEllipse
10
153.002576
20
19.937335
30
0
11
3.99172294436723
21
-0.349230505568452
31
0
210
0
220
0
230
1
40
0.992214
41
-0.578872438054504
42
0
0
ELLIPSE
5
A1
100
AcDbEntity
8
1
62
256
6
ByLayer
370
-1
48
1
60
0
100
AcDbEllipse
10
153.002576
20
19.937335
30
0
11
3.99172294436723
21
-0.349230505568452
31
0
210
0
220
0
230
1
40
0.992214
41
0
42
0.0879476837988667
0
ELLIPSE
5
A2
100
AcDbEntity
8
1
62
256
6
ByLayer
370
-1
48
1
60
0
100
AcDbEllipse
10
153.002576
20
19.937335
30
0
11
3.99172294436723
21
-0.349230505568452
31
0
210
0
220
0
230
1
40
0.992214
41
0.0879477980126978
42
-2.56268979572686
0
ELLIPSE
5
A3
100
AcDbEntity
8
1
62
256
6
ByLayer
370
-1
48
1
60
0
100
AcDbEllipse
10
146.853441
20
13.400346
30
0
11
-0.239934988993696
21
0.0209915915201654
31
0
210
0
220
0
230
1
40
0.992214
41
0.913083857444557
42
1.22977468761216
0
ELLIPSE
5
A4
100
AcDbEntity
8
1
62
256
6
ByLayer
370
-1
48
1
60
0
100
AcDbEllipse
10
151.161313
20
19.285706
30
0
11
-0.683389562890938
21
0.0597888395248927
31
0
210
0
220
0
230
1
40
0.992214
41
2.70806313420859
42
3.14158555232047
0
ELLIPSE
5
A5
100
AcDbEntity
8
1
62
256
6
ByLayer
370
-1
48
1
60
0
100
AcDbEllipse
10
151.649722
20
20.125798
30
0
11
-0.29088885184279
21
0.0254494768823158
31
0
210
0
220
0
230
1
40
0.992214
41
-1.4893930357189
42
-0.441455539747865
0
ELLIPSE
5
A6
100
AcDbEntity
8
1
62
256
6
ByLayer
370
-1
48
1
60
0
100
AcDbEllipse
10
151.654794
20
21.09622
30
0
11
-0.683389562890938
21
0.0597888395248927
31
0
210
0
220
0
230
1
40
0.992214
41
1.65219961787108
42
2.32184691157475
0
ELLIPSE
5
A7
100
AcDbEntity
8
1
62
256
6
ByLayer
370
-1
48
1
60
0
100
AcDbEllipse
10
152.632716
20
21.101249
30
0
11
-0.29088885184279
21
0.0254494768823158
31
0
210
0
220
0
230
1
40
0.992214
41
-2.5307151694556
42
-0.519783099161057
0
ELLIPSE
5
A8
100
AcDbEntity
8
1
62
256
6
ByLayer
370
-1
48
1
60
0
100
AcDbEllipse
10
153.479302
20
21.585908
30
0
11
-0.683389562890938
21
0.0597888395248927
31
0
210
0
220
0
230
1
40
0.992214
41
0.610877484134066
42
1.39486812775493
0
ELLIPSE
5
A9
100
AcDbEntity
8
1
62
256
6
ByLayer
370
-1
48
1
60
0
100
AcDbEllipse
10
153.966471
20
20.743794
30
0
11
-0.29088885184279
21
0.0254494768823158
31
0
210
0
220
0
230
1
40
0.992214
41
-2.72058395036416
42
-0.962733882214362
0
ELLIPSE
5
AA
100
AcDbEntity
8
1
62
256
6
ByLayer
370
-1
48
1
60
0
100
AcDbEllipse
10
154.81509
20
20.260357
30
0
11
-0.683389562890938
21
0.0597888395248927
31
0
210
0
220
0
230
1
40
0.992214
41
-6.676976214466E-06
42
0.350461124239562
0
ELLIPSE
5
AB
100
AcDbEntity
8
1
62
256
6
ByLayer
370
-1
48
1
60
0
100
AcDbEllipse
10
154.326681
20
19.420265
30
0
11
-0.29088885184279
21
0.0254494768823158
31
0
210
0
220
0
230
1
40
0.992214
41
-2.6965556765779
42
-2.00714088572926
0
ELLIPSE
5
AC
100
AcDbEntity
8
1
62
256
6
ByLayer
370
-1
48
1
60
0
100
AcDbEllipse
10
152.988201
20
19.773031
30
0
11
-1.2019089032477
21
0.105153403625049
31
0
210
0
220
0
230
1
40
0.992214
41
-0.629099067385591
42
0.065960272489131
0
ELLIPSE
5
AD
100
AcDbEntity
8
1
62
256
6
ByLayer
370
-1
48
1
60
0
100
AcDbEllipse
10
153.007508
20
19.993712
30
0
11
1.2019089032477
21
-0.105153403625049
31
0
210
0
220
0
230
1
40
0.992214
41
2.3744283193801
42
2.51249358620409
0
ELLIPSE
5
AE
100
AcDbEntity
8
1
62
256
6
ByLayer
370
-1
48
1
60
0
100
AcDbEllipse
10
153.010454
20
20.027379
30
0
11
1.67012041135082
21
-0.146116602716448
31
0
210
0
220
0
230
1
40
0.992214
41
2.96985027607166
42
-2.26892802759256
0
ELLIPSE
5
AF
100
AcDbEntity
8
1
62
256
6
ByLayer
370
-1
48
1
60
0
100
AcDbEllipse
10
153.010454
20
20.027379
30
0
11
1.67012041135082
21
-0.146116602716448
31
0
210
0
220
0
230
1
40
0.992214
41
-2.26892802759256
42
-1.22452102407726
0
ELLIPSE
5
B0
100
AcDbEntity
8
1
62
256
6
ByLayer
370
-1
48
1
60
0
100
AcDbEllipse
10
152.988201
20
19.773031
30
0
11
-1.2019089032477
21
0.105153403625049
31
0
210
0
220
0
230
1
40
0.992214
41
0.440247167168339
42
1.01832670699107
0
ELLIPSE
5
B1
100
AcDbEntity
8
1
62
256
6
ByLayer
370
-1
48
1
60
0
100
AcDbEllipse
10
153.007508
20
19.993712
30
0
11
1.2019089032477
21
-0.105153403625049
31
0
210
0
220
0
230
1
40
0.992214
41
-0.767164334209761
42
-0.629099067385823
0
ELLIPSE
5
B2
100
AcDbEntity
8
1
62
256
6
ByLayer
370
-1
48
1
60
0
100
AcDbEllipse
10
152.988201
20
19.773031
30
0
11
1.20190890324771
21
-0.10515340362505
31
0
210
0
220
0
230
1
40
0.992214
41
0.350461124239478
42
1.39486812775477
0
ELLIPSE
5
B3
100
AcDbEntity
8
1
62
256
6
ByLayer
370
-1
48
1
60
0
100
AcDbEllipse
10
152.988201
20
19.773031
30
0
11
-1.2019089032477
21
0.105153403625049
31
0
210
0
220
0
230
1
40
0.992214
41
-1.74672452583503
42
-0.767164334209995
0
ELLIPSE
5
B4
100
AcDbEntity
8
1
62
256
6
ByLayer
370
-1
48
1
60
0
100
AcDbEllipse
10
153.010454
20
20.027379
30
0
11
1.67012041135082
21
-0.146116602716448
31
0
210
0
220
0
230
1
40
0.992214
41
-1.22452102407726
42
-0.171742377518052
0
ELLIPSE
5
B5
100
AcDbEntity
8
1
62
256
6
ByLayer
370
-1
48
1
60
0
100
AcDbEllipse
10
153.479302
20
21.585908
30
0
11
-0.683389562890938
21
0.0597888395248927
31
0
210
0
220
0
230
1
40
0.992214
41
1.39486812775493
42
2.17885877137568
0
ELLIPSE
5
B6
100
AcDbEntity
8
1
62
256
6
ByLayer
370
-1
48
1
60
0
100
AcDbEllipse
10
153.010454
20
20.027379
30
0
11
1.67012041135082
21
-0.146116602716448
31
0
210
0
220
0
230
1
40
0.992214
41
1.91707162951224
42
2.96985027607166
0
ELLIPSE
5
B7
100
AcDbEntity
8
1
62
256
6
ByLayer
370
-1
48
1
60
0
100
AcDbEllipse
10
152.988201
20
19.773031
30
0
11
1.20190890324771
21
-0.10515340362505
31
0
210
0
220
0
230
1
40
0.992214
41
2.37442831937983
42
2.51249358620423
0
ELLIPSE
5
B8
100
AcDbEntity
8
1
62
256
6
ByLayer
370
-1
48
1
60
0
100
AcDbEllipse
10
153.010454
20
20.027379
30
0
11
1.67012041135082
21
-0.146116602716448
31
0
210
0
220
0
230
1
40
0.992214
41
0.872664625997146
42
1.91707162951224
0
ELLIPSE
5
B9
100
AcDbEntity
8
1
62
256
6
ByLayer
370
-1
48
1
60
0
100
AcDbEllipse
10
151.654794
20
21.09622
30
0
11
-0.683389562890938
21
0.0597888395248927
31
0
210
0
220
0
230
1
40
0.992214
41
2.5650749940096
42
3.14158830158528
0
ELLIPSE
5
BA
100
AcDbEntity
8
1
62
256
6
ByLayer
370
-1
48
1
60
0
100
AcDbEllipse
10
152.988201
20
19.773031
30
0
11
-1.2019089032477
21
0.105153403625049
31
0
210
0
220
0
230
1
40
0.992214
41
1.72168957765206
42
2.24345848862138
0
ELLIPSE
5
BB
100
AcDbEntity
8
1
62
256
6
ByLayer
370
-1
48
1
60
0
100
AcDbEllipse
10
153.010454
20
20.027379
30
0
11
1.67012041135082
21
-0.146116602716448
31
0
210
0
220
0
230
1
40
0.992214
41
-0.171742377518052
42
0.872664625997146
0
ELLIPSE
5
BC
100
AcDbEntity
8
1
62
256
6
ByLayer
370
-1
48
1
60
0
100
AcDbEllipse
10
152.988201
20
19.773031
30
0
11
-1.2019089032477
21
0.105153403625049
31
0
210
0
220
0
230
1
40
0.992214
41
2.81430495550067
42
-2.79113152935029
0
ELLIPSE
5
BD
100
AcDbEntity
8
1
62
256
6
ByLayer
370
-1
48
1
60
0
100
AcDbEllipse
10
154.81509
20
20.260357
30
0
11
-0.683389562890938
21
0.0597888395248927
31
0
210
0
220
0
230
1
40
0.992214
41
0.350461124239562
42
1.13445176786028
0
ELLIPSE
5
BE
100
AcDbEntity
8
1
62
256
6
ByLayer
370
-1
48
1
60
0
100
AcDbEllipse
10
147.167439
20
13.396684
30
0
11
0.796955758473397
21
-0.069724594198126
31
0
210
0
220
0
230
1
40
0.992214
41
-3.07267937493088
42
-1.39626340159563
0
ELLIPSE
5
BF
100
AcDbEntity
8
1
62
256
6
ByLayer
370
-1
48
1
60
0
100
AcDbEllipse
10
147.207005
20
13.848927
30
0
11
-0.796955758473397
21
0.0697245941981255
31
0
210
0
220
0
230
1
40
0.992214
41
1.07984016014381
42
1.74532925199423
0
ELLIPSE
5
C0
100
AcDbEntity
8
1
62
256
6
ByLayer
370
-1
48
1
60
0
100
AcDbEllipse
10
153.006093
20
19.977533
30
0
11
3.41196684096421
21
-0.298508418910725
31
0
210
0
220
0
230
1
40
0.992214
41
0
42
6.28318530717959
0
ELLIPSE
5
C1
100
AcDbEntity
8
1
62
256
6
ByLayer
370
-1
48
1
60
0
100
AcDbEllipse
10
153.010454
20
20.027379
30
0
11
2.39086727542021
21
-0.20917378259438
31
0
210
0
220
0
230
1
40
0.992214
41
0
42
6.28318530717959
0
ELLIPSE
5
C2
100
AcDbEntity
8
1
62
256
6
ByLayer
370
-1
48
1
60
0
100
AcDbEllipse
10
152.993086
20
19.828864
30
0
11
3.41196684096423
21
-0.298508418910727
31
0
210
0
220
0
230
1
40
0.992214
41
3.1415585975567
42
0
0
ELLIPSE
5
C3
100
AcDbEntity
8
1
62
256
6
ByLayer
370
-1
48
1
60
0
100
AcDbEllipse
10
146.90511
20
13.99093
30
0
11
0.790978590123572
21
-0.0692016597275303
31
0
210
0
220
0
230
1
40
0.992214
41
-3.14159265355429
42
-1.39626340155999
0
ELLIPSE
5
C4
100
AcDbEntity
8
1
62
256
6
ByLayer
370
-1
48
1
60
0
100
AcDbEllipse
10
159.120022
20
26.11211
30
0
11
0.790978590123386
21
-0.0692016597275141
31
0
210
0
220
0
230
1
40
0.992214
41
0
42
1.7453292520297
0
POINT
5
41
100
AcDbEntity
8
80
62
256
6
ByLayer
370
-1
48
1
60
0
100
AcDbPoint
10
0
20
0
30
0
39
0
210
0
220
0
230
1
50
360
0
POINT
5
43
100
AcDbEntity
8
81
62
256
6
ByLayer
370
-1
48
1
60
0
100
AcDbPoint
10
159.914
20
26.9
30
0
39
0
210
0
220
0
230
1
50
360
0
POINT
5
45
100
AcDbEntity
8
1
62
256
6
ByLayer
370
-1
48
1
60
0
100
AcDbPoint
10
-141.336
20
0
30
0
39
0
210
0
220
0
230
1
50
360
0
POINT
5
47
100
AcDbEntity
8
2
62
256
6
ByLayer
370
-1
48
1
60
0
100
AcDbPoint
10
159.914
20
26.9
30
0
39
0
210
0
220
0
230
1
50
360
0
SPLINE
5
C5
100
AcDbEntity
8
1
62
256
6
ByLayer
370
-1
48
1
60
0
100
AcDbSpline
70
4
71
1
72
4
73
2
40
0
40
0
40
1
40
1
41
1
10
158.286200827054
20
14.1833991971622
30
0
41
1
10
158.290402108096
20
14.1845474277336
30
0
0
SPLINE
5
C6
100
AcDbEntity
8
1
62
256
6
ByLayer
370
-1
48
1
60
0
100
AcDbSpline
70
4
71
3
72
8
73
4
40
0
40
0
40
0
40
0
40
1
40
1
40
1
40
1
41
1
10
141.251550657074
20
23.5639558936732
30
0
41
1
10
141.455403624758
20
23.8691793202549
30
0
41
1
10
141.659306507328
20
24.1743698858473
30
0
41
1
10
141.86325387
20
24.4795311390916
30
0
0
SPLINE
5
C7
100
AcDbEntity
8
1
62
256
6
ByLayer
370
-1
48
1
60
0
100
AcDbSpline
70
4
71
3
72
10
73
6
40
0
40
0
40
0
40
0
40
0.5
40
0.5
40
1
40
1
40
1
40
1
41
1
10
104.481125331124
20
7.57100492421554
30
0
41
1
10
104.554178927218
20
10.0098880525914
30
0
41
1
10
105.288634283509
20
12.2093094664482
30
0
41
1
10
107.899390521002
20
15.5529164852168
30
0
41
1
10
109.712477107051
20
16.7014049306359
30
0
41
1
10
111.739017654421
20
17.51075
30
0
0
SPLINE
5
C8
100
AcDbEntity
8
1
62
256
6
ByLayer
370
-1
48
1
60
0
100
AcDbSpline
70
4
71
3
72
10
73
6
40
0
40
0
40
0
40
0
40
0.5
40
0.5
40
1
40
1
40
1
40
1
41
1
10
135.863253870791
20
-18.4602525126318
30
0
41
1
10
131.002114658518
20
-17.9148071493717
30
0
41
1
10
126.417154712087
20
-17.0367016078509
30
0
41
1
10
117.821503056109
20
-13.72212484723
30
0
41
1
10
113.785503644152
20
-11.197907606544
30
0
41
1
10
110.59295158061
20
-7.57100492421614
30
0
0
SPLINE
5
C9
100
AcDbEntity
8
1
62
256
6
ByLayer
370
-1
48
1
60
0
100
AcDbSpline
70
4
71
3
72
8
73
4
40
0
40
0
40
0
40
0
40
1
40
1
40
1
40
1
41
1
10
135.938253870791
20
-18.3936844525222
30
0
41
1
10
136.688352700818
20
-18.4772917388209
30
0
41
1
10
137.442723095598
20
-18.5521670827473
30
0
41
1
10
138.200515607682
20
-18.6194561580216
30
0
0
SPLINE
5
CA
100
AcDbEntity
8
1
62
256
6
ByLayer
370
-1
48
1
60
0
100
AcDbSpline
70
4
71
3
72
8
73
4
40
0
40
0
40
0
40
0
40
1
40
1
40
1
40
1
41
1
10
145.185780049072
20
14.5827554629055
30
0
41
1
10
145.244674773563
20
14.6000901147313
30
0
41
1
10
145.31593507652
20
14.6048540997828
30
0
41
1
10
145.396585526659
20
14.5974781703279
30
0
0
SPLINE
5
CB
100
AcDbEntity
8
1
62
256
6
ByLayer
370
-1
48
1
60
0
100
AcDbSpline
70
4
71
3
72
8
73
4
40
0
40
0
40
0
40
0
40
1
40
1
40
1
40
1
41
1
10
135.863253870791
20
-18.4602525126307
30
0
41
1
10
135.888252819929
20
-18.4380747472126
30
0
41
1
10
135.913252830653
20
-18.4158853737984
30
0
41
1
10
135.938253870791
20
-18.3936844525223
30
0
0
SPLINE
5
CC
100
AcDbEntity
8
1
62
256
6
ByLayer
370
-1
48
1
60
0
100
AcDbSpline
70
4
71
3
72
8
73
4
40
0
40
0
40
0
40
0
40
1
40
1
40
1
40
1
41
1
10
138.813146587615
20
19.9041242707003
30
0
41
1
10
138.202260802148
20
19.9028382623729
30
0
41
1
10
137.591903997038
20
19.9011475840755
30
0
41
1
10
136.982487016557
20
19.8988483265573
30
0
0
SPLINE
5
CD
100
AcDbEntity
8
1
62
256
6
ByLayer
370
-1
48
1
60
0
100
AcDbSpline
70
4
71
3
72
34
73
30
40
-0.124999999999996
40
-0.124999999999996
40
0
40
0
40
0.125000000000011
40
0.125000000000011
40
0.187500000000015
40
0.187500000000015
40
0.218750000000015
40
0.218750000000015
40
0.250000000000015
40
0.250000000000015
40
0.312500000000014
40
0.312500000000014
40
0.375000000000012
40
0.375000000000012
40
0.500000000000012
40
0.500000000000012
40
0.625000000000012
40
0.625000000000012
40
0.687500000000014
40
0.687500000000014
40
0.703125000000012
40
0.703125000000012
40
0.718750000000011
40
0.718750000000011
40
0.750000000000007
40
0.750000000000007
40
0.875000000000004
40
0.875000000000004
40
1
40
1
40
1.12500000000001
40
1.12500000000001
41
1
10
131.320039585175
20
10.9538970437996
30
0
41
1
10
128.478564252271
20
9.60368386646991
30
0
41
1
10
127.042921187923
20
9.03453987907511
30
0
41
1
10
124.730228551121
20
8.7284600061881
30
0
41
1
10
123.906365807047
20
8.68847304522888
30
0
41
1
10
122.831443091881
20
9.2512569004756
30
0
41
1
10
122.529977786334
20
9.60913701393648
30
0
41
1
10
122.421683717608
20
10.4228053642433
30
0
41
1
10
122.560074322197
20
10.8172371508135
30
0
41
1
10
123.113138877568
20
11.8325064830208
30
0
41
1
10
123.680591894001
20
12.3603589522125
30
0
41
1
10
124.891962574895
20
13.2971419994658
30
0
41
1
10
125.54497636961
20
13.6927064655611
30
0
41
1
10
127.575570780505
20
14.7624612416431
30
0
41
1
10
129.040928909791
20
15.3258949520746
30
0
41
1
10
132.061449175634
20
16.2802633604523
30
0
41
1
10
133.608016528438
20
16.6759439599234
30
0
41
1
10
135.998002548621
20
17.0881070139897
30
0
41
1
10
136.814730341093
20
17.2264895518381
30
0
41
1
10
137.841908795118
20
17.1574817691896
30
0
41
1
10
138.051144995167
20
17.1339241180302
30
0
41
1
10
138.423309772418
20
16.9502874856138
30
0
41
1
10
138.512112562538
20
16.7245070865432
30
0
41
1
10
138.334973806816
20
16.1388022855547
30
0
41
1
10
138.033457908666
20
15.8421470354151
30
0
41
1
10
136.628235988051
20
14.3996926831308
30
0
41
1
10
135.308357659773
20
13.4852713449109
30
0
41
1
10
132.661572851119
20
11.7360169148574
30
0
41
1
10
131.320039585175
20
10.9538970437996
30
0
41
1
10
128.478564252271
20
9.60368386646991
30
0
0
SPLINE
5
CE
100
AcDbEntity
8
1
62
256
6
ByLayer
370
-1
48
1
60
0
100
AcDbSpline
70
4
71
3
72
8
73
4
40
0
40
0
40
0
40
0
40
1
40
1
40
1
40
1
41
1
10
147.06593738806
20
24.9393995099502
30
0
41
1
10
145.331701957253
20
24.7861933888351
30
0
41
1
10
143.597473966887
20
24.6329055433996
30
0
41
1
10
141.86325387
20
24.4795311390916
30
0
0
SPLINE
5
CF
100
AcDbEntity
8
1
62
256
6
ByLayer
370
-1
48
1
60
0
100
AcDbSpline
70
4
71
3
72
8
73
4
40
0
40
0
40
0
40
0
40
1
40
1
40
1
40
1
41
1
10
138.813146587615
20
19.9041242707005
30
0
41
1
10
139.621492761714
20
21.121788632882
30
0
41
1
10
140.435310762371
20
22.341822409894
30
0
41
1
10
141.251550657074
20
23.5639558936732
30
0
0
SPLINE
5
D0
100
AcDbEntity
8
SK1
62
256
6
ByLayer
370
-1
48
1
60
0
100
AcDbSpline
70
4
71
3
72
8
73
4
40
0
40
0
40
0
40
0
40
1
40
1
40
1
40
1
41
1
10
-141.314472909233
20
17.51075
30
0
41
1
10
-141.320375308792
20
17.51075
30
0
41
1
10
-140.302889179277
20
17.51075
30
0
41
1
10
-138.836
20
17.51075
30
0
0
SPLINE
5
D1
100
AcDbEntity
8
1
62
256
6
ByLayer
370
-1
48
1
60
0
100
AcDbSpline
70
4
71
3
72
20
73
16
40
0
40
0
40
0
40
0
40
0.0018829668480822
40
0.0018829668480822
40
0.0043724950915376
40
0.0043724950915376
40
0.0089884457299833
40
0.0089884457299833
40
0.0288928208294385
40
0.0288928208294385
40
0.1075020069707
40
0.1075020069707
40
0.420502291660678
40
0.420502291660678
40
1
40
1
40
1
40
1
41
1
10
158.213996397426
20
14.1742338022624
30
0
41
1
10
158.214174780662
20
14.1742491694068
30
0
41
1
10
158.214354484301
20
14.1742646217847
30
0
41
1
10
158.21474104765
20
14.1742978072619
30
0
41
1
10
158.214945039934
20
14.1743152771366
30
0
41
1
10
158.215465658712
20
14.1743597860541
30
0
41
1
10
158.215746710913
20
14.174383717963
30
0
41
1
10
158.217048414545
20
14.1744943209687
30
0
41
1
10
158.217654378276
20
14.1745450389437
30
0
41
1
10
158.220396124418
20
14.174774042498
30
0
41
1
10
158.221425380485
20
14.1748566824425
30
0
41
1
10
158.226482152082
20
14.1752625433353
30
0
41
1
10
158.228174529464
20
14.1753842607623
30
0
41
1
10
158.233004621979
20
14.1757318586176
30
0
41
1
10
158.235140469918
20
14.1758713183241
30
0
41
1
10
158.236740024455
20
14.1759645508498
30
0
0
SPLINE
5
D2
100
AcDbEntity
8
1
62
256
6
ByLayer
370
-1
48
1
60
0
100
AcDbSpline
70
4
71
3
72
54
73
50
40
0
40
0
40
0
40
0
40
0.0232750133645033
40
0.0232750133645033
40
0.184402050266021
40
0.184402050266021
40
0.358862713593073
40
0.358862713593073
40
0.533256261745016
40
0.533256261745016
40
0.707650277978142
40
0.707650277978142
40
0.804264522297361
40
0.804264522297361
40
0.868910973726184
40
0.868910973726184
40
0.912170524998439
40
0.912170524998439
40
0.941121944621754
40
0.941121944621754
40
0.960501031201052
40
0.960501031201052
40
0.973476105116855
40
0.973476105116855
40
0.982166823834147
40
0.982166823834147
40
0.987991277850889
40
0.987991277850889
40
0.991898204359086
40
0.991898204359086
40
0.99452234412364
40
0.99452234412364
40
0.996288381340962
40
0.996288381340962
40
0.997480487336901
40
0.997480487336901
40
0.998288856594828
40
0.998288856594828
40
0.9988408575606
40
0.9988408575606
40
0.999221903606904
40
0.999221903606904
40
0.999620407199172
40
0.999620407199172
40
0.999780091331164
40
0.999780091331164
40
0.999914899803445
40
0.999914899803445
40
1
40
1
40
1
40
1
41
1
10
146.75356566236
20
13.1830096096065
30
0
41
1
10
146.754824558431
20
13.1831486883
30
0
41
1
10
146.756086126831
20
13.1832879971789
30
0
41
1
10
146.766103147126
20
13.1843935953946
30
0
41
1
10
146.774987083071
20
13.1853709519382
30
0
41
1
10
146.793848948224
20
13.1874374511729
30
0
41
1
10
146.803854440146
20
13.1885289681377
30
0
41
1
10
146.8244371023
20
13.1907611544676
30
0
41
1
10
146.835008420124
20
13.1919013200936
30
0
41
1
10
146.857066844124
20
13.1942605299978
30
0
41
1
10
146.868528301017
20
13.1954773662502
30
0
41
1
10
146.887733354633
20
13.1974883874868
30
0
41
1
10
146.89485456303
20
13.1982289683159
30
0
41
1
10
146.907592622901
20
13.199538455703
30
0
41
1
10
146.912923755248
20
13.2000827558934
30
0
41
1
10
146.922519302108
20
13.201051308213
30
0
41
1
10
146.926550009594
20
13.2014554346547
30
0
41
1
10
146.933848565553
20
13.2021791319591
30
0
41
1
10
146.936925239956
20
13.2024822412185
30
0
41
1
10
146.942528095956
20
13.2030284313644
30
0
41
1
10
146.944897881157
20
13.2032580466423
30
0
41
1
10
146.949236491485
20
13.2036743002325
30
0
41
1
10
146.951077352278
20
13.2038499222813
30
0
41
1
10
146.954464288688
20
13.2041701255684
30
0
41
1
10
146.955905639101
20
13.2043056925405
30
0
41
1
10
146.958569650145
20
13.2045542072505
30
0
41
1
10
146.959706574328
20
13.2046597765738
30
0
41
1
10
146.961816837707
20
13.2048542915547
30
0
41
1
10
146.962719949764
20
13.2049371949218
30
0
41
1
10
146.964402954357
20
13.2050906905153
30
0
41
1
10
146.965125280708
20
13.2051563312218
30
0
41
1
10
146.966476665022
20
13.2052784403181
30
0
41
1
10
146.967058487327
20
13.2053308472346
30
0
41
1
10
146.968151414699
20
13.2054288050214
30
0
41
1
10
146.968623712192
20
13.2054710206287
30
0
41
1
10
146.969514861081
20
13.2055503333041
30
0
41
1
10
146.969901790688
20
13.2055846885347
30
0
41
1
10
146.970635700783
20
13.2056496097836
30
0
41
1
10
146.970956420432
20
13.2056779219928
30
0
41
1
10
146.971568706386
20
13.2057317980104
30
0
41
1
10
146.971838759945
20
13.2057555175706
30
0
41
1
10
146.972462362119
20
13.2058101347622
30
0
41
1
10
146.972819158828
20
13.2058413198639
30
0
41
1
10
146.973439988965
20
13.2058953372048
30
0
41
1
10
146.973634838728
20
13.2059122662632
30
0
41
1
10
146.974029774481
20
13.2059465051466
30
0
41
1
10
146.97422844722
20
13.2059637019542
30
0
41
1
10
146.974568421292
20
13.2059930667822
30
0
41
1
10
146.974706142129
20
13.2060049472237
30
0
41
1
10
146.974842362856
20
13.2060166822012
30
0
0
SPLINE
5
D3
100
AcDbEntity
8
1
62
256
6
ByLayer
370
-1
48
1
60
0
100
AcDbSpline
70
4
71
3
72
18
73
14
40
0
40
0
40
0
40
0
40
0.201680670277924
40
0.201680670277924
40
0.3777337785007
40
0.3777337785007
40
0.555594767110565
40
0.555594767110565
40
0.708977479491413
40
0.708977479491413
40
0.909951832494143
40
0.909951832494143
40
1
40
1
40
1
40
1
41
1
10
152.90654987064
20
21.4867840851003
30
0
41
1
10
152.939888898135
20
21.4245430444306
30
0
41
1
10
152.982998977103
20
21.3657203573466
30
0
41
1
10
153.080170787891
20
21.2700555184532
30
0
41
1
10
153.133382228986
20
21.2304136666279
30
0
41
1
10
153.250219041284
20
21.1691800470667
30
0
41
1
10
153.315808070837
20
21.1470757331478
30
0
41
1
10
153.438276847763
20
21.1271049416798
30
0
41
1
10
153.496561660557
20
21.125984486445
30
0
41
1
10
153.624877710426
20
21.1402706044773
30
0
41
1
10
153.695164727545
20
21.1608752940922
30
0
41
1
10
153.787761451862
20
21.2038081982669
30
0
41
1
10
153.815563322317
20
21.219109699204
30
0
41
1
10
153.8420876952
20
21.2360541007428
30
0
0
SPLINE
5
D4
100
AcDbEntity
8
1
62
256
6
ByLayer
370
-1
48
1
60
0
100
AcDbSpline
70
4
71
3
72
18
73
14
40
0
40
0
40
0
40
0
40
0.0198987056840248
40
0.0198987056840248
40
0.243764811707818
40
0.243764811707818
40
0.467933342331842
40
0.467933342331842
40
0.704532644840942
40
0.704532644840942
40
0.963204488955967
40
0.963204488955967
40
1
40
1
40
1
40
1
41
1
10
154.631227572918
20
19.6002123404147
30
0
41
1
10
154.63191086705
20
19.602777500763
30
0
41
1
10
154.632558508472
20
19.6053501506488
30
0
41
1
10
154.63997016474
20
19.6365984670095
30
0
41
1
10
154.642262177527
20
19.6664144610287
30
0
41
1
10
154.637765950002
20
19.7234875288659
30
0
41
1
10
154.630929348983
20
19.7514737255634
30
0
41
1
10
154.60920620914
20
19.8037286899907
30
0
41
1
10
154.593650572591
20
19.8283726701243
30
0
41
1
10
154.555025347646
20
19.8723194402429
30
0
41
1
10
154.530933169533
20
19.8914837751863
30
0
41
1
10
154.501181338748
20
19.9080365255273
30
0
41
1
10
154.497398229198
20
19.9100249021371
30
0
41
1
10
154.493574502722
20
19.9119210901138
30
0
0
SPLINE
5
D5
100
AcDbEntity
8
1
62
256
6
ByLayer
370
-1
48
1
60
0
100
AcDbSpline
70
4
71
3
72
12
73
8
40
0
40
0
40
0
40
0
40
0.300642231368668
40
0.300642231368668
40
0.763722395763007
40
0.763722395763007
40
1
40
1
40
1
40
1
41
1
10
152.214694435499
20
20.8971553730542
30
0
41
1
10
152.244674717024
20
20.9357895000401
30
0
41
1
10
152.270456424318
20
20.9781111840512
30
0
41
1
10
152.323040583385
20
21.0886844872574
30
0
41
1
10
152.34384870396
20
21.1603410456712
30
0
41
1
10
152.35928220696
20
21.2675343420134
30
0
41
1
10
152.361820684652
20
21.3041228974241
30
0
41
1
10
152.36179046716
20
21.340362919778
30
0
0
SPLINE
5
D6
100
AcDbEntity
8
1
62
256
6
ByLayer
370
-1
48
1
60
0
100
AcDbSpline
70
4
71
3
72
18
73
14
40
0
40
0
40
0
40
0
40
0.201561115510523
40
0.201561115510523
40
0.377635874451238
40
0.377635874451238
40
0.555519903200802
40
0.555519903200802
40
0.708907771576665
40
0.708907771576665
40
0.909861690873009
40
0.909861690873009
40
1
40
1
40
1
40
1
41
1
10
154.240911862239
20
20.8402861904759
30
0
41
1
10
154.207077843774
20
20.7780336521249
30
0
41
1
10
154.180940620078
20
20.7092534884228
30
0
41
1
10
154.151721351474
20
20.5743576875223
30
0
41
1
10
154.145972647334
20
20.5074353365925
30
0
41
1
10
154.153834077271
20
20.374818078765
30
0
41
1
10
154.167972126535
20
20.307190735342
30
0
41
1
10
154.211191542345
20
20.1928079635447
30
0
41
1
10
154.238385711921
20
20.1430467421336
30
0
41
1
10
154.31164518327
20
20.0427344426794
30
0
41
1
10
154.362002836321
20
19.9948191138267
30
0
41
1
10
154.44126052487
20
19.9401877960933
30
0
41
1
10
154.467045833312
20
19.9250766712711
30
0
41
1
10
154.493574502722
20
19.9119210901137
30
0
0
SPLINE
5
D7
100
AcDbEntity
8
1
62
256
6
ByLayer
370
-1
48
1
60
0
100
AcDbSpline
70
4
71
3
72
16
73
12
40
0
40
0
40
0
40
0
40
0.0321274410032062
40
0.0321274410032062
40
0.255500433608619
40
0.255500433608619
40
0.479893456802138
40
0.479893456802138
40
0.71729274134864
40
0.71729274134864
40
1
40
1
40
1
40
1
41
1
10
151.825860957498
20
18.8518765127987
30
0
41
1
10
151.828914177062
20
18.8488466905707
30
0
41
1
10
151.832035459195
20
18.8458774131659
30
0
41
1
10
151.857131224919
20
18.8229907592256
30
0
41
1
10
151.882425962018
20
18.8059222225417
30
0
41
1
10
151.935607200123
20
18.7800531591405
30
0
41
1
10
151.964175207313
20
18.7709410743604
30
0
41
1
10
152.022358114869
20
18.7607967310058
30
0
41
1
10
152.052662957394
20
18.7601065071424
30
0
41
1
10
152.115259310822
20
18.7675227657177
30
0
41
1
10
152.147766575962
20
18.7773902171644
30
0
41
1
10
152.176455061901
20
18.7916710760209
30
0
0
SPLINE
5
D8
100
AcDbEntity
8
1
62
256
6
ByLayer
370
-1
48
1
60
0
100
AcDbSpline
70
4
71
3
72
16
73
12
40
0
40
0
40
0
40
0
40
0.0549362092333832
40
0.0549362092333832
40
0.277905515981157
40
0.277905515981157
40
0.503213235525951
40
0.503213235525951
40
0.742603879124291
40
0.742603879124291
40
1
40
1
40
1
40
1
41
1
10
151.389680335725
20
20.4545466421724
30
0
41
1
10
151.387800993427
20
20.447491387168
30
0
41
1
10
151.386187917034
20
20.440342507435
30
0
41
1
10
151.379455523406
20
20.404113527234
30
0
41
1
10
151.378554335141
20
20.3736746848577
30
0
41
1
10
151.385531765736
20
20.3145648711333
30
0
41
1
10
151.393568389199
20
20.2851607213235
30
0
41
1
10
151.417516011231
20
20.229387281846
30
0
41
1
10
151.434158852115
20
20.2026119795694
30
0
41
1
10
151.474367697846
20
20.1543725894502
30
0
41
1
10
151.49881962991
20
20.1328502671486
30
0
41
1
10
151.524968254379
20
20.1158040866505
30
0
0
SPLINE
5
D9
100
AcDbEntity
8
1
62
256
6
ByLayer
370
-1
48
1
60
0
100
AcDbSpline
70
4
71
3
72
18
73
14
40
0
40
0
40
0
40
0
40
0.210598664072325
40
0.210598664072325
40
0.385040829141531
40
0.385040829141531
40
0.561186387333732
40
0.561186387333732
40
0.714202389252851
40
0.714202389252851
40
0.916713818293778
40
0.916713818293778
40
1
40
1
40
1
40
1
41
1
10
153.111992886461
20
18.5409410916635
30
0
41
1
10
153.076384069475
20
18.5968890903762
30
0
41
1
10
153.030117581469
20
18.6496564350011
30
0
41
1
10
152.928397150232
20
18.7333254049481
30
0
41
1
10
152.874625639664
20
18.7672776543622
30
0
41
1
10
152.757489420858
20
18.8210703530651
30
0
41
1
10
152.692213453332
20
18.8414363902012
30
0
41
1
10
152.570614340553
20
18.8627650559366
30
0
41
1
10
152.512802947987
20
18.8662443810036
30
0
41
1
10
152.38518204841
20
18.8601315633462
30
0
41
1
10
152.315304481717
20
18.8460425015831
30
0
41
1
10
152.225947489054
20
18.814453190993
30
0
41
1
10
152.20065362785
20
18.803716894876
30
0
41
1
10
152.176455061901
20
18.791671076021
30
0
0
SPLINE
5
DA
100
AcDbEntity
8
1
62
256
6
ByLayer
370
-1
48
1
60
0
100
AcDbSpline
70
4
71
3
72
20
73
16
40
0
40
0
40
0
40
0
40
0.0806624971536607
40
0.0806624971536607
40
0.281835264769296
40
0.281835264769296
40
0.444321515070882
40
0.444321515070882
40
0.607665212766358
40
0.607665212766358
40
0.759985524908238
40
0.759985524908238
40
0.975669862008739
40
0.975669862008739
40
1
40
1
40
1
40
1
41
1
10
151.777630894861
20
19.1874389862857
30
0
41
1
10
151.790923751842
20
19.2089760380557
30
0
41
1
10
151.802950844754
20
19.2315602946025
30
0
41
1
10
151.839856733232
20
19.3134484757165
30
0
41
1
10
151.857678746226
20
19.3787571957046
30
0
41
1
10
151.869287968782
20
19.5034745997138
30
0
41
1
10
151.867004127049
20
19.5630262513122
30
0
41
1
10
151.846017897
20
19.6813033608645
30
0
41
1
10
151.826873786278
20
19.7415704668814
30
0
41
1
10
151.776919537499
20
19.8493993329416
30
0
41
1
10
151.746495503307
20
19.8988360057105
30
0
41
1
10
151.66402765977
20
20.0052508835506
30
0
41
1
10
151.606946164656
20
20.058872963854
30
0
41
1
10
151.539063488316
20
20.1064462897783
30
0
41
1
10
151.532044102207
20
20.11119137062
30
0
41
1
10
151.524968254379
20
20.1158040866505
30
0
0
SPLINE
5
DB
100
AcDbEntity
8
1
62
256
6
ByLayer
370
-1
48
1
60
0
100
AcDbSpline
70
4
71
3
72
12
73
8
40
0
40
0
40
0
40
0
40
0.320411720799067
40
0.320411720799067
40
0.788685385883918
40
0.788685385883918
40
1
40
1
40
1
40
1
41
1
10
153.80032241135
20
19.0902684651151
30
0
41
1
10
153.768449927277
20
19.0504456099479
30
0
41
1
10
153.741477352854
20
19.007723420896
30
0
41
1
10
153.689565362915
20
18.9017318896132
30
0
41
1
10
153.670272499845
20
18.8363221020448
30
0
41
1
10
153.658013802713
20
18.7439308626251
30
0
41
1
10
153.656342273087
20
18.715242965853
30
0
41
1
10
153.656714532892
20
18.6869306919369
30
0
0
SPLINE
5
DC
100
AcDbEntity
8
1
62
256
6
ByLayer
370
-1
48
1
60
0
100
AcDbSpline
70
4
71
3
72
14
73
10
40
0
40
0
40
0
40
0
40
0.277488032740203
40
0.277488032740203
40
0.564624494875489
40
0.564624494875489
40
0.824445430790613
40
0.824445430790613
40
1
40
1
40
1
40
1
41
1
10
152.90654987064
20
21.4867840851005
30
0
41
1
10
152.890333609376
20
21.5170584227978
30
0
41
1
10
152.868722107211
20
21.5452918675469
30
0
41
1
10
152.816203173149
20
21.5932995312515
30
0
41
1
10
152.784132769932
20
21.6134426887675
30
0
41
1
10
152.718087572306
20
21.6384564750514
30
0
41
1
10
152.683565474642
20
21.644916621994
30
0
41
1
10
152.626125194719
20
21.6447152138297
30
0
41
1
10
152.60260275374
20
21.6416568693865
30
0
41
1
10
152.579994289501
20
21.6357266776437
30
0
0
SPLINE
5
DD
100
AcDbEntity
8
1
62
256
6
ByLayer
370
-1
48
1
60
0
100
AcDbSpline
70
4
71
3
72
14
73
10
40
0
40
0
40
0
40
0
40
0.279403770898669
40
0.279403770898669
40
0.564482496896199
40
0.564482496896199
40
0.822385632681456
40
0.822385632681456
40
1
40
1
40
1
40
1
41
1
10
151.672287422888
20
20.6561508027108
30
0
41
1
10
151.639214393053
20
20.6585178317287
30
0
41
1
10
151.605078494938
20
20.6550142953331
30
0
41
1
10
151.539717156189
20
20.6353503592544
30
0
41
1
10
151.507568802602
20
20.618565395323
30
0
41
1
10
151.454887477798
20
20.5753054380182
30
0
41
1
10
151.432782379008
20
20.5492036623389
30
0
41
1
10
151.404818060657
20
20.4996262148245
30
0
41
1
10
151.395782554809
20
20.4774550350621
30
0
41
1
10
151.389680335725
20
20.4545466421724
30
0
0
SPLINE
5
DE
100
AcDbEntity
8
1
62
256
6
ByLayer
370
-1
48
1
60
0
100
AcDbSpline
70
4
71
3
72
16
73
12
40
0
40
0
40
0
40
0
40
0.199266651059992
40
0.199266651059992
40
0.420264269044209
40
0.420264269044209
40
0.651440113500716
40
0.651440113500716
40
0.902843738045343
40
0.902843738045343
40
1
40
1
40
1
40
1
41
1
10
153.440913619143
20
18.4190323049434
30
0
41
1
10
153.466737339705
20
18.4258058572212
30
0
41
1
10
153.491857071684
20
18.4360443508674
30
0
41
1
10
153.539890882531
20
18.463339993694
30
0
41
1
10
153.562871954273
20
18.4813757134772
30
0
41
1
10
153.602101367049
20
18.5225281473681
30
0
41
1
10
153.618505909113
20
18.5463392017834
30
0
41
1
10
153.643551430395
20
18.5978177885914
30
0
41
1
10
153.651732978485
20
18.6262714369986
30
0
41
1
10
153.656298046449
20
18.6651971363611
30
0
41
1
10
153.6568567499
20
18.6761143566431
30
0
41
1
10
153.656714532892
20
18.6869306919369
30
0
0
SPLINE
5
DF
100
AcDbEntity
8
1
62
256
6
ByLayer
370
-1
48
1
60
0
100
AcDbSpline
70
4
71
3
72
14
73
10
40
0
40
0
40
0
40
0
40
0.231135245891492
40
0.231135245891492
40
0.530798120007402
40
0.530798120007402
40
0.794936088055202
40
0.794936088055202
40
1
40
1
40
1
40
1
41
1
10
154.240911862243
20
20.8402861904745
30
0
41
1
10
154.254612671815
20
20.865494847678
30
0
41
1
10
154.265252727731
20
20.8930863641171
30
0
41
1
10
154.280585557702
20
20.958859799687
30
0
41
1
10
154.282707669052
20
20.9989381813663
30
0
41
1
10
154.272161733442
20
21.0720579013624
30
0
41
1
10
154.260987794639
20
21.1064739184883
30
0
41
1
10
154.231136684571
20
21.1612842276272
30
0
41
1
10
154.214385345758
20
21.1836922685505
30
0
41
1
10
154.195046951145
20
21.2028824697884
30
0
0
SPLINE
5
E0
100
AcDbEntity
8
1
62
256
6
ByLayer
370
-1
48
1
60
0
100
AcDbSpline
70
4
71
3
72
12
73
8
40
0
40
0
40
0
40
0
40
0.493526690353389
40
0.493526690353389
40
0.898793583340919
40
0.898793583340919
40
1
40
1
40
1
40
1
41
1
10
154.346217577161
20
19.3711428090042
30
0
41
1
10
154.274771821118
20
19.3670097517659
30
0
41
1
10
154.200931037052
20
19.3520195449205
30
0
41
1
10
154.070488163678
20
19.3038705277129
30
0
41
1
10
154.011742565729
20
19.2737678495642
30
0
41
1
10
153.944222965399
20
19.2271026622352
30
0
41
1
10
153.930905645218
20
19.2172497612808
30
0
41
1
10
153.917929194842
20
19.2069727885886
30
0
0
SPLINE
5
E1
100
AcDbEntity
8
1
62
256
6
ByLayer
370
-1
48
1
60
0
100
AcDbSpline
70
4
71
3
72
16
73
12
40
0
40
0
40
0
40
0
40
0.160006035090374
40
0.160006035090374
40
0.461565591835479
40
0.461565591835479
40
0.734052348055064
40
0.734052348055064
40
0.97581392683966
40
0.97581392683966
40
1
40
1
40
1
40
1
41
1
10
153.111992886457
20
18.5409410916618
30
0
41
1
10
153.121578981697
20
18.5258795734905
30
0
41
1
10
153.132897215862
20
18.5114788096997
30
0
41
1
10
153.169871428328
20
18.473217247714
30
0
41
1
10
153.200206799651
20
18.4515402681861
30
0
41
1
10
153.265066974521
20
18.4221325366538
30
0
41
1
10
153.299944081257
20
18.4128665001816
30
0
41
1
10
153.367033702099
20
18.4072539801291
30
0
41
1
10
153.400075435656
20
18.4095231866313
30
0
41
1
10
153.434594303842
20
18.4174277261013
30
0
41
1
10
153.43776139358
20
18.4182054773534
30
0
41
1
10
153.440913619143
20
18.4190323049434
30
0
0
SPLINE
5
E2
100
AcDbEntity
8
1
62
256
6
ByLayer
370
-1
48
1
60
0
100
AcDbSpline
70
4
71
3
72
16
73
12
40
0
40
0
40
0
40
0
40
0.0578393202976338
40
0.0578393202976338
40
0.27867064486704
40
0.27867064486704
40
0.502013998126765
40
0.502013998126765
40
0.739467690488465
40
0.739467690488465
40
1
40
1
40
1
40
1
41
1
10
152.579994289501
20
21.6357266776437
30
0
41
1
10
152.572441128782
20
21.6337454864025
30
0
41
1
10
152.564959661911
20
21.6314420041105
30
0
41
1
10
152.529671345538
20
21.6189306924291
30
0
41
1
10
152.502994154529
20
21.6043104635505
30
0
41
1
10
152.455954073432
20
21.5681195152374
30
0
41
1
10
152.435053388119
20
21.5460301577611
30
0
41
1
10
152.40020079242
20
21.4963221262608
30
0
41
1
10
152.386309078661
20
21.4678391717247
30
0
41
1
10
152.366764208256
20
21.4066922619057
30
0
41
1
10
152.361763141809
20
21.373134378835
30
0
41
1
10
152.36179046716
20
21.340362919778
30
0
0
SPLINE
5
E3
100
AcDbEntity
8
1
62
256
6
ByLayer
370
-1
48
1
60
0
100
AcDbSpline
70
4
71
3
72
14
73
10
40
0
40
0
40
0
40
0
40
0.230473089177285
40
0.230473089177285
40
0.521652927780724
40
0.521652927780724
40
0.784691428269089
40
0.784691428269089
40
1
40
1
40
1
40
1
41
1
10
154.346217577161
20
19.3711428090037
30
0
41
1
10
154.373826663736
20
19.3727399638443
30
0
41
1
10
154.402078425326
20
19.3781658874208
30
0
41
1
10
154.463862343875
20
19.3992586175019
30
0
41
1
10
154.497838125968
20
19.4176968955175
30
0
41
1
10
154.55429656305
20
19.4635035148204
30
0
41
1
10
154.578395042327
20
19.4905886786218
30
0
41
1
10
154.612038973701
20
19.5452293926766
30
0
41
1
10
154.623835804321
20
19.5724628386583
30
0
41
1
10
154.631227572918
20
19.6002123404147
30
0
0
SPLINE
5
E4
100
AcDbEntity
8
1
62
256
6
ByLayer
370
-1
48
1
60
0
100
AcDbSpline
70
4
71
3
72
14
73
10
40
0
40
0
40
0
40
0
40
0.240613777612015
40
0.240613777612015
40
0.532370687579231
40
0.532370687579231
40
0.796023196836868
40
0.796023196836868
40
1
40
1
40
1
40
1
41
1
10
151.777630894861
20
19.1874389862858
30
0
41
1
10
151.76366528656
20
19.1648119446054
30
0
41
1
10
151.753012029972
20
19.1394231511567
30
0
41
1
10
151.738999165678
20
19.0801322488088
30
0
41
1
10
151.737533730524
20
19.0445599066819
30
0
41
1
10
151.748550154461
20
18.9776642172109
30
0
41
1
10
151.759934740492
20
18.9452497055455
30
0
41
1
10
151.789935846255
20
18.8927395202634
30
0
41
1
10
151.806640585389
20
18.8709495959588
30
0
41
1
10
151.825860957498
20
18.8518765127987
30
0
0
SPLINE
5
E5
100
AcDbEntity
8
1
62
256
6
ByLayer
370
-1
48
1
60
0
100
AcDbSpline
70
4
71
3
72
12
73
8
40
0
40
0
40
0
40
0
40
0.458791363527531
40
0.458791363527531
40
0.870210079935656
40
0.870210079935656
40
1
40
1
40
1
40
1
41
1
10
151.672287422888
20
20.6561508027105
30
0
41
1
10
151.737979663604
20
20.6514492243903
30
0
41
1
10
151.805694507979
20
20.6565431124887
30
0
41
1
10
151.931268074679
20
20.6875220470042
30
0
41
1
10
151.990835761509
20
20.7117520932226
30
0
41
1
10
152.06340736235
20
20.7561801892563
30
0
41
1
10
152.080520887404
20
20.7678632023881
30
0
41
1
10
152.097087652008
20
20.7804510495806
30
0
0
SPLINE
5
E6
100
AcDbEntity
8
1
62
256
6
ByLayer
370
-1
48
1
60
0
100
AcDbSpline
70
4
71
3
72
18
73
14
40
0
40
0
40
0
40
0
40
0.031016161242476
40
0.031016161242476
40
0.254570877073821
40
0.254570877073821
40
0.479079761069891
40
0.479079761069891
40
0.716549985038733
40
0.716549985038733
40
0.976491391062979
40
0.976491391062979
40
1
40
1
40
1
40
1
41
1
10
154.195046951145
20
21.2028824697884
30
0
41
1
10
154.192100954886
20
21.2058058903813
30
0
41
1
10
154.189090703247
20
21.2086623741023
30
0
41
1
10
154.164123933883
20
21.2313140050601
30
0
41
1
10
154.138788057023
20
21.2477185265472
30
0
41
1
10
154.085429627151
20
21.271272920111
30
0
41
1
10
154.056723638047
20
21.2787045225557
30
0
41
1
10
153.998179297547
20
21.2845964403572
30
0
41
1
10
153.967641642126
20
21.2826193710144
30
0
41
1
10
153.907156692893
20
21.2693178423777
30
0
41
1
10
153.87677327763
20
21.2569951391662
30
0
41
1
10
153.847005093694
20
21.2391467196874
30
0
41
1
10
153.844534608298
20
21.2376172471461
30
0
41
1
10
153.8420876952
20
21.2360541007427
30
0
0
SPLINE
5
E7
100
AcDbEntity
8
SK1
62
256
6
ByLayer
370
-1
48
1
60
0
100
AcDbSpline
70
4
71
3
72
10
73
6
40
0
40
0
40
0
40
0
40
0.5
40
0.5
40
1
40
1
40
1
40
1
41
1
10
-138.836
20
7.57100492421586
30
0
41
1
10
-139.751720015059
20
5.15328673564841
30
0
41
1
10
-140.323815900012
20
2.61766499305557
30
0
41
1
10
-140.326678525705
20
-2.597354971751
30
0
41
1
10
-139.748549752422
20
-5.16165698148063
30
0
41
1
10
-138.836
20
-7.57100492421586
30
0
0
LINE
5
49
100
AcDbEntity
8
80
62
256
6
ByLayer
370
-1
48
1
60
0
100
AcDbLine
10
0
20
0
30
0
11
-10
21
0
31
0
39
0
210
0
220
0
230
1
0
LINE
5
4A
100
AcDbEntity
8
81
62
256
6
ByLayer
370
-1
48
1
60
0
100
AcDbLine
10
159.914
20
26.9
30
0
11
169.914
21
26.9
31
0
39
0
210
0
220
0
230
1
0
LINE
5
4B
100
AcDbEntity
8
SK4
62
256
6
ByLayer
370
-1
48
0.05
60
0
100
AcDbLine
10
-146.336
20
0
30
0
11
163.524216
21
0
31
0
39
0
210
0
220
0
230
1
0
LINE
5
4D
100
AcDbEntity
8
4
62
256
6
ByLayer
370
-1
48
0.05
60
0
100
AcDbLine
10
0
20
0
30
0
11
163.524216
21
0
31
0
39
0
210
0
220
0
230
1
0
LINE
5
4F
100
AcDbEntity
8
SK1
62
256
6
ByLayer
370
-1
48
1
60
0
100
AcDbLine
10
-138.836
20
-19.98925
30
0
11
0
21
-19.98925
31
0
39
0
210
0
220
0
230
1
0
LINE
5
51
100
AcDbEntity
8
SK1
62
256
6
ByLayer
370
-1
48
1
60
0
100
AcDbLine
10
-141.3145
20
17.51075
30
0
11
-141.336
21
17.48925
31
0
39
0
210
0
220
0
230
1
0
LINE
5
52
100
AcDbEntity
8
SK1
62
256
6
ByLayer
370
-1
48
1
60
0
100
AcDbLine
10
-141.336
20
-17.48925
30
0
11
-138.836
21
-19.98925
31
0
39
0
210
0
220
0
230
1
0
LINE
5
53
100
AcDbEntity
8
1
62
256
6
ByLayer
370
-1
48
1
60
0
100
AcDbLine
10
0
20
-19.98925
30
0
11
135.863254
21
-19.98925
31
0
39
0
210
0
220
0
230
1
0
LINE
5
54
100
AcDbEntity
8
1
62
256
6
ByLayer
370
-1
48
1
60
0
100
AcDbLine
10
135.863254
20
-19.98925
30
0
11
135.938254
21
-19.91425
31
0
39
0
210
0
220
0
230
1
0
LINE
5
55
100
AcDbEntity
8
1
62
256
6
ByLayer
370
-1
48
1
60
0
100
AcDbLine
10
138.813147
20
19.91425
30
0
11
136.997889
21
19.91425
31
0
39
0
210
0
220
0
230
1
0
LINE
5
56
100
AcDbEntity
8
1
62
256
6
ByLayer
370
-1
48
1
60
0
100
AcDbLine
10
135.938254
20
-19.91425
30
0
11
136.936473
21
-19.91425
31
0
39
0
210
0
220
0
230
1
0
LINE
5
57
100
AcDbEntity
8
1
62
256
6
ByLayer
370
-1
48
1
60
0
100
AcDbLine
10
141.539413
20
23.994894
30
0
11
138.813147
21
19.91425
31
0
39
0
210
0
220
0
230
1
0
LINE
5
58
100
AcDbEntity
8
1
62
256
6
ByLayer
370
-1
48
1
60
0
100
AcDbLine
10
153.658924
20
18.746296
30
0
11
153.649121
21
18.634246
31
0
39
0
210
0
220
0
230
1
0
LINE
5
59
100
AcDbEntity
8
1
62
256
6
ByLayer
370
-1
48
1
60
0
100
AcDbLine
10
151.844702
20
19.225917
30
0
11
151.864413
21
19.451209
31
0
39
0
210
0
220
0
230
1
0
LINE
5
5A
100
AcDbEntity
8
1
62
256
6
ByLayer
370
-1
48
1
60
0
100
AcDbLine
10
156.405053
20
19.530356
30
0
11
156.41806
21
19.679024
31
0
39
0
210
0
220
0
230
1
0
LINE
5
5B
100
AcDbEntity
8
1
62
256
6
ByLayer
370
-1
48
1
60
0
100
AcDbLine
10
149.594126
20
20.276041
30
0
11
149.581119
21
20.127372
31
0
39
0
210
0
220
0
230
1
0
LINE
5
5C
100
AcDbEntity
8
1
62
256
6
ByLayer
370
-1
48
1
60
0
100
AcDbLine
10
154.15146
20
20.545996
30
0
11
154.1317
21
20.320146
31
0
39
0
210
0
220
0
230
1
0
LINE
5
5D
100
AcDbEntity
8
1
62
256
6
ByLayer
370
-1
48
1
60
0
100
AcDbLine
10
152.338184
20
21.036431
30
0
11
152.358892
21
21.273122
31
0
39
0
210
0
220
0
230
1
0
LINE
5
5E
100
AcDbEntity
8
1
62
256
6
ByLayer
370
-1
48
1
60
0
100
AcDbLine
10
145.14812
20
15.138399
30
0
11
145.167152
21
15.34545
31
0
39
0
210
0
220
0
230
1
0
LINE
5
5F
100
AcDbEntity
8
1
62
256
6
ByLayer
370
-1
48
1
60
0
100
AcDbLine
10
145.335698
20
13.901529
30
0
11
145.396586
21
14.597478
31
0
39
0
210
0
220
0
230
1
0
LINE
5
60
100
AcDbEntity
8
1
62
256
6
ByLayer
370
-1
48
1
60
0
100
AcDbLine
10
136.936473
20
-19.91425
30
0
11
138.200516
21
-18.619456
31
0
39
0
210
0
220
0
230
1
0
LINE
5
61
100
AcDbEntity
8
1
62
256
6
ByLayer
370
-1
48
1
60
0
100
AcDbLine
10
0
20
17.51075
30
0
11
111.739018
21
17.51075
31
0
39
0
210
0
220
0
230
1
0
LINE
5
62
100
AcDbEntity
8
1
62
256
6
ByLayer
370
-1
48
1
60
0
100
AcDbLine
10
145.14812
20
15.138399
30
0
11
145.401368
21
14.797352
31
0
39
0
210
0
220
0
230
1
0
LINE
5
63
100
AcDbEntity
8
1
62
256
6
ByLayer
370
-1
48
1
60
0
100
AcDbLine
10
135.938254
20
-19.91425
30
0
11
135.938254
21
-18.393684
31
0
39
0
210
0
220
0
230
1
0
LINE
5
64
100
AcDbEntity
8
1
62
256
6
ByLayer
370
-1
48
1
60
0
100
AcDbLine
10
136.982487
20
19.898848
30
0
11
136.997889
21
19.91425
31
0
39
0
210
0
220
0
230
1
0
LINE
5
65
100
AcDbEntity
8
1
62
256
6
ByLayer
370
-1
48
1
60
0
100
AcDbLine
10
135.863254
20
-19.98925
30
0
11
135.863254
21
-18.460253
31
0
39
0
210
0
220
0
230
1
0
LINE
5
66
100
AcDbEntity
8
1
62
256
6
ByLayer
370
-1
48
1
60
0
100
AcDbLine
10
158.524216
20
13.052209
30
0
11
157.48118
21
1.130257
31
0
39
0
210
0
220
0
230
1
0
LINE
5
67
100
AcDbEntity
8
1
62
256
6
ByLayer
370
-1
48
1
60
0
100
AcDbLine
10
0
20
17.51075
30
0
11
0
21
7.571005
31
0
39
0
210
0
220
0
230
1
0
LINE
5
68
100
AcDbEntity
8
1
62
256
6
ByLayer
370
-1
48
1
60
0
100
AcDbLine
10
158.524216
20
13.052209
30
0
11
158.524216
21
14.199739
31
0
39
0
210
0
220
0
230
1
0
LINE
5
69
100
AcDbEntity
8
1
62
256
6
ByLayer
370
-1
48
1
60
0
100
AcDbLine
10
138.813147
20
19.91425
30
0
11
138.813147
21
19.904124
31
0
39
0
210
0
220
0
230
1
0
LINE
5
6A
100
AcDbEntity
8
1
62
256
6
ByLayer
370
-1
48
1
60
0
100
AcDbLine
10
145.167152
20
15.34545
30
0
11
145.4204
21
15.004404
31
0
39
0
210
0
220
0
230
1
0
LINE
5
6B
100
AcDbEntity
8
1
62
256
6
ByLayer
370
-1
48
1
60
0
100
AcDbLine
10
104.481125
20
7.571005
30
0
11
0
21
7.571005
31
0
39
0
210
0
220
0
230
1
0
LINE
5
6C
100
AcDbEntity
8
1
62
256
6
ByLayer
370
-1
48
1
60
0
100
AcDbLine
10
145.397149
20
14.738638
30
0
11
145.4204
21
15.004404
31
0
39
0
210
0
220
0
230
1
0
LINE
5
6D
100
AcDbEntity
8
1
62
256
6
ByLayer
370
-1
48
1
60
0
100
AcDbLine
10
0
20
-7.571005
30
0
11
110.592952
21
-7.571005
31
0
39
0
210
0
220
0
230
1
0
LINE
5
6E
100
AcDbEntity
8
1
62
256
6
ByLayer
370
-1
48
1
60
0
100
AcDbLine
10
149.510654
20
-7.034171
30
0
11
157.48118
21
1.130257
31
0
39
0
210
0
220
0
230
1
0
LINE
5
6F
100
AcDbEntity
8
1
62
256
6
ByLayer
370
-1
48
1
60
0
100
AcDbLine
10
134.594389
20
17.51075
30
0
11
136.982487
21
19.898848
31
0
39
0
210
0
220
0
230
1
0
LINE
5
70
100
AcDbEntity
8
1
62
256
6
ByLayer
370
-1
48
1
60
0
100
AcDbLine
10
0
20
-19.98925
30
0
11
0
21
-7.571005
31
0
39
0
210
0
220
0
230
1
0
LINE
5
71
100
AcDbEntity
8
1
62
256
6
ByLayer
370
-1
48
1
60
0
100
AcDbLine
10
145.4204
20
15.004404
30
0
11
145.401368
21
14.797352
31
0
39
0
210
0
220
0
230
1
0
LINE
5
72
100
AcDbEntity
8
1
62
256
6
ByLayer
370
-1
48
1
60
0
100
AcDbLine
10
0
20
-7.571005
30
0
11
0
21
7.571005
31
0
39
0
210
0
220
0
230
1
0
LINE
5
73
100
AcDbEntity
8
1
62
256
6
ByLayer
370
-1
48
1
60
0
100
AcDbLine
10
141.251551
20
23.563956
30
0
11
149.510654
21
-7.034171
31
0
39
0
210
0
220
0
230
1
0
LINE
5
74
100
AcDbEntity
8
1
62
256
6
ByLayer
370
-1
48
1
60
0
100
AcDbLine
10
111.739018
20
17.51075
30
0
11
134.594389
21
17.51075
31
0
39
0
210
0
220
0
230
1
0
LINE
5
75
100
AcDbEntity
8
1
62
256
6
ByLayer
370
-1
48
1
60
0
100
AcDbLine
10
158.524216
20
14.199739
30
0
11
148.418223
21
13.32914
31
0
39
0
210
0
220
0
230
1
0
LINE
5
76
100
AcDbEntity
8
1
62
256
6
ByLayer
370
-1
48
1
60
0
100
AcDbLine
10
138.200516
20
-18.619456
30
0
11
149.510654
21
-7.034171
31
0
39
0
210
0
220
0
230
1
0
LINE
5
77
100
AcDbEntity
8
1
62
256
6
ByLayer
370
-1
48
1
60
0
100
AcDbLine
10
146.753566
20
13.18301
30
0
11
148.417544
21
13.326356
31
0
39
0
210
0
220
0
230
1
0
LINE
5
78
100
AcDbEntity
8
1
62
256
6
ByLayer
370
-1
48
1
60
0
100
AcDbLine
10
147.089889
20
25.213095
30
0
11
146.114131
21
14.060132
31
0
39
0
210
0
220
0
230
1
0
LINE
5
79
100
AcDbEntity
8
1
62
256
6
ByLayer
370
-1
48
1
60
0
100
AcDbLine
10
159.05029
20
26.897024
30
0
11
147.811136
21
25.928807
31
0
39
0
210
0
220
0
230
1
0
LINE
5
7A
100
AcDbEntity
8
1
62
256
6
ByLayer
370
-1
48
1
60
0
100
AcDbLine
10
158.935243
20
14.889946
30
0
11
159.911001
21
26.042909
31
0
39
0
210
0
220
0
230
1
0
LINE
5
7B
100
AcDbEntity
8
1
62
256
6
ByLayer
370
-1
48
1
60
0
100
AcDbLine
10
146.974842
20
13.206017
30
0
11
158.213996
21
14.174234
31
0
39
0
210
0
220
0
230
1
0
LINE
5
7C
100
AcDbEntity
8
1
62
256
6
ByLayer
370
-1
48
1
60
0
100
AcDbLine
10
153.654189
20
18.658064
30
0
11
153.656715
21
18.686931
31
0
39
0
210
0
220
0
230
1
0
LINE
5
7D
100
AcDbEntity
8
1
62
256
6
ByLayer
370
-1
48
1
60
0
100
AcDbLine
10
154.472505
20
19.67109
30
0
11
154.493575
21
19.911921
31
0
39
0
210
0
220
0
230
1
0
LINE
5
7E
100
AcDbEntity
8
1
62
256
6
ByLayer
370
-1
48
1
60
0
100
AcDbLine
10
153.821018
20
20.995223
30
0
11
153.842088
21
21.236054
31
0
39
0
210
0
220
0
230
1
0
LINE
5
7F
100
AcDbEntity
8
1
62
256
6
ByLayer
370
-1
48
1
60
0
100
AcDbLine
10
152.88548
20
21.245953
30
0
11
152.90655
21
21.486784
31
0
39
0
210
0
220
0
230
1
0
LINE
5
80
100
AcDbEntity
8
1
62
256
6
ByLayer
370
-1
48
1
60
0
100
AcDbLine
10
151.651236
20
20.415535
30
0
11
151.672287
21
20.656151
31
0
39
0
210
0
220
0
230
1
0
LINE
5
81
100
AcDbEntity
8
1
62
256
6
ByLayer
370
-1
48
1
60
0
100
AcDbLine
10
151.756561
20
18.946608
30
0
11
151.777631
21
19.187439
31
0
39
0
210
0
220
0
230
1
0
LINE
5
82
100
AcDbEntity
8
1
62
256
6
ByLayer
370
-1
48
1
60
0
100
AcDbLine
10
152.097088
20
20.780451
30
0
11
152.077781
21
20.559771
31
0
39
0
210
0
220
0
230
1
0
LINE
5
83
100
AcDbEntity
8
1
62
256
6
ByLayer
370
-1
48
1
60
0
100
AcDbLine
10
152.195387
20
20.676475
30
0
11
152.214694
21
20.897155
31
0
39
0
210
0
220
0
230
1
0
LINE
5
84
100
AcDbEntity
8
1
62
256
6
ByLayer
370
-1
48
1
60
0
100
AcDbLine
10
148.104546
20
12.680516
30
0
11
147.237698
21
12.605839
31
0
39
0
210
0
220
0
230
1
0
LINE
5
85
100
AcDbEntity
8
1
62
256
6
ByLayer
370
-1
48
1
60
0
100
AcDbLine
10
147.277264
20
13.058083
30
0
11
148.364502
21
13.151745
31
0
39
0
210
0
220
0
230
1
0
LINE
5
86
100
AcDbEntity
8
1
62
256
6
ByLayer
370
-1
48
1
60
0
100
AcDbLine
10
147.277264
20
13.058083
30
0
11
147.237698
21
12.605839
31
0
39
0
210
0
220
0
230
1
0
LINE
5
87
100
AcDbEntity
8
SK1
62
256
6
ByLayer
370
-1
48
1
60
0
100
AcDbLine
10
0
20
-7.571005
30
0
11
0
21
7.571005
31
0
39
0
210
0
220
0
230
1
0
LINE
5
88
100
AcDbEntity
8
SK1
62
256
6
ByLayer
370
-1
48
1
60
0
100
AcDbLine
10
0
20
-19.98925
30
0
11
0
21
-7.571005
31
0
39
0
210
0
220
0
230
1
0
LINE
5
89
100
AcDbEntity
8
SK1
62
256
6
ByLayer
370
-1
48
1
60
0
100
AcDbLine
10
-138.836
20
17.51075
30
0
11
0
21
17.51075
31
0
39
0
210
0
220
0
230
1
0
LINE
5
8A
100
AcDbEntity
8
SK1
62
256
6
ByLayer
370
-1
48
1
60
0
100
AcDbLine
10
-138.836
20
7.571005
30
0
11
-138.836
21
17.51075
31
0
39
0
210
0
220
0
230
1
0
LINE
5
8B
100
AcDbEntity
8
SK1
62
256
6
ByLayer
370
-1
48
1
60
0
100
AcDbLine
10
-138.836
20
-7.571005
30
0
11
0
21
-7.571005
31
0
39
0
210
0
220
0
230
1
0
LINE
5
8C
100
AcDbEntity
8
SK1
62
256
6
ByLayer
370
-1
48
1
60
0
100
AcDbLine
10
0
20
17.51075
30
0
11
0
21
7.571005
31
0
39
0
210
0
220
0
230
1
0
LINE
5
8D
100
AcDbEntity
8
SK1
62
256
6
ByLayer
370
-1
48
1
60
0
100
AcDbLine
10
0
20
7.571005
30
0
11
-138.836
21
7.571005
31
0
39
0
210
0
220
0
230
1
0
LINE
5
8E
100
AcDbEntity
8
SK1
62
256
6
ByLayer
370
-1
48
1
60
0
100
AcDbLine
10
-138.836
20
-19.98925
30
0
11
-138.836
21
-7.571005
31
0
39
0
210
0
220
0
230
1
0
LINE
5
8F
100
AcDbEntity
8
SK1
62
256
6
ByLayer
370
-1
48
1
60
0
100
AcDbLine
10
-141.336
20
-17.48925
30
0
11
-141.336
21
17.48925
31
0
39
0
210
0
220
0
230
1
0
LINE
5
90
100
AcDbEntity
8
2
62
256
6
ByLayer
370
-1
48
1
60
1
100
AcDbLine
10
159.914
20
0
30
0
11
159.915
21
0.001
31
0
39
0
210
0
220
0
230
1
0
MTEXT
5
E8
100
AcDbEntity
8
SK6
62
256
6
ByLayer
370
-1
48
1
60
0
100
AcDbMText
10
12.664
20
-34.319449
30
0
210
0
220
0
230
1
1
\W00.772;\fsimplex.shx,bigfont.shx;A40T-SCLCR 12 
40
3.5
41
0
44
1.084337
50
0
71
7
72
5
7
DEFAULT
0
DIMENSION
5
11B
100
AcDbEntity
8
2
62
256
6
ByLayer
370
-3
48
1
60
0
100
AcDbDimension
2
DimnDraft3D1
10
172.164
20
0
30
0
11
172.164
21
8.286842
31
0
70
32
71
5
72
1
41
1
210
0
220
0
230
1
3
Standard
100
AcDbAlignedDimension
13
161.914
23
26.9
33
0
14
161.914
24
0
34
0
50
90
100
AcDbRotatedDimension
1001
ACAD
1000
DSTYLE
1002
{
1070
    74
1070
     0
1070
   279
1070
     0
1070
   172
1070
     1
1070
   173
1070
     1
1070
   340
1005
E9
1070
    77
1070
     1
1070
    73
1070
     0
1070
   171
1070
     4
1070
   274
1070
     4
1070
   177
1070
     2
1070
   176
1070
     2
1070
   178
1070
     7
1070
    78
1070
     8
1070
    41
1041
3.175
1070
   147
1041
2.25
1070
    42
1041
2.0
1070
    44
1041
2.0
1070
   140
1041
4.5
1070
   343
1005
11C
1070
   344
1005
11C
1002
}
0
DIMENSION
5
131
100
AcDbEntity
8
SK2
62
256
6
ByLayer
370
-3
48
1
60
0
100
AcDbDimension
2
DimnDraft3D2
10
-151.086
20
19.98925
30
0
11
-151.086
21
-5.021053
31
0
70
32
71
5
72
1
41
1
210
0
220
0
230
1
3
Standard
100
AcDbAlignedDimension
13
-143.336
23
-19.98925
33
0
14
-143.336
24
19.98925
34
0
50
90
100
AcDbRotatedDimension
1001
ACAD
1000
DSTYLE
1002
{
1070
    74
1070
     0
1070
   279
1070
     0
1070
   172
1070
     1
1070
   173
1070
     1
1070
   340
1005
E9
1070
    77
1070
     1
1070
    73
1070
     0
1070
   171
1070
     4
1070
   274
1070
     4
1070
   177
1070
     2
1070
   176
1070
     2
1070
   178
1070
     7
1070
    78
1070
     8
1070
    41
1041
3.175
1070
   147
1041
2.25
1070
    42
1041
2.0
1070
    44
1041
2.0
1070
   140
1041
4.5
1070
   343
1005
11C
1070
   344
1005
11C
1002
}
0
DIMENSION
5
13F
100
AcDbEntity
8
SK2
62
256
6
ByLayer
370
-3
48
1
60
0
100
AcDbDimension
2
DimnDraft3D3
10
-141.336
20
39.65
30
0
11
2.473868
21
39.65
31
0
70
32
71
5
72
1
41
1
210
0
220
0
230
1
3
Standard
100
AcDbAlignedDimension
13
159.914
23
28.9
33
0
14
-141.336
24
21.98925
34
0
50
0
100
AcDbRotatedDimension
1001
ACAD
1000
DSTYLE
1002
{
1070
   279
1070
     0
1070
   172
1070
     1
1070
   173
1070
     1
1070
   340
1005
E9
1070
    77
1070
     1
1070
    73
1070
     0
1070
   171
1070
     4
1070
   274
1070
     4
1070
   177
1070
     2
1070
   176
1070
     2
1070
   178
1070
     7
1070
    78
1070
     8
1070
    41
1041
3.175
1070
   147
1041
2.25
1070
    42
1041
2.0
1070
    44
1041
2.0
1070
   140
1041
4.5
1070
   343
1005
11C
1070
   344
1005
11C
1002
}
0
DIMENSION
5
14D
100
AcDbEntity
8
2
62
256
6
ByLayer
370
-3
48
1
60
0
100
AcDbDimension
2
DimnDraft3D4
10
206.486962
20
0
30
0
11
183.046265
21
-37.243123
31
0
70
34
71
5
72
1
41
1
210
0
220
0
230
1
3
Standard
100
AcDb2LineAngularDimension
13
158.69382
23
12.953274
33
0
14
153.296338
24
-48.740227
34
0
15
161.914
25
0
35
0
16
186.22342
26
-31.280028
36
0
40
0
0
ENDSEC
0
SECTION
2
OBJECTS
0
DICTIONARY
5
17e
330
0
100
AcDbDictionary
280
0
281
1
3
ACAD_GROUP
350
17f
3
ACAD_MLINESTYLE
350
180
0
DICTIONARY
5
17f
330
0
100
AcDbDictionary
280
0
281
1
0
DICTIONARY
5
180
330
0
100
AcDbDictionary
280
0
281
1
3
Standard
350
18
0
MLINESTYLE
5
18
330
180
100
AcDbMlineStyle
2
Standard
70
0
3

62
256
51
90
52
90
71
2
49
-0.5
62
256
6
ByLayer
49
0.5
62
256
6
ByLayer
0
RASTERVARIABLES
5
16c
330

100
AcDbRasterVariables
90
0
70
1
71
1
72
1
0
ENDSEC
0
EOF
