0
SECTION
2
HEADER
9
$ACADVER
1
AC1015
9
$DWGCODEPAGE
3
ANSI_1252
9
$HANDSEED
5
18d
9
$ANGBASE
50
0
9
$ANGDIR
70
0
9
$ATTMODE
70
1
9
$AUNITS
70
0
9
$AUPREC
70
0
9
$CECOLOR
62
256
9
$CELTSCALE
40
1
9
$CELTYPE
6
ByLayer
9
$CELWEIGHT
370
-1
9
$CLAYER
8
0
9
$CMLJUST
70
0
9
$CMLSCALE
40
1
9
$CMLSTYLE
2
Standard
9
$DIMSTYLE
2
Standard
9
$TEXTSIZE
40
0.2
9
$TEXTSTYLE
7
Standard
9
$LUNITS
70
2
9
$LUPREC
70
4
9
$EXTNAMES
290
1
9
$INSUNITS
70
4
9
$LTSCALE
40
1
9
$LWDISPLAY
290
0
9
$PDMODE
70
0
9
$PDSIZE
40
0
9
$PLINEGEN
70
0
0
ENDSEC
0
SECTION
2
CLASSES
0
CLASS
1
RASTERVARIABLES
2
AcDbRasterVariables
3
ISM
90
0
280
0
281
0
0
ENDSEC
0
SECTION
2
TABLES
0
TABLE
2
VPORT
5
183
100
AcDbSymbolTable
0
VPORT
5
1
100
AcDbSymbolTableRecord
100
AcDbViewportTableRecord
2
*Active
70
0
10
0
20
0
11
1
21
1
12
-1
22
1
13
0
23
0
14
0.5
24
0.5
15
10
25
10
16
0
26
0
36
1
17
0
27
0
37
0
0
ENDTAB
0
TABLE
2
LTYPE
5
184
100
AcDbSymbolTable
0
LTYPE
5
14
100
AcDbSymbolTableRecord
100
AcDbLinetypeTableRecord
70
0
2
ByBlock
3

72
65
73
0
40
0
0
LTYPE
5
15
100
AcDbSymbolTableRecord
100
AcDbLinetypeTableRecord
70
0
2
ByLayer
3

72
65
73
0
40
0
0
LTYPE
5
16
100
AcDbSymbolTableRecord
100
AcDbLinetypeTableRecord
70
0
2
CONTINUOUS
3
Solid line
72
65
73
0
40
0
0
LTYPE
5
3B
100
AcDbSymbolTableRecord
100
AcDbLinetypeTableRecord
70
0
2
DASHED
3
__ __ __ __ __ __ __ __ __
72
65
73
2
40
25.72
49
12.86
74
0
49
-12.86
74
0
0
LTYPE
5
3C
100
AcDbSymbolTableRecord
100
AcDbLinetypeTableRecord
70
0
2
HIDDEN
3
_ _ _ _ _ _ _ _ _ _ _ _ _ _ _
72
65
73
2
40
0.5
49
0.25
74
0
49
-0.25
74
0
0
LTYPE
5
3D
100
AcDbSymbolTableRecord
100
AcDbLinetypeTableRecord
70
0
2
PHANTOM
3
____ _ _ ____ _ _ _____ _ _ ____
72
65
73
6
40
50.5
49
18
74
0
49
-6.5
74
0
49
6.5
74
0
49
-6.5
74
0
49
6.5
74
0
49
-6.5
74
0
0
LTYPE
5
3E
100
AcDbSymbolTableRecord
100
AcDbLinetypeTableRecord
70
0
2
CENTER
3
____ _ ____ _ ____ _ ____
72
65
73
4
40
47.5
49
22
74
0
49
-8.5
74
0
49
8.5
74
0
49
-8.5
74
0
0
LTYPE
5
3F
100
AcDbSymbolTableRecord
100
AcDbLinetypeTableRecord
70
0
2
DOT
3
.........................
72
65
73
2
40
10
49
0
74
0
49
-10
74
0
0
LTYPE
5
40
100
AcDbSymbolTableRecord
100
AcDbLinetypeTableRecord
70
0
2
DASHDOT
3
_._._._._._._._._._._._._._._._.
72
65
73
4
40
70
49
31
74
0
49
-13
74
0
49
13
74
0
49
-13
74
0
0
ENDTAB
0
TABLE
2
LAYER
5
185
100
AcDbSymbolTable
0
LAYER
5
10
100
AcDbSymbolTableRecord
100
AcDbLayerTableRecord
2
0
70
0
62
7
6
CONTINUOUS
290
1
370
-3
390
0
0
LAYER
5
42
100
AcDbSymbolTableRecord
100
AcDbLayerTableRecord
2
80
70
0
62
-6
6
CONTINUOUS
290
1
370
-3
390
0
0
LAYER
5
44
100
AcDbSymbolTableRecord
100
AcDbLayerTableRecord
2
81
70
0
62
-3
6
CONTINUOUS
290
1
370
-3
390
0
0
LAYER
5
46
100
AcDbSymbolTableRecord
100
AcDbLayerTableRecord
2
1
70
0
62
4
6
CONTINUOUS
290
1
370
-3
390
0
0
LAYER
5
48
100
AcDbSymbolTableRecord
100
AcDbLayerTableRecord
2
2
70
0
62
7
6
CONTINUOUS
290
1
370
-3
390
0
0
LAYER
5
4E
100
AcDbSymbolTableRecord
100
AcDbLayerTableRecord
2
4
70
0
62
-2
6
CENTER
290
1
370
-3
390
0
0
LAYER
5
16f
100
AcDbSymbolTableRecord
100
AcDbLayerTableRecord
2
SK4
70
0
62
2
6
CENTER
290
1
370
-3
390
0
0
LAYER
5
170
100
AcDbSymbolTableRecord
100
AcDbLayerTableRecord
2
SK1
70
0
62
4
6
CONTINUOUS
290
1
370
-3
390
0
0
LAYER
5
171
100
AcDbSymbolTableRecord
100
AcDbLayerTableRecord
2
SK6
70
0
62
5
6
CONTINUOUS
290
1
370
-3
390
0
0
LAYER
5
172
100
AcDbSymbolTableRecord
100
AcDbLayerTableRecord
2
SK2
70
0
62
7
6
CONTINUOUS
290
1
370
-3
390
0
0
ENDTAB
0
TABLE
2
STYLE
5
186
100
AcDbSymbolTable
0
STYLE
5
11
100
AcDbSymbolTableRecord
100
AcDbTextStyleTableRecord
2
Standard
3
txt
70
0
71
0
40
0
41
1
42
0
50
0
0
STYLE
5
EB
100
AcDbSymbolTableRecord
100
AcDbTextStyleTableRecord
2
DEFAULT
3
simplex.shx
70
0
71
0
40
0
41
1
42
0
50
0
0
STYLE
5
10E
100
AcDbSymbolTableRecord
100
AcDbTextStyleTableRecord
2
DWGDirectTextStyle
3
SIMPLEX
70
0
71
0
40
0
41
1
42
0
50
0
0
ENDTAB
0
TABLE
2
DIMSTYLE
5
187
100
AcDbSymbolTable
100
AcDbDimStyleTable
0
DIMSTYLE
105
27
100
AcDbSymbolTableRecord
100
AcDbDimStyleTableRecord
2
Standard
70
0
3
<>
41
0.18
42
0.0625
44
0.18
140
0.18
147
0.09
73
0
74
0
77
1
271
2
275
0
278
52
280
0
340
11
0
ENDTAB
0
TABLE
2
VIEW
5
188
100
AcDbSymbolTable
0
ENDTAB
0
TABLE
2
UCS
5
189
100
AcDbSymbolTable
0
ENDTAB
0
TABLE
2
APPID
5
18a
100
AcDbSymbolTable
0
APPID
5
12
100
AcDbSymbolTableRecord
100
AcDbRegAppTableRecord
2
ACAD
70
0
0
ENDTAB
0
TABLE
2
BLOCK_RECORD
5
18b
100
AcDbSymbolTable
0
BLOCK_RECORD
5
1F
100
AcDbSymbolTableRecord
100
AcDbBlockTableRecord
2
*Model_Space
340
0
70
0
0
BLOCK_RECORD
5
1B
100
AcDbSymbolTableRecord
100
AcDbBlockTableRecord
2
*Paper_Space
340
0
70
0
0
BLOCK_RECORD
5
23
100
AcDbSymbolTableRecord
100
AcDbBlockTableRecord
2
*Paper_Space0
340
0
70
0
0
BLOCK_RECORD
5
110
100
AcDbSymbolTableRecord
100
AcDbBlockTableRecord
2
DimnDraft3D1
340
0
70
0
0
BLOCK_RECORD
5
11E
100
AcDbSymbolTableRecord
100
AcDbBlockTableRecord
2
_CLOSED
340
0
70
0
0
BLOCK_RECORD
5
125
100
AcDbSymbolTableRecord
100
AcDbBlockTableRecord
2
DimnDraft3D2
340
0
70
0
0
BLOCK_RECORD
5
134
100
AcDbSymbolTableRecord
100
AcDbBlockTableRecord
2
DimnDraft3D3
340
0
70
0
0
BLOCK_RECORD
5
142
100
AcDbSymbolTableRecord
100
AcDbBlockTableRecord
2
DimnDraft3D4
340
0
70
0
0
ENDTAB
0
ENDSEC
0
SECTION
2
BLOCKS
0
BLOCK
5
20
100
AcDbEntity
8
0
100
AcDbBlockBegin
2
*Model_Space
70
0
10
0
20
0
30
0
3
*Model_Space
0
ENDBLK
5
21
100
AcDbEntity
8
0
100
AcDbBlockEnd
0
BLOCK
5
1C
100
AcDbEntity
8
0
100
AcDbBlockBegin
2
*Paper_Space
70
0
10
0
20
0
30
0
3
*Paper_Space
0
ENDBLK
5
1D
100
AcDbEntity
8
0
100
AcDbBlockEnd
0
BLOCK
5
24
100
AcDbEntity
8
0
100
AcDbBlockBegin
2
*Paper_Space0
70
0
10
0
20
0
30
0
3
*Paper_Space0
0
ENDBLK
5
25
100
AcDbEntity
8
0
100
AcDbBlockEnd
0
BLOCK
5
11B
100
AcDbEntity
8
0
100
AcDbBlockBegin
2
DimnDraft3D1
70
0
10
0
20
0
30
0
3
DimnDraft3D1
0
MTEXT
5
111
100
AcDbEntity
8
2
62
256
6
ByLayer
370
-1
48
1
60
0
100
AcDbMText
10
171.039
20
-17.488158
30
0
210
0
220
0
230
1
1
\W01.000;\fsimplex.shx,bigfont.shx;27.0 
40
4.5
41
0
44
1.084337
50
90
71
7
72
5
7
DEFAULT
0
LINE
5
112
100
AcDbEntity
8
2
62
256
6
ByLayer
370
-1
48
1
60
0
100
AcDbLine
10
161.914
20
-26.9
30
0
11
174.164
21
-26.9
31
0
39
0
210
0
220
0
230
1
0
LINE
5
113
100
AcDbEntity
8
2
62
256
6
ByLayer
370
-1
48
1
60
0
100
AcDbLine
10
161.914
20
0
30
0
11
174.164
21
0
31
0
39
0
210
0
220
0
230
1
0
LINE
5
114
100
AcDbEntity
8
2
62
256
6
ByLayer
370
-1
48
1
60
0
100
AcDbLine
10
172.164
20
-26.9
30
0
11
172.164
21
0
31
0
39
0
210
0
220
0
230
1
0
LINE
5
115
100
AcDbEntity
8
2
62
256
6
ByLayer
370
-1
48
1
60
0
100
AcDbLine
10
172.164
20
-26.9
30
0
11
171.746003
21
-23.725002
31
0
39
0
210
0
220
0
230
1
0
LINE
5
116
100
AcDbEntity
8
2
62
256
6
ByLayer
370
-1
48
1
60
0
100
AcDbLine
10
172.164
20
-26.9
30
0
11
172.581997
21
-23.724998
31
0
39
0
210
0
220
0
230
1
0
LINE
5
117
100
AcDbEntity
8
2
62
256
6
ByLayer
370
-1
48
1
60
0
100
AcDbLine
10
171.746003
20
-23.725002
30
0
11
172.581997
21
-23.724998
31
0
39
0
210
0
220
0
230
1
0
LINE
5
118
100
AcDbEntity
8
2
62
256
6
ByLayer
370
-1
48
1
60
0
100
AcDbLine
10
172.164
20
0
30
0
11
172.581997
21
-3.174998
31
0
39
0
210
0
220
0
230
1
0
LINE
5
119
100
AcDbEntity
8
2
62
256
6
ByLayer
370
-1
48
1
60
0
100
AcDbLine
10
172.164
20
0
30
0
11
171.746003
21
-3.175002
31
0
39
0
210
0
220
0
230
1
0
LINE
5
11A
100
AcDbEntity
8
2
62
256
6
ByLayer
370
-1
48
1
60
0
100
AcDbLine
10
172.581997
20
-3.174998
30
0
11
171.746003
21
-3.175002
31
0
39
0
210
0
220
0
230
1
0
ENDBLK
5
11C
100
AcDbEntity
8
0
100
AcDbBlockEnd
0
BLOCK
5
11F
100
AcDbEntity
8
0
100
AcDbBlockBegin
2
_CLOSED
70
0
10
0
20
0
30
0
3
_CLOSED
0
LINE
5
121
100
AcDbEntity
8
0
62
256
6
ByLayer
370
-2
48
1
60
0
100
AcDbLine
10
-1
20
0.166667
30
0
11
0
21
0
31
0
39
0
210
0
220
0
230
1
0
LINE
5
122
100
AcDbEntity
8
0
62
256
6
ByLayer
370
-2
48
1
60
0
100
AcDbLine
10
0
20
0
30
0
11
-1
21
-0.166667
31
0
39
0
210
0
220
0
230
1
0
LINE
5
123
100
AcDbEntity
8
0
62
256
6
ByLayer
370
-2
48
1
60
0
100
AcDbLine
10
-1
20
0.166667
30
0
11
-1
21
-0.166667
31
0
39
0
210
0
220
0
230
1
0
LINE
5
124
100
AcDbEntity
8
0
62
256
6
ByLayer
370
-2
48
1
60
0
100
AcDbLine
10
0
20
0
30
0
11
-1
21
0
31
0
39
0
210
0
220
0
230
1
0
ENDBLK
5
120
100
AcDbEntity
8
0
100
AcDbBlockEnd
0
BLOCK
5
131
100
AcDbEntity
8
0
100
AcDbBlockBegin
2
DimnDraft3D2
70
0
10
0
20
0
30
0
3
DimnDraft3D2
0
MTEXT
5
126
100
AcDbEntity
8
SK2
62
256
6
ByLayer
370
-1
48
1
60
0
100
AcDbMText
10
-152.211
20
-3.896053
30
0
210
0
220
0
230
1
1
\W01.000;\fsimplex.shx,bigfont.shx;%%c40 
40
4.5
41
0
44
1.084337
50
90
71
7
72
5
7
DEFAULT
0
LINE
5
128
100
AcDbEntity
8
SK2
62
256
6
ByLayer
370
-1
48
1
60
0
100
AcDbLine
10
-143.336
20
-19.98925
30
0
11
-153.086
21
-19.98925
31
0
39
0
210
0
220
0
230
1
0
LINE
5
129
100
AcDbEntity
8
SK2
62
256
6
ByLayer
370
-1
48
1
60
0
100
AcDbLine
10
-143.336
20
19.98925
30
0
11
-153.086
21
19.98925
31
0
39
0
210
0
220
0
230
1
0
LINE
5
12A
100
AcDbEntity
8
SK2
62
256
6
ByLayer
370
-1
48
1
60
0
100
AcDbLine
10
-151.086
20
-19.98925
30
0
11
-151.086
21
19.98925
31
0
39
0
210
0
220
0
230
1
0
LINE
5
12B
100
AcDbEntity
8
SK2
62
256
6
ByLayer
370
-1
48
1
60
0
100
AcDbLine
10
-151.086
20
-19.98925
30
0
11
-151.503997
21
-16.814252
31
0
39
0
210
0
220
0
230
1
0
LINE
5
12C
100
AcDbEntity
8
SK2
62
256
6
ByLayer
370
-1
48
1
60
0
100
AcDbLine
10
-151.086
20
-19.98925
30
0
11
-150.668003
21
-16.814248
31
0
39
0
210
0
220
0
230
1
0
LINE
5
12D
100
AcDbEntity
8
SK2
62
256
6
ByLayer
370
-1
48
1
60
0
100
AcDbLine
10
-151.503997
20
-16.814252
30
0
11
-150.668003
21
-16.814248
31
0
39
0
210
0
220
0
230
1
0
LINE
5
12E
100
AcDbEntity
8
SK2
62
256
6
ByLayer
370
-1
48
1
60
0
100
AcDbLine
10
-151.086
20
19.98925
30
0
11
-150.668003
21
16.814252
31
0
39
0
210
0
220
0
230
1
0
LINE
5
12F
100
AcDbEntity
8
SK2
62
256
6
ByLayer
370
-1
48
1
60
0
100
AcDbLine
10
-151.086
20
19.98925
30
0
11
-151.503997
21
16.814248
31
0
39
0
210
0
220
0
230
1
0
LINE
5
130
100
AcDbEntity
8
SK2
62
256
6
ByLayer
370
-1
48
1
60
0
100
AcDbLine
10
-150.668003
20
16.814252
30
0
11
-151.503997
21
16.814248
31
0
39
0
210
0
220
0
230
1
0
ENDBLK
5
132
100
AcDbEntity
8
0
100
AcDbBlockEnd
0
BLOCK
5
13F
100
AcDbEntity
8
0
100
AcDbBlockBegin
2
DimnDraft3D3
70
0
10
0
20
0
30
0
3
DimnDraft3D3
0
MTEXT
5
135
100
AcDbEntity
8
SK2
62
256
6
ByLayer
370
-1
48
1
60
0
100
AcDbMText
10
3.598868
20
-43.025
30
0
210
0
220
0
230
1
1
\W01.000;\fsimplex.shx,bigfont.shx;300.0 
40
4.5
41
0
44
1.084337
50
0
71
7
72
5
7
DEFAULT
0
LINE
5
136
100
AcDbEntity
8
SK2
62
256
6
ByLayer
370
-1
48
1
60
0
100
AcDbLine
10
-141.336
20
-21.98925
30
0
11
-141.336
21
-46.15
31
0
39
0
210
0
220
0
230
1
0
LINE
5
137
100
AcDbEntity
8
SK2
62
256
6
ByLayer
370
-1
48
1
60
0
100
AcDbLine
10
159.914
20
-28.9
30
0
11
159.914
21
-46.15
31
0
39
0
210
0
220
0
230
1
0
LINE
5
138
100
AcDbEntity
8
SK2
62
256
6
ByLayer
370
-1
48
1
60
0
100
AcDbLine
10
-141.336
20
-44.15
30
0
11
159.914
21
-44.15
31
0
39
0
210
0
220
0
230
1
0
LINE
5
139
100
AcDbEntity
8
SK2
62
256
6
ByLayer
370
-1
48
1
60
0
100
AcDbLine
10
-141.336
20
-44.15
30
0
11
-138.161002
21
-43.732003
31
0
39
0
210
0
220
0
230
1
0
LINE
5
13A
100
AcDbEntity
8
SK2
62
256
6
ByLayer
370
-1
48
1
60
0
100
AcDbLine
10
-141.336
20
-44.15
30
0
11
-138.160998
21
-44.567997
31
0
39
0
210
0
220
0
230
1
0
LINE
5
13B
100
AcDbEntity
8
SK2
62
256
6
ByLayer
370
-1
48
1
60
0
100
AcDbLine
10
-138.161002
20
-43.732003
30
0
11
-138.160998
21
-44.567997
31
0
39
0
210
0
220
0
230
1
0
LINE
5
13C
100
AcDbEntity
8
SK2
62
256
6
ByLayer
370
-1
48
1
60
0
100
AcDbLine
10
159.914
20
-44.15
30
0
11
156.739002
21
-44.567997
31
0
39
0
210
0
220
0
230
1
0
LINE
5
13D
100
AcDbEntity
8
SK2
62
256
6
ByLayer
370
-1
48
1
60
0
100
AcDbLine
10
159.914
20
-44.15
30
0
11
156.738998
21
-43.732003
31
0
39
0
210
0
220
0
230
1
0
LINE
5
13E
100
AcDbEntity
8
SK2
62
256
6
ByLayer
370
-1
48
1
60
0
100
AcDbLine
10
156.739002
20
-44.567997
30
0
11
156.738998
21
-43.732003
31
0
39
0
210
0
220
0
230
1
0
ENDBLK
5
140
100
AcDbEntity
8
0
100
AcDbBlockEnd
0
BLOCK
5
14D
100
AcDbEntity
8
0
100
AcDbBlockBegin
2
DimnDraft3D4
70
0
10
0
20
0
30
0
3
DimnDraft3D4
0
MTEXT
5
143
100
AcDbEntity
8
2
62
256
6
ByLayer
370
-1
48
1
60
0
100
AcDbMText
10
180.075507
20
32.335899
30
0
210
0
220
0
230
1
1
\W01.000;\fsimplex.shx,bigfont.shx;95%%d0' 
40
4.5
41
0
44
1.084337
50
317.5
71
7
72
5
7
DEFAULT
0
LINE
5
144
100
AcDbEntity
8
2
62
256
6
ByLayer
370
-1
48
1
60
0
100
AcDbLine
10
158.69382
20
-12.953274
30
0
11
154.080739
21
39.774475
31
0
39
0
210
0
220
0
230
1
0
LINE
5
145
100
AcDbEntity
8
2
62
256
6
ByLayer
370
-1
48
1
60
0
100
AcDbLine
10
161.914
20
0
30
0
11
197.486962
21
0
31
0
39
0
210
0
220
0
230
1
0
ARC
5
146
100
AcDbEntity
8
2
62
256
6
ByLayer
370
-1
48
1
60
0
100
AcDbCircle
39
0
10
157.560555
20
0
30
0
40
37.9264068640928
210
0
220
0
230
1
100
AcDbArc
50
0
51
95
0
LINE
5
147
100
AcDbEntity
8
2
62
256
6
ByLayer
370
-1
48
1
60
0
100
AcDbLine
10
154.255051
20
37.782085
30
0
11
157.395349
21
38.409669
31
0
39
0
210
0
220
0
230
1
0
LINE
5
148
100
AcDbEntity
8
2
62
256
6
ByLayer
370
-1
48
1
60
0
100
AcDbLine
10
154.255051
20
37.782085
30
0
11
157.45078
21
37.575515
31
0
39
0
210
0
220
0
230
1
0
LINE
5
149
100
AcDbEntity
8
2
62
256
6
ByLayer
370
-1
48
1
60
0
100
AcDbLine
10
157.395349
20
38.409669
30
0
11
157.45078
21
37.575515
31
0
39
0
210
0
220
0
230
1
0
LINE
5
14A
100
AcDbEntity
8
2
62
256
6
ByLayer
370
-1
48
1
60
0
100
AcDbLine
10
195.486962
20
0
30
0
11
195.002652
21
3.165562
31
0
39
0
210
0
220
0
230
1
0
LINE
5
14B
100
AcDbEntity
8
2
62
256
6
ByLayer
370
-1
48
1
60
0
100
AcDbLine
10
195.486962
20
0
30
0
11
195.838462
21
3.183049
31
0
39
0
210
0
220
0
230
1
0
LINE
5
14C
100
AcDbEntity
8
2
62
256
6
ByLayer
370
-1
48
1
60
0
100
AcDbLine
10
195.002652
20
3.165562
30
0
11
195.838462
21
3.183049
31
0
39
0
210
0
220
0
230
1
0
ENDBLK
5
14E
100
AcDbEntity
8
0
100
AcDbBlockEnd
0
ENDSEC
0
SECTION
2
ENTITIES
0
ELLIPSE
5
91
100
AcDbEntity
8
1
62
256
6
ByLayer
370
-1
48
1
60
0
100
AcDbEllipse
10
146.62234
20
-12.649837
30
0
11
-1.74334072166055
21
-0.152522549808393
31
0
210
0
220
0
230
1
40
0.992214
41
0.321048054578973
42
1.2029521879948
0
ELLIPSE
5
92
100
AcDbEntity
8
1
62
256
6
ByLayer
370
-1
48
1
60
0
100
AcDbEllipse
10
146.629396
20
-12.730483
30
0
11
1.74334072166055
21
0.152522549808395
31
0
210
0
220
0
230
1
40
0.992214
41
-2.48941641776593
42
-1.93855059250307
0
ELLIPSE
5
93
100
AcDbEntity
8
1
62
256
6
ByLayer
370
-1
48
1
60
0
100
AcDbEllipse
10
146.941693
20
-15.182453
30
0
11
1.77523000875774
21
0.155312500917322
31
0
210
0
220
0
230
1
40
0.992214
41
-3.13722933046008
42
-1.99077648309989
0
ELLIPSE
5
94
100
AcDbEntity
8
1
62
256
6
ByLayer
370
-1
48
1
60
0
100
AcDbEllipse
10
146.914112
20
-14.867202
30
0
11
-1.49429204713762
21
-0.13073361412148
31
0
210
0
220
0
230
1
40
0.992214
41
0.00436332313001991
42
1.06511617319818
0
ELLIPSE
5
95
100
AcDbEntity
8
1
62
256
6
ByLayer
370
-1
48
1
60
0
100
AcDbEllipse
10
146.922661
20
-14.975402
30
0
11
1.77523000875774
21
0.155312500917322
31
0
210
0
220
0
230
1
40
0.992214
41
2.82972345804645
42
-3.1372293304601
0
ELLIPSE
5
96
100
AcDbEntity
8
1
62
256
6
ByLayer
370
-1
48
1
60
0
100
AcDbEllipse
10
52.814559
20
-360.928478
30
0
11
131.778167422082
21
488.208551382263
31
0
210
4.12919380076623E-31
220
1.73565639128712E-16
230
1
40
0.117064
41
0.747609613450123
42
0.793636708181607
0
ELLIPSE
5
97
100
AcDbEntity
8
1
62
256
6
ByLayer
370
-1
48
1
60
0
100
AcDbEllipse
10
146.853225
20
-14.171252
30
0
11
-1.49429204713762
21
-0.13073361412148
31
0
210
0
220
0
230
1
40
0.992214
41
0.125282355819439
42
1.06511548040662
0
ELLIPSE
5
98
100
AcDbEntity
8
1
62
256
6
ByLayer
370
-1
48
1
60
0
100
AcDbEllipse
10
146.89508
20
-14.660151
30
0
11
-1.49429204713762
21
-0.13073361412148
31
0
210
0
220
0
230
1
40
0.992214
41
-0.130067207292111
42
0.00436332312999604
0
ELLIPSE
5
99
100
AcDbEntity
8
1
62
256
6
ByLayer
370
-1
48
1
60
0
100
AcDbEllipse
10
146.717865
20
-13.741685
30
0
11
1.74334072166055
21
0.152522549808395
31
0
210
0
220
0
230
1
40
0.992214
41
0.151921250830862
42
-2.72391523167024
0
ELLIPSE
5
9A
100
AcDbEntity
8
1
62
256
6
ByLayer
370
-1
48
1
60
0
100
AcDbEllipse
10
146.853441
20
-13.400346
30
0
11
-0.239934988993701
21
-0.0209915915201651
31
0
210
0
220
0
230
1
40
0.992214
41
-1.22977468761242
42
-0.911555652460946
0
ELLIPSE
5
9B
100
AcDbEntity
8
1
62
256
6
ByLayer
370
-1
48
1
60
0
100
AcDbEllipse
10
153.000697
20
-19.915858
30
0
11
-3.92153120152563
21
-0.34308952379667
31
0
210
0
220
0
230
1
40
0.992214
41
-1.37914243900312
42
0
0
ELLIPSE
5
9C
100
AcDbEntity
8
1
62
256
6
ByLayer
370
-1
48
1
60
0
100
AcDbEllipse
10
153.000697
20
-19.915858
30
0
11
-3.92153120152563
21
-0.34308952379667
31
0
210
0
220
0
230
1
40
0.992214
41
0
42
3.05364481319945
0
ELLIPSE
5
9D
100
AcDbEntity
8
1
62
256
6
ByLayer
370
-1
48
1
60
0
100
AcDbEllipse
10
153.000697
20
-19.915858
30
0
11
-3.92153120152563
21
-0.34308952379667
31
0
210
0
220
0
230
1
40
0.992214
41
3.05364478986726
42
-1.76231860053132
0
ELLIPSE
5
9E
100
AcDbEntity
8
1
62
256
6
ByLayer
370
-1
48
1
60
0
100
AcDbEllipse
10
153.012566
20
-20.05152
30
0
11
4.05583272606582
21
0.354839384688188
31
0
210
0
220
0
230
1
40
0.992214
41
0
42
6.28318530717959
0
ELLIPSE
5
9F
100
AcDbEntity
8
1
62
256
6
ByLayer
370
-1
48
1
60
0
100
AcDbEllipse
10
153.002576
20
-19.937335
30
0
11
3.99172294436722
21
0.349230505568439
31
0
210
0
220
0
230
1
40
0.992214
41
3.05364477538961
42
0
0
ELLIPSE
5
A0
100
AcDbEntity
8
1
62
256
6
ByLayer
370
-1
48
1
60
0
100
AcDbEllipse
10
153.002576
20
-19.937335
30
0
11
3.99172294436722
21
0.349230505568439
31
0
210
0
220
0
230
1
40
0.992214
41
0
42
0.578855374641759
0
ELLIPSE
5
A1
100
AcDbEntity
8
1
62
256
6
ByLayer
370
-1
48
1
60
0
100
AcDbEllipse
10
153.002576
20
-19.937335
30
0
11
3.99172294436722
21
0.349230505568439
31
0
210
0
220
0
230
1
40
0.992214
41
0.590832484489002
42
2.55069535411614
0
ELLIPSE
5
A2
100
AcDbEntity
8
1
62
256
6
ByLayer
370
-1
48
1
60
0
100
AcDbEllipse
10
153.002576
20
-19.937335
30
0
11
3.99172294436722
21
0.349230505568439
31
0
210
0
220
0
230
1
40
0.992214
41
2.56257473172287
42
3.05364502689783
0
ELLIPSE
5
A3
100
AcDbEntity
8
1
62
256
6
ByLayer
370
-1
48
1
60
0
100
AcDbEllipse
10
159.120022
20
-26.11211
30
0
11
0.790978590123493
21
0.069201659727521
31
0
210
0
220
0
230
1
40
0.992214
41
-1.74532925202975
42
-3.53008507657793E-11
0
ELLIPSE
5
A4
100
AcDbEntity
8
1
62
256
6
ByLayer
370
-1
48
1
60
0
100
AcDbEllipse
10
147.880868
20
-25.143893
30
0
11
0.790978590123509
21
0.0692016597275224
31
0
210
0
220
0
230
1
40
0.992214
41
3.14159265355429
42
-1.74532925202981
0
ELLIPSE
5
A5
100
AcDbEntity
8
1
62
256
6
ByLayer
370
-1
48
1
60
0
100
AcDbEllipse
10
146.90511
20
-13.99093
30
0
11
0.790978590123577
21
0.0692016597275283
31
0
210
0
220
0
230
1
40
0.992214
41
1.39626340155999
42
3.14159265355429
0
ELLIPSE
5
A6
100
AcDbEntity
8
1
62
256
6
ByLayer
370
-1
48
1
60
0
100
AcDbEllipse
10
158.144264
20
-14.959147
30
0
11
0.790978590123466
21
0.0692016597275186
31
0
210
0
220
0
230
1
40
0.992214
41
0
42
1.39626340156011
0
ELLIPSE
5
A7
100
AcDbEntity
8
1
62
256
6
ByLayer
370
-1
48
1
60
0
100
AcDbEllipse
10
152.988201
20
-19.773031
30
0
11
-1.2019089032477
21
-0.105153403625045
31
0
210
0
220
0
230
1
40
0.992214
41
-2.24195829939152
42
-1.72168913779374
0
ELLIPSE
5
A8
100
AcDbEntity
8
1
62
256
6
ByLayer
370
-1
48
1
60
0
100
AcDbEllipse
10
151.649722
20
-20.125798
30
0
11
-0.29088885184279
21
-0.025449476882315
31
0
210
0
220
0
230
1
40
0.992214
41
0.441455539748195
42
1.48939303571929
0
ELLIPSE
5
A9
100
AcDbEntity
8
1
62
256
6
ByLayer
370
-1
48
1
60
0
100
AcDbEllipse
10
151.161313
20
-19.285706
30
0
11
-0.683389562890938
21
-0.0597888395248903
31
0
210
0
220
0
230
1
40
0.992214
41
-3.14158555232043
42
-2.70806313420855
0
ELLIPSE
5
AA
100
AcDbEntity
8
1
62
256
6
ByLayer
370
-1
48
1
60
0
100
AcDbEllipse
10
153.007508
20
-19.993712
30
0
11
1.2019089032477
21
0.105153403625045
31
0
210
0
220
0
230
1
40
0.992214
41
-2.51249358620408
42
-2.3744283193801
0
ELLIPSE
5
AB
100
AcDbEntity
8
1
62
256
6
ByLayer
370
-1
48
1
60
0
100
AcDbEllipse
10
153.479302
20
-21.585908
30
0
11
-0.683389562890938
21
-0.0597888395248903
31
0
210
0
220
0
230
1
40
0.992214
41
-2.17885877137578
42
-1.39486812775493
0
ELLIPSE
5
AC
100
AcDbEntity
8
1
62
256
6
ByLayer
370
-1
48
1
60
0
100
AcDbEllipse
10
153.006093
20
-19.977533
30
0
11
3.41196684096422
21
0.298508418910715
31
0
210
0
220
0
230
1
40
0.992214
41
0
42
6.28318530717959
0
ELLIPSE
5
AD
100
AcDbEntity
8
1
62
256
6
ByLayer
370
-1
48
1
60
0
100
AcDbEllipse
10
151.654794
20
-21.09622
30
0
11
-0.683389562890938
21
-0.0597888395248903
31
0
210
0
220
0
230
1
40
0.992214
41
-3.14158830158518
42
-2.56507499400951
0
ELLIPSE
5
AE
100
AcDbEntity
8
1
62
256
6
ByLayer
370
-1
48
1
60
0
100
AcDbEllipse
10
153.010454
20
-20.027379
30
0
11
1.67012041135082
21
0.146116602716443
31
0
210
0
220
0
230
1
40
0.992214
41
1.2245210240773
42
2.2689280275926
0
ELLIPSE
5
AF
100
AcDbEntity
8
1
62
256
6
ByLayer
370
-1
48
1
60
0
100
AcDbEllipse
10
152.988201
20
-19.773031
30
0
11
1.20190890324771
21
0.105153403625047
31
0
210
0
220
0
230
1
40
0.992214
41
-2.51249358620423
42
-2.37442831937983
0
ELLIPSE
5
B0
100
AcDbEntity
8
1
62
256
6
ByLayer
370
-1
48
1
60
0
100
AcDbEllipse
10
154.326681
20
-19.420265
30
0
11
-0.29088885184279
21
-0.025449476882315
31
0
210
0
220
0
230
1
40
0.992214
41
2.00714088572926
42
2.69655567657789
0
ELLIPSE
5
B1
100
AcDbEntity
8
1
62
256
6
ByLayer
370
-1
48
1
60
0
100
AcDbEllipse
10
152.993086
20
-19.828864
30
0
11
3.41196684096423
21
0.298508418910716
31
0
210
0
220
0
230
1
40
0.992214
41
3.05364490604683
42
-3.14157580230013
0
ELLIPSE
5
B2
100
AcDbEntity
8
1
62
256
6
ByLayer
370
-1
48
1
60
0
100
AcDbEllipse
10
152.993086
20
-19.828864
30
0
11
3.41196684096423
21
0.298508418910716
31
0
210
0
220
0
230
1
40
0.992214
41
0
42
3.05364504358698
0
ELLIPSE
5
B3
100
AcDbEntity
8
1
62
256
6
ByLayer
370
-1
48
1
60
0
100
AcDbEllipse
10
152.988201
20
-19.773031
30
0
11
1.20190890324771
21
0.105153403625047
31
0
210
0
220
0
230
1
40
0.992214
41
-1.39486812775482
42
-0.350461124239492
0
ELLIPSE
5
B4
100
AcDbEntity
8
1
62
256
6
ByLayer
370
-1
48
1
60
0
100
AcDbEllipse
10
153.966471
20
-20.743794
30
0
11
-0.29088885184279
21
-0.025449476882315
31
0
210
0
220
0
230
1
40
0.992214
41
0.962733882214362
42
2.70462509739116
0
ELLIPSE
5
B5
100
AcDbEntity
8
1
62
256
6
ByLayer
370
-1
48
1
60
0
100
AcDbEllipse
10
152.988201
20
-19.773031
30
0
11
-1.2019089032477
21
-0.105153403625045
31
0
210
0
220
0
230
1
40
0.992214
41
2.79113152935033
42
-2.81430495550063
0
ELLIPSE
5
B6
100
AcDbEntity
8
1
62
256
6
ByLayer
370
-1
48
1
60
0
100
AcDbEllipse
10
153.010454
20
-20.027379
30
0
11
1.67012041135082
21
0.146116602716443
31
0
210
0
220
0
230
1
40
0.992214
41
-1.91707162951224
42
-0.87266462599717
0
ELLIPSE
5
B7
100
AcDbEntity
8
1
62
256
6
ByLayer
370
-1
48
1
60
0
100
AcDbEllipse
10
152.988201
20
-19.773031
30
0
11
-1.2019089032477
21
-0.105153403625045
31
0
210
0
220
0
230
1
40
0.992214
41
-1.01832643102726
42
-0.440246890029931
0
ELLIPSE
5
B8
100
AcDbEntity
8
1
62
256
6
ByLayer
370
-1
48
1
60
0
100
AcDbEllipse
10
152.632716
20
-21.101249
30
0
11
-0.29088885184279
21
-0.025449476882315
31
0
210
0
220
0
230
1
40
0.992214
41
0.43799444378639
42
2.53071516945545
0
ELLIPSE
5
B9
100
AcDbEntity
8
1
62
256
6
ByLayer
370
-1
48
1
60
0
100
AcDbEllipse
10
153.010454
20
-20.027379
30
0
11
1.67012041135082
21
0.146116602716443
31
0
210
0
220
0
230
1
40
0.992214
41
0.171742377518052
42
1.2245210240773
0
ELLIPSE
5
BA
100
AcDbEntity
8
1
62
256
6
ByLayer
370
-1
48
1
60
0
100
AcDbEllipse
10
152.988201
20
-19.773031
30
0
11
-1.2019089032477
21
-0.105153403625045
31
0
210
0
220
0
230
1
40
0.992214
41
0.767164334209995
42
1.74672452583507
0
ELLIPSE
5
BB
100
AcDbEntity
8
1
62
256
6
ByLayer
370
-1
48
1
60
0
100
AcDbEllipse
10
153.007508
20
-19.993712
30
0
11
1.2019089032477
21
0.105153403625045
31
0
210
0
220
0
230
1
40
0.992214
41
0.629099067385821
42
0.767164334209792
0
ELLIPSE
5
BC
100
AcDbEntity
8
1
62
256
6
ByLayer
370
-1
48
1
60
0
100
AcDbEllipse
10
153.010454
20
-20.027379
30
0
11
1.67012041135082
21
0.146116602716443
31
0
210
0
220
0
230
1
40
0.992214
41
-2.96985027607165
42
-1.91707162951224
0
ELLIPSE
5
BD
100
AcDbEntity
8
1
62
256
6
ByLayer
370
-1
48
1
60
0
100
AcDbEllipse
10
153.010454
20
-20.027379
30
0
11
2.39086727542021
21
0.209173782594373
31
0
210
0
220
0
230
1
40
0.992214
41
0
42
6.28318530717959
0
ELLIPSE
5
BE
100
AcDbEntity
8
1
62
256
6
ByLayer
370
-1
48
1
60
0
100
AcDbEllipse
10
153.010454
20
-20.027379
30
0
11
1.67012041135082
21
0.146116602716443
31
0
210
0
220
0
230
1
40
0.992214
41
-0.87266462599717
42
0.171742377518052
0
ELLIPSE
5
BF
100
AcDbEntity
8
1
62
256
6
ByLayer
370
-1
48
1
60
0
100
AcDbEllipse
10
152.988201
20
-19.773031
30
0
11
-1.2019089032477
21
-0.105153403625045
31
0
210
0
220
0
230
1
40
0.992214
41
-0.0659602724890984
42
0.629099067385627
0
ELLIPSE
5
C0
100
AcDbEntity
8
1
62
256
6
ByLayer
370
-1
48
1
60
0
100
AcDbEllipse
10
154.81509
20
-20.260357
30
0
11
-0.683389562890938
21
-0.0597888395248903
31
0
210
0
220
0
230
1
40
0.992214
41
-1.13445176786019
42
-0.350461124239464
0
ELLIPSE
5
C1
100
AcDbEntity
8
1
62
256
6
ByLayer
370
-1
48
1
60
0
100
AcDbEllipse
10
154.81509
20
-20.260357
30
0
11
-0.683389562890938
21
-0.0597888395248903
31
0
210
0
220
0
230
1
40
0.992214
41
-0.350461124239464
42
6.67697630319787E-06
0
ELLIPSE
5
C2
100
AcDbEntity
8
1
62
256
6
ByLayer
370
-1
48
1
60
0
100
AcDbEllipse
10
151.654794
20
-21.09622
30
0
11
-0.683389562890938
21
-0.0597888395248903
31
0
210
0
220
0
230
1
40
0.992214
41
-2.32184691157463
42
-1.65219961787083
0
ELLIPSE
5
C3
100
AcDbEntity
8
1
62
256
6
ByLayer
370
-1
48
1
60
0
100
AcDbEllipse
10
153.479302
20
-21.585908
30
0
11
-0.683389562890938
21
-0.0597888395248903
31
0
210
0
220
0
230
1
40
0.992214
41
-1.39486812775493
42
-0.610877484134128
0
ELLIPSE
5
C4
100
AcDbEntity
8
1
62
256
6
ByLayer
370
-1
48
1
60
0
100
AcDbEllipse
10
153.010454
20
-20.027379
30
0
11
1.67012041135082
21
0.146116602716443
31
0
210
0
220
0
230
1
40
0.992214
41
2.2689280275926
42
-2.96985027607165
0
ELLIPSE
5
C5
100
AcDbEntity
8
1
62
256
6
ByLayer
370
-1
48
1
60
0
100
AcDbEllipse
10
147.207005
20
-13.848927
30
0
11
-0.796955758473397
21
-0.0697245941981228
31
0
210
0
220
0
230
1
40
0.992214
41
-1.74532925199416
42
-1.07984016014373
0
ELLIPSE
5
C6
100
AcDbEntity
8
1
62
256
6
ByLayer
370
-1
48
1
60
0
100
AcDbEllipse
10
147.167439
20
-13.396684
30
0
11
0.796955758473397
21
0.0697245941981235
31
0
210
0
220
0
230
1
40
0.992214
41
1.39626340159556
42
3.0726793749308
0
POINT
5
41
100
AcDbEntity
8
80
62
256
6
ByLayer
370
-1
48
1
60
0
100
AcDbPoint
10
0
20
0
30
0
39
0
210
0
220
0
230
1
50
360
0
POINT
5
43
100
AcDbEntity
8
81
62
256
6
ByLayer
370
-1
48
1
60
0
100
AcDbPoint
10
159.914
20
-26.9
30
0
39
0
210
0
220
0
230
1
50
360
0
POINT
5
45
100
AcDbEntity
8
1
62
256
6
ByLayer
370
-1
48
1
60
0
100
AcDbPoint
10
-141.336
20
0
30
0
39
0
210
0
220
0
230
1
50
360
0
POINT
5
47
100
AcDbEntity
8
2
62
256
6
ByLayer
370
-1
48
1
60
0
100
AcDbPoint
10
159.914
20
26.9
30
0
39
0
210
0
220
0
230
1
50
360
0
SPLINE
5
C7
100
AcDbEntity
8
1
62
256
6
ByLayer
370
-1
48
1
60
0
100
AcDbSpline
70
4
71
1
72
4
73
2
40
0
40
0
40
1
40
1
41
1
10
158.290402108096
20
-14.1845474277342
30
0
41
1
10
158.284170962597
20
-14.18284442532
30
0
0
SPLINE
5
C8
100
AcDbEntity
8
1
62
256
6
ByLayer
370
-1
48
1
60
0
100
AcDbSpline
70
4
71
3
72
10
73
6
40
0
40
0
40
0
40
0
40
0.5
40
0.5
40
1
40
1
40
1
40
1
41
1
10
104.481125331123
20
-7.57100492421614
30
0
41
1
10
104.554178927217
20
-10.009888052592
30
0
41
1
10
105.288634283509
20
-12.2093094664489
30
0
41
1
10
107.899390521001
20
-15.5529164852174
30
0
41
1
10
109.712477107051
20
-16.7014049306364
30
0
41
1
10
111.739017654421
20
-17.5107500000006
30
0
0
SPLINE
5
C9
100
AcDbEntity
8
1
62
256
6
ByLayer
370
-1
48
1
60
0
100
AcDbSpline
70
4
71
3
72
8
73
4
40
0
40
0
40
0
40
0
40
1
40
1
40
1
40
1
41
1
10
147.06593738806
20
-24.939399509951
30
0
41
1
10
145.331701957253
20
-24.7861933888357
30
0
41
1
10
143.597473966887
20
-24.6329055434003
30
0
41
1
10
141.86325387
20
-24.4795311390923
30
0
0
SPLINE
5
CA
100
AcDbEntity
8
1
62
256
6
ByLayer
370
-1
48
1
60
0
100
AcDbSpline
70
4
71
3
72
8
73
4
40
0
40
0
40
0
40
0
40
1
40
1
40
1
40
1
41
1
10
135.863253870791
20
18.4602525126301
30
0
41
1
10
135.888252819929
20
18.4380747472119
30
0
41
1
10
135.913252830653
20
18.4158853737978
30
0
41
1
10
135.938253870791
20
18.3936844525217
30
0
0
SPLINE
5
CB
100
AcDbEntity
8
1
62
256
6
ByLayer
370
-1
48
1
60
0
100
AcDbSpline
70
4
71
3
72
8
73
4
40
0
40
0
40
0
40
0
40
1
40
1
40
1
40
1
41
1
10
138.813146587615
20
-19.904124270701
30
0
41
1
10
138.202260802148
20
-19.9028382623735
30
0
41
1
10
137.591903997038
20
-19.9011475840762
30
0
41
1
10
136.982487016557
20
-19.898848326558
30
0
0
SPLINE
5
CC
100
AcDbEntity
8
1
62
256
6
ByLayer
370
-1
48
1
60
0
100
AcDbSpline
70
4
71
3
72
8
73
4
40
0
40
0
40
0
40
0
40
1
40
1
40
1
40
1
41
1
10
138.813146587615
20
-19.9041242707011
30
0
41
1
10
139.621492761714
20
-21.1217886328826
30
0
41
1
10
140.435310762371
20
-22.3418224098946
30
0
41
1
10
141.251550657074
20
-23.5639558936739
30
0
0
SPLINE
5
CD
100
AcDbEntity
8
1
62
256
6
ByLayer
370
-1
48
1
60
0
100
AcDbSpline
70
4
71
3
72
10
73
6
40
0
40
0
40
0
40
0
40
0.5
40
0.5
40
1
40
1
40
1
40
1
41
1
10
135.863253870791
20
18.4602525126312
30
0
41
1
10
131.002114658518
20
17.9148071493711
30
0
41
1
10
126.417154712087
20
17.0367016078504
30
0
41
1
10
117.821503056109
20
13.7221248472294
30
0
41
1
10
113.785503644152
20
11.1979076065434
30
0
41
1
10
110.59295158061
20
7.57100492421557
30
0
0
SPLINE
5
CE
100
AcDbEntity
8
1
62
256
6
ByLayer
370
-1
48
1
60
0
100
AcDbSpline
70
4
71
3
72
8
73
4
40
0
40
0
40
0
40
0
40
1
40
1
40
1
40
1
41
1
10
145.185780049072
20
-14.5827554629062
30
0
41
1
10
145.244674773562
20
-14.600090114732
30
0
41
1
10
145.31593507652
20
-14.6048540997835
30
0
41
1
10
145.396585526659
20
-14.5974781703286
30
0
0
SPLINE
5
CF
100
AcDbEntity
8
1
62
256
6
ByLayer
370
-1
48
1
60
0
100
AcDbSpline
70
4
71
3
72
8
73
4
40
0
40
0
40
0
40
0
40
1
40
1
40
1
40
1
41
1
10
141.251550657074
20
-23.5639558936739
30
0
41
1
10
141.455403624757
20
-23.8691793202555
30
0
41
1
10
141.659306507328
20
-24.174369885848
30
0
41
1
10
141.86325387
20
-24.4795311390922
30
0
0
SPLINE
5
D0
100
AcDbEntity
8
1
62
256
6
ByLayer
370
-1
48
1
60
0
100
AcDbSpline
70
4
71
3
72
34
73
30
40
-0.125000000000011
40
-0.125000000000011
40
0
40
0
40
0.124999999999993
40
0.124999999999993
40
0.187499999999989
40
0.187499999999989
40
0.218749999999987
40
0.218749999999987
40
0.249999999999985
40
0.249999999999985
40
0.312499999999983
40
0.312499999999983
40
0.374999999999981
40
0.374999999999981
40
0.499999999999977
40
0.499999999999977
40
0.624999999999973
40
0.624999999999973
40
0.687499999999971
40
0.687499999999971
40
0.703124999999973
40
0.703124999999973
40
0.718749999999974
40
0.718749999999974
40
0.749999999999979
40
0.749999999999979
40
0.874999999999989
40
0.874999999999989
40
1
40
1
40
1.12499999999999
40
1.12499999999999
41
1
10
131.320039585175
20
-10.9538970438005
30
0
41
1
10
128.478564252271
20
-9.60368386647053
30
0
41
1
10
127.042921187923
20
-9.03453987907571
30
0
41
1
10
124.730228551121
20
-8.72846000618867
30
0
41
1
10
123.906365807047
20
-8.68847304522927
30
0
41
1
10
122.831443091881
20
-9.25125690047585
30
0
41
1
10
122.529977786334
20
-9.60913701393713
30
0
41
1
10
122.421683717608
20
-10.422805364244
30
0
41
1
10
122.560074322197
20
-10.8172371508143
30
0
41
1
10
123.113138877569
20
-11.8325064830216
30
0
41
1
10
123.680591894001
20
-12.3603589522132
30
0
41
1
10
124.891962574895
20
-13.2971419994665
30
0
41
1
10
125.544976369609
20
-13.6927064655618
30
0
41
1
10
127.575570780505
20
-14.7624612416437
30
0
41
1
10
129.040928909791
20
-15.3258949520753
30
0
41
1
10
132.061449175634
20
-16.2802633604529
30
0
41
1
10
133.608016528438
20
-16.675943959924
30
0
41
1
10
135.998002548622
20
-17.0881070139902
30
0
41
1
10
136.814730341093
20
-17.2264895518385
30
0
41
1
10
137.841908795118
20
-17.1574817691897
30
0
41
1
10
138.051144995167
20
-17.1339241180306
30
0
41
1
10
138.423309772418
20
-16.9502874856141
30
0
41
1
10
138.512112562538
20
-16.7245070865436
30
0
41
1
10
138.334973806816
20
-16.1388022855552
30
0
41
1
10
138.033457908666
20
-15.8421470354158
30
0
41
1
10
136.628235988051
20
-14.3996926831314
30
0
41
1
10
135.308357659773
20
-13.4852713449114
30
0
41
1
10
132.661572851119
20
-11.736016914858
30
0
41
1
10
131.320039585175
20
-10.9538970438005
30
0
41
1
10
128.478564252271
20
-9.60368386647053
30
0
0
SPLINE
5
D1
100
AcDbEntity
8
1
62
256
6
ByLayer
370
-1
48
1
60
0
100
AcDbSpline
70
4
71
3
72
8
73
4
40
0
40
0
40
0
40
0
40
1
40
1
40
1
40
1
41
1
10
135.938253870791
20
18.3936844525215
30
0
41
1
10
136.688352700818
20
18.4772917388202
30
0
41
1
10
137.442723095598
20
18.5521670827467
30
0
41
1
10
138.200515607682
20
18.619456158021
30
0
0
SPLINE
5
D2
100
AcDbEntity
8
SK1
62
256
6
ByLayer
370
-1
48
1
60
0
100
AcDbSpline
70
4
71
3
72
8
73
4
40
0
40
0
40
0
40
0
40
1
40
1
40
1
40
1
41
1
10
-141.314472909231
20
-17.5107500000001
30
0
41
1
10
-141.320375309052
20
-17.5107500000001
30
0
41
1
10
-140.302889179465
20
-17.51075
30
0
41
1
10
-138.836
20
-17.51075
30
0
0
SPLINE
5
D3
100
AcDbEntity
8
SK1
62
256
6
ByLayer
370
-1
48
1
60
0
100
AcDbSpline
70
4
71
3
72
10
73
6
40
0
40
0
40
0
40
0
40
0.5
40
0.5
40
1
40
1
40
1
40
1
41
1
10
-138.836
20
-7.57100492421586
30
0
41
1
10
-139.751720015059
20
-5.15328673564841
30
0
41
1
10
-140.323815900012
20
-2.61766499305557
30
0
41
1
10
-140.326678525705
20
2.597354971751
30
0
41
1
10
-139.748549752422
20
5.16165698148063
30
0
41
1
10
-138.836
20
7.57100492421586
30
0
0
SPLINE
5
D4
100
AcDbEntity
8
1
62
256
6
ByLayer
370
-1
48
1
60
0
100
AcDbSpline
70
4
71
3
72
54
73
50
40
0
40
0
40
0
40
0
40
0.0232750133645051
40
0.0232750133645051
40
0.184402050266023
40
0.184402050266023
40
0.358862713593029
40
0.358862713593029
40
0.533256261745027
40
0.533256261745027
40
0.70765027797821
40
0.70765027797821
40
0.804264522333668
40
0.804264522333668
40
0.868910973707238
40
0.868910973707238
40
0.912170524974364
40
0.912170524974364
40
0.94112194459752
40
0.94112194459752
40
0.960501031158815
40
0.960501031158815
40
0.973476105082714
40
0.973476105082714
40
0.982166823810046
40
0.982166823810046
40
0.987991277832751
40
0.987991277832751
40
0.991898204346097
40
0.991898204346097
40
0.994522344114269
40
0.994522344114269
40
0.996288381334452
40
0.996288381334452
40
0.997480487331888
40
0.997480487331888
40
0.998288856590671
40
0.998288856590671
40
0.99884085755766
40
0.99884085755766
40
0.999221903604813
40
0.999221903604813
40
0.999620407197777
40
0.999620407197777
40
0.999780091330141
40
0.999780091330141
40
0.999914899802769
40
0.999914899802769
40
1
40
1
40
1
40
1
41
1
10
146.75356566236
20
-13.1830096096072
30
0
41
1
10
146.754824558431
20
-13.1831486883007
30
0
41
1
10
146.756086126831
20
-13.1832879971796
30
0
41
1
10
146.766103147126
20
-13.1843935953953
30
0
41
1
10
146.774987083071
20
-13.1853709519389
30
0
41
1
10
146.793848948224
20
-13.1874374511736
30
0
41
1
10
146.803854440146
20
-13.1885289681384
30
0
41
1
10
146.8244371023
20
-13.1907611544683
30
0
41
1
10
146.835008420124
20
-13.1919013200943
30
0
41
1
10
146.857066844124
20
-13.1942605299985
30
0
41
1
10
146.868528301017
20
-13.1954773662509
30
0
41
1
10
146.887733354636
20
-13.1974883874877
30
0
41
1
10
146.894854563035
20
-13.1982289683171
30
0
41
1
10
146.907592622906
20
-13.1995384557041
30
0
41
1
10
146.912923755248
20
-13.2000827558941
30
0
41
1
10
146.922519302102
20
-13.2010513082132
30
0
41
1
10
146.926550009587
20
-13.2014554346548
30
0
41
1
10
146.933848565545
20
-13.202179131959
30
0
41
1
10
146.936925239948
20
-13.2024822412184
30
0
41
1
10
146.942528095945
20
-13.203028431364
30
0
41
1
10
146.944897881144
20
-13.2032580466416
30
0
41
1
10
146.949236491468
20
-13.2036743002316
30
0
41
1
10
146.951077352262
20
-13.2038499222804
30
0
41
1
10
146.954464288673
20
-13.2041701255677
30
0
41
1
10
146.955905639086
20
-13.2043056925399
30
0
41
1
10
146.958569650132
20
-13.20455420725
30
0
41
1
10
146.959706574316
20
-13.2046597765733
30
0
41
1
10
146.961816837696
20
-13.2048542915544
30
0
41
1
10
146.962719949754
20
-13.2049371949215
30
0
41
1
10
146.964402954347
20
-13.2050906905151
30
0
41
1
10
146.965125280699
20
-13.2051563312217
30
0
41
1
10
146.966476665014
20
-13.2052784403181
30
0
41
1
10
146.967058487319
20
-13.2053308472346
30
0
41
1
10
146.968151414692
20
-13.2054288050214
30
0
41
1
10
146.968623712185
20
-13.2054710206287
30
0
41
1
10
146.969514861074
20
-13.2055503333042
30
0
41
1
10
146.969901790681
20
-13.2055846885349
30
0
41
1
10
146.970635700777
20
-13.2056496097838
30
0
41
1
10
146.970956420426
20
-13.205677921993
30
0
41
1
10
146.971568706381
20
-13.2057317980106
30
0
41
1
10
146.971838759939
20
-13.2057555175708
30
0
41
1
10
146.972462362114
20
-13.2058101347624
30
0
41
1
10
146.972819158823
20
-13.2058413198641
30
0
41
1
10
146.97343998896
20
-13.2058953372051
30
0
41
1
10
146.973634838723
20
-13.2059122662635
30
0
41
1
10
146.974029774477
20
-13.2059465051469
30
0
41
1
10
146.974228447216
20
-13.2059637019545
30
0
41
1
10
146.974568421289
20
-13.2059930667827
30
0
41
1
10
146.974706142128
20
-13.2060049472243
30
0
41
1
10
146.974842362856
20
-13.2060166822018
30
0
0
SPLINE
5
D5
100
AcDbEntity
8
1
62
256
6
ByLayer
370
-1
48
1
60
0
100
AcDbSpline
70
4
71
3
72
22
73
18
40
0
40
0
40
0
40
0
40
0.0003170856851739
40
0.0003170856851739
40
0.0007363144001462
40
0.0007363144001462
40
0.0015136259425449
40
0.0015136259425449
40
0.0048654600475224
40
0.0048654600475224
40
0.0181029995173187
40
0.0181029995173187
40
0.0708112620773154
40
0.0708112620773154
40
0.281410677440974
40
0.281410677440974
40
1
40
1
40
1
40
1
41
1
10
158.213996397426
20
-14.174233802263
30
0
41
1
10
158.214174780659
20
-14.1742491694072
30
0
41
1
10
158.214354484305
20
-14.1742646217859
30
0
41
1
10
158.214741047652
20
-14.1742978072628
30
0
41
1
10
158.214945039941
20
-14.174315277138
30
0
41
1
10
158.215465658718
20
-14.1743597860555
30
0
41
1
10
158.215746710924
20
-14.1743837179648
30
0
41
1
10
158.21704841457
20
-14.1744943209716
30
0
41
1
10
158.2176543783
20
-14.1745450389465
30
0
41
1
10
158.220396124469
20
-14.174774042503
30
0
41
1
10
158.221425380545
20
-14.1748566824482
30
0
41
1
10
158.226482152178
20
-14.1752625433436
30
0
41
1
10
158.228174529566
20
-14.1753842607707
30
0
41
1
10
158.236636629355
20
-14.175993236214
30
0
41
1
10
158.238745880744
20
-14.1760786761084
30
0
41
1
10
158.248074915728
20
-14.1764578355076
30
0
41
1
10
158.248540789671
20
-14.176169473272
30
0
41
1
10
158.248019471359
20
-14.1757960693777
30
0
0
SPLINE
5
D6
100
AcDbEntity
8
1
62
256
6
ByLayer
370
-1
48
1
60
0
100
AcDbSpline
70
4
71
3
72
20
73
16
40
0
40
0
40
0
40
0
40
0.0806624971536606
40
0.0806624971536606
40
0.281835264769296
40
0.281835264769296
40
0.444321515070882
40
0.444321515070882
40
0.607665212766358
40
0.607665212766358
40
0.759985524908238
40
0.759985524908238
40
0.975669862008739
40
0.975669862008739
40
1
40
1
40
1
40
1
41
1
10
151.777630894861
20
-19.1874389862864
30
0
41
1
10
151.790923751842
20
-19.2089760380564
30
0
41
1
10
151.802950844754
20
-19.2315602946032
30
0
41
1
10
151.839856733232
20
-19.3134484757171
30
0
41
1
10
151.857678746226
20
-19.3787571957053
30
0
41
1
10
151.869287968782
20
-19.5034745997145
30
0
41
1
10
151.867004127049
20
-19.5630262513129
30
0
41
1
10
151.846017896999
20
-19.6813033608651
30
0
41
1
10
151.826873786278
20
-19.7415704668821
30
0
41
1
10
151.776919537499
20
-19.8493993329423
30
0
41
1
10
151.746495503307
20
-19.8988360057112
30
0
41
1
10
151.66402765977
20
-20.0052508835512
30
0
41
1
10
151.606946164656
20
-20.0588729638547
30
0
41
1
10
151.539063488316
20
-20.1064462897789
30
0
41
1
10
151.532044102207
20
-20.1111913706207
30
0
41
1
10
151.524968254379
20
-20.1158040866511
30
0
0
SPLINE
5
D7
100
AcDbEntity
8
1
62
256
6
ByLayer
370
-1
48
1
60
0
100
AcDbSpline
70
4
71
3
72
12
73
8
40
0
40
0
40
0
40
0
40
0.320411720799068
40
0.320411720799068
40
0.788685385883918
40
0.788685385883918
40
1
40
1
40
1
40
1
41
1
10
153.80032241135
20
-19.0902684651158
30
0
41
1
10
153.768449927277
20
-19.0504456099486
30
0
41
1
10
153.741477352854
20
-19.0077234208967
30
0
41
1
10
153.689565362915
20
-18.9017318896139
30
0
41
1
10
153.670272499845
20
-18.8363221020455
30
0
41
1
10
153.658013802713
20
-18.7439308626257
30
0
41
1
10
153.656342273087
20
-18.7152429658537
30
0
41
1
10
153.656714532892
20
-18.6869306919376
30
0
0
SPLINE
5
D8
100
AcDbEntity
8
1
62
256
6
ByLayer
370
-1
48
1
60
0
100
AcDbSpline
70
4
71
3
72
16
73
12
40
0
40
0
40
0
40
0
40
0.0578393202976352
40
0.0578393202976352
40
0.278670644867042
40
0.278670644867042
40
0.502013998126767
40
0.502013998126767
40
0.739467690488466
40
0.739467690488466
40
1
40
1
40
1
40
1
41
1
10
152.579994289501
20
-21.6357266776444
30
0
41
1
10
152.572441128782
20
-21.6337454864032
30
0
41
1
10
152.564959661911
20
-21.6314420041111
30
0
41
1
10
152.529671345538
20
-21.6189306924297
30
0
41
1
10
152.502994154529
20
-21.6043104635512
30
0
41
1
10
152.455954073432
20
-21.568119515238
30
0
41
1
10
152.435053388119
20
-21.5460301577617
30
0
41
1
10
152.40020079242
20
-21.4963221262615
30
0
41
1
10
152.386309078661
20
-21.4678391717254
30
0
41
1
10
152.366764208256
20
-21.4066922619063
30
0
41
1
10
152.361763141809
20
-21.3731343788357
30
0
41
1
10
152.36179046716
20
-21.3403629197786
30
0
0
SPLINE
5
D9
100
AcDbEntity
8
1
62
256
6
ByLayer
370
-1
48
1
60
0
100
AcDbSpline
70
4
71
3
72
18
73
14
40
0
40
0
40
0
40
0
40
0.201561115510523
40
0.201561115510523
40
0.377635874451238
40
0.377635874451238
40
0.555519903200802
40
0.555519903200802
40
0.708907771576665
40
0.708907771576665
40
0.909861690873009
40
0.909861690873009
40
1
40
1
40
1
40
1
41
1
10
154.240911862239
20
-20.8402861904766
30
0
41
1
10
154.207077843774
20
-20.7780336521255
30
0
41
1
10
154.180940620078
20
-20.7092534884235
30
0
41
1
10
154.151721351474
20
-20.574357687523
30
0
41
1
10
154.145972647334
20
-20.5074353365932
30
0
41
1
10
154.153834077271
20
-20.3748180787657
30
0
41
1
10
154.167972126535
20
-20.3071907353427
30
0
41
1
10
154.211191542345
20
-20.1928079635455
30
0
41
1
10
154.238385711921
20
-20.1430467421343
30
0
41
1
10
154.31164518327
20
-20.0427344426801
30
0
41
1
10
154.362002836321
20
-19.9948191138274
30
0
41
1
10
154.44126052487
20
-19.9401877960941
30
0
41
1
10
154.467045833312
20
-19.9250766712718
30
0
41
1
10
154.493574502722
20
-19.9119210901144
30
0
0
SPLINE
5
DA
100
AcDbEntity
8
1
62
256
6
ByLayer
370
-1
48
1
60
0
100
AcDbSpline
70
4
71
3
72
14
73
10
40
0
40
0
40
0
40
0
40
0.240613777612015
40
0.240613777612015
40
0.532370687579231
40
0.532370687579231
40
0.796023196836868
40
0.796023196836868
40
1
40
1
40
1
40
1
41
1
10
151.77763089486
20
-19.1874389862865
30
0
41
1
10
151.76366528656
20
-19.164811944606
30
0
41
1
10
151.753012029972
20
-19.1394231511574
30
0
41
1
10
151.738999165678
20
-19.0801322488095
30
0
41
1
10
151.737533730524
20
-19.0445599066826
30
0
41
1
10
151.748550154461
20
-18.9776642172116
30
0
41
1
10
151.759934740492
20
-18.9452497055462
30
0
41
1
10
151.789935846255
20
-18.892739520264
30
0
41
1
10
151.806640585388
20
-18.8709495959595
30
0
41
1
10
151.825860957498
20
-18.8518765127994
30
0
0
SPLINE
5
DB
100
AcDbEntity
8
1
62
256
6
ByLayer
370
-1
48
1
60
0
100
AcDbSpline
70
4
71
3
72
18
73
14
40
0
40
0
40
0
40
0
40
0.210598664072325
40
0.210598664072325
40
0.38504082914153
40
0.38504082914153
40
0.561186387333731
40
0.561186387333731
40
0.71420238925285
40
0.71420238925285
40
0.916713818293777
40
0.916713818293777
40
1
40
1
40
1
40
1
41
1
10
153.111992886461
20
-18.5409410916642
30
0
41
1
10
153.076384069475
20
-18.5968890903769
30
0
41
1
10
153.030117581469
20
-18.6496564350018
30
0
41
1
10
152.928397150232
20
-18.7333254049487
30
0
41
1
10
152.874625639663
20
-18.7672776543629
30
0
41
1
10
152.757489420858
20
-18.8210703530658
30
0
41
1
10
152.692213453332
20
-18.8414363902019
30
0
41
1
10
152.570614340553
20
-18.8627650559372
30
0
41
1
10
152.512802947987
20
-18.8662443810042
30
0
41
1
10
152.385182048409
20
-18.8601315633469
30
0
41
1
10
152.315304481717
20
-18.8460425015838
30
0
41
1
10
152.225947489054
20
-18.8144531909937
30
0
41
1
10
152.20065362785
20
-18.8037168948767
30
0
41
1
10
152.176455061901
20
-18.7916710760216
30
0
0
SPLINE
5
DC
100
AcDbEntity
8
1
62
256
6
ByLayer
370
-1
48
1
60
0
100
AcDbSpline
70
4
71
3
72
14
73
10
40
0
40
0
40
0
40
0
40
0.279403770898669
40
0.279403770898669
40
0.564482496896199
40
0.564482496896199
40
0.822385632681456
40
0.822385632681456
40
1
40
1
40
1
40
1
41
1
10
151.672287422888
20
-20.6561508027115
30
0
41
1
10
151.639214393053
20
-20.6585178317294
30
0
41
1
10
151.605078494938
20
-20.6550142953338
30
0
41
1
10
151.539717156189
20
-20.6353503592551
30
0
41
1
10
151.507568802602
20
-20.6185653953237
30
0
41
1
10
151.454887477798
20
-20.5753054380189
30
0
41
1
10
151.432782379008
20
-20.5492036623396
30
0
41
1
10
151.404818060657
20
-20.4996262148252
30
0
41
1
10
151.395782554809
20
-20.4774550350628
30
0
41
1
10
151.389680335725
20
-20.4545466421731
30
0
0
SPLINE
5
DD
100
AcDbEntity
8
1
62
256
6
ByLayer
370
-1
48
1
60
0
100
AcDbSpline
70
4
71
3
72
16
73
12
40
0
40
0
40
0
40
0
40
0.0549362092333832
40
0.0549362092333832
40
0.277905515981157
40
0.277905515981157
40
0.503213235525951
40
0.503213235525951
40
0.742603879124291
40
0.742603879124291
40
1
40
1
40
1
40
1
41
1
10
151.389680335725
20
-20.4545466421731
30
0
41
1
10
151.387800993427
20
-20.4474913871687
30
0
41
1
10
151.386187917034
20
-20.4403425074357
30
0
41
1
10
151.379455523406
20
-20.4041135272347
30
0
41
1
10
151.378554335141
20
-20.3736746848584
30
0
41
1
10
151.385531765736
20
-20.3145648711339
30
0
41
1
10
151.393568389199
20
-20.2851607213242
30
0
41
1
10
151.417516011231
20
-20.2293872818467
30
0
41
1
10
151.434158852115
20
-20.2026119795701
30
0
41
1
10
151.474367697846
20
-20.1543725894508
30
0
41
1
10
151.49881962991
20
-20.1328502671493
30
0
41
1
10
151.524968254379
20
-20.1158040866511
30
0
0
SPLINE
5
DE
100
AcDbEntity
8
1
62
256
6
ByLayer
370
-1
48
1
60
0
100
AcDbSpline
70
4
71
3
72
12
73
8
40
0
40
0
40
0
40
0
40
0.493526690353387
40
0.493526690353387
40
0.898793583340919
40
0.898793583340919
40
1
40
1
40
1
40
1
41
1
10
154.346217577161
20
-19.3711428090049
30
0
41
1
10
154.274771821118
20
-19.3670097517667
30
0
41
1
10
154.200931037052
20
-19.3520195449212
30
0
41
1
10
154.070488163677
20
-19.3038705277136
30
0
41
1
10
154.011742565729
20
-19.2737678495649
30
0
41
1
10
153.944222965399
20
-19.2271026622359
30
0
41
1
10
153.930905645218
20
-19.2172497612815
30
0
41
1
10
153.917929194842
20
-19.2069727885894
30
0
0
SPLINE
5
DF
100
AcDbEntity
8
1
62
256
6
ByLayer
370
-1
48
1
60
0
100
AcDbSpline
70
4
71
3
72
12
73
8
40
0
40
0
40
0
40
0
40
0.458791363527531
40
0.458791363527531
40
0.870210079935656
40
0.870210079935656
40
1
40
1
40
1
40
1
41
1
10
151.672287422888
20
-20.6561508027112
30
0
41
1
10
151.737979663604
20
-20.651449224391
30
0
41
1
10
151.805694507979
20
-20.6565431124894
30
0
41
1
10
151.931268074679
20
-20.6875220470049
30
0
41
1
10
151.990835761509
20
-20.7117520932233
30
0
41
1
10
152.063407362349
20
-20.756180189257
30
0
41
1
10
152.080520887404
20
-20.7678632023888
30
0
41
1
10
152.097087652008
20
-20.7804510495812
30
0
0
SPLINE
5
E0
100
AcDbEntity
8
1
62
256
6
ByLayer
370
-1
48
1
60
0
100
AcDbSpline
70
4
71
3
72
18
73
14
40
0
40
0
40
0
40
0
40
0.201680670277924
40
0.201680670277924
40
0.3777337785007
40
0.3777337785007
40
0.555594767110565
40
0.555594767110565
40
0.708977479491413
40
0.708977479491413
40
0.909951832494143
40
0.909951832494143
40
1
40
1
40
1
40
1
41
1
10
152.90654987064
20
-21.486784085101
30
0
41
1
10
152.939888898135
20
-21.4245430444312
30
0
41
1
10
152.982998977102
20
-21.3657203573473
30
0
41
1
10
153.080170787891
20
-21.2700555184539
30
0
41
1
10
153.133382228986
20
-21.2304136666286
30
0
41
1
10
153.250219041284
20
-21.1691800470673
30
0
41
1
10
153.315808070837
20
-21.1470757331485
30
0
41
1
10
153.438276847762
20
-21.1271049416805
30
0
41
1
10
153.496561660557
20
-21.1259844864457
30
0
41
1
10
153.624877710426
20
-21.140270604478
30
0
41
1
10
153.695164727545
20
-21.1608752940929
30
0
41
1
10
153.787761451862
20
-21.2038081982676
30
0
41
1
10
153.815563322317
20
-21.2191096992047
30
0
41
1
10
153.8420876952
20
-21.2360541007434
30
0
0
SPLINE
5
E1
100
AcDbEntity
8
1
62
256
6
ByLayer
370
-1
48
1
60
0
100
AcDbSpline
70
4
71
3
72
14
73
10
40
0
40
0
40
0
40
0
40
0.230473089177285
40
0.230473089177285
40
0.521652927780724
40
0.521652927780724
40
0.784691428269089
40
0.784691428269089
40
1
40
1
40
1
40
1
41
1
10
154.346217577161
20
-19.3711428090043
30
0
41
1
10
154.373826663736
20
-19.372739963845
30
0
41
1
10
154.402078425326
20
-19.3781658874215
30
0
41
1
10
154.463862343874
20
-19.3992586175026
30
0
41
1
10
154.497838125968
20
-19.4176968955182
30
0
41
1
10
154.55429656305
20
-19.4635035148211
30
0
41
1
10
154.578395042327
20
-19.4905886786225
30
0
41
1
10
154.612038973701
20
-19.5452293926773
30
0
41
1
10
154.623835804321
20
-19.572462838659
30
0
41
1
10
154.631227572918
20
-19.6002123404154
30
0
0
SPLINE
5
E2
100
AcDbEntity
8
1
62
256
6
ByLayer
370
-1
48
1
60
0
100
AcDbSpline
70
4
71
3
72
14
73
10
40
0
40
0
40
0
40
0
40
0.231135245891493
40
0.231135245891493
40
0.530798120007404
40
0.530798120007404
40
0.794936088055204
40
0.794936088055204
40
1
40
1
40
1
40
1
41
1
10
154.240911862243
20
-20.8402861904752
30
0
41
1
10
154.254612671815
20
-20.8654948476786
30
0
41
1
10
154.265252727731
20
-20.8930863641178
30
0
41
1
10
154.280585557702
20
-20.9588597996877
30
0
41
1
10
154.282707669052
20
-20.9989381813669
30
0
41
1
10
154.272161733442
20
-21.0720579013631
30
0
41
1
10
154.260987794638
20
-21.106473918489
30
0
41
1
10
154.231136684571
20
-21.161284227628
30
0
41
1
10
154.214385345758
20
-21.1836922685512
30
0
41
1
10
154.195046951145
20
-21.2028824697891
30
0
0
SPLINE
5
E3
100
AcDbEntity
8
1
62
256
6
ByLayer
370
-1
48
1
60
0
100
AcDbSpline
70
4
71
3
72
18
73
14
40
0
40
0
40
0
40
0
40
0.031016161242476
40
0.031016161242476
40
0.25457087707382
40
0.25457087707382
40
0.479079761069888
40
0.479079761069888
40
0.716549985038731
40
0.716549985038731
40
0.976491391062978
40
0.976491391062978
40
1
40
1
40
1
40
1
41
1
10
154.195046951145
20
-21.2028824697891
30
0
41
1
10
154.192100954886
20
-21.205805890382
30
0
41
1
10
154.189090703247
20
-21.208662374103
30
0
41
1
10
154.164123933883
20
-21.2313140050608
30
0
41
1
10
154.138788057023
20
-21.2477185265479
30
0
41
1
10
154.085429627151
20
-21.2712729201117
30
0
41
1
10
154.056723638047
20
-21.2787045225564
30
0
41
1
10
153.998179297547
20
-21.2845964403579
30
0
41
1
10
153.967641642125
20
-21.2826193710151
30
0
41
1
10
153.907156692893
20
-21.2693178423784
30
0
41
1
10
153.87677327763
20
-21.2569951391669
30
0
41
1
10
153.847005093694
20
-21.2391467196881
30
0
41
1
10
153.844534608298
20
-21.2376172471468
30
0
41
1
10
153.8420876952
20
-21.2360541007434
30
0
0
SPLINE
5
E4
100
AcDbEntity
8
1
62
256
6
ByLayer
370
-1
48
1
60
0
100
AcDbSpline
70
4
71
3
72
12
73
8
40
0
40
0
40
0
40
0
40
0.300642231368668
40
0.300642231368668
40
0.763722395763007
40
0.763722395763007
40
1
40
1
40
1
40
1
41
1
10
152.214694435499
20
-20.8971553730549
30
0
41
1
10
152.244674717024
20
-20.9357895000408
30
0
41
1
10
152.270456424318
20
-20.9781111840519
30
0
41
1
10
152.323040583385
20
-21.088684487258
30
0
41
1
10
152.34384870396
20
-21.1603410456719
30
0
41
1
10
152.35928220696
20
-21.267534342014
30
0
41
1
10
152.361820684652
20
-21.3041228974248
30
0
41
1
10
152.36179046716
20
-21.3403629197787
30
0
0
SPLINE
5
E5
100
AcDbEntity
8
1
62
256
6
ByLayer
370
-1
48
1
60
0
100
AcDbSpline
70
4
71
3
72
16
73
12
40
0
40
0
40
0
40
0
40
0.160006035090374
40
0.160006035090374
40
0.461565591835479
40
0.461565591835479
40
0.734052348055064
40
0.734052348055064
40
0.97581392683966
40
0.97581392683966
40
1
40
1
40
1
40
1
41
1
10
153.111992886457
20
-18.5409410916625
30
0
41
1
10
153.121578981697
20
-18.5258795734912
30
0
41
1
10
153.132897215862
20
-18.5114788097004
30
0
41
1
10
153.169871428328
20
-18.4732172477147
30
0
41
1
10
153.200206799651
20
-18.4515402681869
30
0
41
1
10
153.265066974521
20
-18.4221325366545
30
0
41
1
10
153.299944081257
20
-18.4128665001823
30
0
41
1
10
153.367033702099
20
-18.4072539801298
30
0
41
1
10
153.400075435656
20
-18.4095231866319
30
0
41
1
10
153.434594303842
20
-18.417427726102
30
0
41
1
10
153.43776139358
20
-18.418205477354
30
0
41
1
10
153.440913619142
20
-18.4190323049441
30
0
0
SPLINE
5
E6
100
AcDbEntity
8
1
62
256
6
ByLayer
370
-1
48
1
60
0
100
AcDbSpline
70
4
71
3
72
18
73
14
40
0
40
0
40
0
40
0
40
0.0198987056840249
40
0.0198987056840249
40
0.243764811707818
40
0.243764811707818
40
0.467933342331841
40
0.467933342331841
40
0.704532644840942
40
0.704532644840942
40
0.963204488955966
40
0.963204488955966
40
1
40
1
40
1
40
1
41
1
10
154.631227572918
20
-19.6002123404154
30
0
41
1
10
154.63191086705
20
-19.6027775007637
30
0
41
1
10
154.632558508472
20
-19.6053501506495
30
0
41
1
10
154.63997016474
20
-19.6365984670102
30
0
41
1
10
154.642262177527
20
-19.6664144610294
30
0
41
1
10
154.637765950002
20
-19.7234875288666
30
0
41
1
10
154.630929348983
20
-19.7514737255641
30
0
41
1
10
154.60920620914
20
-19.8037286899914
30
0
41
1
10
154.593650572591
20
-19.828372670125
30
0
41
1
10
154.555025347646
20
-19.8723194402436
30
0
41
1
10
154.530933169533
20
-19.891483775187
30
0
41
1
10
154.501181338748
20
-19.908036525528
30
0
41
1
10
154.497398229198
20
-19.9100249021378
30
0
41
1
10
154.493574502722
20
-19.9119210901145
30
0
0
SPLINE
5
E7
100
AcDbEntity
8
1
62
256
6
ByLayer
370
-1
48
1
60
0
100
AcDbSpline
70
4
71
3
72
16
73
12
40
0
40
0
40
0
40
0
40
0.0321274410032063
40
0.0321274410032063
40
0.255500433608619
40
0.255500433608619
40
0.479893456802139
40
0.479893456802139
40
0.71729274134864
40
0.71729274134864
40
1
40
1
40
1
40
1
41
1
10
151.825860957498
20
-18.8518765127994
30
0
41
1
10
151.828914177062
20
-18.8488466905714
30
0
41
1
10
151.832035459195
20
-18.8458774131666
30
0
41
1
10
151.857131224919
20
-18.8229907592263
30
0
41
1
10
151.882425962018
20
-18.8059222225424
30
0
41
1
10
151.935607200123
20
-18.7800531591412
30
0
41
1
10
151.964175207313
20
-18.7709410743611
30
0
41
1
10
152.022358114869
20
-18.7607967310065
30
0
41
1
10
152.052662957394
20
-18.760106507143
30
0
41
1
10
152.115259310822
20
-18.7675227657184
30
0
41
1
10
152.147766575962
20
-18.7773902171651
30
0
41
1
10
152.176455061901
20
-18.7916710760216
30
0
0
SPLINE
5
E8
100
AcDbEntity
8
1
62
256
6
ByLayer
370
-1
48
1
60
0
100
AcDbSpline
70
4
71
3
72
14
73
10
40
0
40
0
40
0
40
0
40
0.277488032740203
40
0.277488032740203
40
0.564624494875488
40
0.564624494875488
40
0.824445430790612
40
0.824445430790612
40
1
40
1
40
1
40
1
41
1
10
152.90654987064
20
-21.4867840851012
30
0
41
1
10
152.890333609376
20
-21.5170584227985
30
0
41
1
10
152.86872210721
20
-21.5452918675476
30
0
41
1
10
152.816203173149
20
-21.5932995312522
30
0
41
1
10
152.784132769932
20
-21.6134426887682
30
0
41
1
10
152.718087572306
20
-21.6384564750521
30
0
41
1
10
152.683565474642
20
-21.6449166219946
30
0
41
1
10
152.626125194719
20
-21.6447152138304
30
0
41
1
10
152.60260275374
20
-21.6416568693872
30
0
41
1
10
152.579994289501
20
-21.6357266776444
30
0
0
SPLINE
5
E9
100
AcDbEntity
8
1
62
256
6
ByLayer
370
-1
48
1
60
0
100
AcDbSpline
70
4
71
3
72
16
73
12
40
0
40
0
40
0
40
0
40
0.199266651059992
40
0.199266651059992
40
0.42026426904421
40
0.42026426904421
40
0.651440113500716
40
0.651440113500716
40
0.902843738045343
40
0.902843738045343
40
1
40
1
40
1
40
1
41
1
10
153.440913619142
20
-18.4190323049441
30
0
41
1
10
153.466737339705
20
-18.4258058572219
30
0
41
1
10
153.491857071684
20
-18.4360443508681
30
0
41
1
10
153.539890882531
20
-18.4633399936947
30
0
41
1
10
153.562871954273
20
-18.4813757134779
30
0
41
1
10
153.602101367049
20
-18.5225281473688
30
0
41
1
10
153.618505909113
20
-18.5463392017841
30
0
41
1
10
153.643551430395
20
-18.5978177885921
30
0
41
1
10
153.651732978485
20
-18.6262714369993
30
0
41
1
10
153.656298046449
20
-18.6651971363618
30
0
41
1
10
153.6568567499
20
-18.6761143566438
30
0
41
1
10
153.656714532892
20
-18.6869306919376
30
0
0
LINE
5
49
100
AcDbEntity
8
80
62
256
6
ByLayer
370
-1
48
1
60
0
100
AcDbLine
10
0
20
0
30
0
11
-10
21
0
31
0
39
0
210
0
220
0
230
1
0
LINE
5
4A
100
AcDbEntity
8
81
62
256
6
ByLayer
370
-1
48
1
60
0
100
AcDbLine
10
159.914
20
-26.9
30
0
11
169.914
21
-26.9
31
0
39
0
210
0
220
0
230
1
0
LINE
5
4B
100
AcDbEntity
8
SK4
62
256
6
ByLayer
370
-1
48
0.05
60
0
100
AcDbLine
10
-146.336
20
0
30
0
11
163.524216
21
0
31
0
39
0
210
0
220
0
230
1
0
LINE
5
4D
100
AcDbEntity
8
4
62
256
6
ByLayer
370
-1
48
0.05
60
0
100
AcDbLine
10
0
20
0
30
0
11
163.524216
21
0
31
0
39
0
210
0
220
0
230
1
0
LINE
5
4F
100
AcDbEntity
8
1
62
256
6
ByLayer
370
-1
48
1
60
0
100
AcDbLine
10
135.863254
20
19.98925
30
0
11
0
21
19.98925
31
0
39
0
210
0
220
0
230
1
0
LINE
5
50
100
AcDbEntity
8
1
62
256
6
ByLayer
370
-1
48
1
60
0
100
AcDbLine
10
135.938254
20
19.91425
30
0
11
135.863254
21
19.98925
31
0
39
0
210
0
220
0
230
1
0
LINE
5
51
100
AcDbEntity
8
1
62
256
6
ByLayer
370
-1
48
1
60
0
100
AcDbLine
10
136.936473
20
19.91425
30
0
11
135.938254
21
19.91425
31
0
39
0
210
0
220
0
230
1
0
LINE
5
52
100
AcDbEntity
8
1
62
256
6
ByLayer
370
-1
48
1
60
0
100
AcDbLine
10
136.997889
20
-19.91425
30
0
11
138.813147
21
-19.91425
31
0
39
0
210
0
220
0
230
1
0
LINE
5
53
100
AcDbEntity
8
1
62
256
6
ByLayer
370
-1
48
1
60
0
100
AcDbLine
10
138.813147
20
-19.91425
30
0
11
141.539413
21
-23.994894
31
0
39
0
210
0
220
0
230
1
0
LINE
5
54
100
AcDbEntity
8
SK1
62
256
6
ByLayer
370
-1
48
1
60
0
100
AcDbLine
10
0
20
19.98925
30
0
11
-138.836
21
19.98925
31
0
39
0
210
0
220
0
230
1
0
LINE
5
56
100
AcDbEntity
8
SK1
62
256
6
ByLayer
370
-1
48
1
60
0
100
AcDbLine
10
-138.836
20
19.98925
30
0
11
-141.336
21
17.48925
31
0
39
0
210
0
220
0
230
1
0
LINE
5
57
100
AcDbEntity
8
SK1
62
256
6
ByLayer
370
-1
48
1
60
0
100
AcDbLine
10
-141.336
20
-17.48925
30
0
11
-141.3145
21
-17.51075
31
0
39
0
210
0
220
0
230
1
0
LINE
5
58
100
AcDbEntity
8
1
62
256
6
ByLayer
370
-1
48
1
60
0
100
AcDbLine
10
153.649121
20
-18.634246
30
0
11
153.658924
21
-18.746296
31
0
39
0
210
0
220
0
230
1
0
LINE
5
59
100
AcDbEntity
8
1
62
256
6
ByLayer
370
-1
48
1
60
0
100
AcDbLine
10
151.864413
20
-19.451209
30
0
11
151.844702
21
-19.225917
31
0
39
0
210
0
220
0
230
1
0
LINE
5
5A
100
AcDbEntity
8
1
62
256
6
ByLayer
370
-1
48
1
60
0
100
AcDbLine
10
149.581119
20
-20.127372
30
0
11
149.594126
21
-20.276041
31
0
39
0
210
0
220
0
230
1
0
LINE
5
5B
100
AcDbEntity
8
1
62
256
6
ByLayer
370
-1
48
1
60
0
100
AcDbLine
10
156.41806
20
-19.679024
30
0
11
156.405053
21
-19.530356
31
0
39
0
210
0
220
0
230
1
0
LINE
5
5C
100
AcDbEntity
8
1
62
256
6
ByLayer
370
-1
48
1
60
0
100
AcDbLine
10
154.1317
20
-20.320146
30
0
11
154.15146
21
-20.545996
31
0
39
0
210
0
220
0
230
1
0
LINE
5
5D
100
AcDbEntity
8
1
62
256
6
ByLayer
370
-1
48
1
60
0
100
AcDbLine
10
152.358892
20
-21.273122
30
0
11
152.338184
21
-21.036431
31
0
39
0
210
0
220
0
230
1
0
LINE
5
5E
100
AcDbEntity
8
1
62
256
6
ByLayer
370
-1
48
1
60
0
100
AcDbLine
10
0
20
-7.571005
30
0
11
0
21
-17.51075
31
0
39
0
210
0
220
0
230
1
0
LINE
5
5F
100
AcDbEntity
8
1
62
256
6
ByLayer
370
-1
48
1
60
0
100
AcDbLine
10
0
20
-17.51075
30
0
11
111.739018
21
-17.51075
31
0
39
0
210
0
220
0
230
1
0
LINE
5
60
100
AcDbEntity
8
1
62
256
6
ByLayer
370
-1
48
1
60
0
100
AcDbLine
10
134.594389
20
-17.51075
30
0
11
136.982487
21
-19.898848
31
0
39
0
210
0
220
0
230
1
0
LINE
5
61
100
AcDbEntity
8
1
62
256
6
ByLayer
370
-1
48
1
60
0
100
AcDbLine
10
136.936473
20
19.91425
30
0
11
138.200516
21
18.619456
31
0
39
0
210
0
220
0
230
1
0
LINE
5
62
100
AcDbEntity
8
1
62
256
6
ByLayer
370
-1
48
1
60
0
100
AcDbLine
10
145.14812
20
-15.138399
30
0
11
145.401368
21
-14.797352
31
0
39
0
210
0
220
0
230
1
0
LINE
5
63
100
AcDbEntity
8
1
62
256
6
ByLayer
370
-1
48
1
60
0
100
AcDbLine
10
158.524216
20
-13.052209
30
0
11
157.48118
21
-1.130257
31
0
39
0
210
0
220
0
230
1
0
LINE
5
64
100
AcDbEntity
8
1
62
256
6
ByLayer
370
-1
48
1
60
0
100
AcDbLine
10
145.397149
20
-14.738638
30
0
11
145.4204
21
-15.004404
31
0
39
0
210
0
220
0
230
1
0
LINE
5
65
100
AcDbEntity
8
1
62
256
6
ByLayer
370
-1
48
1
60
0
100
AcDbLine
10
158.524216
20
-13.052209
30
0
11
158.524216
21
-14.199739
31
0
39
0
210
0
220
0
230
1
0
LINE
5
66
100
AcDbEntity
8
1
62
256
6
ByLayer
370
-1
48
1
60
0
100
AcDbLine
10
0
20
-7.571005
30
0
11
0
21
7.571005
31
0
39
0
210
0
220
0
230
1
0
LINE
5
67
100
AcDbEntity
8
1
62
256
6
ByLayer
370
-1
48
1
60
0
100
AcDbLine
10
145.14812
20
-15.138399
30
0
11
145.167152
21
-15.34545
31
0
39
0
210
0
220
0
230
1
0
LINE
5
68
100
AcDbEntity
8
1
62
256
6
ByLayer
370
-1
48
1
60
0
100
AcDbLine
10
158.524216
20
-14.199739
30
0
11
148.418223
21
-13.32914
31
0
39
0
210
0
220
0
230
1
0
LINE
5
69
100
AcDbEntity
8
1
62
256
6
ByLayer
370
-1
48
1
60
0
100
AcDbLine
10
135.863254
20
19.98925
30
0
11
135.863254
21
18.460253
31
0
39
0
210
0
220
0
230
1
0
LINE
5
6A
100
AcDbEntity
8
1
62
256
6
ByLayer
370
-1
48
1
60
0
100
AcDbLine
10
111.739018
20
-17.51075
30
0
11
134.594389
21
-17.51075
31
0
39
0
210
0
220
0
230
1
0
LINE
5
6B
100
AcDbEntity
8
1
62
256
6
ByLayer
370
-1
48
1
60
0
100
AcDbLine
10
138.200516
20
18.619456
30
0
11
149.510654
21
7.034171
31
0
39
0
210
0
220
0
230
1
0
LINE
5
6C
100
AcDbEntity
8
1
62
256
6
ByLayer
370
-1
48
1
60
0
100
AcDbLine
10
136.982487
20
-19.898848
30
0
11
136.997889
21
-19.91425
31
0
39
0
210
0
220
0
230
1
0
LINE
5
6D
100
AcDbEntity
8
1
62
256
6
ByLayer
370
-1
48
1
60
0
100
AcDbLine
10
0
20
7.571005
30
0
11
0
21
19.98925
31
0
39
0
210
0
220
0
230
1
0
LINE
5
6E
100
AcDbEntity
8
1
62
256
6
ByLayer
370
-1
48
1
60
0
100
AcDbLine
10
145.167152
20
-15.34545
30
0
11
145.4204
21
-15.004404
31
0
39
0
210
0
220
0
230
1
0
LINE
5
6F
100
AcDbEntity
8
1
62
256
6
ByLayer
370
-1
48
1
60
0
100
AcDbLine
10
0
20
7.571005
30
0
11
110.592952
21
7.571005
31
0
39
0
210
0
220
0
230
1
0
LINE
5
70
100
AcDbEntity
8
1
62
256
6
ByLayer
370
-1
48
1
60
0
100
AcDbLine
10
141.251551
20
-23.563956
30
0
11
149.510654
21
7.034171
31
0
39
0
210
0
220
0
230
1
0
LINE
5
71
100
AcDbEntity
8
1
62
256
6
ByLayer
370
-1
48
1
60
0
100
AcDbLine
10
145.4204
20
-15.004404
30
0
11
145.401368
21
-14.797352
31
0
39
0
210
0
220
0
230
1
0
LINE
5
72
100
AcDbEntity
8
1
62
256
6
ByLayer
370
-1
48
1
60
0
100
AcDbLine
10
149.510654
20
7.034171
30
0
11
157.48118
21
-1.130257
31
0
39
0
210
0
220
0
230
1
0
LINE
5
73
100
AcDbEntity
8
1
62
256
6
ByLayer
370
-1
48
1
60
0
100
AcDbLine
10
104.481125
20
-7.571005
30
0
11
0
21
-7.571005
31
0
39
0
210
0
220
0
230
1
0
LINE
5
74
100
AcDbEntity
8
1
62
256
6
ByLayer
370
-1
48
1
60
0
100
AcDbLine
10
138.813147
20
-19.91425
30
0
11
138.813147
21
-19.904124
31
0
39
0
210
0
220
0
230
1
0
LINE
5
75
100
AcDbEntity
8
1
62
256
6
ByLayer
370
-1
48
1
60
0
100
AcDbLine
10
145.335698
20
-13.901529
30
0
11
145.396586
21
-14.597478
31
0
39
0
210
0
220
0
230
1
0
LINE
5
76
100
AcDbEntity
8
1
62
256
6
ByLayer
370
-1
48
1
60
0
100
AcDbLine
10
135.938254
20
19.91425
30
0
11
135.938254
21
18.393684
31
0
39
0
210
0
220
0
230
1
0
LINE
5
77
100
AcDbEntity
8
SK1
62
256
6
ByLayer
370
-1
48
1
60
0
100
AcDbLine
10
0
20
19.98925
30
0
11
0
21
7.571005
31
0
39
0
210
0
220
0
230
1
0
LINE
5
78
100
AcDbEntity
8
SK1
62
256
6
ByLayer
370
-1
48
1
60
0
100
AcDbLine
10
0
20
-7.571005
30
0
11
-138.836
21
-7.571005
31
0
39
0
210
0
220
0
230
1
0
LINE
5
79
100
AcDbEntity
8
SK1
62
256
6
ByLayer
370
-1
48
1
60
0
100
AcDbLine
10
-138.836
20
-17.51075
30
0
11
0
21
-17.51075
31
0
39
0
210
0
220
0
230
1
0
LINE
5
7A
100
AcDbEntity
8
SK1
62
256
6
ByLayer
370
-1
48
1
60
0
100
AcDbLine
10
-138.836
20
7.571005
30
0
11
0
21
7.571005
31
0
39
0
210
0
220
0
230
1
0
LINE
5
7B
100
AcDbEntity
8
SK1
62
256
6
ByLayer
370
-1
48
1
60
0
100
AcDbLine
10
-141.336
20
17.48925
30
0
11
-141.336
21
-17.48925
31
0
39
0
210
0
220
0
230
1
0
LINE
5
7C
100
AcDbEntity
8
SK1
62
256
6
ByLayer
370
-1
48
1
60
0
100
AcDbLine
10
-138.836
20
-7.571005
30
0
11
-138.836
21
-17.51075
31
0
39
0
210
0
220
0
230
1
0
LINE
5
7D
100
AcDbEntity
8
SK1
62
256
6
ByLayer
370
-1
48
1
60
0
100
AcDbLine
10
-138.836
20
19.98925
30
0
11
-138.836
21
7.571005
31
0
39
0
210
0
220
0
230
1
0
LINE
5
7E
100
AcDbEntity
8
SK1
62
256
6
ByLayer
370
-1
48
1
60
0
100
AcDbLine
10
0
20
-7.571005
30
0
11
0
21
7.571005
31
0
39
0
210
0
220
0
230
1
0
LINE
5
7F
100
AcDbEntity
8
SK1
62
256
6
ByLayer
370
-1
48
1
60
0
100
AcDbLine
10
0
20
-7.571005
30
0
11
0
21
-17.51075
31
0
39
0
210
0
220
0
230
1
0
LINE
5
80
100
AcDbEntity
8
1
62
256
6
ByLayer
370
-1
48
1
60
0
100
AcDbLine
10
159.05029
20
-26.897024
30
0
11
147.811136
21
-25.928807
31
0
39
0
210
0
220
0
230
1
0
LINE
5
81
100
AcDbEntity
8
1
62
256
6
ByLayer
370
-1
48
1
60
0
100
AcDbLine
10
158.935243
20
-14.889946
30
0
11
159.911001
21
-26.042909
31
0
39
0
210
0
220
0
230
1
0
LINE
5
82
100
AcDbEntity
8
1
62
256
6
ByLayer
370
-1
48
1
60
0
100
AcDbLine
10
146.753566
20
-13.18301
30
0
11
148.417544
21
-13.326356
31
0
39
0
210
0
220
0
230
1
0
LINE
5
83
100
AcDbEntity
8
1
62
256
6
ByLayer
370
-1
48
1
60
0
100
AcDbLine
10
146.974842
20
-13.206017
30
0
11
158.213996
21
-14.174234
31
0
39
0
210
0
220
0
230
1
0
LINE
5
84
100
AcDbEntity
8
1
62
256
6
ByLayer
370
-1
48
1
60
0
100
AcDbLine
10
147.089889
20
-25.213095
30
0
11
146.114131
21
-14.060132
31
0
39
0
210
0
220
0
230
1
0
LINE
5
85
100
AcDbEntity
8
1
62
256
6
ByLayer
370
-1
48
1
60
0
100
AcDbLine
10
151.651236
20
-20.415535
30
0
11
151.672287
21
-20.656151
31
0
39
0
210
0
220
0
230
1
0
LINE
5
86
100
AcDbEntity
8
1
62
256
6
ByLayer
370
-1
48
1
60
0
100
AcDbLine
10
152.88548
20
-21.245953
30
0
11
152.90655
21
-21.486784
31
0
39
0
210
0
220
0
230
1
0
LINE
5
87
100
AcDbEntity
8
1
62
256
6
ByLayer
370
-1
48
1
60
0
100
AcDbLine
10
152.195387
20
-20.676475
30
0
11
152.214694
21
-20.897155
31
0
39
0
210
0
220
0
230
1
0
LINE
5
88
100
AcDbEntity
8
1
62
256
6
ByLayer
370
-1
48
1
60
0
100
AcDbLine
10
153.654189
20
-18.658064
30
0
11
153.656715
21
-18.686931
31
0
39
0
210
0
220
0
230
1
0
LINE
5
89
100
AcDbEntity
8
1
62
256
6
ByLayer
370
-1
48
1
60
0
100
AcDbLine
10
151.756561
20
-18.946608
30
0
11
151.777631
21
-19.187439
31
0
39
0
210
0
220
0
230
1
0
LINE
5
8A
100
AcDbEntity
8
1
62
256
6
ByLayer
370
-1
48
1
60
0
100
AcDbLine
10
152.097088
20
-20.780451
30
0
11
152.077781
21
-20.559771
31
0
39
0
210
0
220
0
230
1
0
LINE
5
8B
100
AcDbEntity
8
1
62
256
6
ByLayer
370
-1
48
1
60
0
100
AcDbLine
10
154.472505
20
-19.67109
30
0
11
154.493575
21
-19.911921
31
0
39
0
210
0
220
0
230
1
0
LINE
5
8C
100
AcDbEntity
8
1
62
256
6
ByLayer
370
-1
48
1
60
0
100
AcDbLine
10
153.821018
20
-20.995223
30
0
11
153.842088
21
-21.236054
31
0
39
0
210
0
220
0
230
1
0
LINE
5
8D
100
AcDbEntity
8
1
62
256
6
ByLayer
370
-1
48
1
60
0
100
AcDbLine
10
147.277264
20
-13.058083
30
0
11
147.237698
21
-12.605839
31
0
39
0
210
0
220
0
230
1
0
LINE
5
8E
100
AcDbEntity
8
1
62
256
6
ByLayer
370
-1
48
1
60
0
100
AcDbLine
10
147.277264
20
-13.058083
30
0
11
148.364502
21
-13.151745
31
0
39
0
210
0
220
0
230
1
0
LINE
5
8F
100
AcDbEntity
8
1
62
256
6
ByLayer
370
-1
48
1
60
0
100
AcDbLine
10
148.104546
20
-12.680516
30
0
11
147.237698
21
-12.605839
31
0
39
0
210
0
220
0
230
1
0
LINE
5
90
100
AcDbEntity
8
2
62
256
6
ByLayer
370
-1
48
1
60
1
100
AcDbLine
10
159.914
20
0
30
0
11
159.915
21
0.001
31
0
39
0
210
0
220
0
230
1
0
MTEXT
5
EA
100
AcDbEntity
8
SK6
62
256
6
ByLayer
370
-1
48
1
60
0
100
AcDbMText
10
12.664
20
25.658699
30
0
210
0
220
0
230
1
1
\W00.775;\fsimplex.shx,bigfont.shx;A40T-SCLCL 12 
40
3.5
41
0
44
1.084337
50
0
71
7
72
5
7
DEFAULT
0
DIMENSION
5
11D
100
AcDbEntity
8
2
62
256
6
ByLayer
370
-3
48
1
60
0
100
AcDbDimension
2
DimnDraft3D1
10
172.164
20
0
30
0
11
172.164
21
-18.613158
31
0
70
32
71
5
72
1
41
1
210
0
220
0
230
1
3
Standard
100
AcDbAlignedDimension
13
161.914
23
-26.9
33
0
14
161.914
24
0
34
0
50
90
100
AcDbRotatedDimension
1001
ACAD
1000
DSTYLE
1002
{
1070
    74
1070
     0
1070
   279
1070
     0
1070
   172
1070
     1
1070
   173
1070
     1
1070
   340
1005
EB
1070
    77
1070
     1
1070
    73
1070
     0
1070
   171
1070
     4
1070
   274
1070
     4
1070
   177
1070
     2
1070
   176
1070
     2
1070
   178
1070
     7
1070
    78
1070
     8
1070
    41
1041
3.175
1070
   147
1041
2.25
1070
    42
1041
2.0
1070
    44
1041
2.0
1070
   140
1041
4.5
1070
   343
1005
11E
1070
   344
1005
11E
1002
}
0
DIMENSION
5
133
100
AcDbEntity
8
SK2
62
256
6
ByLayer
370
-3
48
1
60
0
100
AcDbDimension
2
DimnDraft3D2
10
-151.086
20
19.98925
30
0
11
-151.086
21
-5.021053
31
0
70
32
71
5
72
1
41
1
210
0
220
0
230
1
3
Standard
100
AcDbAlignedDimension
13
-143.336
23
-19.98925
33
0
14
-143.336
24
19.98925
34
0
50
90
100
AcDbRotatedDimension
1001
ACAD
1000
DSTYLE
1002
{
1070
    74
1070
     0
1070
   279
1070
     0
1070
   172
1070
     1
1070
   173
1070
     1
1070
   340
1005
EB
1070
    77
1070
     1
1070
    73
1070
     0
1070
   171
1070
     4
1070
   274
1070
     4
1070
   177
1070
     2
1070
   176
1070
     2
1070
   178
1070
     7
1070
    78
1070
     8
1070
    41
1041
3.175
1070
   147
1041
2.25
1070
    42
1041
2.0
1070
    44
1041
2.0
1070
   140
1041
4.5
1070
   343
1005
11E
1070
   344
1005
11E
1002
}
0
DIMENSION
5
141
100
AcDbEntity
8
SK2
62
256
6
ByLayer
370
-3
48
1
60
0
100
AcDbDimension
2
DimnDraft3D3
10
159.914
20
-44.15
30
0
11
2.473868
21
-44.15
31
0
70
32
71
5
72
1
41
1
210
0
220
0
230
1
3
Standard
100
AcDbAlignedDimension
13
-141.336
23
-21.98925
33
0
14
159.914
24
-28.9
34
0
50
0
100
AcDbRotatedDimension
1001
ACAD
1000
DSTYLE
1002
{
1070
   279
1070
     0
1070
   172
1070
     1
1070
   173
1070
     1
1070
   340
1005
EB
1070
    77
1070
     1
1070
    73
1070
     0
1070
   171
1070
     4
1070
   274
1070
     4
1070
   177
1070
     2
1070
   176
1070
     2
1070
   178
1070
     7
1070
    78
1070
     8
1070
    41
1041
3.175
1070
   147
1041
2.25
1070
    42
1041
2.0
1070
    44
1041
2.0
1070
   140
1041
4.5
1070
   343
1005
11E
1070
   344
1005
11E
1002
}
0
DIMENSION
5
14F
100
AcDbEntity
8
2
62
256
6
ByLayer
370
-3
48
1
60
0
100
AcDbDimension
2
DimnDraft3D4
10
197.486962
20
0
30
0
11
180.006109
21
33.925375
31
0
70
34
71
5
72
1
41
1
210
0
220
0
230
1
3
Standard
100
AcDb2LineAngularDimension
13
158.69382
23
-12.953274
33
0
14
154.080739
24
39.774475
34
0
15
161.914
25
0
35
0
16
186.22342
26
31.280028
36
0
40
0
0
ENDSEC
0
SECTION
2
OBJECTS
0
DICTIONARY
5
180
330
0
100
AcDbDictionary
280
0
281
1
3
ACAD_GROUP
350
181
3
ACAD_MLINESTYLE
350
182
0
DICTIONARY
5
181
330
0
100
AcDbDictionary
280
0
281
1
0
DICTIONARY
5
182
330
0
100
AcDbDictionary
280
0
281
1
3
Standard
350
18
0
MLINESTYLE
5
18
330
182
100
AcDbMlineStyle
2
Standard
70
0
3

62
256
51
90
52
90
71
2
49
-0.5
62
256
6
ByLayer
49
0.5
62
256
6
ByLayer
0
RASTERVARIABLES
5
16e
330

100
AcDbRasterVariables
90
0
70
1
71
1
72
1
0
ENDSEC
0
EOF
