  0
SECTION
  2
HEADER
  9
$ACADVER
  1
AC1015
  9
$ACADMAINTVER
 70
     6
  9
$DWGCODEPAGE
  3
ANSI_1252
  9
$INSBASE
 10
0.0
 20
0.0
 30
0.0
  9
$EXTMIN
 10
0.0
 20
0.0
 30
0.0
  9
$EXTMAX
 10
210.0
 20
297.0
 30
0.0
  9
$LIMMIN
 10
0.0
 20
0.0
  9
$LIMMAX
 10
210.0
 20
297.0
  9
$ORTHOMODE
 70
     0
  9
$REGENMODE
 70
     1
  9
$FILLMODE
 70
     1
  9
$QTEXTMODE
 70
     0
  9
$MIRRTEXT
 70
     1
  9
$LTSCALE
 40
1.0
  9
$ATTMODE
 70
     1
  9
$TEXTSIZE
 40
2.5
  9
$TRACEWID
 40
1.0
  9
$TEXTSTYLE
  7
Standard
  9
$CLAYER
  8
0
  9
$CELTYPE
  6
ByLayer
  9
$CECOLOR
 62
   256
  9
$CELTSCALE
 40
1.0
  9
$DISPSILH
 70
     0
  9
$DIMSCALE
 40
1.0
  9
$DIMASZ
 40
2.5
  9
$DIMEXO
 40
0.625
  9
$DIMDLI
 40
3.75
  9
$DIMRND
 40
0.0
  9
$DIMDLE
 40
0.0
  9
$DIMEXE
 40
1.25
  9
$DIMTP
 40
0.0
  9
$DIMTM
 40
0.0
  9
$DIMTXT
 40
2.5
  9
$DIMCEN
 40
2.5
  9
$DIMTSZ
 40
0.0
  9
$DIMTOL
 70
     0
  9
$DIMLIM
 70
     0
  9
$DIMTIH
 70
     0
  9
$DIMTOH
 70
     0
  9
$DIMSE1
 70
     0
  9
$DIMSE2
 70
     0
  9
$DIMTAD
 70
     1
  9
$DIMZIN
 70
     8
  9
$DIMBLK
  1

  9
$DIMASO
 70
     1
  9
$DIMSHO
 70
     1
  9
$DIMPOST
  1

  9
$DIMAPOST
  1

  9
$DIMALT
 70
     0
  9
$DIMALTD
 70
     3
  9
$DIMALTF
 40
0.0393700787
  9
$DIMLFAC
 40
1.0
  9
$DIMTOFL
 70
     1
  9
$DIMTVP
 40
0.0
  9
$DIMTIX
 70
     0
  9
$DIMSOXD
 70
     0
  9
$DIMSAH
 70
     0
  9
$DIMBLK1
  1

  9
$DIMBLK2
  1

  9
$DIMSTYLE
  2
ISO-25
  9
$DIMCLRD
 70
     0
  9
$DIMCLRE
 70
     0
  9
$DIMCLRT
 70
     0
  9
$DIMTFAC
 40
1.0
  9
$DIMGAP
 40
0.625
  9
$DIMJUST
 70
     0
  9
$DIMSD1
 70
     0
  9
$DIMSD2
 70
     0
  9
$DIMTOLJ
 70
     0
  9
$DIMTZIN
 70
     8
  9
$DIMALTZ
 70
     0
  9
$DIMALTTZ
 70
     0
  9
$DIMUPT
 70
     0
  9
$DIMDEC
 70
     2
  9
$DIMTDEC
 70
     2
  9
$DIMALTU
 70
     2
  9
$DIMALTTD
 70
     3
  9
$DIMTXSTY
  7
Standard
  9
$DIMAUNIT
 70
     0
  9
$DIMADEC
 70
     0
  9
$DIMALTRND
 40
0.0
  9
$DIMAZIN
 70
     0
  9
$DIMDSEP
 70
    44
  9
$DIMATFIT
 70
     3
  9
$DIMFRAC
 70
     0
  9
$DIMLDRBLK
  1

  9
$DIMLUNIT
 70
     2
  9
$DIMLWD
 70
    -2
  9
$DIMLWE
 70
    -2
  9
$DIMTMOVE
 70
     0
  9
$LUNITS
 70
     2
  9
$LUPREC
 70
     4
  9
$SKETCHINC
 40
1.0
  9
$FILLETRAD
 40
10.0
  9
$AUNITS
 70
     0
  9
$AUPREC
 70
     0
  9
$MENU
  1
.
  9
$ELEVATION
 40
0.0
  9
$PELEVATION
 40
0.0
  9
$THICKNESS
 40
0.0
  9
$LIMCHECK
 70
     0
  9
$CHAMFERA
 40
10.0
  9
$CHAMFERB
 40
10.0
  9
$CHAMFERC
 40
20.0
  9
$CHAMFERD
 40
0.0
  9
$SKPOLY
 70
     0
  9
$TDCREATE
 40
2457567.554108264
  9
$TDUCREATE
 40
2457567.47077493
  9
$TDUPDATE
 40
2457567.554109525
  9
$TDUUPDATE
 40
2457567.470776192
  9
$TDINDWG
 40
0.0000000116
  9
$TDUSRTIMER
 40
0.0000000116
  9
$USRTIMER
 70
     1
  9
$ANGBASE
 50
0.0
  9
$ANGDIR
 70
     0
  9
$PDMODE
 70
     0
  9
$PDSIZE
 40
0.0
  9
$PLINEWID
 40
0.0
  9
$SPLFRAME
 70
     0
  9
$SPLINETYPE
 70
     6
  9
$SPLINESEGS
 70
     8
  9
$HANDSEED
  5
1AF
  9
$SURFTAB1
 70
     6
  9
$SURFTAB2
 70
     6
  9
$SURFTYPE
 70
     6
  9
$SURFU
 70
     6
  9
$SURFV
 70
     6
  9
$UCSBASE
  2

  9
$UCSNAME
  2

  9
$UCSORG
 10
0.0
 20
0.0
 30
0.0
  9
$UCSXDIR
 10
1.0
 20
0.0
 30
0.0
  9
$UCSYDIR
 10
0.0
 20
1.0
 30
0.0
  9
$UCSORTHOREF
  2

  9
$UCSORTHOVIEW
 70
     0
  9
$UCSORGTOP
 10
0.0
 20
0.0
 30
0.0
  9
$UCSORGBOTTOM
 10
0.0
 20
0.0
 30
0.0
  9
$UCSORGLEFT
 10
0.0
 20
0.0
 30
0.0
  9
$UCSORGRIGHT
 10
0.0
 20
0.0
 30
0.0
  9
$UCSORGFRONT
 10
0.0
 20
0.0
 30
0.0
  9
$UCSORGBACK
 10
0.0
 20
0.0
 30
0.0
  9
$PUCSBASE
  2

  9
$PUCSNAME
  2

  9
$PUCSORG
 10
0.0
 20
0.0
 30
0.0
  9
$PUCSXDIR
 10
1.0
 20
0.0
 30
0.0
  9
$PUCSYDIR
 10
0.0
 20
1.0
 30
0.0
  9
$PUCSORTHOREF
  2

  9
$PUCSORTHOVIEW
 70
     0
  9
$PUCSORGTOP
 10
0.0
 20
0.0
 30
0.0
  9
$PUCSORGBOTTOM
 10
0.0
 20
0.0
 30
0.0
  9
$PUCSORGLEFT
 10
0.0
 20
0.0
 30
0.0
  9
$PUCSORGRIGHT
 10
0.0
 20
0.0
 30
0.0
  9
$PUCSORGFRONT
 10
0.0
 20
0.0
 30
0.0
  9
$PUCSORGBACK
 10
0.0
 20
0.0
 30
0.0
  9
$USERI1
 70
     0
  9
$USERI2
 70
     0
  9
$USERI3
 70
     0
  9
$USERI4
 70
     0
  9
$USERI5
 70
     0
  9
$USERR1
 40
0.0
  9
$USERR2
 40
0.0
  9
$USERR3
 40
0.0
  9
$USERR4
 40
0.0
  9
$USERR5
 40
0.0
  9
$WORLDVIEW
 70
     1
  9
$SHADEDGE
 70
     3
  9
$SHADEDIF
 70
    70
  9
$TILEMODE
 70
     1
  9
$MAXACTVP
 70
    64
  9
$PINSBASE
 10
0.0
 20
0.0
 30
0.0
  9
$PLIMCHECK
 70
     0
  9
$PEXTMIN
 10
0.0
 20
0.0
 30
0.0
  9
$PEXTMAX
 10
210.0
 20
297.0
 30
0.0
  9
$PLIMMIN
 10
0.0
 20
0.0
  9
$PLIMMAX
 10
210.0
 20
297.0
  9
$UNITMODE
 70
     0
  9
$VISRETAIN
 70
     1
  9
$PLINEGEN
 70
     0
  9
$PSLTSCALE
 70
     1
  9
$TREEDEPTH
 70
  3020
  9
$CMLSTYLE
  2
Standard
  9
$CMLJUST
 70
     0
  9
$CMLSCALE
 40
20.0
  9
$PROXYGRAPHICS
 70
     1
  9
$MEASUREMENT
 70
     1
  9
$CELWEIGHT
370
    -1
  9
$ENDCAPS
280
     0
  9
$JOINSTYLE
280
     0
  9
$LWDISPLAY
290
     0
  9
$INSUNITS
 70
     4
  9
$HYPERLINKBASE
  1

  9
$STYLESHEET
  1

  9
$XEDIT
290
     1
  9
$CEPSNTYPE
380
     0
  9
$PSTYLEMODE
290
     1
  9
$FINGERPRINTGUID
  2
{2B443DCD-C3DE-4CC8-96BD-A91031940170}
  9
$VERSIONGUID
  2
{FAEB1C32-E019-11D5-929B-00C0DF256EC4}
  9
$EXTNAMES
290
     1
  9
$PSVPSCALE
 40
0.0
  9
$OLESTARTUP
290
     0
  0
ENDSEC
  0
SECTION
  2
CLASSES
  0
CLASS
  1
ACDBDICTIONARYWDFLT
  2
AcDbDictionaryWithDefault
  3
ObjectDBX Classes
 90
        0
280
     0
281
     0
  0
CLASS
  1
VISUALSTYLE
  2
AcDbVisualStyle
  3
ObjectDBX Classes
 90
     4095
280
     0
281
     0
  0
CLASS
  1
MATERIAL
  2
AcDbMaterial
  3
ObjectDBX Classes
 90
     1153
280
     0
281
     0
  0
CLASS
  1
DICTIONARYVAR
  2
AcDbDictionaryVar
  3
ObjectDBX Classes
 90
        0
280
     0
281
     0
  0
CLASS
  1
ACDBPLACEHOLDER
  2
AcDbPlaceHolder
  3
ObjectDBX Classes
 90
        0
280
     0
281
     0
  0
CLASS
  1
LAYOUT
  2
AcDbLayout
  3
ObjectDBX Classes
 90
        0
280
     0
281
     0
  0
ENDSEC
  0
SECTION
  2
TABLES
  0
TABLE
  2
VPORT
  5
8
330
0
100
AcDbSymbolTable
 70
     1
  0
VPORT
  5
29
330
8
100
AcDbSymbolTableRecord
100
AcDbViewportTableRecord
  2
*Active
 70
     0
 10
0.0
 20
0.0
 11
1.0
 21
1.0
 12
344.1869158879
 22
148.5
 13
0.0
 23
0.0
 14
10.0
 24
10.0
 15
10.0
 25
10.0
 16
0.0
 26
0.0
 36
1.0
 17
0.0
 27
0.0
 37
0.0
 40
297.0
 41
1.9729729729
 42
50.0
 43
0.0
 44
0.0
 50
0.0
 51
0.0
 71
     0
 72
   100
 73
     1
 74
     3
 75
     0
 76
     0
 77
     0
 78
     0
281
     0
 65
     1
110
0.0
120
0.0
130
0.0
111
1.0
121
0.0
131
0.0
112
0.0
122
1.0
132
0.0
 79
     0
146
0.0
  0
ENDTAB
  0
TABLE
  2
LTYPE
  5
5
330
0
100
AcDbSymbolTable
 70
     2
  0
LTYPE
  5
14
330
5
100
AcDbSymbolTableRecord
100
AcDbLinetypeTableRecord
  2
ByBlock
 70
     0
  3

 72
    65
 73
     0
 40
0.0
  0
LTYPE
  5
15
330
5
100
AcDbSymbolTableRecord
100
AcDbLinetypeTableRecord
  2
ByLayer
 70
     0
  3

 72
    65
 73
     0
 40
0.0
  0
LTYPE
  5
16
330
5
100
AcDbSymbolTableRecord
100
AcDbLinetypeTableRecord
  2
Continuous
 70
     0
  3
Solid line
 72
    65
 73
     0
 40
0.0
  0
LTYPE
  5
43
330
5
100
AcDbSymbolTableRecord
100
AcDbLinetypeTableRecord
  2
HIDDEN2
 70
     0
  3
Hidden (.5x) _ _ _ _ _ _ _ _ _ _ _ _ _ _ _ _ _ 
 72
    65
 73
     2
 40
4.7625
 49
3.175
 74
     4
 75
     0
340
0
 46
0.0
 50
0.0
 44
0.0
 45
0.0
 49
-1.5875
 74
     4
 75
     0
340
0
 46
0.0
 50
0.0
 44
0.0
 45
0.0
  0
ENDTAB
  0
TABLE
  2
LAYER
  5
2
330
0
100
AcDbSymbolTable
 70
     5
  0
LAYER
  5
10
330
2
100
AcDbSymbolTableRecord
100
AcDbLayerTableRecord
  2
0
 70
     0
 62
     7
  6
Continuous
370
    -3
390
F
  0
LAYER
  5
3F
330
2
100
AcDbSymbolTableRecord
100
AcDbLayerTableRecord
  2
SK1
 70
     0
 62
     4
  6
Continuous
370
    18
390
F
  0
LAYER
  5
42
330
2
100
AcDbSymbolTableRecord
100
AcDbLayerTableRecord
  2
SK3
 70
     0
 62
     1
  6
HIDDEN2
370
    15
390
F
  0
LAYER
  5
12B
330
2
100
AcDbSymbolTableRecord
100
AcDbLayerTableRecord
  2
SK4
 70
     0
 62
     2
  6
Continuous
370
    13
390
F
  0
LAYER
  5
12D
330
2
100
AcDbSymbolTableRecord
100
AcDbLayerTableRecord
  2
SK2
 70
     0
 62
     7
  6
Continuous
370
    15
390
F
  0
ENDTAB
  0
TABLE
  2
STYLE
  5
3
330
0
100
AcDbSymbolTable
 70
     2
  0
STYLE
  5
11
330
3
100
AcDbSymbolTableRecord
100
AcDbTextStyleTableRecord
  2
Standard
 70
     0
 40
0.0
 41
1.0
 50
0.0
 71
     0
 42
2.5
  3
txt
  4

  0
STYLE
  5
140
330
3
100
AcDbSymbolTableRecord
100
AcDbTextStyleTableRecord
  2
SEACAD_Solid_Edge_ISO
 70
     0
 40
0.0
 41
1.0
 50
0.0
 71
     0
 42
0.2
  3
seiso.ttf
  4

1001
ACAD
1000
Solid Edge ISO
1071
        0
  0
ENDTAB
  0
TABLE
  2
VIEW
  5
6
330
0
100
AcDbSymbolTable
 70
     0
  0
ENDTAB
  0
TABLE
  2
UCS
  5
7
330
0
100
AcDbSymbolTable
 70
     0
  0
ENDTAB
  0
TABLE
  2
APPID
  5
9
330
0
100
AcDbSymbolTable
 70
     1
  0
APPID
  5
12
330
9
100
AcDbSymbolTableRecord
100
AcDbRegAppTableRecord
  2
ACAD
 70
     0
  0
ENDTAB
  0
TABLE
  2
DIMSTYLE
  5
A
330
0
100
AcDbSymbolTable
 70
     3
100
AcDbDimStyleTable
  0
DIMSTYLE
105
27
330
A
100
AcDbSymbolTableRecord
100
AcDbDimStyleTableRecord
  2
ISO-25
 70
     0
 41
2.5
 42
0.625
 43
3.75
 44
1.25
 73
     0
 74
     0
 77
     1
 78
     8
140
2.5
141
2.5
143
0.0393700787
147
0.625
171
     3
172
     1
178
     0
271
     2
272
     2
274
     3
278
    44
283
     0
284
     8
340
11
  0
DIMSTYLE
105
12E
330
A
100
AcDbSymbolTableRecord
100
AcDbDimStyleTableRecord
  2
Standard
 70
     0
178
     0
340
11
  0
DIMSTYLE
105
141
102
{ACAD_REACTORS
330
142
330
162
330
16D
330
177
102
}
330
A
100
AcDbSymbolTableRecord
100
AcDbDimStyleTableRecord
  2
DIN
 70
     0
 41
3.5
 42
0.0
 44
1.75
 73
     0
 74
     0
 77
     1
 78
     8
140
3.5
141
1.75
147
1.75
172
     1
173
     1
178
     0
179
     3
271
     2
272
     2
278
    44
284
     8
340
140
343
13B
344
13B
  0
ENDTAB
  0
TABLE
  2
BLOCK_RECORD
  5
1
330
0
100
AcDbSymbolTable
 70
    10
  0
BLOCK_RECORD
  5
1F
330
1
100
AcDbSymbolTableRecord
100
AcDbBlockTableRecord
  2
*Model_Space
340
22
  0
BLOCK_RECORD
  5
1B
330
1
100
AcDbSymbolTableRecord
100
AcDbBlockTableRecord
  2
*Paper_Space
340
1E
  0
BLOCK_RECORD
  5
12F
330
1
100
AcDbSymbolTableRecord
100
AcDbBlockTableRecord
  2
_OBLIQUE
340
0
  0
BLOCK_RECORD
  5
133
330
1
100
AcDbSymbolTableRecord
100
AcDbBlockTableRecord
  2
_DOT
340
0
  0
BLOCK_RECORD
  5
13B
330
1
100
AcDbSymbolTableRecord
100
AcDbBlockTableRecord
  2
_SE_FILLED
340
0
  0
BLOCK_RECORD
  5
143
330
1
100
AcDbSymbolTableRecord
100
AcDbBlockTableRecord
  2
DMBLK137
340
0
  0
BLOCK_RECORD
  5
14C
330
1
100
AcDbSymbolTableRecord
100
AcDbBlockTableRecord
  2
Nullpunkt
340
0
102
{BLKREFS
331
156
102
}
  0
BLOCK_RECORD
  5
157
330
1
100
AcDbSymbolTableRecord
100
AcDbBlockTableRecord
  2
Einfügepunkt
340
0
102
{BLKREFS
331
161
102
}
  0
BLOCK_RECORD
  5
163
330
1
100
AcDbSymbolTableRecord
100
AcDbBlockTableRecord
  2
DMBLK138
340
0
  0
BLOCK_RECORD
  5
16E
330
1
100
AcDbSymbolTableRecord
100
AcDbBlockTableRecord
  2
DMBLK139
340
0
  0
BLOCK_RECORD
  5
178
330
1
100
AcDbSymbolTableRecord
100
AcDbBlockTableRecord
  2
DMBLK140
340
0
  0
ENDTAB
  0
ENDSEC
  0
SECTION
  2
BLOCKS
  0
BLOCK
  5
20
330
1F
100
AcDbEntity
  8
0
100
AcDbBlockBegin
  2
*Model_Space
 70
     0
 10
0.0
 20
0.0
 30
0.0
  3
*Model_Space
  1

  0
ENDBLK
  5
21
330
1F
100
AcDbEntity
  8
0
100
AcDbBlockEnd
  0
BLOCK
  5
1C
330
1B
100
AcDbEntity
 67
     1
  8
0
100
AcDbBlockBegin
  2
*Paper_Space
 70
     0
 10
0.0
 20
0.0
 30
0.0
  3
*Paper_Space
  1

  0
ENDBLK
  5
1D
330
1B
100
AcDbEntity
 67
     1
  8
0
100
AcDbBlockEnd
  0
BLOCK
  5
130
330
12F
100
AcDbEntity
  8
0
100
AcDbBlockBegin
  2
_OBLIQUE
 70
     0
 10
0.0
 20
0.0
 30
0.0
  3
_OBLIQUE
  1

  0
LINE
  5
132
330
12F
100
AcDbEntity
  8
0
  6
ByBlock
 62
     0
370
    -2
100
AcDbLine
 10
-0.5
 20
-0.5
 30
0.0
 11
0.5
 21
0.5
 31
0.0
  0
ENDBLK
  5
131
330
12F
100
AcDbEntity
  8
0
100
AcDbBlockEnd
  0
BLOCK
  5
134
330
133
100
AcDbEntity
  8
0
100
AcDbBlockBegin
  2
_DOT
 70
     0
 10
0.0
 20
0.0
 30
0.0
  3
_DOT
  1

  0
POLYLINE
  5
136
330
133
100
AcDbEntity
  8
0
  6
ByBlock
 62
     0
100
AcDb2dPolyline
 66
     1
 10
0.0
 20
0.0
 30
0.0
 70
     1
 40
0.5
 41
0.5
  0
VERTEX
  5
138
330
136
100
AcDbEntity
  8
0
  6
ByBlock
 62
     0
100
AcDbVertex
100
AcDb2dVertex
 10
-0.25
 20
0.0
 30
0.0
 42
1.0
  0
VERTEX
  5
139
330
136
100
AcDbEntity
  8
0
  6
ByBlock
 62
     0
100
AcDbVertex
100
AcDb2dVertex
 10
0.25
 20
0.0
 30
0.0
 42
1.0
  0
SEQEND
  5
13A
330
136
100
AcDbEntity
  8
0
  6
ByBlock
 62
     0
  0
LINE
  5
137
330
133
100
AcDbEntity
  8
0
  6
ByBlock
 62
     0
370
    -2
100
AcDbLine
 10
-0.5
 20
0.0
 30
0.0
 11
-1.0
 21
0.0
 31
0.0
  0
ENDBLK
  5
135
330
133
100
AcDbEntity
  8
0
100
AcDbBlockEnd
  0
BLOCK
  5
13E
330
13B
100
AcDbEntity
  8
0
100
AcDbBlockBegin
  2
_SE_FILLED
 70
     0
 10
0.0
 20
0.0
 30
0.0
  3
_SE_FILLED
  1

  0
SOLID
  5
13C
330
13B
100
AcDbEntity
  8
0
 62
     0
100
AcDbTrace
 10
0.0
 20
0.0
 30
0.0
 11
-1.0
 21
-0.1665
 31
0.0
 12
-1.0
 22
0.1665
 32
0.0
 13
0.0
 23
0.0
 33
0.0
  0
LINE
  5
13D
330
13B
100
AcDbEntity
  8
0
 62
     0
100
AcDbLine
 10
0.0
 20
0.0
 30
0.0
 11
-1.0
 21
0.0
 31
0.0
  0
ENDBLK
  5
13F
330
13B
100
AcDbEntity
  8
0
100
AcDbBlockEnd
  0
BLOCK
  5
14A
330
143
100
AcDbEntity
  8
0
100
AcDbBlockBegin
  2
DMBLK137
 70
     0
 10
0.0
 20
0.0
 30
0.0
  3
DMBLK137
  1

  0
HATCH
  5
144
330
143
100
AcDbEntity
  8
SK2
  6
Continuous
 62
   136
100
AcDbHatch
 10
0.0
 20
0.0
 30
0.0
210
0.0
220
0.0
230
1.0
  2
SOLID
 70
     1
 71
     0
 91
        1
 92
        1
 93
        3
 72
     1
 10
-27.83999989196656
 20
30.58333326375457
 11
-31.33999999999998
 21
29.99999991241566
 72
     1
 10
-31.33999999999998
 20
29.99999991241566
 11
-27.83999989196656
 21
29.41666656107676
 72
     1
 10
-27.83999989196656
 20
29.41666656107676
 11
-27.83999989196656
 21
30.58333326375457
 97
        0
 75
     0
 76
     1
 98
        0
  0
HATCH
  5
145
330
143
100
AcDbEntity
  8
SK2
  6
Continuous
 62
   136
100
AcDbHatch
 10
0.0
 20
0.0
 30
0.0
210
0.0
220
0.0
230
1.0
  2
SOLID
 70
     1
 71
     0
 91
        1
 92
        1
 93
        3
 72
     1
 10
11.15999998137357
 20
30.58333326375457
 11
11.15999998137357
 21
29.41666656107676
 72
     1
 10
11.15999998137357
 20
29.41666656107676
 11
14.66000008940699
 21
29.99999991241566
 72
     1
 10
14.66000008940699
 20
29.99999991241566
 11
11.15999998137357
 21
30.58333326375457
 97
        0
 75
     0
 76
     1
 98
        0
  0
LINE
  5
146
330
143
100
AcDbEntity
  8
SK2
  6
Continuous
 62
   136
100
AcDbLine
 10
-31.34
 20
15.1522342357
 30
0.0
 11
-31.34
 21
31.7499999664
 31
0.0
  0
LINE
  5
147
330
143
100
AcDbEntity
  8
SK2
  6
Continuous
 62
   136
100
AcDbLine
 10
14.66
 20
15.0588048368
 30
0.0
 11
14.66
 21
31.7499999664
 31
0.0
  0
LINE
  5
148
330
143
100
AcDbEntity
  8
SK2
  6
Continuous
 62
   136
100
AcDbLine
 10
-31.34
 20
29.9999999124
 30
0.0
 11
14.6600000894
 21
29.9999999124
 31
0.0
  0
TEXT
  5
149
330
143
100
AcDbEntity
  8
SK2
  6
Continuous
 62
   136
100
AcDbText
 10
-10.4479545008
 20
30.8749999124
 30
0.0
 40
3.5
  1
46
  7
SEACAD_Solid_Edge_ISO
 11
-10.4479545008
 21
34.3749999124
 31
0.0
100
AcDbText
 73
     3
  0
ENDBLK
  5
14B
330
143
100
AcDbEntity
  8
0
100
AcDbBlockEnd
  0
BLOCK
  5
154
330
14C
100
AcDbEntity
  8
0
100
AcDbBlockBegin
  2
Nullpunkt
 70
     0
 10
0.0
 20
0.0
 30
0.0
  3
Nullpunkt
  1

  0
HATCH
  5
14D
330
14C
100
AcDbEntity
  8
SK2
  6
Continuous
 62
     7
100
AcDbHatch
 10
0.0
 20
0.0
 30
0.0
210
0.0
220
0.0
230
1.0
  2
SOLID
 70
     1
 71
     0
 91
        1
 92
        1
 93
        3
 72
     1
 10
-1.0
 20
0.0
 11
0.0000000000000009
 21
0.0
 72
     1
 10
0.0
 20
0.0
 11
0.0
 21
1.000000000000001
 72
     2
 10
0.0
 20
0.0
 40
1.0
 50
90.0
 51
180.0
 73
     1
 97
        0
 75
     0
 76
     1
 98
        0
  0
HATCH
  5
14E
330
14C
100
AcDbEntity
  8
SK2
  6
Continuous
 62
     7
100
AcDbHatch
 10
0.0
 20
0.0
 30
0.0
210
0.0
220
0.0
230
1.0
  2
SOLID
 70
     1
 71
     0
 91
        1
 92
        1
 93
        3
 72
     2
 10
0.0
 20
0.0
 40
1.0
 50
270.0
 51
360.0
 73
     1
 72
     1
 10
1.0
 20
0.0
 11
-0.0000000000000009
 21
0.0
 72
     1
 10
0.0
 20
0.0
 11
0.0
 21
-1.000000000000001
 97
        0
 75
     0
 76
     1
 98
        0
  0
CIRCLE
  5
14F
330
14C
100
AcDbEntity
  8
SK2
  6
Continuous
 62
     7
100
AcDbCircle
 10
0.0
 20
0.0
 30
0.0
 40
1.0
  0
LINE
  5
150
330
14C
100
AcDbEntity
  8
SK1
  6
Continuous
100
AcDbLine
 10
-1.0
 20
0.0
 30
0.0
 11
1.0
 21
0.0
 31
0.0
  0
LINE
  5
151
330
14C
100
AcDbEntity
  8
SK1
  6
Continuous
100
AcDbLine
 10
0.0
 20
1.0
 30
0.0
 11
0.0
 21
-1.0
 31
0.0
  0
POINT
  5
152
330
14C
100
AcDbEntity
  8
SK1
  6
Continuous
100
AcDbPoint
 10
0.0
 20
0.0
 30
0.0
  0
POINT
  5
153
330
14C
100
AcDbEntity
  8
SK1
  6
Continuous
100
AcDbPoint
 10
0.0
 20
0.0
 30
0.0
  0
ENDBLK
  5
155
330
14C
100
AcDbEntity
  8
0
100
AcDbBlockEnd
  0
BLOCK
  5
15F
330
157
100
AcDbEntity
  8
0
100
AcDbBlockBegin
  2
Einfügepunkt
 70
     0
 10
0.0
 20
0.0
 30
0.0
  3
Einfügepunkt
  1

  0
HATCH
  5
158
330
157
100
AcDbEntity
  8
SK2
  6
Continuous
 62
     7
100
AcDbHatch
 10
0.0
 20
0.0
 30
0.0
210
0.0
220
0.0
230
1.0
  2
SOLID
 70
     1
 71
     0
 91
        1
 92
        1
 93
        3
 72
     1
 10
-0.4502381196756744
 20
-0.0000000000000018
 11
0.0000000000000033
 21
-0.0000000000000018
 72
     1
 10
0.0
 20
-0.0000000000000018
 11
0.0
 21
0.4502381196756812
 72
     2
 10
0.0
 20
-0.0000000000000018
 40
0.4502381196756812
 50
90.0
 51
180.0
 73
     1
 97
        0
 75
     0
 76
     1
 98
        0
  0
HATCH
  5
159
330
157
100
AcDbEntity
  8
SK2
  6
Continuous
 62
     7
100
AcDbHatch
 10
0.0
 20
0.0
 30
0.0
210
0.0
220
0.0
230
1.0
  2
SOLID
 70
     1
 71
     0
 91
        1
 92
        1
 93
        3
 72
     2
 10
0.0
 20
-0.0000000000000018
 40
0.4502381196756812
 50
270.0
 51
360.0
 73
     1
 72
     1
 10
0.4502381196756815
 20
-0.0000000000000018
 11
0.0000000000000038
 21
-0.0000000000000018
 72
     1
 10
0.0
 20
-0.0000000000000018
 11
0.0
 21
-0.4502381196756812
 97
        0
 75
     0
 76
     1
 98
        0
  0
CIRCLE
  5
15A
330
157
100
AcDbEntity
  8
SK2
  6
Continuous
 62
     7
100
AcDbCircle
 10
0.0
 20
0.0
 30
0.0
 40
0.4502381196756812
  0
LINE
  5
15B
330
157
100
AcDbEntity
  8
SK1
  6
Continuous
100
AcDbLine
 10
-0.4502381197
 20
0.0
 30
0.0
 11
0.4502381197
 21
0.0
 31
0.0
  0
LINE
  5
15C
330
157
100
AcDbEntity
  8
SK1
  6
Continuous
100
AcDbLine
 10
0.0
 20
0.4502381197
 30
0.0
 11
0.0
 21
-0.4502381197
 31
0.0
  0
POINT
  5
15D
330
157
100
AcDbEntity
  8
SK2
  6
Continuous
 62
     7
100
AcDbPoint
 10
0.0
 20
0.0
 30
0.0
  0
POINT
  5
15E
330
157
100
AcDbEntity
  8
SK2
  6
Continuous
 62
     7
100
AcDbPoint
 10
0.0
 20
0.0
 30
0.0
  0
ENDBLK
  5
160
330
157
100
AcDbEntity
  8
0
100
AcDbBlockEnd
  0
BLOCK
  5
16B
330
163
100
AcDbEntity
  8
0
100
AcDbBlockBegin
  2
DMBLK138
 70
     0
 10
0.0
 20
0.0
 30
0.0
  3
DMBLK138
  1

  0
HATCH
  5
164
330
163
100
AcDbEntity
  8
SK2
  6
Continuous
 62
   136
100
AcDbHatch
 10
0.0
 20
0.0
 30
0.0
210
0.0
220
0.0
230
1.0
  2
SOLID
 70
     1
 71
     0
 91
        1
 92
        1
 93
        3
 72
     1
 10
24.85354880514245
 20
-11.44000000826273
 11
24.27021545380354
 21
-7.939999900229306
 72
     1
 10
24.27021545380354
 20
-7.939999900229306
 11
23.68688210246464
 21
-11.44000000826273
 72
     1
 10
23.68688210246464
 20
-11.44000000826273
 11
24.85354880514245
 21
-11.44000000826273
 97
        0
 75
     0
 76
     1
 98
        0
  0
HATCH
  5
165
330
163
100
AcDbEntity
  8
SK2
  6
Continuous
 62
   136
100
AcDbHatch
 10
0.0
 20
0.0
 30
0.0
210
0.0
220
0.0
230
1.0
  2
SOLID
 70
     1
 71
     0
 91
        1
 92
        1
 93
        3
 72
     1
 10
24.85354880514245
 20
11.44000020780413
 11
23.68688210246464
 21
11.44000020780413
 72
     1
 10
23.68688210246464
 20
11.44000020780413
 11
24.27021545380354
 21
7.94000009977071
 72
     1
 10
24.27021545380354
 20
7.94000009977071
 11
24.85354880514245
 21
11.44000020780413
 97
        0
 75
     0
 76
     1
 98
        0
  0
LINE
  5
166
330
163
100
AcDbEntity
  8
SK2
  6
Continuous
 62
   136
100
AcDbLine
 10
14.26
 20
-7.9399999002
 30
0.0
 11
26.0202155078
 21
-7.9399999002
 31
0.0
  0
LINE
  5
167
330
163
100
AcDbEntity
  8
SK2
  6
Continuous
 62
   136
100
AcDbLine
 10
14.26
 20
7.9400000998
 30
0.0
 11
26.0202155078
 21
7.9400000998
 31
0.0
  0
LINE
  5
168
330
163
100
AcDbEntity
  8
SK2
  6
Continuous
 62
   136
100
AcDbLine
 10
24.2702154538
 20
-14.9400001163
 30
0.0
 11
24.2702154538
 21
14.9399992307
 31
0.0
  0
TEXT
  5
169
330
163
100
AcDbEntity
  8
SK2
  6
Continuous
 62
   136
100
AcDbText
 10
23.3952154538
 20
-2.2193181589
 30
0.0
 40
3.5
  1
15,88
 50
90.0
  7
SEACAD_Solid_Edge_ISO
 11
19.8952154538
 21
-2.2193181589
 31
0.0
100
AcDbText
 73
     3
  0
TEXT
  5
16A
330
163
100
AcDbEntity
  8
SK2
  6
Continuous
 62
   136
100
AcDbText
 10
23.3952154538
 20
-6.2920454317
 30
0.0
 40
3.5
  1
ø
 50
90.0
  7
SEACAD_Solid_Edge_ISO
 11
19.8952154538
 21
-6.2920454317
 31
0.0
100
AcDbText
 73
     3
  0
ENDBLK
  5
16C
330
163
100
AcDbEntity
  8
0
100
AcDbBlockEnd
  0
BLOCK
  5
175
330
16E
100
AcDbEntity
  8
0
100
AcDbBlockBegin
  2
DMBLK139
 70
     0
 10
0.0
 20
0.0
 30
0.0
  3
DMBLK139
  1

  0
HATCH
  5
16F
330
16E
100
AcDbEntity
  8
SK2
  6
Continuous
 62
   136
100
AcDbHatch
 10
0.0
 20
0.0
 30
0.0
210
0.0
220
0.0
230
1.0
  2
SOLID
 70
     1
 71
     0
 91
        1
 92
        1
 93
        3
 72
     1
 10
3.500000108033426
 20
-28.93762981938878
 11
3.500000108033426
 21
-27.77096311671097
 72
     1
 10
3.500000108033426
 20
-27.77096311671097
 11
0.0000000000000071
 21
-28.35429646804988
 72
     1
 10
0.0000000000000069
 20
-28.35429646804988
 11
3.500000108033426
 21
-28.93762981938878
 97
        0
 75
     0
 76
     1
 98
        0
  0
HATCH
  5
170
330
16E
100
AcDbEntity
  8
SK2
  6
Continuous
 62
   136
100
AcDbHatch
 10
0.0
 20
0.0
 30
0.0
210
0.0
220
0.0
230
1.0
  2
SOLID
 70
     1
 71
     0
 91
        1
 92
        1
 93
        3
 72
     1
 10
11.15999976173044
 20
-28.93762981938878
 11
14.65999986976386
 21
-28.35429646804988
 72
     1
 10
14.65999986976386
 20
-28.35429646804988
 11
11.15999976173044
 21
-27.77096311671097
 72
     1
 10
11.15999976173044
 20
-27.77096311671097
 11
11.15999976173044
 21
-28.93762981938878
 97
        0
 75
     0
 76
     1
 98
        0
  0
LINE
  5
171
330
16E
100
AcDbEntity
  8
SK2
  6
Continuous
 62
   136
100
AcDbLine
 10
0.0
 20
-19.9996745287
 30
0.0
 11
0.0
 21
-30.1042965221
 31
0.0
  0
LINE
  5
172
330
16E
100
AcDbEntity
  8
SK2
  6
Continuous
 62
   136
100
AcDbLine
 10
14.66
 20
-15.9778492591
 30
0.0
 11
14.66
 21
-30.1042965221
 31
0.0
  0
LINE
  5
173
330
16E
100
AcDbEntity
  8
SK2
  6
Continuous
 62
   136
100
AcDbLine
 10
0.0
 20
-28.354296468
 30
0.0
 11
14.6599998698
 21
-28.354296468
 31
0.0
  0
TEXT
  5
174
330
16E
100
AcDbEntity
  8
SK2
  6
Continuous
 62
   136
100
AcDbText
 10
3.114090844
 20
-27.479296468
 30
0.0
 40
3.5
  1
14,66
  7
SEACAD_Solid_Edge_ISO
 11
3.114090844
 21
-23.979296468
 31
0.0
100
AcDbText
 73
     3
  0
ENDBLK
  5
176
330
16E
100
AcDbEntity
  8
0
100
AcDbBlockEnd
  0
BLOCK
  5
180
330
178
100
AcDbEntity
  8
0
100
AcDbBlockBegin
  2
DMBLK140
 70
     0
 10
0.0
 20
0.0
 30
0.0
  3
DMBLK140
  1

  0
HATCH
  5
179
330
178
100
AcDbEntity
  8
SK2
  6
Continuous
 62
   136
100
AcDbHatch
 10
0.0
 20
0.0
 30
0.0
210
0.0
220
0.0
230
1.0
  2
SOLID
 70
     1
 71
     0
 91
        1
 92
        1
 93
        3
 72
     1
 10
-41.04175923081736
 20
16.49967462019676
 11
-39.87509252813955
 21
16.49967462019676
 72
     1
 10
-39.87509252813955
 20
16.49967462019676
 11
-40.45842587947845
 21
19.99967472823018
 72
     1
 10
-40.45842587947845
 20
19.99967472823018
 11
-41.04175923081736
 21
16.49967462019676
 97
        0
 75
     0
 76
     1
 98
        0
  0
HATCH
  5
17A
330
178
100
AcDbEntity
  8
SK2
  6
Continuous
 62
   136
100
AcDbHatch
 10
0.0
 20
0.0
 30
0.0
210
0.0
220
0.0
230
1.0
  2
SOLID
 70
     1
 71
     0
 91
        1
 92
        1
 93
        3
 72
     1
 10
-41.04175923081736
 20
-16.4996760691548
 11
-40.45842587947845
 21
-19.99967617718822
 72
     1
 10
-40.45842587947845
 20
-19.99967617718822
 11
-39.87509252813955
 21
-16.4996760691548
 72
     1
 10
-39.87509252813955
 20
-16.4996760691548
 11
-41.04175923081736
 21
-16.4996760691548
 97
        0
 75
     0
 76
     1
 98
        0
  0
LINE
  5
17B
330
178
100
AcDbEntity
  8
SK2
  6
Continuous
 62
   136
100
AcDbLine
 10
0.0
 20
19.9996747282
 30
0.0
 11
-42.2084259335
 21
19.9996747282
 31
0.0
  0
LINE
  5
17C
330
178
100
AcDbEntity
  8
SK2
  6
Continuous
 62
   136
100
AcDbLine
 10
0.0
 20
-19.9996745287
 30
0.0
 11
-42.2084259335
 21
-19.9996745287
 31
0.0
  0
LINE
  5
17D
330
178
100
AcDbEntity
  8
SK2
  6
Continuous
 62
   136
100
AcDbLine
 10
-40.4584258795
 20
19.9996747282
 30
0.0
 11
-40.4584258795
 21
-19.9996761772
 31
0.0
  0
TEXT
  5
17E
330
178
100
AcDbEntity
  8
SK2
  6
Continuous
 62
   136
100
AcDbText
 10
-41.3334258795
 20
-0.0318189063
 30
0.0
 40
3.5
  1
40
 50
90.0
  7
SEACAD_Solid_Edge_ISO
 11
-44.8334258795
 21
-0.0318189063
 31
0.0
100
AcDbText
 73
     3
  0
TEXT
  5
17F
330
178
100
AcDbEntity
  8
SK2
  6
Continuous
 62
   136
100
AcDbText
 10
-41.3334258795
 20
-4.104546179
 30
0.0
 40
3.5
  1
ø
 50
90.0
  7
SEACAD_Solid_Edge_ISO
 11
-44.8334258795
 21
-4.104546179
 31
0.0
100
AcDbText
 73
     3
  0
ENDBLK
  5
181
330
178
100
AcDbEntity
  8
0
100
AcDbBlockEnd
  0
ENDSEC
  0
SECTION
  2
ENTITIES
  0
LINE
  5
40
330
1F
100
AcDbEntity
  8
SK1
  6
Continuous
100
AcDbLine
 10
-30.9095865505
 20
-10.7109911853
 30
0.0
 11
-30.9095865505
 21
-0.4999999002
 31
0.0
  0
LINE
  5
41
330
1F
100
AcDbEntity
  8
SK1
  6
Continuous
100
AcDbLine
 10
-31.34
 20
-10.3606940173
 30
0.0
 11
-31.34
 21
-0.4999999002
 31
0.0
  0
SPLINE
  5
44
330
1F
100
AcDbEntity
  8
SK3
100
AcDbSpline
210
0.0
220
0.0
230
1.0
 70
     8
 71
     3
 72
    10
 73
     6
 74
     0
 42
0.00000001803855
 43
0.0000000001
 12
1.0
 22
0.0
 32
0.0
 13
1.0
 23
0.0
 33
0.0
 40
0.0
 40
0.0
 40
0.0
 40
0.0
 40
0.5
 40
0.5
 40
1.0
 40
1.0
 40
1.0
 40
1.0
 10
-31.34000000000448
 20
-6.240216182478229
 30
0.0
 10
-31.33999999999981
 20
-6.166391335721157
 30
0.0
 10
-31.29765256306301
 20
-6.092933900404932
 30
0.0
 10
-31.14851386579192
 20
-5.98709336470249
 30
0.0
 10
-31.04574959916861
 20
-5.956838041751887
 30
0.0
 10
-30.94
 20
-5.956838041752159
 30
0.0
  0
SPLINE
  5
45
330
1F
100
AcDbEntity
  8
SK3
100
AcDbSpline
210
0.0
220
0.0
230
1.0
 70
     8
 71
     3
 72
    10
 73
     6
 74
     0
 42
0.00000001803855
 43
0.0000000001
 12
1.0
 22
0.0
 32
0.0
 13
1.0
 23
0.0
 33
0.0
 40
0.0
 40
0.0
 40
0.0
 40
0.0
 40
0.5
 40
0.5
 40
1.0
 40
1.0
 40
1.0
 40
1.0
 10
-31.34000000000448
 20
-5.533109401291683
 30
0.0
 10
-31.33999999999981
 20
-5.459284554534608
 30
0.0
 10
-31.29765256306301
 20
-5.385827119218384
 30
0.0
 10
-31.14851386579192
 20
-5.279986583515943
 30
0.0
 10
-31.04574959916861
 20
-5.249731260565339
 30
0.0
 10
-30.94
 20
-5.249731260565612
 30
0.0
  0
SPLINE
  5
46
330
1F
100
AcDbEntity
  8
SK1
  6
Continuous
100
AcDbSpline
210
0.0
220
0.0
230
1.0
 70
     8
 71
     3
 72
    10
 73
     6
 74
     0
 42
0.0000000161503712
 43
0.0000000001
 12
1.0
 22
0.0
 32
0.0
 13
1.0
 23
0.0
 33
0.0
 40
0.0
 40
0.0
 40
0.0
 40
0.0
 40
0.5
 40
0.5
 40
1.0
 40
1.0
 40
1.0
 40
1.0
 10
-31.33999999999998
 20
-10.36069401730509
 30
0.0
 10
-31.33999999999999
 20
-10.44491262337391
 30
0.0
 10
-31.29542015981368
 20
-10.52915098276765
 30
0.0
 10
-31.13972113835961
 20
-10.65603640050034
 30
0.0
 10
-31.02878034044548
 20
-10.69913997341217
 30
0.0
 10
-30.90958655048001
 20
-10.71099118529606
 30
0.0
  0
SPLINE
  5
47
330
1F
100
AcDbEntity
  8
SK1
  6
Continuous
100
AcDbSpline
210
0.0
220
0.0
230
1.0
 70
     8
 71
     3
 72
    11
 73
     7
 74
     0
 42
0.0000000003544773
 43
0.0000000001
 12
1.0
 22
0.0
 32
0.0
 13
1.0
 23
0.0
 33
0.0
 40
0.0
 40
0.0
 40
0.0
 40
0.0
 40
0.9695717939571193
 40
0.9695717939571193
 40
0.9695717939571193
 40
1.0
 40
1.0
 40
1.0
 40
1.0
 10
-30.90958655048001
 20
-10.71099118529606
 30
0.0
 10
-21.83694658167206
 20
-11.61306652545767
 30
0.0
 10
-12.76428551794339
 20
-12.51503578545759
 30
0.0
 10
-3.691613755690049
 20
-13.41695122957582
 30
0.0
 10
-3.406884839813176
 20
-13.44525616701275
 30
0.0
 10
-3.122155912728138
 20
-13.47356104807636
 30
0.0
 10
-2.83742697463981
 20
-13.5018658737968
 30
0.0
  0
SPLINE
  5
48
330
1F
100
AcDbEntity
  8
SK1
  6
Continuous
100
AcDbSpline
210
0.0
220
0.0
230
1.0
 70
     8
 71
     3
 72
    10
 73
     6
 74
     0
 42
0.0000000161503712
 43
0.0000000001
 12
1.0
 22
0.0
 32
0.0
 13
1.0
 23
0.0
 33
0.0
 40
0.0
 40
0.0
 40
0.0
 40
0.0
 40
0.5
 40
0.5
 40
1.0
 40
1.0
 40
1.0
 40
1.0
 10
-31.33999999999998
 20
-11.06780079849164
 30
0.0
 10
-31.34000000000001
 20
-11.15201940456045
 30
0.0
 10
-31.29542015981368
 20
-11.23625776395419
 30
0.0
 10
-31.13972113835962
 20
-11.36314318168688
 30
0.0
 10
-31.02878034044549
 20
-11.40624675459872
 30
0.0
 10
-30.90958655048001
 20
-11.41809796648261
 30
0.0
  0
SPLINE
  5
49
330
1F
100
AcDbEntity
  8
SK1
  6
Continuous
100
AcDbSpline
210
0.0
220
0.0
230
1.0
 70
     8
 71
     3
 72
    11
 73
     7
 74
     0
 42
0.0000000003544773
 43
0.0000000001
 12
1.0
 22
0.0
 32
0.0
 13
1.0
 23
0.0
 33
0.0
 40
0.0
 40
0.0
 40
0.0
 40
0.0
 40
0.9695717939571273
 40
0.9695717939571273
 40
0.9695717939571273
 40
1.0
 40
1.0
 40
1.0
 40
1.0
 10
-30.90958655048001
 20
-11.41809796648261
 30
0.0
 10
-21.83694658167206
 20
-12.32017330664422
 30
0.0
 10
-12.76428551794339
 20
-13.22214256664414
 30
0.0
 10
-3.691613755690049
 20
-14.12405801076237
 30
0.0
 10
-3.406884839813256
 20
-14.15236294819929
 30
0.0
 10
-3.122155912728294
 20
-14.18066782926289
 30
0.0
 10
-2.837426974640043
 20
-14.20897265498333
 30
0.0
  0
LINE
  5
4A
330
1F
100
AcDbEntity
  8
SK1
  6
Continuous
100
AcDbLine
 10
-31.34
 20
-10.3606940173
 30
0.0
 11
-31.34
 21
-11.0678007985
 31
0.0
  0
SPLINE
  5
4B
330
1F
100
AcDbEntity
  8
SK3
100
AcDbSpline
210
0.0
220
0.0
230
1.0
 70
     8
 71
     3
 72
    11
 73
     7
 74
     0
 42
0.0000002539708482
 43
0.0000000001
 12
1.0
 22
0.0
 32
0.0
 13
1.0
 23
0.0
 33
0.0
 40
0.0
 40
0.0
 40
0.0
 40
0.0
 40
0.8031108921348625
 40
0.8031108921348625
 40
0.8031108921348625
 40
1.0
 40
1.0
 40
1.0
 40
1.0
 10
-26.25822136160899
 20
6.487894083454646
 30
0.0
 10
-26.26430880693018
 20
6.479214504834744
 30
0.0
 10
-26.27008406311969
 20
6.470376866499974
 30
0.0
 10
-26.27552176486478
 20
6.461404149217773
 30
0.0
 10
-26.27685615708212
 20
6.459202277053567
 30
0.0
 10
-26.27817203892338
 20
6.456989170962521
 30
0.0
 10
-26.27946918476254
 20
6.454765316214232
 30
0.0
  0
LINE
  5
4C
330
1F
100
AcDbEntity
  8
SK3
100
AcDbLine
 10
-0.6370702983
 20
-5.9568380418
 30
0.0
 11
-30.94
 21
-5.9568380418
 31
0.0
  0
ELLIPSE
  5
4D
330
1F
100
AcDbEntity
  8
SK1
  6
Continuous
100
AcDbEllipse
 10
-74.714437961
 20
-0.353553291
 30
0.0
 11
74.49999999898323
 21
2.712482668431925E-10
 31
0.0
210
0.0
220
0.0
230
1.0
 40
0.7071067812
 41
-0.2661445757445424
 42
-0.2536239317259419
  0
SPLINE
  5
4E
330
1F
100
AcDbEntity
  8
SK3
100
AcDbSpline
210
0.0
220
0.0
230
1.0
 70
     8
 71
     3
 72
    35
 73
    31
 74
     0
 42
0.0000000073594167
 43
0.0000000001
 12
1.0
 22
0.0
 32
0.0
 13
1.0
 23
0.0
 33
0.0
 40
0.0
 40
0.0
 40
0.0
 40
0.0
 40
0.1077811479559761
 40
0.1077811479559761
 40
0.1077811479559761
 40
0.2155916358279718
 40
0.2155916358279718
 40
0.2155916358279718
 40
0.3229968525222078
 40
0.3229968525222078
 40
0.3229968525222078
 40
0.4301854251017742
 40
0.4301854251017742
 40
0.4301854251017742
 40
0.5000090712310215
 40
0.5000090712310215
 40
0.5000090712310215
 40
0.6071907309222131
 40
0.6071907309222131
 40
0.6071907309222131
 40
0.7143732371815428
 40
0.7143732371815428
 40
0.7143732371815428
 40
0.821541364965555
 40
0.821541364965555
 40
0.821541364965555
 40
0.9287528651371195
 40
0.9287528651371195
 40
0.9287528651371195
 40
1.0
 40
1.0
 40
1.0
 40
1.0
 10
-0.6370702982504174
 20
-5.956838041752159
 30
0.0
 10
-0.5808535860426685
 20
-5.956838041752159
 30
0.0
 10
-0.5238586948305979
 20
-5.950462776990928
 30
0.0
 10
-0.470801569100723
 20
-5.938127857474998
 30
0.0
 10
-0.4177355694339555
 20
-5.925790874912948
 30
0.0
 10
-0.3671460591879814
 20
-5.907141263801265
 30
0.0
 10
-0.3232668124006563
 20
-5.883533387493338
 30
0.0
 10
-0.27954936617384
 20
-5.860012562990051
 30
0.0
 10
-0.2412833216271157
 20
-5.830910372687686
 30
0.0
 10
-0.2116466032684259
 20
-5.798435627529186
 30
0.0
 10
-0.1820680165495834
 20
-5.766024580725099
 30
0.0
 10
-0.1602661138244335
 20
-5.729351748099599
 30
0.0
 10
-0.1480352570929159
 20
-5.691311363180925
 30
0.0
 10
-0.1400025062242398
 20
-5.666327918299848
 30
0.0
 10
-0.1359129029036166
 20
-5.640391851696435
 30
0.0
 10
-0.1359129029036166
 20
-5.614427742850492
 30
0.0
 10
-0.1359129029036166
 20
-5.57489655701565
 30
0.0
 10
-0.1455441146076715
 20
-5.53437976156084
 30
0.0
 10
-0.1640158495301632
 20
-5.496299896628958
 30
0.0
 10
-0.1824876687263385
 20
-5.458219857965131
 30
0.0
 10
-0.210311112893203
 20
-5.421532817528123
 30
0.0
 10
-0.2451924006527991
 20
-5.389449631810671
 30
0.0
 10
-0.2800694334162812
 20
-5.357370359762679
 30
0.0
 10
-0.3229644818097781
 20
-5.329020107907382
 30
0.0
 10
-0.3703260302873168
 20
-5.306935046128766
 30
0.0
 10
-0.4177087680603611
 20
-5.284840103615348
 30
0.0
 10
-0.4708614300271575
 20
-5.268416774027503
 30
0.0
 10
-0.5253928377478099
 20
-5.259125116319542
 30
0.0
 10
-0.5619194471173893
 20
-5.252901313089793
 30
0.0
 10
-0.5996109040722792
 20
-5.249731260565612
 30
0.0
 10
-0.6370702982504174
 20
-5.249731260565612
 30
0.0
  0
SPLINE
  5
4F
330
1F
100
AcDbEntity
  8
SK1
  6
Continuous
100
AcDbSpline
210
0.0
220
0.0
230
1.0
 70
     8
 71
     3
 72
    35
 73
    31
 74
     0
 42
0.0000000073733396
 43
0.0000000001
 12
1.0
 22
0.0
 32
0.0
 13
1.0
 23
0.0
 33
0.0
 40
0.0
 40
0.0
 40
0.0
 40
0.0
 40
0.1083835106362504
 40
0.1083835106362504
 40
0.1083835106362504
 40
0.2168004354268567
 40
0.2168004354268567
 40
0.2168004354268567
 40
0.3247144655140164
 40
0.3247144655140164
 40
0.3247144655140164
 40
0.4319468106745892
 40
0.4319468106745892
 40
0.4319468106745892
 40
0.5000278904991833
 40
0.5000278904991833
 40
0.5000278904991833
 40
0.606698716295246
 40
0.606698716295246
 40
0.606698716295246
 40
0.7133571261345989
 40
0.7133571261345989
 40
0.7133571261345989
 40
0.820214489094851
 40
0.820214489094851
 40
0.820214489094851
 40
0.9276015695245903
 40
0.9276015695245903
 40
0.9276015695245903
 40
1.0
 40
1.0
 40
1.0
 40
1.0
 10
-2.83742697463981
 20
-13.5018658737968
 30
0.0
 10
-2.781353505827956
 20
-13.50744012196744
 30
0.0
 10
-2.724540069271562
 20
-13.52014952813855
 30
0.0
 10
-2.67167948139415
 20
-13.53895145883443
 30
0.0
 10
-2.618809405157442
 20
-13.55775676443553
 30
0.0
 10
-2.568431588171344
 20
-13.58318024281558
 30
0.0
 10
-2.524772936324048
 20
-13.61306286673424
 30
0.0
 10
-2.481316214494305
 20
-13.64280727752635
 30
0.0
 10
-2.443310263976598
 20
-13.67779486341096
 30
0.0
 10
-2.413961301953555
 20
-13.71503062023158
 30
0.0
 10
-2.384794825579743
 20
-13.7520348529781
 30
0.0
 10
-2.363368357086435
 20
-13.79228292909459
 30
0.0
 10
-2.351483492708448
 20
-13.83236173401333
 30
0.0
 10
-2.343873044596521
 20
-13.85802611313633
 30
0.0
 10
-2.339999999999995
 20
-13.88399567576563
 30
0.0
 10
-2.339999999999995
 20
-13.90936238876861
 30
0.0
 10
-2.339999999999995
 20
-13.94877362834945
 30
0.0
 10
-2.349503685014232
 20
-13.98760714993605
 30
0.0
 10
-2.367717853442714
 20
-14.02267223424907
 30
0.0
 10
-2.385930848651678
 20
-14.05773505993351
 30
0.0
 10
-2.413352596450865
 20
-14.08999752671254
 30
0.0
 10
-2.447706302118133
 20
-14.1168811317981
 30
0.0
 10
-2.482125522274295
 20
-14.14381600546189
 30
0.0
 10
-2.524443596504305
 20
-14.16609483503672
 30
0.0
 10
-2.571172119378611
 20
-14.18200307256331
 30
0.0
 10
-2.618131515030219
 20
-14.19798990831544
 30
0.0
 10
-2.670826602849032
 20
-14.20798631363733
 30
0.0
 10
-2.724938837048121
 20
-14.21127406855797
 30
0.0
 10
-2.761701213132895
 20
-14.21350767958246
 30
0.0
 10
-2.799675567459897
 20
-14.21272551202732
 30
0.0
 10
-2.837426974640043
 20
-14.20897265498333
 30
0.0
  0
LINE
  5
50
330
1F
100
AcDbEntity
  8
SK3
100
AcDbLine
 10
-0.6370702983
 20
-5.2497312606
 30
0.0
 11
-30.94
 21
-5.2497312606
 31
0.0
  0
SPLINE
  5
51
330
1F
100
AcDbEntity
  8
SK3
100
AcDbSpline
210
0.0
220
0.0
230
1.0
 70
     8
 71
     3
 72
    10
 73
     6
 74
     0
 42
0.0000000155050341
 43
0.0000000001
 12
1.0
 22
0.0
 32
0.0
 13
1.0
 23
0.0
 33
0.0
 40
0.0
 40
0.0
 40
0.0
 40
0.0
 40
0.5
 40
0.5
 40
1.0
 40
1.0
 40
1.0
 40
1.0
 10
-31.34000000000448
 20
-8.324998398727152
 30
0.0
 10
-31.33999999999981
 20
-8.220594299203183
 30
0.0
 10
-31.29765256306301
 20
-8.116709797921834
 30
0.0
 10
-31.14851386579192
 20
-7.967028676882607
 30
0.0
 10
-31.04574959916861
 20
-7.924241188831885
 30
0.0
 10
-30.94
 20
-7.924241188832269
 30
0.0
  0
LINE
  5
52
330
1F
100
AcDbEntity
  8
SK1
  6
Continuous
100
AcDbLine
 10
-31.34
 20
-15.1522340362
 30
0.0
 11
-31.34
 21
-11.0678007985
 31
0.0
  0
LINE
  5
53
330
1F
100
AcDbEntity
  8
SK1
  6
Continuous
100
AcDbLine
 10
-30.9095865505
 20
-15.647629042
 30
0.0
 11
-30.9095865505
 21
-11.4180979665
 31
0.0
  0
SPLINE
  5
54
330
1F
100
AcDbEntity
  8
SK1
  6
Continuous
100
AcDbSpline
210
0.0
220
0.0
230
1.0
 70
     8
 71
     3
 72
    10
 73
     6
 74
     0
 42
0.000000013683103
 43
0.0000000001
 12
1.0
 22
0.0
 32
0.0
 13
1.0
 23
0.0
 33
0.0
 40
0.0
 40
0.0
 40
0.0
 40
0.0
 40
0.5
 40
0.5
 40
1.0
 40
1.0
 40
1.0
 40
1.0
 10
-31.33999999999998
 20
-15.15223403619703
 30
0.0
 10
-31.34000000000001
 20
-15.2713371311037
 30
0.0
 10
-31.29542015981368
 20
-15.39046816143038
 30
0.0
 10
-31.13972113835962
 20
-15.56991124005532
 30
0.0
 10
-31.02878034044549
 20
-15.63086889745398
 30
0.0
 10
-30.90958655048001
 20
-15.64762904203074
 30
0.0
  0
SPLINE
  5
55
330
1F
100
AcDbEntity
  8
SK1
  6
Continuous
100
AcDbSpline
210
0.0
220
0.0
230
1.0
 70
     8
 71
     3
 72
    11
 73
     7
 74
     0
 42
0.0000000003527553
 43
0.0000000001
 12
1.0
 22
0.0
 32
0.0
 13
1.0
 23
0.0
 33
0.0
 40
0.0
 40
0.0
 40
0.0
 40
0.0
 40
0.9695717939571193
 40
0.9695717939571193
 40
0.9695717939571193
 40
1.0
 40
1.0
 40
1.0
 40
1.0
 10
-30.90958655048001
 20
-15.64762904203074
 30
0.0
 10
-21.83694658167206
 20
-16.92335622236961
 30
0.0
 10
-12.76428551794339
 20
-18.19893338270512
 30
0.0
 10
-3.691613755690049
 20
-19.47443443589087
 30
0.0
 10
-3.406884839813176
 20
-19.51446366229631
 30
0.0
 10
-3.122155912728138
 20
-19.55449280897782
 30
0.0
 10
-2.83742697463981
 20
-19.59452187739227
 30
0.0
  0
SPLINE
  5
56
330
1F
100
AcDbEntity
  8
SK3
100
AcDbSpline
210
0.0
220
0.0
230
1.0
 70
     8
 71
     3
 72
    11
 73
     7
 74
     0
 42
0.0000003107879559
 43
0.0000000001
 12
1.0
 22
0.0
 32
0.0
 13
1.0
 23
0.0
 33
0.0
 40
0.0
 40
0.0
 40
0.0
 40
0.0
 40
0.5223711015673634
 40
0.5223711015673634
 40
0.5223711015673634
 40
1.0
 40
1.0
 40
1.0
 40
1.0
 10
-26.32509162608306
 20
15.10398269879214
 30
0.0
 10
-26.32830420064559
 20
15.09886169590529
 30
0.0
 10
-26.33100640144519
 20
15.09375365129916
 30
0.0
 10
-26.33317334679418
 20
15.08868207742878
 30
0.0
 10
-26.33517927042344
 20
15.08398736287636
 30
0.0
 10
-26.33674700812942
 20
15.07930167146705
 30
0.0
 10
-26.33787142483492
 20
15.0746446568713
 30
0.0
  0
ARC
  5
57
330
1F
100
AcDbEntity
  8
SK3
100
AcDbCircle
 10
-0.636614984
 20
-15.8865262182
 30
0.0
 40
7.962285042383364
100
AcDbArc
 50
86.3946207511
 51
90.0032763943
  0
SPLINE
  5
58
330
1F
100
AcDbEntity
  8
SK1
  6
Continuous
100
AcDbSpline
210
0.0
220
0.0
230
1.0
 70
     8
 71
     3
 72
    23
 73
    19
 74
     0
 42
0.0000000195584633
 43
0.0000000001
 12
1.0
 22
0.0
 32
0.0
 13
1.0
 23
0.0
 33
0.0
 40
0.0
 40
0.0
 40
0.0
 40
0.0
 40
0.1946973459634917
 40
0.1946973459634917
 40
0.1946973459634917
 40
0.3894547162529397
 40
0.3894547162529397
 40
0.3894547162529397
 40
0.5833086994543979
 40
0.5833086994543979
 40
0.5833086994543979
 40
0.7759381214176093
 40
0.7759381214176093
 40
0.7759381214176093
 40
0.898237219078908
 40
0.898237219078908
 40
0.898237219078908
 40
1.0
 40
1.0
 40
1.0
 40
1.0
 10
-2.83742697463981
 20
-19.59452187739227
 30
0.0
 10
-2.781353505827956
 20
-19.60240505475522
 30
0.0
 10
-2.724540069271562
 20
-19.61064707061875
 30
0.0
 10
-2.67167948139415
 20
-19.61852798562553
 30
0.0
 10
-2.618809405157442
 20
-19.62641031523922
 30
0.0
 10
-2.568431588171344
 20
-19.63414599900696
 30
0.0
 10
-2.524772936324048
 20
-19.64098494063191
 30
0.0
 10
-2.481316214494305
 20
-19.64779225078076
 30
0.0
 10
-2.443310263976598
 20
-19.65389448218996
 30
0.0
 10
-2.413961301953555
 20
-19.6586595366337
 30
0.0
 10
-2.384794825579743
 20
-19.66339496297498
 30
0.0
 10
-2.363368357086435
 20
-19.66693614285546
 30
0.0
 10
-2.351483492708448
 20
-19.66890408660806
 30
0.0
 10
-2.343873044596521
 20
-19.6701642552848
 30
0.0
 10
-2.340000000000005
 20
-19.67080897548517
 30
0.0
 10
-2.340000000000005
 20
-19.67080897548517
 30
0.0
 10
-2.340000000000005
 20
-19.67080897548517
 30
0.0
 10
-2.342680309946337
 20
-19.67036181096072
 30
0.0
 10
-2.347922128028882
 20
-19.66949299683997
 30
0.0
  0
LINE
  5
59
330
1F
100
AcDbEntity
  8
SK3
100
AcDbLine
 10
-0.6370702983
 20
-7.9242411888
 30
0.0
 11
-30.94
 21
-7.9242411888
 31
0.0
  0
LINE
  5
5A
330
1F
100
AcDbEntity
  8
SK1
  6
Continuous
100
AcDbLine
 10
7.66
 20
19.1252379826
 30
0.0
 11
7.66
 21
20.5000000998
 31
0.0
  0
LINE
  5
5B
330
1F
100
AcDbEntity
  8
SK1
  6
Continuous
100
AcDbLine
 10
8.0064101615
 20
19.1252379826
 30
0.0
 11
8.0064101615
 21
20.5000000998
 31
0.0
  0
LINE
  5
5C
330
1F
100
AcDbEntity
  8
SK1
  6
Continuous
100
AcDbLine
 10
7.66
 20
19.1252379826
 30
0.0
 11
8.0064101615
 21
19.1252379826
 31
0.0
  0
LINE
  5
5D
330
1F
100
AcDbEntity
  8
SK1
  6
Continuous
100
AcDbLine
 10
7.66
 20
18.7425545502
 30
0.0
 11
8.0064101615
 21
18.7425545502
 31
0.0
  0
LINE
  5
5E
330
1F
100
AcDbEntity
  8
SK1
  6
Continuous
100
AcDbLine
 10
3.0473721046
 20
19.0586570642
 30
0.0
 11
3.0473721046
 21
20.4279549475
 31
0.0
  0
LINE
  5
5F
330
1F
100
AcDbEntity
  8
SK1
  6
Continuous
100
AcDbLine
 10
3.56
 20
18.6468311538
 30
0.0
 11
3.56
 21
19.9823343165
 31
0.0
  0
LINE
  5
60
330
1F
100
AcDbEntity
  8
SK1
  6
Continuous
100
AcDbLine
 10
14.66
 20
15.4414882692
 30
0.0
 11
14.66
 21
16.5142106481
 31
0.0
  0
LINE
  5
61
330
1F
100
AcDbEntity
  8
SK1
  6
Continuous
100
AcDbLine
 10
14.535
 20
15.6416046118
 30
0.0
 11
14.535
 21
16.7307169991
 31
0.0
  0
LINE
  5
62
330
1F
100
AcDbEntity
  8
SK1
  6
Continuous
100
AcDbLine
 10
3.76
 20
16.9071797532
 30
0.0
 11
3.76
 21
18.1000000998
 31
0.0
  0
LINE
  5
63
330
1F
100
AcDbEntity
  8
SK1
  6
Continuous
100
AcDbLine
 10
7.46
 20
18.1000000998
 30
0.0
 11
7.46
 21
16.9071797532
 31
0.0
  0
ARC
  5
64
330
1F
100
AcDbEntity
  8
SK1
  6
Continuous
100
AcDbCircle
 10
3.1211460862
 20
18.242840688
 30
0.0
 40
0.4393708540059058
100
AcDbArc
 50
2.7796156218
 51
99.6662212348
  0
SPLINE
  5
65
330
1F
100
AcDbEntity
  8
SK1
  6
Continuous
100
AcDbSpline
210
0.0
220
0.0
230
1.0
 70
     8
 71
     3
 72
    11
 73
     7
 74
     0
 42
0.0000000003436124
 43
0.0000000001
 12
1.0
 22
0.0
 32
0.0
 13
1.0
 23
0.0
 33
0.0
 40
0.0
 40
0.0
 40
0.0
 40
0.0
 40
0.9513679857892094
 40
0.9513679857892094
 40
0.9513679857892094
 40
1.0
 40
1.0
 40
1.0
 40
1.0
 10
3.047372104567982
 20
18.67597363181592
 30
0.0
 10
-6.104837087369916
 20
17.48726903572106
 30
0.0
 10
-15.25703678338566
 20
16.29850202891892
 30
0.0
 10
-24.40921832114451
 20
15.10961570994558
 30
0.0
 10
-24.87705939766276
 20
15.0488422371914
 30
0.0
 10
-25.34490042498192
 20
14.98806844116132
 30
0.0
 10
-25.81274140129953
 20
14.92729431001737
 30
0.0
  0
ARC
  5
66
330
1F
100
AcDbEntity
  8
SK1
  6
Continuous
100
AcDbCircle
 10
7.4673017035
 20
16.7172172004
 30
0.0
 40
0.1928591514236474
100
AcDbArc
 50
267.8302465761
 51
357.6597358478
  0
LINE
  5
67
330
1F
100
AcDbEntity
  8
SK1
  6
Continuous
100
AcDbLine
 10
7.46
 20
16.5244963208
 30
0.0
 11
3.76
 21
16.5244963208
 31
0.0
  0
ARC
  5
68
330
1F
100
AcDbEntity
  8
SK1
  6
Continuous
100
AcDbCircle
 10
3.7526993084
 20
16.7172182953
 30
0.0
 40
0.1928602072114079
100
AcDbArc
 50
182.3405768779
 51
272.1694406987
  0
SPLINE
  5
69
330
1F
100
AcDbEntity
  8
SK1
  6
Continuous
100
AcDbSpline
210
0.0
220
0.0
230
1.0
 70
     8
 71
     3
 72
     8
 73
     4
 74
     0
 42
0.0000000013513737
 43
0.0000000001
 12
1.0
 22
0.0
 32
0.0
 13
1.0
 23
0.0
 33
0.0
 40
0.0
 40
0.0
 40
0.0
 40
0.0
 40
1.0
 40
1.0
 40
1.0
 40
1.0
 10
8.006410161513777
 20
19.1252379825951
 30
0.0
 10
10.18264327889133
 20
17.96408524770271
 30
0.0
 10
12.35884813568556
 20
16.80288727865878
 30
0.0
 10
14.535
 20
15.64160461175698
 30
0.0
  0
ARC
  5
6A
330
1F
100
AcDbEntity
  8
SK1
  6
Continuous
100
AcDbCircle
 10
14.4315472016
 20
15.4378862419
 30
0.0
 40
0.2284811933219808
100
AcDbArc
 50
0.9033107129
 51
63.0775089603
  0
LINE
  5
6B
330
1F
100
AcDbEntity
  8
SK1
  6
Continuous
100
AcDbLine
 10
14.66
 20
15.4414882692
 30
0.0
 11
14.66
 21
15.0588048368
 31
0.0
  0
ARC
  5
6C
330
1F
100
AcDbEntity
  8
SK3
100
AcDbCircle
 10
14.2743212729
 20
7.8981093151
 30
0.0
 40
0.3859889331257644
100
AcDbArc
 50
267.8736777105
 51
357.7027705551
  0
SPLINE
  5
6D
330
1F
100
AcDbEntity
  8
SK1
  6
Continuous
100
AcDbSpline
210
0.0
220
0.0
230
1.0
 70
     8
 71
     3
 72
     8
 73
     4
 74
     0
 42
0.0000000013513737
 43
0.0000000001
 12
1.0
 22
0.0
 32
0.0
 13
1.0
 23
0.0
 33
0.0
 40
0.0
 40
0.0
 40
0.0
 40
0.0
 40
1.0
 40
1.0
 40
1.0
 40
1.0
 10
8.00641016151377
 20
18.74255455023001
 30
0.0
 10
10.18264327889132
 20
17.58140181533762
 30
0.0
 10
12.35884813568555
 20
16.4202038462937
 30
0.0
 10
14.535
 20
15.25892117939189
 30
0.0
  0
ARC
  5
6E
330
1F
100
AcDbEntity
  8
SK1
  6
Continuous
100
AcDbCircle
 10
14.4315472016
 20
15.0552028096
 30
0.0
 40
0.2284811933219669
100
AcDbArc
 50
0.9033107129
 51
63.0775089603
  0
ARC
  5
6F
330
1F
100
AcDbEntity
  8
SK3
100
AcDbCircle
 10
14.2743212729
 20
7.5154258827
 30
0.0
 40
0.3859889331257627
100
AcDbArc
 50
267.8736777105
 51
357.7027705551
  0
ARC
  5
70
330
1F
100
AcDbEntity
  8
SK1
  6
Continuous
100
AcDbCircle
 10
3.1211460862
 20
18.6255241204
 30
0.0
 40
0.4393708540059033
100
AcDbArc
 50
2.7796156218
 51
99.6662212348
  0
SPLINE
  5
71
330
1F
100
AcDbEntity
  8
SK1
  6
Continuous
100
AcDbSpline
210
0.0
220
0.0
230
1.0
 70
     8
 71
     3
 72
    11
 73
     7
 74
     0
 42
0.0000000003436124
 43
0.0000000001
 12
1.0
 22
0.0
 32
0.0
 13
1.0
 23
0.0
 33
0.0
 40
0.0
 40
0.0
 40
0.0
 40
0.0
 40
0.9513679857892094
 40
0.9513679857892094
 40
0.9513679857892094
 40
1.0
 40
1.0
 40
1.0
 40
1.0
 10
3.047372104567982
 20
19.05865706418101
 30
0.0
 10
-6.104837087369916
 20
17.86995246808615
 30
0.0
 10
-15.25703678338566
 20
16.68118546128401
 30
0.0
 10
-24.40921832114451
 20
15.49229914231067
 30
0.0
 10
-24.87705939766276
 20
15.43152566955649
 30
0.0
 10
-25.34490042498192
 20
15.37075187352641
 30
0.0
 10
-25.81274140129953
 20
15.30997774238247
 30
0.0
  0
LINE
  5
72
330
1F
100
AcDbEntity
  8
SK1
  6
Continuous
100
AcDbLine
 10
7.66
 20
19.1252379826
 30
0.0
 11
7.66
 21
18.7425545502
 31
0.0
  0
ARC
  5
73
330
1F
100
AcDbEntity
  8
SK1
  6
Continuous
100
AcDbCircle
 10
7.4673017035
 20
17.0999006328
 30
0.0
 40
0.1928591514236474
100
AcDbArc
 50
267.8302465761
 51
357.6597358478
  0
LINE
  5
74
330
1F
100
AcDbEntity
  8
SK1
  6
Continuous
100
AcDbLine
 10
7.46
 20
16.9071797532
 30
0.0
 11
3.76
 21
16.9071797532
 31
0.0
  0
ARC
  5
75
330
1F
100
AcDbEntity
  8
SK1
  6
Continuous
100
AcDbCircle
 10
3.7526993084
 20
17.0999017276
 30
0.0
 40
0.1928602072114049
100
AcDbArc
 50
182.3405768779
 51
272.1694406987
  0
LINE
  5
76
330
1F
100
AcDbEntity
  8
SK1
  6
Continuous
100
AcDbLine
 10
3.56
 20
18.2641477214
 30
0.0
 11
3.56
 21
18.6468311538
 31
0.0
  0
LINE
  5
77
330
1F
100
AcDbEntity
  8
SK3
100
AcDbLine
 10
-27.2095759439
 20
7.1297027208
 30
0.0
 11
14.26
 21
7.1297027208
 31
0.0
  0
SPLINE
  5
78
330
1F
100
AcDbEntity
  8
SK3
100
AcDbSpline
210
0.0
220
0.0
230
1.0
 70
     8
 71
     3
 72
    35
 73
    31
 74
     0
 42
0.000000008710599
 43
0.0000000001
 12
1.0
 22
0.0
 32
0.0
 13
1.0
 23
0.0
 33
0.0
 40
0.0
 40
0.0
 40
0.0
 40
0.0
 40
0.1077811479559776
 40
0.1077811479559776
 40
0.1077811479559776
 40
0.2155916358279751
 40
0.2155916358279751
 40
0.2155916358279751
 40
0.3229968525222057
 40
0.3229968525222057
 40
0.3229968525222057
 40
0.430185425101774
 40
0.430185425101774
 40
0.430185425101774
 40
0.500009071231023
 40
0.500009071231023
 40
0.500009071231023
 40
0.6071907309222153
 40
0.6071907309222153
 40
0.6071907309222153
 40
0.7143732371815484
 40
0.7143732371815484
 40
0.7143732371815484
 40
0.8215413649655571
 40
0.8215413649655571
 40
0.8215413649655571
 40
0.9287528651371212
 40
0.9287528651371212
 40
0.9287528651371212
 40
1.0
 40
1.0
 40
1.0
 40
1.0
 10
-27.20957594391142
 20
7.512386153174399
 30
0.0
 10
-27.26579265611917
 20
7.512386153174399
 30
0.0
 10
-27.32278754733125
 20
7.509273681169534
 30
0.0
 10
-27.37584467306112
 20
7.503195623106748
 30
0.0
 10
-27.42891067272789
 20
7.49711654847356
 30
0.0
 10
-27.47950018297387
 20
7.487892911112788
 30
0.0
 10
-27.52337942976119
 20
7.476051372581767
 30
0.0
 10
-27.567096875988
 20
7.464253498600892
 30
0.0
 10
-27.60536292053471
 20
7.449518255528148
 30
0.0
 10
-27.6349996388934
 20
7.432800518492426
 30
0.0
 10
-27.66457822561224
 20
7.416115572856096
 30
0.0
 10
-27.6863801283374
 20
7.396984356420355
 30
0.0
 10
-27.69861098506892
 20
7.376804165858892
 30
0.0
 10
-27.7066437359376
 20
7.363550601793757
 30
0.0
 10
-27.71073333925823
 20
7.34965526236152
 30
0.0
 10
-27.71073333925823
 20
7.335603587910325
 30
0.0
 10
-27.71073333925823
 20
7.314209464302354
 30
0.0
 10
-27.70110212755417
 20
7.291944847518838
 30
0.0
 10
-27.68263039263167
 20
7.270741532278873
 30
0.0
 10
-27.6641585734355
 20
7.249538120302922
 30
0.0
 10
-27.63633512926863
 20
7.228819297020868
 30
0.0
 10
-27.60145384150903
 20
7.210526799838632
 30
0.0
 10
-27.56657680874555
 20
7.192236534067833
 30
0.0
 10
-27.52368176035206
 20
7.175880937974832
 30
0.0
 10
-27.47632021187453
 20
7.163071403317585
 30
0.0
 10
-27.42893747410148
 20
7.150256137745199
 30
0.0
 10
-27.37578481213468
 20
7.140649038040866
 30
0.0
 10
-27.32125340441403
 20
7.135208325414458
 30
0.0
 10
-27.28472679504445
 20
7.131563989185048
 30
0.0
 10
-27.24703533808956
 20
7.129702720809309
 30
0.0
 10
-27.20957594391142
 20
7.129702720809308
 30
0.0
  0
SPLINE
  5
79
330
1F
100
AcDbEntity
  8
SK1
  6
Continuous
100
AcDbSpline
210
0.0
220
0.0
230
1.0
 70
     8
 71
     3
 72
    35
 73
    31
 74
     0
 42
0.0000000083171521
 43
0.0000000001
 12
1.0
 22
0.0
 32
0.0
 13
1.0
 23
0.0
 33
0.0
 40
0.0
 40
0.0
 40
0.0
 40
0.0
 40
0.1164887905971204
 40
0.1164887905971204
 40
0.1164887905971204
 40
0.2332526504150891
 40
0.2332526504150891
 40
0.2332526504150891
 40
0.3454710350269933
 40
0.3454710350269933
 40
0.3454710350269933
 40
0.4508768133906576
 40
0.4508768133906576
 40
0.4508768133906576
 40
0.500311089716375
 40
0.500311089716375
 40
0.500311089716375
 40
0.6001097649478876
 40
0.6001097649478876
 40
0.6001097649478876
 40
0.6997704681629962
 40
0.6997704681629962
 40
0.6997704681629962
 40
0.8015590486597685
 40
0.8015590486597685
 40
0.8015590486597685
 40
0.9086472129647585
 40
0.9086472129647585
 40
0.9086472129647585
 40
1.0
 40
1.0
 40
1.0
 40
1.0
 10
-25.81274140129953
 20
14.92729431001737
 30
0.0
 10
-25.87470466576499
 20
14.91924507159801
 30
0.0
 10
-25.93758349267899
 20
14.91541516571527
 30
0.0
 10
-25.99619050698248
 20
14.91620873444551
 30
0.0
 10
-26.05487585395339
 20
14.91700336383984
 30
0.0
 10
-26.11095949093108
 20
14.92248082278337
 30
0.0
 10
-26.15907542479721
 20
14.93227450032752
 30
0.0
 10
-26.2053154271502
 20
14.94168634451921
 30
0.0
 10
-26.24554710917585
 20
14.95538188263408
 30
0.0
 10
-26.27552176486477
 20
14.9721391410225
 30
0.0
 10
-26.30370407255977
 20
14.98789439162248
 30
0.0
 10
-26.32362977833176
 20
15.00682044760608
 30
0.0
 10
-26.33317334679432
 20
15.02718631570369
 30
0.0
 10
-26.33770471692932
 20
15.03685620876654
 30
0.0
 10
-26.34000000000004
 20
15.04694409704404
 30
0.0
 10
-26.34000000000004
 20
15.05723077641063
 30
0.0
 10
-26.34000000000004
 20
15.0777710074884
 30
0.0
 10
-26.33063565675617
 20
15.099551549949
 30
0.0
 10
-26.31283927784441
 20
15.12077040294358
 30
0.0
 10
-26.29505661800273
 20
15.14197289851329
 30
0.0
 10
-26.26840930163866
 20
15.16318844182848
 30
0.0
 10
-26.23533638667474
 20
15.18285962884381
 30
0.0
 10
-26.20154570662196
 20
15.20295772988566
 30
0.0
 10
-26.16020769354889
 20
15.22197326132723
 30
0.0
 10
-26.11474564606763
 20
15.23868683590102
 30
0.0
 10
-26.06693286140898
 20
15.25626463070451
 30
0.0
 10
-26.0133553252096
 20
15.27175747614572
 30
0.0
 10
-25.95817983860028
 20
15.28423780331006
 30
0.0
 10
-25.91093138061138
 20
15.2949250894574
 30
0.0
 10
-25.86161120142702
 20
15.30362938943292
 30
0.0
 10
-25.81274140129953
 20
15.30997774238247
 30
0.0
  0
LINE
  5
7A
330
1F
100
AcDbEntity
  8
SK3
100
AcDbLine
 10
-27.2095759439
 20
7.5123861532
 30
0.0
 11
14.26
 21
7.5123861532
 31
0.0
  0
ELLIPSE
  5
7B
330
1F
100
AcDbEntity
  8
SK1
  6
Continuous
100
AcDbEllipse
 10
46.8677917285
 20
0.1913418146
 30
0.0
 11
-74.50000000862926
 21
9.021413709481554E-9
 31
0.0
210
0.0
220
0.0
230
1.0
 40
0.9238795325
 41
-0.2214607660547667
 42
-0.2157122810723466
  0
LINE
  5
7C
330
1F
100
AcDbEntity
  8
SK1
  6
Continuous
100
AcDbLine
 10
7.66
 20
8.3046164468
 30
0.0
 11
7.66
 21
18.7425545502
 31
0.0
  0
LINE
  5
7D
330
1F
100
AcDbEntity
  8
SK1
  6
Continuous
100
AcDbLine
 10
8.0064101615
 20
8.3046164468
 30
0.0
 11
8.0064101615
 21
18.7425545502
 31
0.0
  0
LINE
  5
7E
330
1F
100
AcDbEntity
  8
SK1
  6
Continuous
100
AcDbLine
 10
7.66
 20
8.3046164468
 30
0.0
 11
8.0064101615
 21
8.3046164468
 31
0.0
  0
LINE
  5
7F
330
1F
100
AcDbEntity
  8
SK1
  6
Continuous
100
AcDbLine
 10
7.66
 20
7.3807369143
 30
0.0
 11
8.0064101615
 21
7.3807369143
 31
0.0
  0
LINE
  5
80
330
1F
100
AcDbEntity
  8
SK1
  6
Continuous
100
AcDbLine
 10
3.0473721046
 20
8.2770377274
 30
0.0
 11
3.0473721046
 21
18.6759736318
 31
0.0
  0
LINE
  5
81
330
1F
100
AcDbEntity
  8
SK1
  6
Continuous
100
AcDbLine
 10
3.56
 20
8.10645385
 30
0.0
 11
3.56
 21
18.2641477214
 31
0.0
  0
LINE
  5
82
330
1F
100
AcDbEntity
  8
SK1
  6
Continuous
100
AcDbLine
 10
14.66
 20
6.7787573551
 30
0.0
 11
14.66
 21
15.0588048368
 31
0.0
  0
LINE
  5
83
330
1F
100
AcDbEntity
  8
SK1
  6
Continuous
100
AcDbLine
 10
14.535
 20
6.8616482583
 30
0.0
 11
14.535
 21
15.2589211794
 31
0.0
  0
LINE
  5
84
330
1F
100
AcDbEntity
  8
SK1
  6
Continuous
100
AcDbLine
 10
3.76
 20
7.3858666461
 30
0.0
 11
3.76
 21
16.5244963208
 31
0.0
  0
LINE
  5
85
330
1F
100
AcDbEntity
  8
SK1
  6
Continuous
100
AcDbLine
 10
7.46
 20
7.3858666461
 30
0.0
 11
7.46
 21
16.5244963208
 31
0.0
  0
SPLINE
  5
86
330
1F
100
AcDbEntity
  8
SK1
  6
Continuous
100
AcDbSpline
210
0.0
220
0.0
230
1.0
 70
     8
 71
     3
 72
    10
 73
     6
 74
     0
 42
0.000000016919822
 43
0.0000000001
 12
1.0
 22
0.0
 32
0.0
 13
1.0
 23
0.0
 33
0.0
 40
0.0
 40
0.0
 40
0.0
 40
0.0
 40
0.5
 40
0.5
 40
1.0
 40
1.0
 40
1.0
 40
1.0
 10
3.560000000000004
 20
7.18257431747806
 30
0.0
 10
3.560000000000013
 20
7.231945744774189
 30
0.0
 10
3.501773789589541
 20
7.280417174039834
 30
0.0
 10
3.309062237878736
 20
7.344617390451638
 30
0.0
 10
3.175621612071947
 20
7.360057860208788
 30
0.0
 10
3.047372104567982
 20
7.353158194899699
 30
0.0
  0
LINE
  5
87
330
1F
100
AcDbEntity
  8
SK1
  6
Continuous
100
AcDbLine
 10
3.0473721046
 20
7.3531581949
 30
0.0
 11
-25.8127414013
 21
5.8004043788
 31
0.0
  0
SPLINE
  5
88
330
1F
100
AcDbEntity
  8
SK1
  6
Continuous
100
AcDbSpline
210
0.0
220
0.0
230
1.0
 70
     8
 71
     3
 72
    10
 73
     6
 74
     0
 42
0.0000000427823838
 43
0.0000000001
 12
1.0
 22
0.0
 32
0.0
 13
1.0
 23
0.0
 33
0.0
 40
0.0
 40
0.0
 40
0.0
 40
0.0
 40
0.5
 40
0.5
 40
1.0
 40
1.0
 40
1.0
 40
1.0
 10
7.660000000000004
 20
6.538552699903789
 30
0.0
 10
7.660000000000011
 20
6.518591907801323
 30
0.0
 10
7.638792955294786
 20
6.498733299953474
 30
0.0
 10
7.564184838390823
 20
6.470143878811421
 30
0.0
 10
7.512831584001748
 20
6.461987113556977
 30
0.0
 10
7.460000000000004
 20
6.461987113557282
 30
0.0
  0
LINE
  5
89
330
1F
100
AcDbEntity
  8
SK1
  6
Continuous
100
AcDbLine
 10
7.46
 20
6.4619871136
 30
0.0
 11
3.76
 21
6.4619871136
 31
0.0
  0
SPLINE
  5
8A
330
1F
100
AcDbEntity
  8
SK1
  6
Continuous
100
AcDbSpline
210
0.0
220
0.0
230
1.0
 70
     8
 71
     3
 72
    10
 73
     6
 74
     0
 42
0.0000000427888254
 43
0.0000000001
 12
1.0
 22
0.0
 32
0.0
 13
1.0
 23
0.0
 33
0.0
 40
0.0
 40
0.0
 40
0.0
 40
0.0
 40
0.5
 40
0.5
 40
1.0
 40
1.0
 40
1.0
 40
1.0
 10
3.76000000000001
 20
6.461987113557282
 30
0.0
 10
3.707128639963465
 20
6.461987113557287
 30
0.0
 10
3.655412587740159
 20
6.470299118129764
 30
0.0
 10
3.581619368452183
 20
6.498574324664235
 30
0.0
 10
3.559999999999895
 20
6.518574551887399
 30
0.0
 10
3.559999999997624
 20
6.538552699903893
 30
0.0
  0
LINE
  5
8B
330
1F
100
AcDbEntity
  8
SK1
  6
Continuous
100
AcDbLine
 10
8.0064101615
 20
8.3046164468
 30
0.0
 11
14.535
 21
6.8616482583
 31
0.0
  0
SPLINE
  5
8C
330
1F
100
AcDbEntity
  8
SK1
  6
Continuous
100
AcDbSpline
210
0.0
220
0.0
230
1.0
 70
     8
 71
     3
 72
     8
 73
     4
 74
     0
 42
0.0000000587477699
 43
0.0000000001
 12
1.0
 22
0.0
 32
0.0
 13
1.0
 23
0.0
 33
0.0
 40
0.0
 40
0.0
 40
0.0
 40
0.0
 40
1.0
 40
1.0
 40
1.0
 40
1.0
 10
14.535
 20
6.861648258276706
 30
0.0
 10
14.61128728370612
 20
6.844785632170343
 30
0.0
 10
14.66000000000001
 20
6.812292450296161
 30
0.0
 10
14.66000000000001
 20
6.778757355135454
 30
0.0
  0
LINE
  5
8D
330
1F
100
AcDbEntity
  8
SK1
  6
Continuous
100
AcDbLine
 10
14.66
 20
6.7787573551
 30
0.0
 11
14.66
 21
5.8548778226
 31
0.0
  0
SPLINE
  5
8E
330
1F
100
AcDbEntity
  8
SK3
100
AcDbSpline
210
0.0
220
0.0
230
1.0
 70
     8
 71
     3
 72
    10
 73
     6
 74
     0
 42
0.0000000213854157
 43
0.0000000001
 12
1.0
 22
0.0
 32
0.0
 13
1.0
 23
0.0
 33
0.0
 40
0.0
 40
0.0
 40
0.0
 40
0.0
 40
0.5
 40
0.5
 40
1.0
 40
1.0
 40
1.0
 40
1.0
 10
14.66000000000001
 20
3.64777886586592
 30
0.0
 10
14.66000000000001
 20
3.607825146707148
 30
0.0
 10
14.6176525630633
 20
3.568070269187182
 30
0.0
 10
14.46851386579221
 20
3.510789784027521
 30
0.0
 10
14.36574959916874
 20
3.494415721237941
 30
0.0
 10
14.26000000000001
 20
3.494415721238091
 30
0.0
  0
LINE
  5
8F
330
1F
100
AcDbEntity
  8
SK1
  6
Continuous
100
AcDbLine
 10
8.0064101615
 20
7.3807369143
 30
0.0
 11
14.535
 21
5.9377687258
 31
0.0
  0
SPLINE
  5
90
330
1F
100
AcDbEntity
  8
SK1
  6
Continuous
100
AcDbSpline
210
0.0
220
0.0
230
1.0
 70
     8
 71
     3
 72
     8
 73
     4
 74
     0
 42
0.0000000587477699
 43
0.0000000001
 12
1.0
 22
0.0
 32
0.0
 13
1.0
 23
0.0
 33
0.0
 40
0.0
 40
0.0
 40
0.0
 40
0.0
 40
1.0
 40
1.0
 40
1.0
 40
1.0
 10
14.535
 20
5.937768725765419
 30
0.0
 10
14.61128728370612
 20
5.920906099659056
 30
0.0
 10
14.66000000000001
 20
5.888412917784875
 30
0.0
 10
14.66000000000001
 20
5.85487782262417
 30
0.0
  0
SPLINE
  5
91
330
1F
100
AcDbEntity
  8
SK3
100
AcDbSpline
210
0.0
220
0.0
230
1.0
 70
     8
 71
     3
 72
    10
 73
     6
 74
     0
 42
0.0000000213854157
 43
0.0000000001
 12
1.0
 22
0.0
 32
0.0
 13
1.0
 23
0.0
 33
0.0
 40
0.0
 40
0.0
 40
0.0
 40
0.0
 40
0.4999999999999999
 40
0.4999999999999999
 40
1.0
 40
1.0
 40
1.0
 40
1.0
 10
14.66000000000001
 20
2.723899333354631
 30
0.0
 10
14.66000000000001
 20
2.68394561419586
 30
0.0
 10
14.6176525630633
 20
2.644190736675896
 30
0.0
 10
14.46851386579221
 20
2.586910251516232
 30
0.0
 10
14.36574959916874
 20
2.570536188726657
 30
0.0
 10
14.26000000000001
 20
2.570536188726804
 30
0.0
  0
SPLINE
  5
92
330
1F
100
AcDbEntity
  8
SK1
  6
Continuous
100
AcDbSpline
210
0.0
220
0.0
230
1.0
 70
     8
 71
     3
 72
    10
 73
     6
 74
     0
 42
0.000000016919822
 43
0.0000000001
 12
1.0
 22
0.0
 32
0.0
 13
1.0
 23
0.0
 33
0.0
 40
0.0
 40
0.0
 40
0.0
 40
0.0
 40
0.5
 40
0.5
 40
1.0
 40
1.0
 40
1.0
 40
1.0
 10
3.560000000000004
 20
8.106453849989343
 30
0.0
 10
3.560000000000011
 20
8.155825277285473
 30
0.0
 10
3.501773789589534
 20
8.204296706551121
 30
0.0
 10
3.309062237878734
 20
8.268496922962923
 30
0.0
 10
3.175621612071945
 20
8.283937392720073
 30
0.0
 10
3.047372104567982
 20
8.277037727410983
 30
0.0
  0
LINE
  5
93
330
1F
100
AcDbEntity
  8
SK1
  6
Continuous
100
AcDbLine
 10
3.0473721046
 20
8.2770377274
 30
0.0
 11
-25.8127414013
 21
6.7242839113
 31
0.0
  0
LINE
  5
94
330
1F
100
AcDbEntity
  8
SK1
  6
Continuous
100
AcDbLine
 10
7.66
 20
8.3046164468
 30
0.0
 11
7.66
 21
7.4624322324
 31
0.0
  0
SPLINE
  5
95
330
1F
100
AcDbEntity
  8
SK1
  6
Continuous
100
AcDbSpline
210
0.0
220
0.0
230
1.0
 70
     8
 71
     3
 72
    10
 73
     6
 74
     0
 42
0.0000000427823838
 43
0.0000000001
 12
1.0
 22
0.0
 32
0.0
 13
1.0
 23
0.0
 33
0.0
 40
0.0
 40
0.0
 40
0.0
 40
0.0
 40
0.5
 40
0.5
 40
1.0
 40
1.0
 40
1.0
 40
1.0
 10
7.660000000000004
 20
7.462432232415075
 30
0.0
 10
7.660000000000011
 20
7.442471440312604
 30
0.0
 10
7.638792955294786
 20
7.42261283246476
 30
0.0
 10
7.564184838390823
 20
7.394023411322705
 30
0.0
 10
7.512831584001748
 20
7.385866646068266
 30
0.0
 10
7.460000000000004
 20
7.385866646068569
 30
0.0
  0
LINE
  5
96
330
1F
100
AcDbEntity
  8
SK1
  6
Continuous
100
AcDbLine
 10
7.46
 20
7.3858666461
 30
0.0
 11
3.76
 21
7.3858666461
 31
0.0
  0
SPLINE
  5
97
330
1F
100
AcDbEntity
  8
SK1
  6
Continuous
100
AcDbSpline
210
0.0
220
0.0
230
1.0
 70
     8
 71
     3
 72
    10
 73
     6
 74
     0
 42
0.0000000427888254
 43
0.0000000001
 12
1.0
 22
0.0
 32
0.0
 13
1.0
 23
0.0
 33
0.0
 40
0.0
 40
0.0
 40
0.0
 40
0.0
 40
0.5
 40
0.5
 40
1.0
 40
1.0
 40
1.0
 40
1.0
 10
3.76000000000001
 20
7.385866646068568
 30
0.0
 10
3.707128639963465
 20
7.385866646068573
 30
0.0
 10
3.655412587740152
 20
7.394178650641049
 30
0.0
 10
3.581619368452182
 20
7.422453857175521
 30
0.0
 10
3.559999999999895
 20
7.442454084398687
 30
0.0
 10
3.559999999997624
 20
7.462432232415178
 30
0.0
  0
LINE
  5
98
330
1F
100
AcDbEntity
  8
SK1
  6
Continuous
100
AcDbLine
 10
3.56
 20
7.4624322324
 30
0.0
 11
3.56
 21
8.10645385
 31
0.0
  0
LINE
  5
99
330
1F
100
AcDbEntity
  8
SK3
100
AcDbLine
 10
-27.2095759439
 20
2.5705361887
 30
0.0
 11
14.26
 21
2.5705361887
 31
0.0
  0
SPLINE
  5
9A
330
1F
100
AcDbEntity
  8
SK3
100
AcDbSpline
210
0.0
220
0.0
230
1.0
 70
     8
 71
     3
 72
    35
 73
    31
 74
     0
 42
0.000000006577364
 43
0.0000000001
 12
1.0
 22
0.0
 32
0.0
 13
1.0
 23
0.0
 33
0.0
 40
0.0
 40
0.0
 40
0.0
 40
0.0
 40
0.1077811479559654
 40
0.1077811479559654
 40
0.1077811479559654
 40
0.2155916358279476
 40
0.2155916358279476
 40
0.2155916358279476
 40
0.322996852522189
 40
0.322996852522189
 40
0.322996852522189
 40
0.4301854251017617
 40
0.4301854251017617
 40
0.4301854251017617
 40
0.5000090712310193
 40
0.5000090712310193
 40
0.5000090712310193
 40
0.607190730922207
 40
0.607190730922207
 40
0.607190730922207
 40
0.7143732371815332
 40
0.7143732371815332
 40
0.7143732371815332
 40
0.8215413649655519
 40
0.8215413649655519
 40
0.8215413649655519
 40
0.9287528651371272
 40
0.9287528651371272
 40
0.9287528651371272
 40
1.0
 40
1.0
 40
1.0
 40
1.0
 10
-27.20957594391144
 20
3.494415721238091
 30
0.0
 10
-27.26579265611918
 20
3.494415721238092
 30
0.0
 10
-27.32278754733125
 20
3.485748239988469
 30
0.0
 10
-27.37584467306111
 20
3.469034338699374
 30
0.0
 10
-27.42891067272788
 20
3.452317641968513
 30
0.0
 10
-27.47950018297385
 20
3.427081291338545
 30
0.0
 10
-27.52337942976117
 20
3.395301162415667
 30
0.0
 10
-27.56709687598799
 20
3.363638219703788
 30
0.0
 10
-27.60536292053472
 20
3.324599626833311
 30
0.0
 10
-27.63499963889341
 20
3.281311859118116
 30
0.0
 10
-27.66457822561225
 20
3.238108999215324
 30
0.0
 10
-27.6863801283374
 20
3.189477656727241
 30
0.0
 10
-27.69861098506892
 20
3.139368381218278
 30
0.0
 10
-27.7066437359376
 20
3.106458558528903
 30
0.0
 10
-27.71073333925822
 20
3.072430295783649
 30
0.0
 10
-27.71073333925822
 20
3.038506552749516
 30
0.0
 10
-27.71073333925822
 20
2.986856569380069
 30
0.0
 10
-27.70110212755417
 20
2.9342559100763
 30
0.0
 10
-27.68263039263168
 20
2.88509680969355
 30
0.0
 10
-27.6641585734355
 20
2.835937485032002
 30
0.0
 10
-27.63633512926864
 20
2.788867496777725
 30
0.0
 10
-27.60145384150905
 20
2.747877996715741
 30
0.0
 10
-27.56657680874557
 20
2.706893496760535
 30
0.0
 10
-27.52368176035207
 20
2.670864657992228
 30
0.0
 10
-27.47632021187453
 20
2.642866319546452
 30
0.0
 10
-27.42893747410148
 20
2.614855454798514
 30
0.0
 10
-27.37578481213469
 20
2.594116198379053
 30
0.0
 10
-27.32125340441403
 20
2.582388166246491
 30
0.0
 10
-27.28472679504445
 20
2.574532413639215
 30
0.0
 10
-27.24703533808957
 20
2.570536188726805
 30
0.0
 10
-27.20957594391144
 20
2.570536188726804
 30
0.0
  0
SPLINE
  5
9B
330
1F
100
AcDbEntity
  8
SK1
  6
Continuous
100
AcDbSpline
210
0.0
220
0.0
230
1.0
 70
     8
 71
     3
 72
    35
 73
    31
 74
     0
 42
0.0000000063954328
 43
0.0000000001
 12
1.0
 22
0.0
 32
0.0
 13
1.0
 23
0.0
 33
0.0
 40
0.0
 40
0.0
 40
0.0
 40
0.0
 40
0.1164887905964489
 40
0.1164887905964489
 40
0.1164887905964489
 40
0.2332526504136868
 40
0.2332526504136868
 40
0.2332526504136868
 40
0.3454710350257188
 40
0.3454710350257188
 40
0.3454710350257188
 40
0.4508768133895231
 40
0.4508768133895231
 40
0.4508768133895231
 40
0.5003110897158469
 40
0.5003110897158469
 40
0.5003110897158469
 40
0.6001097649474653
 40
0.6001097649474653
 40
0.6001097649474653
 40
0.699770468162676
 40
0.699770468162676
 40
0.699770468162676
 40
0.801559048659551
 40
0.801559048659551
 40
0.801559048659551
 40
0.9086472129646559
 40
0.9086472129646559
 40
0.9086472129646559
 40
1.0
 40
1.0
 40
1.0
 40
1.0
 10
-25.81274140130113
 20
5.800404378823079
 30
0.0
 10
-25.87470466576561
 20
5.797070275101401
 30
0.0
 10
-25.93758349267973
 20
5.803547901698608
 30
0.0
 10
-25.99619050698284
 20
5.819600016791047
 30
0.0
 10
-26.05487585395331
 20
5.835673586738456
 30
0.0
 10
-26.1109594909306
 20
5.861870510550435
 30
0.0
 10
-26.15907542479646
 20
5.896316285342603
 30
0.0
 10
-26.20531542714954
 20
5.929419097227827
 30
0.0
 10
-26.24554710917528
 20
5.971175152949241
 30
0.0
 10
-26.27552176486431
 20
6.017998525356733
 30
0.0
 10
-26.30370407255941
 20
6.06202207318996
 30
0.0
 10
-26.32362977833152
 20
6.111830976366181
 30
0.0
 10
-26.33317334679418
 20
6.162968672990625
 30
0.0
 10
-26.33770471692928
 20
6.18724930053247
 30
0.0
 10
-26.34000000000005
 20
6.212075016976303
 30
0.0
 10
-26.34000000000005
 20
6.236909257815163
 30
0.0
 10
-26.34000000000005
 20
6.286497762257397
 30
0.0
 10
-26.33063565675616
 20
6.337166096133772
 30
0.0
 10
-26.3128392778444
 20
6.384681397014595
 30
0.0
 10
-26.29505661800272
 20
6.43216006877297
 30
0.0
 10
-26.26840930163866
 20
6.477775476354264
 30
0.0
 10
-26.23533638667474
 20
6.518102027958011
 30
0.0
 10
-26.20154570662196
 20
6.559303766733087
 30
0.0
 10
-26.1602076935489
 20
6.596071466575339
 30
0.0
 10
-26.11474564606764
 20
6.626008081533721
 30
0.0
 10
-26.06693286140899
 20
6.657492649513279
 30
0.0
 10
-26.0133553252096
 20
6.682250914101824
 30
0.0
 10
-25.95817983860027
 20
6.698858796888532
 30
0.0
 10
-25.91093138061136
 20
6.713080635251078
 30
0.0
 10
-25.861611201427
 20
6.721654337444019
 30
0.0
 10
-25.81274140129934
 20
6.724283911334461
 30
0.0
  0
LINE
  5
9C
330
1F
100
AcDbEntity
  8
SK3
100
AcDbLine
 10
-30.9099764046
 20
0.5000000998
 30
0.0
 11
-30.94
 21
0.5000000998
 31
0.0
  0
LINE
  5
9D
330
1F
100
AcDbEntity
  8
SK3
100
AcDbLine
 10
-30.9099764046
 20
-0.4999999002
 30
0.0
 11
-30.94
 21
-0.4999999002
 31
0.0
  0
LINE
  5
9E
330
1F
100
AcDbEntity
  8
SK3
100
AcDbLine
 10
-27.2095759439
 20
3.4944157212
 30
0.0
 11
14.26
 21
3.4944157212
 31
0.0
  0
ELLIPSE
  5
9F
330
1F
100
AcDbEntity
  8
SK1
  6
Continuous
100
AcDbEllipse
 10
46.8677917172
 20
0.4619398662
 30
0.0
 11
-74.4999999972556
 21
-2.001951968427238E-10
 31
0.0
210
0.0
220
0.0
230
1.0
 40
0.3826834324
 41
-0.2214607661845855
 42
-0.1940123737632016
  0
LINE
  5
A0
330
1F
100
AcDbEntity
  8
SK1
  6
Continuous
100
AcDbLine
 10
7.66
 20
-7.3807367148
 30
0.0
 11
7.66
 21
7.3807369143
 31
0.0
  0
LINE
  5
A1
330
1F
100
AcDbEntity
  8
SK1
  6
Continuous
100
AcDbLine
 10
8.0064101615
 20
-7.3807367148
 30
0.0
 11
8.0064101615
 21
7.3807369143
 31
0.0
  0
LINE
  5
A2
330
1F
100
AcDbEntity
  8
SK1
  6
Continuous
100
AcDbLine
 10
7.66
 20
-7.3807367148
 30
0.0
 11
8.0064101615
 21
-7.3807367148
 31
0.0
  0
LINE
  5
A3
330
1F
100
AcDbEntity
  8
SK1
  6
Continuous
100
AcDbLine
 10
7.66
 20
-8.3046162473
 30
0.0
 11
8.0064101615
 21
-8.3046162473
 31
0.0
  0
LINE
  5
A4
330
1F
100
AcDbEntity
  8
SK1
  6
Continuous
100
AcDbLine
 10
3.0473721046
 20
-7.3531579954
 30
0.0
 11
3.0473721046
 21
7.3531581949
 31
0.0
  0
LINE
  5
A5
330
1F
100
AcDbEntity
  8
SK1
  6
Continuous
100
AcDbLine
 10
3.56
 20
-7.1825741179
 30
0.0
 11
3.56
 21
7.1825743175
 31
0.0
  0
LINE
  5
A6
330
1F
100
AcDbEntity
  8
SK1
  6
Continuous
100
AcDbLine
 10
14.66
 20
-5.8548776231
 30
0.0
 11
14.66
 21
5.8548778226
 31
0.0
  0
LINE
  5
A7
330
1F
100
AcDbEntity
  8
SK1
  6
Continuous
100
AcDbLine
 10
14.535
 20
-5.9377685262
 30
0.0
 11
14.535
 21
5.9377687258
 31
0.0
  0
LINE
  5
A8
330
1F
100
AcDbEntity
  8
SK1
  6
Continuous
100
AcDbLine
 10
3.76
 20
-6.461986914
 30
0.0
 11
3.76
 21
6.4619871136
 31
0.0
  0
LINE
  5
A9
330
1F
100
AcDbEntity
  8
SK1
  6
Continuous
100
AcDbLine
 10
7.46
 20
-6.461986914
 30
0.0
 11
7.46
 21
6.4619871136
 31
0.0
  0
SPLINE
  5
AA
330
1F
100
AcDbEntity
  8
SK1
  6
Continuous
100
AcDbSpline
210
0.0
220
0.0
230
1.0
 70
     8
 71
     3
 72
    10
 73
     6
 74
     0
 42
0.0000000169237583
 43
0.0000000001
 12
1.0
 22
0.0
 32
0.0
 13
1.0
 23
0.0
 33
0.0
 40
0.0
 40
0.0
 40
0.0
 40
0.0
 40
0.5
 40
0.5
 40
1.0
 40
1.0
 40
1.0
 40
1.0
 10
3.560000000000004
 20
-8.106453650447941
 30
0.0
 10
3.560000000000021
 20
-8.155310986784476
 30
0.0
 10
3.502289004086756
 20
-8.204134845094
 30
0.0
 10
3.308443087672435
 20
-8.268693005284353
 30
0.0
 10
3.175118315310508
 20
-8.283910116433715
 30
0.0
 10
3.047372104567982
 20
-8.27703752786958
 30
0.0
  0
LINE
  5
AB
330
1F
100
AcDbEntity
  8
SK1
  6
Continuous
100
AcDbLine
 10
3.0473721046
 20
-8.2770375279
 30
0.0
 11
-25.8127414013
 21
-6.7242837118
 31
0.0
  0
LINE
  5
AC
330
1F
100
AcDbEntity
  8
SK1
  6
Continuous
100
AcDbLine
 10
7.66
 20
-8.3046162473
 30
0.0
 11
7.66
 21
-7.4624320329
 31
0.0
  0
SPLINE
  5
AD
330
1F
100
AcDbEntity
  8
SK1
  6
Continuous
100
AcDbSpline
210
0.0
220
0.0
230
1.0
 70
     8
 71
     3
 72
    10
 73
     6
 74
     0
 42
0.0000000427810229
 43
0.0000000001
 12
1.0
 22
0.0
 32
0.0
 13
1.0
 23
0.0
 33
0.0
 40
0.0
 40
0.0
 40
0.0
 40
0.0
 40
0.5
 40
0.5
 40
1.0
 40
1.0
 40
1.0
 40
1.0
 10
7.660000000000004
 20
-7.462432032873672
 30
0.0
 10
7.660000000000007
 20
-7.442295782642753
 30
0.0
 10
7.638224420328112
 20
-7.422367737799715
 30
0.0
 10
7.564482002037069
 20
-7.394164218625717
 30
0.0
 10
7.512701076458385
 20
-7.385866446527169
 30
0.0
 10
7.460000000000004
 20
-7.385866446527169
 30
0.0
  0
LINE
  5
AE
330
1F
100
AcDbEntity
  8
SK1
  6
Continuous
100
AcDbLine
 10
7.46
 20
-7.3858664465
 30
0.0
 11
3.76
 21
-7.3858664465
 31
0.0
  0
SPLINE
  5
AF
330
1F
100
AcDbEntity
  8
SK1
  6
Continuous
100
AcDbSpline
210
0.0
220
0.0
230
1.0
 70
     8
 71
     3
 72
    10
 73
     6
 74
     0
 42
0.0000000427886918
 43
0.0000000001
 12
1.0
 22
0.0
 32
0.0
 13
1.0
 23
0.0
 33
0.0
 40
0.0
 40
0.0
 40
0.0
 40
0.0
 40
0.5
 40
0.5
 40
1.0
 40
1.0
 40
1.0
 40
1.0
 10
3.76000000000001
 20
-7.385866446527169
 30
0.0
 10
3.707599211485188
 20
-7.385866446527166
 30
0.0
 10
3.655544646672346
 20
-7.394163540848599
 30
0.0
 10
3.581844433505404
 20
-7.422331902005153
 30
0.0
 10
3.560000000000004
 20
-7.442402829025457
 30
0.0
 10
3.55999999999999
 20
-7.462432032873672
 30
0.0
  0
LINE
  5
B0
330
1F
100
AcDbEntity
  8
SK1
  6
Continuous
100
AcDbLine
 10
3.56
 20
-7.4624320329
 30
0.0
 11
3.56
 21
-8.1064536504
 31
0.0
  0
SPLINE
  5
B1
330
1F
100
AcDbEntity
  8
SK1
  6
Continuous
100
AcDbSpline
210
0.0
220
0.0
230
1.0
 70
     8
 71
     3
 72
     8
 73
     4
 74
     0
 42
0.0000000014956283
 43
0.0000000001
 12
1.0
 22
0.0
 32
0.0
 13
1.0
 23
0.0
 33
0.0
 40
0.0
 40
0.0
 40
0.0
 40
0.0
 40
1.0
 40
1.0
 40
1.0
 40
1.0
 10
8.006410161513777
 20
-7.380736714760667
 30
0.0
 10
10.18264327889133
 20
-6.899771503981629
 30
0.0
 10
12.35884813568556
 20
-6.41878755660354
 30
0.0
 10
14.535
 20
-5.937768526224019
 30
0.0
  0
SPLINE
  5
B2
330
1F
100
AcDbEntity
  8
SK1
  6
Continuous
100
AcDbSpline
210
0.0
220
0.0
230
1.0
 70
     8
 71
     3
 72
    10
 73
     6
 74
     0
 42
0.0000000616222016
 43
0.0000000001
 12
1.0
 22
0.0
 32
0.0
 13
1.0
 23
0.0
 33
0.0
 40
0.0
 40
0.0
 40
0.0
 40
0.0
 40
0.4999999999999999
 40
0.4999999999999999
 40
1.0
 40
1.0
 40
1.0
 40
1.0
 10
14.535
 20
-5.937768526224019
 30
0.0
 10
14.57258157670125
 20
-5.929461452677634
 30
0.0
 10
14.60492138213643
 20
-5.917068020852093
 30
0.0
 10
14.64823926950537
 20
-5.888303457624961
 30
0.0
 10
14.66000000000001
 20
-5.871643617437043
 30
0.0
 10
14.66000000000001
 20
-5.854877623082767
 30
0.0
  0
SPLINE
  5
B3
330
1F
100
AcDbEntity
  8
SK3
100
AcDbSpline
210
0.0
220
0.0
230
1.0
 70
     8
 71
     3
 72
    10
 73
     6
 74
     0
 42
0.0000000213904853
 43
0.0000000001
 12
1.0
 22
0.0
 32
0.0
 13
1.0
 23
0.0
 33
0.0
 40
0.0
 40
0.0
 40
0.0
 40
0.0
 40
0.5
 40
0.5
 40
1.0
 40
1.0
 40
1.0
 40
1.0
 10
14.66000000000001
 20
-2.723899133813233
 30
0.0
 10
14.66000000000001
 20
-2.684002566201617
 30
0.0
 10
14.61664300036745
 20
-2.643723660384119
 30
0.0
 10
14.4687323352114
 20
-2.587073514011293
 30
0.0
 10
14.36427327654721
 20
-2.570535989185403
 30
0.0
 10
14.26000000000001
 20
-2.570535989185406
 30
0.0
  0
SPLINE
  5
B4
330
1F
100
AcDbEntity
  8
SK1
  6
Continuous
100
AcDbSpline
210
0.0
220
0.0
230
1.0
 70
     8
 71
     3
 72
     8
 73
     4
 74
     0
 42
0.0000000014956283
 43
0.0000000001
 12
1.0
 22
0.0
 32
0.0
 13
1.0
 23
0.0
 33
0.0
 40
0.0
 40
0.0
 40
0.0
 40
0.0
 40
1.0
 40
1.0
 40
1.0
 40
1.0
 10
8.00641016151377
 20
-8.304616247271952
 30
0.0
 10
10.18264327889132
 20
-7.823651036492917
 30
0.0
 10
12.35884813568555
 20
-7.342667089114828
 30
0.0
 10
14.535
 20
-6.861648058735305
 30
0.0
  0
SPLINE
  5
B5
330
1F
100
AcDbEntity
  8
SK1
  6
Continuous
100
AcDbSpline
210
0.0
220
0.0
230
1.0
 70
     8
 71
     3
 72
    10
 73
     6
 74
     0
 42
0.0000000616222016
 43
0.0000000001
 12
1.0
 22
0.0
 32
0.0
 13
1.0
 23
0.0
 33
0.0
 40
0.0
 40
0.0
 40
0.0
 40
0.0
 40
0.5000000000000001
 40
0.5000000000000001
 40
1.0
 40
1.0
 40
1.0
 40
1.0
 10
14.535
 20
-6.861648058735305
 30
0.0
 10
14.57258157670125
 20
-6.85334098518892
 30
0.0
 10
14.60492138213643
 20
-6.840947553363378
 30
0.0
 10
14.64823926950537
 20
-6.81218299013625
 30
0.0
 10
14.66000000000001
 20
-6.79552314994833
 30
0.0
 10
14.66000000000001
 20
-6.778757155594053
 30
0.0
  0
LINE
  5
B6
330
1F
100
AcDbEntity
  8
SK1
  6
Continuous
100
AcDbLine
 10
14.66
 20
-6.7787571556
 30
0.0
 11
14.66
 21
-5.8548776231
 31
0.0
  0
SPLINE
  5
B7
330
1F
100
AcDbEntity
  8
SK3
100
AcDbSpline
210
0.0
220
0.0
230
1.0
 70
     8
 71
     3
 72
    10
 73
     6
 74
     0
 42
0.0000000213904853
 43
0.0000000001
 12
1.0
 22
0.0
 32
0.0
 13
1.0
 23
0.0
 33
0.0
 40
0.0
 40
0.0
 40
0.0
 40
0.0
 40
0.5
 40
0.5
 40
1.0
 40
1.0
 40
1.0
 40
1.0
 10
14.66000000000001
 20
-3.647778666324518
 30
0.0
 10
14.66000000000001
 20
-3.607882098712904
 30
0.0
 10
14.61664300036745
 20
-3.567603192895406
 30
0.0
 10
14.4687323352114
 20
-3.51095304652258
 30
0.0
 10
14.36427327654721
 20
-3.49441552169669
 30
0.0
 10
14.26000000000001
 20
-3.494415521696692
 30
0.0
  0
SPLINE
  5
B8
330
1F
100
AcDbEntity
  8
SK1
  6
Continuous
100
AcDbSpline
210
0.0
220
0.0
230
1.0
 70
     8
 71
     3
 72
    10
 73
     6
 74
     0
 42
0.0000000169237583
 43
0.0000000001
 12
1.0
 22
0.0
 32
0.0
 13
1.0
 23
0.0
 33
0.0
 40
0.0
 40
0.0
 40
0.0
 40
0.0
 40
0.5
 40
0.5
 40
1.0
 40
1.0
 40
1.0
 40
1.0
 10
3.560000000000004
 20
-7.182574117936654
 30
0.0
 10
3.560000000000021
 20
-7.231431454273191
 30
0.0
 10
3.502289004086756
 20
-7.280255312582714
 30
0.0
 10
3.308443087672435
 20
-7.344813472773065
 30
0.0
 10
3.175118315310508
 20
-7.360030583922429
 30
0.0
 10
3.047372104567982
 20
-7.353157995358293
 30
0.0
  0
LINE
  5
B9
330
1F
100
AcDbEntity
  8
SK1
  6
Continuous
100
AcDbLine
 10
3.0473721046
 20
-7.3531579954
 30
0.0
 11
-25.8127414013
 21
-5.8004041793
 31
0.0
  0
SPLINE
  5
BA
330
1F
100
AcDbEntity
  8
SK1
  6
Continuous
100
AcDbSpline
210
0.0
220
0.0
230
1.0
 70
     8
 71
     3
 72
    10
 73
     6
 74
     0
 42
0.0000000427810229
 43
0.0000000001
 12
1.0
 22
0.0
 32
0.0
 13
1.0
 23
0.0
 33
0.0
 40
0.0
 40
0.0
 40
0.0
 40
0.0
 40
0.5
 40
0.5
 40
1.0
 40
1.0
 40
1.0
 40
1.0
 10
7.660000000000004
 20
-6.538552500362384
 30
0.0
 10
7.660000000000007
 20
-6.518416250131468
 30
0.0
 10
7.638224420328112
 20
-6.498488205288429
 30
0.0
 10
7.564482002037069
 20
-6.470284686114429
 30
0.0
 10
7.512701076458385
 20
-6.461986914015882
 30
0.0
 10
7.460000000000004
 20
-6.461986914015882
 30
0.0
  0
LINE
  5
BB
330
1F
100
AcDbEntity
  8
SK1
  6
Continuous
100
AcDbLine
 10
7.46
 20
-6.461986914
 30
0.0
 11
3.76
 21
-6.461986914
 31
0.0
  0
SPLINE
  5
BC
330
1F
100
AcDbEntity
  8
SK1
  6
Continuous
100
AcDbSpline
210
0.0
220
0.0
230
1.0
 70
     8
 71
     3
 72
    10
 73
     6
 74
     0
 42
0.0000000427886918
 43
0.0000000001
 12
1.0
 22
0.0
 32
0.0
 13
1.0
 23
0.0
 33
0.0
 40
0.0
 40
0.0
 40
0.0
 40
0.0
 40
0.5
 40
0.5
 40
1.0
 40
1.0
 40
1.0
 40
1.0
 10
3.76000000000001
 20
-6.461986914015882
 30
0.0
 10
3.707599211485188
 20
-6.461986914015881
 30
0.0
 10
3.655544646672346
 20
-6.470284008337313
 30
0.0
 10
3.581844433505404
 20
-6.498452369493866
 30
0.0
 10
3.560000000000004
 20
-6.518523296514169
 30
0.0
 10
3.55999999999999
 20
-6.538552500362385
 30
0.0
  0
LINE
  5
BD
330
1F
100
AcDbEntity
  8
SK3
100
AcDbLine
 10
-27.2095759439
 20
-3.4944155217
 30
0.0
 11
14.26
 21
-3.4944155217
 31
0.0
  0
ELLIPSE
  5
BE
330
1F
100
AcDbEntity
  8
SK1
  6
Continuous
100
AcDbEllipse
 10
46.8677917284
 20
-0.461939666
 30
0.0
 11
-74.50000000853753
 21
-6.186501191794702E-10
 31
0.0
210
0.0
220
0.0
230
1.0
 40
0.3826834323
 41
0.1941130625605539
 42
0.2214607661635842
  0
SPLINE
  5
BF
330
1F
100
AcDbEntity
  8
SK3
100
AcDbSpline
210
0.0
220
0.0
230
1.0
 70
     8
 71
     3
 72
    35
 73
    31
 74
     0
 42
0.0000000065772327
 43
0.0000000001
 12
1.0
 22
0.0
 32
0.0
 13
1.0
 23
0.0
 33
0.0
 40
0.0
 40
0.0
 40
0.0
 40
0.0
 40
0.1077811479559776
 40
0.1077811479559776
 40
0.1077811479559776
 40
0.215591635827975
 40
0.215591635827975
 40
0.215591635827975
 40
0.3229968525222057
 40
0.3229968525222057
 40
0.3229968525222057
 40
0.4301854251017739
 40
0.4301854251017739
 40
0.4301854251017739
 40
0.5000090712310228
 40
0.5000090712310228
 40
0.5000090712310228
 40
0.6071907309222152
 40
0.6071907309222152
 40
0.6071907309222152
 40
0.7143732371815482
 40
0.7143732371815482
 40
0.7143732371815482
 40
0.821541364965557
 40
0.821541364965557
 40
0.821541364965557
 40
0.9287528651371212
 40
0.9287528651371212
 40
0.9287528651371212
 40
1.0
 40
1.0
 40
1.0
 40
1.0
 10
-27.20957594391142
 20
-2.570535989185406
 30
0.0
 10
-27.26579265611917
 20
-2.570535989185406
 30
0.0
 10
-27.32278754733125
 20
-2.579681186715369
 30
0.0
 10
-27.37584467306112
 20
-2.597240154535789
 30
0.0
 10
-27.42891067272789
 20
-2.614802059137466
 30
0.0
 10
-27.47950018297387
 20
-2.641268011102424
 30
0.0
 10
-27.52337942976119
 20
-2.674370361908115
 30
0.0
 10
-27.567096875988
 20
-2.70735065093502
 30
0.0
 10
-27.60536292053471
 20
-2.747824315355664
 30
0.0
 10
-27.6349996388934
 20
-2.792324726507621
 30
0.0
 10
-27.66457822561224
 20
-2.836737851279122
 30
0.0
 10
-27.6863801283374
 20
-2.886381738946425
 30
0.0
 10
-27.69861098506892
 20
-2.937066765410425
 30
0.0
 10
-27.7066437359376
 20
-2.970354718927894
 30
0.0
 10
-27.71073333925823
 20
-3.004582610173987
 30
0.0
 10
-27.71073333925823
 20
-3.038506353208116
 30
0.0
 10
-27.71073333925823
 20
-3.090156336577566
 30
0.0
 10
-27.70110212755417
 20
-3.142280285571208
 30
0.0
 10
-27.68263039263167
 20
-3.190598436806592
 30
0.0
 10
-27.6641585734355
 20
-3.23891680848411
 30
0.0
 10
-27.63633512926863
 20
-3.284765000972
 30
0.0
 10
-27.60145384150903
 20
-3.324440410692315
 30
0.0
 10
-27.56657680874555
 20
-3.364110980605242
 30
0.0
 10
-27.52368176035206
 20
-3.398707856934944
 30
0.0
 10
-27.47632021187453
 20
-3.425493952231618
 30
0.0
 10
-27.42893747410148
 20
-3.452292031479556
 30
0.0
 10
-27.37578481213468
 20
-3.472014669477154
 30
0.0
 10
-27.32125340441403
 20
-3.483159898952559
 30
0.0
 10
-27.28472679504445
 20
-3.490625274603007
 30
0.0
 10
-27.24703533808956
 20
-3.494415521696693
 30
0.0
 10
-27.20957594391142
 20
-3.494415521696692
 30
0.0
  0
SPLINE
  5
C0
330
1F
100
AcDbEntity
  8
SK1
  6
Continuous
100
AcDbSpline
210
0.0
220
0.0
230
1.0
 70
     8
 71
     3
 72
    35
 73
    31
 74
     0
 42
0.0000000063957257
 43
0.0000000001
 12
1.0
 22
0.0
 32
0.0
 13
1.0
 23
0.0
 33
0.0
 40
0.0
 40
0.0
 40
0.0
 40
0.0
 40
0.1164887905971204
 40
0.1164887905971204
 40
0.1164887905971204
 40
0.2332526504150887
 40
0.2332526504150887
 40
0.2332526504150887
 40
0.3454710350269934
 40
0.3454710350269934
 40
0.3454710350269934
 40
0.450876813390654
 40
0.450876813390654
 40
0.450876813390654
 40
0.5003110897163748
 40
0.5003110897163748
 40
0.5003110897163748
 40
0.6001097649478874
 40
0.6001097649478874
 40
0.6001097649478874
 40
0.6997704681629958
 40
0.6997704681629958
 40
0.6997704681629958
 40
0.8015590486597682
 40
0.8015590486597682
 40
0.8015590486597682
 40
0.908647212964758
 40
0.908647212964758
 40
0.908647212964758
 40
1.0
 40
1.0
 40
1.0
 40
1.0
 10
-25.81274140129953
 20
-6.724283711793047
 30
0.0
 10
-25.87470466576499
 20
-6.720949608072974
 30
0.0
 10
-25.93758349267899
 20
-6.707958954807085
 30
0.0
 10
-25.99619050698248
 20
-6.68605140466873
 30
0.0
 10
-26.05487585395339
 20
-6.664114573447573
 30
0.0
 10
-26.11095949093108
 20
-6.632543987443434
 30
0.0
 10
-26.15907542479721
 20
-6.593623983109578
 30
0.0
 10
-26.2053154271502
 20
-6.55622138178039
 30
0.0
 10
-26.24554710917585
 20
-6.51086493958272
 30
0.0
 10
-26.27552176486477
 20
-6.461403949676344
 30
0.0
 10
-26.30370407255977
 20
-6.414900501866737
 30
0.0
 10
-26.32362977833178
 20
-6.363386131451573
 30
0.0
 10
-26.33317334679434
 20
-6.311432375434359
 30
0.0
 10
-26.33770471692933
 20
-6.286764275724971
 30
0.0
 10
-26.34000000000004
 20
-6.26174329911237
 30
0.0
 10
-26.34000000000004
 20
-6.236909058273784
 30
0.0
 10
-26.34000000000004
 20
-6.187320553831551
 30
0.0
 10
-26.33063565675617
 20
-6.137445251341344
 30
0.0
 10
-26.31283927784441
 20
-6.091467321410026
 30
0.0
 10
-26.29505661800273
 20
-6.045524835455578
 30
0.0
 10
-26.26840930163866
 20
-6.002230450716132
 30
0.0
 10
-26.23533638667474
 20
-5.964871281529707
 30
0.0
 10
-26.20154570662196
 20
-5.926701324802488
 30
0.0
 10
-26.16020769354889
 20
-5.893719476469885
 30
0.0
 10
-26.11474564606763
 20
-5.868096284157986
 30
0.0
 10
-26.06693286140898
 20
-5.841148175919339
 30
0.0
 10
-26.0133553252096
 20
-5.821627547798593
 30
0.0
 10
-25.95817983860028
 20
-5.810620781883673
 30
0.0
 10
-25.91093138061138
 20
-5.801195351336821
 30
0.0
 10
-25.86161120142702
 20
-5.797774605391325
 30
0.0
 10
-25.81274140129953
 20
-5.800404179281762
 30
0.0
  0
SPLINE
  5
C1
330
1F
100
AcDbEntity
  8
SK3
100
AcDbSpline
210
0.0
220
0.0
230
1.0
 70
     8
 71
     3
 72
     8
 73
     4
 74
     0
 42
0.0000001103261255
 43
0.0000000001
 12
1.0
 22
0.0
 32
0.0
 13
1.0
 23
0.0
 33
0.0
 40
0.0
 40
0.0
 40
0.0
 40
0.0
 40
1.0
 40
1.0
 40
1.0
 40
1.0
 10
-2.339999999999995
 20
13.90936258831001
 30
0.0
 10
-2.339999999999995
 20
13.93955285138773
 30
0.0
 10
-2.345576807314497
 20
13.96940410681408
 30
0.0
 10
-2.356373869029749
 20
13.99748209089617
 30
0.0
  0
LINE
  5
C2
330
1F
100
AcDbEntity
  8
SK3
100
AcDbLine
 10
-27.2095759439
 20
-2.5705359892
 30
0.0
 11
14.26
 21
-2.5705359892
 31
0.0
  0
LINE
  5
C3
330
1F
100
AcDbEntity
  8
SK1
  6
Continuous
100
AcDbLine
 10
7.66
 20
-18.7425543507
 30
0.0
 11
7.66
 21
-8.3046162473
 31
0.0
  0
LINE
  5
C4
330
1F
100
AcDbEntity
  8
SK1
  6
Continuous
100
AcDbLine
 10
8.0064101615
 20
-18.7425543507
 30
0.0
 11
8.0064101615
 21
-8.3046162473
 31
0.0
  0
LINE
  5
C5
330
1F
100
AcDbEntity
  8
SK1
  6
Continuous
100
AcDbLine
 10
7.66
 20
-18.7425543507
 30
0.0
 11
8.0064101615
 21
-18.7425543507
 31
0.0
  0
LINE
  5
C6
330
1F
100
AcDbEntity
  8
SK1
  6
Continuous
100
AcDbLine
 10
7.66
 20
-19.1252377831
 30
0.0
 11
8.0064101615
 21
-19.1252377831
 31
0.0
  0
LINE
  5
C7
330
1F
100
AcDbEntity
  8
SK1
  6
Continuous
100
AcDbLine
 10
3.0473721046
 20
-18.6759734323
 30
0.0
 11
3.0473721046
 21
-8.2770375279
 31
0.0
  0
LINE
  5
C8
330
1F
100
AcDbEntity
  8
SK1
  6
Continuous
100
AcDbLine
 10
3.56
 20
-18.2641475219
 30
0.0
 11
3.56
 21
-8.1064536504
 31
0.0
  0
LINE
  5
C9
330
1F
100
AcDbEntity
  8
SK1
  6
Continuous
100
AcDbLine
 10
14.66
 20
-15.0588046373
 30
0.0
 11
14.66
 21
-6.7787571556
 31
0.0
  0
LINE
  5
CA
330
1F
100
AcDbEntity
  8
SK1
  6
Continuous
100
AcDbLine
 10
14.535
 20
-15.2589209799
 30
0.0
 11
14.535
 21
-6.8616480587
 31
0.0
  0
LINE
  5
CB
330
1F
100
AcDbEntity
  8
SK1
  6
Continuous
100
AcDbLine
 10
3.76
 20
-16.5244961213
 30
0.0
 11
3.76
 21
-7.3858664465
 31
0.0
  0
LINE
  5
CC
330
1F
100
AcDbEntity
  8
SK1
  6
Continuous
100
AcDbLine
 10
7.46
 20
-16.5244961213
 30
0.0
 11
7.46
 21
-7.3858664465
 31
0.0
  0
ARC
  5
CD
330
1F
100
AcDbEntity
  8
SK1
  6
Continuous
100
AcDbCircle
 10
3.121146594
 20
-18.6255245529
 30
0.0
 40
0.4393703161692309
100
AcDbArc
 50
260.3336996485
 51
357.2204634949
  0
LINE
  5
CE
330
1F
100
AcDbEntity
  8
SK1
  6
Continuous
100
AcDbLine
 10
3.0473721046
 20
-19.0586568646
 30
0.0
 11
-25.8127414013
 21
-15.3099775428
 31
0.0
  0
LINE
  5
CF
330
1F
100
AcDbEntity
  8
SK1
  6
Continuous
100
AcDbLine
 10
7.66
 20
-19.1252377831
 30
0.0
 11
7.66
 21
-18.7425543507
 31
0.0
  0
ARC
  5
D0
330
1F
100
AcDbEntity
  8
SK1
  6
Continuous
100
AcDbCircle
 10
7.4672947531
 20
-17.0999079534
 30
0.0
 40
0.1928664032215692
100
AcDbArc
 50
2.3424120384
 51
92.1676055382
  0
LINE
  5
D1
330
1F
100
AcDbEntity
  8
SK1
  6
Continuous
100
AcDbLine
 10
7.46
 20
-16.9071795537
 30
0.0
 11
3.76
 21
-16.9071795537
 31
0.0
  0
ARC
  5
D2
330
1F
100
AcDbEntity
  8
SK1
  6
Continuous
100
AcDbCircle
 10
3.7527056024
 20
-17.0999083381
 30
0.0
 40
0.192866774199979
100
AcDbArc
 50
87.8325043334
 51
177.6574780893
  0
LINE
  5
D3
330
1F
100
AcDbEntity
  8
SK1
  6
Continuous
100
AcDbLine
 10
3.56
 20
-18.2641475219
 30
0.0
 11
3.56
 21
-18.6468309542
 31
0.0
  0
LINE
  5
D4
330
1F
100
AcDbEntity
  8
SK1
  6
Continuous
100
AcDbLine
 10
8.0064101615
 20
-18.7425543507
 30
0.0
 11
14.535
 21
-15.2589209799
 31
0.0
  0
ARC
  5
D5
330
1F
100
AcDbEntity
  8
SK1
  6
Continuous
100
AcDbCircle
 10
14.4286840492
 20
-15.0534141802
 30
0.0
 40
0.2313787503235728
100
AcDbArc
 50
297.3541274107
 51
358.6650529161
  0
ARC
  5
D6
330
1F
100
AcDbEntity
  8
SK3
100
AcDbCircle
 10
14.274326348
 20
-7.5154202003
 30
0.0
 40
0.3859836423164319
100
AcDbArc
 50
2.296446406
 51
92.1271053284
  0
LINE
  5
D7
330
1F
100
AcDbEntity
  8
SK1
  6
Continuous
100
AcDbLine
 10
8.0064101615
 20
-19.1252377831
 30
0.0
 11
14.535
 21
-15.6416044122
 31
0.0
  0
ARC
  5
D8
330
1F
100
AcDbEntity
  8
SK1
  6
Continuous
100
AcDbCircle
 10
14.4286840492
 20
-15.4360976125
 30
0.0
 40
0.2313787503252971
100
AcDbArc
 50
297.354127411
 51
358.6650529158
  0
LINE
  5
D9
330
1F
100
AcDbEntity
  8
SK1
  6
Continuous
100
AcDbLine
 10
14.66
 20
-15.4414880697
 30
0.0
 11
14.66
 21
-15.0588046373
 31
0.0
  0
ARC
  5
DA
330
1F
100
AcDbEntity
  8
SK3
100
AcDbCircle
 10
14.274326348
 20
-7.8981036326
 30
0.0
 40
0.3859836423164311
100
AcDbArc
 50
2.296446406
 51
92.1271053284
  0
ARC
  5
DB
330
1F
100
AcDbEntity
  8
SK1
  6
Continuous
100
AcDbCircle
 10
3.121146594
 20
-18.2428411206
 30
0.0
 40
0.4393703161692314
100
AcDbArc
 50
260.3336996485
 51
357.2204634949
  0
LINE
  5
DC
330
1F
100
AcDbEntity
  8
SK1
  6
Continuous
100
AcDbLine
 10
3.0473721046
 20
-18.6759734323
 30
0.0
 11
-25.8127414013
 21
-14.9272941105
 31
0.0
  0
ARC
  5
DD
330
1F
100
AcDbEntity
  8
SK1
  6
Continuous
100
AcDbCircle
 10
7.4672947531
 20
-16.717224521
 30
0.0
 40
0.1928664032215685
100
AcDbArc
 50
2.3424120384
 51
92.1676055382
  0
LINE
  5
DE
330
1F
100
AcDbEntity
  8
SK1
  6
Continuous
100
AcDbLine
 10
7.46
 20
-16.5244961213
 30
0.0
 11
3.76
 21
-16.5244961213
 31
0.0
  0
ARC
  5
DF
330
1F
100
AcDbEntity
  8
SK1
  6
Continuous
100
AcDbCircle
 10
3.7527056024
 20
-16.7172249057
 30
0.0
 40
0.1928667741999783
100
AcDbArc
 50
87.8325043334
 51
177.6574780893
  0
SPLINE
  5
E0
330
1F
100
AcDbEntity
  8
SK3
100
AcDbSpline
210
0.0
220
0.0
230
1.0
 70
     8
 71
     3
 72
    10
 73
     6
 74
     0
 42
0.0000000155050341
 43
0.0000000001
 12
1.0
 22
0.0
 32
0.0
 13
1.0
 23
0.0
 33
0.0
 40
0.0
 40
0.0
 40
0.0
 40
0.0
 40
0.5
 40
0.5
 40
1.0
 40
1.0
 40
1.0
 40
1.0
 10
-31.34000000000448
 20
8.324998598268555
 30
0.0
 10
-31.33999999999981
 20
8.220594498744587
 30
0.0
 10
-31.29765256306301
 20
8.116709997463241
 30
0.0
 10
-31.14851386579192
 20
7.967028876424007
 30
0.0
 10
-31.04574959916861
 20
7.924241388373289
 30
0.0
 10
-30.94
 20
7.924241388373679
 30
0.0
  0
SPLINE
  5
E1
330
1F
100
AcDbEntity
  8
SK1
  6
Continuous
100
AcDbSpline
210
0.0
220
0.0
230
1.0
 70
     8
 71
     3
 72
    10
 73
     6
 74
     0
 42
0.000000013683103
 43
0.0000000001
 12
1.0
 22
0.0
 32
0.0
 13
1.0
 23
0.0
 33
0.0
 40
0.0
 40
0.0
 40
0.0
 40
0.0
 40
0.5
 40
0.5
 40
1.0
 40
1.0
 40
1.0
 40
1.0
 10
-31.33999999999998
 20
15.15223423573843
 30
0.0
 10
-31.33999999999999
 20
15.27133733064511
 30
0.0
 10
-31.29542015981368
 20
15.39046836097179
 30
0.0
 10
-31.13972113835961
 20
15.56991143959673
 30
0.0
 10
-31.02878034044549
 20
15.63086909699539
 30
0.0
 10
-30.90958655048001
 20
15.64762924157215
 30
0.0
  0
SPLINE
  5
E2
330
1F
100
AcDbEntity
  8
SK1
  6
Continuous
100
AcDbSpline
210
0.0
220
0.0
230
1.0
 70
     8
 71
     3
 72
    11
 73
     7
 74
     0
 42
0.0000000003527553
 43
0.0000000001
 12
1.0
 22
0.0
 32
0.0
 13
1.0
 23
0.0
 33
0.0
 40
0.0
 40
0.0
 40
0.0
 40
0.0
 40
0.9695717939571271
 40
0.9695717939571271
 40
0.9695717939571271
 40
1.0
 40
1.0
 40
1.0
 40
1.0
 10
-30.90958655048001
 20
15.64762924157215
 30
0.0
 10
-21.83694658167206
 20
16.92335642191102
 30
0.0
 10
-12.76428551794339
 20
18.19893358224653
 30
0.0
 10
-3.691613755690049
 20
19.47443463543228
 30
0.0
 10
-3.406884839813253
 20
19.51446386183769
 30
0.0
 10
-3.12215591272829
 20
19.55449300851921
 30
0.0
 10
-2.837426974640036
 20
19.59452207693364
 30
0.0
  0
LINE
  5
E3
330
1F
100
AcDbEntity
  8
SK3
100
AcDbLine
 10
-27.2095759439
 20
-7.5123859536
 30
0.0
 11
14.26
 21
-7.5123859536
 31
0.0
  0
ELLIPSE
  5
E4
330
1F
100
AcDbEntity
  8
SK1
  6
Continuous
100
AcDbEllipse
 10
46.8677917251
 20
-0.1913416156
 30
0.0
 11
-74.50000000515045
 21
-5.280847843351900E-9
 31
0.0
210
0.0
220
0.0
230
1.0
 40
0.9238795325
 41
0.2156776770478643
 42
0.2214607661063235
  0
SPLINE
  5
E5
330
1F
100
AcDbEntity
  8
SK3
100
AcDbSpline
210
0.0
220
0.0
230
1.0
 70
     8
 71
     3
 72
    35
 73
    31
 74
     0
 42
0.0000000087099154
 43
0.0000000001
 12
1.0
 22
0.0
 32
0.0
 13
1.0
 23
0.0
 33
0.0
 40
0.0
 40
0.0
 40
0.0
 40
0.0
 40
0.1077811479559694
 40
0.1077811479559694
 40
0.1077811479559694
 40
0.2155916358279549
 40
0.2155916358279549
 40
0.2155916358279549
 40
0.3229968525221955
 40
0.3229968525221955
 40
0.3229968525221955
 40
0.4301854251017615
 40
0.4301854251017615
 40
0.4301854251017615
 40
0.5000090712310199
 40
0.5000090712310199
 40
0.5000090712310199
 40
0.6071907309222064
 40
0.6071907309222064
 40
0.6071907309222064
 40
0.7143732371815352
 40
0.7143732371815352
 40
0.7143732371815352
 40
0.8215413649655434
 40
0.8215413649655434
 40
0.8215413649655434
 40
0.9287528651371136
 40
0.9287528651371136
 40
0.9287528651371136
 40
1.0
 40
1.0
 40
1.0
 40
1.0
 10
-27.20957594391144
 20
-7.129702521267904
 30
0.0
 10
-27.26579265611918
 20
-7.129702521267905
 30
0.0
 10
-27.32278754733125
 20
-7.13396830239574
 30
0.0
 10
-27.37584467306112
 20
-7.142086531539554
 30
0.0
 10
-27.42891067272788
 20
-7.150206118477482
 30
0.0
 10
-27.47950018297385
 20
-7.162398276057452
 30
0.0
 10
-27.52337942976117
 20
-7.177431940590404
 30
0.0
 10
-27.56709687598799
 20
-7.192410169911359
 30
0.0
 10
-27.60536292053472
 20
-7.210609982183497
 30
0.0
 10
-27.63499963889341
 20
-7.230255299450583
 30
0.0
 10
-27.66457822561225
 20
-7.249862082947018
 30
0.0
 10
-27.6863801283374
 20
-7.271437799686971
 30
0.0
 10
-27.69861098506892
 20
-7.293007976012637
 30
0.0
 10
-27.7066437359376
 20
-7.307174428651315
 30
0.0
 10
-27.71073333925822
 20
-7.321551713917724
 30
0.0
 10
-27.71073333925822
 20
-7.335603388368921
 30
0.0
 10
-27.71073333925822
 20
-7.356997511976891
 30
0.0
 10
-27.70110212755418
 20
-7.37811124826437
 30
0.0
 10
-27.68263039263169
 20
-7.397284332667494
 30
0.0
 10
-27.66415857343551
 20
-7.416457504544069
 30
0.0
 10
-27.63633512926864
 20
-7.434226651916455
 30
0.0
 10
-27.60145384150904
 20
-7.449346654373651
 30
0.0
 10
-27.56657680874556
 20
-7.464464812416379
 30
0.0
 10
-27.52368176035208
 20
-7.477363345369277
 30
0.0
 10
-27.47632021187455
 20
-7.48724626617508
 30
0.0
 10
-27.42893747410151
 20
-7.497133608545131
 30
0.0
 10
-27.3757848121347
 20
-7.50428637426765
 30
0.0
 10
-27.32125340441405
 20
-7.50832007681497
 30
0.0
 10
-27.28472679504447
 20
-7.511021959700769
 30
0.0
 10
-27.24703533808958
 20
-7.512385953632996
 30
0.0
 10
-27.20957594391144
 20
-7.512385953632994
 30
0.0
  0
SPLINE
  5
E6
330
1F
100
AcDbEntity
  8
SK1
  6
Continuous
100
AcDbSpline
210
0.0
220
0.0
230
1.0
 70
     8
 71
     3
 72
    35
 73
    31
 74
     0
 42
0.0000000083170356
 43
0.0000000001
 12
1.0
 22
0.0
 32
0.0
 13
1.0
 23
0.0
 33
0.0
 40
0.0
 40
0.0
 40
0.0
 40
0.0
 40
0.1164887905964453
 40
0.1164887905964453
 40
0.1164887905964453
 40
0.2332526504136886
 40
0.2332526504136886
 40
0.2332526504136886
 40
0.3454710350257124
 40
0.3454710350257124
 40
0.3454710350257124
 40
0.4508768133895136
 40
0.4508768133895136
 40
0.4508768133895136
 40
0.5003110897158547
 40
0.5003110897158547
 40
0.5003110897158547
 40
0.6001097649474688
 40
0.6001097649474688
 40
0.6001097649474688
 40
0.6997704681626774
 40
0.6997704681626774
 40
0.6997704681626774
 40
0.8015590486595499
 40
0.8015590486595499
 40
0.8015590486595499
 40
0.9086472129646557
 40
0.9086472129646557
 40
0.9086472129646557
 40
1.0
 40
1.0
 40
1.0
 40
1.0
 10
-25.81274140130112
 20
-15.30997754284086
 30
0.0
 10
-25.87470466576559
 20
-15.30192830441763
 30
0.0
 10
-25.93758349267971
 20
-15.29003437298419
 30
0.0
 10
-25.99619050698282
 20
-15.27510453355274
 30
0.0
 10
-26.05487585395331
 20
-15.26015473927187
 30
0.0
 10
-26.11095949093059
 20
-15.2417041121851
 30
0.0
 10
-26.15907542479646
 20
-15.22110868900121
 30
0.0
 10
-26.20531542714953
 20
-15.20131623481877
 30
0.0
 10
-26.24554710917528
 20
-15.17892859484334
 30
0.0
 10
-26.2755217648643
 20
-15.1558035645169
 30
0.0
 10
-26.30370407255941
 20
-15.13406130576071
 30
0.0
 10
-26.3236297783315
 20
-15.11101788763871
 30
0.0
 10
-26.33317334679417
 20
-15.08868187788738
 30
0.0
 10
-26.33770471692927
 20
-15.07807654426185
 30
0.0
 10
-26.34000000000003
 20
-15.06751725623593
 30
0.0
 10
-26.34000000000003
 20
-15.05723057686923
 30
0.0
 10
-26.34000000000003
 20
-15.03669034579146
 30
0.0
 10
-26.33063565675617
 20
-15.01682435045872
 30
0.0
 10
-26.31283927784441
 20
-14.99931703926084
 30
0.0
 10
-26.29505661800273
 20
-14.98182322429329
 30
0.0
 10
-26.26840930163868
 20
-14.96621112580145
 30
0.0
 10
-26.23533638667476
 20
-14.95370383366276
 30
0.0
 10
-26.20154570662198
 20
-14.94092510195901
 30
0.0
 10
-26.16020769354891
 20
-14.93104942457716
 30
0.0
 10
-26.11474564606765
 20
-14.92474937345676
 30
0.0
 10
-26.066932861409
 20
-14.91812356128492
 30
0.0
 10
-26.0133553252096
 20
-14.91527548883908
 30
0.0
 10
-25.95817983860028
 20
-14.91631745399104
 30
0.0
 10
-25.91093138061137
 20
-14.91720972064302
 30
0.0
 10
-25.86161120142701
 20
-14.92094575752642
 30
0.0
 10
-25.81274140129934
 20
-14.92729411047599
 30
0.0
  0
LINE
  5
E7
330
1F
100
AcDbEntity
  8
SK3
100
AcDbLine
 10
-0.6370702983
 20
7.9242413884
 30
0.0
 11
-30.94
 21
7.9242413884
 31
0.0
  0
ARC
  5
E8
330
1F
100
AcDbEntity
  8
SK3
100
AcDbCircle
 10
-0.636614984
 20
15.8865264177
 30
0.0
 40
7.962285042382897
100
AcDbArc
 50
269.9967236057
 51
273.6053792489
  0
SPLINE
  5
E9
330
1F
100
AcDbEntity
  8
SK1
  6
Continuous
100
AcDbSpline
210
0.0
220
0.0
230
1.0
 70
     8
 71
     3
 72
    20
 73
    16
 74
     0
 42
0.0000000198705735
 43
0.0000000001
 12
1.0
 22
0.0
 32
0.0
 13
1.0
 23
0.0
 33
0.0
 40
0.0
 40
0.0
 40
0.0
 40
0.0
 40
0.2133535526663004
 40
0.2133535526663004
 40
0.2133535526663004
 40
0.4266822720339624
 40
0.4266822720339624
 40
0.4266822720339624
 40
0.6404089198402529
 40
0.6404089198402529
 40
0.6404089198402529
 40
0.8551950616851703
 40
0.8551950616851703
 40
0.8551950616851703
 40
1.0
 40
1.0
 40
1.0
 40
1.0
 10
-2.339999999999999
 20
19.67080917502658
 30
0.0
 10
-2.339999999999999
 20
19.67080917502658
 30
0.0
 10
-2.349503685014235
 20
19.66922364541433
 30
0.0
 10
-2.367717853442718
 20
19.66622294118536
 30
0.0
 10
-2.385930848651681
 20
19.66322243023916
 30
0.0
 10
-2.413352596450876
 20
19.65872813619662
 30
0.0
 10
-2.447706302118144
 20
19.65321032163927
 30
0.0
 10
-2.482125522274305
 20
19.64768198429279
 30
0.0
 10
-2.524443596504323
 20
19.64098052832997
 30
0.0
 10
-2.571172119378625
 20
19.63377233543266
 30
0.0
 10
-2.618131515030236
 20
19.62652852883709
 30
0.0
 10
-2.67082660284905
 20
19.61858019122057
 30
0.0
 10
-2.724938837048139
 20
19.61066065808987
 30
0.0
 10
-2.761701213132906
 20
19.60528034327427
 30
0.0
 10
-2.799675567459907
 20
19.59982941826291
 30
0.0
 10
-2.837426974640036
 20
19.59452207693364
 30
0.0
  0
LINE
  5
EA
330
1F
100
AcDbEntity
  8
SK3
100
AcDbLine
 10
-27.2095759439
 20
-7.1297025213
 30
0.0
 11
14.26
 21
-7.1297025213
 31
0.0
  0
LINE
  5
EB
330
1F
100
AcDbEntity
  8
SK1
  6
Continuous
100
AcDbLine
 10
7.66
 20
-20.4999999002
 30
0.0
 11
7.66
 21
-19.1252377831
 31
0.0
  0
LINE
  5
EC
330
1F
100
AcDbEntity
  8
SK1
  6
Continuous
100
AcDbLine
 10
8.0064101615
 20
-20.4999999002
 30
0.0
 11
8.0064101615
 21
-19.1252377831
 31
0.0
  0
LINE
  5
ED
330
1F
100
AcDbEntity
  8
SK1
  6
Continuous
100
AcDbLine
 10
3.0473721046
 20
-20.4279547479
 30
0.0
 11
3.0473721046
 21
-19.0586568646
 31
0.0
  0
LINE
  5
EE
330
1F
100
AcDbEntity
  8
SK1
  6
Continuous
100
AcDbLine
 10
3.56
 20
-19.982334117
 30
0.0
 11
3.56
 21
-18.6468309542
 31
0.0
  0
LINE
  5
EF
330
1F
100
AcDbEntity
  8
SK1
  6
Continuous
100
AcDbLine
 10
14.66
 20
-16.5142104486
 30
0.0
 11
14.66
 21
-15.4414880697
 31
0.0
  0
LINE
  5
F0
330
1F
100
AcDbEntity
  8
SK1
  6
Continuous
100
AcDbLine
 10
14.535
 20
-16.7307167996
 30
0.0
 11
14.535
 21
-15.6416044122
 31
0.0
  0
LINE
  5
F1
330
1F
100
AcDbEntity
  8
SK1
  6
Continuous
100
AcDbLine
 10
3.76
 20
-18.0999999002
 30
0.0
 11
3.76
 21
-16.9071795537
 31
0.0
  0
LINE
  5
F2
330
1F
100
AcDbEntity
  8
SK1
  6
Continuous
100
AcDbLine
 10
7.46
 20
-18.0999999002
 30
0.0
 11
7.46
 21
-16.9071795537
 31
0.0
  0
LINE
  5
F3
330
1F
100
AcDbEntity
  8
SK1
  6
Continuous
100
AcDbLine
 10
-30.9095865505
 20
11.418098166
 30
0.0
 11
-30.9095865505
 21
15.6476292416
 31
0.0
  0
LINE
  5
F4
330
1F
100
AcDbEntity
  8
SK1
  6
Continuous
100
AcDbLine
 10
-31.34
 20
11.067800998
 30
0.0
 11
-31.34
 21
15.1522342357
 31
0.0
  0
SPLINE
  5
F5
330
1F
100
AcDbEntity
  8
SK1
  6
Continuous
100
AcDbSpline
210
0.0
220
0.0
230
1.0
 70
     8
 71
     3
 72
    10
 73
     6
 74
     0
 42
0.0000000161503712
 43
0.0000000001
 12
1.0
 22
0.0
 32
0.0
 13
1.0
 23
0.0
 33
0.0
 40
0.0
 40
0.0
 40
0.0
 40
0.0
 40
0.5
 40
0.5
 40
1.0
 40
1.0
 40
1.0
 40
1.0
 10
-31.33999999999998
 20
11.06780099803304
 30
0.0
 10
-31.34000000000001
 20
11.15201960410186
 30
0.0
 10
-31.29542015981368
 20
11.2362579634956
 30
0.0
 10
-31.13972113835962
 20
11.36314338122828
 30
0.0
 10
-31.02878034044549
 20
11.40624695414013
 30
0.0
 10
-30.90958655048001
 20
11.41809816602402
 30
0.0
  0
SPLINE
  5
F6
330
1F
100
AcDbEntity
  8
SK1
  6
Continuous
100
AcDbSpline
210
0.0
220
0.0
230
1.0
 70
     8
 71
     3
 72
    11
 73
     7
 74
     0
 42
0.0000000003544773
 43
0.0000000001
 12
1.0
 22
0.0
 32
0.0
 13
1.0
 23
0.0
 33
0.0
 40
0.0
 40
0.0
 40
0.0
 40
0.0
 40
0.969571793957103
 40
0.969571793957103
 40
0.969571793957103
 40
1.0
 40
1.0
 40
1.0
 40
1.0
 10
-30.90958655048001
 20
11.41809816602402
 30
0.0
 10
-21.83694658167206
 20
12.32017350618563
 30
0.0
 10
-12.76428551794339
 20
13.22214276618555
 30
0.0
 10
-3.691613755690049
 20
14.12405821030377
 30
0.0
 10
-3.40688483981302
 20
14.15236314774072
 30
0.0
 10
-3.122155912727825
 20
14.18066802880435
 30
0.0
 10
-2.837426974639338
 20
14.2089728545248
 30
0.0
  0
LINE
  5
F7
330
1F
100
AcDbEntity
  8
SK1
  6
Continuous
100
AcDbLine
 10
-31.34
 20
10.3606942168
 30
0.0
 11
-31.34
 21
11.067800998
 31
0.0
  0
SPLINE
  5
F8
330
1F
100
AcDbEntity
  8
SK3
100
AcDbSpline
210
0.0
220
0.0
230
1.0
 70
     8
 71
     3
 72
    10
 73
     6
 74
     0
 42
0.00000001803855
 43
0.0000000001
 12
1.0
 22
0.0
 32
0.0
 13
1.0
 23
0.0
 33
0.0
 40
0.0
 40
0.0
 40
0.0
 40
0.0
 40
0.5
 40
0.5
 40
1.0
 40
1.0
 40
1.0
 40
1.0
 10
-31.34000000000448
 20
5.53310960083309
 30
0.0
 10
-31.33999999999981
 20
5.459284754076016
 30
0.0
 10
-31.29765256306301
 20
5.385827318759793
 30
0.0
 10
-31.14851386579192
 20
5.279986783057349
 30
0.0
 10
-31.04574959916861
 20
5.249731460106746
 30
0.0
 10
-30.94
 20
5.249731460107021
 30
0.0
  0
SPLINE
  5
F9
330
1F
100
AcDbEntity
  8
SK3
100
AcDbSpline
210
0.0
220
0.0
230
1.0
 70
     8
 71
     3
 72
    10
 73
     6
 74
     0
 42
0.00000001803855
 43
0.0000000001
 12
1.0
 22
0.0
 32
0.0
 13
1.0
 23
0.0
 33
0.0
 40
0.0
 40
0.0
 40
0.0
 40
0.0
 40
0.5
 40
0.5
 40
1.0
 40
1.0
 40
1.0
 40
1.0
 10
-31.34000000000448
 20
6.240216382019636
 30
0.0
 10
-31.33999999999981
 20
6.166391535262561
 30
0.0
 10
-31.29765256306301
 20
6.092934099946339
 30
0.0
 10
-31.14851386579192
 20
5.987093564243891
 30
0.0
 10
-31.04574959916861
 20
5.956838241293292
 30
0.0
 10
-30.94
 20
5.956838241293566
 30
0.0
  0
SPLINE
  5
FA
330
1F
100
AcDbEntity
  8
SK1
  6
Continuous
100
AcDbSpline
210
0.0
220
0.0
230
1.0
 70
     8
 71
     3
 72
    10
 73
     6
 74
     0
 42
0.0000000161503712
 43
0.0000000001
 12
1.0
 22
0.0
 32
0.0
 13
1.0
 23
0.0
 33
0.0
 40
0.0
 40
0.0
 40
0.0
 40
0.0
 40
0.5
 40
0.5
 40
1.0
 40
1.0
 40
1.0
 40
1.0
 10
-31.33999999999998
 20
10.3606942168465
 30
0.0
 10
-31.33999999999999
 20
10.44491282291531
 30
0.0
 10
-31.29542015981368
 20
10.52915118230906
 30
0.0
 10
-31.13972113835961
 20
10.65603660004174
 30
0.0
 10
-31.02878034044549
 20
10.69914017295358
 30
0.0
 10
-30.90958655048001
 20
10.71099138483747
 30
0.0
  0
SPLINE
  5
FB
330
1F
100
AcDbEntity
  8
SK1
  6
Continuous
100
AcDbSpline
210
0.0
220
0.0
230
1.0
 70
     8
 71
     3
 72
    11
 73
     7
 74
     0
 42
0.0000000003544773
 43
0.0000000001
 12
1.0
 22
0.0
 32
0.0
 13
1.0
 23
0.0
 33
0.0
 40
0.0
 40
0.0
 40
0.0
 40
0.0
 40
0.9695717939571273
 40
0.9695717939571273
 40
0.9695717939571273
 40
1.0
 40
1.0
 40
1.0
 40
1.0
 10
-30.90958655048001
 20
10.71099138483747
 30
0.0
 10
-21.83694658167206
 20
11.61306672499908
 30
0.0
 10
-12.76428551794339
 20
12.515035984999
 30
0.0
 10
-3.691613755690049
 20
13.41695142911722
 30
0.0
 10
-3.406884839813256
 20
13.44525636655415
 30
0.0
 10
-3.122155912728294
 20
13.47356124761776
 30
0.0
 10
-2.837426974640043
 20
13.50186607333818
 30
0.0
  0
SPLINE
  5
FC
330
1F
100
AcDbEntity
  8
SK3
100
AcDbSpline
210
0.0
220
0.0
230
1.0
 70
     8
 71
     3
 72
    11
 73
     7
 74
     0
 42
0.0000002079639641
 43
0.0000000001
 12
1.0
 22
0.0
 32
0.0
 13
1.0
 23
0.0
 33
0.0
 40
0.0
 40
0.0
 40
0.0
 40
0.0
 40
0.2489570973283132
 40
0.2489570973283132
 40
0.2489570973283132
 40
1.0
 40
1.0
 40
1.0
 40
1.0
 10
-27.69140305965995
 20
-7.387188890628635
 30
0.0
 10
-27.69408665256823
 20
-7.383763563753036
 30
0.0
 10
-27.69649240289442
 20
-7.380299501662222
 30
0.0
 10
-27.69861098506892
 20
-7.376803966317485
 30
0.0
 10
-27.70505473875738
 20
-7.366172153663747
 30
0.0
 10
-27.70896107281731
 20
-7.355127357880736
 30
0.0
 10
-27.71025438575184
 20
-7.34392016668052
 30
0.0
  0
SPLINE
  5
FD
330
1F
100
AcDbEntity
  8
SK3
100
AcDbSpline
210
0.0
220
0.0
230
1.0
 70
     8
 71
     3
 72
     8
 73
     4
 74
     0
 42
0.0000005681570094
 43
0.0000000001
 12
1.0
 22
0.0
 32
0.0
 13
1.0
 23
0.0
 33
0.0
 40
0.0
 40
0.0
 40
0.0
 40
0.0
 40
0.9999999999999999
 40
0.9999999999999999
 40
0.9999999999999999
 40
0.9999999999999999
 10
-26.34000000000004
 20
-15.05723057686922
 30
0.0
 10
-26.34000000000004
 20
-15.06294238483826
 30
0.0
 10
-26.3392758744524
 20
-15.06875010355469
 30
0.0
 10
-26.33784767103299
 20
-15.07461498408
 30
0.0
  0
LINE
  5
FE
330
1F
100
AcDbEntity
  8
SK3
100
AcDbLine
 10
-0.6370702983
 20
5.2497314601
 30
0.0
 11
-30.94
 21
5.2497314601
 31
0.0
  0
SPLINE
  5
FF
330
1F
100
AcDbEntity
  8
SK3
100
AcDbSpline
210
0.0
220
0.0
230
1.0
 70
     8
 71
     3
 72
    35
 73
    31
 74
     0
 42
0.0000000073591328
 43
0.0000000001
 12
1.0
 22
0.0
 32
0.0
 13
1.0
 23
0.0
 33
0.0
 40
0.0
 40
0.0
 40
0.0
 40
0.0
 40
0.1077811479559766
 40
0.1077811479559766
 40
0.1077811479559766
 40
0.2155916358279713
 40
0.2155916358279713
 40
0.2155916358279713
 40
0.3229968525222064
 40
0.3229968525222064
 40
0.3229968525222064
 40
0.430185425101773
 40
0.430185425101773
 40
0.430185425101773
 40
0.5000090712310191
 40
0.5000090712310191
 40
0.5000090712310191
 40
0.6071907309222105
 40
0.6071907309222105
 40
0.6071907309222105
 40
0.71437323718154
 40
0.71437323718154
 40
0.71437323718154
 40
0.8215413649655511
 40
0.8215413649655511
 40
0.8215413649655511
 40
0.928752865137132
 40
0.928752865137132
 40
0.928752865137132
 40
1.0
 40
1.0
 40
1.0
 40
1.0
 10
-0.6370702982504174
 20
5.249731460107021
 30
0.0
 10
-0.5808535860426685
 20
5.249731460107021
 30
0.0
 10
-0.5238586948305961
 20
5.256989429455762
 30
0.0
 10
-0.4708015691007212
 20
5.270885828315493
 30
0.0
 10
-0.4177355694339538
 20
5.284784551382666
 30
0.0
 10
-0.3671460591879797
 20
5.305706169507407
 30
0.0
 10
-0.3232668124006546
 20
5.331757193285258
 30
0.0
 10
-0.2795493661738382
 20
5.35771215638391
 30
0.0
 10
-0.2412833216271157
 20
5.389466013152058
 30
0.0
 10
-0.2116466032684259
 20
5.424181431213483
 30
0.0
 10
-0.1820680165495834
 20
5.458828755899807
 30
0.0
 10
-0.1602661138244335
 20
5.497372528058972
 30
0.0
 10
-0.1480352570929159
 20
5.536476762024012
 30
0.0
 10
-0.1400025062242398
 20
5.562158901570471
 30
0.0
 10
-0.1359129029036166
 20
5.588463833545952
 30
0.0
 10
-0.1359129029036166
 20
5.614427942391894
 30
0.0
 10
-0.1359129029036166
 20
5.653959128226736
 30
0.0
 10
-0.1455441146076698
 20
5.693595077884615
 30
0.0
 10
-0.1640158495301615
 20
5.730121071406224
 30
0.0
 10
-0.1824876687263367
 20
5.766647231570547
 30
0.0
 10
-0.2103111128932012
 20
5.801076687804608
 30
0.0
 10
-0.2451924006527974
 20
5.830731751180978
 30
0.0
 10
-0.2800694334162794
 20
5.860383197082551
 30
0.0
 10
-0.3229644818097746
 20
5.886087527361135
 30
0.0
 10
-0.3703260302873115
 20
5.905932655871996
 30
0.0
 10
-0.4177087680603611
 20
5.925786662983874
 30
0.0
 10
-0.4708614300271696
 20
5.940331526667055
 30
0.0
 10
-0.5253928377478307
 20
5.948546305482138
 30
0.0
 10
-0.5619194471174032
 20
5.95404878615113
 30
0.0
 10
-0.5996109040722879
 20
5.956838241293567
 30
0.0
 10
-0.6370702982504174
 20
5.956838241293566
 30
0.0
  0
SPLINE
  5
100
330
1F
100
AcDbEntity
  8
SK1
  6
Continuous
100
AcDbSpline
210
0.0
220
0.0
230
1.0
 70
     8
 71
     3
 72
    35
 73
    31
 74
     0
 42
0.0000000073735606
 43
0.0000000001
 12
1.0
 22
0.0
 32
0.0
 13
1.0
 23
0.0
 33
0.0
 40
0.0
 40
0.0
 40
0.0
 40
0.0
 40
0.1083835106360962
 40
0.1083835106360962
 40
0.1083835106360962
 40
0.2168004354265396
 40
0.2168004354265396
 40
0.2168004354265396
 40
0.3247144655137645
 40
0.3247144655137645
 40
0.3247144655137645
 40
0.4319468106744077
 40
0.4319468106744077
 40
0.4319468106744077
 40
0.5000278904991659
 40
0.5000278904991659
 40
0.5000278904991659
 40
0.6066987162952941
 40
0.6066987162952941
 40
0.6066987162952941
 40
0.7133571261347182
 40
0.7133571261347182
 40
0.7133571261347182
 40
0.8202144890950357
 40
0.8202144890950357
 40
0.8202144890950357
 40
0.9276015695248486
 40
0.9276015695248486
 40
0.9276015695248486
 40
1.0
 40
1.0
 40
1.0
 40
1.0
 10
-2.837426974639338
 20
14.2089728545248
 30
0.0
 10
-2.781353505827061
 20
14.21454710269278
 30
0.0
 10
-2.724540069271322
 20
14.21349366713976
 30
0.0
 10
-2.671679481394008
 20
14.20583703333038
 30
0.0
 10
-2.618809405157414
 20
14.19817902517206
 30
0.0
 10
-2.568431588171417
 20
14.18369545569062
 30
0.0
 10
-2.524772936324197
 20
14.1634845557703
 30
0.0
 10
-2.481316214494441
 20
14.14336713531398
 30
0.0
 10
-2.443310263976727
 20
14.117009407849
 30
0.0
 10
-2.413961301953663
 20
14.08651245564818
 30
0.0
 10
-2.384794825579829
 20
14.05620512705713
 30
0.0
 10
-2.363368357086494
 20
14.02096503555441
 30
0.0
 10
-2.351483492708486
 20
13.9836693233806
 30
0.0
 10
-2.343873044596531
 20
13.95978709189108
 30
0.0
 10
-2.340000000000002
 20
13.93472930131304
 30
0.0
 10
-2.340000000000002
 20
13.90936258831001
 30
0.0
 10
-2.340000000000002
 20
13.86995134872918
 30
0.0
 10
-2.349503685014229
 20
13.82887554966139
 30
0.0
 10
-2.367717853442711
 20
13.78956682873109
 30
0.0
 10
-2.385930848651675
 20
13.75026063977247
 30
0.0
 10
-2.413352596450879
 20
13.7116422814052
 30
0.0
 10
-2.447706302118148
 20
13.67695530813798
 30
0.0
 10
-2.482125522274309
 20
13.64220218482142
 30
0.0
 10
-2.524443596504326
 20
13.61044606533633
 30
0.0
 10
-2.571172119378629
 20
13.58434390365416
 30
0.0
 10
-2.61813151503024
 20
13.55811277837138
 30
0.0
 10
-2.670826602849053
 20
13.53687572619386
 30
0.0
 10
-2.724938837048146
 20
13.52238806011212
 30
0.0
 10
-2.761701213132767
 20
13.51254553490561
 30
0.0
 10
-2.799675567459609
 20
13.50561893038224
 30
0.0
 10
-2.837426974640043
 20
13.50186607333818
 30
0.0
  0
LINE
  5
101
330
1F
100
AcDbEntity
  8
SK3
100
AcDbLine
 10
-0.6370702983
 20
5.9568382413
 30
0.0
 11
-30.94
 21
5.9568382413
 31
0.0
  0
ELLIPSE
  5
102
330
1F
100
AcDbEntity
  8
SK1
  6
Continuous
100
AcDbEllipse
 10
-74.7144379603
 20
0.3535534906
 30
0.0
 11
74.49999999820052
 21
-4.662538547960805E-10
 31
0.0
210
0.0
220
0.0
230
1.0
 40
0.7071067812
 41
0.253636649774951
 42
0.2661445757477966
  0
LINE
  5
103
330
1F
100
AcDbEntity
  8
SK1
  6
Continuous
100
AcDbLine
 10
-30.9095865505
 20
0.5000000998
 30
0.0
 11
-30.9095865505
 21
10.7109913848
 31
0.0
  0
LINE
  5
104
330
1F
100
AcDbEntity
  8
SK1
  6
Continuous
100
AcDbLine
 10
-31.34
 20
0.5000000998
 30
0.0
 11
-31.34
 21
10.3606942168
 31
0.0
  0
LINE
  5
105
330
1F
100
AcDbEntity
  8
SK1
  6
Continuous
100
AcDbLine
 10
-31.34
 20
0.5000000998
 30
0.0
 11
-30.9095865505
 21
0.5000000998
 31
0.0
  0
LINE
  5
106
330
1F
100
AcDbEntity
  8
SK1
  6
Continuous
100
AcDbLine
 10
-30.9095865505
 20
0.5000000998
 30
0.0
 11
-2.8374269746
 21
0.5000000998
 31
0.0
  0
LINE
  5
107
330
1F
100
AcDbEntity
  8
SK1
  6
Continuous
100
AcDbLine
 10
-31.34
 20
-0.4999999002
 30
0.0
 11
-30.9095865505
 21
-0.4999999002
 31
0.0
  0
LINE
  5
108
330
1F
100
AcDbEntity
  8
SK1
  6
Continuous
100
AcDbLine
 10
-30.9095865505
 20
-0.4999999002
 30
0.0
 11
-2.8374269746
 21
-0.4999999002
 31
0.0
  0
SPLINE
  5
109
330
1F
100
AcDbEntity
  8
SK3
100
AcDbSpline
210
0.0
220
0.0
230
1.0
 70
     8
 71
     3
 72
     8
 73
     4
 74
     0
 42
0.0000003119597758
 43
0.0000000001
 12
1.0
 22
0.0
 32
0.0
 13
1.0
 23
0.0
 33
0.0
 40
0.0
 40
0.0
 40
0.0
 40
0.0
 40
1.0
 40
1.0
 40
1.0
 40
1.0
 10
-26.29468635511389
 20
-6.426455630100669
 30
0.0
 10
-26.28995896027341
 20
-6.435990850157835
 30
0.0
 10
-26.28488285902426
 20
-6.445402598916821
 30
0.0
 10
-26.27947968008572
 20
-6.454660499418241
 30
0.0
  0
LINE
  5
10A
330
1F
100
AcDbEntity
  8
SK3
100
AcDbLine
 10
-2.8374269746
 20
-0.4999999002
 30
0.0
 11
-0.6370702983
 21
-0.4999999002
 31
0.0
  0
ARC
  5
10B
330
1F
100
AcDbEntity
  8
SK3
100
AcDbCircle
 10
-0.6358393113
 20
0.0000000998
 30
0.0
 40
0.500001515326499
100
AcDbArc
 50
269.8589395748
 51
90.1410604252
  0
ARC
  5
10C
330
1F
100
AcDbEntity
  8
SK1
  6
Continuous
100
AcDbCircle
 10
-2.8399521657
 20
0.0000000998
 30
0.0
 40
0.5000063765490347
100
AcDbArc
 50
270.2893631158
 51
89.7106368842
  0
LINE
  5
10D
330
1F
100
AcDbEntity
  8
SK3
100
AcDbLine
 10
-0.6370702983
 20
0.5000000998
 30
0.0
 11
-2.8374269746
 21
0.5000000998
 31
0.0
  0
LINE
  5
10E
330
1F
100
AcDbEntity
  8
SK1
  6
Continuous
100
AcDbLine
 10
3.0473721046
 20
20.4279549475
 30
0.0
 11
-2.34
 21
19.670809175
 31
0.0
  0
LINE
  5
10F
330
1F
100
AcDbEntity
  8
SK1
  6
Continuous
100
AcDbLine
 10
-2.34
 20
-19.6708089755
 30
0.0
 11
3.0473721046
 21
-20.4279547479
 31
0.0
  0
LINE
  5
110
330
1F
100
AcDbEntity
  8
SK3
100
AcDbLine
 10
-0.1359129029
 20
-7.9399999002
 30
0.0
 11
14.26
 21
-7.9399999002
 31
0.0
  0
LINE
  5
111
330
1F
100
AcDbEntity
  8
SK3
100
AcDbLine
 10
14.26
 20
7.9400000998
 30
0.0
 11
-0.1359129029
 21
7.9400000998
 31
0.0
  0
ARC
  5
112
330
1F
100
AcDbEntity
  8
SK3
100
AcDbCircle
 10
-39.3662296585
 20
0.3063427153
 30
0.0
 40
39.67725669082697
100
AcDbArc
 50
338.8689628273
 51
351.3637731294
  0
ARC
  5
113
330
1F
100
AcDbEntity
  8
SK3
100
AcDbCircle
 10
-74.7144379621
 20
0.0000000998
 30
0.0
 40
75.0
100
AcDbArc
 50
344.7947095873
 51
353.9228813683
  0
LINE
  5
114
330
1F
100
AcDbEntity
  8
SK1
  6
Continuous
100
AcDbLine
 10
8.0064101615
 20
20.5000000998
 30
0.0
 11
7.66
 21
20.5000000998
 31
0.0
  0
ARC
  5
115
330
1F
100
AcDbEntity
  8
SK3
100
AcDbCircle
 10
14.26
 20
8.3400000998
 30
0.0
 40
0.4000000000000009
100
AcDbArc
 50
270.0
 51
0.0
  0
ARC
  5
116
330
1F
100
AcDbEntity
  8
SK1
  6
Continuous
100
AcDbCircle
 10
3.11
 20
19.9823343165
 30
0.0
 40
0.4499999999999955
100
AcDbArc
 50
0.0
 51
98.0
  0
ARC
  5
117
330
1F
100
AcDbEntity
  8
SK1
  6
Continuous
100
AcDbCircle
 10
14.41
 20
16.5142106481
 30
0.0
 40
0.2499999999999984
100
AcDbArc
 50
0.0
 51
60.0
  0
ARC
  5
118
330
1F
100
AcDbEntity
  8
SK1
  6
Continuous
100
AcDbCircle
 10
3.76
 20
18.3000000998
 30
0.0
 40
0.199999999999999
100
AcDbArc
 50
180.0
 51
270.0
  0
LINE
  5
119
330
1F
100
AcDbEntity
  8
SK1
  6
Continuous
100
AcDbLine
 10
7.46
 20
18.1000000998
 30
0.0
 11
3.76
 21
18.1000000998
 31
0.0
  0
ARC
  5
11A
330
1F
100
AcDbEntity
  8
SK1
  6
Continuous
100
AcDbCircle
 10
7.46
 20
18.3000000998
 30
0.0
 40
0.1999999999999988
100
AcDbArc
 50
270.0
 51
0.0
  0
LINE
  5
11B
330
1F
100
AcDbEntity
  8
SK1
  6
Continuous
100
AcDbLine
 10
14.535
 20
16.7307169991
 30
0.0
 11
8.0064101615
 21
20.5000000998
 31
0.0
  0
ARC
  5
11C
330
1F
100
AcDbEntity
  8
SK3
100
AcDbCircle
 10
36.0350915829
 20
0.0116478495
 30
0.0
 40
64.16511816378835
100
AcDbArc
 50
166.4216415052
 51
173.4382985128
  0
ARC
  5
11D
330
1F
100
AcDbEntity
  8
SK3
100
AcDbCircle
 10
-14.2334254669
 20
-0.6672493789
 30
0.0
 40
13.99314903086285
100
AcDbArc
 50
149.4040035741
 51
164.1584363116
  0
ARC
  5
11E
330
1F
100
AcDbEntity
  8
SK3
100
AcDbCircle
 10
-14.1909254869
 20
0.6819873967
 30
0.0
 40
14.03782556187266
100
AcDbArc
 50
195.8525716763
 51
210.5555216986
  0
ARC
  5
11F
330
1F
100
AcDbEntity
  8
SK3
100
AcDbCircle
 10
35.7054058507
 20
-0.0580662004
 30
0.0
 40
63.83255774610802
100
AcDbArc
 50
186.5541690892
 51
193.6063616987
  0
ARC
  5
120
330
1F
100
AcDbEntity
  8
SK3
100
AcDbCircle
 10
-74.7144379621
 20
0.0000000998
 30
0.0
 40
75.0
100
AcDbArc
 50
6.0771468235
 51
15.2052660026
  0
LINE
  5
121
330
1F
100
AcDbEntity
  8
SK1
  6
Continuous
100
AcDbLine
 10
7.66
 20
-20.4999999002
 30
0.0
 11
8.0064101615
 21
-20.4999999002
 31
0.0
  0
ARC
  5
122
330
1F
100
AcDbEntity
  8
SK3
100
AcDbCircle
 10
14.26
 20
-8.3399999002
 30
0.0
 40
0.3999999999999997
100
AcDbArc
 50
0.0
 51
90.0
  0
ARC
  5
123
330
1F
100
AcDbEntity
  8
SK1
  6
Continuous
100
AcDbCircle
 10
3.11
 20
-19.982334117
 30
0.0
 40
0.4499999999999972
100
AcDbArc
 50
262.0
 51
0.0
  0
ARC
  5
124
330
1F
100
AcDbEntity
  8
SK1
  6
Continuous
100
AcDbCircle
 10
14.41
 20
-16.5142104486
 30
0.0
 40
0.2499999999999986
100
AcDbArc
 50
300.0
 51
0.0
  0
ARC
  5
125
330
1F
100
AcDbEntity
  8
SK1
  6
Continuous
100
AcDbCircle
 10
3.76
 20
-18.2999999002
 30
0.0
 40
0.2000000000000023
100
AcDbArc
 50
90.0
 51
180.0
  0
LINE
  5
126
330
1F
100
AcDbEntity
  8
SK1
  6
Continuous
100
AcDbLine
 10
3.76
 20
-18.0999999002
 30
0.0
 11
7.46
 21
-18.0999999002
 31
0.0
  0
ARC
  5
127
330
1F
100
AcDbEntity
  8
SK1
  6
Continuous
100
AcDbCircle
 10
7.46
 20
-18.2999999002
 30
0.0
 40
0.199999999999999
100
AcDbArc
 50
0.0
 51
90.0
  0
LINE
  5
128
330
1F
100
AcDbEntity
  8
SK1
  6
Continuous
100
AcDbLine
 10
8.0064101615
 20
-20.4999999002
 30
0.0
 11
14.535
 21
-16.7307167996
 31
0.0
  0
ARC
  5
129
330
1F
100
AcDbEntity
  8
SK3
100
AcDbCircle
 10
-39.380783758
 20
-0.3073514308
 30
0.0
 40
39.69157410551941
100
AcDbArc
 50
8.6347007937
 51
21.1245061609
  0
LINE
  5
12A
330
1F
100
AcDbEntity
  8
SK1
  6
Continuous
100
AcDbLine
 10
0.0
 20
19.9996747282
 30
0.0
 11
0.0
 21
-19.9996745287
 31
0.0
  0
LINE
  5
12C
330
1F
100
AcDbEntity
  8
SK4
  6
Continuous
100
AcDbLine
 10
14.66
 20
0.0000000998
 30
0.0
 11
-31.34
 21
0.0000000998
 31
0.0
  0
DIMENSION
  5
142
330
1F
100
AcDbEntity
  8
SK2
  6
Continuous
 62
   136
100
AcDbDimension
  2
DMBLK137
 10
-31.34
 20
29.9999999124
 30
0.0
 11
-8.3399999553
 21
29.9999999124
 31
0.0
 70
   161
  1
\A1;<>
 71
     5
 42
-1.0
  3
DIN
100
AcDbAlignedDimension
 13
-31.34
 23
15.1522342357
 33
0.0
 14
14.66
 24
15.0588048368
 34
0.0
  0
INSERT
  5
156
330
1F
100
AcDbEntity
  8
SK2
 62
     7
100
AcDbBlockReference
  2
Nullpunkt
 10
0.0
 20
0.0000000998
 30
0.0
  0
INSERT
  5
161
330
1F
100
AcDbEntity
  8
SK2
 62
     7
100
AcDbBlockReference
  2
Einfügepunkt
 10
14.66
 20
0.0000000998
 30
0.0
  0
DIMENSION
  5
162
330
1F
100
AcDbEntity
  8
SK2
  6
Continuous
 62
   136
100
AcDbDimension
  2
DMBLK138
 10
24.2702154538
 20
-7.9399999002
 30
0.0
 11
24.2702154538
 21
0.0000000229
 31
0.0
 70
   161
  1
\A1;ø <>
 71
     5
 42
-1.0
  3
DIN
100
AcDbAlignedDimension
 13
14.26
 23
-7.9399999002
 33
0.0
 14
14.26
 24
7.9400000998
 34
0.0
  0
DIMENSION
  5
16D
330
1F
100
AcDbEntity
  8
SK2
  6
Continuous
 62
   136
100
AcDbDimension
  2
DMBLK139
 10
14.66
 20
-28.354296468
 30
0.0
 11
7.3299999349
 21
-28.354296468
 31
0.0
 70
   160
  1
\A1;<>
 71
     5
 42
-1.0
  3
DIN
100
AcDbAlignedDimension
 13
0.0
 23
-19.9996745287
 33
0.0
 14
14.66
 24
-15.9778492591
 34
0.0
100
AcDbRotatedDimension
  0
DIMENSION
  5
177
330
1F
100
AcDbEntity
  8
SK2
  6
Continuous
 62
   136
100
AcDbDimension
  2
DMBLK140
 10
-40.4584258795
 20
19.9996747282
 30
0.0
 11
-40.4584258795
 21
-0.0000007245
 31
0.0
 70
   161
  1
\A1;ø <>
 71
     5
 42
-1.0
  3
DIN
100
AcDbAlignedDimension
 13
0.0
 23
19.9996747282
 33
0.0
 14
0.0
 24
-19.9996745287
 34
0.0
  0
ENDSEC
  0
SECTION
  2
OBJECTS
  0
DICTIONARY
  5
C
330
0
100
AcDbDictionary
281
     1
  3
ACAD_GROUP
350
D
  3
ACAD_LAYOUT
350
1A
  3
ACAD_MATERIAL
350
3B
  3
ACAD_MLEADERSTYLE
350
184
  3
ACAD_MLINESTYLE
350
17
  3
ACAD_PLOTSETTINGS
350
19
  3
ACAD_PLOTSTYLENAME
350
E
  3
ACAD_VISUALSTYLE
350
2A
  3
AcDbVariableDictionary
350
182
  0
DICTIONARY
  5
D
102
{ACAD_REACTORS
330
C
102
}
330
C
100
AcDbDictionary
281
     1
  0
DICTIONARY
  5
1A
102
{ACAD_REACTORS
330
C
102
}
330
C
100
AcDbDictionary
281
     1
  3
Layout1
350
1E
  3
Model
350
22
  0
DICTIONARY
  5
3B
102
{ACAD_REACTORS
330
C
102
}
330
C
100
AcDbDictionary
281
     1
  3
ByBlock
350
3D
  3
ByLayer
350
3C
  3
Global
350
3E
  0
DICTIONARY
  5
184
102
{ACAD_REACTORS
330
C
102
}
330
C
100
AcDbDictionary
281
     1
  0
DICTIONARY
  5
17
102
{ACAD_REACTORS
330
C
102
}
330
C
100
AcDbDictionary
281
     1
  3
Standard
350
18
  0
DICTIONARY
  5
19
102
{ACAD_REACTORS
330
C
102
}
330
C
100
AcDbDictionary
281
     1
  0
ACDBDICTIONARYWDFLT
  5
E
102
{ACAD_REACTORS
330
C
102
}
330
C
100
AcDbDictionary
281
     1
  3
Normal
350
F
100
AcDbDictionaryWithDefault
340
F
  0
DICTIONARY
  5
2A
102
{ACAD_REACTORS
330
C
102
}
330
C
100
AcDbDictionary
281
     1
  3
2dWireframe
350
2F
  3
3D Hidden
350
31
  3
3dWireframe
350
30
  3
Basic
350
32
  3
Brighten
350
36
  3
ColorChange
350
3A
  3
Conceptual
350
34
  3
Dim
350
35
  3
Facepattern
350
39
  3
Flat
350
2B
  3
FlatWithEdges
350
2C
  3
Gouraud
350
2D
  3
GouraudWithEdges
350
2E
  3
Linepattern
350
38
  3
Realistic
350
33
  3
Thicken
350
37
  0
DICTIONARY
  5
182
102
{ACAD_REACTORS
330
C
102
}
330
C
100
AcDbDictionary
281
     1
  3
DIMASSOC
350
187
  3
HIDETEXT
350
188
  3
PSOLHEIGHT
350
186
  3
PSOLWIDTH
350
185
  0
LAYOUT
  5
1E
102
{ACAD_REACTORS
330
1A
102
}
330
1A
100
AcDbPlotSettings
  1

  2
none_device
  4

  6

 40
0.0
 41
0.0
 42
0.0
 43
0.0
 44
0.0
 45
0.0
 46
0.0
 47
0.0
 48
0.0
 49
0.0
140
0.0
141
0.0
142
1.0
143
1.0
 70
   688
 72
     0
 73
     0
 74
     5
  7

 75
    16
147
1.0
148
0.0
149
0.0
100
AcDbLayout
  1
Layout1
 70
     1
 71
     1
 10
0.0
 20
0.0
 11
210.0
 21
297.0
 12
0.0
 22
0.0
 32
0.0
 14
0.0
 24
0.0
 34
0.0
 15
210.0
 25
297.0
 35
0.0
146
0.0
 13
0.0
 23
0.0
 33
0.0
 16
1.0
 26
0.0
 36
0.0
 17
0.0
 27
1.0
 37
0.0
 76
     0
330
1B
  0
LAYOUT
  5
22
102
{ACAD_REACTORS
330
1A
102
}
330
1A
100
AcDbPlotSettings
  1

  2
none_device
  4

  6

 40
0.0
 41
0.0
 42
0.0
 43
0.0
 44
0.0
 45
0.0
 46
0.0
 47
0.0
 48
0.0
 49
0.0
140
0.0
141
0.0
142
1.0
143
1.0
 70
  1712
 72
     0
 73
     0
 74
     0
  7

 75
     0
147
1.0
148
0.0
149
0.0
100
AcDbLayout
  1
Model
 70
     1
 71
     0
 10
0.0
 20
0.0
 11
210.0
 21
297.0
 12
0.0
 22
0.0
 32
0.0
 14
0.0
 24
0.0
 34
0.0
 15
210.0
 25
297.0
 35
0.0
146
0.0
 13
0.0
 23
0.0
 33
0.0
 16
1.0
 26
0.0
 36
0.0
 17
0.0
 27
1.0
 37
0.0
 76
     0
330
1F
331
29
  0
MATERIAL
  5
3D
102
{ACAD_REACTORS
330
3B
102
}
102
{ACAD_XDICTIONARY
360
1AB
102
}
330
3B
100
AcDbMaterial
  1
ByBlock
  0
MATERIAL
  5
3C
102
{ACAD_REACTORS
330
3B
102
}
102
{ACAD_XDICTIONARY
360
1A9
102
}
330
3B
100
AcDbMaterial
  1
ByLayer
  0
MATERIAL
  5
3E
102
{ACAD_REACTORS
330
3B
102
}
102
{ACAD_XDICTIONARY
360
1AD
102
}
330
3B
100
AcDbMaterial
  1
Global
  0
MLINESTYLE
  5
18
102
{ACAD_REACTORS
330
17
102
}
330
17
100
AcDbMlineStyle
  2
Standard
 70
     0
  3

 62
   256
 51
90.0
 52
90.0
 71
     2
 49
0.5
 62
   256
  6
BYLAYER
 49
-0.5
 62
   256
  6
BYLAYER
  0
ACDBPLACEHOLDER
  5
F
102
{ACAD_REACTORS
330
E
102
}
330
E
  0
VISUALSTYLE
  5
2F
102
{ACAD_REACTORS
330
2A
102
}
102
{ACAD_XDICTIONARY
360
191
102
}
330
2A
100
AcDbVisualStyle
  2
2dWireframe
 70
     4
 71
     0
 72
     2
 73
     0
 90
        0
 40
-0.6
 41
-30.0
 62
     5
 63
     7
 74
     1
 91
        4
 64
     7
 65
   257
 75
     1
175
     1
 42
1.0
 92
        0
 66
   257
 43
1.0
 76
     1
 77
     6
 78
     2
 67
     7
 79
     5
170
     0
171
     0
290
     0
174
     0
 93
        1
 44
0.0
173
     0
291
     0
 45
0.0
1001
ACAD
1000
AcDbSavedByObjectVersion
1070
     0
  0
VISUALSTYLE
  5
31
102
{ACAD_REACTORS
330
2A
102
}
102
{ACAD_XDICTIONARY
360
195
102
}
330
2A
100
AcDbVisualStyle
  2
3D Hidden
 70
     6
 71
     1
 72
     2
 73
     2
 90
        0
 40
-0.6
 41
-30.0
 62
     5
 63
     7
 74
     2
 91
        2
 64
     7
 65
   257
 75
     2
175
     1
 42
40.0
 92
        0
 66
   257
 43
1.0
 76
     1
 77
     6
 78
     2
 67
     7
 79
     3
170
     0
171
     0
290
     0
174
     0
 93
        1
 44
0.0
173
     0
291
     0
 45
0.0
1001
ACAD
1000
AcDbSavedByObjectVersion
1070
     0
  0
VISUALSTYLE
  5
30
102
{ACAD_REACTORS
330
2A
102
}
102
{ACAD_XDICTIONARY
360
193
102
}
330
2A
100
AcDbVisualStyle
  2
3dWireframe
 70
     5
 71
     0
 72
     2
 73
     0
 90
        0
 40
-0.6
 41
-30.0
 62
     5
 63
     7
 74
     1
 91
        4
 64
     7
 65
   257
 75
     1
175
     1
 42
1.0
 92
        0
 66
   257
 43
1.0
 76
     1
 77
     6
 78
     2
 67
     7
 79
     5
170
     0
171
     0
290
     0
174
     0
 93
        1
 44
0.0
173
     0
291
     0
 45
0.0
1001
ACAD
1000
AcDbSavedByObjectVersion
1070
     0
  0
VISUALSTYLE
  5
32
102
{ACAD_REACTORS
330
2A
102
}
102
{ACAD_XDICTIONARY
360
197
102
}
330
2A
100
AcDbVisualStyle
  2
Basic
 70
     7
 71
     1
 72
     0
 73
     1
 90
        0
 40
-0.6
 41
-30.0
 62
     5
 63
     7
 74
     0
 91
        4
 64
     7
 65
   257
 75
     1
175
     1
 42
1.0
 92
        8
 66
     7
 43
1.0
 76
     1
 77
     6
 78
     2
 67
     7
 79
     5
170
     0
171
     0
290
     0
174
     0
 93
        1
 44
0.0
173
     0
291
     1
 45
0.0
1001
ACAD
1000
AcDbSavedByObjectVersion
1070
     0
  0
VISUALSTYLE
  5
36
102
{ACAD_REACTORS
330
2A
102
}
102
{ACAD_XDICTIONARY
360
19F
102
}
330
2A
100
AcDbVisualStyle
  2
Brighten
 70
    12
 71
     2
 72
     2
 73
     0
 90
        0
 40
-0.6
 41
-30.0
 62
     5
 63
     7
 74
     1
 91
        4
 64
     7
 65
   257
 75
     1
175
     1
 42
1.0
 92
        8
 66
     7
 43
1.0
 76
     1
 77
     6
 78
     2
 67
     7
 79
     5
170
     0
171
     0
290
     0
174
     0
 93
        1
 44
50.0
173
     0
291
     1
 45
0.0
1001
ACAD
1000
AcDbSavedByObjectVersion
1070
     0
  0
VISUALSTYLE
  5
3A
102
{ACAD_REACTORS
330
2A
102
}
102
{ACAD_XDICTIONARY
360
1A7
102
}
330
2A
100
AcDbVisualStyle
  2
ColorChange
 70
    16
 71
     2
 72
     2
 73
     3
 90
        0
 40
-0.6
 41
-30.0
 62
     5
 63
     8
 74
     1
 91
        4
 64
     7
 65
   257
 75
     1
175
     1
 42
1.0
 92
        8
 66
     8
 43
1.0
 76
     1
 77
     6
 78
     2
 67
     7
 79
     5
170
     0
171
     0
290
     0
174
     0
 93
        1
 44
0.0
173
     0
291
     1
 45
0.0
1001
ACAD
1000
AcDbSavedByObjectVersion
1070
     0
  0
VISUALSTYLE
  5
34
102
{ACAD_REACTORS
330
2A
102
}
102
{ACAD_XDICTIONARY
360
19B
102
}
330
2A
100
AcDbVisualStyle
  2
Conceptual
 70
     9
 71
     3
 72
     2
 73
     0
 90
        0
 40
-0.6
 41
-30.0
 62
     5
 63
     7
 74
     2
 91
        2
 64
     7
 65
   257
 75
     1
175
     1
 42
40.0
 92
        8
 66
     7
 43
1.0
 76
     1
 77
     6
 78
     2
 67
     7
 79
     3
170
     0
171
     0
290
     0
174
     0
 93
        1
 44
0.0
173
     0
291
     0
 45
0.0
1001
ACAD
1000
AcDbSavedByObjectVersion
1070
     0
  0
VISUALSTYLE
  5
35
102
{ACAD_REACTORS
330
2A
102
}
102
{ACAD_XDICTIONARY
360
19D
102
}
330
2A
100
AcDbVisualStyle
  2
Dim
 70
    11
 71
     2
 72
     2
 73
     0
 90
        0
 40
-0.6
 41
-30.0
 62
     5
 63
     7
 74
     1
 91
        4
 64
     7
 65
   257
 75
     1
175
     1
 42
1.0
 92
        8
 66
     7
 43
1.0
 76
     1
 77
     6
 78
     2
 67
     7
 79
     5
170
     0
171
     0
290
     0
174
     0
 93
        1
 44
-50.0
173
     0
291
     1
 45
0.0
1001
ACAD
1000
AcDbSavedByObjectVersion
1070
     0
  0
VISUALSTYLE
  5
39
102
{ACAD_REACTORS
330
2A
102
}
102
{ACAD_XDICTIONARY
360
1A5
102
}
330
2A
100
AcDbVisualStyle
  2
Facepattern
 70
    15
 71
     2
 72
     2
 73
     0
 90
        0
 40
-0.6
 41
-30.0
 62
     5
 63
     7
 74
     1
 91
        4
 64
     7
 65
   257
 75
     1
175
     1
 42
1.0
 92
        8
 66
     7
 43
1.0
 76
     1
 77
     6
 78
     2
 67
     7
 79
     5
170
     0
171
     0
290
     0
174
     0
 93
        1
 44
0.0
173
     0
291
     1
 45
0.0
1001
ACAD
1000
AcDbSavedByObjectVersion
1070
     0
  0
VISUALSTYLE
  5
2B
102
{ACAD_REACTORS
330
2A
102
}
102
{ACAD_XDICTIONARY
360
189
102
}
330
2A
100
AcDbVisualStyle
  2
Flat
 70
     0
 71
     2
 72
     1
 73
     1
 90
        2
 40
-0.6
 41
30.0
 62
     5
 63
     7
 74
     0
 91
        4
 64
     7
 65
   257
 75
     1
175
     1
 42
1.0
 92
        8
 66
     7
 43
1.0
 76
     1
 77
     6
 78
     2
 67
     7
 79
     5
170
     0
171
     0
290
     0
174
     0
 93
       13
 44
0.0
173
     0
291
     1
 45
0.0
1001
ACAD
1000
AcDbSavedByObjectVersion
1070
     0
  0
VISUALSTYLE
  5
2C
102
{ACAD_REACTORS
330
2A
102
}
102
{ACAD_XDICTIONARY
360
18B
102
}
330
2A
100
AcDbVisualStyle
  2
FlatWithEdges
 70
     1
 71
     2
 72
     1
 73
     1
 90
        2
 40
-0.6
 41
30.0
 62
     5
 63
     7
 74
     1
 91
        4
 64
     7
 65
   257
 75
     1
175
     1
 42
1.0
 92
        0
 66
   257
 43
1.0
 76
     1
 77
     6
 78
     2
 67
     7
 79
     5
170
     0
171
     0
290
     0
174
     0
 93
       13
 44
0.0
173
     0
291
     1
 45
0.0
1001
ACAD
1000
AcDbSavedByObjectVersion
1070
     0
  0
VISUALSTYLE
  5
2D
102
{ACAD_REACTORS
330
2A
102
}
102
{ACAD_XDICTIONARY
360
18D
102
}
330
2A
100
AcDbVisualStyle
  2
Gouraud
 70
     2
 71
     2
 72
     2
 73
     1
 90
        2
 40
-0.6
 41
30.0
 62
     5
 63
     7
 74
     0
 91
        4
 64
     7
 65
   257
 75
     1
175
     1
 42
1.0
 92
        0
 66
     7
 43
1.0
 76
     1
 77
     6
 78
     2
 67
     7
 79
     5
170
     0
171
     0
290
     0
174
     0
 93
       13
 44
0.0
173
     0
291
     1
 45
0.0
1001
ACAD
1000
AcDbSavedByObjectVersion
1070
     0
  0
VISUALSTYLE
  5
2E
102
{ACAD_REACTORS
330
2A
102
}
102
{ACAD_XDICTIONARY
360
18F
102
}
330
2A
100
AcDbVisualStyle
  2
GouraudWithEdges
 70
     3
 71
     2
 72
     2
 73
     1
 90
        2
 40
-0.6
 41
30.0
 62
     5
 63
     7
 74
     1
 91
        4
 64
     7
 65
   257
 75
     1
175
     1
 42
1.0
 92
        0
 66
   257
 43
1.0
 76
     1
 77
     6
 78
     2
 67
     7
 79
     5
170
     0
171
     0
290
     0
174
     0
 93
       13
 44
0.0
173
     0
291
     1
 45
0.0
1001
ACAD
1000
AcDbSavedByObjectVersion
1070
     0
  0
VISUALSTYLE
  5
38
102
{ACAD_REACTORS
330
2A
102
}
102
{ACAD_XDICTIONARY
360
1A3
102
}
330
2A
100
AcDbVisualStyle
  2
Linepattern
 70
    14
 71
     2
 72
     2
 73
     0
 90
        0
 40
-0.6
 41
-30.0
 62
     5
 63
     7
 74
     1
 91
        4
 64
     7
 65
   257
 75
     7
175
     7
 42
1.0
 92
        8
 66
     7
 43
1.0
 76
     1
 77
     6
 78
     2
 67
     7
 79
     5
170
     0
171
     0
290
     0
174
     0
 93
        1
 44
0.0
173
     0
291
     1
 45
0.0
1001
ACAD
1000
AcDbSavedByObjectVersion
1070
     0
  0
VISUALSTYLE
  5
33
102
{ACAD_REACTORS
330
2A
102
}
102
{ACAD_XDICTIONARY
360
199
102
}
330
2A
100
AcDbVisualStyle
  2
Realistic
 70
     8
 71
     2
 72
     2
 73
     0
 90
        0
 40
-0.6
 41
-30.0
 62
     5
 63
     7
 74
     1
 91
        0
 64
     7
 65
   257
 75
     1
175
     1
 42
1.0
 92
        8
 66
     8
 43
1.0
 76
     1
 77
     6
 78
     2
 67
     7
 79
     5
170
     0
171
     0
290
     0
174
     0
 93
       13
 44
0.0
173
     0
291
     0
 45
0.0
1001
ACAD
1000
AcDbSavedByObjectVersion
1070
     0
  0
VISUALSTYLE
  5
37
102
{ACAD_REACTORS
330
2A
102
}
102
{ACAD_XDICTIONARY
360
1A1
102
}
330
2A
100
AcDbVisualStyle
  2
Thicken
 70
    13
 71
     2
 72
     2
 73
     0
 90
        0
 40
-0.6
 41
-30.0
 62
     5
 63
     7
 74
     1
 91
        4
 64
     7
 65
   257
 75
     1
175
     1
 42
1.0
 92
       12
 66
     7
 43
1.0
 76
     1
 77
     6
 78
     2
 67
     7
 79
     5
170
     0
171
     0
290
     0
174
     0
 93
        1
 44
0.0
173
     0
291
     1
 45
0.0
1001
ACAD
1000
AcDbSavedByObjectVersion
1070
     0
  0
DICTIONARYVAR
  5
187
102
{ACAD_REACTORS
330
182
102
}
330
182
100
DictionaryVariables
280
     0
  1
2
  0
DICTIONARYVAR
  5
188
102
{ACAD_REACTORS
330
182
102
}
330
182
100
DictionaryVariables
280
     0
  1
1
  0
DICTIONARYVAR
  5
186
102
{ACAD_REACTORS
330
182
102
}
330
182
100
DictionaryVariables
280
     0
  1
80.000000
  0
DICTIONARYVAR
  5
185
102
{ACAD_REACTORS
330
182
102
}
330
182
100
DictionaryVariables
280
     0
  1
5.000000
  0
DICTIONARY
  5
1AB
330
3D
100
AcDbDictionary
280
     1
281
     1
  3
ACAD_XREC_ROUNDTRIP
360
1AC
  0
DICTIONARY
  5
1A9
330
3C
100
AcDbDictionary
280
     1
281
     1
  3
ACAD_XREC_ROUNDTRIP
360
1AA
  0
DICTIONARY
  5
1AD
330
3E
100
AcDbDictionary
280
     1
281
     1
  3
ACAD_XREC_ROUNDTRIP
360
1AE
  0
DICTIONARY
  5
191
330
2F
100
AcDbDictionary
280
     1
281
     1
  3
ACAD_XREC_ROUNDTRIP
360
192
  0
DICTIONARY
  5
195
330
31
100
AcDbDictionary
280
     1
281
     1
  3
ACAD_XREC_ROUNDTRIP
360
196
  0
DICTIONARY
  5
193
330
30
100
AcDbDictionary
280
     1
281
     1
  3
ACAD_XREC_ROUNDTRIP
360
194
  0
DICTIONARY
  5
197
330
32
100
AcDbDictionary
280
     1
281
     1
  3
ACAD_XREC_ROUNDTRIP
360
198
  0
DICTIONARY
  5
19F
330
36
100
AcDbDictionary
280
     1
281
     1
  3
ACAD_XREC_ROUNDTRIP
360
1A0
  0
DICTIONARY
  5
1A7
330
3A
100
AcDbDictionary
280
     1
281
     1
  3
ACAD_XREC_ROUNDTRIP
360
1A8
  0
DICTIONARY
  5
19B
330
34
100
AcDbDictionary
280
     1
281
     1
  3
ACAD_XREC_ROUNDTRIP
360
19C
  0
DICTIONARY
  5
19D
330
35
100
AcDbDictionary
280
     1
281
     1
  3
ACAD_XREC_ROUNDTRIP
360
19E
  0
DICTIONARY
  5
1A5
330
39
100
AcDbDictionary
280
     1
281
     1
  3
ACAD_XREC_ROUNDTRIP
360
1A6
  0
DICTIONARY
  5
189
330
2B
100
AcDbDictionary
280
     1
281
     1
  3
ACAD_XREC_ROUNDTRIP
360
18A
  0
DICTIONARY
  5
18B
330
2C
100
AcDbDictionary
280
     1
281
     1
  3
ACAD_XREC_ROUNDTRIP
360
18C
  0
DICTIONARY
  5
18D
330
2D
100
AcDbDictionary
280
     1
281
     1
  3
ACAD_XREC_ROUNDTRIP
360
18E
  0
DICTIONARY
  5
18F
330
2E
100
AcDbDictionary
280
     1
281
     1
  3
ACAD_XREC_ROUNDTRIP
360
190
  0
DICTIONARY
  5
1A3
330
38
100
AcDbDictionary
280
     1
281
     1
  3
ACAD_XREC_ROUNDTRIP
360
1A4
  0
DICTIONARY
  5
199
330
33
100
AcDbDictionary
280
     1
281
     1
  3
ACAD_XREC_ROUNDTRIP
360
19A
  0
DICTIONARY
  5
1A1
330
37
100
AcDbDictionary
280
     1
281
     1
  3
ACAD_XREC_ROUNDTRIP
360
1A2
  0
XRECORD
  5
1AC
102
{ACAD_REACTORS
330
1AB
102
}
330
1AB
100
AcDbXrecord
280
     1
102
MATERIAL
148
0.0
149
0.0
149
0.0
 93
        0
 94
      127
282
     0
 72
     1
 77
     1
171
     1
175
     1
179
     1
273
     0
  0
XRECORD
  5
1AA
102
{ACAD_REACTORS
330
1A9
102
}
330
1A9
100
AcDbXrecord
280
     1
102
MATERIAL
148
0.0
149
0.0
149
0.0
 93
        0
 94
      127
282
     0
 72
     1
 77
     1
171
     1
175
     1
179
     1
273
     0
  0
XRECORD
  5
1AE
102
{ACAD_REACTORS
330
1AD
102
}
330
1AD
100
AcDbXrecord
280
     1
102
MATERIAL
148
0.0
149
0.0
149
0.0
 93
        0
 94
      127
282
     0
 72
     1
 77
     1
171
     1
175
     1
179
     1
273
     0
  0
XRECORD
  5
192
102
{ACAD_REACTORS
330
191
102
}
330
191
100
AcDbXrecord
280
     1
102
RTVSPropertyOp0
 70
     1
102
RTVSPropertyOp1
 70
     1
102
RTVSPropertyOp2
 70
     1
102
RTVSPropertyOp3
 70
     1
102
RTVSPropertyOp4
 70
     1
102
RTVSPropertyOp5
 70
     1
102
RTVSPropertyOp6
 70
     1
102
RTVSPropertyOp7
 70
     1
102
RTVSPropertyOp8
 70
     1
102
RTVSPropertyOp9
 70
     1
102
RTVSPropertyOp10
 70
     1
102
RTVSPropertyOp11
 70
     1
102
RTVSPropertyOp12
 70
     1
102
RTVSPropertyOp13
 70
     1
102
RTVSPropertyOp14
 70
     1
102
RTVSPropertyOp15
 70
     1
102
RTVSPropertyOp16
 70
     1
102
RTVSPropertyOp17
 70
     1
102
RTVSPropertyOp18
 70
     1
102
RTVSPropertyOp19
 70
     1
102
RTVSPropertyOp20
 70
     1
102
RTVSPropertyOp21
 70
     1
102
RTVSPropertyOp22
 70
     1
102
RTVSPropertyOp23
 70
     1
102
RTVSPropertyOp24
 70
     1
102
RTVSPropertyOp25
 70
     1
102
RTVSPropertyOp26
 70
     1
102
RTVSPropertyOp27
 70
     1
102
RTVSPropertyOp28
 70
     1
102
RTVSPropertyOp29
 70
     1
102
RTVSPropertyOp30
 70
     1
102
RTVSPropertyOp31
 70
     1
102
RTVSPropertyOp32
 70
     1
  0
XRECORD
  5
196
102
{ACAD_REACTORS
330
195
102
}
330
195
100
AcDbXrecord
280
     1
102
RTVSPropertyOp0
 70
     1
102
RTVSPropertyOp1
 70
     1
102
RTVSPropertyOp2
 70
     1
102
RTVSPropertyOp3
 70
     1
102
RTVSPropertyOp4
 70
     1
102
RTVSPropertyOp5
 70
     1
102
RTVSPropertyOp6
 70
     1
102
RTVSPropertyOp7
 70
     1
102
RTVSPropertyOp8
 70
     1
102
RTVSPropertyOp9
 70
     1
102
RTVSPropertyOp10
 70
     1
102
RTVSPropertyOp11
 70
     1
102
RTVSPropertyOp12
 70
     1
102
RTVSPropertyOp13
 70
     1
102
RTVSPropertyOp14
 70
     1
102
RTVSPropertyOp15
 70
     1
102
RTVSPropertyOp16
 70
     1
102
RTVSPropertyOp17
 70
     1
102
RTVSPropertyOp18
 70
     1
102
RTVSPropertyOp19
 70
     1
102
RTVSPropertyOp20
 70
     1
102
RTVSPropertyOp21
 70
     1
102
RTVSPropertyOp22
 70
     1
102
RTVSPropertyOp23
 70
     1
102
RTVSPropertyOp24
 70
     1
102
RTVSPropertyOp25
 70
     1
102
RTVSPropertyOp26
 70
     1
102
RTVSPropertyOp27
 70
     1
102
RTVSPropertyOp28
 70
     1
102
RTVSPropertyOp29
 70
     1
102
RTVSPropertyOp30
 70
     1
102
RTVSPropertyOp31
 70
     1
102
RTVSPropertyOp32
 70
     1
  0
XRECORD
  5
194
102
{ACAD_REACTORS
330
193
102
}
330
193
100
AcDbXrecord
280
     1
102
RTVSPropertyOp0
 70
     1
102
RTVSPropertyOp1
 70
     1
102
RTVSPropertyOp2
 70
     1
102
RTVSPropertyOp3
 70
     1
102
RTVSPropertyOp4
 70
     1
102
RTVSPropertyOp5
 70
     1
102
RTVSPropertyOp6
 70
     1
102
RTVSPropertyOp7
 70
     1
102
RTVSPropertyOp8
 70
     1
102
RTVSPropertyOp9
 70
     1
102
RTVSPropertyOp10
 70
     1
102
RTVSPropertyOp11
 70
     1
102
RTVSPropertyOp12
 70
     1
102
RTVSPropertyOp13
 70
     1
102
RTVSPropertyOp14
 70
     1
102
RTVSPropertyOp15
 70
     1
102
RTVSPropertyOp16
 70
     1
102
RTVSPropertyOp17
 70
     1
102
RTVSPropertyOp18
 70
     1
102
RTVSPropertyOp19
 70
     1
102
RTVSPropertyOp20
 70
     1
102
RTVSPropertyOp21
 70
     1
102
RTVSPropertyOp22
 70
     1
102
RTVSPropertyOp23
 70
     1
102
RTVSPropertyOp24
 70
     1
102
RTVSPropertyOp25
 70
     1
102
RTVSPropertyOp26
 70
     1
102
RTVSPropertyOp27
 70
     1
102
RTVSPropertyOp28
 70
     1
102
RTVSPropertyOp29
 70
     1
102
RTVSPropertyOp30
 70
     1
102
RTVSPropertyOp31
 70
     1
102
RTVSPropertyOp32
 70
     1
  0
XRECORD
  5
198
102
{ACAD_REACTORS
330
197
102
}
330
197
100
AcDbXrecord
280
     1
102
RTVSPropertyOp0
 70
     1
102
RTVSPropertyOp1
 70
     1
102
RTVSPropertyOp2
 70
     1
102
RTVSPropertyOp3
 70
     1
102
RTVSPropertyOp4
 70
     1
102
RTVSPropertyOp5
 70
     1
102
RTVSPropertyOp6
 70
     1
102
RTVSPropertyOp7
 70
     1
102
RTVSPropertyOp8
 70
     1
102
RTVSPropertyOp9
 70
     1
102
RTVSPropertyOp10
 70
     1
102
RTVSPropertyOp11
 70
     1
102
RTVSPropertyOp12
 70
     1
102
RTVSPropertyOp13
 70
     1
102
RTVSPropertyOp14
 70
     1
102
RTVSPropertyOp15
 70
     1
102
RTVSPropertyOp16
 70
     1
102
RTVSPropertyOp17
 70
     1
102
RTVSPropertyOp18
 70
     1
102
RTVSPropertyOp19
 70
     1
102
RTVSPropertyOp20
 70
     1
102
RTVSPropertyOp21
 70
     1
102
RTVSPropertyOp22
 70
     1
102
RTVSPropertyOp23
 70
     1
102
RTVSPropertyOp24
 70
     1
102
RTVSPropertyOp25
 70
     1
102
RTVSPropertyOp26
 70
     1
102
RTVSPropertyOp27
 70
     1
102
RTVSPropertyOp28
 70
     1
102
RTVSPropertyOp29
 70
     1
102
RTVSPropertyOp30
 70
     1
102
RTVSPropertyOp31
 70
     1
102
RTVSPropertyOp32
 70
     1
  0
XRECORD
  5
1A0
102
{ACAD_REACTORS
330
19F
102
}
330
19F
100
AcDbXrecord
280
     1
102
RTVSPropertyOp0
 70
     1
102
RTVSPropertyOp1
 70
     1
102
RTVSPropertyOp2
 70
     1
102
RTVSPropertyOp3
 70
     1
102
RTVSPropertyOp4
 70
     1
102
RTVSPropertyOp5
 70
     1
102
RTVSPropertyOp6
 70
     1
102
RTVSPropertyOp7
 70
     1
102
RTVSPropertyOp8
 70
     1
102
RTVSPropertyOp9
 70
     1
102
RTVSPropertyOp10
 70
     1
102
RTVSPropertyOp11
 70
     1
102
RTVSPropertyOp12
 70
     1
102
RTVSPropertyOp13
 70
     1
102
RTVSPropertyOp14
 70
     1
102
RTVSPropertyOp15
 70
     1
102
RTVSPropertyOp16
 70
     1
102
RTVSPropertyOp17
 70
     1
102
RTVSPropertyOp18
 70
     1
102
RTVSPropertyOp19
 70
     1
102
RTVSPropertyOp20
 70
     1
102
RTVSPropertyOp21
 70
     1
102
RTVSPropertyOp22
 70
     1
102
RTVSPropertyOp23
 70
     1
102
RTVSPropertyOp24
 70
     1
102
RTVSPropertyOp25
 70
     1
102
RTVSPropertyOp26
 70
     1
102
RTVSPropertyOp27
 70
     1
102
RTVSPropertyOp28
 70
     1
102
RTVSPropertyOp29
 70
     1
102
RTVSPropertyOp30
 70
     1
102
RTVSPropertyOp31
 70
     1
102
RTVSPropertyOp32
 70
     1
  0
XRECORD
  5
1A8
102
{ACAD_REACTORS
330
1A7
102
}
330
1A7
100
AcDbXrecord
280
     1
102
RTVSPropertyOp0
 70
     1
102
RTVSPropertyOp1
 70
     1
102
RTVSPropertyOp2
 70
     1
102
RTVSPropertyOp3
 70
     1
102
RTVSPropertyOp4
 70
     1
102
RTVSPropertyOp5
 70
     1
102
RTVSPropertyOp6
 70
     1
102
RTVSPropertyOp7
 70
     1
102
RTVSPropertyOp8
 70
     1
102
RTVSPropertyOp9
 70
     1
102
RTVSPropertyOp10
 70
     1
102
RTVSPropertyOp11
 70
     1
102
RTVSPropertyOp12
 70
     1
102
RTVSPropertyOp13
 70
     1
102
RTVSPropertyOp14
 70
     1
102
RTVSPropertyOp15
 70
     1
102
RTVSPropertyOp16
 70
     1
102
RTVSPropertyOp17
 70
     1
102
RTVSPropertyOp18
 70
     1
102
RTVSPropertyOp19
 70
     1
102
RTVSPropertyOp20
 70
     1
102
RTVSPropertyOp21
 70
     1
102
RTVSPropertyOp22
 70
     1
102
RTVSPropertyOp23
 70
     1
102
RTVSPropertyOp24
 70
     1
102
RTVSPropertyOp25
 70
     1
102
RTVSPropertyOp26
 70
     1
102
RTVSPropertyOp27
 70
     1
102
RTVSPropertyOp28
 70
     1
102
RTVSPropertyOp29
 70
     1
102
RTVSPropertyOp30
 70
     1
102
RTVSPropertyOp31
 70
     1
102
RTVSPropertyOp32
 70
     1
  0
XRECORD
  5
19C
102
{ACAD_REACTORS
330
19B
102
}
330
19B
100
AcDbXrecord
280
     1
102
RTVSPropertyOp0
 70
     1
102
RTVSPropertyOp1
 70
     1
102
RTVSPropertyOp2
 70
     1
102
RTVSPropertyOp3
 70
     1
102
RTVSPropertyOp4
 70
     1
102
RTVSPropertyOp5
 70
     1
102
RTVSPropertyOp6
 70
     1
102
RTVSPropertyOp7
 70
     1
102
RTVSPropertyOp8
 70
     1
102
RTVSPropertyOp9
 70
     1
102
RTVSPropertyOp10
 70
     1
102
RTVSPropertyOp11
 70
     1
102
RTVSPropertyOp12
 70
     1
102
RTVSPropertyOp13
 70
     1
102
RTVSPropertyOp14
 70
     1
102
RTVSPropertyOp15
 70
     1
102
RTVSPropertyOp16
 70
     1
102
RTVSPropertyOp17
 70
     1
102
RTVSPropertyOp18
 70
     1
102
RTVSPropertyOp19
 70
     1
102
RTVSPropertyOp20
 70
     1
102
RTVSPropertyOp21
 70
     1
102
RTVSPropertyOp22
 70
     1
102
RTVSPropertyOp23
 70
     1
102
RTVSPropertyOp24
 70
     1
102
RTVSPropertyOp25
 70
     1
102
RTVSPropertyOp26
 70
     1
102
RTVSPropertyOp27
 70
     1
102
RTVSPropertyOp28
 70
     1
102
RTVSPropertyOp29
 70
     1
102
RTVSPropertyOp30
 70
     1
102
RTVSPropertyOp31
 70
     1
102
RTVSPropertyOp32
 70
     1
  0
XRECORD
  5
19E
102
{ACAD_REACTORS
330
19D
102
}
330
19D
100
AcDbXrecord
280
     1
102
RTVSPropertyOp0
 70
     1
102
RTVSPropertyOp1
 70
     1
102
RTVSPropertyOp2
 70
     1
102
RTVSPropertyOp3
 70
     1
102
RTVSPropertyOp4
 70
     1
102
RTVSPropertyOp5
 70
     1
102
RTVSPropertyOp6
 70
     1
102
RTVSPropertyOp7
 70
     1
102
RTVSPropertyOp8
 70
     1
102
RTVSPropertyOp9
 70
     1
102
RTVSPropertyOp10
 70
     1
102
RTVSPropertyOp11
 70
     1
102
RTVSPropertyOp12
 70
     1
102
RTVSPropertyOp13
 70
     1
102
RTVSPropertyOp14
 70
     1
102
RTVSPropertyOp15
 70
     1
102
RTVSPropertyOp16
 70
     1
102
RTVSPropertyOp17
 70
     1
102
RTVSPropertyOp18
 70
     1
102
RTVSPropertyOp19
 70
     1
102
RTVSPropertyOp20
 70
     1
102
RTVSPropertyOp21
 70
     1
102
RTVSPropertyOp22
 70
     1
102
RTVSPropertyOp23
 70
     1
102
RTVSPropertyOp24
 70
     1
102
RTVSPropertyOp25
 70
     1
102
RTVSPropertyOp26
 70
     1
102
RTVSPropertyOp27
 70
     1
102
RTVSPropertyOp28
 70
     1
102
RTVSPropertyOp29
 70
     1
102
RTVSPropertyOp30
 70
     1
102
RTVSPropertyOp31
 70
     1
102
RTVSPropertyOp32
 70
     1
  0
XRECORD
  5
1A6
102
{ACAD_REACTORS
330
1A5
102
}
330
1A5
100
AcDbXrecord
280
     1
102
RTVSPropertyOp0
 70
     1
102
RTVSPropertyOp1
 70
     1
102
RTVSPropertyOp2
 70
     1
102
RTVSPropertyOp3
 70
     1
102
RTVSPropertyOp4
 70
     1
102
RTVSPropertyOp5
 70
     1
102
RTVSPropertyOp6
 70
     1
102
RTVSPropertyOp7
 70
     1
102
RTVSPropertyOp8
 70
     1
102
RTVSPropertyOp9
 70
     1
102
RTVSPropertyOp10
 70
     1
102
RTVSPropertyOp11
 70
     1
102
RTVSPropertyOp12
 70
     1
102
RTVSPropertyOp13
 70
     1
102
RTVSPropertyOp14
 70
     1
102
RTVSPropertyOp15
 70
     1
102
RTVSPropertyOp16
 70
     1
102
RTVSPropertyOp17
 70
     1
102
RTVSPropertyOp18
 70
     1
102
RTVSPropertyOp19
 70
     1
102
RTVSPropertyOp20
 70
     1
102
RTVSPropertyOp21
 70
     1
102
RTVSPropertyOp22
 70
     1
102
RTVSPropertyOp23
 70
     1
102
RTVSPropertyOp24
 70
     1
102
RTVSPropertyOp25
 70
     1
102
RTVSPropertyOp26
 70
     1
102
RTVSPropertyOp27
 70
     1
102
RTVSPropertyOp28
 70
     1
102
RTVSPropertyOp29
 70
     1
102
RTVSPropertyOp30
 70
     1
102
RTVSPropertyOp31
 70
     1
102
RTVSPropertyOp32
 70
     1
  0
XRECORD
  5
18A
102
{ACAD_REACTORS
330
189
102
}
330
189
100
AcDbXrecord
280
     1
102
RTVSPropertyOp0
 70
     1
102
RTVSPropertyOp1
 70
     1
102
RTVSPropertyOp2
 70
     1
102
RTVSPropertyOp3
 70
     1
102
RTVSPropertyOp4
 70
     1
102
RTVSPropertyOp5
 70
     1
102
RTVSPropertyOp6
 70
     1
102
RTVSPropertyOp7
 70
     1
102
RTVSPropertyOp8
 70
     1
102
RTVSPropertyOp9
 70
     1
102
RTVSPropertyOp10
 70
     1
102
RTVSPropertyOp11
 70
     1
102
RTVSPropertyOp12
 70
     1
102
RTVSPropertyOp13
 70
     1
102
RTVSPropertyOp14
 70
     1
102
RTVSPropertyOp15
 70
     1
102
RTVSPropertyOp16
 70
     1
102
RTVSPropertyOp17
 70
     1
102
RTVSPropertyOp18
 70
     1
102
RTVSPropertyOp19
 70
     1
102
RTVSPropertyOp20
 70
     1
102
RTVSPropertyOp21
 70
     1
102
RTVSPropertyOp22
 70
     1
102
RTVSPropertyOp23
 70
     1
102
RTVSPropertyOp24
 70
     1
102
RTVSPropertyOp25
 70
     1
102
RTVSPropertyOp26
 70
     1
102
RTVSPropertyOp27
 70
     1
102
RTVSPropertyOp28
 70
     1
102
RTVSPropertyOp29
 70
     1
102
RTVSPropertyOp30
 70
     1
102
RTVSPropertyOp31
 70
     1
102
RTVSPropertyOp32
 70
     1
  0
XRECORD
  5
18C
102
{ACAD_REACTORS
330
18B
102
}
330
18B
100
AcDbXrecord
280
     1
102
RTVSPropertyOp0
 70
     1
102
RTVSPropertyOp1
 70
     1
102
RTVSPropertyOp2
 70
     1
102
RTVSPropertyOp3
 70
     1
102
RTVSPropertyOp4
 70
     1
102
RTVSPropertyOp5
 70
     1
102
RTVSPropertyOp6
 70
     1
102
RTVSPropertyOp7
 70
     1
102
RTVSPropertyOp8
 70
     1
102
RTVSPropertyOp9
 70
     1
102
RTVSPropertyOp10
 70
     1
102
RTVSPropertyOp11
 70
     1
102
RTVSPropertyOp12
 70
     1
102
RTVSPropertyOp13
 70
     1
102
RTVSPropertyOp14
 70
     1
102
RTVSPropertyOp15
 70
     1
102
RTVSPropertyOp16
 70
     1
102
RTVSPropertyOp17
 70
     1
102
RTVSPropertyOp18
 70
     1
102
RTVSPropertyOp19
 70
     1
102
RTVSPropertyOp20
 70
     1
102
RTVSPropertyOp21
 70
     1
102
RTVSPropertyOp22
 70
     1
102
RTVSPropertyOp23
 70
     1
102
RTVSPropertyOp24
 70
     1
102
RTVSPropertyOp25
 70
     1
102
RTVSPropertyOp26
 70
     1
102
RTVSPropertyOp27
 70
     1
102
RTVSPropertyOp28
 70
     1
102
RTVSPropertyOp29
 70
     1
102
RTVSPropertyOp30
 70
     1
102
RTVSPropertyOp31
 70
     1
102
RTVSPropertyOp32
 70
     1
  0
XRECORD
  5
18E
102
{ACAD_REACTORS
330
18D
102
}
330
18D
100
AcDbXrecord
280
     1
102
RTVSPropertyOp0
 70
     1
102
RTVSPropertyOp1
 70
     1
102
RTVSPropertyOp2
 70
     1
102
RTVSPropertyOp3
 70
     1
102
RTVSPropertyOp4
 70
     1
102
RTVSPropertyOp5
 70
     1
102
RTVSPropertyOp6
 70
     1
102
RTVSPropertyOp7
 70
     1
102
RTVSPropertyOp8
 70
     1
102
RTVSPropertyOp9
 70
     1
102
RTVSPropertyOp10
 70
     1
102
RTVSPropertyOp11
 70
     1
102
RTVSPropertyOp12
 70
     1
102
RTVSPropertyOp13
 70
     1
102
RTVSPropertyOp14
 70
     1
102
RTVSPropertyOp15
 70
     1
102
RTVSPropertyOp16
 70
     1
102
RTVSPropertyOp17
 70
     1
102
RTVSPropertyOp18
 70
     1
102
RTVSPropertyOp19
 70
     1
102
RTVSPropertyOp20
 70
     1
102
RTVSPropertyOp21
 70
     1
102
RTVSPropertyOp22
 70
     1
102
RTVSPropertyOp23
 70
     1
102
RTVSPropertyOp24
 70
     1
102
RTVSPropertyOp25
 70
     1
102
RTVSPropertyOp26
 70
     1
102
RTVSPropertyOp27
 70
     1
102
RTVSPropertyOp28
 70
     1
102
RTVSPropertyOp29
 70
     1
102
RTVSPropertyOp30
 70
     1
102
RTVSPropertyOp31
 70
     1
102
RTVSPropertyOp32
 70
     1
  0
XRECORD
  5
190
102
{ACAD_REACTORS
330
18F
102
}
330
18F
100
AcDbXrecord
280
     1
102
RTVSPropertyOp0
 70
     1
102
RTVSPropertyOp1
 70
     1
102
RTVSPropertyOp2
 70
     1
102
RTVSPropertyOp3
 70
     1
102
RTVSPropertyOp4
 70
     1
102
RTVSPropertyOp5
 70
     1
102
RTVSPropertyOp6
 70
     1
102
RTVSPropertyOp7
 70
     1
102
RTVSPropertyOp8
 70
     1
102
RTVSPropertyOp9
 70
     1
102
RTVSPropertyOp10
 70
     1
102
RTVSPropertyOp11
 70
     1
102
RTVSPropertyOp12
 70
     1
102
RTVSPropertyOp13
 70
     1
102
RTVSPropertyOp14
 70
     1
102
RTVSPropertyOp15
 70
     1
102
RTVSPropertyOp16
 70
     1
102
RTVSPropertyOp17
 70
     1
102
RTVSPropertyOp18
 70
     1
102
RTVSPropertyOp19
 70
     1
102
RTVSPropertyOp20
 70
     1
102
RTVSPropertyOp21
 70
     1
102
RTVSPropertyOp22
 70
     1
102
RTVSPropertyOp23
 70
     1
102
RTVSPropertyOp24
 70
     1
102
RTVSPropertyOp25
 70
     1
102
RTVSPropertyOp26
 70
     1
102
RTVSPropertyOp27
 70
     1
102
RTVSPropertyOp28
 70
     1
102
RTVSPropertyOp29
 70
     1
102
RTVSPropertyOp30
 70
     1
102
RTVSPropertyOp31
 70
     1
102
RTVSPropertyOp32
 70
     1
  0
XRECORD
  5
1A4
102
{ACAD_REACTORS
330
1A3
102
}
330
1A3
100
AcDbXrecord
280
     1
102
RTVSPropertyOp0
 70
     1
102
RTVSPropertyOp1
 70
     1
102
RTVSPropertyOp2
 70
     1
102
RTVSPropertyOp3
 70
     1
102
RTVSPropertyOp4
 70
     1
102
RTVSPropertyOp5
 70
     1
102
RTVSPropertyOp6
 70
     1
102
RTVSPropertyOp7
 70
     1
102
RTVSPropertyOp8
 70
     1
102
RTVSPropertyOp9
 70
     1
102
RTVSPropertyOp10
 70
     1
102
RTVSPropertyOp11
 70
     1
102
RTVSPropertyOp12
 70
     1
102
RTVSPropertyOp13
 70
     1
102
RTVSPropertyOp14
 70
     1
102
RTVSPropertyOp15
 70
     1
102
RTVSPropertyOp16
 70
     1
102
RTVSPropertyOp17
 70
     1
102
RTVSPropertyOp18
 70
     1
102
RTVSPropertyOp19
 70
     1
102
RTVSPropertyOp20
 70
     1
102
RTVSPropertyOp21
 70
     1
102
RTVSPropertyOp22
 70
     1
102
RTVSPropertyOp23
 70
     1
102
RTVSPropertyOp24
 70
     1
102
RTVSPropertyOp25
 70
     1
102
RTVSPropertyOp26
 70
     1
102
RTVSPropertyOp27
 70
     1
102
RTVSPropertyOp28
 70
     1
102
RTVSPropertyOp29
 70
     1
102
RTVSPropertyOp30
 70
     1
102
RTVSPropertyOp31
 70
     1
102
RTVSPropertyOp32
 70
     1
  0
XRECORD
  5
19A
102
{ACAD_REACTORS
330
199
102
}
330
199
100
AcDbXrecord
280
     1
102
RTVSPropertyOp0
 70
     1
102
RTVSPropertyOp1
 70
     1
102
RTVSPropertyOp2
 70
     1
102
RTVSPropertyOp3
 70
     1
102
RTVSPropertyOp4
 70
     1
102
RTVSPropertyOp5
 70
     1
102
RTVSPropertyOp6
 70
     1
102
RTVSPropertyOp7
 70
     1
102
RTVSPropertyOp8
 70
     1
102
RTVSPropertyOp9
 70
     1
102
RTVSPropertyOp10
 70
     1
102
RTVSPropertyOp11
 70
     1
102
RTVSPropertyOp12
 70
     1
102
RTVSPropertyOp13
 70
     1
102
RTVSPropertyOp14
 70
     1
102
RTVSPropertyOp15
 70
     1
102
RTVSPropertyOp16
 70
     1
102
RTVSPropertyOp17
 70
     1
102
RTVSPropertyOp18
 70
     1
102
RTVSPropertyOp19
 70
     1
102
RTVSPropertyOp20
 70
     1
102
RTVSPropertyOp21
 70
     1
102
RTVSPropertyOp22
 70
     1
102
RTVSPropertyOp23
 70
     1
102
RTVSPropertyOp24
 70
     1
102
RTVSPropertyOp25
 70
     1
102
RTVSPropertyOp26
 70
     1
102
RTVSPropertyOp27
 70
     1
102
RTVSPropertyOp28
 70
     1
102
RTVSPropertyOp29
 70
     1
102
RTVSPropertyOp30
 70
     1
102
RTVSPropertyOp31
 70
     1
102
RTVSPropertyOp32
 70
     1
  0
XRECORD
  5
1A2
102
{ACAD_REACTORS
330
1A1
102
}
330
1A1
100
AcDbXrecord
280
     1
102
RTVSPropertyOp0
 70
     1
102
RTVSPropertyOp1
 70
     1
102
RTVSPropertyOp2
 70
     1
102
RTVSPropertyOp3
 70
     1
102
RTVSPropertyOp4
 70
     1
102
RTVSPropertyOp5
 70
     1
102
RTVSPropertyOp6
 70
     1
102
RTVSPropertyOp7
 70
     1
102
RTVSPropertyOp8
 70
     1
102
RTVSPropertyOp9
 70
     1
102
RTVSPropertyOp10
 70
     1
102
RTVSPropertyOp11
 70
     1
102
RTVSPropertyOp12
 70
     1
102
RTVSPropertyOp13
 70
     1
102
RTVSPropertyOp14
 70
     1
102
RTVSPropertyOp15
 70
     1
102
RTVSPropertyOp16
 70
     1
102
RTVSPropertyOp17
 70
     1
102
RTVSPropertyOp18
 70
     1
102
RTVSPropertyOp19
 70
     1
102
RTVSPropertyOp20
 70
     1
102
RTVSPropertyOp21
 70
     1
102
RTVSPropertyOp22
 70
     1
102
RTVSPropertyOp23
 70
     1
102
RTVSPropertyOp24
 70
     1
102
RTVSPropertyOp25
 70
     1
102
RTVSPropertyOp26
 70
     1
102
RTVSPropertyOp27
 70
     1
102
RTVSPropertyOp28
 70
     1
102
RTVSPropertyOp29
 70
     1
102
RTVSPropertyOp30
 70
     1
102
RTVSPropertyOp31
 70
     1
102
RTVSPropertyOp32
 70
     1
  0
ENDSEC
  0
EOF
