  0
SECTION
  2
HEADER
  9
$ACADVER
  1
AC1015
  9
$ACADMAINTVER
 70
     6
  9
$DWGCODEPAGE
  3
ANSI_1252
  9
$INSBASE
 10
0.0
 20
0.0
 30
0.0
  9
$EXTMIN
 10
0.0
 20
0.0
 30
0.0
  9
$EXTMAX
 10
210.0
 20
297.0
 30
0.0
  9
$LIMMIN
 10
0.0
 20
0.0
  9
$LIMMAX
 10
210.0
 20
297.0
  9
$ORTHOMODE
 70
     0
  9
$REGENMODE
 70
     1
  9
$FILLMODE
 70
     1
  9
$QTEXTMODE
 70
     0
  9
$MIRRTEXT
 70
     1
  9
$LTSCALE
 40
1.0
  9
$ATTMODE
 70
     1
  9
$TEXTSIZE
 40
2.5
  9
$TRACEWID
 40
1.0
  9
$TEXTSTYLE
  7
Standard
  9
$CLAYER
  8
0
  9
$CELTYPE
  6
ByLayer
  9
$CECOLOR
 62
   256
  9
$CELTSCALE
 40
1.0
  9
$DISPSILH
 70
     0
  9
$DIMSCALE
 40
1.0
  9
$DIMASZ
 40
2.5
  9
$DIMEXO
 40
0.625
  9
$DIMDLI
 40
3.75
  9
$DIMRND
 40
0.0
  9
$DIMDLE
 40
0.0
  9
$DIMEXE
 40
1.25
  9
$DIMTP
 40
0.0
  9
$DIMTM
 40
0.0
  9
$DIMTXT
 40
2.5
  9
$DIMCEN
 40
2.5
  9
$DIMTSZ
 40
0.0
  9
$DIMTOL
 70
     0
  9
$DIMLIM
 70
     0
  9
$DIMTIH
 70
     0
  9
$DIMTOH
 70
     0
  9
$DIMSE1
 70
     0
  9
$DIMSE2
 70
     0
  9
$DIMTAD
 70
     1
  9
$DIMZIN
 70
     8
  9
$DIMBLK
  1

  9
$DIMASO
 70
     1
  9
$DIMSHO
 70
     1
  9
$DIMPOST
  1

  9
$DIMAPOST
  1

  9
$DIMALT
 70
     0
  9
$DIMALTD
 70
     3
  9
$DIMALTF
 40
0.0393700787
  9
$DIMLFAC
 40
1.0
  9
$DIMTOFL
 70
     1
  9
$DIMTVP
 40
0.0
  9
$DIMTIX
 70
     0
  9
$DIMSOXD
 70
     0
  9
$DIMSAH
 70
     0
  9
$DIMBLK1
  1

  9
$DIMBLK2
  1

  9
$DIMSTYLE
  2
ISO-25
  9
$DIMCLRD
 70
     0
  9
$DIMCLRE
 70
     0
  9
$DIMCLRT
 70
     0
  9
$DIMTFAC
 40
1.0
  9
$DIMGAP
 40
0.625
  9
$DIMJUST
 70
     0
  9
$DIMSD1
 70
     0
  9
$DIMSD2
 70
     0
  9
$DIMTOLJ
 70
     0
  9
$DIMTZIN
 70
     8
  9
$DIMALTZ
 70
     0
  9
$DIMALTTZ
 70
     0
  9
$DIMUPT
 70
     0
  9
$DIMDEC
 70
     2
  9
$DIMTDEC
 70
     2
  9
$DIMALTU
 70
     2
  9
$DIMALTTD
 70
     3
  9
$DIMTXSTY
  7
Standard
  9
$DIMAUNIT
 70
     0
  9
$DIMADEC
 70
     0
  9
$DIMALTRND
 40
0.0
  9
$DIMAZIN
 70
     0
  9
$DIMDSEP
 70
    44
  9
$DIMATFIT
 70
     3
  9
$DIMFRAC
 70
     0
  9
$DIMLDRBLK
  1

  9
$DIMLUNIT
 70
     2
  9
$DIMLWD
 70
    -2
  9
$DIMLWE
 70
    -2
  9
$DIMTMOVE
 70
     0
  9
$LUNITS
 70
     2
  9
$LUPREC
 70
     4
  9
$SKETCHINC
 40
1.0
  9
$FILLETRAD
 40
10.0
  9
$AUNITS
 70
     0
  9
$AUPREC
 70
     0
  9
$MENU
  1
.
  9
$ELEVATION
 40
0.0
  9
$PELEVATION
 40
0.0
  9
$THICKNESS
 40
0.0
  9
$LIMCHECK
 70
     0
  9
$CHAMFERA
 40
10.0
  9
$CHAMFERB
 40
10.0
  9
$CHAMFERC
 40
20.0
  9
$CHAMFERD
 40
0.0
  9
$SKPOLY
 70
     0
  9
$TDCREATE
 40
2457567.531648009
  9
$TDUCREATE
 40
2457567.448314676
  9
$TDUPDATE
 40
2457567.531649271
  9
$TDUUPDATE
 40
2457567.448315938
  9
$TDINDWG
 40
0.0000000116
  9
$TDUSRTIMER
 40
0.0000000116
  9
$USRTIMER
 70
     1
  9
$ANGBASE
 50
0.0
  9
$ANGDIR
 70
     0
  9
$PDMODE
 70
     0
  9
$PDSIZE
 40
0.0
  9
$PLINEWID
 40
0.0
  9
$SPLFRAME
 70
     0
  9
$SPLINETYPE
 70
     6
  9
$SPLINESEGS
 70
     8
  9
$HANDSEED
  5
1AE
  9
$SURFTAB1
 70
     6
  9
$SURFTAB2
 70
     6
  9
$SURFTYPE
 70
     6
  9
$SURFU
 70
     6
  9
$SURFV
 70
     6
  9
$UCSBASE
  2

  9
$UCSNAME
  2

  9
$UCSORG
 10
0.0
 20
0.0
 30
0.0
  9
$UCSXDIR
 10
1.0
 20
0.0
 30
0.0
  9
$UCSYDIR
 10
0.0
 20
1.0
 30
0.0
  9
$UCSORTHOREF
  2

  9
$UCSORTHOVIEW
 70
     0
  9
$UCSORGTOP
 10
0.0
 20
0.0
 30
0.0
  9
$UCSORGBOTTOM
 10
0.0
 20
0.0
 30
0.0
  9
$UCSORGLEFT
 10
0.0
 20
0.0
 30
0.0
  9
$UCSORGRIGHT
 10
0.0
 20
0.0
 30
0.0
  9
$UCSORGFRONT
 10
0.0
 20
0.0
 30
0.0
  9
$UCSORGBACK
 10
0.0
 20
0.0
 30
0.0
  9
$PUCSBASE
  2

  9
$PUCSNAME
  2

  9
$PUCSORG
 10
0.0
 20
0.0
 30
0.0
  9
$PUCSXDIR
 10
1.0
 20
0.0
 30
0.0
  9
$PUCSYDIR
 10
0.0
 20
1.0
 30
0.0
  9
$PUCSORTHOREF
  2

  9
$PUCSORTHOVIEW
 70
     0
  9
$PUCSORGTOP
 10
0.0
 20
0.0
 30
0.0
  9
$PUCSORGBOTTOM
 10
0.0
 20
0.0
 30
0.0
  9
$PUCSORGLEFT
 10
0.0
 20
0.0
 30
0.0
  9
$PUCSORGRIGHT
 10
0.0
 20
0.0
 30
0.0
  9
$PUCSORGFRONT
 10
0.0
 20
0.0
 30
0.0
  9
$PUCSORGBACK
 10
0.0
 20
0.0
 30
0.0
  9
$USERI1
 70
     0
  9
$USERI2
 70
     0
  9
$USERI3
 70
     0
  9
$USERI4
 70
     0
  9
$USERI5
 70
     0
  9
$USERR1
 40
0.0
  9
$USERR2
 40
0.0
  9
$USERR3
 40
0.0
  9
$USERR4
 40
0.0
  9
$USERR5
 40
0.0
  9
$WORLDVIEW
 70
     1
  9
$SHADEDGE
 70
     3
  9
$SHADEDIF
 70
    70
  9
$TILEMODE
 70
     1
  9
$MAXACTVP
 70
    64
  9
$PINSBASE
 10
0.0
 20
0.0
 30
0.0
  9
$PLIMCHECK
 70
     0
  9
$PEXTMIN
 10
0.0
 20
0.0
 30
0.0
  9
$PEXTMAX
 10
210.0
 20
297.0
 30
0.0
  9
$PLIMMIN
 10
0.0
 20
0.0
  9
$PLIMMAX
 10
210.0
 20
297.0
  9
$UNITMODE
 70
     0
  9
$VISRETAIN
 70
     1
  9
$PLINEGEN
 70
     0
  9
$PSLTSCALE
 70
     1
  9
$TREEDEPTH
 70
  3020
  9
$CMLSTYLE
  2
Standard
  9
$CMLJUST
 70
     0
  9
$CMLSCALE
 40
20.0
  9
$PROXYGRAPHICS
 70
     1
  9
$MEASUREMENT
 70
     1
  9
$CELWEIGHT
370
    -1
  9
$ENDCAPS
280
     0
  9
$JOINSTYLE
280
     0
  9
$LWDISPLAY
290
     0
  9
$INSUNITS
 70
     4
  9
$HYPERLINKBASE
  1

  9
$STYLESHEET
  1

  9
$XEDIT
290
     1
  9
$CEPSNTYPE
380
     0
  9
$PSTYLEMODE
290
     1
  9
$FINGERPRINTGUID
  2
{FDEE5A55-1B92-4558-9642-BAFDE146B277}
  9
$VERSIONGUID
  2
{FAEB1C32-E019-11D5-929B-00C0DF256EC4}
  9
$EXTNAMES
290
     1
  9
$PSVPSCALE
 40
0.0
  9
$OLESTARTUP
290
     0
  0
ENDSEC
  0
SECTION
  2
CLASSES
  0
CLASS
  1
ACDBDICTIONARYWDFLT
  2
AcDbDictionaryWithDefault
  3
ObjectDBX Classes
 90
        0
280
     0
281
     0
  0
CLASS
  1
VISUALSTYLE
  2
AcDbVisualStyle
  3
ObjectDBX Classes
 90
     4095
280
     0
281
     0
  0
CLASS
  1
MATERIAL
  2
AcDbMaterial
  3
ObjectDBX Classes
 90
     1153
280
     0
281
     0
  0
CLASS
  1
DICTIONARYVAR
  2
AcDbDictionaryVar
  3
ObjectDBX Classes
 90
        0
280
     0
281
     0
  0
CLASS
  1
ACDBPLACEHOLDER
  2
AcDbPlaceHolder
  3
ObjectDBX Classes
 90
        0
280
     0
281
     0
  0
CLASS
  1
LAYOUT
  2
AcDbLayout
  3
ObjectDBX Classes
 90
        0
280
     0
281
     0
  0
ENDSEC
  0
SECTION
  2
TABLES
  0
TABLE
  2
VPORT
  5
8
330
0
100
AcDbSymbolTable
 70
     1
  0
VPORT
  5
29
330
8
100
AcDbSymbolTableRecord
100
AcDbViewportTableRecord
  2
*Active
 70
     0
 10
0.0
 20
0.0
 11
1.0
 21
1.0
 12
344.1869158879
 22
148.5
 13
0.0
 23
0.0
 14
10.0
 24
10.0
 15
10.0
 25
10.0
 16
0.0
 26
0.0
 36
1.0
 17
0.0
 27
0.0
 37
0.0
 40
297.0
 41
1.9729729729
 42
50.0
 43
0.0
 44
0.0
 50
0.0
 51
0.0
 71
     0
 72
   100
 73
     1
 74
     3
 75
     0
 76
     0
 77
     0
 78
     0
281
     0
 65
     1
110
0.0
120
0.0
130
0.0
111
1.0
121
0.0
131
0.0
112
0.0
122
1.0
132
0.0
 79
     0
146
0.0
  0
ENDTAB
  0
TABLE
  2
LTYPE
  5
5
330
0
100
AcDbSymbolTable
 70
     2
  0
LTYPE
  5
14
330
5
100
AcDbSymbolTableRecord
100
AcDbLinetypeTableRecord
  2
ByBlock
 70
     0
  3

 72
    65
 73
     0
 40
0.0
  0
LTYPE
  5
15
330
5
100
AcDbSymbolTableRecord
100
AcDbLinetypeTableRecord
  2
ByLayer
 70
     0
  3

 72
    65
 73
     0
 40
0.0
  0
LTYPE
  5
16
330
5
100
AcDbSymbolTableRecord
100
AcDbLinetypeTableRecord
  2
Continuous
 70
     0
  3
Solid line
 72
    65
 73
     0
 40
0.0
  0
LTYPE
  5
43
330
5
100
AcDbSymbolTableRecord
100
AcDbLinetypeTableRecord
  2
HIDDEN2
 70
     0
  3
Hidden (.5x) _ _ _ _ _ _ _ _ _ _ _ _ _ _ _ _ _ 
 72
    65
 73
     2
 40
4.7625
 49
3.175
 74
     4
 75
     0
340
0
 46
0.0
 50
0.0
 44
0.0
 45
0.0
 49
-1.5875
 74
     4
 75
     0
340
0
 46
0.0
 50
0.0
 44
0.0
 45
0.0
  0
ENDTAB
  0
TABLE
  2
LAYER
  5
2
330
0
100
AcDbSymbolTable
 70
     5
  0
LAYER
  5
10
330
2
100
AcDbSymbolTableRecord
100
AcDbLayerTableRecord
  2
0
 70
     0
 62
     7
  6
Continuous
370
    -3
390
F
  0
LAYER
  5
3F
330
2
100
AcDbSymbolTableRecord
100
AcDbLayerTableRecord
  2
SK1
 70
     0
 62
     4
  6
Continuous
370
    18
390
F
  0
LAYER
  5
42
330
2
100
AcDbSymbolTableRecord
100
AcDbLayerTableRecord
  2
SK3
 70
     0
 62
     1
  6
HIDDEN2
370
    15
390
F
  0
LAYER
  5
12A
330
2
100
AcDbSymbolTableRecord
100
AcDbLayerTableRecord
  2
SK4
 70
     0
 62
     2
  6
Continuous
370
    13
390
F
  0
LAYER
  5
12C
330
2
100
AcDbSymbolTableRecord
100
AcDbLayerTableRecord
  2
SK2
 70
     0
 62
     7
  6
Continuous
370
    15
390
F
  0
ENDTAB
  0
TABLE
  2
STYLE
  5
3
330
0
100
AcDbSymbolTable
 70
     2
  0
STYLE
  5
11
330
3
100
AcDbSymbolTableRecord
100
AcDbTextStyleTableRecord
  2
Standard
 70
     0
 40
0.0
 41
1.0
 50
0.0
 71
     0
 42
2.5
  3
txt
  4

  0
STYLE
  5
13F
330
3
100
AcDbSymbolTableRecord
100
AcDbTextStyleTableRecord
  2
SEACAD_Solid_Edge_ISO
 70
     0
 40
0.0
 41
1.0
 50
0.0
 71
     0
 42
0.2
  3
seiso.ttf
  4

1001
ACAD
1000
Solid Edge ISO
1071
        0
  0
ENDTAB
  0
TABLE
  2
VIEW
  5
6
330
0
100
AcDbSymbolTable
 70
     0
  0
ENDTAB
  0
TABLE
  2
UCS
  5
7
330
0
100
AcDbSymbolTable
 70
     0
  0
ENDTAB
  0
TABLE
  2
APPID
  5
9
330
0
100
AcDbSymbolTable
 70
     1
  0
APPID
  5
12
330
9
100
AcDbSymbolTableRecord
100
AcDbRegAppTableRecord
  2
ACAD
 70
     0
  0
ENDTAB
  0
TABLE
  2
DIMSTYLE
  5
A
330
0
100
AcDbSymbolTable
 70
     3
100
AcDbDimStyleTable
  0
DIMSTYLE
105
27
330
A
100
AcDbSymbolTableRecord
100
AcDbDimStyleTableRecord
  2
ISO-25
 70
     0
 41
2.5
 42
0.625
 43
3.75
 44
1.25
 73
     0
 74
     0
 77
     1
 78
     8
140
2.5
141
2.5
143
0.0393700787
147
0.625
171
     3
172
     1
178
     0
271
     2
272
     2
274
     3
278
    44
283
     0
284
     8
340
11
  0
DIMSTYLE
105
12D
330
A
100
AcDbSymbolTableRecord
100
AcDbDimStyleTableRecord
  2
Standard
 70
     0
178
     0
340
11
  0
DIMSTYLE
105
140
102
{ACAD_REACTORS
330
141
330
161
330
16C
330
176
102
}
330
A
100
AcDbSymbolTableRecord
100
AcDbDimStyleTableRecord
  2
DIN
 70
     0
 41
3.5
 42
0.0
 44
1.75
 73
     0
 74
     0
 77
     1
 78
     8
140
3.5
141
1.75
147
1.75
172
     1
173
     1
178
     0
179
     3
271
     2
272
     2
278
    44
284
     8
340
13F
343
13A
344
13A
  0
ENDTAB
  0
TABLE
  2
BLOCK_RECORD
  5
1
330
0
100
AcDbSymbolTable
 70
    10
  0
BLOCK_RECORD
  5
1F
330
1
100
AcDbSymbolTableRecord
100
AcDbBlockTableRecord
  2
*Model_Space
340
22
  0
BLOCK_RECORD
  5
1B
330
1
100
AcDbSymbolTableRecord
100
AcDbBlockTableRecord
  2
*Paper_Space
340
1E
  0
BLOCK_RECORD
  5
12E
330
1
100
AcDbSymbolTableRecord
100
AcDbBlockTableRecord
  2
_OBLIQUE
340
0
  0
BLOCK_RECORD
  5
132
330
1
100
AcDbSymbolTableRecord
100
AcDbBlockTableRecord
  2
_DOT
340
0
  0
BLOCK_RECORD
  5
13A
330
1
100
AcDbSymbolTableRecord
100
AcDbBlockTableRecord
  2
_SE_FILLED
340
0
  0
BLOCK_RECORD
  5
142
330
1
100
AcDbSymbolTableRecord
100
AcDbBlockTableRecord
  2
DMBLK117
340
0
  0
BLOCK_RECORD
  5
14B
330
1
100
AcDbSymbolTableRecord
100
AcDbBlockTableRecord
  2
Nullpunkt
340
0
102
{BLKREFS
331
155
102
}
  0
BLOCK_RECORD
  5
156
330
1
100
AcDbSymbolTableRecord
100
AcDbBlockTableRecord
  2
Einfügepunkt
340
0
102
{BLKREFS
331
160
102
}
  0
BLOCK_RECORD
  5
162
330
1
100
AcDbSymbolTableRecord
100
AcDbBlockTableRecord
  2
DMBLK118
340
0
  0
BLOCK_RECORD
  5
16D
330
1
100
AcDbSymbolTableRecord
100
AcDbBlockTableRecord
  2
DMBLK119
340
0
  0
BLOCK_RECORD
  5
177
330
1
100
AcDbSymbolTableRecord
100
AcDbBlockTableRecord
  2
DMBLK120
340
0
  0
ENDTAB
  0
ENDSEC
  0
SECTION
  2
BLOCKS
  0
BLOCK
  5
20
330
1F
100
AcDbEntity
  8
0
100
AcDbBlockBegin
  2
*Model_Space
 70
     0
 10
0.0
 20
0.0
 30
0.0
  3
*Model_Space
  1

  0
ENDBLK
  5
21
330
1F
100
AcDbEntity
  8
0
100
AcDbBlockEnd
  0
BLOCK
  5
1C
330
1B
100
AcDbEntity
 67
     1
  8
0
100
AcDbBlockBegin
  2
*Paper_Space
 70
     0
 10
0.0
 20
0.0
 30
0.0
  3
*Paper_Space
  1

  0
ENDBLK
  5
1D
330
1B
100
AcDbEntity
 67
     1
  8
0
100
AcDbBlockEnd
  0
BLOCK
  5
12F
330
12E
100
AcDbEntity
  8
0
100
AcDbBlockBegin
  2
_OBLIQUE
 70
     0
 10
0.0
 20
0.0
 30
0.0
  3
_OBLIQUE
  1

  0
LINE
  5
131
330
12E
100
AcDbEntity
  8
0
  6
ByBlock
 62
     0
370
    -2
100
AcDbLine
 10
-0.5
 20
-0.5
 30
0.0
 11
0.5
 21
0.5
 31
0.0
  0
ENDBLK
  5
130
330
12E
100
AcDbEntity
  8
0
100
AcDbBlockEnd
  0
BLOCK
  5
133
330
132
100
AcDbEntity
  8
0
100
AcDbBlockBegin
  2
_DOT
 70
     0
 10
0.0
 20
0.0
 30
0.0
  3
_DOT
  1

  0
POLYLINE
  5
135
330
132
100
AcDbEntity
  8
0
  6
ByBlock
 62
     0
100
AcDb2dPolyline
 66
     1
 10
0.0
 20
0.0
 30
0.0
 70
     1
 40
0.5
 41
0.5
  0
VERTEX
  5
137
330
135
100
AcDbEntity
  8
0
  6
ByBlock
 62
     0
100
AcDbVertex
100
AcDb2dVertex
 10
-0.25
 20
0.0
 30
0.0
 42
1.0
  0
VERTEX
  5
138
330
135
100
AcDbEntity
  8
0
  6
ByBlock
 62
     0
100
AcDbVertex
100
AcDb2dVertex
 10
0.25
 20
0.0
 30
0.0
 42
1.0
  0
SEQEND
  5
139
330
135
100
AcDbEntity
  8
0
  6
ByBlock
 62
     0
  0
LINE
  5
136
330
132
100
AcDbEntity
  8
0
  6
ByBlock
 62
     0
370
    -2
100
AcDbLine
 10
-0.5
 20
0.0
 30
0.0
 11
-1.0
 21
0.0
 31
0.0
  0
ENDBLK
  5
134
330
132
100
AcDbEntity
  8
0
100
AcDbBlockEnd
  0
BLOCK
  5
13D
330
13A
100
AcDbEntity
  8
0
100
AcDbBlockBegin
  2
_SE_FILLED
 70
     0
 10
0.0
 20
0.0
 30
0.0
  3
_SE_FILLED
  1

  0
SOLID
  5
13B
330
13A
100
AcDbEntity
  8
0
 62
     0
100
AcDbTrace
 10
0.0
 20
0.0
 30
0.0
 11
-1.0
 21
-0.1665
 31
0.0
 12
-1.0
 22
0.1665
 32
0.0
 13
0.0
 23
0.0
 33
0.0
  0
LINE
  5
13C
330
13A
100
AcDbEntity
  8
0
 62
     0
100
AcDbLine
 10
0.0
 20
0.0
 30
0.0
 11
-1.0
 21
0.0
 31
0.0
  0
ENDBLK
  5
13E
330
13A
100
AcDbEntity
  8
0
100
AcDbBlockEnd
  0
BLOCK
  5
149
330
142
100
AcDbEntity
  8
0
100
AcDbBlockBegin
  2
DMBLK117
 70
     0
 10
0.0
 20
0.0
 30
0.0
  3
DMBLK117
  1

  0
HATCH
  5
143
330
142
100
AcDbEntity
  8
SK2
  6
Continuous
 62
   136
100
AcDbHatch
 10
0.0
 20
0.0
 30
0.0
210
0.0
220
0.0
230
1.0
  2
SOLID
 70
     1
 71
     0
 91
        1
 92
        1
 93
        3
 72
     1
 10
-27.83999989196656
 20
30.58333326375456
 11
-31.33999999999998
 21
29.99999991241566
 72
     1
 10
-31.33999999999998
 20
29.99999991241566
 11
-27.83999989196656
 21
29.41666656107676
 72
     1
 10
-27.83999989196656
 20
29.41666656107676
 11
-27.83999989196656
 21
30.58333326375456
 97
        0
 75
     0
 76
     1
 98
        0
  0
HATCH
  5
144
330
142
100
AcDbEntity
  8
SK2
  6
Continuous
 62
   136
100
AcDbHatch
 10
0.0
 20
0.0
 30
0.0
210
0.0
220
0.0
230
1.0
  2
SOLID
 70
     1
 71
     0
 91
        1
 92
        1
 93
        3
 72
     1
 10
11.15999998137357
 20
30.58333326375456
 11
11.15999998137357
 21
29.41666656107676
 72
     1
 10
11.15999998137357
 20
29.41666656107676
 11
14.66000008940699
 21
29.99999991241566
 72
     1
 10
14.66000008940699
 20
29.99999991241566
 11
11.15999998137357
 21
30.58333326375456
 97
        0
 75
     0
 76
     1
 98
        0
  0
LINE
  5
145
330
142
100
AcDbEntity
  8
SK2
  6
Continuous
 62
   136
100
AcDbLine
 10
-31.34
 20
15.1522342357
 30
0.0
 11
-31.34
 21
31.7499999664
 31
0.0
  0
LINE
  5
146
330
142
100
AcDbEntity
  8
SK2
  6
Continuous
 62
   136
100
AcDbLine
 10
14.66
 20
15.0588048368
 30
0.0
 11
14.66
 21
31.7499999664
 31
0.0
  0
LINE
  5
147
330
142
100
AcDbEntity
  8
SK2
  6
Continuous
 62
   136
100
AcDbLine
 10
-31.34
 20
29.9999999124
 30
0.0
 11
14.6600000894
 21
29.9999999124
 31
0.0
  0
TEXT
  5
148
330
142
100
AcDbEntity
  8
SK2
  6
Continuous
 62
   136
100
AcDbText
 10
-10.4479545008
 20
30.8749999124
 30
0.0
 40
3.5
  1
46
  7
SEACAD_Solid_Edge_ISO
 11
-10.4479545008
 21
34.3749999124
 31
0.0
100
AcDbText
 73
     3
  0
ENDBLK
  5
14A
330
142
100
AcDbEntity
  8
0
100
AcDbBlockEnd
  0
BLOCK
  5
153
330
14B
100
AcDbEntity
  8
0
100
AcDbBlockBegin
  2
Nullpunkt
 70
     0
 10
0.0
 20
0.0
 30
0.0
  3
Nullpunkt
  1

  0
HATCH
  5
14C
330
14B
100
AcDbEntity
  8
SK2
  6
Continuous
 62
     7
100
AcDbHatch
 10
0.0
 20
0.0
 30
0.0
210
0.0
220
0.0
230
1.0
  2
SOLID
 70
     1
 71
     0
 91
        1
 92
        1
 93
        3
 72
     1
 10
-1.0
 20
0.0
 11
0.0000000000000009
 21
0.0
 72
     1
 10
0.0
 20
0.0
 11
0.0
 21
1.000000000000001
 72
     2
 10
0.0
 20
0.0
 40
1.0
 50
90.0
 51
180.0
 73
     1
 97
        0
 75
     0
 76
     1
 98
        0
  0
HATCH
  5
14D
330
14B
100
AcDbEntity
  8
SK2
  6
Continuous
 62
     7
100
AcDbHatch
 10
0.0
 20
0.0
 30
0.0
210
0.0
220
0.0
230
1.0
  2
SOLID
 70
     1
 71
     0
 91
        1
 92
        1
 93
        3
 72
     2
 10
0.0
 20
0.0
 40
1.0
 50
270.0
 51
360.0
 73
     1
 72
     1
 10
1.0
 20
0.0
 11
-0.0000000000000009
 21
0.0
 72
     1
 10
0.0
 20
0.0
 11
0.0
 21
-1.000000000000001
 97
        0
 75
     0
 76
     1
 98
        0
  0
CIRCLE
  5
14E
330
14B
100
AcDbEntity
  8
SK2
  6
Continuous
 62
     7
100
AcDbCircle
 10
0.0
 20
0.0
 30
0.0
 40
1.0
  0
LINE
  5
14F
330
14B
100
AcDbEntity
  8
SK1
  6
Continuous
100
AcDbLine
 10
-1.0
 20
0.0
 30
0.0
 11
1.0
 21
0.0
 31
0.0
  0
LINE
  5
150
330
14B
100
AcDbEntity
  8
SK1
  6
Continuous
100
AcDbLine
 10
0.0
 20
1.0
 30
0.0
 11
0.0
 21
-1.0
 31
0.0
  0
POINT
  5
151
330
14B
100
AcDbEntity
  8
SK1
  6
Continuous
100
AcDbPoint
 10
0.0
 20
0.0
 30
0.0
  0
POINT
  5
152
330
14B
100
AcDbEntity
  8
SK1
  6
Continuous
100
AcDbPoint
 10
0.0
 20
0.0
 30
0.0
  0
ENDBLK
  5
154
330
14B
100
AcDbEntity
  8
0
100
AcDbBlockEnd
  0
BLOCK
  5
15E
330
156
100
AcDbEntity
  8
0
100
AcDbBlockBegin
  2
Einfügepunkt
 70
     0
 10
0.0
 20
0.0
 30
0.0
  3
Einfügepunkt
  1

  0
HATCH
  5
157
330
156
100
AcDbEntity
  8
SK2
  6
Continuous
 62
     7
100
AcDbHatch
 10
0.0
 20
0.0
 30
0.0
210
0.0
220
0.0
230
1.0
  2
SOLID
 70
     1
 71
     0
 91
        1
 92
        1
 93
        3
 72
     1
 10
-0.4502381196756744
 20
-0.0000000000000018
 11
0.0000000000000033
 21
-0.0000000000000018
 72
     1
 10
0.0
 20
-0.0000000000000018
 11
0.0
 21
0.4502381196756812
 72
     2
 10
0.0
 20
-0.0000000000000018
 40
0.4502381196756812
 50
90.0
 51
180.0
 73
     1
 97
        0
 75
     0
 76
     1
 98
        0
  0
HATCH
  5
158
330
156
100
AcDbEntity
  8
SK2
  6
Continuous
 62
     7
100
AcDbHatch
 10
0.0
 20
0.0
 30
0.0
210
0.0
220
0.0
230
1.0
  2
SOLID
 70
     1
 71
     0
 91
        1
 92
        1
 93
        3
 72
     2
 10
0.0
 20
-0.0000000000000018
 40
0.4502381196756812
 50
270.0
 51
360.0
 73
     1
 72
     1
 10
0.4502381196756815
 20
-0.0000000000000018
 11
0.0000000000000038
 21
-0.0000000000000018
 72
     1
 10
0.0
 20
-0.0000000000000018
 11
0.0
 21
-0.4502381196756812
 97
        0
 75
     0
 76
     1
 98
        0
  0
CIRCLE
  5
159
330
156
100
AcDbEntity
  8
SK2
  6
Continuous
 62
     7
100
AcDbCircle
 10
0.0
 20
0.0
 30
0.0
 40
0.4502381196756812
  0
LINE
  5
15A
330
156
100
AcDbEntity
  8
SK1
  6
Continuous
100
AcDbLine
 10
-0.4502381197
 20
0.0
 30
0.0
 11
0.4502381197
 21
0.0
 31
0.0
  0
LINE
  5
15B
330
156
100
AcDbEntity
  8
SK1
  6
Continuous
100
AcDbLine
 10
0.0
 20
0.4502381197
 30
0.0
 11
0.0
 21
-0.4502381197
 31
0.0
  0
POINT
  5
15C
330
156
100
AcDbEntity
  8
SK2
  6
Continuous
 62
     7
100
AcDbPoint
 10
0.0
 20
0.0
 30
0.0
  0
POINT
  5
15D
330
156
100
AcDbEntity
  8
SK2
  6
Continuous
 62
     7
100
AcDbPoint
 10
0.0
 20
0.0
 30
0.0
  0
ENDBLK
  5
15F
330
156
100
AcDbEntity
  8
0
100
AcDbBlockEnd
  0
BLOCK
  5
16A
330
162
100
AcDbEntity
  8
0
100
AcDbBlockBegin
  2
DMBLK118
 70
     0
 10
0.0
 20
0.0
 30
0.0
  3
DMBLK118
  1

  0
HATCH
  5
163
330
162
100
AcDbEntity
  8
SK2
  6
Continuous
 62
   136
100
AcDbHatch
 10
0.0
 20
0.0
 30
0.0
210
0.0
220
0.0
230
1.0
  2
SOLID
 70
     1
 71
     0
 91
        1
 92
        1
 93
        3
 72
     1
 10
25.88990500840049
 20
-8.265000008262728
 11
25.30657165706158
 21
-4.764999900229309
 72
     1
 10
25.30657165706158
 20
-4.764999900229308
 11
24.72323830572268
 21
-8.265000008262728
 72
     1
 10
24.72323830572268
 20
-8.265000008262728
 11
25.88990500840049
 21
-8.265000008262728
 97
        0
 75
     0
 76
     1
 98
        0
  0
HATCH
  5
164
330
162
100
AcDbEntity
  8
SK2
  6
Continuous
 62
   136
100
AcDbHatch
 10
0.0
 20
0.0
 30
0.0
210
0.0
220
0.0
230
1.0
  2
SOLID
 70
     1
 71
     0
 91
        1
 92
        1
 93
        3
 72
     1
 10
25.88990500840049
 20
8.265000207804125
 11
24.72323830572268
 21
8.265000207804125
 72
     1
 10
24.72323830572268
 20
8.265000207804125
 11
25.30657165706158
 21
4.765000099770706
 72
     1
 10
25.30657165706158
 20
4.765000099770706
 11
25.88990500840049
 21
8.265000207804125
 97
        0
 75
     0
 76
     1
 98
        0
  0
LINE
  5
165
330
162
100
AcDbEntity
  8
SK2
  6
Continuous
 62
   136
100
AcDbLine
 10
14.26
 20
-4.7649999002
 30
0.0
 11
27.0565717111
 21
-4.7649999002
 31
0.0
  0
LINE
  5
166
330
162
100
AcDbEntity
  8
SK2
  6
Continuous
 62
   136
100
AcDbLine
 10
14.26
 20
4.7650000998
 30
0.0
 11
27.0565717111
 21
4.7650000998
 31
0.0
  0
LINE
  5
167
330
162
100
AcDbEntity
  8
SK2
  6
Continuous
 62
   136
100
AcDbLine
 10
25.3065716571
 20
-11.7650001163
 30
0.0
 11
25.3065716571
 21
23.1250005921
 31
0.0
  0
TEXT
  5
168
330
162
100
AcDbEntity
  8
SK2
  6
Continuous
 62
   136
100
AcDbText
 10
24.4315716571
 20
15.2977273433
 30
0.0
 40
3.5
  1
9,53
 50
90.0
  7
SEACAD_Solid_Edge_ISO
 11
20.9315716571
 21
15.2977273433
 31
0.0
100
AcDbText
 73
     3
  0
TEXT
  5
169
330
162
100
AcDbEntity
  8
SK2
  6
Continuous
 62
   136
100
AcDbText
 10
24.4315716571
 20
11.2250000706
 30
0.0
 40
3.5
  1
ø
 50
90.0
  7
SEACAD_Solid_Edge_ISO
 11
20.9315716571
 21
11.2250000706
 31
0.0
100
AcDbText
 73
     3
  0
ENDBLK
  5
16B
330
162
100
AcDbEntity
  8
0
100
AcDbBlockEnd
  0
BLOCK
  5
174
330
16D
100
AcDbEntity
  8
0
100
AcDbBlockBegin
  2
DMBLK119
 70
     0
 10
0.0
 20
0.0
 30
0.0
  3
DMBLK119
  1

  0
HATCH
  5
16E
330
16D
100
AcDbEntity
  8
SK2
  6
Continuous
 62
   136
100
AcDbHatch
 10
0.0
 20
0.0
 30
0.0
210
0.0
220
0.0
230
1.0
  2
SOLID
 70
     1
 71
     0
 91
        1
 92
        1
 93
        3
 72
     1
 10
-3.500000108033413
 20
-28.2022719499723
 11
0.0000000000000053
 21
-27.6189385986334
 72
     1
 10
0.0000000000000052
 20
-27.6189385986334
 11
-3.500000108033413
 21
-27.03560524729449
 72
     1
 10
-3.500000108033413
 20
-27.03560524729449
 11
-3.500000108033413
 21
-28.2022719499723
 97
        0
 75
     0
 76
     1
 98
        0
  0
HATCH
  5
16F
330
16D
100
AcDbEntity
  8
SK2
  6
Continuous
 62
   136
100
AcDbHatch
 10
0.0
 20
0.0
 30
0.0
210
0.0
220
0.0
230
1.0
  2
SOLID
 70
     1
 71
     0
 91
        1
 92
        1
 93
        3
 72
     1
 10
18.16000010803343
 20
-28.2022719499723
 11
18.16000010803343
 21
-27.03560524729449
 72
     1
 10
18.16000010803343
 20
-27.03560524729449
 11
14.66000000000001
 21
-27.6189385986334
 72
     1
 10
14.66000000000001
 20
-27.6189385986334
 11
18.16000010803343
 21
-28.2022719499723
 97
        0
 75
     0
 76
     1
 98
        0
  0
LINE
  5
170
330
16D
100
AcDbEntity
  8
SK2
  6
Continuous
 62
   136
100
AcDbLine
 10
0.0
 20
-19.9996745287
 30
0.0
 11
0.0
 21
-29.3689386527
 31
0.0
  0
LINE
  5
171
330
16D
100
AcDbEntity
  8
SK2
  6
Continuous
 62
   136
100
AcDbLine
 10
14.66
 20
-15.0588046373
 30
0.0
 11
14.66
 21
-29.3689386527
 31
0.0
  0
LINE
  5
172
330
16D
100
AcDbEntity
  8
SK2
  6
Continuous
 62
   136
100
AcDbLine
 10
-7.0000002161
 20
-27.6189385986
 30
0.0
 11
21.6600000858
 21
-27.6189385986
 31
0.0
  0
TEXT
  5
173
330
16D
100
AcDbEntity
  8
SK2
  6
Continuous
 62
   136
100
AcDbText
 10
3.114090844
 20
-26.7439385986
 30
0.0
 40
3.5
  1
14,66
  7
SEACAD_Solid_Edge_ISO
 11
3.114090844
 21
-23.2439385986
 31
0.0
100
AcDbText
 73
     3
  0
ENDBLK
  5
175
330
16D
100
AcDbEntity
  8
0
100
AcDbBlockEnd
  0
BLOCK
  5
17F
330
177
100
AcDbEntity
  8
0
100
AcDbBlockBegin
  2
DMBLK120
 70
     0
 10
0.0
 20
0.0
 30
0.0
  3
DMBLK120
  1

  0
HATCH
  5
178
330
177
100
AcDbEntity
  8
SK2
  6
Continuous
 62
   136
100
AcDbHatch
 10
0.0
 20
0.0
 30
0.0
210
0.0
220
0.0
230
1.0
  2
SOLID
 70
     1
 71
     0
 91
        1
 92
        1
 93
        3
 72
     1
 10
-39.61746526571611
 20
16.49967462019676
 11
-38.45079856303831
 21
16.49967462019676
 72
     1
 10
-38.45079856303831
 20
16.49967462019676
 11
-39.03413191437721
 21
19.99967472823018
 72
     1
 10
-39.03413191437721
 20
19.99967472823018
 11
-39.61746526571611
 21
16.49967462019676
 97
        0
 75
     0
 76
     1
 98
        0
  0
HATCH
  5
179
330
177
100
AcDbEntity
  8
SK2
  6
Continuous
 62
   136
100
AcDbHatch
 10
0.0
 20
0.0
 30
0.0
210
0.0
220
0.0
230
1.0
  2
SOLID
 70
     1
 71
     0
 91
        1
 92
        1
 93
        3
 72
     1
 10
-39.61746526571611
 20
-16.4996760691548
 11
-39.03413191437721
 21
-19.99967617718822
 72
     1
 10
-39.03413191437721
 20
-19.99967617718822
 11
-38.45079856303831
 21
-16.4996760691548
 72
     1
 10
-38.45079856303831
 20
-16.4996760691548
 11
-39.61746526571611
 21
-16.4996760691548
 97
        0
 75
     0
 76
     1
 98
        0
  0
LINE
  5
17A
330
177
100
AcDbEntity
  8
SK2
  6
Continuous
 62
   136
100
AcDbLine
 10
0.0
 20
19.9996747282
 30
0.0
 11
-40.7841319684
 21
19.9996747282
 31
0.0
  0
LINE
  5
17B
330
177
100
AcDbEntity
  8
SK2
  6
Continuous
 62
   136
100
AcDbLine
 10
0.0
 20
-19.9996745287
 30
0.0
 11
-40.7841319684
 21
-19.9996745287
 31
0.0
  0
LINE
  5
17C
330
177
100
AcDbEntity
  8
SK2
  6
Continuous
 62
   136
100
AcDbLine
 10
-39.0341319144
 20
19.9996747282
 30
0.0
 11
-39.0341319144
 21
-19.9996761772
 31
0.0
  0
TEXT
  5
17D
330
177
100
AcDbEntity
  8
SK2
  6
Continuous
 62
   136
100
AcDbText
 10
-39.9091319144
 20
-0.0318189063
 30
0.0
 40
3.5
  1
40
 50
90.0
  7
SEACAD_Solid_Edge_ISO
 11
-43.4091319144
 21
-0.0318189063
 31
0.0
100
AcDbText
 73
     3
  0
TEXT
  5
17E
330
177
100
AcDbEntity
  8
SK2
  6
Continuous
 62
   136
100
AcDbText
 10
-39.9091319144
 20
-4.104546179
 30
0.0
 40
3.5
  1
ø
 50
90.0
  7
SEACAD_Solid_Edge_ISO
 11
-43.4091319144
 21
-4.104546179
 31
0.0
100
AcDbText
 73
     3
  0
ENDBLK
  5
180
330
177
100
AcDbEntity
  8
0
100
AcDbBlockEnd
  0
ENDSEC
  0
SECTION
  2
ENTITIES
  0
LINE
  5
40
330
1F
100
AcDbEntity
  8
SK1
  6
Continuous
100
AcDbLine
 10
-30.9095865505
 20
-10.7109911853
 30
0.0
 11
-30.9095865505
 21
-0.4999999002
 31
0.0
  0
LINE
  5
41
330
1F
100
AcDbEntity
  8
SK1
  6
Continuous
100
AcDbLine
 10
-31.34
 20
-10.3606940173
 30
0.0
 11
-31.34
 21
-0.4999999002
 31
0.0
  0
SPLINE
  5
44
330
1F
100
AcDbEntity
  8
SK3
100
AcDbSpline
210
0.0
220
0.0
230
1.0
 70
     8
 71
     3
 72
    10
 73
     6
 74
     0
 42
0.0000000180175177
 43
0.0000000001
 12
1.0
 22
0.0
 32
0.0
 13
1.0
 23
0.0
 33
0.0
 40
0.0
 40
0.0
 40
0.0
 40
0.0
 40
0.5
 40
0.5
 40
1.0
 40
1.0
 40
1.0
 40
1.0
 10
-31.34000000000362
 20
-3.988606591669476
 30
0.0
 10
-31.33999999999985
 20
-3.914652265088225
 30
0.0
 10
-31.29779685847264
 20
-3.841059848961603
 30
0.0
 10
-31.1487991823791
 20
-3.734803960353291
 30
0.0
 10
-31.04592625364409
 20
-3.704316263639098
 30
0.0
 10
-30.94
 20
-3.704316263639369
 30
0.0
  0
SPLINE
  5
45
330
1F
100
AcDbEntity
  8
SK3
100
AcDbSpline
210
0.0
220
0.0
230
1.0
 70
     8
 71
     3
 72
    10
 73
     6
 74
     0
 42
0.0000000180188989
 43
0.0000000001
 12
1.0
 22
0.0
 32
0.0
 13
1.0
 23
0.0
 33
0.0
 40
0.0
 40
0.0
 40
0.0
 40
0.0
 40
0.5
 40
0.5
 40
1.0
 40
1.0
 40
1.0
 40
1.0
 10
-31.33999999999999
 20
-3.281499810483215
 30
0.0
 10
-31.33999999999999
 20
-3.206937200874902
 30
0.0
 10
-31.29706015749899
 20
-3.133408724763677
 30
0.0
 10
-31.14943400383843
 20
-3.028168881135804
 30
0.0
 10
-31.0459040523727
 20
-2.997209482449998
 30
0.0
 10
-30.94
 20
-2.997209482452821
 30
0.0
  0
SPLINE
  5
46
330
1F
100
AcDbEntity
  8
SK1
  6
Continuous
100
AcDbSpline
210
0.0
220
0.0
230
1.0
 70
     8
 71
     3
 72
    10
 73
     6
 74
     0
 42
0.0000000161503712
 43
0.0000000001
 12
1.0
 22
0.0
 32
0.0
 13
1.0
 23
0.0
 33
0.0
 40
0.0
 40
0.0
 40
0.0
 40
0.0
 40
0.5
 40
0.5
 40
1.0
 40
1.0
 40
1.0
 40
1.0
 10
-31.33999999999998
 20
-10.3606940173051
 30
0.0
 10
-31.33999999999999
 20
-10.44491262337391
 30
0.0
 10
-31.29542015981368
 20
-10.52915098276765
 30
0.0
 10
-31.13972113835961
 20
-10.65603640050034
 30
0.0
 10
-31.02878034044548
 20
-10.69913997341217
 30
0.0
 10
-30.90958655048001
 20
-10.71099118529607
 30
0.0
  0
SPLINE
  5
47
330
1F
100
AcDbEntity
  8
SK1
  6
Continuous
100
AcDbSpline
210
0.0
220
0.0
230
1.0
 70
     8
 71
     3
 72
    11
 73
     7
 74
     0
 42
0.0000000003544773
 43
0.0000000001
 12
1.0
 22
0.0
 32
0.0
 13
1.0
 23
0.0
 33
0.0
 40
0.0
 40
0.0
 40
0.0
 40
0.0
 40
0.9695717939571193
 40
0.9695717939571193
 40
0.9695717939571193
 40
1.0
 40
1.0
 40
1.0
 40
1.0
 10
-30.90958655048001
 20
-10.71099118529607
 30
0.0
 10
-21.83694658167206
 20
-11.61306652545768
 30
0.0
 10
-12.76428551794339
 20
-12.51503578545759
 30
0.0
 10
-3.691613755690049
 20
-13.41695122957582
 30
0.0
 10
-3.406884839813176
 20
-13.44525616701275
 30
0.0
 10
-3.122155912728138
 20
-13.47356104807637
 30
0.0
 10
-2.83742697463981
 20
-13.5018658737968
 30
0.0
  0
SPLINE
  5
48
330
1F
100
AcDbEntity
  8
SK1
  6
Continuous
100
AcDbSpline
210
0.0
220
0.0
230
1.0
 70
     8
 71
     3
 72
    10
 73
     6
 74
     0
 42
0.0000000161503712
 43
0.0000000001
 12
1.0
 22
0.0
 32
0.0
 13
1.0
 23
0.0
 33
0.0
 40
0.0
 40
0.0
 40
0.0
 40
0.0
 40
0.5
 40
0.5
 40
1.0
 40
1.0
 40
1.0
 40
1.0
 10
-31.33999999999998
 20
-11.06780079849164
 30
0.0
 10
-31.34000000000001
 20
-11.15201940456046
 30
0.0
 10
-31.29542015981368
 20
-11.2362577639542
 30
0.0
 10
-31.13972113835962
 20
-11.36314318168688
 30
0.0
 10
-31.02878034044549
 20
-11.40624675459872
 30
0.0
 10
-30.90958655048001
 20
-11.41809796648261
 30
0.0
  0
SPLINE
  5
49
330
1F
100
AcDbEntity
  8
SK1
  6
Continuous
100
AcDbSpline
210
0.0
220
0.0
230
1.0
 70
     8
 71
     3
 72
    11
 73
     7
 74
     0
 42
0.0000000003544773
 43
0.0000000001
 12
1.0
 22
0.0
 32
0.0
 13
1.0
 23
0.0
 33
0.0
 40
0.0
 40
0.0
 40
0.0
 40
0.0
 40
0.9695717939571273
 40
0.9695717939571273
 40
0.9695717939571273
 40
1.0
 40
1.0
 40
1.0
 40
1.0
 10
-30.90958655048001
 20
-11.41809796648261
 30
0.0
 10
-21.83694658167206
 20
-12.32017330664422
 30
0.0
 10
-12.76428551794339
 20
-13.22214256664414
 30
0.0
 10
-3.691613755690049
 20
-14.12405801076237
 30
0.0
 10
-3.406884839813256
 20
-14.15236294819929
 30
0.0
 10
-3.122155912728294
 20
-14.1806678292629
 30
0.0
 10
-2.837426974640043
 20
-14.20897265498333
 30
0.0
  0
LINE
  5
4A
330
1F
100
AcDbEntity
  8
SK1
  6
Continuous
100
AcDbLine
 10
-31.34
 20
-10.3606940173
 30
0.0
 11
-31.34
 21
-11.0678007985
 31
0.0
  0
SPLINE
  5
4B
330
1F
100
AcDbEntity
  8
SK3
100
AcDbSpline
210
0.0
220
0.0
230
1.0
 70
     8
 71
     3
 72
    11
 73
     7
 74
     0
 42
0.0000002540616543
 43
0.0000000001
 12
1.0
 22
0.0
 32
0.0
 13
1.0
 23
0.0
 33
0.0
 40
0.0
 40
0.0
 40
0.0
 40
0.0
 40
0.803399104990752
 40
0.803399104990752
 40
0.803399104990752
 40
0.9999999999999999
 40
0.9999999999999999
 40
0.9999999999999999
 40
0.9999999999999999
 10
-26.25822136160899
 20
6.487894083454645
 30
0.0
 10
-26.26430880693018
 20
6.479214504834741
 30
0.0
 10
-26.27008406311969
 20
6.470376866499971
 30
0.0
 10
-26.27552176486478
 20
6.46140414921777
 30
0.0
 10
-26.27685372575265
 20
6.459206288974959
 30
0.0
 10
-26.27816724365665
 20
6.456997235705567
 30
0.0
 10
-26.27946209418182
 20
6.454777472031466
 30
0.0
  0
LINE
  5
4C
330
1F
100
AcDbEntity
  8
SK3
100
AcDbLine
 10
-0.3652969112
 20
-3.7043162636
 30
0.0
 11
-30.94
 21
-3.7043162636
 31
0.0
  0
ELLIPSE
  5
4D
330
1F
100
AcDbEntity
  8
SK1
  6
Continuous
100
AcDbEllipse
 10
-74.7144379617
 20
-0.3535532909
 30
0.0
 11
74.49999999959674
 21
9.031239859210897E-11
 31
0.0
210
0.0
220
0.0
230
1.0
 40
0.7071067812
 41
-0.2661445757417287
 42
-0.2536239314960866
  0
SPLINE
  5
4E
330
1F
100
AcDbEntity
  8
SK3
100
AcDbSpline
210
0.0
220
0.0
230
1.0
 70
     8
 71
     3
 72
    35
 73
    31
 74
     0
 42
0.0000000073749512
 43
0.0000000001
 12
1.0
 22
0.0
 32
0.0
 13
1.0
 23
0.0
 33
0.0
 40
0.0
 40
0.0
 40
0.0
 40
0.0
 40
0.1070300009549879
 40
0.1070300009549879
 40
0.1070300009549879
 40
0.2140617693082691
 40
0.2140617693082691
 40
0.2140617693082691
 40
0.3211111942103189
 40
0.3211111942103189
 40
0.3211111942103189
 40
0.4284829706079843
 40
0.4284829706079843
 40
0.4284829706079843
 40
0.4999921141753759
 40
0.4999921141753759
 40
0.4999921141753759
 40
0.6074018661183227
 40
0.6074018661183227
 40
0.6074018661183227
 40
0.7148071304636949
 40
0.7148071304636949
 40
0.7148071304636949
 40
0.8222685132432858
 40
0.8222685132432858
 40
0.8222685132432858
 40
0.9295689232231648
 40
0.9295689232231648
 40
0.9295689232231648
 40
1.0
 40
1.0
 40
1.0
 40
1.0
 10
-0.3652969112097927
 20
-3.704316263639369
 30
0.0
 10
-0.3095470525014635
 20
-3.704316263639369
 30
0.0
 10
-0.2530261517683912
 20
-3.69829186081327
 30
0.0
 10
-0.2004181105547918
 20
-3.686601795558455
 30
0.0
 10
-0.1478088545903596
 20
-3.674911460373109
 30
0.0
 10
-0.0976661508603118
 20
-3.657223733846691
 30
0.0
 10
-0.0541229634668586
 20
-3.634709979292273
 30
0.0
 10
-0.0105702741387704
 20
-3.612191311817214
 30
0.0
 10
0.0275815665142856
 20
-3.584211431220209
 30
0.0
 10
0.0572264764769244
 20
-3.55273675468694
 30
0.0
 10
0.0869584494448891
 20
-3.521169641376697
 30
0.0
 10
0.1089534915507031
 20
-3.485202156783931
 30
0.0
 10
0.1214143156265304
 20
-3.447565872425048
 30
0.0
 10
0.1297788985201876
 20
-3.422301747162267
 30
0.0
 10
0.1340408133915106
 20
-3.39591005429509
 30
0.0
 10
0.1340408133915106
 20
-3.369363712583204
 30
0.0
 10
0.1340408133915106
 20
-3.329804301755475
 30
0.0
 10
0.1244308716582265
 20
-3.288964699098468
 30
0.0
 10
0.10599883800326
 20
-3.250339584584302
 30
0.0
 10
0.0875672620938173
 20
-3.211715429295452
 30
0.0
 10
0.0598058454399954
 20
-3.174249843326754
 30
0.0
 10
0.0249829891437875
 20
-3.141327029170562
 30
0.0
 10
-0.009856498949733
 20
-3.108388490699073
 30
0.0
 10
-0.0527310594969285
 20
-3.079102942020336
 30
0.0
 10
-0.1001120633532093
 20
-3.056243525688686
 30
0.0
 10
-0.147421443409233
 20
-3.033418664941259
 30
0.0
 10
-0.200534687312624
 20
-3.016386563580985
 30
0.0
 10
-0.2550361034345128
 20
-3.006795207929828
 30
0.0
 10
-0.2911029134004088
 20
-3.000448040714724
 30
0.0
 10
-0.3283137231626584
 20
-2.997209482452821
 30
0.0
 10
-0.3652969112097927
 20
-2.997209482452821
 30
0.0
  0
SPLINE
  5
4F
330
1F
100
AcDbEntity
  8
SK1
  6
Continuous
100
AcDbSpline
210
0.0
220
0.0
230
1.0
 70
     8
 71
     3
 72
    35
 73
    31
 74
     0
 42
0.0000000073733396
 43
0.0000000001
 12
1.0
 22
0.0
 32
0.0
 13
1.0
 23
0.0
 33
0.0
 40
0.0
 40
0.0
 40
0.0
 40
0.0
 40
0.1083835106362504
 40
0.1083835106362504
 40
0.1083835106362504
 40
0.2168004354268567
 40
0.2168004354268567
 40
0.2168004354268567
 40
0.3247144655140164
 40
0.3247144655140164
 40
0.3247144655140164
 40
0.4319468106745892
 40
0.4319468106745892
 40
0.4319468106745892
 40
0.5000278904991833
 40
0.5000278904991833
 40
0.5000278904991833
 40
0.606698716295246
 40
0.606698716295246
 40
0.606698716295246
 40
0.7133571261345989
 40
0.7133571261345989
 40
0.7133571261345989
 40
0.820214489094851
 40
0.820214489094851
 40
0.820214489094851
 40
0.9276015695245903
 40
0.9276015695245903
 40
0.9276015695245903
 40
1.0
 40
1.0
 40
1.0
 40
1.0
 10
-2.83742697463981
 20
-13.5018658737968
 30
0.0
 10
-2.781353505827956
 20
-13.50744012196744
 30
0.0
 10
-2.724540069271562
 20
-13.52014952813855
 30
0.0
 10
-2.67167948139415
 20
-13.53895145883444
 30
0.0
 10
-2.618809405157442
 20
-13.55775676443554
 30
0.0
 10
-2.568431588171344
 20
-13.58318024281558
 30
0.0
 10
-2.524772936324048
 20
-13.61306286673424
 30
0.0
 10
-2.481316214494305
 20
-13.64280727752635
 30
0.0
 10
-2.443310263976598
 20
-13.67779486341096
 30
0.0
 10
-2.413961301953555
 20
-13.71503062023158
 30
0.0
 10
-2.384794825579743
 20
-13.7520348529781
 30
0.0
 10
-2.363368357086435
 20
-13.79228292909459
 30
0.0
 10
-2.351483492708448
 20
-13.83236173401333
 30
0.0
 10
-2.343873044596521
 20
-13.85802611313634
 30
0.0
 10
-2.339999999999995
 20
-13.88399567576563
 30
0.0
 10
-2.339999999999995
 20
-13.90936238876861
 30
0.0
 10
-2.339999999999995
 20
-13.94877362834945
 30
0.0
 10
-2.349503685014232
 20
-13.98760714993605
 30
0.0
 10
-2.367717853442714
 20
-14.02267223424907
 30
0.0
 10
-2.385930848651678
 20
-14.05773505993352
 30
0.0
 10
-2.413352596450865
 20
-14.08999752671254
 30
0.0
 10
-2.447706302118133
 20
-14.1168811317981
 30
0.0
 10
-2.482125522274295
 20
-14.1438160054619
 30
0.0
 10
-2.524443596504305
 20
-14.16609483503672
 30
0.0
 10
-2.571172119378611
 20
-14.18200307256331
 30
0.0
 10
-2.618131515030219
 20
-14.19798990831544
 30
0.0
 10
-2.670826602849032
 20
-14.20798631363733
 30
0.0
 10
-2.724938837048121
 20
-14.21127406855797
 30
0.0
 10
-2.761701213132895
 20
-14.21350767958247
 30
0.0
 10
-2.799675567459897
 20
-14.21272551202733
 30
0.0
 10
-2.837426974640043
 20
-14.20897265498333
 30
0.0
  0
LINE
  5
50
330
1F
100
AcDbEntity
  8
SK3
100
AcDbLine
 10
-0.3652969112
 20
-2.9972094825
 30
0.0
 11
-30.94
 21
-2.9972094825
 31
0.0
  0
SPLINE
  5
51
330
1F
100
AcDbEntity
  8
SK3
100
AcDbSpline
210
0.0
220
0.0
230
1.0
 70
     8
 71
     3
 72
    10
 73
     6
 74
     0
 42
0.0000000154803983
 43
0.0000000001
 12
1.0
 22
0.0
 32
0.0
 13
1.0
 23
0.0
 33
0.0
 40
0.0
 40
0.0
 40
0.0
 40
0.0
 40
0.5
 40
0.5
 40
1.0
 40
1.0
 40
1.0
 40
1.0
 10
-31.34000000000362
 20
-5.140741578236074
 30
0.0
 10
-31.33999999999985
 20
-5.0361543665887
 30
0.0
 10
-31.29779685847264
 20
-4.932078973614629
 30
0.0
 10
-31.1487991823791
 20
-4.781810454862747
 30
0.0
 10
-31.04592625364409
 20
-4.738694340684019
 30
0.0
 10
-30.94
 20
-4.7386943406844
 30
0.0
  0
LINE
  5
52
330
1F
100
AcDbEntity
  8
SK1
  6
Continuous
100
AcDbLine
 10
-31.34
 20
-15.1522340362
 30
0.0
 11
-31.34
 21
-11.0678007985
 31
0.0
  0
LINE
  5
53
330
1F
100
AcDbEntity
  8
SK1
  6
Continuous
100
AcDbLine
 10
-30.9095865505
 20
-15.647629042
 30
0.0
 11
-30.9095865505
 21
-11.4180979665
 31
0.0
  0
SPLINE
  5
54
330
1F
100
AcDbEntity
  8
SK1
  6
Continuous
100
AcDbSpline
210
0.0
220
0.0
230
1.0
 70
     8
 71
     3
 72
    10
 73
     6
 74
     0
 42
0.000000013683103
 43
0.0000000001
 12
1.0
 22
0.0
 32
0.0
 13
1.0
 23
0.0
 33
0.0
 40
0.0
 40
0.0
 40
0.0
 40
0.0
 40
0.5
 40
0.5
 40
1.0
 40
1.0
 40
1.0
 40
1.0
 10
-31.33999999999998
 20
-15.15223403619703
 30
0.0
 10
-31.34000000000001
 20
-15.2713371311037
 30
0.0
 10
-31.29542015981368
 20
-15.39046816143039
 30
0.0
 10
-31.13972113835962
 20
-15.56991124005533
 30
0.0
 10
-31.02878034044549
 20
-15.63086889745399
 30
0.0
 10
-30.90958655048001
 20
-15.64762904203075
 30
0.0
  0
SPLINE
  5
55
330
1F
100
AcDbEntity
  8
SK1
  6
Continuous
100
AcDbSpline
210
0.0
220
0.0
230
1.0
 70
     8
 71
     3
 72
    11
 73
     7
 74
     0
 42
0.0000000003527553
 43
0.0000000001
 12
1.0
 22
0.0
 32
0.0
 13
1.0
 23
0.0
 33
0.0
 40
0.0
 40
0.0
 40
0.0
 40
0.0
 40
0.9695717939571193
 40
0.9695717939571193
 40
0.9695717939571193
 40
1.0
 40
1.0
 40
1.0
 40
1.0
 10
-30.90958655048001
 20
-15.64762904203075
 30
0.0
 10
-21.83694658167206
 20
-16.92335622236962
 30
0.0
 10
-12.76428551794339
 20
-18.19893338270513
 30
0.0
 10
-3.691613755690049
 20
-19.47443443589088
 30
0.0
 10
-3.406884839813176
 20
-19.51446366229631
 30
0.0
 10
-3.122155912728138
 20
-19.55449280897783
 30
0.0
 10
-2.83742697463981
 20
-19.59452187739227
 30
0.0
  0
SPLINE
  5
56
330
1F
100
AcDbEntity
  8
SK3
100
AcDbSpline
210
0.0
220
0.0
230
1.0
 70
     8
 71
     3
 72
    11
 73
     7
 74
     0
 42
0.0000003108020168
 43
0.0000000001
 12
1.0
 22
0.0
 32
0.0
 13
1.0
 23
0.0
 33
0.0
 40
0.0
 40
0.0
 40
0.0
 40
0.0
 40
0.522396279389535
 40
0.522396279389535
 40
0.522396279389535
 40
0.9999999999999999
 40
0.9999999999999999
 40
0.9999999999999999
 40
0.9999999999999999
 10
-26.32509162608306
 20
15.10398269879214
 30
0.0
 10
-26.32830420064559
 20
15.09886169590529
 30
0.0
 10
-26.33100640144519
 20
15.09375365129916
 30
0.0
 10
-26.33317334679418
 20
15.08868207742877
 30
0.0
 10
-26.33517906800881
 20
15.08398783661268
 30
0.0
 10
-26.33674669172903
 20
15.07930261711876
 30
0.0
 10
-26.33787108443197
 20
15.07464606666841
 30
0.0
  0
ARC
  5
57
330
1F
100
AcDbEntity
  8
SK3
100
AcDbCircle
 10
-0.3655129163
 20
-9.4952148061
 30
0.0
 40
4.75652047027152
100
AcDbArc
 50
83.971391055
 51
89.9973980601
  0
SPLINE
  5
58
330
1F
100
AcDbEntity
  8
SK1
  6
Continuous
100
AcDbSpline
210
0.0
220
0.0
230
1.0
 70
     8
 71
     3
 72
    23
 73
    19
 74
     0
 42
0.0000000195584633
 43
0.0000000001
 12
1.0
 22
0.0
 32
0.0
 13
1.0
 23
0.0
 33
0.0
 40
0.0
 40
0.0
 40
0.0
 40
0.0
 40
0.1946973459634917
 40
0.1946973459634917
 40
0.1946973459634917
 40
0.3894547162529397
 40
0.3894547162529397
 40
0.3894547162529397
 40
0.5833086994543979
 40
0.5833086994543979
 40
0.5833086994543979
 40
0.7759381214176093
 40
0.7759381214176093
 40
0.7759381214176093
 40
0.898237219078908
 40
0.898237219078908
 40
0.898237219078908
 40
1.0
 40
1.0
 40
1.0
 40
1.0
 10
-2.83742697463981
 20
-19.59452187739227
 30
0.0
 10
-2.781353505827956
 20
-19.60240505475522
 30
0.0
 10
-2.724540069271562
 20
-19.61064707061876
 30
0.0
 10
-2.67167948139415
 20
-19.61852798562554
 30
0.0
 10
-2.618809405157442
 20
-19.62641031523923
 30
0.0
 10
-2.568431588171344
 20
-19.63414599900696
 30
0.0
 10
-2.524772936324048
 20
-19.64098494063191
 30
0.0
 10
-2.481316214494305
 20
-19.64779225078076
 30
0.0
 10
-2.443310263976598
 20
-19.65389448218997
 30
0.0
 10
-2.413961301953555
 20
-19.65865953663371
 30
0.0
 10
-2.384794825579743
 20
-19.66339496297498
 30
0.0
 10
-2.363368357086435
 20
-19.66693614285546
 30
0.0
 10
-2.351483492708448
 20
-19.66890408660807
 30
0.0
 10
-2.343873044596521
 20
-19.6701642552848
 30
0.0
 10
-2.340000000000005
 20
-19.67080897548518
 30
0.0
 10
-2.340000000000005
 20
-19.67080897548518
 30
0.0
 10
-2.340000000000005
 20
-19.67080897548518
 30
0.0
 10
-2.342680309946337
 20
-19.67036181096073
 30
0.0
 10
-2.347922128028882
 20
-19.66949299683997
 30
0.0
  0
LINE
  5
59
330
1F
100
AcDbEntity
  8
SK3
100
AcDbLine
 10
-0.3652969112
 20
-4.7386943407
 30
0.0
 11
-30.94
 21
-4.7386943407
 31
0.0
  0
LINE
  5
5A
330
1F
100
AcDbEntity
  8
SK1
  6
Continuous
100
AcDbLine
 10
7.66
 20
19.1252379826
 30
0.0
 11
7.66
 21
20.5000000998
 31
0.0
  0
LINE
  5
5B
330
1F
100
AcDbEntity
  8
SK1
  6
Continuous
100
AcDbLine
 10
8.0064101615
 20
19.1252379826
 30
0.0
 11
8.0064101615
 21
20.5000000998
 31
0.0
  0
LINE
  5
5C
330
1F
100
AcDbEntity
  8
SK1
  6
Continuous
100
AcDbLine
 10
7.66
 20
19.1252379826
 30
0.0
 11
8.0064101615
 21
19.1252379826
 31
0.0
  0
LINE
  5
5D
330
1F
100
AcDbEntity
  8
SK1
  6
Continuous
100
AcDbLine
 10
7.66
 20
18.7425545502
 30
0.0
 11
8.0064101615
 21
18.7425545502
 31
0.0
  0
LINE
  5
5E
330
1F
100
AcDbEntity
  8
SK1
  6
Continuous
100
AcDbLine
 10
3.0473721046
 20
19.0586570642
 30
0.0
 11
3.0473721046
 21
20.4279549475
 31
0.0
  0
LINE
  5
5F
330
1F
100
AcDbEntity
  8
SK1
  6
Continuous
100
AcDbLine
 10
3.56
 20
18.6468311538
 30
0.0
 11
3.56
 21
19.9823343165
 31
0.0
  0
LINE
  5
60
330
1F
100
AcDbEntity
  8
SK1
  6
Continuous
100
AcDbLine
 10
14.66
 20
15.4414882692
 30
0.0
 11
14.66
 21
16.5142106481
 31
0.0
  0
LINE
  5
61
330
1F
100
AcDbEntity
  8
SK1
  6
Continuous
100
AcDbLine
 10
14.535
 20
15.6416046118
 30
0.0
 11
14.535
 21
16.7307169991
 31
0.0
  0
LINE
  5
62
330
1F
100
AcDbEntity
  8
SK1
  6
Continuous
100
AcDbLine
 10
3.76
 20
16.9071797532
 30
0.0
 11
3.76
 21
18.1000000998
 31
0.0
  0
LINE
  5
63
330
1F
100
AcDbEntity
  8
SK1
  6
Continuous
100
AcDbLine
 10
7.46
 20
18.1000000998
 30
0.0
 11
7.46
 21
16.9071797532
 31
0.0
  0
ARC
  5
64
330
1F
100
AcDbEntity
  8
SK1
  6
Continuous
100
AcDbCircle
 10
3.1211460862
 20
18.242840688
 30
0.0
 40
0.4393708540059058
100
AcDbArc
 50
2.7796156218
 51
99.6662212348
  0
SPLINE
  5
65
330
1F
100
AcDbEntity
  8
SK1
  6
Continuous
100
AcDbSpline
210
0.0
220
0.0
230
1.0
 70
     8
 71
     3
 72
    11
 73
     7
 74
     0
 42
0.0000000003436124
 43
0.0000000001
 12
1.0
 22
0.0
 32
0.0
 13
1.0
 23
0.0
 33
0.0
 40
0.0
 40
0.0
 40
0.0
 40
0.0
 40
0.9513679857892094
 40
0.9513679857892094
 40
0.9513679857892094
 40
1.0
 40
1.0
 40
1.0
 40
1.0
 10
3.047372104567982
 20
18.67597363181591
 30
0.0
 10
-6.104837087369916
 20
17.48726903572106
 30
0.0
 10
-15.25703678338566
 20
16.29850202891892
 30
0.0
 10
-24.40921832114451
 20
15.10961570994558
 30
0.0
 10
-24.87705939766276
 20
15.0488422371914
 30
0.0
 10
-25.34490042498192
 20
14.98806844116132
 30
0.0
 10
-25.81274140129953
 20
14.92729431001737
 30
0.0
  0
ARC
  5
66
330
1F
100
AcDbEntity
  8
SK1
  6
Continuous
100
AcDbCircle
 10
7.4673017035
 20
16.7172172004
 30
0.0
 40
0.1928591514236474
100
AcDbArc
 50
267.8302465761
 51
357.6597358478
  0
LINE
  5
67
330
1F
100
AcDbEntity
  8
SK1
  6
Continuous
100
AcDbLine
 10
7.46
 20
16.5244963208
 30
0.0
 11
3.76
 21
16.5244963208
 31
0.0
  0
ARC
  5
68
330
1F
100
AcDbEntity
  8
SK1
  6
Continuous
100
AcDbCircle
 10
3.7526993084
 20
16.7172182953
 30
0.0
 40
0.1928602072114079
100
AcDbArc
 50
182.3405768779
 51
272.1694406987
  0
SPLINE
  5
69
330
1F
100
AcDbEntity
  8
SK1
  6
Continuous
100
AcDbSpline
210
0.0
220
0.0
230
1.0
 70
     8
 71
     3
 72
     8
 73
     4
 74
     0
 42
0.0000000013513737
 43
0.0000000001
 12
1.0
 22
0.0
 32
0.0
 13
1.0
 23
0.0
 33
0.0
 40
0.0
 40
0.0
 40
0.0
 40
0.0
 40
1.0
 40
1.0
 40
1.0
 40
1.0
 10
8.006410161513777
 20
19.1252379825951
 30
0.0
 10
10.18264327889133
 20
17.96408524770271
 30
0.0
 10
12.35884813568556
 20
16.80288727865878
 30
0.0
 10
14.535
 20
15.64160461175698
 30
0.0
  0
ARC
  5
6A
330
1F
100
AcDbEntity
  8
SK1
  6
Continuous
100
AcDbCircle
 10
14.4315472016
 20
15.4378862419
 30
0.0
 40
0.2284811933219808
100
AcDbArc
 50
0.9033107129
 51
63.0775089603
  0
LINE
  5
6B
330
1F
100
AcDbEntity
  8
SK1
  6
Continuous
100
AcDbLine
 10
14.66
 20
15.4414882692
 30
0.0
 11
14.66
 21
15.0588048368
 31
0.0
  0
ARC
  5
6C
330
1F
100
AcDbEntity
  8
SK3
100
AcDbCircle
 10
14.2737500744
 20
4.9556151634
 30
0.0
 40
0.3865351837020795
100
AcDbArc
 50
267.9614081458
 51
357.7986515454
  0
SPLINE
  5
6D
330
1F
100
AcDbEntity
  8
SK1
  6
Continuous
100
AcDbSpline
210
0.0
220
0.0
230
1.0
 70
     8
 71
     3
 72
     8
 73
     4
 74
     0
 42
0.0000000013513737
 43
0.0000000001
 12
1.0
 22
0.0
 32
0.0
 13
1.0
 23
0.0
 33
0.0
 40
0.0
 40
0.0
 40
0.0
 40
0.0
 40
1.0
 40
1.0
 40
1.0
 40
1.0
 10
8.00641016151377
 20
18.74255455023
 30
0.0
 10
10.18264327889132
 20
17.58140181533762
 30
0.0
 10
12.35884813568555
 20
16.42020384629369
 30
0.0
 10
14.535
 20
15.25892117939189
 30
0.0
  0
ARC
  5
6E
330
1F
100
AcDbEntity
  8
SK1
  6
Continuous
100
AcDbCircle
 10
14.4315472016
 20
15.0552028096
 30
0.0
 40
0.2284811933219669
100
AcDbArc
 50
0.9033107129
 51
63.0775089603
  0
ARC
  5
6F
330
1F
100
AcDbEntity
  8
SK3
100
AcDbCircle
 10
14.2737500744
 20
4.572931731
 30
0.0
 40
0.3865351837020803
100
AcDbArc
 50
267.9614081458
 51
357.7986515454
  0
ARC
  5
70
330
1F
100
AcDbEntity
  8
SK1
  6
Continuous
100
AcDbCircle
 10
3.1211460862
 20
18.6255241204
 30
0.0
 40
0.4393708540059033
100
AcDbArc
 50
2.7796156218
 51
99.6662212348
  0
SPLINE
  5
71
330
1F
100
AcDbEntity
  8
SK1
  6
Continuous
100
AcDbSpline
210
0.0
220
0.0
230
1.0
 70
     8
 71
     3
 72
    11
 73
     7
 74
     0
 42
0.0000000003436124
 43
0.0000000001
 12
1.0
 22
0.0
 32
0.0
 13
1.0
 23
0.0
 33
0.0
 40
0.0
 40
0.0
 40
0.0
 40
0.0
 40
0.9513679857892094
 40
0.9513679857892094
 40
0.9513679857892094
 40
1.0
 40
1.0
 40
1.0
 40
1.0
 10
3.047372104567982
 20
19.05865706418101
 30
0.0
 10
-6.104837087369916
 20
17.86995246808615
 30
0.0
 10
-15.25703678338566
 20
16.68118546128401
 30
0.0
 10
-24.40921832114451
 20
15.49229914231067
 30
0.0
 10
-24.87705939766276
 20
15.43152566955649
 30
0.0
 10
-25.34490042498192
 20
15.37075187352641
 30
0.0
 10
-25.81274140129953
 20
15.30997774238246
 30
0.0
  0
LINE
  5
72
330
1F
100
AcDbEntity
  8
SK1
  6
Continuous
100
AcDbLine
 10
7.66
 20
19.1252379826
 30
0.0
 11
7.66
 21
18.7425545502
 31
0.0
  0
ARC
  5
73
330
1F
100
AcDbEntity
  8
SK1
  6
Continuous
100
AcDbCircle
 10
7.4673017035
 20
17.0999006328
 30
0.0
 40
0.1928591514236474
100
AcDbArc
 50
267.8302465761
 51
357.6597358478
  0
LINE
  5
74
330
1F
100
AcDbEntity
  8
SK1
  6
Continuous
100
AcDbLine
 10
7.46
 20
16.9071797532
 30
0.0
 11
3.76
 21
16.9071797532
 31
0.0
  0
ARC
  5
75
330
1F
100
AcDbEntity
  8
SK1
  6
Continuous
100
AcDbCircle
 10
3.7526993084
 20
17.0999017276
 30
0.0
 40
0.1928602072114049
100
AcDbArc
 50
182.3405768779
 51
272.1694406987
  0
LINE
  5
76
330
1F
100
AcDbEntity
  8
SK1
  6
Continuous
100
AcDbLine
 10
3.56
 20
18.2641477214
 30
0.0
 11
3.56
 21
18.6468311538
 31
0.0
  0
LINE
  5
77
330
1F
100
AcDbEntity
  8
SK3
100
AcDbLine
 10
-27.481349331
 20
4.1866411879
 30
0.0
 11
14.26
 21
4.1866411879
 31
0.0
  0
SPLINE
  5
78
330
1F
100
AcDbEntity
  8
SK3
100
AcDbSpline
210
0.0
220
0.0
230
1.0
 70
     8
 71
     3
 72
    35
 73
    31
 74
     0
 42
0.0000000087313461
 43
0.0000000001
 12
1.0
 22
0.0
 32
0.0
 13
1.0
 23
0.0
 33
0.0
 40
0.0
 40
0.0
 40
0.0
 40
0.0
 40
0.107030000954987
 40
0.107030000954987
 40
0.107030000954987
 40
0.2140617693082743
 40
0.2140617693082743
 40
0.2140617693082743
 40
0.321111194210313
 40
0.321111194210313
 40
0.321111194210313
 40
0.4284829706079781
 40
0.4284829706079781
 40
0.4284829706079781
 40
0.4999921141753745
 40
0.4999921141753745
 40
0.4999921141753745
 40
0.6074018661183247
 40
0.6074018661183247
 40
0.6074018661183247
 40
0.714807130463698
 40
0.714807130463698
 40
0.714807130463698
 40
0.822268513243285
 40
0.822268513243285
 40
0.822268513243285
 40
0.9295689232231612
 40
0.9295689232231612
 40
0.9295689232231612
 40
1.0
 40
1.0
 40
1.0
 40
1.0
 10
-27.48134933095205
 20
4.569324620314733
 30
0.0
 10
-27.53709918966038
 20
4.569324620314733
 30
0.0
 10
-27.59362009039345
 20
4.566623978241407
 30
0.0
 10
-27.64622813160705
 20
4.561286672677698
 30
0.0
 10
-27.69883738757148
 20
4.555949243872443
 30
0.0
 10
-27.74898009130153
 20
4.547814853238084
 30
0.0
 10
-27.79252327869499
 20
4.537178051881285
 30
0.0
 10
-27.83607596802307
 20
4.526538929376285
 30
0.0
 10
-27.87422780867612
 20
4.513083956550529
 30
0.0
 10
-27.90387271863876
 20
4.497481207169494
 30
0.0
 10
-27.93360469160673
 20
4.481832634668933
 30
0.0
 10
-27.95559973371254
 20
4.463573107996017
 30
0.0
 10
-27.96806055778836
 20
4.443897479742099
 30
0.0
 10
-27.97642514068203
 20
4.430689812053894
 30
0.0
 10
-27.98068705555334
 20
4.416652848794607
 30
0.0
 10
-27.98068705555334
 20
4.402286072186985
 30
0.0
 10
-27.98068705555334
 20
4.380876673322938
 30
0.0
 10
-27.97107711382006
 20
4.358212022233432
 30
0.0
 10
-27.95264508016509
 20
4.336315651338852
 30
0.0
 10
-27.93421350425565
 20
4.314419824223975
 30
0.0
 10
-27.90645208760184
 20
4.292701136957077
 30
0.0
 10
-27.87162923130563
 20
4.273330628321043
 30
0.0
 10
-27.83678974321211
 20
4.253950868106945
 30
0.0
 10
-27.79391518266491
 20
4.23640681974693
 30
0.0
 10
-27.74653417880863
 20
4.222600796426134
 30
0.0
 10
-27.69922479875261
 20
4.20881564306959
 30
0.0
 10
-27.64611155484922
 20
4.198396987842792
 30
0.0
 10
-27.59161013872733
 20
4.192521306628723
 30
0.0
 10
-27.55554332876143
 20
4.188633020913467
 30
0.0
 10
-27.51833251899919
 20
4.186641187949643
 30
0.0
 10
-27.48134933095205
 20
4.186641187949643
 30
0.0
  0
SPLINE
  5
79
330
1F
100
AcDbEntity
  8
SK1
  6
Continuous
100
AcDbSpline
210
0.0
220
0.0
230
1.0
 70
     8
 71
     3
 72
    35
 73
    31
 74
     0
 42
0.0000000083171521
 43
0.0000000001
 12
1.0
 22
0.0
 32
0.0
 13
1.0
 23
0.0
 33
0.0
 40
0.0
 40
0.0
 40
0.0
 40
0.0
 40
0.1164887905971204
 40
0.1164887905971204
 40
0.1164887905971204
 40
0.2332526504150891
 40
0.2332526504150891
 40
0.2332526504150891
 40
0.3454710350269932
 40
0.3454710350269932
 40
0.3454710350269932
 40
0.4508768133906574
 40
0.4508768133906574
 40
0.4508768133906574
 40
0.5003110897163748
 40
0.5003110897163748
 40
0.5003110897163748
 40
0.6001097649478875
 40
0.6001097649478875
 40
0.6001097649478875
 40
0.6997704681629959
 40
0.6997704681629959
 40
0.6997704681629959
 40
0.8015590486597682
 40
0.8015590486597682
 40
0.8015590486597682
 40
0.9086472129647586
 40
0.9086472129647586
 40
0.9086472129647586
 40
1.0
 40
1.0
 40
1.0
 40
1.0
 10
-25.81274140129953
 20
14.92729431001737
 30
0.0
 10
-25.87470466576499
 20
14.91924507159801
 30
0.0
 10
-25.93758349267899
 20
14.91541516571527
 30
0.0
 10
-25.99619050698248
 20
14.91620873444551
 30
0.0
 10
-26.05487585395339
 20
14.91700336383984
 30
0.0
 10
-26.11095949093108
 20
14.92248082278337
 30
0.0
 10
-26.15907542479721
 20
14.93227450032752
 30
0.0
 10
-26.2053154271502
 20
14.94168634451921
 30
0.0
 10
-26.24554710917585
 20
14.95538188263408
 30
0.0
 10
-26.27552176486477
 20
14.9721391410225
 30
0.0
 10
-26.30370407255977
 20
14.98789439162248
 30
0.0
 10
-26.32362977833176
 20
15.00682044760608
 30
0.0
 10
-26.33317334679432
 20
15.02718631570369
 30
0.0
 10
-26.33770471692932
 20
15.03685620876654
 30
0.0
 10
-26.34000000000004
 20
15.04694409704404
 30
0.0
 10
-26.34000000000004
 20
15.05723077641062
 30
0.0
 10
-26.34000000000004
 20
15.07777100748839
 30
0.0
 10
-26.33063565675617
 20
15.099551549949
 30
0.0
 10
-26.31283927784441
 20
15.12077040294358
 30
0.0
 10
-26.29505661800273
 20
15.14197289851329
 30
0.0
 10
-26.26840930163866
 20
15.16318844182848
 30
0.0
 10
-26.23533638667474
 20
15.18285962884381
 30
0.0
 10
-26.20154570662196
 20
15.20295772988566
 30
0.0
 10
-26.16020769354889
 20
15.22197326132722
 30
0.0
 10
-26.11474564606763
 20
15.23868683590101
 30
0.0
 10
-26.06693286140898
 20
15.25626463070451
 30
0.0
 10
-26.0133553252096
 20
15.27175747614572
 30
0.0
 10
-25.95817983860028
 20
15.28423780331006
 30
0.0
 10
-25.91093138061138
 20
15.2949250894574
 30
0.0
 10
-25.86161120142702
 20
15.30362938943291
 30
0.0
 10
-25.81274140129953
 20
15.30997774238246
 30
0.0
  0
LINE
  5
7A
330
1F
100
AcDbEntity
  8
SK3
100
AcDbLine
 10
-27.481349331
 20
4.5693246203
 30
0.0
 11
14.26
 21
4.5693246203
 31
0.0
  0
ELLIPSE
  5
7B
330
1F
100
AcDbEntity
  8
SK1
  6
Continuous
100
AcDbEllipse
 10
46.8677917188
 20
0.1913418161
 30
0.0
 11
-74.49999999891583
 21
-9.863164422341865E-10
 31
0.0
210
0.0
220
0.0
230
1.0
 40
0.9238795325
 41
-0.2214607661933146
 42
-0.2157122812786989
  0
LINE
  5
7C
330
1F
100
AcDbEntity
  8
SK1
  6
Continuous
100
AcDbLine
 10
7.66
 20
8.3046164468
 30
0.0
 11
7.66
 21
18.7425545502
 31
0.0
  0
LINE
  5
7D
330
1F
100
AcDbEntity
  8
SK1
  6
Continuous
100
AcDbLine
 10
8.0064101615
 20
8.3046164468
 30
0.0
 11
8.0064101615
 21
18.7425545502
 31
0.0
  0
LINE
  5
7E
330
1F
100
AcDbEntity
  8
SK1
  6
Continuous
100
AcDbLine
 10
7.66
 20
8.3046164468
 30
0.0
 11
8.0064101615
 21
8.3046164468
 31
0.0
  0
LINE
  5
7F
330
1F
100
AcDbEntity
  8
SK1
  6
Continuous
100
AcDbLine
 10
7.66
 20
7.3807369143
 30
0.0
 11
8.0064101615
 21
7.3807369143
 31
0.0
  0
LINE
  5
80
330
1F
100
AcDbEntity
  8
SK1
  6
Continuous
100
AcDbLine
 10
3.0473721046
 20
8.2770377274
 30
0.0
 11
3.0473721046
 21
18.6759736318
 31
0.0
  0
LINE
  5
81
330
1F
100
AcDbEntity
  8
SK1
  6
Continuous
100
AcDbLine
 10
3.56
 20
8.10645385
 30
0.0
 11
3.56
 21
18.2641477214
 31
0.0
  0
LINE
  5
82
330
1F
100
AcDbEntity
  8
SK1
  6
Continuous
100
AcDbLine
 10
14.66
 20
6.7787573551
 30
0.0
 11
14.66
 21
15.0588048368
 31
0.0
  0
LINE
  5
83
330
1F
100
AcDbEntity
  8
SK1
  6
Continuous
100
AcDbLine
 10
14.535
 20
6.8616482583
 30
0.0
 11
14.535
 21
15.2589211794
 31
0.0
  0
LINE
  5
84
330
1F
100
AcDbEntity
  8
SK1
  6
Continuous
100
AcDbLine
 10
3.76
 20
7.3858666461
 30
0.0
 11
3.76
 21
16.5244963208
 31
0.0
  0
LINE
  5
85
330
1F
100
AcDbEntity
  8
SK1
  6
Continuous
100
AcDbLine
 10
7.46
 20
7.3858666461
 30
0.0
 11
7.46
 21
16.5244963208
 31
0.0
  0
SPLINE
  5
86
330
1F
100
AcDbEntity
  8
SK1
  6
Continuous
100
AcDbSpline
210
0.0
220
0.0
230
1.0
 70
     8
 71
     3
 72
    10
 73
     6
 74
     0
 42
0.000000016919822
 43
0.0000000001
 12
1.0
 22
0.0
 32
0.0
 13
1.0
 23
0.0
 33
0.0
 40
0.0
 40
0.0
 40
0.0
 40
0.0
 40
0.5
 40
0.5
 40
1.0
 40
1.0
 40
1.0
 40
1.0
 10
3.560000000000004
 20
7.182574317478057
 30
0.0
 10
3.560000000000013
 20
7.231945744774185
 30
0.0
 10
3.501773789589541
 20
7.28041717403983
 30
0.0
 10
3.309062237878736
 20
7.344617390451634
 30
0.0
 10
3.175621612071947
 20
7.360057860208785
 30
0.0
 10
3.047372104567982
 20
7.353158194899696
 30
0.0
  0
LINE
  5
87
330
1F
100
AcDbEntity
  8
SK1
  6
Continuous
100
AcDbLine
 10
3.0473721046
 20
7.3531581949
 30
0.0
 11
-25.8127414013
 21
5.8004043788
 31
0.0
  0
SPLINE
  5
88
330
1F
100
AcDbEntity
  8
SK1
  6
Continuous
100
AcDbSpline
210
0.0
220
0.0
230
1.0
 70
     8
 71
     3
 72
    10
 73
     6
 74
     0
 42
0.0000000427823838
 43
0.0000000001
 12
1.0
 22
0.0
 32
0.0
 13
1.0
 23
0.0
 33
0.0
 40
0.0
 40
0.0
 40
0.0
 40
0.0
 40
0.5
 40
0.5
 40
1.0
 40
1.0
 40
1.0
 40
1.0
 10
7.660000000000004
 20
6.538552699903786
 30
0.0
 10
7.660000000000011
 20
6.518591907801319
 30
0.0
 10
7.638792955294786
 20
6.498733299953471
 30
0.0
 10
7.564184838390823
 20
6.470143878811418
 30
0.0
 10
7.512831584001748
 20
6.461987113556973
 30
0.0
 10
7.460000000000004
 20
6.461987113557279
 30
0.0
  0
LINE
  5
89
330
1F
100
AcDbEntity
  8
SK1
  6
Continuous
100
AcDbLine
 10
7.46
 20
6.4619871136
 30
0.0
 11
3.76
 21
6.4619871136
 31
0.0
  0
SPLINE
  5
8A
330
1F
100
AcDbEntity
  8
SK1
  6
Continuous
100
AcDbSpline
210
0.0
220
0.0
230
1.0
 70
     8
 71
     3
 72
    10
 73
     6
 74
     0
 42
0.0000000427888254
 43
0.0000000001
 12
1.0
 22
0.0
 32
0.0
 13
1.0
 23
0.0
 33
0.0
 40
0.0
 40
0.0
 40
0.0
 40
0.0
 40
0.5
 40
0.5
 40
1.0
 40
1.0
 40
1.0
 40
1.0
 10
3.76000000000001
 20
6.461987113557279
 30
0.0
 10
3.707128639963465
 20
6.461987113557283
 30
0.0
 10
3.655412587740159
 20
6.47029911812976
 30
0.0
 10
3.581619368452183
 20
6.498574324664231
 30
0.0
 10
3.559999999999895
 20
6.518574551887395
 30
0.0
 10
3.559999999997624
 20
6.53855269990389
 30
0.0
  0
LINE
  5
8B
330
1F
100
AcDbEntity
  8
SK1
  6
Continuous
100
AcDbLine
 10
8.0064101615
 20
8.3046164468
 30
0.0
 11
14.535
 21
6.8616482583
 31
0.0
  0
SPLINE
  5
8C
330
1F
100
AcDbEntity
  8
SK1
  6
Continuous
100
AcDbSpline
210
0.0
220
0.0
230
1.0
 70
     8
 71
     3
 72
     8
 73
     4
 74
     0
 42
0.0000000587477699
 43
0.0000000001
 12
1.0
 22
0.0
 32
0.0
 13
1.0
 23
0.0
 33
0.0
 40
0.0
 40
0.0
 40
0.0
 40
0.0
 40
1.0
 40
1.0
 40
1.0
 40
1.0
 10
14.535
 20
6.861648258276702
 30
0.0
 10
14.61128728370612
 20
6.844785632170339
 30
0.0
 10
14.66000000000001
 20
6.812292450296158
 30
0.0
 10
14.66000000000001
 20
6.778757355135451
 30
0.0
  0
LINE
  5
8D
330
1F
100
AcDbEntity
  8
SK1
  6
Continuous
100
AcDbLine
 10
14.66
 20
6.7787573551
 30
0.0
 11
14.66
 21
5.8548778226
 31
0.0
  0
SPLINE
  5
8E
330
1F
100
AcDbEntity
  8
SK3
100
AcDbSpline
210
0.0
220
0.0
230
1.0
 70
     8
 71
     3
 72
    10
 73
     6
 74
     0
 42
0.0000000213731643
 43
0.0000000001
 12
1.0
 22
0.0
 32
0.0
 13
1.0
 23
0.0
 33
0.0
 40
0.0
 40
0.0
 40
0.0
 40
0.0
 40
0.5
 40
0.5
 40
1.0
 40
1.0
 40
1.0
 40
1.0
 10
14.66000000000001
 20
2.429216536268399
 30
0.0
 10
14.66000000000001
 20
2.389192743133731
 30
0.0
 10
14.61779685847288
 20
2.349364814525599
 30
0.0
 10
14.46879918237932
 20
2.291859541993119
 30
0.0
 10
14.3659262536442
 20
2.275359719428919
 30
0.0
 10
14.26000000000001
 20
2.275359719429066
 30
0.0
  0
LINE
  5
8F
330
1F
100
AcDbEntity
  8
SK1
  6
Continuous
100
AcDbLine
 10
8.0064101615
 20
7.3807369143
 30
0.0
 11
14.535
 21
5.9377687258
 31
0.0
  0
SPLINE
  5
90
330
1F
100
AcDbEntity
  8
SK1
  6
Continuous
100
AcDbSpline
210
0.0
220
0.0
230
1.0
 70
     8
 71
     3
 72
     8
 73
     4
 74
     0
 42
0.0000000587477699
 43
0.0000000001
 12
1.0
 22
0.0
 32
0.0
 13
1.0
 23
0.0
 33
0.0
 40
0.0
 40
0.0
 40
0.0
 40
0.0
 40
1.0
 40
1.0
 40
1.0
 40
1.0
 10
14.535
 20
5.937768725765416
 30
0.0
 10
14.61128728370612
 20
5.920906099659052
 30
0.0
 10
14.66000000000001
 20
5.888412917784871
 30
0.0
 10
14.66000000000001
 20
5.854877822624166
 30
0.0
  0
SPLINE
  5
91
330
1F
100
AcDbEntity
  8
SK3
100
AcDbSpline
210
0.0
220
0.0
230
1.0
 70
     8
 71
     3
 72
    10
 73
     6
 74
     0
 42
0.0000000213731643
 43
0.0000000001
 12
1.0
 22
0.0
 32
0.0
 13
1.0
 23
0.0
 33
0.0
 40
0.0
 40
0.0
 40
0.0
 40
0.0
 40
0.5000000000000001
 40
0.5000000000000001
 40
1.0
 40
1.0
 40
1.0
 40
1.0
 10
14.66000000000001
 20
1.505337003757112
 30
0.0
 10
14.66000000000001
 20
1.465313210622444
 30
0.0
 10
14.61779685847288
 20
1.425485282014311
 30
0.0
 10
14.46879918237932
 20
1.367980009481832
 30
0.0
 10
14.3659262536442
 20
1.351480186917632
 30
0.0
 10
14.26000000000001
 20
1.351480186917779
 30
0.0
  0
SPLINE
  5
92
330
1F
100
AcDbEntity
  8
SK1
  6
Continuous
100
AcDbSpline
210
0.0
220
0.0
230
1.0
 70
     8
 71
     3
 72
    10
 73
     6
 74
     0
 42
0.000000016919822
 43
0.0000000001
 12
1.0
 22
0.0
 32
0.0
 13
1.0
 23
0.0
 33
0.0
 40
0.0
 40
0.0
 40
0.0
 40
0.0
 40
0.5
 40
0.5
 40
1.0
 40
1.0
 40
1.0
 40
1.0
 10
3.560000000000004
 20
8.10645384998934
 30
0.0
 10
3.560000000000011
 20
8.15582527728547
 30
0.0
 10
3.501773789589534
 20
8.204296706551117
 30
0.0
 10
3.309062237878734
 20
8.26849692296292
 30
0.0
 10
3.175621612071945
 20
8.28393739272007
 30
0.0
 10
3.047372104567982
 20
8.27703772741098
 30
0.0
  0
LINE
  5
93
330
1F
100
AcDbEntity
  8
SK1
  6
Continuous
100
AcDbLine
 10
3.0473721046
 20
8.2770377274
 30
0.0
 11
-25.8127414013
 21
6.7242839113
 31
0.0
  0
LINE
  5
94
330
1F
100
AcDbEntity
  8
SK1
  6
Continuous
100
AcDbLine
 10
7.66
 20
8.3046164468
 30
0.0
 11
7.66
 21
7.4624322324
 31
0.0
  0
SPLINE
  5
95
330
1F
100
AcDbEntity
  8
SK1
  6
Continuous
100
AcDbSpline
210
0.0
220
0.0
230
1.0
 70
     8
 71
     3
 72
    10
 73
     6
 74
     0
 42
0.0000000427823838
 43
0.0000000001
 12
1.0
 22
0.0
 32
0.0
 13
1.0
 23
0.0
 33
0.0
 40
0.0
 40
0.0
 40
0.0
 40
0.0
 40
0.5
 40
0.5
 40
1.0
 40
1.0
 40
1.0
 40
1.0
 10
7.660000000000004
 20
7.462432232415072
 30
0.0
 10
7.660000000000011
 20
7.442471440312601
 30
0.0
 10
7.638792955294786
 20
7.422612832464758
 30
0.0
 10
7.564184838390823
 20
7.394023411322701
 30
0.0
 10
7.512831584001748
 20
7.385866646068262
 30
0.0
 10
7.460000000000004
 20
7.385866646068567
 30
0.0
  0
LINE
  5
96
330
1F
100
AcDbEntity
  8
SK1
  6
Continuous
100
AcDbLine
 10
7.46
 20
7.3858666461
 30
0.0
 11
3.76
 21
7.3858666461
 31
0.0
  0
SPLINE
  5
97
330
1F
100
AcDbEntity
  8
SK1
  6
Continuous
100
AcDbSpline
210
0.0
220
0.0
230
1.0
 70
     8
 71
     3
 72
    10
 73
     6
 74
     0
 42
0.0000000427888254
 43
0.0000000001
 12
1.0
 22
0.0
 32
0.0
 13
1.0
 23
0.0
 33
0.0
 40
0.0
 40
0.0
 40
0.0
 40
0.0
 40
0.5
 40
0.5
 40
1.0
 40
1.0
 40
1.0
 40
1.0
 10
3.76000000000001
 20
7.385866646068565
 30
0.0
 10
3.707128639963465
 20
7.385866646068569
 30
0.0
 10
3.655412587740152
 20
7.394178650641045
 30
0.0
 10
3.581619368452182
 20
7.422453857175517
 30
0.0
 10
3.559999999999895
 20
7.442454084398683
 30
0.0
 10
3.559999999997624
 20
7.462432232415175
 30
0.0
  0
LINE
  5
98
330
1F
100
AcDbEntity
  8
SK1
  6
Continuous
100
AcDbLine
 10
3.56
 20
7.4624322324
 30
0.0
 11
3.56
 21
8.10645385
 31
0.0
  0
LINE
  5
99
330
1F
100
AcDbEntity
  8
SK3
100
AcDbLine
 10
-27.481349331
 20
1.3514801869
 30
0.0
 11
14.26
 21
1.3514801869
 31
0.0
  0
SPLINE
  5
9A
330
1F
100
AcDbEntity
  8
SK3
100
AcDbSpline
210
0.0
220
0.0
230
1.0
 70
     8
 71
     3
 72
    35
 73
    31
 74
     0
 42
0.0000000065898941
 43
0.0000000001
 12
1.0
 22
0.0
 32
0.0
 13
1.0
 23
0.0
 33
0.0
 40
0.0
 40
0.0
 40
0.0
 40
0.0
 40
0.1070300009549872
 40
0.1070300009549872
 40
0.1070300009549872
 40
0.2140617693082746
 40
0.2140617693082746
 40
0.2140617693082746
 40
0.3211111942103134
 40
0.3211111942103134
 40
0.3211111942103134
 40
0.428482970607979
 40
0.428482970607979
 40
0.428482970607979
 40
0.4999921141753753
 40
0.4999921141753753
 40
0.4999921141753753
 40
0.6074018661183141
 40
0.6074018661183141
 40
0.6074018661183141
 40
0.7148071304636808
 40
0.7148071304636808
 40
0.7148071304636808
 40
0.822268513243271
 40
0.822268513243271
 40
0.822268513243271
 40
0.9295689232231432
 40
0.9295689232231432
 40
0.9295689232231432
 40
1.0
 40
1.0
 40
1.0
 40
1.0
 10
-27.48134933095205
 20
2.275359719429066
 30
0.0
 10
-27.53709918966038
 20
2.275359719429066
 30
0.0
 10
-27.59362009039345
 20
2.266928716569119
 30
0.0
 10
-27.64622813160705
 20
2.250665598087539
 30
0.0
 10
-27.69883738757148
 20
2.234402104080921
 30
0.0
 10
-27.74898009130153
 20
2.209853837686441
 30
0.0
 10
-27.79252327869499
 20
2.178890644977618
 30
0.0
 10
-27.83607596802307
 20
2.147920695523351
 30
0.0
 10
-27.87422780867612
 20
2.109675590337752
 30
0.0
 10
-27.90387271863876
 20
2.067120720835795
 30
0.0
 10
-27.93360469160673
 20
2.024440873560758
 30
0.0
 10
-27.95559973371254
 20
1.976241154531332
 30
0.0
 10
-27.96806055778836
 20
1.926373997187356
 30
0.0
 10
-27.97642514068203
 20
1.892899648401389
 30
0.0
 10
-27.98068705555335
 20
1.858171121924055
 30
0.0
 10
-27.98068705555335
 20
1.823486654990351
 30
0.0
 10
-27.98068705555335
 20
1.771799793890516
 30
0.0
 10
-27.97107711382008
 20
1.719002698958615
 30
0.0
 10
-27.95264508016511
 20
1.669529164372115
 30
0.0
 10
-27.93421350425567
 20
1.620056858423181
 30
0.0
 10
-27.90645208760185
 20
1.57254816959004
 30
0.0
 10
-27.87162923130564
 20
1.531085249922918
 30
0.0
 10
-27.83678974321212
 20
1.489602527087726
 30
0.0
 10
-27.79391518266493
 20
1.453033937402438
 30
0.0
 10
-27.74653417880866
 20
1.424601266975302
 30
0.0
 10
-27.69922479875263
 20
1.396211576977912
 30
0.0
 10
-27.64611155484925
 20
1.375159012519881
 30
0.0
 10
-27.59161013872736
 20
1.363312179383668
 30
0.0
 10
-27.55554332876146
 20
1.355472429339998
 30
0.0
 10
-27.51833251899919
 20
1.351480186917779
 30
0.0
 10
-27.48134933095205
 20
1.351480186917779
 30
0.0
  0
SPLINE
  5
9B
330
1F
100
AcDbEntity
  8
SK1
  6
Continuous
100
AcDbSpline
210
0.0
220
0.0
230
1.0
 70
     8
 71
     3
 72
    35
 73
    31
 74
     0
 42
0.0000000063954328
 43
0.0000000001
 12
1.0
 22
0.0
 32
0.0
 13
1.0
 23
0.0
 33
0.0
 40
0.0
 40
0.0
 40
0.0
 40
0.0
 40
0.1164887905964489
 40
0.1164887905964489
 40
0.1164887905964489
 40
0.2332526504136868
 40
0.2332526504136868
 40
0.2332526504136868
 40
0.3454710350257188
 40
0.3454710350257188
 40
0.3454710350257188
 40
0.4508768133895231
 40
0.4508768133895231
 40
0.4508768133895231
 40
0.5003110897158469
 40
0.5003110897158469
 40
0.5003110897158469
 40
0.6001097649474653
 40
0.6001097649474653
 40
0.6001097649474653
 40
0.699770468162676
 40
0.699770468162676
 40
0.699770468162676
 40
0.801559048659551
 40
0.801559048659551
 40
0.801559048659551
 40
0.9086472129646559
 40
0.9086472129646559
 40
0.9086472129646559
 40
1.0
 40
1.0
 40
1.0
 40
1.0
 10
-25.81274140130113
 20
5.800404378823075
 30
0.0
 10
-25.87470466576561
 20
5.797070275101397
 30
0.0
 10
-25.93758349267973
 20
5.803547901698605
 30
0.0
 10
-25.99619050698284
 20
5.819600016791044
 30
0.0
 10
-26.05487585395331
 20
5.835673586738452
 30
0.0
 10
-26.1109594909306
 20
5.861870510550432
 30
0.0
 10
-26.15907542479646
 20
5.8963162853426
 30
0.0
 10
-26.20531542714954
 20
5.929419097227823
 30
0.0
 10
-26.24554710917528
 20
5.971175152949237
 30
0.0
 10
-26.27552176486431
 20
6.017998525356729
 30
0.0
 10
-26.30370407255941
 20
6.062022073189956
 30
0.0
 10
-26.32362977833152
 20
6.111830976366178
 30
0.0
 10
-26.33317334679418
 20
6.162968672990622
 30
0.0
 10
-26.33770471692928
 20
6.187249300532466
 30
0.0
 10
-26.34000000000005
 20
6.2120750169763
 30
0.0
 10
-26.34000000000005
 20
6.236909257815159
 30
0.0
 10
-26.34000000000005
 20
6.286497762257394
 30
0.0
 10
-26.33063565675616
 20
6.337166096133768
 30
0.0
 10
-26.3128392778444
 20
6.384681397014591
 30
0.0
 10
-26.29505661800272
 20
6.432160068772967
 30
0.0
 10
-26.26840930163866
 20
6.47777547635426
 30
0.0
 10
-26.23533638667474
 20
6.518102027958007
 30
0.0
 10
-26.20154570662196
 20
6.559303766733083
 30
0.0
 10
-26.1602076935489
 20
6.596071466575336
 30
0.0
 10
-26.11474564606764
 20
6.626008081533717
 30
0.0
 10
-26.06693286140899
 20
6.657492649513276
 30
0.0
 10
-26.0133553252096
 20
6.682250914101821
 30
0.0
 10
-25.95817983860027
 20
6.69885879688853
 30
0.0
 10
-25.91093138061136
 20
6.713080635251075
 30
0.0
 10
-25.861611201427
 20
6.721654337444015
 30
0.0
 10
-25.81274140129934
 20
6.724283911334457
 30
0.0
  0
LINE
  5
9C
330
1F
100
AcDbEntity
  8
SK3
100
AcDbLine
 10
-30.9099764046
 20
0.5000000998
 30
0.0
 11
-30.94
 21
0.5000000998
 31
0.0
  0
LINE
  5
9D
330
1F
100
AcDbEntity
  8
SK3
100
AcDbLine
 10
-30.9099764046
 20
-0.4999999002
 30
0.0
 11
-30.94
 21
-0.4999999002
 31
0.0
  0
LINE
  5
9E
330
1F
100
AcDbEntity
  8
SK3
100
AcDbLine
 10
-27.481349331
 20
2.2753597194
 30
0.0
 11
14.26
 21
2.2753597194
 31
0.0
  0
ELLIPSE
  5
9F
330
1F
100
AcDbEntity
  8
SK1
  6
Continuous
100
AcDbEllipse
 10
46.8677917198
 20
0.461939866
 30
0.0
 11
-74.49999999993642
 21
-2.104103524285353E-12
 31
0.0
210
0.0
220
0.0
230
1.0
 40
0.3826834324
 41
-0.2214607661795798
 42
-0.1940123717304054
  0
LINE
  5
A0
330
1F
100
AcDbEntity
  8
SK1
  6
Continuous
100
AcDbLine
 10
7.66
 20
-7.3807367148
 30
0.0
 11
7.66
 21
7.3807369143
 31
0.0
  0
LINE
  5
A1
330
1F
100
AcDbEntity
  8
SK1
  6
Continuous
100
AcDbLine
 10
8.0064101615
 20
-7.3807367148
 30
0.0
 11
8.0064101615
 21
7.3807369143
 31
0.0
  0
LINE
  5
A2
330
1F
100
AcDbEntity
  8
SK1
  6
Continuous
100
AcDbLine
 10
7.66
 20
-7.3807367148
 30
0.0
 11
8.0064101615
 21
-7.3807367148
 31
0.0
  0
LINE
  5
A3
330
1F
100
AcDbEntity
  8
SK1
  6
Continuous
100
AcDbLine
 10
7.66
 20
-8.3046162473
 30
0.0
 11
8.0064101615
 21
-8.3046162473
 31
0.0
  0
LINE
  5
A4
330
1F
100
AcDbEntity
  8
SK1
  6
Continuous
100
AcDbLine
 10
3.0473721046
 20
-7.3531579954
 30
0.0
 11
3.0473721046
 21
7.3531581949
 31
0.0
  0
LINE
  5
A5
330
1F
100
AcDbEntity
  8
SK1
  6
Continuous
100
AcDbLine
 10
3.56
 20
-7.1825741179
 30
0.0
 11
3.56
 21
7.1825743175
 31
0.0
  0
LINE
  5
A6
330
1F
100
AcDbEntity
  8
SK1
  6
Continuous
100
AcDbLine
 10
14.66
 20
-5.8548776231
 30
0.0
 11
14.66
 21
5.8548778226
 31
0.0
  0
LINE
  5
A7
330
1F
100
AcDbEntity
  8
SK1
  6
Continuous
100
AcDbLine
 10
14.535
 20
-5.9377685262
 30
0.0
 11
14.535
 21
5.9377687258
 31
0.0
  0
LINE
  5
A8
330
1F
100
AcDbEntity
  8
SK1
  6
Continuous
100
AcDbLine
 10
3.76
 20
-6.461986914
 30
0.0
 11
3.76
 21
6.4619871136
 31
0.0
  0
LINE
  5
A9
330
1F
100
AcDbEntity
  8
SK1
  6
Continuous
100
AcDbLine
 10
7.46
 20
-6.461986914
 30
0.0
 11
7.46
 21
6.4619871136
 31
0.0
  0
SPLINE
  5
AA
330
1F
100
AcDbEntity
  8
SK1
  6
Continuous
100
AcDbSpline
210
0.0
220
0.0
230
1.0
 70
     8
 71
     3
 72
    10
 73
     6
 74
     0
 42
0.0000000169237583
 43
0.0000000001
 12
1.0
 22
0.0
 32
0.0
 13
1.0
 23
0.0
 33
0.0
 40
0.0
 40
0.0
 40
0.0
 40
0.0
 40
0.5
 40
0.5
 40
1.0
 40
1.0
 40
1.0
 40
1.0
 10
3.560000000000004
 20
-8.106453650447945
 30
0.0
 10
3.560000000000021
 20
-8.15531098678448
 30
0.0
 10
3.502289004086756
 20
-8.204134845094003
 30
0.0
 10
3.308443087672435
 20
-8.268693005284357
 30
0.0
 10
3.175118315310508
 20
-8.283910116433718
 30
0.0
 10
3.047372104567982
 20
-8.277037527869583
 30
0.0
  0
LINE
  5
AB
330
1F
100
AcDbEntity
  8
SK1
  6
Continuous
100
AcDbLine
 10
3.0473721046
 20
-8.2770375279
 30
0.0
 11
-25.8127414013
 21
-6.7242837118
 31
0.0
  0
LINE
  5
AC
330
1F
100
AcDbEntity
  8
SK1
  6
Continuous
100
AcDbLine
 10
7.66
 20
-8.3046162473
 30
0.0
 11
7.66
 21
-7.4624320329
 31
0.0
  0
SPLINE
  5
AD
330
1F
100
AcDbEntity
  8
SK1
  6
Continuous
100
AcDbSpline
210
0.0
220
0.0
230
1.0
 70
     8
 71
     3
 72
    10
 73
     6
 74
     0
 42
0.0000000427810229
 43
0.0000000001
 12
1.0
 22
0.0
 32
0.0
 13
1.0
 23
0.0
 33
0.0
 40
0.0
 40
0.0
 40
0.0
 40
0.0
 40
0.5
 40
0.5
 40
1.0
 40
1.0
 40
1.0
 40
1.0
 10
7.660000000000004
 20
-7.462432032873676
 30
0.0
 10
7.660000000000007
 20
-7.442295782642756
 30
0.0
 10
7.638224420328112
 20
-7.422367737799719
 30
0.0
 10
7.564482002037069
 20
-7.39416421862572
 30
0.0
 10
7.512701076458385
 20
-7.385866446527173
 30
0.0
 10
7.460000000000004
 20
-7.385866446527173
 30
0.0
  0
LINE
  5
AE
330
1F
100
AcDbEntity
  8
SK1
  6
Continuous
100
AcDbLine
 10
7.46
 20
-7.3858664465
 30
0.0
 11
3.76
 21
-7.3858664465
 31
0.0
  0
SPLINE
  5
AF
330
1F
100
AcDbEntity
  8
SK1
  6
Continuous
100
AcDbSpline
210
0.0
220
0.0
230
1.0
 70
     8
 71
     3
 72
    10
 73
     6
 74
     0
 42
0.0000000427886918
 43
0.0000000001
 12
1.0
 22
0.0
 32
0.0
 13
1.0
 23
0.0
 33
0.0
 40
0.0
 40
0.0
 40
0.0
 40
0.0
 40
0.5
 40
0.5
 40
1.0
 40
1.0
 40
1.0
 40
1.0
 10
3.76000000000001
 20
-7.385866446527173
 30
0.0
 10
3.707599211485188
 20
-7.38586644652717
 30
0.0
 10
3.655544646672346
 20
-7.394163540848602
 30
0.0
 10
3.581844433505404
 20
-7.422331902005157
 30
0.0
 10
3.560000000000004
 20
-7.44240282902546
 30
0.0
 10
3.55999999999999
 20
-7.462432032873676
 30
0.0
  0
LINE
  5
B0
330
1F
100
AcDbEntity
  8
SK1
  6
Continuous
100
AcDbLine
 10
3.56
 20
-7.4624320329
 30
0.0
 11
3.56
 21
-8.1064536504
 31
0.0
  0
SPLINE
  5
B1
330
1F
100
AcDbEntity
  8
SK1
  6
Continuous
100
AcDbSpline
210
0.0
220
0.0
230
1.0
 70
     8
 71
     3
 72
     8
 73
     4
 74
     0
 42
0.0000000014956283
 43
0.0000000001
 12
1.0
 22
0.0
 32
0.0
 13
1.0
 23
0.0
 33
0.0
 40
0.0
 40
0.0
 40
0.0
 40
0.0
 40
1.0
 40
1.0
 40
1.0
 40
1.0
 10
8.006410161513777
 20
-7.380736714760671
 30
0.0
 10
10.18264327889133
 20
-6.899771503981633
 30
0.0
 10
12.35884813568556
 20
-6.418787556603543
 30
0.0
 10
14.535
 20
-5.937768526224022
 30
0.0
  0
SPLINE
  5
B2
330
1F
100
AcDbEntity
  8
SK1
  6
Continuous
100
AcDbSpline
210
0.0
220
0.0
230
1.0
 70
     8
 71
     3
 72
    10
 73
     6
 74
     0
 42
0.0000000616222016
 43
0.0000000001
 12
1.0
 22
0.0
 32
0.0
 13
1.0
 23
0.0
 33
0.0
 40
0.0
 40
0.0
 40
0.0
 40
0.0
 40
0.4999999999999999
 40
0.4999999999999999
 40
1.0
 40
1.0
 40
1.0
 40
1.0
 10
14.535
 20
-5.937768526224022
 30
0.0
 10
14.57258157670125
 20
-5.929461452677637
 30
0.0
 10
14.60492138213643
 20
-5.917068020852096
 30
0.0
 10
14.64823926950537
 20
-5.888303457624964
 30
0.0
 10
14.66000000000001
 20
-5.871643617437047
 30
0.0
 10
14.66000000000001
 20
-5.854877623082769
 30
0.0
  0
SPLINE
  5
B3
330
1F
100
AcDbEntity
  8
SK3
100
AcDbSpline
210
0.0
220
0.0
230
1.0
 70
     8
 71
     3
 72
    10
 73
     6
 74
     0
 42
0.0000000213752875
 43
0.0000000001
 12
1.0
 22
0.0
 32
0.0
 13
1.0
 23
0.0
 33
0.0
 40
0.0
 40
0.0
 40
0.0
 40
0.0
 40
0.5
 40
0.5
 40
1.0
 40
1.0
 40
1.0
 40
1.0
 10
14.66000000000001
 20
-1.50533680421572
 30
0.0
 10
14.66000000000001
 20
-1.46534347117771
 30
0.0
 10
14.61741539636633
 20
-1.425280687153913
 30
0.0
 10
14.4686163191338
 20
-1.367966622674847
 30
0.0
 10
14.36448513840509
 20
-1.351479987376696
 30
0.0
 10
14.26000000000239
 20
-1.351479987369175
 30
0.0
  0
SPLINE
  5
B4
330
1F
100
AcDbEntity
  8
SK1
  6
Continuous
100
AcDbSpline
210
0.0
220
0.0
230
1.0
 70
     8
 71
     3
 72
     8
 73
     4
 74
     0
 42
0.0000000014956283
 43
0.0000000001
 12
1.0
 22
0.0
 32
0.0
 13
1.0
 23
0.0
 33
0.0
 40
0.0
 40
0.0
 40
0.0
 40
0.0
 40
1.0
 40
1.0
 40
1.0
 40
1.0
 10
8.00641016151377
 20
-8.304616247271955
 30
0.0
 10
10.18264327889132
 20
-7.823651036492921
 30
0.0
 10
12.35884813568555
 20
-7.342667089114832
 30
0.0
 10
14.535
 20
-6.861648058735309
 30
0.0
  0
SPLINE
  5
B5
330
1F
100
AcDbEntity
  8
SK1
  6
Continuous
100
AcDbSpline
210
0.0
220
0.0
230
1.0
 70
     8
 71
     3
 72
    10
 73
     6
 74
     0
 42
0.0000000616222016
 43
0.0000000001
 12
1.0
 22
0.0
 32
0.0
 13
1.0
 23
0.0
 33
0.0
 40
0.0
 40
0.0
 40
0.0
 40
0.0
 40
0.5000000000000001
 40
0.5000000000000001
 40
1.0
 40
1.0
 40
1.0
 40
1.0
 10
14.535
 20
-6.861648058735309
 30
0.0
 10
14.57258157670125
 20
-6.853340985188924
 30
0.0
 10
14.60492138213643
 20
-6.840947553363382
 30
0.0
 10
14.64823926950537
 20
-6.812182990136254
 30
0.0
 10
14.66000000000001
 20
-6.795523149948334
 30
0.0
 10
14.66000000000001
 20
-6.778757155594056
 30
0.0
  0
LINE
  5
B6
330
1F
100
AcDbEntity
  8
SK1
  6
Continuous
100
AcDbLine
 10
14.66
 20
-6.7787571556
 30
0.0
 11
14.66
 21
-5.8548776231
 31
0.0
  0
SPLINE
  5
B7
330
1F
100
AcDbEntity
  8
SK3
100
AcDbSpline
210
0.0
220
0.0
230
1.0
 70
     8
 71
     3
 72
    10
 73
     6
 74
     0
 42
0.0000000213752875
 43
0.0000000001
 12
1.0
 22
0.0
 32
0.0
 13
1.0
 23
0.0
 33
0.0
 40
0.0
 40
0.0
 40
0.0
 40
0.0
 40
0.5
 40
0.5
 40
1.0
 40
1.0
 40
1.0
 40
1.0
 10
14.66000000000001
 20
-2.429216336727006
 30
0.0
 10
14.66000000000001
 20
-2.389223003688996
 30
0.0
 10
14.61741539636633
 20
-2.3491602196652
 30
0.0
 10
14.4686163191338
 20
-2.291846155186135
 30
0.0
 10
14.36448513840509
 20
-2.275359519887983
 30
0.0
 10
14.26000000000239
 20
-2.275359519880461
 30
0.0
  0
SPLINE
  5
B8
330
1F
100
AcDbEntity
  8
SK1
  6
Continuous
100
AcDbSpline
210
0.0
220
0.0
230
1.0
 70
     8
 71
     3
 72
    10
 73
     6
 74
     0
 42
0.0000000169237583
 43
0.0000000001
 12
1.0
 22
0.0
 32
0.0
 13
1.0
 23
0.0
 33
0.0
 40
0.0
 40
0.0
 40
0.0
 40
0.0
 40
0.5
 40
0.5
 40
1.0
 40
1.0
 40
1.0
 40
1.0
 10
3.560000000000004
 20
-7.182574117936658
 30
0.0
 10
3.560000000000021
 20
-7.231431454273195
 30
0.0
 10
3.502289004086756
 20
-7.280255312582717
 30
0.0
 10
3.308443087672435
 20
-7.344813472773068
 30
0.0
 10
3.175118315310508
 20
-7.360030583922432
 30
0.0
 10
3.047372104567982
 20
-7.353157995358297
 30
0.0
  0
LINE
  5
B9
330
1F
100
AcDbEntity
  8
SK1
  6
Continuous
100
AcDbLine
 10
3.0473721046
 20
-7.3531579954
 30
0.0
 11
-25.8127414013
 21
-5.8004041793
 31
0.0
  0
SPLINE
  5
BA
330
1F
100
AcDbEntity
  8
SK1
  6
Continuous
100
AcDbSpline
210
0.0
220
0.0
230
1.0
 70
     8
 71
     3
 72
    10
 73
     6
 74
     0
 42
0.0000000427810229
 43
0.0000000001
 12
1.0
 22
0.0
 32
0.0
 13
1.0
 23
0.0
 33
0.0
 40
0.0
 40
0.0
 40
0.0
 40
0.0
 40
0.5
 40
0.5
 40
1.0
 40
1.0
 40
1.0
 40
1.0
 10
7.660000000000004
 20
-6.538552500362387
 30
0.0
 10
7.660000000000007
 20
-6.518416250131471
 30
0.0
 10
7.638224420328112
 20
-6.498488205288433
 30
0.0
 10
7.564482002037069
 20
-6.470284686114432
 30
0.0
 10
7.512701076458385
 20
-6.461986914015886
 30
0.0
 10
7.460000000000004
 20
-6.461986914015886
 30
0.0
  0
LINE
  5
BB
330
1F
100
AcDbEntity
  8
SK1
  6
Continuous
100
AcDbLine
 10
7.46
 20
-6.461986914
 30
0.0
 11
3.76
 21
-6.461986914
 31
0.0
  0
SPLINE
  5
BC
330
1F
100
AcDbEntity
  8
SK1
  6
Continuous
100
AcDbSpline
210
0.0
220
0.0
230
1.0
 70
     8
 71
     3
 72
    10
 73
     6
 74
     0
 42
0.0000000427886918
 43
0.0000000001
 12
1.0
 22
0.0
 32
0.0
 13
1.0
 23
0.0
 33
0.0
 40
0.0
 40
0.0
 40
0.0
 40
0.0
 40
0.5
 40
0.5
 40
1.0
 40
1.0
 40
1.0
 40
1.0
 10
3.76000000000001
 20
-6.461986914015886
 30
0.0
 10
3.707599211485188
 20
-6.461986914015885
 30
0.0
 10
3.655544646672346
 20
-6.470284008337316
 30
0.0
 10
3.581844433505404
 20
-6.49845236949387
 30
0.0
 10
3.560000000000004
 20
-6.518523296514172
 30
0.0
 10
3.55999999999999
 20
-6.538552500362388
 30
0.0
  0
LINE
  5
BD
330
1F
100
AcDbEntity
  8
SK3
100
AcDbLine
 10
-27.481349331
 20
-2.2753595199
 30
0.0
 11
14.26
 21
-2.2753595199
 31
0.0
  0
ELLIPSE
  5
BE
330
1F
100
AcDbEntity
  8
SK1
  6
Continuous
100
AcDbEllipse
 10
46.8677917189
 20
-0.4619396665
 30
0.0
 11
-74.4999999989509
 21
6.641446155147673E-11
 31
0.0
210
0.0
220
0.0
230
1.0
 40
0.3826834324
 41
0.194069498989473
 42
0.2214607661813752
  0
SPLINE
  5
BF
330
1F
100
AcDbEntity
  8
SK3
100
AcDbSpline
210
0.0
220
0.0
230
1.0
 70
     8
 71
     3
 72
    35
 73
    31
 74
     0
 42
0.0000000065896791
 43
0.0000000001
 12
1.0
 22
0.0
 32
0.0
 13
1.0
 23
0.0
 33
0.0
 40
0.0
 40
0.0
 40
0.0
 40
0.0
 40
0.107030000954987
 40
0.107030000954987
 40
0.107030000954987
 40
0.2140617693082742
 40
0.2140617693082742
 40
0.2140617693082742
 40
0.3211111942103129
 40
0.3211111942103129
 40
0.3211111942103129
 40
0.428482970607978
 40
0.428482970607978
 40
0.428482970607978
 40
0.4999921141753745
 40
0.4999921141753745
 40
0.4999921141753745
 40
0.6074018661183245
 40
0.6074018661183245
 40
0.6074018661183245
 40
0.7148071304636978
 40
0.7148071304636978
 40
0.7148071304636978
 40
0.8222685132432849
 40
0.8222685132432849
 40
0.8222685132432849
 40
0.9295689232231611
 40
0.9295689232231611
 40
0.9295689232231611
 40
1.0
 40
1.0
 40
1.0
 40
1.0
 10
-27.48134933095205
 20
-1.351479987376387
 30
0.0
 10
-27.53709918966038
 20
-1.351479987376387
 30
0.0
 10
-27.59362009039345
 20
-1.360702583892003
 30
0.0
 10
-27.64622813160705
 20
-1.378364801051425
 30
0.0
 10
-27.69883738757148
 20
-1.396027426041904
 30
0.0
 10
-27.74898009130153
 20
-1.422609526675365
 30
0.0
 10
-27.79252327869499
 20
-1.455761292381756
 30
0.0
 10
-27.83607596802307
 20
-1.488920292420987
 30
0.0
 10
-27.87422780867612
 20
-1.529552066043091
 30
0.0
 10
-27.90387271863876
 20
-1.574130990256742
 30
0.0
 10
-27.93360469160673
 20
-1.618840836612552
 30
0.0
 10
-27.95559973371254
 20
-1.668746006293621
 30
0.0
 10
-27.96806055778836
 20
-1.719593188272548
 30
0.0
 10
-27.97642514068203
 20
-1.753725398629065
 30
0.0
 10
-27.98068705555334
 20
-1.788801988515257
 30
0.0
 10
-27.98068705555334
 20
-1.82348645544896
 30
0.0
 10
-27.98068705555334
 20
-1.8751733165488
 30
0.0
 10
-27.97107711382006
 20
-1.927175033165892
 30
0.0
 10
-27.95264508016509
 20
-1.97524480586208
 30
0.0
 10
-27.93421350425565
 20
-2.023313384782059
 30
0.0
 10
-27.90645208760184
 20
-2.068782129593566
 30
0.0
 10
-27.87162923130563
 20
-2.108049044286362
 30
0.0
 10
-27.83678974321211
 20
-2.147334713309954
 30
0.0
 10
-27.79391518266491
 20
-2.181506460439718
 30
0.0
 10
-27.74653417880863
 20
-2.207910305251459
 30
0.0
 10
-27.69922479875261
 20
-2.234274236520791
 30
0.0
 10
-27.64611155484922
 20
-2.253628403473273
 30
0.0
 10
-27.59161013872733
 20
-2.264506674351605
 30
0.0
 10
-27.55554332876143
 20
-2.271705469473716
 30
0.0
 10
-27.51833251899919
 20
-2.275359519887673
 30
0.0
 10
-27.48134933095205
 20
-2.275359519887673
 30
0.0
  0
SPLINE
  5
C0
330
1F
100
AcDbEntity
  8
SK1
  6
Continuous
100
AcDbSpline
210
0.0
220
0.0
230
1.0
 70
     8
 71
     3
 72
    35
 73
    31
 74
     0
 42
0.0000000063957257
 43
0.0000000001
 12
1.0
 22
0.0
 32
0.0
 13
1.0
 23
0.0
 33
0.0
 40
0.0
 40
0.0
 40
0.0
 40
0.0
 40
0.1164887905971204
 40
0.1164887905971204
 40
0.1164887905971204
 40
0.2332526504150887
 40
0.2332526504150887
 40
0.2332526504150887
 40
0.3454710350269934
 40
0.3454710350269934
 40
0.3454710350269934
 40
0.450876813390654
 40
0.450876813390654
 40
0.450876813390654
 40
0.5003110897163748
 40
0.5003110897163748
 40
0.5003110897163748
 40
0.6001097649478873
 40
0.6001097649478873
 40
0.6001097649478873
 40
0.6997704681629958
 40
0.6997704681629958
 40
0.6997704681629958
 40
0.8015590486597682
 40
0.8015590486597682
 40
0.8015590486597682
 40
0.908647212964758
 40
0.908647212964758
 40
0.908647212964758
 40
1.0
 40
1.0
 40
1.0
 40
1.0
 10
-25.81274140129953
 20
-6.724283711793051
 30
0.0
 10
-25.87470466576499
 20
-6.720949608072978
 30
0.0
 10
-25.93758349267899
 20
-6.707958954807089
 30
0.0
 10
-25.99619050698248
 20
-6.686051404668733
 30
0.0
 10
-26.05487585395339
 20
-6.664114573447576
 30
0.0
 10
-26.11095949093108
 20
-6.632543987443437
 30
0.0
 10
-26.15907542479721
 20
-6.593623983109581
 30
0.0
 10
-26.2053154271502
 20
-6.556221381780394
 30
0.0
 10
-26.24554710917585
 20
-6.510864939582723
 30
0.0
 10
-26.27552176486477
 20
-6.461403949676347
 30
0.0
 10
-26.30370407255977
 20
-6.41490050186674
 30
0.0
 10
-26.32362977833178
 20
-6.363386131451576
 30
0.0
 10
-26.33317334679434
 20
-6.311432375434363
 30
0.0
 10
-26.33770471692933
 20
-6.286764275724974
 30
0.0
 10
-26.34000000000004
 20
-6.261743299112374
 30
0.0
 10
-26.34000000000004
 20
-6.236909058273787
 30
0.0
 10
-26.34000000000004
 20
-6.187320553831555
 30
0.0
 10
-26.33063565675617
 20
-6.137445251341347
 30
0.0
 10
-26.31283927784441
 20
-6.091467321410029
 30
0.0
 10
-26.29505661800273
 20
-6.045524835455582
 30
0.0
 10
-26.26840930163866
 20
-6.002230450716135
 30
0.0
 10
-26.23533638667474
 20
-5.96487128152971
 30
0.0
 10
-26.20154570662196
 20
-5.926701324802492
 30
0.0
 10
-26.16020769354889
 20
-5.893719476469888
 30
0.0
 10
-26.11474564606763
 20
-5.86809628415799
 30
0.0
 10
-26.06693286140898
 20
-5.841148175919343
 30
0.0
 10
-26.0133553252096
 20
-5.821627547798596
 30
0.0
 10
-25.95817983860028
 20
-5.810620781883676
 30
0.0
 10
-25.91093138061138
 20
-5.801195351336824
 30
0.0
 10
-25.86161120142702
 20
-5.797774605391329
 30
0.0
 10
-25.81274140129953
 20
-5.800404179281766
 30
0.0
  0
SPLINE
  5
C1
330
1F
100
AcDbEntity
  8
SK3
100
AcDbSpline
210
0.0
220
0.0
230
1.0
 70
     8
 71
     3
 72
     8
 73
     4
 74
     0
 42
0.0000001103131126
 43
0.0000000001
 12
1.0
 22
0.0
 32
0.0
 13
1.0
 23
0.0
 33
0.0
 40
0.0
 40
0.0
 40
0.0
 40
0.0
 40
1.0
 40
1.0
 40
1.0
 40
1.0
 10
-2.339999999999995
 20
13.90936258831001
 30
0.0
 10
-2.339999999999995
 20
13.93955636894563
 30
0.0
 10
-2.345578106931226
 20
13.9694110629277
 30
0.0
 10
-2.356377643236276
 20
13.99749190517384
 30
0.0
  0
LINE
  5
C2
330
1F
100
AcDbEntity
  8
SK3
100
AcDbLine
 10
-27.481349331
 20
-1.3514799874
 30
0.0
 11
14.26
 21
-1.3514799874
 31
0.0
  0
LINE
  5
C3
330
1F
100
AcDbEntity
  8
SK1
  6
Continuous
100
AcDbLine
 10
7.66
 20
-18.7425543507
 30
0.0
 11
7.66
 21
-8.3046162473
 31
0.0
  0
LINE
  5
C4
330
1F
100
AcDbEntity
  8
SK1
  6
Continuous
100
AcDbLine
 10
8.0064101615
 20
-18.7425543507
 30
0.0
 11
8.0064101615
 21
-8.3046162473
 31
0.0
  0
LINE
  5
C5
330
1F
100
AcDbEntity
  8
SK1
  6
Continuous
100
AcDbLine
 10
7.66
 20
-18.7425543507
 30
0.0
 11
8.0064101615
 21
-18.7425543507
 31
0.0
  0
LINE
  5
C6
330
1F
100
AcDbEntity
  8
SK1
  6
Continuous
100
AcDbLine
 10
7.66
 20
-19.1252377831
 30
0.0
 11
8.0064101615
 21
-19.1252377831
 31
0.0
  0
LINE
  5
C7
330
1F
100
AcDbEntity
  8
SK1
  6
Continuous
100
AcDbLine
 10
3.0473721046
 20
-18.6759734323
 30
0.0
 11
3.0473721046
 21
-8.2770375279
 31
0.0
  0
LINE
  5
C8
330
1F
100
AcDbEntity
  8
SK1
  6
Continuous
100
AcDbLine
 10
3.56
 20
-18.2641475219
 30
0.0
 11
3.56
 21
-8.1064536504
 31
0.0
  0
LINE
  5
C9
330
1F
100
AcDbEntity
  8
SK1
  6
Continuous
100
AcDbLine
 10
14.66
 20
-15.0588046373
 30
0.0
 11
14.66
 21
-6.7787571556
 31
0.0
  0
LINE
  5
CA
330
1F
100
AcDbEntity
  8
SK1
  6
Continuous
100
AcDbLine
 10
14.535
 20
-15.2589209799
 30
0.0
 11
14.535
 21
-6.8616480587
 31
0.0
  0
LINE
  5
CB
330
1F
100
AcDbEntity
  8
SK1
  6
Continuous
100
AcDbLine
 10
3.76
 20
-16.5244961213
 30
0.0
 11
3.76
 21
-7.3858664465
 31
0.0
  0
LINE
  5
CC
330
1F
100
AcDbEntity
  8
SK1
  6
Continuous
100
AcDbLine
 10
7.46
 20
-16.5244961213
 30
0.0
 11
7.46
 21
-7.3858664465
 31
0.0
  0
ARC
  5
CD
330
1F
100
AcDbEntity
  8
SK1
  6
Continuous
100
AcDbCircle
 10
3.121146594
 20
-18.6255245529
 30
0.0
 40
0.4393703161692309
100
AcDbArc
 50
260.3336996485
 51
357.2204634949
  0
LINE
  5
CE
330
1F
100
AcDbEntity
  8
SK1
  6
Continuous
100
AcDbLine
 10
3.0473721046
 20
-19.0586568646
 30
0.0
 11
-25.8127414013
 21
-15.3099775428
 31
0.0
  0
LINE
  5
CF
330
1F
100
AcDbEntity
  8
SK1
  6
Continuous
100
AcDbLine
 10
7.66
 20
-19.1252377831
 30
0.0
 11
7.66
 21
-18.7425543507
 31
0.0
  0
ARC
  5
D0
330
1F
100
AcDbEntity
  8
SK1
  6
Continuous
100
AcDbCircle
 10
7.4672947531
 20
-17.0999079534
 30
0.0
 40
0.1928664032215692
100
AcDbArc
 50
2.3424120384
 51
92.1676055382
  0
LINE
  5
D1
330
1F
100
AcDbEntity
  8
SK1
  6
Continuous
100
AcDbLine
 10
7.46
 20
-16.9071795537
 30
0.0
 11
3.76
 21
-16.9071795537
 31
0.0
  0
ARC
  5
D2
330
1F
100
AcDbEntity
  8
SK1
  6
Continuous
100
AcDbCircle
 10
3.7527056024
 20
-17.0999083381
 30
0.0
 40
0.192866774199979
100
AcDbArc
 50
87.8325043334
 51
177.6574780893
  0
LINE
  5
D3
330
1F
100
AcDbEntity
  8
SK1
  6
Continuous
100
AcDbLine
 10
3.56
 20
-18.2641475219
 30
0.0
 11
3.56
 21
-18.6468309542
 31
0.0
  0
LINE
  5
D4
330
1F
100
AcDbEntity
  8
SK1
  6
Continuous
100
AcDbLine
 10
8.0064101615
 20
-18.7425543507
 30
0.0
 11
14.535
 21
-15.2589209799
 31
0.0
  0
ARC
  5
D5
330
1F
100
AcDbEntity
  8
SK1
  6
Continuous
100
AcDbCircle
 10
14.4286840492
 20
-15.0534141802
 30
0.0
 40
0.2313787503235728
100
AcDbArc
 50
297.3541274107
 51
358.6650529161
  0
ARC
  5
D6
330
1F
100
AcDbEntity
  8
SK3
100
AcDbCircle
 10
14.2737458736
 20
-4.5729360553
 30
0.0
 40
0.3865395551937246
100
AcDbArc
 50
2.2019945892
 51
92.0379457206
  0
LINE
  5
D7
330
1F
100
AcDbEntity
  8
SK1
  6
Continuous
100
AcDbLine
 10
8.0064101615
 20
-19.1252377831
 30
0.0
 11
14.535
 21
-15.6416044122
 31
0.0
  0
ARC
  5
D8
330
1F
100
AcDbEntity
  8
SK1
  6
Continuous
100
AcDbCircle
 10
14.4286840492
 20
-15.4360976125
 30
0.0
 40
0.2313787503252971
100
AcDbArc
 50
297.354127411
 51
358.6650529158
  0
LINE
  5
D9
330
1F
100
AcDbEntity
  8
SK1
  6
Continuous
100
AcDbLine
 10
14.66
 20
-15.4414880697
 30
0.0
 11
14.66
 21
-15.0588046373
 31
0.0
  0
ARC
  5
DA
330
1F
100
AcDbEntity
  8
SK3
100
AcDbCircle
 10
14.2737458736
 20
-4.9556194876
 30
0.0
 40
0.3865395551937254
100
AcDbArc
 50
2.2019945892
 51
92.0379457206
  0
ARC
  5
DB
330
1F
100
AcDbEntity
  8
SK1
  6
Continuous
100
AcDbCircle
 10
3.121146594
 20
-18.2428411206
 30
0.0
 40
0.4393703161692314
100
AcDbArc
 50
260.3336996485
 51
357.2204634949
  0
LINE
  5
DC
330
1F
100
AcDbEntity
  8
SK1
  6
Continuous
100
AcDbLine
 10
3.0473721046
 20
-18.6759734323
 30
0.0
 11
-25.8127414013
 21
-14.9272941105
 31
0.0
  0
ARC
  5
DD
330
1F
100
AcDbEntity
  8
SK1
  6
Continuous
100
AcDbCircle
 10
7.4672947531
 20
-16.717224521
 30
0.0
 40
0.1928664032215685
100
AcDbArc
 50
2.3424120384
 51
92.1676055382
  0
LINE
  5
DE
330
1F
100
AcDbEntity
  8
SK1
  6
Continuous
100
AcDbLine
 10
7.46
 20
-16.5244961213
 30
0.0
 11
3.76
 21
-16.5244961213
 31
0.0
  0
ARC
  5
DF
330
1F
100
AcDbEntity
  8
SK1
  6
Continuous
100
AcDbCircle
 10
3.7527056024
 20
-16.7172249057
 30
0.0
 40
0.1928667741999783
100
AcDbArc
 50
87.8325043334
 51
177.6574780893
  0
SPLINE
  5
E0
330
1F
100
AcDbEntity
  8
SK3
100
AcDbSpline
210
0.0
220
0.0
230
1.0
 70
     8
 71
     3
 72
    10
 73
     6
 74
     0
 42
0.000000015482514
 43
0.0000000001
 12
1.0
 22
0.0
 32
0.0
 13
1.0
 23
0.0
 33
0.0
 40
0.0
 40
0.0
 40
0.0
 40
0.0
 40
0.5
 40
0.5
 40
1.0
 40
1.0
 40
1.0
 40
1.0
 10
-31.33999999999999
 20
5.140741777777879
 30
0.0
 10
-31.33999999999999
 20
5.035294324023882
 30
0.0
 10
-31.297060157499
 20
4.931309355886757
 30
0.0
 10
-31.14943400383842
 20
4.782477741726185
 30
0.0
 10
-31.0459040523727
 20
4.738694540221805
 30
0.0
 10
-30.94
 20
4.738694540225799
 30
0.0
  0
SPLINE
  5
E1
330
1F
100
AcDbEntity
  8
SK1
  6
Continuous
100
AcDbSpline
210
0.0
220
0.0
230
1.0
 70
     8
 71
     3
 72
    10
 73
     6
 74
     0
 42
0.000000013683103
 43
0.0000000001
 12
1.0
 22
0.0
 32
0.0
 13
1.0
 23
0.0
 33
0.0
 40
0.0
 40
0.0
 40
0.0
 40
0.0
 40
0.5
 40
0.5
 40
1.0
 40
1.0
 40
1.0
 40
1.0
 10
-31.33999999999998
 20
15.15223423573843
 30
0.0
 10
-31.33999999999999
 20
15.27133733064511
 30
0.0
 10
-31.29542015981368
 20
15.39046836097179
 30
0.0
 10
-31.13972113835961
 20
15.56991143959673
 30
0.0
 10
-31.02878034044549
 20
15.63086909699539
 30
0.0
 10
-30.90958655048001
 20
15.64762924157214
 30
0.0
  0
SPLINE
  5
E2
330
1F
100
AcDbEntity
  8
SK1
  6
Continuous
100
AcDbSpline
210
0.0
220
0.0
230
1.0
 70
     8
 71
     3
 72
    11
 73
     7
 74
     0
 42
0.0000000003527553
 43
0.0000000001
 12
1.0
 22
0.0
 32
0.0
 13
1.0
 23
0.0
 33
0.0
 40
0.0
 40
0.0
 40
0.0
 40
0.0
 40
0.9695717939571271
 40
0.9695717939571271
 40
0.9695717939571271
 40
1.0
 40
1.0
 40
1.0
 40
1.0
 10
-30.90958655048001
 20
15.64762924157214
 30
0.0
 10
-21.83694658167206
 20
16.92335642191101
 30
0.0
 10
-12.76428551794339
 20
18.19893358224652
 30
0.0
 10
-3.691613755690049
 20
19.47443463543227
 30
0.0
 10
-3.406884839813253
 20
19.51446386183769
 30
0.0
 10
-3.12215591272829
 20
19.5544930085192
 30
0.0
 10
-2.837426974640036
 20
19.59452207693364
 30
0.0
  0
LINE
  5
E3
330
1F
100
AcDbEntity
  8
SK3
100
AcDbLine
 10
-27.481349331
 20
-4.5693244208
 30
0.0
 11
14.26
 21
-4.5693244208
 31
0.0
  0
ELLIPSE
  5
E4
330
1F
100
AcDbEntity
  8
SK1
  6
Continuous
100
AcDbEllipse
 10
46.8677917205
 20
-0.1913416163
 30
0.0
 11
-74.50000000063805
 21
-5.470839635342562E-10
 31
0.0
210
0.0
220
0.0
230
1.0
 40
0.9238795325
 41
0.215676349119478
 42
0.221460766171695
  0
SPLINE
  5
E5
330
1F
100
AcDbEntity
  8
SK3
100
AcDbSpline
210
0.0
220
0.0
230
1.0
 70
     8
 71
     3
 72
    35
 73
    31
 74
     0
 42
0.0000000087302278
 43
0.0000000001
 12
1.0
 22
0.0
 32
0.0
 13
1.0
 23
0.0
 33
0.0
 40
0.0
 40
0.0
 40
0.0
 40
0.0
 40
0.1070300009549872
 40
0.1070300009549872
 40
0.1070300009549872
 40
0.2140617693082743
 40
0.2140617693082743
 40
0.2140617693082743
 40
0.3211111942103134
 40
0.3211111942103134
 40
0.3211111942103134
 40
0.4284829706079786
 40
0.4284829706079786
 40
0.4284829706079786
 40
0.4999921141753753
 40
0.4999921141753753
 40
0.4999921141753753
 40
0.6074018661183138
 40
0.6074018661183138
 40
0.6074018661183138
 40
0.7148071304636803
 40
0.7148071304636803
 40
0.7148071304636803
 40
0.8222685132432708
 40
0.8222685132432708
 40
0.8222685132432708
 40
0.9295689232231431
 40
0.9295689232231431
 40
0.9295689232231431
 40
1.0
 40
1.0
 40
1.0
 40
1.0
 10
-27.48134933095205
 20
-4.186640988408247
 30
0.0
 10
-27.53709918966038
 20
-4.186640988408247
 30
0.0
 10
-27.59362009039345
 20
-4.191252706620981
 30
0.0
 10
-27.64622813160705
 20
-4.199967735187835
 30
0.0
 10
-27.69883738757148
 20
-4.208682964989861
 30
0.0
 10
-27.74898009130153
 20
-4.221727465827589
 30
0.0
 10
-27.79252327869499
 20
-4.237647949797359
 30
0.0
 10
-27.83607596802307
 20
-4.253571907913303
 30
0.0
 10
-27.87422780867612
 20
-4.272788808047358
 30
0.0
 10
-27.90387271863876
 20
-4.293278057764346
 30
0.0
 10
-27.93360469160673
 20
-4.313827481577312
 30
0.0
 10
-27.95559973371254
 20
-4.336204330343386
 30
0.0
 10
-27.96806055778836
 20
-4.358245947362462
 30
0.0
 10
-27.97642514068203
 20
-4.373041833376451
 30
0.0
 10
-27.98068705555333
 20
-4.387919096037968
 30
0.0
 10
-27.98068705555333
 20
-4.402285872645589
 30
0.0
 10
-27.98068705555333
 20
-4.423695271509635
 30
0.0
 10
-27.97107711382008
 20
-4.444439709484306
 30
0.0
 10
-27.95264508016511
 20
-4.462947099384942
 30
0.0
 10
-27.93421350425567
 20
-4.48145402966864
 30
0.0
 10
-27.90645208760185
 20
-4.498247856412002
 30
0.0
 10
-27.87162923130564
 20
-4.512316740055978
 30
0.0
 10
-27.83678974321212
 20
-4.526392343160855
 30
0.0
 10
-27.79391518266494
 20
-4.538149901716473
 30
0.0
 10
-27.74653417880866
 20
-4.547057906720898
 30
0.0
 10
-27.69922479875263
 20
-4.555952445882071
 30
0.0
 10
-27.64611155484925
 20
-4.562270806816676
 30
0.0
 10
-27.59161013872736
 20
-4.565808171891771
 30
0.0
 10
-27.55554332876146
 20
-4.568149055542539
 30
0.0
 10
-27.51833251899919
 20
-4.569324420773337
 30
0.0
 10
-27.48134933095205
 20
-4.569324420773337
 30
0.0
  0
SPLINE
  5
E6
330
1F
100
AcDbEntity
  8
SK1
  6
Continuous
100
AcDbSpline
210
0.0
220
0.0
230
1.0
 70
     8
 71
     3
 72
    35
 73
    31
 74
     0
 42
0.0000000083170356
 43
0.0000000001
 12
1.0
 22
0.0
 32
0.0
 13
1.0
 23
0.0
 33
0.0
 40
0.0
 40
0.0
 40
0.0
 40
0.0
 40
0.1164887905964445
 40
0.1164887905964445
 40
0.1164887905964445
 40
0.233252650413687
 40
0.233252650413687
 40
0.233252650413687
 40
0.3454710350257099
 40
0.3454710350257099
 40
0.3454710350257099
 40
0.4508768133895105
 40
0.4508768133895105
 40
0.4508768133895105
 40
0.5003110897158503
 40
0.5003110897158503
 40
0.5003110897158503
 40
0.6001097649474623
 40
0.6001097649474623
 40
0.6001097649474623
 40
0.6997704681626735
 40
0.6997704681626735
 40
0.6997704681626735
 40
0.8015590486595436
 40
0.8015590486595436
 40
0.8015590486595436
 40
0.9086472129646466
 40
0.9086472129646466
 40
0.9086472129646466
 40
1.0
 40
1.0
 40
1.0
 40
1.0
 10
-25.81274140130112
 20
-15.30997754284086
 30
0.0
 10
-25.87470466576559
 20
-15.30192830441764
 30
0.0
 10
-25.93758349267971
 20
-15.29003437298419
 30
0.0
 10
-25.99619050698282
 20
-15.27510453355275
 30
0.0
 10
-26.05487585395331
 20
-15.26015473927187
 30
0.0
 10
-26.11095949093059
 20
-15.2417041121851
 30
0.0
 10
-26.15907542479646
 20
-15.22110868900121
 30
0.0
 10
-26.20531542714953
 20
-15.20131623481877
 30
0.0
 10
-26.24554710917528
 20
-15.17892859484334
 30
0.0
 10
-26.2755217648643
 20
-15.1558035645169
 30
0.0
 10
-26.30370407255941
 20
-15.13406130576071
 30
0.0
 10
-26.3236297783315
 20
-15.11101788763871
 30
0.0
 10
-26.33317334679417
 20
-15.08868187788738
 30
0.0
 10
-26.33770471692927
 20
-15.07807654426186
 30
0.0
 10
-26.34000000000003
 20
-15.06751725623593
 30
0.0
 10
-26.34000000000003
 20
-15.05723057686923
 30
0.0
 10
-26.34000000000003
 20
-15.03669034579146
 30
0.0
 10
-26.33063565675617
 20
-15.01682435045873
 30
0.0
 10
-26.31283927784441
 20
-14.99931703926084
 30
0.0
 10
-26.29505661800273
 20
-14.9818232242933
 30
0.0
 10
-26.26840930163866
 20
-14.96621112580147
 30
0.0
 10
-26.23533638667474
 20
-14.95370383366278
 30
0.0
 10
-26.20154570662196
 20
-14.94092510195903
 30
0.0
 10
-26.16020769354891
 20
-14.93104942457717
 30
0.0
 10
-26.11474564606765
 20
-14.92474937345677
 30
0.0
 10
-26.066932861409
 20
-14.91812356128493
 30
0.0
 10
-26.01335532520961
 20
-14.91527548883909
 30
0.0
 10
-25.95817983860029
 20
-14.91631745399105
 30
0.0
 10
-25.91093138061138
 20
-14.91720972064303
 30
0.0
 10
-25.86161120142701
 20
-14.92094575752643
 30
0.0
 10
-25.81274140129934
 20
-14.927294110476
 30
0.0
  0
LINE
  5
E7
330
1F
100
AcDbEntity
  8
SK3
100
AcDbLine
 10
-0.3652969112
 20
4.7386945402
 30
0.0
 11
-30.94
 21
4.7386945402
 31
0.0
  0
ARC
  5
E8
330
1F
100
AcDbEntity
  8
SK3
100
AcDbCircle
 10
-0.3655129163
 20
9.4952150056
 30
0.0
 40
4.756520470270957
100
AcDbArc
 50
270.0026019399
 51
276.028608945
  0
SPLINE
  5
E9
330
1F
100
AcDbEntity
  8
SK1
  6
Continuous
100
AcDbSpline
210
0.0
220
0.0
230
1.0
 70
     8
 71
     3
 72
    20
 73
    16
 74
     0
 42
0.0000000198705735
 43
0.0000000001
 12
1.0
 22
0.0
 32
0.0
 13
1.0
 23
0.0
 33
0.0
 40
0.0
 40
0.0
 40
0.0
 40
0.0
 40
0.2133535526663004
 40
0.2133535526663004
 40
0.2133535526663004
 40
0.4266822720339624
 40
0.4266822720339624
 40
0.4266822720339624
 40
0.6404089198402529
 40
0.6404089198402529
 40
0.6404089198402529
 40
0.8551950616851703
 40
0.8551950616851703
 40
0.8551950616851703
 40
1.0
 40
1.0
 40
1.0
 40
1.0
 10
-2.339999999999999
 20
19.67080917502657
 30
0.0
 10
-2.339999999999999
 20
19.67080917502657
 30
0.0
 10
-2.349503685014235
 20
19.66922364541433
 30
0.0
 10
-2.367717853442718
 20
19.66622294118536
 30
0.0
 10
-2.385930848651681
 20
19.66322243023915
 30
0.0
 10
-2.413352596450876
 20
19.65872813619661
 30
0.0
 10
-2.447706302118144
 20
19.65321032163926
 30
0.0
 10
-2.482125522274305
 20
19.64768198429278
 30
0.0
 10
-2.524443596504323
 20
19.64098052832997
 30
0.0
 10
-2.571172119378625
 20
19.63377233543266
 30
0.0
 10
-2.618131515030236
 20
19.62652852883709
 30
0.0
 10
-2.67082660284905
 20
19.61858019122056
 30
0.0
 10
-2.724938837048139
 20
19.61066065808986
 30
0.0
 10
-2.761701213132906
 20
19.60528034327427
 30
0.0
 10
-2.799675567459907
 20
19.59982941826291
 30
0.0
 10
-2.837426974640036
 20
19.59452207693364
 30
0.0
  0
LINE
  5
EA
330
1F
100
AcDbEntity
  8
SK3
100
AcDbLine
 10
-27.481349331
 20
-4.1866409884
 30
0.0
 11
14.26
 21
-4.1866409884
 31
0.0
  0
LINE
  5
EB
330
1F
100
AcDbEntity
  8
SK1
  6
Continuous
100
AcDbLine
 10
7.66
 20
-20.4999999002
 30
0.0
 11
7.66
 21
-19.1252377831
 31
0.0
  0
LINE
  5
EC
330
1F
100
AcDbEntity
  8
SK1
  6
Continuous
100
AcDbLine
 10
8.0064101615
 20
-20.4999999002
 30
0.0
 11
8.0064101615
 21
-19.1252377831
 31
0.0
  0
LINE
  5
ED
330
1F
100
AcDbEntity
  8
SK1
  6
Continuous
100
AcDbLine
 10
3.0473721046
 20
-20.4279547479
 30
0.0
 11
3.0473721046
 21
-19.0586568646
 31
0.0
  0
LINE
  5
EE
330
1F
100
AcDbEntity
  8
SK1
  6
Continuous
100
AcDbLine
 10
3.56
 20
-19.982334117
 30
0.0
 11
3.56
 21
-18.6468309542
 31
0.0
  0
LINE
  5
EF
330
1F
100
AcDbEntity
  8
SK1
  6
Continuous
100
AcDbLine
 10
14.66
 20
-16.5142104486
 30
0.0
 11
14.66
 21
-15.4414880697
 31
0.0
  0
LINE
  5
F0
330
1F
100
AcDbEntity
  8
SK1
  6
Continuous
100
AcDbLine
 10
14.535
 20
-16.7307167996
 30
0.0
 11
14.535
 21
-15.6416044122
 31
0.0
  0
LINE
  5
F1
330
1F
100
AcDbEntity
  8
SK1
  6
Continuous
100
AcDbLine
 10
3.76
 20
-18.0999999002
 30
0.0
 11
3.76
 21
-16.9071795537
 31
0.0
  0
LINE
  5
F2
330
1F
100
AcDbEntity
  8
SK1
  6
Continuous
100
AcDbLine
 10
7.46
 20
-18.0999999002
 30
0.0
 11
7.46
 21
-16.9071795537
 31
0.0
  0
LINE
  5
F3
330
1F
100
AcDbEntity
  8
SK1
  6
Continuous
100
AcDbLine
 10
-30.9095865505
 20
11.418098166
 30
0.0
 11
-30.9095865505
 21
15.6476292416
 31
0.0
  0
LINE
  5
F4
330
1F
100
AcDbEntity
  8
SK1
  6
Continuous
100
AcDbLine
 10
-31.34
 20
11.067800998
 30
0.0
 11
-31.34
 21
15.1522342357
 31
0.0
  0
SPLINE
  5
F5
330
1F
100
AcDbEntity
  8
SK1
  6
Continuous
100
AcDbSpline
210
0.0
220
0.0
230
1.0
 70
     8
 71
     3
 72
    10
 73
     6
 74
     0
 42
0.0000000161503712
 43
0.0000000001
 12
1.0
 22
0.0
 32
0.0
 13
1.0
 23
0.0
 33
0.0
 40
0.0
 40
0.0
 40
0.0
 40
0.0
 40
0.5
 40
0.5
 40
1.0
 40
1.0
 40
1.0
 40
1.0
 10
-31.33999999999998
 20
11.06780099803304
 30
0.0
 10
-31.34000000000001
 20
11.15201960410186
 30
0.0
 10
-31.29542015981368
 20
11.23625796349559
 30
0.0
 10
-31.13972113835962
 20
11.36314338122828
 30
0.0
 10
-31.02878034044549
 20
11.40624695414012
 30
0.0
 10
-30.90958655048001
 20
11.41809816602401
 30
0.0
  0
SPLINE
  5
F6
330
1F
100
AcDbEntity
  8
SK1
  6
Continuous
100
AcDbSpline
210
0.0
220
0.0
230
1.0
 70
     8
 71
     3
 72
    11
 73
     7
 74
     0
 42
0.0000000003544773
 43
0.0000000001
 12
1.0
 22
0.0
 32
0.0
 13
1.0
 23
0.0
 33
0.0
 40
0.0
 40
0.0
 40
0.0
 40
0.0
 40
0.969571793957103
 40
0.969571793957103
 40
0.969571793957103
 40
1.0
 40
1.0
 40
1.0
 40
1.0
 10
-30.90958655048001
 20
11.41809816602401
 30
0.0
 10
-21.83694658167206
 20
12.32017350618563
 30
0.0
 10
-12.76428551794339
 20
13.22214276618554
 30
0.0
 10
-3.691613755690049
 20
14.12405821030377
 30
0.0
 10
-3.40688483981302
 20
14.15236314774071
 30
0.0
 10
-3.122155912727825
 20
14.18066802880434
 30
0.0
 10
-2.837426974639338
 20
14.2089728545248
 30
0.0
  0
LINE
  5
F7
330
1F
100
AcDbEntity
  8
SK1
  6
Continuous
100
AcDbLine
 10
-31.34
 20
10.3606942168
 30
0.0
 11
-31.34
 21
11.067800998
 31
0.0
  0
SPLINE
  5
F8
330
1F
100
AcDbEntity
  8
SK3
100
AcDbSpline
210
0.0
220
0.0
230
1.0
 70
     8
 71
     3
 72
    10
 73
     6
 74
     0
 42
0.0000000180175177
 43
0.0000000001
 12
1.0
 22
0.0
 32
0.0
 13
1.0
 23
0.0
 33
0.0
 40
0.0
 40
0.0
 40
0.0
 40
0.0
 40
0.5
 40
0.5
 40
1.0
 40
1.0
 40
1.0
 40
1.0
 10
-31.34000000000362
 20
3.281500010024327
 30
0.0
 10
-31.33999999999985
 20
3.207545683443077
 30
0.0
 10
-31.29779685847264
 20
3.133953267316454
 30
0.0
 10
-31.1487991823791
 20
3.027697378708142
 30
0.0
 10
-31.04592625364409
 20
2.99720968199395
 30
0.0
 10
-30.94
 20
2.99720968199422
 30
0.0
  0
SPLINE
  5
F9
330
1F
100
AcDbEntity
  8
SK3
100
AcDbSpline
210
0.0
220
0.0
230
1.0
 70
     8
 71
     3
 72
    10
 73
     6
 74
     0
 42
0.0000000180188989
 43
0.0000000001
 12
1.0
 22
0.0
 32
0.0
 13
1.0
 23
0.0
 33
0.0
 40
0.0
 40
0.0
 40
0.0
 40
0.0
 40
0.5
 40
0.5
 40
1.0
 40
1.0
 40
1.0
 40
1.0
 10
-31.33999999999999
 20
3.988606791211162
 30
0.0
 10
-31.33999999999999
 20
3.914044181602848
 30
0.0
 10
-31.29706015749899
 20
3.840515705491625
 30
0.0
 10
-31.14943400383843
 20
3.735275861863751
 30
0.0
 10
-31.0459040523727
 20
3.704316463177944
 30
0.0
 10
-30.94
 20
3.704316463180767
 30
0.0
  0
SPLINE
  5
FA
330
1F
100
AcDbEntity
  8
SK1
  6
Continuous
100
AcDbSpline
210
0.0
220
0.0
230
1.0
 70
     8
 71
     3
 72
    10
 73
     6
 74
     0
 42
0.0000000161503712
 43
0.0000000001
 12
1.0
 22
0.0
 32
0.0
 13
1.0
 23
0.0
 33
0.0
 40
0.0
 40
0.0
 40
0.0
 40
0.0
 40
0.5
 40
0.5
 40
1.0
 40
1.0
 40
1.0
 40
1.0
 10
-31.33999999999998
 20
10.36069421684649
 30
0.0
 10
-31.33999999999999
 20
10.44491282291531
 30
0.0
 10
-31.29542015981368
 20
10.52915118230905
 30
0.0
 10
-31.13972113835961
 20
10.65603660004174
 30
0.0
 10
-31.02878034044549
 20
10.69914017295357
 30
0.0
 10
-30.90958655048001
 20
10.71099138483746
 30
0.0
  0
SPLINE
  5
FB
330
1F
100
AcDbEntity
  8
SK1
  6
Continuous
100
AcDbSpline
210
0.0
220
0.0
230
1.0
 70
     8
 71
     3
 72
    11
 73
     7
 74
     0
 42
0.0000000003544773
 43
0.0000000001
 12
1.0
 22
0.0
 32
0.0
 13
1.0
 23
0.0
 33
0.0
 40
0.0
 40
0.0
 40
0.0
 40
0.0
 40
0.9695717939571273
 40
0.9695717939571273
 40
0.9695717939571273
 40
1.0
 40
1.0
 40
1.0
 40
1.0
 10
-30.90958655048001
 20
10.71099138483746
 30
0.0
 10
-21.83694658167206
 20
11.61306672499907
 30
0.0
 10
-12.76428551794339
 20
12.515035984999
 30
0.0
 10
-3.691613755690049
 20
13.41695142911722
 30
0.0
 10
-3.406884839813256
 20
13.44525636655415
 30
0.0
 10
-3.122155912728294
 20
13.47356124761775
 30
0.0
 10
-2.837426974640043
 20
13.50186607333818
 30
0.0
  0
SPLINE
  5
FC
330
1F
100
AcDbEntity
  8
SK3
100
AcDbSpline
210
0.0
220
0.0
230
1.0
 70
     8
 71
     3
 72
     8
 73
     4
 74
     0
 42
0.0000005714468921
 43
0.0000000001
 12
1.0
 22
0.0
 32
0.0
 13
1.0
 23
0.0
 33
0.0
 40
0.0
 40
0.0
 40
0.0
 40
0.0
 40
1.0
 40
1.0
 40
1.0
 40
1.0
 10
-26.34000000000004
 20
-15.05723057686923
 30
0.0
 10
-26.34000000000004
 20
-15.06291062844594
 30
0.0
 10
-26.33928390402546
 20
-15.06868552724957
 30
0.0
 10
-26.33787142722586
 20
-15.07451716706157
 30
0.0
  0
LINE
  5
FD
330
1F
100
AcDbEntity
  8
SK3
100
AcDbLine
 10
-0.3652969112
 20
2.997209682
 30
0.0
 11
-30.94
 21
2.997209682
 31
0.0
  0
SPLINE
  5
FE
330
1F
100
AcDbEntity
  8
SK3
100
AcDbSpline
210
0.0
220
0.0
230
1.0
 70
     8
 71
     3
 72
    35
 73
    31
 74
     0
 42
0.0000000073744883
 43
0.0000000001
 12
1.0
 22
0.0
 32
0.0
 13
1.0
 23
0.0
 33
0.0
 40
0.0
 40
0.0
 40
0.0
 40
0.0
 40
0.1070300009549876
 40
0.1070300009549876
 40
0.1070300009549876
 40
0.2140617693082685
 40
0.2140617693082685
 40
0.2140617693082685
 40
0.3211111942103179
 40
0.3211111942103179
 40
0.3211111942103179
 40
0.4284829706079832
 40
0.4284829706079832
 40
0.4284829706079832
 40
0.4999921141753739
 40
0.4999921141753739
 40
0.4999921141753739
 40
0.6074018661183205
 40
0.6074018661183205
 40
0.6074018661183205
 40
0.7148071304636953
 40
0.7148071304636953
 40
0.7148071304636953
 40
0.8222685132432899
 40
0.8222685132432899
 40
0.8222685132432899
 40
0.9295689232231684
 40
0.9295689232231684
 40
0.9295689232231684
 40
1.0
 40
1.0
 40
1.0
 40
1.0
 10
-0.3652969112097927
 20
2.99720968199422
 30
0.0
 10
-0.3095470525014635
 20
2.99720968199422
 30
0.0
 10
-0.2530261517683912
 20
3.004696759173396
 30
0.0
 10
-0.2004181105547918
 20
3.018972021693056
 30
0.0
 10
-0.1478088545903596
 20
3.033247613836982
 30
0.0
 10
-0.0976661508603118
 20
3.05469337601523
 30
0.0
 10
-0.0541229634668586
 20
3.081251086165368
 30
0.0
 10
-0.0105702741387704
 20
3.10781459170259
 30
0.0
 10
0.0275815665142856
 20
3.140204460538351
 30
0.0
 10
0.0572264764769244
 20
3.175419102513252
 30
0.0
 10
0.0869584494448891
 20
3.210737165026981
 30
0.0
 10
0.1089534915507031
 20
3.24985591152127
 30
0.0
 10
0.1214143156265304
 20
3.289303045283329
 30
0.0
 10
0.1297788985201876
 20
3.315782740226623
 30
0.0
 10
0.1340408133915089
 20
3.342817570412719
 30
0.0
 10
0.1340408133915089
 20
3.369363912124604
 30
0.0
 10
0.1340408133915089
 20
3.408923322952333
 30
0.0
 10
0.1244308716582283
 20
3.448293258118027
 30
0.0
 10
0.1059988380032618
 20
3.484324558874229
 30
0.0
 10
0.0875672620938173
 20
3.520354964820506
 30
0.0
 10
0.059805845439985
 20
3.554051225731071
 30
0.0
 10
0.0249829891437771
 20
3.582916351789117
 30
0.0
 10
-0.0098564989497434
 20
3.611795264163884
 30
0.0
 10
-0.0527310594969372
 20
3.636652025283239
 30
0.0
 10
-0.1001120633532179
 20
3.655762660692697
 30
0.0
 10
-0.1474214434092416
 20
3.674844407386806
 30
0.0
 10
-0.2005346873126326
 20
3.688738279360192
 30
0.0
 10
-0.2550361034345198
 20
3.696539965319313
 30
0.0
 10
-0.291102913400414
 20
3.701702802267842
 30
0.0
 10
-0.3283137231626619
 20
3.704316463180767
 30
0.0
 10
-0.3652969112097927
 20
3.704316463180767
 30
0.0
  0
SPLINE
  5
FF
330
1F
100
AcDbEntity
  8
SK1
  6
Continuous
100
AcDbSpline
210
0.0
220
0.0
230
1.0
 70
     8
 71
     3
 72
    35
 73
    31
 74
     0
 42
0.0000000073735606
 43
0.0000000001
 12
1.0
 22
0.0
 32
0.0
 13
1.0
 23
0.0
 33
0.0
 40
0.0
 40
0.0
 40
0.0
 40
0.0
 40
0.1083835106360962
 40
0.1083835106360962
 40
0.1083835106360962
 40
0.2168004354265396
 40
0.2168004354265396
 40
0.2168004354265396
 40
0.3247144655137645
 40
0.3247144655137645
 40
0.3247144655137645
 40
0.4319468106744077
 40
0.4319468106744077
 40
0.4319468106744077
 40
0.5000278904991659
 40
0.5000278904991659
 40
0.5000278904991659
 40
0.6066987162952941
 40
0.6066987162952941
 40
0.6066987162952941
 40
0.7133571261347182
 40
0.7133571261347182
 40
0.7133571261347182
 40
0.8202144890950357
 40
0.8202144890950357
 40
0.8202144890950357
 40
0.9276015695248486
 40
0.9276015695248486
 40
0.9276015695248486
 40
1.0
 40
1.0
 40
1.0
 40
1.0
 10
-2.837426974639338
 20
14.2089728545248
 30
0.0
 10
-2.781353505827061
 20
14.21454710269277
 30
0.0
 10
-2.724540069271322
 20
14.21349366713976
 30
0.0
 10
-2.671679481394008
 20
14.20583703333038
 30
0.0
 10
-2.618809405157414
 20
14.19817902517205
 30
0.0
 10
-2.568431588171417
 20
14.18369545569062
 30
0.0
 10
-2.524772936324197
 20
14.16348455577029
 30
0.0
 10
-2.481316214494441
 20
14.14336713531398
 30
0.0
 10
-2.443310263976727
 20
14.117009407849
 30
0.0
 10
-2.413961301953663
 20
14.08651245564818
 30
0.0
 10
-2.384794825579829
 20
14.05620512705712
 30
0.0
 10
-2.363368357086494
 20
14.02096503555441
 30
0.0
 10
-2.351483492708486
 20
13.98366932338059
 30
0.0
 10
-2.343873044596531
 20
13.95978709189108
 30
0.0
 10
-2.340000000000002
 20
13.93472930131303
 30
0.0
 10
-2.340000000000002
 20
13.90936258831001
 30
0.0
 10
-2.340000000000002
 20
13.86995134872917
 30
0.0
 10
-2.349503685014229
 20
13.82887554966139
 30
0.0
 10
-2.367717853442711
 20
13.78956682873109
 30
0.0
 10
-2.385930848651675
 20
13.75026063977246
 30
0.0
 10
-2.413352596450879
 20
13.7116422814052
 30
0.0
 10
-2.447706302118148
 20
13.67695530813798
 30
0.0
 10
-2.482125522274309
 20
13.64220218482141
 30
0.0
 10
-2.524443596504326
 20
13.61044606533633
 30
0.0
 10
-2.571172119378629
 20
13.58434390365416
 30
0.0
 10
-2.61813151503024
 20
13.55811277837137
 30
0.0
 10
-2.670826602849053
 20
13.53687572619386
 30
0.0
 10
-2.724938837048146
 20
13.52238806011212
 30
0.0
 10
-2.761701213132767
 20
13.51254553490561
 30
0.0
 10
-2.799675567459609
 20
13.50561893038223
 30
0.0
 10
-2.837426974640043
 20
13.50186607333818
 30
0.0
  0
LINE
  5
100
330
1F
100
AcDbEntity
  8
SK3
100
AcDbLine
 10
-0.3652969112
 20
3.7043164632
 30
0.0
 11
-30.94
 21
3.7043164632
 31
0.0
  0
ELLIPSE
  5
101
330
1F
100
AcDbEntity
  8
SK1
  6
Continuous
100
AcDbEllipse
 10
-74.7144379624
 20
0.3535534903
 30
0.0
 11
74.50000000036023
 21
8.062883123822550E-11
 31
0.0
210
0.0
220
0.0
230
1.0
 40
0.7071067812
 41
0.2536393304948744
 42
0.2661445757387359
  0
LINE
  5
102
330
1F
100
AcDbEntity
  8
SK1
  6
Continuous
100
AcDbLine
 10
-30.9095865505
 20
0.5000000998
 30
0.0
 11
-30.9095865505
 21
10.7109913848
 31
0.0
  0
LINE
  5
103
330
1F
100
AcDbEntity
  8
SK1
  6
Continuous
100
AcDbLine
 10
-31.34
 20
0.5000000998
 30
0.0
 11
-31.34
 21
10.3606942168
 31
0.0
  0
LINE
  5
104
330
1F
100
AcDbEntity
  8
SK1
  6
Continuous
100
AcDbLine
 10
-31.34
 20
0.5000000998
 30
0.0
 11
-30.9095865505
 21
0.5000000998
 31
0.0
  0
LINE
  5
105
330
1F
100
AcDbEntity
  8
SK1
  6
Continuous
100
AcDbLine
 10
-30.9095865505
 20
0.5000000998
 30
0.0
 11
-2.8374269746
 21
0.5000000998
 31
0.0
  0
LINE
  5
106
330
1F
100
AcDbEntity
  8
SK1
  6
Continuous
100
AcDbLine
 10
-31.34
 20
-0.4999999002
 30
0.0
 11
-30.9095865505
 21
-0.4999999002
 31
0.0
  0
LINE
  5
107
330
1F
100
AcDbEntity
  8
SK1
  6
Continuous
100
AcDbLine
 10
-30.9095865505
 20
-0.4999999002
 30
0.0
 11
-2.8374269746
 21
-0.4999999002
 31
0.0
  0
SPLINE
  5
108
330
1F
100
AcDbEntity
  8
SK3
100
AcDbSpline
210
0.0
220
0.0
230
1.0
 70
     8
 71
     3
 72
     8
 73
     4
 74
     0
 42
0.0000003121817592
 43
0.0000000001
 12
1.0
 22
0.0
 32
0.0
 13
1.0
 23
0.0
 33
0.0
 40
0.0
 40
0.0
 40
0.0
 40
0.0
 40
1.0
 40
1.0
 40
1.0
 40
1.0
 10
-26.29468635511387
 20
-6.426455630100707
 30
0.0
 10
-26.28996230917055
 20
-6.435984095386498
 30
0.0
 10
-26.28489005069237
 20
-6.445389264246838
 30
0.0
 10
-26.27949116246569
 20
-6.45464082423394
 30
0.0
  0
LINE
  5
109
330
1F
100
AcDbEntity
  8
SK3
100
AcDbLine
 10
-2.8374269746
 20
-0.4999999002
 30
0.0
 11
-0.3652969112
 21
-0.4999999002
 31
0.0
  0
ARC
  5
10A
330
1F
100
AcDbEntity
  8
SK3
100
AcDbCircle
 10
-0.365892727
 20
0.0000000998
 30
0.0
 40
0.5000003549962913
100
AcDbArc
 50
270.0682754243
 51
89.9317245757
  0
ARC
  5
10B
330
1F
100
AcDbEntity
  8
SK1
  6
Continuous
100
AcDbCircle
 10
-2.8399521657
 20
0.0000000998
 30
0.0
 40
0.5000063765490347
100
AcDbArc
 50
270.2893631158
 51
89.7106368842
  0
LINE
  5
10C
330
1F
100
AcDbEntity
  8
SK3
100
AcDbLine
 10
-0.3652969112
 20
0.5000000998
 30
0.0
 11
-2.8374269746
 21
0.5000000998
 31
0.0
  0
LINE
  5
10D
330
1F
100
AcDbEntity
  8
SK1
  6
Continuous
100
AcDbLine
 10
3.0473721046
 20
20.4279549475
 30
0.0
 11
-2.34
 21
19.670809175
 31
0.0
  0
LINE
  5
10E
330
1F
100
AcDbEntity
  8
SK1
  6
Continuous
100
AcDbLine
 10
-2.34
 20
-19.6708089755
 30
0.0
 11
3.0473721046
 21
-20.4279547479
 31
0.0
  0
LINE
  5
10F
330
1F
100
AcDbEntity
  8
SK3
100
AcDbLine
 10
0.1340408134
 20
-4.7649999002
 30
0.0
 11
14.26
 21
-4.7649999002
 31
0.0
  0
LINE
  5
110
330
1F
100
AcDbEntity
  8
SK3
100
AcDbLine
 10
14.26
 20
4.7650000998
 30
0.0
 11
0.1340408134
 21
4.7650000998
 31
0.0
  0
ARC
  5
111
330
1F
100
AcDbEntity
  8
SK3
100
AcDbCircle
 10
-39.0165637135
 20
0.2040063759
 30
0.0
 40
39.31415274923902
100
AcDbArc
 50
338.8243469785
 51
354.7524533638
  0
ARC
  5
112
330
1F
100
AcDbEntity
  8
SK3
100
AcDbCircle
 10
-74.7144379621
 20
0.0000000998
 30
0.0
 40
75.0
100
AcDbArc
 50
344.794709577
 51
356.3573541421
  0
LINE
  5
113
330
1F
100
AcDbEntity
  8
SK1
  6
Continuous
100
AcDbLine
 10
8.0064101615
 20
20.5000000998
 30
0.0
 11
7.66
 21
20.5000000998
 31
0.0
  0
ARC
  5
114
330
1F
100
AcDbEntity
  8
SK3
100
AcDbCircle
 10
14.26
 20
5.1650000998
 30
0.0
 40
0.4000000000000009
100
AcDbArc
 50
270.0
 51
0.0
  0
ARC
  5
115
330
1F
100
AcDbEntity
  8
SK1
  6
Continuous
100
AcDbCircle
 10
3.11
 20
19.9823343165
 30
0.0
 40
0.4499999999999955
100
AcDbArc
 50
0.0
 51
98.0
  0
ARC
  5
116
330
1F
100
AcDbEntity
  8
SK1
  6
Continuous
100
AcDbCircle
 10
14.41
 20
16.5142106481
 30
0.0
 40
0.2499999999999984
100
AcDbArc
 50
0.0
 51
60.0
  0
ARC
  5
117
330
1F
100
AcDbEntity
  8
SK1
  6
Continuous
100
AcDbCircle
 10
3.76
 20
18.3000000998
 30
0.0
 40
0.199999999999999
100
AcDbArc
 50
180.0
 51
270.0
  0
LINE
  5
118
330
1F
100
AcDbEntity
  8
SK1
  6
Continuous
100
AcDbLine
 10
7.46
 20
18.1000000998
 30
0.0
 11
3.76
 21
18.1000000998
 31
0.0
  0
ARC
  5
119
330
1F
100
AcDbEntity
  8
SK1
  6
Continuous
100
AcDbCircle
 10
7.46
 20
18.3000000998
 30
0.0
 40
0.1999999999999988
100
AcDbArc
 50
270.0
 51
0.0
  0
LINE
  5
11A
330
1F
100
AcDbEntity
  8
SK1
  6
Continuous
100
AcDbLine
 10
14.535
 20
16.7307169991
 30
0.0
 11
8.0064101615
 21
20.5000000998
 31
0.0
  0
ARC
  5
11B
330
1F
100
AcDbEntity
  8
SK3
100
AcDbCircle
 10
36.1827068523
 20
-0.0183961391
 30
0.0
 40
64.31561625116372
100
AcDbArc
 50
166.4264958647
 51
176.0542790681
  0
ARC
  5
11C
330
1F
100
AcDbEntity
  8
SK3
100
AcDbCircle
 10
-14.7630093115
 20
-0.4237633104
 30
0.0
 40
13.41345402375228
100
AcDbArc
 50
149.1477834218
 51
170.0529844039
  0
ARC
  5
11D
330
1F
100
AcDbEntity
  8
SK3
100
AcDbCircle
 10
-14.7414792916
 20
0.4288445983
 30
0.0
 40
13.43525866615073
100
AcDbArc
 50
189.9524491845
 51
210.8193429604
  0
ARC
  5
11E
330
1F
100
AcDbEntity
  8
SK3
100
AcDbCircle
 10
36.1763781618
 20
0.0131699564
 30
0.0
 40
64.30861877406826
100
AcDbArc
 50
183.9414511923
 51
193.5692737376
  0
ARC
  5
11F
330
1F
100
AcDbEntity
  8
SK3
100
AcDbCircle
 10
-74.7144379621
 20
0.0000000998
 30
0.0
 40
75.00000000000001
100
AcDbArc
 50
3.6426701772
 51
15.2052659857
  0
LINE
  5
120
330
1F
100
AcDbEntity
  8
SK1
  6
Continuous
100
AcDbLine
 10
7.66
 20
-20.4999999002
 30
0.0
 11
8.0064101615
 21
-20.4999999002
 31
0.0
  0
ARC
  5
121
330
1F
100
AcDbEntity
  8
SK3
100
AcDbCircle
 10
14.26
 20
-5.1649999002
 30
0.0
 40
0.3999999999999997
100
AcDbArc
 50
0.0
 51
90.0
  0
ARC
  5
122
330
1F
100
AcDbEntity
  8
SK1
  6
Continuous
100
AcDbCircle
 10
3.11
 20
-19.982334117
 30
0.0
 40
0.4499999999999972
100
AcDbArc
 50
262.0
 51
0.0
  0
ARC
  5
123
330
1F
100
AcDbEntity
  8
SK1
  6
Continuous
100
AcDbCircle
 10
14.41
 20
-16.5142104486
 30
0.0
 40
0.2499999999999986
100
AcDbArc
 50
300.0
 51
0.0
  0
ARC
  5
124
330
1F
100
AcDbEntity
  8
SK1
  6
Continuous
100
AcDbCircle
 10
3.76
 20
-18.2999999002
 30
0.0
 40
0.2000000000000023
100
AcDbArc
 50
90.0
 51
180.0
  0
LINE
  5
125
330
1F
100
AcDbEntity
  8
SK1
  6
Continuous
100
AcDbLine
 10
3.76
 20
-18.0999999002
 30
0.0
 11
7.46
 21
-18.0999999002
 31
0.0
  0
ARC
  5
126
330
1F
100
AcDbEntity
  8
SK1
  6
Continuous
100
AcDbCircle
 10
7.46
 20
-18.2999999002
 30
0.0
 40
0.199999999999999
100
AcDbArc
 50
0.0
 51
90.0
  0
LINE
  5
127
330
1F
100
AcDbEntity
  8
SK1
  6
Continuous
100
AcDbLine
 10
8.0064101615
 20
-20.4999999002
 30
0.0
 11
14.535
 21
-16.7307167996
 31
0.0
  0
ARC
  5
128
330
1F
100
AcDbEntity
  8
SK3
100
AcDbCircle
 10
-39.0224738523
 20
-0.2031654111
 30
0.0
 40
39.31971804809626
100
AcDbArc
 50
5.2455028082
 51
21.1710849256
  0
LINE
  5
129
330
1F
100
AcDbEntity
  8
SK1
  6
Continuous
100
AcDbLine
 10
0.0
 20
19.9996747282
 30
0.0
 11
0.0
 21
-19.9996745287
 31
0.0
  0
LINE
  5
12B
330
1F
100
AcDbEntity
  8
SK4
  6
Continuous
100
AcDbLine
 10
14.66
 20
0.0000000998
 30
0.0
 11
-31.34
 21
0.0000000998
 31
0.0
  0
DIMENSION
  5
141
330
1F
100
AcDbEntity
  8
SK2
  6
Continuous
 62
   136
100
AcDbDimension
  2
DMBLK117
 10
-31.34
 20
29.9999999124
 30
0.0
 11
-8.3399999553
 21
29.9999999124
 31
0.0
 70
   161
  1
\A1;<>
 71
     5
 42
-1.0
  3
DIN
100
AcDbAlignedDimension
 13
-31.34
 23
15.1522342357
 33
0.0
 14
14.66
 24
15.0588048368
 34
0.0
  0
INSERT
  5
155
330
1F
100
AcDbEntity
  8
SK2
 62
     7
100
AcDbBlockReference
  2
Nullpunkt
 10
0.0
 20
0.0000000998
 30
0.0
  0
INSERT
  5
160
330
1F
100
AcDbEntity
  8
SK2
 62
     7
100
AcDbBlockReference
  2
Einfügepunkt
 10
14.66
 20
0.0000000998
 30
0.0
  0
DIMENSION
  5
161
330
1F
100
AcDbEntity
  8
SK2
  6
Continuous
 62
   136
100
AcDbDimension
  2
DMBLK118
 10
25.3065716571
 20
-4.7649999002
 30
0.0
 11
25.3065716571
 21
10.0000000706
 31
0.0
 70
   161
  1
\A1;ø <>
 71
     5
 42
-1.0
  3
DIN
100
AcDbAlignedDimension
 13
14.26
 23
-4.7649999002
 33
0.0
 14
14.26
 24
4.7650000998
 34
0.0
  0
DIMENSION
  5
16C
330
1F
100
AcDbEntity
  8
SK2
  6
Continuous
 62
   136
100
AcDbDimension
  2
DMBLK119
 10
14.66
 20
-27.6189385986
 30
0.0
 11
7.3299999349
 21
-27.6189385986
 31
0.0
 70
   160
  1
\A1;<>
 71
     5
 42
-1.0
  3
DIN
100
AcDbAlignedDimension
 13
0.0
 23
-19.9996745287
 33
0.0
 14
14.66
 24
-15.0588046373
 34
0.0
100
AcDbRotatedDimension
  0
DIMENSION
  5
176
330
1F
100
AcDbEntity
  8
SK2
  6
Continuous
 62
   136
100
AcDbDimension
  2
DMBLK120
 10
-39.0341319144
 20
19.9996747282
 30
0.0
 11
-39.0341319144
 21
-0.0000007245
 31
0.0
 70
   161
  1
\A1;ø <>
 71
     5
 42
-1.0
  3
DIN
100
AcDbAlignedDimension
 13
0.0
 23
19.9996747282
 33
0.0
 14
0.0
 24
-19.9996745287
 34
0.0
  0
ENDSEC
  0
SECTION
  2
OBJECTS
  0
DICTIONARY
  5
C
330
0
100
AcDbDictionary
281
     1
  3
ACAD_GROUP
350
D
  3
ACAD_LAYOUT
350
1A
  3
ACAD_MATERIAL
350
3B
  3
ACAD_MLEADERSTYLE
350
183
  3
ACAD_MLINESTYLE
350
17
  3
ACAD_PLOTSETTINGS
350
19
  3
ACAD_PLOTSTYLENAME
350
E
  3
ACAD_VISUALSTYLE
350
2A
  3
AcDbVariableDictionary
350
181
  0
DICTIONARY
  5
D
102
{ACAD_REACTORS
330
C
102
}
330
C
100
AcDbDictionary
281
     1
  0
DICTIONARY
  5
1A
102
{ACAD_REACTORS
330
C
102
}
330
C
100
AcDbDictionary
281
     1
  3
Layout1
350
1E
  3
Model
350
22
  0
DICTIONARY
  5
3B
102
{ACAD_REACTORS
330
C
102
}
330
C
100
AcDbDictionary
281
     1
  3
ByBlock
350
3D
  3
ByLayer
350
3C
  3
Global
350
3E
  0
DICTIONARY
  5
183
102
{ACAD_REACTORS
330
C
102
}
330
C
100
AcDbDictionary
281
     1
  0
DICTIONARY
  5
17
102
{ACAD_REACTORS
330
C
102
}
330
C
100
AcDbDictionary
281
     1
  3
Standard
350
18
  0
DICTIONARY
  5
19
102
{ACAD_REACTORS
330
C
102
}
330
C
100
AcDbDictionary
281
     1
  0
ACDBDICTIONARYWDFLT
  5
E
102
{ACAD_REACTORS
330
C
102
}
330
C
100
AcDbDictionary
281
     1
  3
Normal
350
F
100
AcDbDictionaryWithDefault
340
F
  0
DICTIONARY
  5
2A
102
{ACAD_REACTORS
330
C
102
}
330
C
100
AcDbDictionary
281
     1
  3
2dWireframe
350
2F
  3
3D Hidden
350
31
  3
3dWireframe
350
30
  3
Basic
350
32
  3
Brighten
350
36
  3
ColorChange
350
3A
  3
Conceptual
350
34
  3
Dim
350
35
  3
Facepattern
350
39
  3
Flat
350
2B
  3
FlatWithEdges
350
2C
  3
Gouraud
350
2D
  3
GouraudWithEdges
350
2E
  3
Linepattern
350
38
  3
Realistic
350
33
  3
Thicken
350
37
  0
DICTIONARY
  5
181
102
{ACAD_REACTORS
330
C
102
}
330
C
100
AcDbDictionary
281
     1
  3
DIMASSOC
350
186
  3
HIDETEXT
350
187
  3
PSOLHEIGHT
350
185
  3
PSOLWIDTH
350
184
  0
LAYOUT
  5
1E
102
{ACAD_REACTORS
330
1A
102
}
330
1A
100
AcDbPlotSettings
  1

  2
none_device
  4

  6

 40
0.0
 41
0.0
 42
0.0
 43
0.0
 44
0.0
 45
0.0
 46
0.0
 47
0.0
 48
0.0
 49
0.0
140
0.0
141
0.0
142
1.0
143
1.0
 70
   688
 72
     0
 73
     0
 74
     5
  7

 75
    16
147
1.0
148
0.0
149
0.0
100
AcDbLayout
  1
Layout1
 70
     1
 71
     1
 10
0.0
 20
0.0
 11
210.0
 21
297.0
 12
0.0
 22
0.0
 32
0.0
 14
0.0
 24
0.0
 34
0.0
 15
210.0
 25
297.0
 35
0.0
146
0.0
 13
0.0
 23
0.0
 33
0.0
 16
1.0
 26
0.0
 36
0.0
 17
0.0
 27
1.0
 37
0.0
 76
     0
330
1B
  0
LAYOUT
  5
22
102
{ACAD_REACTORS
330
1A
102
}
330
1A
100
AcDbPlotSettings
  1

  2
none_device
  4

  6

 40
0.0
 41
0.0
 42
0.0
 43
0.0
 44
0.0
 45
0.0
 46
0.0
 47
0.0
 48
0.0
 49
0.0
140
0.0
141
0.0
142
1.0
143
1.0
 70
  1712
 72
     0
 73
     0
 74
     0
  7

 75
     0
147
1.0
148
0.0
149
0.0
100
AcDbLayout
  1
Model
 70
     1
 71
     0
 10
0.0
 20
0.0
 11
210.0
 21
297.0
 12
0.0
 22
0.0
 32
0.0
 14
0.0
 24
0.0
 34
0.0
 15
210.0
 25
297.0
 35
0.0
146
0.0
 13
0.0
 23
0.0
 33
0.0
 16
1.0
 26
0.0
 36
0.0
 17
0.0
 27
1.0
 37
0.0
 76
     0
330
1F
331
29
  0
MATERIAL
  5
3D
102
{ACAD_REACTORS
330
3B
102
}
102
{ACAD_XDICTIONARY
360
1AA
102
}
330
3B
100
AcDbMaterial
  1
ByBlock
  0
MATERIAL
  5
3C
102
{ACAD_REACTORS
330
3B
102
}
102
{ACAD_XDICTIONARY
360
1A8
102
}
330
3B
100
AcDbMaterial
  1
ByLayer
  0
MATERIAL
  5
3E
102
{ACAD_REACTORS
330
3B
102
}
102
{ACAD_XDICTIONARY
360
1AC
102
}
330
3B
100
AcDbMaterial
  1
Global
  0
MLINESTYLE
  5
18
102
{ACAD_REACTORS
330
17
102
}
330
17
100
AcDbMlineStyle
  2
Standard
 70
     0
  3

 62
   256
 51
90.0
 52
90.0
 71
     2
 49
0.5
 62
   256
  6
BYLAYER
 49
-0.5
 62
   256
  6
BYLAYER
  0
ACDBPLACEHOLDER
  5
F
102
{ACAD_REACTORS
330
E
102
}
330
E
  0
VISUALSTYLE
  5
2F
102
{ACAD_REACTORS
330
2A
102
}
102
{ACAD_XDICTIONARY
360
190
102
}
330
2A
100
AcDbVisualStyle
  2
2dWireframe
 70
     4
 71
     0
 72
     2
 73
     0
 90
        0
 40
-0.6
 41
-30.0
 62
     5
 63
     7
 74
     1
 91
        4
 64
     7
 65
   257
 75
     1
175
     1
 42
1.0
 92
        0
 66
   257
 43
1.0
 76
     1
 77
     6
 78
     2
 67
     7
 79
     5
170
     0
171
     0
290
     0
174
     0
 93
        1
 44
0.0
173
     0
291
     0
 45
0.0
1001
ACAD
1000
AcDbSavedByObjectVersion
1070
     0
  0
VISUALSTYLE
  5
31
102
{ACAD_REACTORS
330
2A
102
}
102
{ACAD_XDICTIONARY
360
194
102
}
330
2A
100
AcDbVisualStyle
  2
3D Hidden
 70
     6
 71
     1
 72
     2
 73
     2
 90
        0
 40
-0.6
 41
-30.0
 62
     5
 63
     7
 74
     2
 91
        2
 64
     7
 65
   257
 75
     2
175
     1
 42
40.0
 92
        0
 66
   257
 43
1.0
 76
     1
 77
     6
 78
     2
 67
     7
 79
     3
170
     0
171
     0
290
     0
174
     0
 93
        1
 44
0.0
173
     0
291
     0
 45
0.0
1001
ACAD
1000
AcDbSavedByObjectVersion
1070
     0
  0
VISUALSTYLE
  5
30
102
{ACAD_REACTORS
330
2A
102
}
102
{ACAD_XDICTIONARY
360
192
102
}
330
2A
100
AcDbVisualStyle
  2
3dWireframe
 70
     5
 71
     0
 72
     2
 73
     0
 90
        0
 40
-0.6
 41
-30.0
 62
     5
 63
     7
 74
     1
 91
        4
 64
     7
 65
   257
 75
     1
175
     1
 42
1.0
 92
        0
 66
   257
 43
1.0
 76
     1
 77
     6
 78
     2
 67
     7
 79
     5
170
     0
171
     0
290
     0
174
     0
 93
        1
 44
0.0
173
     0
291
     0
 45
0.0
1001
ACAD
1000
AcDbSavedByObjectVersion
1070
     0
  0
VISUALSTYLE
  5
32
102
{ACAD_REACTORS
330
2A
102
}
102
{ACAD_XDICTIONARY
360
196
102
}
330
2A
100
AcDbVisualStyle
  2
Basic
 70
     7
 71
     1
 72
     0
 73
     1
 90
        0
 40
-0.6
 41
-30.0
 62
     5
 63
     7
 74
     0
 91
        4
 64
     7
 65
   257
 75
     1
175
     1
 42
1.0
 92
        8
 66
     7
 43
1.0
 76
     1
 77
     6
 78
     2
 67
     7
 79
     5
170
     0
171
     0
290
     0
174
     0
 93
        1
 44
0.0
173
     0
291
     1
 45
0.0
1001
ACAD
1000
AcDbSavedByObjectVersion
1070
     0
  0
VISUALSTYLE
  5
36
102
{ACAD_REACTORS
330
2A
102
}
102
{ACAD_XDICTIONARY
360
19E
102
}
330
2A
100
AcDbVisualStyle
  2
Brighten
 70
    12
 71
     2
 72
     2
 73
     0
 90
        0
 40
-0.6
 41
-30.0
 62
     5
 63
     7
 74
     1
 91
        4
 64
     7
 65
   257
 75
     1
175
     1
 42
1.0
 92
        8
 66
     7
 43
1.0
 76
     1
 77
     6
 78
     2
 67
     7
 79
     5
170
     0
171
     0
290
     0
174
     0
 93
        1
 44
50.0
173
     0
291
     1
 45
0.0
1001
ACAD
1000
AcDbSavedByObjectVersion
1070
     0
  0
VISUALSTYLE
  5
3A
102
{ACAD_REACTORS
330
2A
102
}
102
{ACAD_XDICTIONARY
360
1A6
102
}
330
2A
100
AcDbVisualStyle
  2
ColorChange
 70
    16
 71
     2
 72
     2
 73
     3
 90
        0
 40
-0.6
 41
-30.0
 62
     5
 63
     8
 74
     1
 91
        4
 64
     7
 65
   257
 75
     1
175
     1
 42
1.0
 92
        8
 66
     8
 43
1.0
 76
     1
 77
     6
 78
     2
 67
     7
 79
     5
170
     0
171
     0
290
     0
174
     0
 93
        1
 44
0.0
173
     0
291
     1
 45
0.0
1001
ACAD
1000
AcDbSavedByObjectVersion
1070
     0
  0
VISUALSTYLE
  5
34
102
{ACAD_REACTORS
330
2A
102
}
102
{ACAD_XDICTIONARY
360
19A
102
}
330
2A
100
AcDbVisualStyle
  2
Conceptual
 70
     9
 71
     3
 72
     2
 73
     0
 90
        0
 40
-0.6
 41
-30.0
 62
     5
 63
     7
 74
     2
 91
        2
 64
     7
 65
   257
 75
     1
175
     1
 42
40.0
 92
        8
 66
     7
 43
1.0
 76
     1
 77
     6
 78
     2
 67
     7
 79
     3
170
     0
171
     0
290
     0
174
     0
 93
        1
 44
0.0
173
     0
291
     0
 45
0.0
1001
ACAD
1000
AcDbSavedByObjectVersion
1070
     0
  0
VISUALSTYLE
  5
35
102
{ACAD_REACTORS
330
2A
102
}
102
{ACAD_XDICTIONARY
360
19C
102
}
330
2A
100
AcDbVisualStyle
  2
Dim
 70
    11
 71
     2
 72
     2
 73
     0
 90
        0
 40
-0.6
 41
-30.0
 62
     5
 63
     7
 74
     1
 91
        4
 64
     7
 65
   257
 75
     1
175
     1
 42
1.0
 92
        8
 66
     7
 43
1.0
 76
     1
 77
     6
 78
     2
 67
     7
 79
     5
170
     0
171
     0
290
     0
174
     0
 93
        1
 44
-50.0
173
     0
291
     1
 45
0.0
1001
ACAD
1000
AcDbSavedByObjectVersion
1070
     0
  0
VISUALSTYLE
  5
39
102
{ACAD_REACTORS
330
2A
102
}
102
{ACAD_XDICTIONARY
360
1A4
102
}
330
2A
100
AcDbVisualStyle
  2
Facepattern
 70
    15
 71
     2
 72
     2
 73
     0
 90
        0
 40
-0.6
 41
-30.0
 62
     5
 63
     7
 74
     1
 91
        4
 64
     7
 65
   257
 75
     1
175
     1
 42
1.0
 92
        8
 66
     7
 43
1.0
 76
     1
 77
     6
 78
     2
 67
     7
 79
     5
170
     0
171
     0
290
     0
174
     0
 93
        1
 44
0.0
173
     0
291
     1
 45
0.0
1001
ACAD
1000
AcDbSavedByObjectVersion
1070
     0
  0
VISUALSTYLE
  5
2B
102
{ACAD_REACTORS
330
2A
102
}
102
{ACAD_XDICTIONARY
360
188
102
}
330
2A
100
AcDbVisualStyle
  2
Flat
 70
     0
 71
     2
 72
     1
 73
     1
 90
        2
 40
-0.6
 41
30.0
 62
     5
 63
     7
 74
     0
 91
        4
 64
     7
 65
   257
 75
     1
175
     1
 42
1.0
 92
        8
 66
     7
 43
1.0
 76
     1
 77
     6
 78
     2
 67
     7
 79
     5
170
     0
171
     0
290
     0
174
     0
 93
       13
 44
0.0
173
     0
291
     1
 45
0.0
1001
ACAD
1000
AcDbSavedByObjectVersion
1070
     0
  0
VISUALSTYLE
  5
2C
102
{ACAD_REACTORS
330
2A
102
}
102
{ACAD_XDICTIONARY
360
18A
102
}
330
2A
100
AcDbVisualStyle
  2
FlatWithEdges
 70
     1
 71
     2
 72
     1
 73
     1
 90
        2
 40
-0.6
 41
30.0
 62
     5
 63
     7
 74
     1
 91
        4
 64
     7
 65
   257
 75
     1
175
     1
 42
1.0
 92
        0
 66
   257
 43
1.0
 76
     1
 77
     6
 78
     2
 67
     7
 79
     5
170
     0
171
     0
290
     0
174
     0
 93
       13
 44
0.0
173
     0
291
     1
 45
0.0
1001
ACAD
1000
AcDbSavedByObjectVersion
1070
     0
  0
VISUALSTYLE
  5
2D
102
{ACAD_REACTORS
330
2A
102
}
102
{ACAD_XDICTIONARY
360
18C
102
}
330
2A
100
AcDbVisualStyle
  2
Gouraud
 70
     2
 71
     2
 72
     2
 73
     1
 90
        2
 40
-0.6
 41
30.0
 62
     5
 63
     7
 74
     0
 91
        4
 64
     7
 65
   257
 75
     1
175
     1
 42
1.0
 92
        0
 66
     7
 43
1.0
 76
     1
 77
     6
 78
     2
 67
     7
 79
     5
170
     0
171
     0
290
     0
174
     0
 93
       13
 44
0.0
173
     0
291
     1
 45
0.0
1001
ACAD
1000
AcDbSavedByObjectVersion
1070
     0
  0
VISUALSTYLE
  5
2E
102
{ACAD_REACTORS
330
2A
102
}
102
{ACAD_XDICTIONARY
360
18E
102
}
330
2A
100
AcDbVisualStyle
  2
GouraudWithEdges
 70
     3
 71
     2
 72
     2
 73
     1
 90
        2
 40
-0.6
 41
30.0
 62
     5
 63
     7
 74
     1
 91
        4
 64
     7
 65
   257
 75
     1
175
     1
 42
1.0
 92
        0
 66
   257
 43
1.0
 76
     1
 77
     6
 78
     2
 67
     7
 79
     5
170
     0
171
     0
290
     0
174
     0
 93
       13
 44
0.0
173
     0
291
     1
 45
0.0
1001
ACAD
1000
AcDbSavedByObjectVersion
1070
     0
  0
VISUALSTYLE
  5
38
102
{ACAD_REACTORS
330
2A
102
}
102
{ACAD_XDICTIONARY
360
1A2
102
}
330
2A
100
AcDbVisualStyle
  2
Linepattern
 70
    14
 71
     2
 72
     2
 73
     0
 90
        0
 40
-0.6
 41
-30.0
 62
     5
 63
     7
 74
     1
 91
        4
 64
     7
 65
   257
 75
     7
175
     7
 42
1.0
 92
        8
 66
     7
 43
1.0
 76
     1
 77
     6
 78
     2
 67
     7
 79
     5
170
     0
171
     0
290
     0
174
     0
 93
        1
 44
0.0
173
     0
291
     1
 45
0.0
1001
ACAD
1000
AcDbSavedByObjectVersion
1070
     0
  0
VISUALSTYLE
  5
33
102
{ACAD_REACTORS
330
2A
102
}
102
{ACAD_XDICTIONARY
360
198
102
}
330
2A
100
AcDbVisualStyle
  2
Realistic
 70
     8
 71
     2
 72
     2
 73
     0
 90
        0
 40
-0.6
 41
-30.0
 62
     5
 63
     7
 74
     1
 91
        0
 64
     7
 65
   257
 75
     1
175
     1
 42
1.0
 92
        8
 66
     8
 43
1.0
 76
     1
 77
     6
 78
     2
 67
     7
 79
     5
170
     0
171
     0
290
     0
174
     0
 93
       13
 44
0.0
173
     0
291
     0
 45
0.0
1001
ACAD
1000
AcDbSavedByObjectVersion
1070
     0
  0
VISUALSTYLE
  5
37
102
{ACAD_REACTORS
330
2A
102
}
102
{ACAD_XDICTIONARY
360
1A0
102
}
330
2A
100
AcDbVisualStyle
  2
Thicken
 70
    13
 71
     2
 72
     2
 73
     0
 90
        0
 40
-0.6
 41
-30.0
 62
     5
 63
     7
 74
     1
 91
        4
 64
     7
 65
   257
 75
     1
175
     1
 42
1.0
 92
       12
 66
     7
 43
1.0
 76
     1
 77
     6
 78
     2
 67
     7
 79
     5
170
     0
171
     0
290
     0
174
     0
 93
        1
 44
0.0
173
     0
291
     1
 45
0.0
1001
ACAD
1000
AcDbSavedByObjectVersion
1070
     0
  0
DICTIONARYVAR
  5
186
102
{ACAD_REACTORS
330
181
102
}
330
181
100
DictionaryVariables
280
     0
  1
2
  0
DICTIONARYVAR
  5
187
102
{ACAD_REACTORS
330
181
102
}
330
181
100
DictionaryVariables
280
     0
  1
1
  0
DICTIONARYVAR
  5
185
102
{ACAD_REACTORS
330
181
102
}
330
181
100
DictionaryVariables
280
     0
  1
80.000000
  0
DICTIONARYVAR
  5
184
102
{ACAD_REACTORS
330
181
102
}
330
181
100
DictionaryVariables
280
     0
  1
5.000000
  0
DICTIONARY
  5
1AA
330
3D
100
AcDbDictionary
280
     1
281
     1
  3
ACAD_XREC_ROUNDTRIP
360
1AB
  0
DICTIONARY
  5
1A8
330
3C
100
AcDbDictionary
280
     1
281
     1
  3
ACAD_XREC_ROUNDTRIP
360
1A9
  0
DICTIONARY
  5
1AC
330
3E
100
AcDbDictionary
280
     1
281
     1
  3
ACAD_XREC_ROUNDTRIP
360
1AD
  0
DICTIONARY
  5
190
330
2F
100
AcDbDictionary
280
     1
281
     1
  3
ACAD_XREC_ROUNDTRIP
360
191
  0
DICTIONARY
  5
194
330
31
100
AcDbDictionary
280
     1
281
     1
  3
ACAD_XREC_ROUNDTRIP
360
195
  0
DICTIONARY
  5
192
330
30
100
AcDbDictionary
280
     1
281
     1
  3
ACAD_XREC_ROUNDTRIP
360
193
  0
DICTIONARY
  5
196
330
32
100
AcDbDictionary
280
     1
281
     1
  3
ACAD_XREC_ROUNDTRIP
360
197
  0
DICTIONARY
  5
19E
330
36
100
AcDbDictionary
280
     1
281
     1
  3
ACAD_XREC_ROUNDTRIP
360
19F
  0
DICTIONARY
  5
1A6
330
3A
100
AcDbDictionary
280
     1
281
     1
  3
ACAD_XREC_ROUNDTRIP
360
1A7
  0
DICTIONARY
  5
19A
330
34
100
AcDbDictionary
280
     1
281
     1
  3
ACAD_XREC_ROUNDTRIP
360
19B
  0
DICTIONARY
  5
19C
330
35
100
AcDbDictionary
280
     1
281
     1
  3
ACAD_XREC_ROUNDTRIP
360
19D
  0
DICTIONARY
  5
1A4
330
39
100
AcDbDictionary
280
     1
281
     1
  3
ACAD_XREC_ROUNDTRIP
360
1A5
  0
DICTIONARY
  5
188
330
2B
100
AcDbDictionary
280
     1
281
     1
  3
ACAD_XREC_ROUNDTRIP
360
189
  0
DICTIONARY
  5
18A
330
2C
100
AcDbDictionary
280
     1
281
     1
  3
ACAD_XREC_ROUNDTRIP
360
18B
  0
DICTIONARY
  5
18C
330
2D
100
AcDbDictionary
280
     1
281
     1
  3
ACAD_XREC_ROUNDTRIP
360
18D
  0
DICTIONARY
  5
18E
330
2E
100
AcDbDictionary
280
     1
281
     1
  3
ACAD_XREC_ROUNDTRIP
360
18F
  0
DICTIONARY
  5
1A2
330
38
100
AcDbDictionary
280
     1
281
     1
  3
ACAD_XREC_ROUNDTRIP
360
1A3
  0
DICTIONARY
  5
198
330
33
100
AcDbDictionary
280
     1
281
     1
  3
ACAD_XREC_ROUNDTRIP
360
199
  0
DICTIONARY
  5
1A0
330
37
100
AcDbDictionary
280
     1
281
     1
  3
ACAD_XREC_ROUNDTRIP
360
1A1
  0
XRECORD
  5
1AB
102
{ACAD_REACTORS
330
1AA
102
}
330
1AA
100
AcDbXrecord
280
     1
102
MATERIAL
148
0.0
149
0.0
149
0.0
 93
        0
 94
      127
282
     0
 72
     1
 77
     1
171
     1
175
     1
179
     1
273
     0
  0
XRECORD
  5
1A9
102
{ACAD_REACTORS
330
1A8
102
}
330
1A8
100
AcDbXrecord
280
     1
102
MATERIAL
148
0.0
149
0.0
149
0.0
 93
        0
 94
      127
282
     0
 72
     1
 77
     1
171
     1
175
     1
179
     1
273
     0
  0
XRECORD
  5
1AD
102
{ACAD_REACTORS
330
1AC
102
}
330
1AC
100
AcDbXrecord
280
     1
102
MATERIAL
148
0.0
149
0.0
149
0.0
 93
        0
 94
      127
282
     0
 72
     1
 77
     1
171
     1
175
     1
179
     1
273
     0
  0
XRECORD
  5
191
102
{ACAD_REACTORS
330
190
102
}
330
190
100
AcDbXrecord
280
     1
102
RTVSPropertyOp0
 70
     1
102
RTVSPropertyOp1
 70
     1
102
RTVSPropertyOp2
 70
     1
102
RTVSPropertyOp3
 70
     1
102
RTVSPropertyOp4
 70
     1
102
RTVSPropertyOp5
 70
     1
102
RTVSPropertyOp6
 70
     1
102
RTVSPropertyOp7
 70
     1
102
RTVSPropertyOp8
 70
     1
102
RTVSPropertyOp9
 70
     1
102
RTVSPropertyOp10
 70
     1
102
RTVSPropertyOp11
 70
     1
102
RTVSPropertyOp12
 70
     1
102
RTVSPropertyOp13
 70
     1
102
RTVSPropertyOp14
 70
     1
102
RTVSPropertyOp15
 70
     1
102
RTVSPropertyOp16
 70
     1
102
RTVSPropertyOp17
 70
     1
102
RTVSPropertyOp18
 70
     1
102
RTVSPropertyOp19
 70
     1
102
RTVSPropertyOp20
 70
     1
102
RTVSPropertyOp21
 70
     1
102
RTVSPropertyOp22
 70
     1
102
RTVSPropertyOp23
 70
     1
102
RTVSPropertyOp24
 70
     1
102
RTVSPropertyOp25
 70
     1
102
RTVSPropertyOp26
 70
     1
102
RTVSPropertyOp27
 70
     1
102
RTVSPropertyOp28
 70
     1
102
RTVSPropertyOp29
 70
     1
102
RTVSPropertyOp30
 70
     1
102
RTVSPropertyOp31
 70
     1
102
RTVSPropertyOp32
 70
     1
  0
XRECORD
  5
195
102
{ACAD_REACTORS
330
194
102
}
330
194
100
AcDbXrecord
280
     1
102
RTVSPropertyOp0
 70
     1
102
RTVSPropertyOp1
 70
     1
102
RTVSPropertyOp2
 70
     1
102
RTVSPropertyOp3
 70
     1
102
RTVSPropertyOp4
 70
     1
102
RTVSPropertyOp5
 70
     1
102
RTVSPropertyOp6
 70
     1
102
RTVSPropertyOp7
 70
     1
102
RTVSPropertyOp8
 70
     1
102
RTVSPropertyOp9
 70
     1
102
RTVSPropertyOp10
 70
     1
102
RTVSPropertyOp11
 70
     1
102
RTVSPropertyOp12
 70
     1
102
RTVSPropertyOp13
 70
     1
102
RTVSPropertyOp14
 70
     1
102
RTVSPropertyOp15
 70
     1
102
RTVSPropertyOp16
 70
     1
102
RTVSPropertyOp17
 70
     1
102
RTVSPropertyOp18
 70
     1
102
RTVSPropertyOp19
 70
     1
102
RTVSPropertyOp20
 70
     1
102
RTVSPropertyOp21
 70
     1
102
RTVSPropertyOp22
 70
     1
102
RTVSPropertyOp23
 70
     1
102
RTVSPropertyOp24
 70
     1
102
RTVSPropertyOp25
 70
     1
102
RTVSPropertyOp26
 70
     1
102
RTVSPropertyOp27
 70
     1
102
RTVSPropertyOp28
 70
     1
102
RTVSPropertyOp29
 70
     1
102
RTVSPropertyOp30
 70
     1
102
RTVSPropertyOp31
 70
     1
102
RTVSPropertyOp32
 70
     1
  0
XRECORD
  5
193
102
{ACAD_REACTORS
330
192
102
}
330
192
100
AcDbXrecord
280
     1
102
RTVSPropertyOp0
 70
     1
102
RTVSPropertyOp1
 70
     1
102
RTVSPropertyOp2
 70
     1
102
RTVSPropertyOp3
 70
     1
102
RTVSPropertyOp4
 70
     1
102
RTVSPropertyOp5
 70
     1
102
RTVSPropertyOp6
 70
     1
102
RTVSPropertyOp7
 70
     1
102
RTVSPropertyOp8
 70
     1
102
RTVSPropertyOp9
 70
     1
102
RTVSPropertyOp10
 70
     1
102
RTVSPropertyOp11
 70
     1
102
RTVSPropertyOp12
 70
     1
102
RTVSPropertyOp13
 70
     1
102
RTVSPropertyOp14
 70
     1
102
RTVSPropertyOp15
 70
     1
102
RTVSPropertyOp16
 70
     1
102
RTVSPropertyOp17
 70
     1
102
RTVSPropertyOp18
 70
     1
102
RTVSPropertyOp19
 70
     1
102
RTVSPropertyOp20
 70
     1
102
RTVSPropertyOp21
 70
     1
102
RTVSPropertyOp22
 70
     1
102
RTVSPropertyOp23
 70
     1
102
RTVSPropertyOp24
 70
     1
102
RTVSPropertyOp25
 70
     1
102
RTVSPropertyOp26
 70
     1
102
RTVSPropertyOp27
 70
     1
102
RTVSPropertyOp28
 70
     1
102
RTVSPropertyOp29
 70
     1
102
RTVSPropertyOp30
 70
     1
102
RTVSPropertyOp31
 70
     1
102
RTVSPropertyOp32
 70
     1
  0
XRECORD
  5
197
102
{ACAD_REACTORS
330
196
102
}
330
196
100
AcDbXrecord
280
     1
102
RTVSPropertyOp0
 70
     1
102
RTVSPropertyOp1
 70
     1
102
RTVSPropertyOp2
 70
     1
102
RTVSPropertyOp3
 70
     1
102
RTVSPropertyOp4
 70
     1
102
RTVSPropertyOp5
 70
     1
102
RTVSPropertyOp6
 70
     1
102
RTVSPropertyOp7
 70
     1
102
RTVSPropertyOp8
 70
     1
102
RTVSPropertyOp9
 70
     1
102
RTVSPropertyOp10
 70
     1
102
RTVSPropertyOp11
 70
     1
102
RTVSPropertyOp12
 70
     1
102
RTVSPropertyOp13
 70
     1
102
RTVSPropertyOp14
 70
     1
102
RTVSPropertyOp15
 70
     1
102
RTVSPropertyOp16
 70
     1
102
RTVSPropertyOp17
 70
     1
102
RTVSPropertyOp18
 70
     1
102
RTVSPropertyOp19
 70
     1
102
RTVSPropertyOp20
 70
     1
102
RTVSPropertyOp21
 70
     1
102
RTVSPropertyOp22
 70
     1
102
RTVSPropertyOp23
 70
     1
102
RTVSPropertyOp24
 70
     1
102
RTVSPropertyOp25
 70
     1
102
RTVSPropertyOp26
 70
     1
102
RTVSPropertyOp27
 70
     1
102
RTVSPropertyOp28
 70
     1
102
RTVSPropertyOp29
 70
     1
102
RTVSPropertyOp30
 70
     1
102
RTVSPropertyOp31
 70
     1
102
RTVSPropertyOp32
 70
     1
  0
XRECORD
  5
19F
102
{ACAD_REACTORS
330
19E
102
}
330
19E
100
AcDbXrecord
280
     1
102
RTVSPropertyOp0
 70
     1
102
RTVSPropertyOp1
 70
     1
102
RTVSPropertyOp2
 70
     1
102
RTVSPropertyOp3
 70
     1
102
RTVSPropertyOp4
 70
     1
102
RTVSPropertyOp5
 70
     1
102
RTVSPropertyOp6
 70
     1
102
RTVSPropertyOp7
 70
     1
102
RTVSPropertyOp8
 70
     1
102
RTVSPropertyOp9
 70
     1
102
RTVSPropertyOp10
 70
     1
102
RTVSPropertyOp11
 70
     1
102
RTVSPropertyOp12
 70
     1
102
RTVSPropertyOp13
 70
     1
102
RTVSPropertyOp14
 70
     1
102
RTVSPropertyOp15
 70
     1
102
RTVSPropertyOp16
 70
     1
102
RTVSPropertyOp17
 70
     1
102
RTVSPropertyOp18
 70
     1
102
RTVSPropertyOp19
 70
     1
102
RTVSPropertyOp20
 70
     1
102
RTVSPropertyOp21
 70
     1
102
RTVSPropertyOp22
 70
     1
102
RTVSPropertyOp23
 70
     1
102
RTVSPropertyOp24
 70
     1
102
RTVSPropertyOp25
 70
     1
102
RTVSPropertyOp26
 70
     1
102
RTVSPropertyOp27
 70
     1
102
RTVSPropertyOp28
 70
     1
102
RTVSPropertyOp29
 70
     1
102
RTVSPropertyOp30
 70
     1
102
RTVSPropertyOp31
 70
     1
102
RTVSPropertyOp32
 70
     1
  0
XRECORD
  5
1A7
102
{ACAD_REACTORS
330
1A6
102
}
330
1A6
100
AcDbXrecord
280
     1
102
RTVSPropertyOp0
 70
     1
102
RTVSPropertyOp1
 70
     1
102
RTVSPropertyOp2
 70
     1
102
RTVSPropertyOp3
 70
     1
102
RTVSPropertyOp4
 70
     1
102
RTVSPropertyOp5
 70
     1
102
RTVSPropertyOp6
 70
     1
102
RTVSPropertyOp7
 70
     1
102
RTVSPropertyOp8
 70
     1
102
RTVSPropertyOp9
 70
     1
102
RTVSPropertyOp10
 70
     1
102
RTVSPropertyOp11
 70
     1
102
RTVSPropertyOp12
 70
     1
102
RTVSPropertyOp13
 70
     1
102
RTVSPropertyOp14
 70
     1
102
RTVSPropertyOp15
 70
     1
102
RTVSPropertyOp16
 70
     1
102
RTVSPropertyOp17
 70
     1
102
RTVSPropertyOp18
 70
     1
102
RTVSPropertyOp19
 70
     1
102
RTVSPropertyOp20
 70
     1
102
RTVSPropertyOp21
 70
     1
102
RTVSPropertyOp22
 70
     1
102
RTVSPropertyOp23
 70
     1
102
RTVSPropertyOp24
 70
     1
102
RTVSPropertyOp25
 70
     1
102
RTVSPropertyOp26
 70
     1
102
RTVSPropertyOp27
 70
     1
102
RTVSPropertyOp28
 70
     1
102
RTVSPropertyOp29
 70
     1
102
RTVSPropertyOp30
 70
     1
102
RTVSPropertyOp31
 70
     1
102
RTVSPropertyOp32
 70
     1
  0
XRECORD
  5
19B
102
{ACAD_REACTORS
330
19A
102
}
330
19A
100
AcDbXrecord
280
     1
102
RTVSPropertyOp0
 70
     1
102
RTVSPropertyOp1
 70
     1
102
RTVSPropertyOp2
 70
     1
102
RTVSPropertyOp3
 70
     1
102
RTVSPropertyOp4
 70
     1
102
RTVSPropertyOp5
 70
     1
102
RTVSPropertyOp6
 70
     1
102
RTVSPropertyOp7
 70
     1
102
RTVSPropertyOp8
 70
     1
102
RTVSPropertyOp9
 70
     1
102
RTVSPropertyOp10
 70
     1
102
RTVSPropertyOp11
 70
     1
102
RTVSPropertyOp12
 70
     1
102
RTVSPropertyOp13
 70
     1
102
RTVSPropertyOp14
 70
     1
102
RTVSPropertyOp15
 70
     1
102
RTVSPropertyOp16
 70
     1
102
RTVSPropertyOp17
 70
     1
102
RTVSPropertyOp18
 70
     1
102
RTVSPropertyOp19
 70
     1
102
RTVSPropertyOp20
 70
     1
102
RTVSPropertyOp21
 70
     1
102
RTVSPropertyOp22
 70
     1
102
RTVSPropertyOp23
 70
     1
102
RTVSPropertyOp24
 70
     1
102
RTVSPropertyOp25
 70
     1
102
RTVSPropertyOp26
 70
     1
102
RTVSPropertyOp27
 70
     1
102
RTVSPropertyOp28
 70
     1
102
RTVSPropertyOp29
 70
     1
102
RTVSPropertyOp30
 70
     1
102
RTVSPropertyOp31
 70
     1
102
RTVSPropertyOp32
 70
     1
  0
XRECORD
  5
19D
102
{ACAD_REACTORS
330
19C
102
}
330
19C
100
AcDbXrecord
280
     1
102
RTVSPropertyOp0
 70
     1
102
RTVSPropertyOp1
 70
     1
102
RTVSPropertyOp2
 70
     1
102
RTVSPropertyOp3
 70
     1
102
RTVSPropertyOp4
 70
     1
102
RTVSPropertyOp5
 70
     1
102
RTVSPropertyOp6
 70
     1
102
RTVSPropertyOp7
 70
     1
102
RTVSPropertyOp8
 70
     1
102
RTVSPropertyOp9
 70
     1
102
RTVSPropertyOp10
 70
     1
102
RTVSPropertyOp11
 70
     1
102
RTVSPropertyOp12
 70
     1
102
RTVSPropertyOp13
 70
     1
102
RTVSPropertyOp14
 70
     1
102
RTVSPropertyOp15
 70
     1
102
RTVSPropertyOp16
 70
     1
102
RTVSPropertyOp17
 70
     1
102
RTVSPropertyOp18
 70
     1
102
RTVSPropertyOp19
 70
     1
102
RTVSPropertyOp20
 70
     1
102
RTVSPropertyOp21
 70
     1
102
RTVSPropertyOp22
 70
     1
102
RTVSPropertyOp23
 70
     1
102
RTVSPropertyOp24
 70
     1
102
RTVSPropertyOp25
 70
     1
102
RTVSPropertyOp26
 70
     1
102
RTVSPropertyOp27
 70
     1
102
RTVSPropertyOp28
 70
     1
102
RTVSPropertyOp29
 70
     1
102
RTVSPropertyOp30
 70
     1
102
RTVSPropertyOp31
 70
     1
102
RTVSPropertyOp32
 70
     1
  0
XRECORD
  5
1A5
102
{ACAD_REACTORS
330
1A4
102
}
330
1A4
100
AcDbXrecord
280
     1
102
RTVSPropertyOp0
 70
     1
102
RTVSPropertyOp1
 70
     1
102
RTVSPropertyOp2
 70
     1
102
RTVSPropertyOp3
 70
     1
102
RTVSPropertyOp4
 70
     1
102
RTVSPropertyOp5
 70
     1
102
RTVSPropertyOp6
 70
     1
102
RTVSPropertyOp7
 70
     1
102
RTVSPropertyOp8
 70
     1
102
RTVSPropertyOp9
 70
     1
102
RTVSPropertyOp10
 70
     1
102
RTVSPropertyOp11
 70
     1
102
RTVSPropertyOp12
 70
     1
102
RTVSPropertyOp13
 70
     1
102
RTVSPropertyOp14
 70
     1
102
RTVSPropertyOp15
 70
     1
102
RTVSPropertyOp16
 70
     1
102
RTVSPropertyOp17
 70
     1
102
RTVSPropertyOp18
 70
     1
102
RTVSPropertyOp19
 70
     1
102
RTVSPropertyOp20
 70
     1
102
RTVSPropertyOp21
 70
     1
102
RTVSPropertyOp22
 70
     1
102
RTVSPropertyOp23
 70
     1
102
RTVSPropertyOp24
 70
     1
102
RTVSPropertyOp25
 70
     1
102
RTVSPropertyOp26
 70
     1
102
RTVSPropertyOp27
 70
     1
102
RTVSPropertyOp28
 70
     1
102
RTVSPropertyOp29
 70
     1
102
RTVSPropertyOp30
 70
     1
102
RTVSPropertyOp31
 70
     1
102
RTVSPropertyOp32
 70
     1
  0
XRECORD
  5
189
102
{ACAD_REACTORS
330
188
102
}
330
188
100
AcDbXrecord
280
     1
102
RTVSPropertyOp0
 70
     1
102
RTVSPropertyOp1
 70
     1
102
RTVSPropertyOp2
 70
     1
102
RTVSPropertyOp3
 70
     1
102
RTVSPropertyOp4
 70
     1
102
RTVSPropertyOp5
 70
     1
102
RTVSPropertyOp6
 70
     1
102
RTVSPropertyOp7
 70
     1
102
RTVSPropertyOp8
 70
     1
102
RTVSPropertyOp9
 70
     1
102
RTVSPropertyOp10
 70
     1
102
RTVSPropertyOp11
 70
     1
102
RTVSPropertyOp12
 70
     1
102
RTVSPropertyOp13
 70
     1
102
RTVSPropertyOp14
 70
     1
102
RTVSPropertyOp15
 70
     1
102
RTVSPropertyOp16
 70
     1
102
RTVSPropertyOp17
 70
     1
102
RTVSPropertyOp18
 70
     1
102
RTVSPropertyOp19
 70
     1
102
RTVSPropertyOp20
 70
     1
102
RTVSPropertyOp21
 70
     1
102
RTVSPropertyOp22
 70
     1
102
RTVSPropertyOp23
 70
     1
102
RTVSPropertyOp24
 70
     1
102
RTVSPropertyOp25
 70
     1
102
RTVSPropertyOp26
 70
     1
102
RTVSPropertyOp27
 70
     1
102
RTVSPropertyOp28
 70
     1
102
RTVSPropertyOp29
 70
     1
102
RTVSPropertyOp30
 70
     1
102
RTVSPropertyOp31
 70
     1
102
RTVSPropertyOp32
 70
     1
  0
XRECORD
  5
18B
102
{ACAD_REACTORS
330
18A
102
}
330
18A
100
AcDbXrecord
280
     1
102
RTVSPropertyOp0
 70
     1
102
RTVSPropertyOp1
 70
     1
102
RTVSPropertyOp2
 70
     1
102
RTVSPropertyOp3
 70
     1
102
RTVSPropertyOp4
 70
     1
102
RTVSPropertyOp5
 70
     1
102
RTVSPropertyOp6
 70
     1
102
RTVSPropertyOp7
 70
     1
102
RTVSPropertyOp8
 70
     1
102
RTVSPropertyOp9
 70
     1
102
RTVSPropertyOp10
 70
     1
102
RTVSPropertyOp11
 70
     1
102
RTVSPropertyOp12
 70
     1
102
RTVSPropertyOp13
 70
     1
102
RTVSPropertyOp14
 70
     1
102
RTVSPropertyOp15
 70
     1
102
RTVSPropertyOp16
 70
     1
102
RTVSPropertyOp17
 70
     1
102
RTVSPropertyOp18
 70
     1
102
RTVSPropertyOp19
 70
     1
102
RTVSPropertyOp20
 70
     1
102
RTVSPropertyOp21
 70
     1
102
RTVSPropertyOp22
 70
     1
102
RTVSPropertyOp23
 70
     1
102
RTVSPropertyOp24
 70
     1
102
RTVSPropertyOp25
 70
     1
102
RTVSPropertyOp26
 70
     1
102
RTVSPropertyOp27
 70
     1
102
RTVSPropertyOp28
 70
     1
102
RTVSPropertyOp29
 70
     1
102
RTVSPropertyOp30
 70
     1
102
RTVSPropertyOp31
 70
     1
102
RTVSPropertyOp32
 70
     1
  0
XRECORD
  5
18D
102
{ACAD_REACTORS
330
18C
102
}
330
18C
100
AcDbXrecord
280
     1
102
RTVSPropertyOp0
 70
     1
102
RTVSPropertyOp1
 70
     1
102
RTVSPropertyOp2
 70
     1
102
RTVSPropertyOp3
 70
     1
102
RTVSPropertyOp4
 70
     1
102
RTVSPropertyOp5
 70
     1
102
RTVSPropertyOp6
 70
     1
102
RTVSPropertyOp7
 70
     1
102
RTVSPropertyOp8
 70
     1
102
RTVSPropertyOp9
 70
     1
102
RTVSPropertyOp10
 70
     1
102
RTVSPropertyOp11
 70
     1
102
RTVSPropertyOp12
 70
     1
102
RTVSPropertyOp13
 70
     1
102
RTVSPropertyOp14
 70
     1
102
RTVSPropertyOp15
 70
     1
102
RTVSPropertyOp16
 70
     1
102
RTVSPropertyOp17
 70
     1
102
RTVSPropertyOp18
 70
     1
102
RTVSPropertyOp19
 70
     1
102
RTVSPropertyOp20
 70
     1
102
RTVSPropertyOp21
 70
     1
102
RTVSPropertyOp22
 70
     1
102
RTVSPropertyOp23
 70
     1
102
RTVSPropertyOp24
 70
     1
102
RTVSPropertyOp25
 70
     1
102
RTVSPropertyOp26
 70
     1
102
RTVSPropertyOp27
 70
     1
102
RTVSPropertyOp28
 70
     1
102
RTVSPropertyOp29
 70
     1
102
RTVSPropertyOp30
 70
     1
102
RTVSPropertyOp31
 70
     1
102
RTVSPropertyOp32
 70
     1
  0
XRECORD
  5
18F
102
{ACAD_REACTORS
330
18E
102
}
330
18E
100
AcDbXrecord
280
     1
102
RTVSPropertyOp0
 70
     1
102
RTVSPropertyOp1
 70
     1
102
RTVSPropertyOp2
 70
     1
102
RTVSPropertyOp3
 70
     1
102
RTVSPropertyOp4
 70
     1
102
RTVSPropertyOp5
 70
     1
102
RTVSPropertyOp6
 70
     1
102
RTVSPropertyOp7
 70
     1
102
RTVSPropertyOp8
 70
     1
102
RTVSPropertyOp9
 70
     1
102
RTVSPropertyOp10
 70
     1
102
RTVSPropertyOp11
 70
     1
102
RTVSPropertyOp12
 70
     1
102
RTVSPropertyOp13
 70
     1
102
RTVSPropertyOp14
 70
     1
102
RTVSPropertyOp15
 70
     1
102
RTVSPropertyOp16
 70
     1
102
RTVSPropertyOp17
 70
     1
102
RTVSPropertyOp18
 70
     1
102
RTVSPropertyOp19
 70
     1
102
RTVSPropertyOp20
 70
     1
102
RTVSPropertyOp21
 70
     1
102
RTVSPropertyOp22
 70
     1
102
RTVSPropertyOp23
 70
     1
102
RTVSPropertyOp24
 70
     1
102
RTVSPropertyOp25
 70
     1
102
RTVSPropertyOp26
 70
     1
102
RTVSPropertyOp27
 70
     1
102
RTVSPropertyOp28
 70
     1
102
RTVSPropertyOp29
 70
     1
102
RTVSPropertyOp30
 70
     1
102
RTVSPropertyOp31
 70
     1
102
RTVSPropertyOp32
 70
     1
  0
XRECORD
  5
1A3
102
{ACAD_REACTORS
330
1A2
102
}
330
1A2
100
AcDbXrecord
280
     1
102
RTVSPropertyOp0
 70
     1
102
RTVSPropertyOp1
 70
     1
102
RTVSPropertyOp2
 70
     1
102
RTVSPropertyOp3
 70
     1
102
RTVSPropertyOp4
 70
     1
102
RTVSPropertyOp5
 70
     1
102
RTVSPropertyOp6
 70
     1
102
RTVSPropertyOp7
 70
     1
102
RTVSPropertyOp8
 70
     1
102
RTVSPropertyOp9
 70
     1
102
RTVSPropertyOp10
 70
     1
102
RTVSPropertyOp11
 70
     1
102
RTVSPropertyOp12
 70
     1
102
RTVSPropertyOp13
 70
     1
102
RTVSPropertyOp14
 70
     1
102
RTVSPropertyOp15
 70
     1
102
RTVSPropertyOp16
 70
     1
102
RTVSPropertyOp17
 70
     1
102
RTVSPropertyOp18
 70
     1
102
RTVSPropertyOp19
 70
     1
102
RTVSPropertyOp20
 70
     1
102
RTVSPropertyOp21
 70
     1
102
RTVSPropertyOp22
 70
     1
102
RTVSPropertyOp23
 70
     1
102
RTVSPropertyOp24
 70
     1
102
RTVSPropertyOp25
 70
     1
102
RTVSPropertyOp26
 70
     1
102
RTVSPropertyOp27
 70
     1
102
RTVSPropertyOp28
 70
     1
102
RTVSPropertyOp29
 70
     1
102
RTVSPropertyOp30
 70
     1
102
RTVSPropertyOp31
 70
     1
102
RTVSPropertyOp32
 70
     1
  0
XRECORD
  5
199
102
{ACAD_REACTORS
330
198
102
}
330
198
100
AcDbXrecord
280
     1
102
RTVSPropertyOp0
 70
     1
102
RTVSPropertyOp1
 70
     1
102
RTVSPropertyOp2
 70
     1
102
RTVSPropertyOp3
 70
     1
102
RTVSPropertyOp4
 70
     1
102
RTVSPropertyOp5
 70
     1
102
RTVSPropertyOp6
 70
     1
102
RTVSPropertyOp7
 70
     1
102
RTVSPropertyOp8
 70
     1
102
RTVSPropertyOp9
 70
     1
102
RTVSPropertyOp10
 70
     1
102
RTVSPropertyOp11
 70
     1
102
RTVSPropertyOp12
 70
     1
102
RTVSPropertyOp13
 70
     1
102
RTVSPropertyOp14
 70
     1
102
RTVSPropertyOp15
 70
     1
102
RTVSPropertyOp16
 70
     1
102
RTVSPropertyOp17
 70
     1
102
RTVSPropertyOp18
 70
     1
102
RTVSPropertyOp19
 70
     1
102
RTVSPropertyOp20
 70
     1
102
RTVSPropertyOp21
 70
     1
102
RTVSPropertyOp22
 70
     1
102
RTVSPropertyOp23
 70
     1
102
RTVSPropertyOp24
 70
     1
102
RTVSPropertyOp25
 70
     1
102
RTVSPropertyOp26
 70
     1
102
RTVSPropertyOp27
 70
     1
102
RTVSPropertyOp28
 70
     1
102
RTVSPropertyOp29
 70
     1
102
RTVSPropertyOp30
 70
     1
102
RTVSPropertyOp31
 70
     1
102
RTVSPropertyOp32
 70
     1
  0
XRECORD
  5
1A1
102
{ACAD_REACTORS
330
1A0
102
}
330
1A0
100
AcDbXrecord
280
     1
102
RTVSPropertyOp0
 70
     1
102
RTVSPropertyOp1
 70
     1
102
RTVSPropertyOp2
 70
     1
102
RTVSPropertyOp3
 70
     1
102
RTVSPropertyOp4
 70
     1
102
RTVSPropertyOp5
 70
     1
102
RTVSPropertyOp6
 70
     1
102
RTVSPropertyOp7
 70
     1
102
RTVSPropertyOp8
 70
     1
102
RTVSPropertyOp9
 70
     1
102
RTVSPropertyOp10
 70
     1
102
RTVSPropertyOp11
 70
     1
102
RTVSPropertyOp12
 70
     1
102
RTVSPropertyOp13
 70
     1
102
RTVSPropertyOp14
 70
     1
102
RTVSPropertyOp15
 70
     1
102
RTVSPropertyOp16
 70
     1
102
RTVSPropertyOp17
 70
     1
102
RTVSPropertyOp18
 70
     1
102
RTVSPropertyOp19
 70
     1
102
RTVSPropertyOp20
 70
     1
102
RTVSPropertyOp21
 70
     1
102
RTVSPropertyOp22
 70
     1
102
RTVSPropertyOp23
 70
     1
102
RTVSPropertyOp24
 70
     1
102
RTVSPropertyOp25
 70
     1
102
RTVSPropertyOp26
 70
     1
102
RTVSPropertyOp27
 70
     1
102
RTVSPropertyOp28
 70
     1
102
RTVSPropertyOp29
 70
     1
102
RTVSPropertyOp30
 70
     1
102
RTVSPropertyOp31
 70
     1
102
RTVSPropertyOp32
 70
     1
  0
ENDSEC
  0
EOF
