  0
SECTION
  2
HEADER
  9
$ACADVER
  1
AC1015
  9
$ACADMAINTVER
 70
     6
  9
$DWGCODEPAGE
  3
ANSI_1252
  9
$INSBASE
 10
0.0
 20
0.0
 30
0.0
  9
$EXTMIN
 10
0.0
 20
0.0
 30
0.0
  9
$EXTMAX
 10
210.0
 20
297.0
 30
0.0
  9
$LIMMIN
 10
0.0
 20
0.0
  9
$LIMMAX
 10
210.0
 20
297.0
  9
$ORTHOMODE
 70
     0
  9
$REGENMODE
 70
     1
  9
$FILLMODE
 70
     1
  9
$QTEXTMODE
 70
     0
  9
$MIRRTEXT
 70
     1
  9
$LTSCALE
 40
1.0
  9
$ATTMODE
 70
     1
  9
$TEXTSIZE
 40
2.5
  9
$TRACEWID
 40
1.0
  9
$TEXTSTYLE
  7
Standard
  9
$CLAYER
  8
0
  9
$CELTYPE
  6
ByLayer
  9
$CECOLOR
 62
   256
  9
$CELTSCALE
 40
1.0
  9
$DISPSILH
 70
     0
  9
$DIMSCALE
 40
1.0
  9
$DIMASZ
 40
2.5
  9
$DIMEXO
 40
0.625
  9
$DIMDLI
 40
3.75
  9
$DIMRND
 40
0.0
  9
$DIMDLE
 40
0.0
  9
$DIMEXE
 40
1.25
  9
$DIMTP
 40
0.0
  9
$DIMTM
 40
0.0
  9
$DIMTXT
 40
2.5
  9
$DIMCEN
 40
2.5
  9
$DIMTSZ
 40
0.0
  9
$DIMTOL
 70
     0
  9
$DIMLIM
 70
     0
  9
$DIMTIH
 70
     0
  9
$DIMTOH
 70
     0
  9
$DIMSE1
 70
     0
  9
$DIMSE2
 70
     0
  9
$DIMTAD
 70
     1
  9
$DIMZIN
 70
     8
  9
$DIMBLK
  1

  9
$DIMASO
 70
     1
  9
$DIMSHO
 70
     1
  9
$DIMPOST
  1

  9
$DIMAPOST
  1

  9
$DIMALT
 70
     0
  9
$DIMALTD
 70
     3
  9
$DIMALTF
 40
0.0393700787
  9
$DIMLFAC
 40
1.0
  9
$DIMTOFL
 70
     1
  9
$DIMTVP
 40
0.0
  9
$DIMTIX
 70
     0
  9
$DIMSOXD
 70
     0
  9
$DIMSAH
 70
     0
  9
$DIMBLK1
  1

  9
$DIMBLK2
  1

  9
$DIMSTYLE
  2
ISO-25
  9
$DIMCLRD
 70
     0
  9
$DIMCLRE
 70
     0
  9
$DIMCLRT
 70
     0
  9
$DIMTFAC
 40
1.0
  9
$DIMGAP
 40
0.625
  9
$DIMJUST
 70
     0
  9
$DIMSD1
 70
     0
  9
$DIMSD2
 70
     0
  9
$DIMTOLJ
 70
     0
  9
$DIMTZIN
 70
     8
  9
$DIMALTZ
 70
     0
  9
$DIMALTTZ
 70
     0
  9
$DIMUPT
 70
     0
  9
$DIMDEC
 70
     2
  9
$DIMTDEC
 70
     2
  9
$DIMALTU
 70
     2
  9
$DIMALTTD
 70
     3
  9
$DIMTXSTY
  7
Standard
  9
$DIMAUNIT
 70
     0
  9
$DIMADEC
 70
     0
  9
$DIMALTRND
 40
0.0
  9
$DIMAZIN
 70
     0
  9
$DIMDSEP
 70
    44
  9
$DIMATFIT
 70
     3
  9
$DIMFRAC
 70
     0
  9
$DIMLDRBLK
  1

  9
$DIMLUNIT
 70
     2
  9
$DIMLWD
 70
    -2
  9
$DIMLWE
 70
    -2
  9
$DIMTMOVE
 70
     0
  9
$LUNITS
 70
     2
  9
$LUPREC
 70
     4
  9
$SKETCHINC
 40
1.0
  9
$FILLETRAD
 40
10.0
  9
$AUNITS
 70
     0
  9
$AUPREC
 70
     0
  9
$MENU
  1
.
  9
$ELEVATION
 40
0.0
  9
$PELEVATION
 40
0.0
  9
$THICKNESS
 40
0.0
  9
$LIMCHECK
 70
     0
  9
$CHAMFERA
 40
10.0
  9
$CHAMFERB
 40
10.0
  9
$CHAMFERC
 40
20.0
  9
$CHAMFERD
 40
0.0
  9
$SKPOLY
 70
     0
  9
$TDCREATE
 40
2457567.440800382
  9
$TDUCREATE
 40
2457567.357467049
  9
$TDUPDATE
 40
2457567.440801829
  9
$TDUUPDATE
 40
2457567.357468495
  9
$TDINDWG
 40
0.0000000116
  9
$TDUSRTIMER
 40
0.0000000116
  9
$USRTIMER
 70
     1
  9
$ANGBASE
 50
0.0
  9
$ANGDIR
 70
     0
  9
$PDMODE
 70
     0
  9
$PDSIZE
 40
0.0
  9
$PLINEWID
 40
0.0
  9
$SPLFRAME
 70
     0
  9
$SPLINETYPE
 70
     6
  9
$SPLINESEGS
 70
     8
  9
$HANDSEED
  5
1AE
  9
$SURFTAB1
 70
     6
  9
$SURFTAB2
 70
     6
  9
$SURFTYPE
 70
     6
  9
$SURFU
 70
     6
  9
$SURFV
 70
     6
  9
$UCSBASE
  2

  9
$UCSNAME
  2

  9
$UCSORG
 10
0.0
 20
0.0
 30
0.0
  9
$UCSXDIR
 10
1.0
 20
0.0
 30
0.0
  9
$UCSYDIR
 10
0.0
 20
1.0
 30
0.0
  9
$UCSORTHOREF
  2

  9
$UCSORTHOVIEW
 70
     0
  9
$UCSORGTOP
 10
0.0
 20
0.0
 30
0.0
  9
$UCSORGBOTTOM
 10
0.0
 20
0.0
 30
0.0
  9
$UCSORGLEFT
 10
0.0
 20
0.0
 30
0.0
  9
$UCSORGRIGHT
 10
0.0
 20
0.0
 30
0.0
  9
$UCSORGFRONT
 10
0.0
 20
0.0
 30
0.0
  9
$UCSORGBACK
 10
0.0
 20
0.0
 30
0.0
  9
$PUCSBASE
  2

  9
$PUCSNAME
  2

  9
$PUCSORG
 10
0.0
 20
0.0
 30
0.0
  9
$PUCSXDIR
 10
1.0
 20
0.0
 30
0.0
  9
$PUCSYDIR
 10
0.0
 20
1.0
 30
0.0
  9
$PUCSORTHOREF
  2

  9
$PUCSORTHOVIEW
 70
     0
  9
$PUCSORGTOP
 10
0.0
 20
0.0
 30
0.0
  9
$PUCSORGBOTTOM
 10
0.0
 20
0.0
 30
0.0
  9
$PUCSORGLEFT
 10
0.0
 20
0.0
 30
0.0
  9
$PUCSORGRIGHT
 10
0.0
 20
0.0
 30
0.0
  9
$PUCSORGFRONT
 10
0.0
 20
0.0
 30
0.0
  9
$PUCSORGBACK
 10
0.0
 20
0.0
 30
0.0
  9
$USERI1
 70
     0
  9
$USERI2
 70
     0
  9
$USERI3
 70
     0
  9
$USERI4
 70
     0
  9
$USERI5
 70
     0
  9
$USERR1
 40
0.0
  9
$USERR2
 40
0.0
  9
$USERR3
 40
0.0
  9
$USERR4
 40
0.0
  9
$USERR5
 40
0.0
  9
$WORLDVIEW
 70
     1
  9
$SHADEDGE
 70
     3
  9
$SHADEDIF
 70
    70
  9
$TILEMODE
 70
     1
  9
$MAXACTVP
 70
    64
  9
$PINSBASE
 10
0.0
 20
0.0
 30
0.0
  9
$PLIMCHECK
 70
     0
  9
$PEXTMIN
 10
0.0
 20
0.0
 30
0.0
  9
$PEXTMAX
 10
210.0
 20
297.0
 30
0.0
  9
$PLIMMIN
 10
0.0
 20
0.0
  9
$PLIMMAX
 10
210.0
 20
297.0
  9
$UNITMODE
 70
     0
  9
$VISRETAIN
 70
     1
  9
$PLINEGEN
 70
     0
  9
$PSLTSCALE
 70
     1
  9
$TREEDEPTH
 70
  3020
  9
$CMLSTYLE
  2
Standard
  9
$CMLJUST
 70
     0
  9
$CMLSCALE
 40
20.0
  9
$PROXYGRAPHICS
 70
     1
  9
$MEASUREMENT
 70
     1
  9
$CELWEIGHT
370
    -1
  9
$ENDCAPS
280
     0
  9
$JOINSTYLE
280
     0
  9
$LWDISPLAY
290
     0
  9
$INSUNITS
 70
     4
  9
$HYPERLINKBASE
  1

  9
$STYLESHEET
  1

  9
$XEDIT
290
     1
  9
$CEPSNTYPE
380
     0
  9
$PSTYLEMODE
290
     1
  9
$FINGERPRINTGUID
  2
{C740870E-2EC7-4150-9BFF-55D5A53D8352}
  9
$VERSIONGUID
  2
{FAEB1C32-E019-11D5-929B-00C0DF256EC4}
  9
$EXTNAMES
290
     1
  9
$PSVPSCALE
 40
0.0
  9
$OLESTARTUP
290
     0
  0
ENDSEC
  0
SECTION
  2
CLASSES
  0
CLASS
  1
ACDBDICTIONARYWDFLT
  2
AcDbDictionaryWithDefault
  3
ObjectDBX Classes
 90
        0
280
     0
281
     0
  0
CLASS
  1
VISUALSTYLE
  2
AcDbVisualStyle
  3
ObjectDBX Classes
 90
     4095
280
     0
281
     0
  0
CLASS
  1
MATERIAL
  2
AcDbMaterial
  3
ObjectDBX Classes
 90
     1153
280
     0
281
     0
  0
CLASS
  1
DICTIONARYVAR
  2
AcDbDictionaryVar
  3
ObjectDBX Classes
 90
        0
280
     0
281
     0
  0
CLASS
  1
ACDBPLACEHOLDER
  2
AcDbPlaceHolder
  3
ObjectDBX Classes
 90
        0
280
     0
281
     0
  0
CLASS
  1
LAYOUT
  2
AcDbLayout
  3
ObjectDBX Classes
 90
        0
280
     0
281
     0
  0
ENDSEC
  0
SECTION
  2
TABLES
  0
TABLE
  2
VPORT
  5
8
330
0
100
AcDbSymbolTable
 70
     1
  0
VPORT
  5
29
330
8
100
AcDbSymbolTableRecord
100
AcDbViewportTableRecord
  2
*Active
 70
     0
 10
0.0
 20
0.0
 11
1.0
 21
1.0
 12
344.1869158879
 22
148.5
 13
0.0
 23
0.0
 14
10.0
 24
10.0
 15
10.0
 25
10.0
 16
0.0
 26
0.0
 36
1.0
 17
0.0
 27
0.0
 37
0.0
 40
297.0
 41
1.9729729729
 42
50.0
 43
0.0
 44
0.0
 50
0.0
 51
0.0
 71
     0
 72
   100
 73
     1
 74
     3
 75
     0
 76
     0
 77
     0
 78
     0
281
     0
 65
     1
110
0.0
120
0.0
130
0.0
111
1.0
121
0.0
131
0.0
112
0.0
122
1.0
132
0.0
 79
     0
146
0.0
  0
ENDTAB
  0
TABLE
  2
LTYPE
  5
5
330
0
100
AcDbSymbolTable
 70
     2
  0
LTYPE
  5
14
330
5
100
AcDbSymbolTableRecord
100
AcDbLinetypeTableRecord
  2
ByBlock
 70
     0
  3

 72
    65
 73
     0
 40
0.0
  0
LTYPE
  5
15
330
5
100
AcDbSymbolTableRecord
100
AcDbLinetypeTableRecord
  2
ByLayer
 70
     0
  3

 72
    65
 73
     0
 40
0.0
  0
LTYPE
  5
16
330
5
100
AcDbSymbolTableRecord
100
AcDbLinetypeTableRecord
  2
Continuous
 70
     0
  3
Solid line
 72
    65
 73
     0
 40
0.0
  0
LTYPE
  5
54
330
5
100
AcDbSymbolTableRecord
100
AcDbLinetypeTableRecord
  2
HIDDEN2
 70
     0
  3
Hidden (.5x) _ _ _ _ _ _ _ _ _ _ _ _ _ _ _ _ _ 
 72
    65
 73
     2
 40
4.7625
 49
3.175
 74
     4
 75
     0
340
0
 46
0.0
 50
0.0
 44
0.0
 45
0.0
 49
-1.5875
 74
     4
 75
     0
340
0
 46
0.0
 50
0.0
 44
0.0
 45
0.0
  0
ENDTAB
  0
TABLE
  2
LAYER
  5
2
330
0
100
AcDbSymbolTable
 70
     5
  0
LAYER
  5
10
330
2
100
AcDbSymbolTableRecord
100
AcDbLayerTableRecord
  2
0
 70
     0
 62
     7
  6
Continuous
370
    -3
390
F
  0
LAYER
  5
3F
330
2
100
AcDbSymbolTableRecord
100
AcDbLayerTableRecord
  2
SK1
 70
     0
 62
     4
  6
Continuous
370
    18
390
F
  0
LAYER
  5
53
330
2
100
AcDbSymbolTableRecord
100
AcDbLayerTableRecord
  2
SK3
 70
     0
 62
     1
  6
HIDDEN2
370
    15
390
F
  0
LAYER
  5
12A
330
2
100
AcDbSymbolTableRecord
100
AcDbLayerTableRecord
  2
SK4
 70
     0
 62
     2
  6
Continuous
370
    13
390
F
  0
LAYER
  5
12C
330
2
100
AcDbSymbolTableRecord
100
AcDbLayerTableRecord
  2
SK2
 70
     0
 62
     7
  6
Continuous
370
    15
390
F
  0
ENDTAB
  0
TABLE
  2
STYLE
  5
3
330
0
100
AcDbSymbolTable
 70
     2
  0
STYLE
  5
11
330
3
100
AcDbSymbolTableRecord
100
AcDbTextStyleTableRecord
  2
Standard
 70
     0
 40
0.0
 41
1.0
 50
0.0
 71
     0
 42
2.5
  3
txt
  4

  0
STYLE
  5
13F
330
3
100
AcDbSymbolTableRecord
100
AcDbTextStyleTableRecord
  2
SEACAD_Solid_Edge_ISO
 70
     0
 40
0.0
 41
1.0
 50
0.0
 71
     0
 42
0.2
  3
seiso.ttf
  4

1001
ACAD
1000
Solid Edge ISO
1071
        0
  0
ENDTAB
  0
TABLE
  2
VIEW
  5
6
330
0
100
AcDbSymbolTable
 70
     0
  0
ENDTAB
  0
TABLE
  2
UCS
  5
7
330
0
100
AcDbSymbolTable
 70
     0
  0
ENDTAB
  0
TABLE
  2
APPID
  5
9
330
0
100
AcDbSymbolTable
 70
     1
  0
APPID
  5
12
330
9
100
AcDbSymbolTableRecord
100
AcDbRegAppTableRecord
  2
ACAD
 70
     0
  0
ENDTAB
  0
TABLE
  2
DIMSTYLE
  5
A
330
0
100
AcDbSymbolTable
 70
     3
100
AcDbDimStyleTable
  0
DIMSTYLE
105
27
330
A
100
AcDbSymbolTableRecord
100
AcDbDimStyleTableRecord
  2
ISO-25
 70
     0
 41
2.5
 42
0.625
 43
3.75
 44
1.25
 73
     0
 74
     0
 77
     1
 78
     8
140
2.5
141
2.5
143
0.0393700787
147
0.625
171
     3
172
     1
178
     0
271
     2
272
     2
274
     3
278
    44
283
     0
284
     8
340
11
  0
DIMSTYLE
105
12D
330
A
100
AcDbSymbolTableRecord
100
AcDbDimStyleTableRecord
  2
Standard
 70
     0
178
     0
340
11
  0
DIMSTYLE
105
140
102
{ACAD_REACTORS
330
141
330
161
330
16C
330
176
102
}
330
A
100
AcDbSymbolTableRecord
100
AcDbDimStyleTableRecord
  2
DIN
 70
     0
 41
3.5
 42
0.0
 44
1.75
 73
     0
 74
     0
 77
     1
 78
     8
140
3.5
141
1.75
147
1.75
172
     1
173
     1
178
     0
179
     3
271
     2
272
     2
278
    44
284
     8
340
13F
343
13A
344
13A
  0
ENDTAB
  0
TABLE
  2
BLOCK_RECORD
  5
1
330
0
100
AcDbSymbolTable
 70
    10
  0
BLOCK_RECORD
  5
1F
330
1
100
AcDbSymbolTableRecord
100
AcDbBlockTableRecord
  2
*Model_Space
340
22
  0
BLOCK_RECORD
  5
1B
330
1
100
AcDbSymbolTableRecord
100
AcDbBlockTableRecord
  2
*Paper_Space
340
1E
  0
BLOCK_RECORD
  5
12E
330
1
100
AcDbSymbolTableRecord
100
AcDbBlockTableRecord
  2
_OBLIQUE
340
0
  0
BLOCK_RECORD
  5
132
330
1
100
AcDbSymbolTableRecord
100
AcDbBlockTableRecord
  2
_DOT
340
0
  0
BLOCK_RECORD
  5
13A
330
1
100
AcDbSymbolTableRecord
100
AcDbBlockTableRecord
  2
_SE_FILLED
340
0
  0
BLOCK_RECORD
  5
142
330
1
100
AcDbSymbolTableRecord
100
AcDbBlockTableRecord
  2
DMBLK81
340
0
  0
BLOCK_RECORD
  5
14B
330
1
100
AcDbSymbolTableRecord
100
AcDbBlockTableRecord
  2
Nullpunkt
340
0
102
{BLKREFS
331
155
102
}
  0
BLOCK_RECORD
  5
156
330
1
100
AcDbSymbolTableRecord
100
AcDbBlockTableRecord
  2
Einfügepunkt
340
0
102
{BLKREFS
331
160
102
}
  0
BLOCK_RECORD
  5
162
330
1
100
AcDbSymbolTableRecord
100
AcDbBlockTableRecord
  2
DMBLK82
340
0
  0
BLOCK_RECORD
  5
16D
330
1
100
AcDbSymbolTableRecord
100
AcDbBlockTableRecord
  2
DMBLK83
340
0
  0
BLOCK_RECORD
  5
177
330
1
100
AcDbSymbolTableRecord
100
AcDbBlockTableRecord
  2
DMBLK84
340
0
  0
ENDTAB
  0
ENDSEC
  0
SECTION
  2
BLOCKS
  0
BLOCK
  5
20
330
1F
100
AcDbEntity
  8
0
100
AcDbBlockBegin
  2
*Model_Space
 70
     0
 10
0.0
 20
0.0
 30
0.0
  3
*Model_Space
  1

  0
ENDBLK
  5
21
330
1F
100
AcDbEntity
  8
0
100
AcDbBlockEnd
  0
BLOCK
  5
1C
330
1B
100
AcDbEntity
 67
     1
  8
0
100
AcDbBlockBegin
  2
*Paper_Space
 70
     0
 10
0.0
 20
0.0
 30
0.0
  3
*Paper_Space
  1

  0
ENDBLK
  5
1D
330
1B
100
AcDbEntity
 67
     1
  8
0
100
AcDbBlockEnd
  0
BLOCK
  5
12F
330
12E
100
AcDbEntity
  8
0
100
AcDbBlockBegin
  2
_OBLIQUE
 70
     0
 10
0.0
 20
0.0
 30
0.0
  3
_OBLIQUE
  1

  0
LINE
  5
131
330
12E
100
AcDbEntity
  8
0
  6
ByBlock
 62
     0
370
    -2
100
AcDbLine
 10
-0.5
 20
-0.5
 30
0.0
 11
0.5
 21
0.5
 31
0.0
  0
ENDBLK
  5
130
330
12E
100
AcDbEntity
  8
0
100
AcDbBlockEnd
  0
BLOCK
  5
133
330
132
100
AcDbEntity
  8
0
100
AcDbBlockBegin
  2
_DOT
 70
     0
 10
0.0
 20
0.0
 30
0.0
  3
_DOT
  1

  0
POLYLINE
  5
135
330
132
100
AcDbEntity
  8
0
  6
ByBlock
 62
     0
100
AcDb2dPolyline
 66
     1
 10
0.0
 20
0.0
 30
0.0
 70
     1
 40
0.5
 41
0.5
  0
VERTEX
  5
137
330
135
100
AcDbEntity
  8
0
  6
ByBlock
 62
     0
100
AcDbVertex
100
AcDb2dVertex
 10
-0.25
 20
0.0
 30
0.0
 42
1.0
  0
VERTEX
  5
138
330
135
100
AcDbEntity
  8
0
  6
ByBlock
 62
     0
100
AcDbVertex
100
AcDb2dVertex
 10
0.25
 20
0.0
 30
0.0
 42
1.0
  0
SEQEND
  5
139
330
135
100
AcDbEntity
  8
0
  6
ByBlock
 62
     0
  0
LINE
  5
136
330
132
100
AcDbEntity
  8
0
  6
ByBlock
 62
     0
370
    -2
100
AcDbLine
 10
-0.5
 20
0.0
 30
0.0
 11
-1.0
 21
0.0
 31
0.0
  0
ENDBLK
  5
134
330
132
100
AcDbEntity
  8
0
100
AcDbBlockEnd
  0
BLOCK
  5
13D
330
13A
100
AcDbEntity
  8
0
100
AcDbBlockBegin
  2
_SE_FILLED
 70
     0
 10
0.0
 20
0.0
 30
0.0
  3
_SE_FILLED
  1

  0
SOLID
  5
13B
330
13A
100
AcDbEntity
  8
0
 62
     0
100
AcDbTrace
 10
0.0
 20
0.0
 30
0.0
 11
-1.0
 21
-0.1665
 31
0.0
 12
-1.0
 22
0.1665
 32
0.0
 13
0.0
 23
0.0
 33
0.0
  0
LINE
  5
13C
330
13A
100
AcDbEntity
  8
0
 62
     0
100
AcDbLine
 10
0.0
 20
0.0
 30
0.0
 11
-1.0
 21
0.0
 31
0.0
  0
ENDBLK
  5
13E
330
13A
100
AcDbEntity
  8
0
100
AcDbBlockEnd
  0
BLOCK
  5
149
330
142
100
AcDbEntity
  8
0
100
AcDbBlockBegin
  2
DMBLK81
 70
     0
 10
0.0
 20
0.0
 30
0.0
  3
DMBLK81
  1

  0
HATCH
  5
143
330
142
100
AcDbEntity
  8
SK2
  6
Continuous
 62
   136
100
AcDbHatch
 10
0.0
 20
0.0
 30
0.0
210
0.0
220
0.0
230
1.0
  2
SOLID
 70
     1
 71
     0
 91
        1
 92
        1
 93
        3
 72
     1
 10
-23.83999989196668
 20
27.31358062836949
 11
-27.3400000000001
 21
26.73024727703059
 72
     1
 10
-27.3400000000001
 20
26.73024727703059
 11
-23.83999989196668
 21
26.14691392569168
 72
     1
 10
-23.83999989196668
 20
26.14691392569168
 11
-23.83999989196668
 21
27.31358062836949
 97
        0
 75
     0
 76
     1
 98
        0
  0
HATCH
  5
144
330
142
100
AcDbEntity
  8
SK2
  6
Continuous
 62
   136
100
AcDbHatch
 10
0.0
 20
0.0
 30
0.0
210
0.0
220
0.0
230
1.0
  2
SOLID
 70
     1
 71
     0
 91
        1
 92
        1
 93
        3
 72
     1
 10
9.159998997896812
 20
27.31358062836949
 11
9.159998997896812
 21
26.14691392569168
 72
     1
 10
9.159998997896812
 20
26.14691392569168
 11
12.65999910593023
 21
26.73024727703059
 72
     1
 10
12.65999910593023
 20
26.73024727703059
 11
9.159998997896812
 21
27.31358062836949
 97
        0
 75
     0
 76
     1
 98
        0
  0
LINE
  5
145
330
142
100
AcDbEntity
  8
SK2
  6
Continuous
 62
   136
100
AcDbLine
 10
-27.34
 20
11.8897757188
 30
0.0
 11
-27.34
 21
28.480247331
 31
0.0
  0
LINE
  5
146
330
142
100
AcDbEntity
  8
SK2
  6
Continuous
 62
   136
100
AcDbLine
 10
12.66
 20
13.3552360339
 30
0.0
 11
12.66
 21
28.480247331
 31
0.0
  0
LINE
  5
147
330
142
100
AcDbEntity
  8
SK2
  6
Continuous
 62
   136
100
AcDbLine
 10
-27.34
 20
26.730247277
 30
0.0
 11
12.6599991059
 21
26.730247277
 31
0.0
  0
TEXT
  5
148
330
142
100
AcDbEntity
  8
SK2
  6
Continuous
 62
   136
100
AcDbText
 10
-9.4081822652
 20
27.605247277
 30
0.0
 40
3.5
  1
40
  7
SEACAD_Solid_Edge_ISO
 11
-9.4081822652
 21
31.105247277
 31
0.0
100
AcDbText
 73
     3
  0
ENDBLK
  5
14A
330
142
100
AcDbEntity
  8
0
100
AcDbBlockEnd
  0
BLOCK
  5
153
330
14B
100
AcDbEntity
  8
0
100
AcDbBlockBegin
  2
Nullpunkt
 70
     0
 10
0.0
 20
0.0
 30
0.0
  3
Nullpunkt
  1

  0
HATCH
  5
14C
330
14B
100
AcDbEntity
  8
SK2
  6
Continuous
 62
     7
100
AcDbHatch
 10
0.0
 20
0.0
 30
0.0
210
0.0
220
0.0
230
1.0
  2
SOLID
 70
     1
 71
     0
 91
        1
 92
        1
 93
        3
 72
     1
 10
-1.0
 20
0.0
 11
0.0000000000000009
 21
0.0
 72
     1
 10
0.0
 20
0.0
 11
0.0
 21
1.000000000000001
 72
     2
 10
0.0
 20
0.0
 40
1.0
 50
90.0
 51
180.0
 73
     1
 97
        0
 75
     0
 76
     1
 98
        0
  0
HATCH
  5
14D
330
14B
100
AcDbEntity
  8
SK2
  6
Continuous
 62
     7
100
AcDbHatch
 10
0.0
 20
0.0
 30
0.0
210
0.0
220
0.0
230
1.0
  2
SOLID
 70
     1
 71
     0
 91
        1
 92
        1
 93
        3
 72
     2
 10
0.0
 20
0.0
 40
1.0
 50
270.0
 51
360.0
 73
     1
 72
     1
 10
1.0
 20
0.0
 11
-0.0000000000000009
 21
0.0
 72
     1
 10
0.0
 20
0.0
 11
0.0
 21
-1.000000000000001
 97
        0
 75
     0
 76
     1
 98
        0
  0
CIRCLE
  5
14E
330
14B
100
AcDbEntity
  8
SK2
  6
Continuous
 62
     7
100
AcDbCircle
 10
0.0
 20
0.0
 30
0.0
 40
1.0
  0
LINE
  5
14F
330
14B
100
AcDbEntity
  8
SK1
  6
Continuous
100
AcDbLine
 10
-1.0
 20
0.0
 30
0.0
 11
1.0
 21
0.0
 31
0.0
  0
LINE
  5
150
330
14B
100
AcDbEntity
  8
SK1
  6
Continuous
100
AcDbLine
 10
0.0
 20
1.0
 30
0.0
 11
0.0
 21
-1.0
 31
0.0
  0
POINT
  5
151
330
14B
100
AcDbEntity
  8
SK1
  6
Continuous
100
AcDbPoint
 10
0.0
 20
0.0
 30
0.0
  0
POINT
  5
152
330
14B
100
AcDbEntity
  8
SK1
  6
Continuous
100
AcDbPoint
 10
0.0
 20
0.0
 30
0.0
  0
ENDBLK
  5
154
330
14B
100
AcDbEntity
  8
0
100
AcDbBlockEnd
  0
BLOCK
  5
15E
330
156
100
AcDbEntity
  8
0
100
AcDbBlockBegin
  2
Einfügepunkt
 70
     0
 10
0.0
 20
0.0
 30
0.0
  3
Einfügepunkt
  1

  0
HATCH
  5
157
330
156
100
AcDbEntity
  8
SK2
  6
Continuous
 62
     7
100
AcDbHatch
 10
0.0
 20
0.0
 30
0.0
210
0.0
220
0.0
230
1.0
  2
SOLID
 70
     1
 71
     0
 91
        1
 92
        1
 93
        3
 72
     1
 10
-0.4502381196756744
 20
-0.0000000000000018
 11
0.0000000000000033
 21
-0.0000000000000018
 72
     1
 10
0.0
 20
-0.0000000000000018
 11
0.0
 21
0.4502381196756812
 72
     2
 10
0.0
 20
-0.0000000000000018
 40
0.4502381196756812
 50
90.0
 51
180.0
 73
     1
 97
        0
 75
     0
 76
     1
 98
        0
  0
HATCH
  5
158
330
156
100
AcDbEntity
  8
SK2
  6
Continuous
 62
     7
100
AcDbHatch
 10
0.0
 20
0.0
 30
0.0
210
0.0
220
0.0
230
1.0
  2
SOLID
 70
     1
 71
     0
 91
        1
 92
        1
 93
        3
 72
     2
 10
0.0
 20
-0.0000000000000018
 40
0.4502381196756812
 50
270.0
 51
360.0
 73
     1
 72
     1
 10
0.4502381196756815
 20
-0.0000000000000018
 11
0.0000000000000038
 21
-0.0000000000000018
 72
     1
 10
0.0
 20
-0.0000000000000018
 11
0.0
 21
-0.4502381196756812
 97
        0
 75
     0
 76
     1
 98
        0
  0
CIRCLE
  5
159
330
156
100
AcDbEntity
  8
SK2
  6
Continuous
 62
     7
100
AcDbCircle
 10
0.0
 20
0.0
 30
0.0
 40
0.4502381196756812
  0
LINE
  5
15A
330
156
100
AcDbEntity
  8
SK1
  6
Continuous
100
AcDbLine
 10
-0.4502381197
 20
0.0
 30
0.0
 11
0.4502381197
 21
0.0
 31
0.0
  0
LINE
  5
15B
330
156
100
AcDbEntity
  8
SK1
  6
Continuous
100
AcDbLine
 10
0.0
 20
0.4502381197
 30
0.0
 11
0.0
 21
-0.4502381197
 31
0.0
  0
POINT
  5
15C
330
156
100
AcDbEntity
  8
SK2
  6
Continuous
 62
     7
100
AcDbPoint
 10
0.0
 20
0.0
 30
0.0
  0
POINT
  5
15D
330
156
100
AcDbEntity
  8
SK2
  6
Continuous
 62
     7
100
AcDbPoint
 10
0.0
 20
0.0
 30
0.0
  0
ENDBLK
  5
15F
330
156
100
AcDbEntity
  8
0
100
AcDbBlockEnd
  0
BLOCK
  5
16A
330
162
100
AcDbEntity
  8
0
100
AcDbBlockBegin
  2
DMBLK82
 70
     0
 10
0.0
 20
0.0
 30
0.0
  3
DMBLK82
  1

  0
HATCH
  5
163
330
162
100
AcDbEntity
  8
SK2
  6
Continuous
 62
   136
100
AcDbHatch
 10
0.0
 20
0.0
 30
0.0
210
0.0
220
0.0
230
1.0
  2
SOLID
 70
     1
 71
     0
 91
        1
 92
        1
 93
        3
 72
     1
 10
23.24333337965112
 20
-11.44000000826272
 11
22.66000002831221
 21
-7.939999900229303
 72
     1
 10
22.66000002831221
 20
-7.939999900229302
 11
22.07666667697331
 21
-11.44000000826272
 72
     1
 10
22.07666667697331
 20
-11.44000000826272
 11
23.24333337965112
 21
-11.44000000826272
 97
        0
 75
     0
 76
     1
 98
        0
  0
HATCH
  5
164
330
162
100
AcDbEntity
  8
SK2
  6
Continuous
 62
   136
100
AcDbHatch
 10
0.0
 20
0.0
 30
0.0
210
0.0
220
0.0
230
1.0
  2
SOLID
 70
     1
 71
     0
 91
        1
 92
        1
 93
        3
 72
     1
 10
23.24333337965112
 20
11.44000020780412
 11
22.07666667697331
 21
11.44000020780412
 72
     1
 10
22.07666667697331
 20
11.44000020780412
 11
22.66000002831221
 21
7.9400000997707
 72
     1
 10
22.66000002831221
 20
7.9400000997707
 11
23.24333337965112
 21
11.44000020780412
 97
        0
 75
     0
 76
     1
 98
        0
  0
LINE
  5
165
330
162
100
AcDbEntity
  8
SK2
  6
Continuous
 62
   136
100
AcDbLine
 10
12.26
 20
-7.9399999002
 30
0.0
 11
24.4100000823
 21
-7.9399999002
 31
0.0
  0
LINE
  5
166
330
162
100
AcDbEntity
  8
SK2
  6
Continuous
 62
   136
100
AcDbLine
 10
12.26
 20
7.9400000998
 30
0.0
 11
24.4100000823
 21
7.9400000998
 31
0.0
  0
LINE
  5
167
330
162
100
AcDbEntity
  8
SK2
  6
Continuous
 62
   136
100
AcDbLine
 10
22.6600000283
 20
-14.9400001163
 30
0.0
 11
22.6600000283
 21
26.6108792504
 31
0.0
  0
TEXT
  5
168
330
162
100
AcDbEntity
  8
SK2
  6
Continuous
 62
   136
100
AcDbText
 10
21.7850000283
 20
16.8745157956
 30
0.0
 40
3.5
  1
15,88
 50
90.0
  7
SEACAD_Solid_Edge_ISO
 11
18.2850000283
 21
16.8745157956
 31
0.0
100
AcDbText
 73
     3
  0
TEXT
  5
169
330
162
100
AcDbEntity
  8
SK2
  6
Continuous
 62
   136
100
AcDbText
 10
21.7850000283
 20
12.8017885228
 30
0.0
 40
3.5
  1
ø
 50
90.0
  7
SEACAD_Solid_Edge_ISO
 11
18.2850000283
 21
12.8017885228
 31
0.0
100
AcDbText
 73
     3
  0
ENDBLK
  5
16B
330
162
100
AcDbEntity
  8
0
100
AcDbBlockEnd
  0
BLOCK
  5
174
330
16D
100
AcDbEntity
  8
0
100
AcDbBlockBegin
  2
DMBLK83
 70
     0
 10
0.0
 20
0.0
 30
0.0
  3
DMBLK83
  1

  0
HATCH
  5
16E
330
16D
100
AcDbEntity
  8
SK2
  6
Continuous
 62
   136
100
AcDbHatch
 10
0.0
 20
0.0
 30
0.0
210
0.0
220
0.0
230
1.0
  2
SOLID
 70
     1
 71
     0
 91
        1
 92
        1
 93
        3
 72
     1
 10
-3.500000108033415
 20
-24.78584007221023
 11
0.0000000000000036
 21
-24.20250672087133
 72
     1
 10
0.0000000000000035
 20
-24.20250672087133
 11
-3.500000108033415
 21
-23.61917336953242
 72
     1
 10
-3.500000108033415
 20
-23.61917336953242
 11
-3.500000108033415
 21
-24.78584007221023
 97
        0
 75
     0
 76
     1
 98
        0
  0
HATCH
  5
16F
330
16D
100
AcDbEntity
  8
SK2
  6
Continuous
 62
   136
100
AcDbHatch
 10
0.0
 20
0.0
 30
0.0
210
0.0
220
0.0
230
1.0
  2
SOLID
 70
     1
 71
     0
 91
        1
 92
        1
 93
        3
 72
     1
 10
16.16000010803342
 20
-24.78584007221023
 11
16.16000010803342
 21
-23.61917336953242
 72
     1
 10
16.16000010803342
 20
-23.61917336953242
 11
12.66
 21
-24.20250672087133
 72
     1
 10
12.66
 20
-24.20250672087133
 11
16.16000010803342
 21
-24.78584007221023
 97
        0
 75
     0
 76
     1
 98
        0
  0
LINE
  5
170
330
16D
100
AcDbEntity
  8
SK2
  6
Continuous
 62
   136
100
AcDbLine
 10
0.0
 20
-15.9996745287
 30
0.0
 11
0.0
 21
-25.9525067749
 31
0.0
  0
LINE
  5
171
330
16D
100
AcDbEntity
  8
SK2
  6
Continuous
 62
   136
100
AcDbLine
 10
12.66
 20
-12.4861669934
 30
0.0
 11
12.66
 21
-25.9525067749
 31
0.0
  0
LINE
  5
172
330
16D
100
AcDbEntity
  8
SK2
  6
Continuous
 62
   136
100
AcDbLine
 10
-7.0000002161
 20
-24.2025067209
 30
0.0
 11
19.659999758
 21
-24.2025067209
 31
0.0
  0
TEXT
  5
173
330
16D
100
AcDbEntity
  8
SK2
  6
Continuous
 62
   136
100
AcDbText
 10
2.0743179528
 20
-23.3275067209
 30
0.0
 40
3.5
  1
12,66
  7
SEACAD_Solid_Edge_ISO
 11
2.0743179528
 21
-19.8275067209
 31
0.0
100
AcDbText
 73
     3
  0
ENDBLK
  5
175
330
16D
100
AcDbEntity
  8
0
100
AcDbBlockEnd
  0
BLOCK
  5
17F
330
177
100
AcDbEntity
  8
0
100
AcDbBlockBegin
  2
DMBLK84
 70
     0
 10
0.0
 20
0.0
 30
0.0
  3
DMBLK84
  1

  0
HATCH
  5
178
330
177
100
AcDbEntity
  8
SK2
  6
Continuous
 62
   136
100
AcDbHatch
 10
0.0
 20
0.0
 30
0.0
210
0.0
220
0.0
230
1.0
  2
SOLID
 70
     1
 71
     0
 91
        1
 92
        1
 93
        3
 72
     1
 10
-36.05890778514246
 20
12.49967462019676
 11
-34.89224108246466
 21
12.49967462019676
 72
     1
 10
-34.89224108246466
 20
12.49967462019676
 11
-35.47557443380356
 21
15.99967472823018
 72
     1
 10
-35.47557443380356
 20
15.99967472823018
 11
-36.05890778514246
 21
12.49967462019676
 97
        0
 75
     0
 76
     1
 98
        0
  0
HATCH
  5
179
330
177
100
AcDbEntity
  8
SK2
  6
Continuous
 62
   136
100
AcDbHatch
 10
0.0
 20
0.0
 30
0.0
210
0.0
220
0.0
230
1.0
  2
SOLID
 70
     1
 71
     0
 91
        1
 92
        1
 93
        3
 72
     1
 10
-36.05890778514246
 20
-12.49967475785261
 11
-35.47557443380356
 21
-15.99967486588603
 72
     1
 10
-35.47557443380356
 20
-15.99967486588603
 11
-34.89224108246466
 21
-12.49967475785261
 72
     1
 10
-34.89224108246466
 20
-12.49967475785261
 11
-36.05890778514246
 21
-12.49967475785261
 97
        0
 75
     0
 76
     1
 98
        0
  0
LINE
  5
17A
330
177
100
AcDbEntity
  8
SK2
  6
Continuous
 62
   136
100
AcDbLine
 10
0.0
 20
15.9996747282
 30
0.0
 11
-37.2255744878
 21
15.9996747282
 31
0.0
  0
LINE
  5
17B
330
177
100
AcDbEntity
  8
SK2
  6
Continuous
 62
   136
100
AcDbLine
 10
0.0
 20
-15.9996745287
 30
0.0
 11
-37.2255744878
 21
-15.9996745287
 31
0.0
  0
LINE
  5
17C
330
177
100
AcDbEntity
  8
SK2
  6
Continuous
 62
   136
100
AcDbLine
 10
-35.4755744338
 20
15.9996747282
 30
0.0
 11
-35.4755744338
 21
-15.9996748659
 31
0.0
  0
TEXT
  5
17D
330
177
100
AcDbEntity
  8
SK2
  6
Continuous
 62
   136
100
AcDbText
 10
-36.3505744338
 20
0.0477272039
 30
0.0
 40
3.5
  1
32
 50
90.0
  7
SEACAD_Solid_Edge_ISO
 11
-39.8505744338
 21
0.0477272039
 31
0.0
100
AcDbText
 73
     3
  0
TEXT
  5
17E
330
177
100
AcDbEntity
  8
SK2
  6
Continuous
 62
   136
100
AcDbText
 10
-36.3505744338
 20
-4.0250000688
 30
0.0
 40
3.5
  1
ø
 50
90.0
  7
SEACAD_Solid_Edge_ISO
 11
-39.8505744338
 21
-4.0250000688
 31
0.0
100
AcDbText
 73
     3
  0
ENDBLK
  5
180
330
177
100
AcDbEntity
  8
0
100
AcDbBlockEnd
  0
ENDSEC
  0
SECTION
  2
ENTITIES
  0
LINE
  5
40
330
1F
100
AcDbEntity
  8
SK1
  6
Continuous
100
AcDbLine
 10
3.76
 20
13.3305045976
 30
0.0
 11
3.76
 21
5.9546327362
 31
0.0
  0
LINE
  5
41
330
1F
100
AcDbEntity
  8
SK1
  6
Continuous
100
AcDbLine
 10
6.96
 20
-13.6366511439
 30
0.0
 11
6.96
 21
-14.5999999002
 31
0.0
  0
LINE
  5
42
330
1F
100
AcDbEntity
  8
SK1
  6
Continuous
100
AcDbLine
 10
3.56
 20
14.9141997093
 30
0.0
 11
3.56
 21
15.9823343165
 31
0.0
  0
LINE
  5
43
330
1F
100
AcDbEntity
  8
SK1
  6
Continuous
100
AcDbLine
 10
3.0473721046
 20
15.32602499
 30
0.0
 11
3.0473721046
 21
16.4279549475
 31
0.0
  0
LINE
  5
44
330
1F
100
AcDbEntity
  8
SK1
  6
Continuous
100
AcDbLine
 10
12.535
 20
-13.5717422033
 30
0.0
 11
12.535
 21
-12.6862811235
 31
0.0
  0
LINE
  5
45
330
1F
100
AcDbEntity
  8
SK1
  6
Continuous
100
AcDbLine
 10
7.4631088913
 20
15.3926056849
 30
0.0
 11
7.4631088913
 21
16.5000000998
 31
0.0
  0
LINE
  5
46
330
1F
100
AcDbEntity
  8
SK1
  6
Continuous
100
AcDbLine
 10
7.16
 20
15.3926056849
 30
0.0
 11
7.16
 21
16.5000000998
 31
0.0
  0
LINE
  5
47
330
1F
100
AcDbEntity
  8
SK1
  6
Continuous
100
AcDbLine
 10
7.4631088913
 20
-15.3926054854
 30
0.0
 11
7.4631088913
 21
-16.4999999002
 31
0.0
  0
LINE
  5
48
330
1F
100
AcDbEntity
  8
SK1
  6
Continuous
100
AcDbLine
 10
7.16
 20
-15.3926054854
 30
0.0
 11
7.16
 21
-16.4999999002
 31
0.0
  0
LINE
  5
49
330
1F
100
AcDbEntity
  8
SK1
  6
Continuous
100
AcDbLine
 10
7.4631088913
 20
15.3926056849
 30
0.0
 11
7.16
 21
15.3926056849
 31
0.0
  0
LINE
  5
4A
330
1F
100
AcDbEntity
  8
SK1
  6
Continuous
100
AcDbLine
 10
7.4631088913
 20
15.086458939
 30
0.0
 11
7.16
 21
15.086458939
 31
0.0
  0
LINE
  5
4B
330
1F
100
AcDbEntity
  8
SK1
  6
Continuous
100
AcDbLine
 10
12.66
 20
12.180020447
 30
0.0
 11
12.66
 21
5.4780865977
 31
0.0
  0
LINE
  5
4C
330
1F
100
AcDbEntity
  8
SK1
  6
Continuous
100
AcDbLine
 10
12.535
 20
13.5717424029
 30
0.0
 11
12.535
 21
12.6862813231
 31
0.0
  0
LINE
  5
4D
330
1F
100
AcDbEntity
  8
SK1
  6
Continuous
100
AcDbLine
 10
3.56
 20
-14.9141995098
 30
0.0
 11
3.56
 21
-15.982334117
 31
0.0
  0
LINE
  5
4E
330
1F
100
AcDbEntity
  8
SK1
  6
Continuous
100
AcDbLine
 10
3.0473721046
 20
-15.3260247905
 30
0.0
 11
3.0473721046
 21
-16.4279547479
 31
0.0
  0
LINE
  5
4F
330
1F
100
AcDbEntity
  8
SK1
  6
Continuous
100
AcDbLine
 10
6.96
 20
14.6000000998
 30
0.0
 11
6.96
 21
13.6366513435
 31
0.0
  0
ARC
  5
50
330
1F
100
AcDbEntity
  8
SK1
  6
Continuous
100
AcDbCircle
 10
3.7527009685
 20
13.5232284246
 30
0.0
 40
0.1928619956239739
100
AcDbArc
 50
182.3414991378
 51
272.1689270375
  0
LINE
  5
51
330
1F
100
AcDbEntity
  8
SK1
  6
Continuous
100
AcDbLine
 10
3.76
 20
13.3305045976
 30
0.0
 11
6.96
 21
13.3305045976
 31
0.0
  0
ARC
  5
52
330
1F
100
AcDbEntity
  8
SK1
  6
Continuous
100
AcDbCircle
 10
6.9672932853
 20
13.5232346419
 30
0.0
 40
0.1928679911219356
100
AcDbArc
 50
267.8328486851
 51
357.6567251494
  0
LINE
  5
55
330
1F
100
AcDbEntity
  8
SK3
100
AcDbLine
 10
12.26
 20
7.1732156914
 30
0.0
 11
-22.6280853001
 21
7.1732156914
 31
0.0
  0
ARC
  5
56
330
1F
100
AcDbEntity
  8
SK3
100
AcDbCircle
 10
12.2744376588
 20
7.8649704125
 30
0.0
 40
0.3858781627968026
100
AcDbArc
 50
267.8557738679
 51
357.6817349519
  0
LINE
  5
57
330
1F
100
AcDbEntity
  8
SK1
  6
Continuous
100
AcDbLine
 10
12.66
 20
12.180020447
 30
0.0
 11
12.66
 21
12.4861671929
 31
0.0
  0
ARC
  5
58
330
1F
100
AcDbEntity
  8
SK1
  6
Continuous
100
AcDbCircle
 10
12.4315505616
 20
12.4825650122
 30
0.0
 40
0.2284778361298308
100
AcDbArc
 50
0.9033624596
 51
63.0780264505
  0
LINE
  5
59
330
1F
100
AcDbEntity
  8
SK1
  6
Continuous
100
AcDbLine
 10
12.535
 20
12.6862813231
 30
0.0
 11
7.4631088913
 21
15.3926056849
 31
0.0
  0
ARC
  5
5A
330
1F
100
AcDbEntity
  8
SK1
  6
Continuous
100
AcDbCircle
 10
3.12114953
 20
14.8928963004
 30
0.0
 40
0.4393672384933542
100
AcDbArc
 50
2.779165305
 51
99.6667570996
  0
SPLINE
  5
5B
330
1F
100
AcDbEntity
  8
SK1
  6
Continuous
100
AcDbSpline
210
0.0
220
0.0
230
1.0
 70
     8
 71
     3
 72
    14
 73
    10
 74
     0
 42
0.0000000003971097
 43
0.0000000001
 12
1.0
 22
0.0
 32
0.0
 13
1.0
 23
0.0
 33
0.0
 40
0.0
 40
0.0
 40
0.0
 40
0.0
 40
0.0174031987399629
 40
0.0174031987399629
 40
0.0174031987399629
 40
0.933118748361747
 40
0.933118748361747
 40
0.933118748361747
 40
1.0
 40
1.0
 40
1.0
 40
1.0
 10
3.047372104567939
 20
15.32602498999471
 30
0.0
 10
2.902506612833672
 20
15.30720967056464
 30
0.0
 10
2.757641124195289
 20
15.288394330789
 30
0.0
 10
2.612775638687779
 20
15.26957897043799
 30
0.0
 10
-5.009706851943903
 20
14.2795587849667
 30
0.0
 10
-12.63218119349327
 20
13.28948504023617
 30
0.0
 10
-20.25463946823026
 20
12.29930572625129
 30
0.0
 10
-20.81136207736722
 20
12.2269858536687
 30
0.0
 10
-21.36808459738507
 20
12.1546653955081
 30
0.0
 10
-21.92480702332896
 20
12.08234431922829
 30
0.0
  0
ARC
  5
5C
330
1F
100
AcDbEntity
  8
SK1
  6
Continuous
100
AcDbCircle
 10
3.12114953
 20
14.5867495545
 30
0.0
 40
0.4393672384933542
100
AcDbArc
 50
2.779165305
 51
99.6667570996
  0
SPLINE
  5
5D
330
1F
100
AcDbEntity
  8
SK1
  6
Continuous
100
AcDbSpline
210
0.0
220
0.0
230
1.0
 70
     8
 71
     3
 72
    14
 73
    10
 74
     0
 42
0.0000000003971097
 43
0.0000000001
 12
1.0
 22
0.0
 32
0.0
 13
1.0
 23
0.0
 33
0.0
 40
0.0
 40
0.0
 40
0.0
 40
0.0
 40
0.0174031987399629
 40
0.0174031987399629
 40
0.0174031987399629
 40
0.933118748361747
 40
0.933118748361747
 40
0.933118748361747
 40
1.0
 40
1.0
 40
1.0
 40
1.0
 10
3.047372104567939
 20
15.01987824410264
 30
0.0
 10
2.902506612833672
 20
15.00106292467257
 30
0.0
 10
2.757641124195289
 20
14.98224758489693
 30
0.0
 10
2.612775638687779
 20
14.96343222454592
 30
0.0
 10
-5.009706851943903
 20
13.97341203907463
 30
0.0
 10
-12.63218119349327
 20
12.9833382943441
 30
0.0
 10
-20.25463946823026
 20
11.99315898035922
 30
0.0
 10
-20.81136207736722
 20
11.92083910777663
 30
0.0
 10
-21.36808459738507
 20
11.84851864961603
 30
0.0
 10
-21.92480702332896
 20
11.77619757333622
 30
0.0
  0
ARC
  5
5E
330
1F
100
AcDbEntity
  8
SK3
100
AcDbCircle
 10
12.2744376588
 20
7.5588236666
 30
0.0
 40
0.3858781627968021
100
AcDbArc
 50
267.8557738679
 51
357.6817349519
  0
ARC
  5
5F
330
1F
100
AcDbEntity
  8
SK1
  6
Continuous
100
AcDbCircle
 10
12.4315505616
 20
12.1764182663
 30
0.0
 40
0.2284778361298286
100
AcDbArc
 50
0.9033624596
 51
63.0780264505
  0
LINE
  5
60
330
1F
100
AcDbEntity
  8
SK1
  6
Continuous
100
AcDbLine
 10
12.535
 20
12.3801345772
 30
0.0
 11
7.4631088913
 21
15.086458939
 31
0.0
  0
LINE
  5
61
330
1F
100
AcDbEntity
  8
SK1
  6
Continuous
100
AcDbLine
 10
3.56
 20
14.9141997093
 30
0.0
 11
3.56
 21
14.6080529634
 31
0.0
  0
ARC
  5
62
330
1F
100
AcDbEntity
  8
SK1
  6
Continuous
100
AcDbCircle
 10
3.7527009685
 20
13.8293751705
 30
0.0
 40
0.1928619956239752
100
AcDbArc
 50
182.3414991378
 51
272.1689270375
  0
LINE
  5
63
330
1F
100
AcDbEntity
  8
SK1
  6
Continuous
100
AcDbLine
 10
3.76
 20
13.6366513435
 30
0.0
 11
6.96
 21
13.6366513435
 31
0.0
  0
ARC
  5
64
330
1F
100
AcDbEntity
  8
SK1
  6
Continuous
100
AcDbCircle
 10
6.9672932853
 20
13.8293813878
 30
0.0
 40
0.1928679911219383
100
AcDbArc
 50
267.8328486851
 51
357.6567251494
  0
LINE
  5
65
330
1F
100
AcDbEntity
  8
SK1
  6
Continuous
100
AcDbLine
 10
7.16
 20
15.086458939
 30
0.0
 11
7.16
 21
15.3926056849
 31
0.0
  0
LINE
  5
66
330
1F
100
AcDbEntity
  8
SK3
100
AcDbLine
 10
12.26
 20
7.4793624373
 30
0.0
 11
-22.6280853001
 21
7.4793624373
 31
0.0
  0
LINE
  5
67
330
1F
100
AcDbEntity
  8
SK1
  6
Continuous
100
AcDbLine
 10
-27.0817519303
 20
12.1870201126
 30
0.0
 11
-27.0817519303
 21
8.9003673058
 31
0.0
  0
LINE
  5
68
330
1F
100
AcDbEntity
  8
SK1
  6
Continuous
100
AcDbLine
 10
-27.34
 20
-11.8897755192
 30
0.0
 11
-27.34
 21
-8.6901835797
 31
0.0
  0
SPLINE
  5
69
330
1F
100
AcDbEntity
  8
SK1
  6
Continuous
100
AcDbSpline
210
0.0
220
0.0
230
1.0
 70
     8
 71
     3
 72
    10
 73
     6
 74
     0
 42
0.000000022804885
 43
0.0000000001
 12
1.0
 22
0.0
 32
0.0
 13
1.0
 23
0.0
 33
0.0
 40
0.0
 40
0.0
 40
0.0
 40
0.0
 40
0.5
 40
0.5
 40
1.0
 40
1.0
 40
1.0
 40
1.0
 10
-27.34000000000013
 20
-11.88977551921636
 30
0.0
 10
-27.34000000000001
 20
-11.96123664509199
 30
0.0
 10
-27.31325218560487
 20
-12.03271861875489
 30
0.0
 10
-27.21983457328357
 20
-12.14038628228183
 30
0.0
 10
-27.1532676169232
 20
-12.17696362646716
 30
0.0
 10
-27.08175193028801
 20
-12.18701991305817
 30
0.0
  0
SPLINE
  5
6A
330
1F
100
AcDbEntity
  8
SK1
  6
Continuous
100
AcDbSpline
210
0.0
220
0.0
230
1.0
 70
     8
 71
     3
 72
    10
 73
     6
 74
     0
 42
0.0000000228012562
 43
0.0000000001
 12
1.0
 22
0.0
 32
0.0
 13
1.0
 23
0.0
 33
0.0
 40
0.0
 40
0.0
 40
0.0
 40
0.0
 40
0.5
 40
0.5
 40
1.0
 40
1.0
 40
1.0
 40
1.0
 10
-27.08175193028801
 20
12.18702011259956
 30
0.0
 10
-27.15329203371258
 20
12.17696039260168
 30
0.0
 10
-27.21937890303853
 20
12.14086400426049
 30
0.0
 10
-27.31353686662996
 20
12.03243828152373
 30
0.0
 10
-27.34
 20
11.9612655161153
 30
0.0
 10
-27.34000000000013
 20
11.88977571875778
 30
0.0
  0
LINE
  5
6B
330
1F
100
AcDbEntity
  8
SK3
100
AcDbLine
 10
-26.9164617093
 20
-7.9299179326
 30
0.0
 11
-26.9164617093
 21
-5.8901414276
 31
0.0
  0
LINE
  5
6C
330
1F
100
AcDbEntity
  8
SK3
100
AcDbLine
 10
-26.9164617093
 20
-7.9299179326
 30
0.0
 11
-2.5371250613
 21
-7.9299179326
 31
0.0
  0
LINE
  5
6D
330
1F
100
AcDbEntity
  8
SK3
100
AcDbLine
 10
-27.34
 20
8.1747496641
 30
0.0
 11
-26.9164617093
 21
7.9299181321
 31
0.0
  0
SPLINE
  5
6E
330
1F
100
AcDbEntity
  8
SK1
  6
Continuous
100
AcDbSpline
210
0.0
220
0.0
230
1.0
 70
     8
 71
     3
 72
    11
 73
     7
 74
     0
 42
0.0000000004241712
 43
0.0000000001
 12
1.0
 22
0.0
 32
0.0
 13
1.0
 23
0.0
 33
0.0
 40
0.0
 40
0.0
 40
0.0
 40
0.0
 40
0.9080456425272275
 40
0.9080456425272275
 40
0.9080456425272275
 40
1.0
 40
1.0
 40
1.0
 40
1.0
 10
-27.08175193028801
 20
-12.18701991305817
 30
0.0
 10
-20.01542884374032
 20
-13.18066163654469
 30
0.0
 10
-12.94908842150804
 20
-14.17418007798889
 30
0.0
 10
-5.882739207699524
 20
-15.16763597869006
 30
0.0
 10
-5.167156673908217
 20
-15.26823951088523
 30
0.0
 10
-4.451574044249451
 20
-15.36884236118717
 30
0.0
 10
-3.735991324228686
 20
-15.46944456874255
 30
0.0
  0
LINE
  5
6F
330
1F
100
AcDbEntity
  8
SK3
100
AcDbLine
 10
-26.9164617093
 20
-7.9299179326
 30
0.0
 11
-27.34
 21
-8.1747494646
 31
0.0
  0
LINE
  5
70
330
1F
100
AcDbEntity
  8
SK1
  6
Continuous
100
AcDbLine
 10
12.66
 20
13.3552360519
 30
0.0
 11
12.66
 21
12.4861671929
 31
0.0
  0
LINE
  5
71
330
1F
100
AcDbEntity
  8
SK1
  6
Continuous
100
AcDbLine
 10
3.76
 20
14.6000000998
 30
0.0
 11
3.76
 21
13.6366513435
 31
0.0
  0
LINE
  5
72
330
1F
100
AcDbEntity
  8
SK1
  6
Continuous
100
AcDbLine
 10
7.16
 20
-15.0864587395
 30
0.0
 11
7.16
 21
-6.6819726397
 31
0.0
  0
LINE
  5
73
330
1F
100
AcDbEntity
  8
SK1
  6
Continuous
100
AcDbLine
 10
7.4631088913
 20
-15.0864587395
 30
0.0
 11
7.4631088913
 21
-6.6819726397
 31
0.0
  0
LINE
  5
74
330
1F
100
AcDbEntity
  8
SK1
  6
Continuous
100
AcDbLine
 10
12.535
 20
-12.3801343776
 30
0.0
 11
12.535
 21
-5.5609763849
 31
0.0
  0
LINE
  5
75
330
1F
100
AcDbEntity
  8
SK1
  6
Continuous
100
AcDbLine
 10
12.66
 20
-12.4861669934
 30
0.0
 11
12.66
 21
-13.3552358524
 31
0.0
  0
LINE
  5
76
330
1F
100
AcDbEntity
  8
SK1
  6
Continuous
100
AcDbLine
 10
3.0473721046
 20
-15.0198780446
 30
0.0
 11
3.0473721046
 21
-6.6543940129
 31
0.0
  0
LINE
  5
77
330
1F
100
AcDbEntity
  8
SK1
  6
Continuous
100
AcDbLine
 10
3.56
 20
-14.6080527639
 30
0.0
 11
3.56
 21
-6.4838103963
 31
0.0
  0
LINE
  5
78
330
1F
100
AcDbEntity
  8
SK1
  6
Continuous
100
AcDbLine
 10
6.96
 20
-13.330504398
 30
0.0
 11
6.96
 21
-5.9546325366
 31
0.0
  0
LINE
  5
79
330
1F
100
AcDbEntity
  8
SK1
  6
Continuous
100
AcDbLine
 10
3.76
 20
-13.6366511439
 30
0.0
 11
3.76
 21
-14.5999999002
 31
0.0
  0
ARC
  5
7A
330
1F
100
AcDbEntity
  8
SK1
  6
Continuous
100
AcDbCircle
 10
6.967295287
 20
-13.5232322765
 30
0.0
 40
0.1928659025472767
100
AcDbArc
 50
2.3426562868
 51
92.1677698787
  0
LINE
  5
7B
330
1F
100
AcDbEntity
  8
SK1
  6
Continuous
100
AcDbLine
 10
6.96
 20
-13.330504398
 30
0.0
 11
3.76
 21
-13.330504398
 31
0.0
  0
ARC
  5
7C
330
1F
100
AcDbEntity
  8
SK1
  6
Continuous
100
AcDbCircle
 10
3.7527050682
 20
-13.5232326608
 30
0.0
 40
0.1928662731557804
100
AcDbArc
 50
87.8323398835
 51
177.6572339504
  0
ARC
  5
7D
330
1F
100
AcDbEntity
  8
SK1
  6
Continuous
100
AcDbCircle
 10
3.1211335529
 20
-14.5867294672
 30
0.0
 40
0.4393841614716074
100
AcDbArc
 50
260.3357322026
 51
357.2183453926
  0
LINE
  5
7E
330
1F
100
AcDbEntity
  8
SK1
  6
Continuous
100
AcDbLine
 10
7.16
 20
-15.0864587395
 30
0.0
 11
7.4631088913
 21
-15.0864587395
 31
0.0
  0
LINE
  5
7F
330
1F
100
AcDbEntity
  8
SK1
  6
Continuous
100
AcDbLine
 10
7.4631088913
 20
-15.0864587395
 30
0.0
 11
12.535
 21
-12.3801343776
 31
0.0
  0
ARC
  5
80
330
1F
100
AcDbEntity
  8
SK1
  6
Continuous
100
AcDbCircle
 10
12.4286867999
 20
-12.1746292365
 30
0.0
 40
0.2313760133481179
100
AcDbArc
 50
297.3537111502
 51
358.6648999396
  0
ARC
  5
81
330
1F
100
AcDbEntity
  8
SK3
100
AcDbCircle
 10
12.2744441706
 20
-7.5588164273
 30
0.0
 40
0.3858713716544241
100
AcDbArc
 50
2.3172597207
 51
92.1452314595
  0
ARC
  5
82
330
1F
100
AcDbEntity
  8
SK1
  6
Continuous
100
AcDbCircle
 10
3.1211335529
 20
-14.8928762131
 30
0.0
 40
0.4393841614716019
100
AcDbArc
 50
260.3357322026
 51
357.2183453927
  0
LINE
  5
83
330
1F
100
AcDbEntity
  8
SK1
  6
Continuous
100
AcDbLine
 10
7.16
 20
-15.3926054854
 30
0.0
 11
7.4631088913
 21
-15.3926054854
 31
0.0
  0
LINE
  5
84
330
1F
100
AcDbEntity
  8
SK1
  6
Continuous
100
AcDbLine
 10
7.4631088913
 20
-15.3926054854
 30
0.0
 11
12.535
 21
-12.6862811235
 31
0.0
  0
ARC
  5
85
330
1F
100
AcDbEntity
  8
SK1
  6
Continuous
100
AcDbCircle
 10
12.4286867999
 20
-12.4807759824
 30
0.0
 40
0.2313760133482017
100
AcDbArc
 50
297.3537111502
 51
358.6648999396
  0
LINE
  5
86
330
1F
100
AcDbEntity
  8
SK1
  6
Continuous
100
AcDbLine
 10
12.66
 20
-12.4861669934
 30
0.0
 11
12.66
 21
-12.1800202475
 31
0.0
  0
ARC
  5
87
330
1F
100
AcDbEntity
  8
SK3
100
AcDbCircle
 10
12.2744441706
 20
-7.8649631732
 30
0.0
 40
0.3858713716544238
100
AcDbArc
 50
2.3172597207
 51
92.1452314595
  0
LINE
  5
88
330
1F
100
AcDbEntity
  8
SK1
  6
Continuous
100
AcDbLine
 10
7.16
 20
-15.3926054854
 30
0.0
 11
7.16
 21
-15.0864587395
 31
0.0
  0
ARC
  5
89
330
1F
100
AcDbEntity
  8
SK1
  6
Continuous
100
AcDbCircle
 10
6.967295287
 20
-13.8293790224
 30
0.0
 40
0.1928659025472804
100
AcDbArc
 50
2.3426562868
 51
92.1677698787
  0
LINE
  5
8A
330
1F
100
AcDbEntity
  8
SK1
  6
Continuous
100
AcDbLine
 10
6.96
 20
-13.6366511439
 30
0.0
 11
3.76
 21
-13.6366511439
 31
0.0
  0
ARC
  5
8B
330
1F
100
AcDbEntity
  8
SK1
  6
Continuous
100
AcDbCircle
 10
3.7527050682
 20
-13.8293794067
 30
0.0
 40
0.1928662731557801
100
AcDbArc
 50
87.8323398835
 51
177.6572339504
  0
LINE
  5
8C
330
1F
100
AcDbEntity
  8
SK1
  6
Continuous
100
AcDbLine
 10
3.56
 20
-14.6080527639
 30
0.0
 11
3.56
 21
-14.9141995098
 31
0.0
  0
LINE
  5
8D
330
1F
100
AcDbEntity
  8
SK1
  6
Continuous
100
AcDbLine
 10
-27.0817519303
 20
-8.9003671062
 30
0.0
 11
-27.0817519303
 21
-12.1870199131
 31
0.0
  0
LINE
  5
8E
330
1F
100
AcDbEntity
  8
SK1
  6
Continuous
100
AcDbLine
 10
-27.34
 20
-8.1244981547
 30
0.0
 11
-27.34
 21
-0.3999999002
 31
0.0
  0
LINE
  5
8F
330
1F
100
AcDbEntity
  8
SK3
100
AcDbLine
 10
-26.9164617093
 20
-5.3244560027
 30
0.0
 11
-26.9164617093
 21
-0.3999999002
 31
0.0
  0
LINE
  5
90
330
1F
100
AcDbEntity
  8
SK3
100
AcDbLine
 10
-26.9164617093
 20
-5.3244560027
 30
0.0
 11
-2.5371250613
 21
-5.3244560027
 31
0.0
  0
SPLINE
  5
91
330
1F
100
AcDbEntity
  8
SK1
  6
Continuous
100
AcDbSpline
210
0.0
220
0.0
230
1.0
 70
     8
 71
     3
 72
    10
 73
     6
 74
     0
 42
0.0000000269170392
 43
0.0000000001
 12
1.0
 22
0.0
 32
0.0
 13
1.0
 23
0.0
 33
0.0
 40
0.0
 40
0.0
 40
0.0
 40
0.0
 40
0.5
 40
0.5
 40
1.0
 40
1.0
 40
1.0
 40
1.0
 10
-27.34000000000013
 20
-8.124498154726906
 30
0.0
 10
-27.34000000000001
 20
-8.175028801424789
 30
0.0
 10
-27.31325218560487
 20
-8.225574189734424
 30
0.0
 10
-27.21983457328357
 20
-8.301706724728836
 30
0.0
 10
-27.1532676169232
 20
-8.327570812840078
 30
0.0
 10
-27.08175193028801
 20
-8.334681681282133
 30
0.0
  0
LINE
  5
92
330
1F
100
AcDbEntity
  8
SK1
  6
Continuous
100
AcDbLine
 10
-27.0817519303
 20
-8.3346816813
 30
0.0
 11
-3.7359913242
 21
-10.6557064141
 31
0.0
  0
LINE
  5
93
330
1F
100
AcDbEntity
  8
SK3
100
AcDbLine
 10
-26.9164617093
 20
-5.3244560027
 30
0.0
 11
-27.34
 21
-5.4975780392
 31
0.0
  0
SPLINE
  5
94
330
1F
100
AcDbEntity
  8
SK1
  6
Continuous
100
AcDbSpline
210
0.0
220
0.0
230
1.0
 70
     8
 71
     3
 72
    10
 73
     6
 74
     0
 42
0.0000000269170392
 43
0.0000000001
 12
1.0
 22
0.0
 32
0.0
 13
1.0
 23
0.0
 33
0.0
 40
0.0
 40
0.0
 40
0.0
 40
0.0
 40
0.5
 40
0.5
 40
1.0
 40
1.0
 40
1.0
 40
1.0
 10
-27.34
 20
-8.69018357967615
 30
0.0
 10
-27.34
 20
-8.740714226374038
 30
0.0
 10
-27.31325218560486
 20
-8.79125961468367
 30
0.0
 10
-27.21983457328357
 20
-8.867392149678077
 30
0.0
 10
-27.1532676169232
 20
-8.893256237789315
 30
0.0
 10
-27.08175193028801
 20
-8.900367106231373
 30
0.0
  0
LINE
  5
95
330
1F
100
AcDbEntity
  8
SK1
  6
Continuous
100
AcDbLine
 10
-27.0817519303
 20
-8.9003671062
 30
0.0
 11
-3.7359913242
 21
-11.221391839
 31
0.0
  0
LINE
  5
96
330
1F
100
AcDbEntity
  8
SK3
100
AcDbLine
 10
-26.9164617093
 20
-5.8901414276
 30
0.0
 11
-27.34
 21
-6.0632634641
 31
0.0
  0
LINE
  5
97
330
1F
100
AcDbEntity
  8
SK1
  6
Continuous
100
AcDbLine
 10
-27.34
 20
-8.1244981547
 30
0.0
 11
-27.34
 21
-8.6901835797
 31
0.0
  0
LINE
  5
98
330
1F
100
AcDbEntity
  8
SK3
100
AcDbLine
 10
-26.9164617093
 20
-5.8901414276
 30
0.0
 11
-2.5371250613
 21
-5.8901414276
 31
0.0
  0
LINE
  5
99
330
1F
100
AcDbEntity
  8
SK1
  6
Continuous
100
AcDbLine
 10
7.16
 20
-5.9428690137
 30
0.0
 11
7.16
 21
5.9428692133
 31
0.0
  0
LINE
  5
9A
330
1F
100
AcDbEntity
  8
SK1
  6
Continuous
100
AcDbLine
 10
7.4631088913
 20
-5.9428690137
 30
0.0
 11
7.4631088913
 21
5.9428692133
 31
0.0
  0
LINE
  5
9B
330
1F
100
AcDbEntity
  8
SK1
  6
Continuous
100
AcDbLine
 10
12.535
 20
-4.8218727589
 30
0.0
 11
12.535
 21
4.8218729584
 31
0.0
  0
LINE
  5
9C
330
1F
100
AcDbEntity
  8
SK1
  6
Continuous
100
AcDbLine
 10
12.66
 20
-5.4780863982
 30
0.0
 11
12.66
 21
-12.1800202475
 31
0.0
  0
LINE
  5
9D
330
1F
100
AcDbEntity
  8
SK1
  6
Continuous
100
AcDbLine
 10
3.0473721046
 20
-5.9152903869
 30
0.0
 11
3.0473721046
 21
5.9152905865
 31
0.0
  0
LINE
  5
9E
330
1F
100
AcDbEntity
  8
SK1
  6
Continuous
100
AcDbLine
 10
3.56
 20
-5.7447067703
 30
0.0
 11
3.56
 21
5.7447069699
 31
0.0
  0
LINE
  5
9F
330
1F
100
AcDbEntity
  8
SK1
  6
Continuous
100
AcDbLine
 10
6.96
 20
-5.2155289106
 30
0.0
 11
6.96
 21
5.2155291101
 31
0.0
  0
LINE
  5
A0
330
1F
100
AcDbEntity
  8
SK1
  6
Continuous
100
AcDbLine
 10
3.76
 20
-5.9546325366
 30
0.0
 11
3.76
 21
-13.330504398
 31
0.0
  0
SPLINE
  5
A1
330
1F
100
AcDbEntity
  8
SK1
  6
Continuous
100
AcDbSpline
210
0.0
220
0.0
230
1.0
 70
     8
 71
     3
 72
    10
 73
     6
 74
     0
 42
0.0000000427826839
 43
0.0000000001
 12
1.0
 22
0.0
 32
0.0
 13
1.0
 23
0.0
 33
0.0
 40
0.0
 40
0.0
 40
0.0
 40
0.0
 40
0.5
 40
0.5
 40
1.0
 40
1.0
 40
1.0
 40
1.0
 10
7.160000000000006
 20
-5.292093949246198
 30
0.0
 10
7.16000000000001
 20
-5.2720813662805
 30
0.0
 10
7.138635819677391
 20
-5.252199598034978
 30
0.0
 10
7.064192627192706
 20
-5.223703683752697
 30
0.0
 10
7.012249111975046
 20
-5.215528910599916
 30
0.0
 10
6.960000000000023
 20
-5.215528910599846
 30
0.0
  0
LINE
  5
A2
330
1F
100
AcDbEntity
  8
SK1
  6
Continuous
100
AcDbLine
 10
6.96
 20
-5.2155289106
 30
0.0
 11
3.76
 21
-5.2155289106
 31
0.0
  0
SPLINE
  5
A3
330
1F
100
AcDbEntity
  8
SK1
  6
Continuous
100
AcDbSpline
210
0.0
220
0.0
230
1.0
 70
     8
 71
     3
 72
    10
 73
     6
 74
     0
 42
0.0000000427930393
 43
0.0000000001
 12
1.0
 22
0.0
 32
0.0
 13
1.0
 23
0.0
 33
0.0
 40
0.0
 40
0.0
 40
0.0
 40
0.0
 40
0.5
 40
0.5
 40
1.0
 40
1.0
 40
1.0
 40
1.0
 10
3.760000000000006
 20
-5.215528910599915
 30
0.0
 10
3.707859588765452
 20
-5.215528910599914
 30
0.0
 10
3.655643858538256
 20
-5.22379204438378
 30
0.0
 10
3.58178541629286
 20
-5.252012674594293
 30
0.0
 10
3.560000000000446
 20
-5.272150050518223
 30
0.0
 10
3.559999999989988
 20
-5.292093949245682
 30
0.0
  0
SPLINE
  5
A4
330
1F
100
AcDbEntity
  8
SK1
  6
Continuous
100
AcDbSpline
210
0.0
220
0.0
230
1.0
 70
     8
 71
     3
 72
    10
 73
     6
 74
     0
 42
0.0000000169213589
 43
0.0000000001
 12
1.0
 22
0.0
 32
0.0
 13
1.0
 23
0.0
 33
0.0
 40
0.0
 40
0.0
 40
0.0
 40
0.0
 40
0.5
 40
0.5
 40
1.0
 40
1.0
 40
1.0
 40
1.0
 10
3.047372104567811
 20
-5.915290386915348
 30
0.0
 10
3.173819526776414
 20
-5.922093081062555
 30
0.0
 10
3.309218523067394
 20
-5.906702229863191
 30
0.0
 10
3.50166655832158
 20
-5.842580599249552
 30
0.0
 10
3.560000000000008
 20
-5.794032848316315
 30
0.0
 10
3.560000000000008
 20
-5.744706770316219
 30
0.0
  0
LINE
  5
A5
330
1F
100
AcDbEntity
  8
SK1
  6
Continuous
100
AcDbLine
 10
7.16
 20
-5.9428690137
 30
0.0
 11
7.4631088913
 21
-5.9428690137
 31
0.0
  0
SPLINE
  5
A6
330
1F
100
AcDbEntity
  8
SK1
  6
Continuous
100
AcDbSpline
210
0.0
220
0.0
230
1.0
 70
     8
 71
     3
 72
     8
 73
     4
 74
     0
 42
0.0000000019251887
 43
0.0000000001
 12
1.0
 22
0.0
 32
0.0
 13
1.0
 23
0.0
 33
0.0
 40
0.0
 40
0.0
 40
0.0
 40
0.0
 40
1.0
 40
1.0
 40
1.0
 40
1.0
 10
7.46310889132458
 20
-5.942869013737534
 30
0.0
 10
9.153766091781735
 20
-5.569221371969263
 30
0.0
 10
10.84440226444509
 20
-5.195559789107262
 30
0.0
 10
12.535
 20
-4.821872758885745
 30
0.0
  0
SPLINE
  5
A7
330
1F
100
AcDbEntity
  8
SK1
  6
Continuous
100
AcDbSpline
210
0.0
220
0.0
230
1.0
 70
     8
 71
     3
 72
    10
 73
     6
 74
     0
 42
0.0000000616220022
 43
0.0000000001
 12
1.0
 22
0.0
 32
0.0
 13
1.0
 23
0.0
 33
0.0
 40
0.0
 40
0.0
 40
0.0
 40
0.0
 40
0.5
 40
0.5
 40
1.0
 40
1.0
 40
1.0
 40
1.0
 10
12.535
 20
-4.821872758885745
 30
0.0
 10
12.57278451834512
 20
-4.813520929144235
 30
0.0
 10
12.60478782474132
 20
-4.801271806686355
 30
0.0
 10
12.64845197751802
 20
-4.772256384122047
 30
0.0
 10
12.66000000000005
 20
-4.755627240031735
 30
0.0
 10
12.66000000000155
 20
-4.738982772143362
 30
0.0
  0
SPLINE
  5
A8
330
1F
100
AcDbEntity
  8
SK3
100
AcDbSpline
210
0.0
220
0.0
230
1.0
 70
     8
 71
     3
 72
    10
 73
     6
 74
     0
 42
0.0000000213866721
 43
0.0000000001
 12
1.0
 22
0.0
 32
0.0
 13
1.0
 23
0.0
 33
0.0
 40
0.0
 40
0.0
 40
0.0
 40
0.0
 40
0.5
 40
0.5
 40
1.0
 40
1.0
 40
1.0
 40
1.0
 10
12.66
 20
-2.818354975411042
 30
0.0
 10
12.66000000000001
 20
-2.778092829639971
 30
0.0
 10
12.61687875043439
 20
-2.73836670978111
 30
0.0
 10
12.46893335030763
 20
-2.681655161969187
 30
0.0
 10
12.36507650275378
 20
-2.665096338223372
 30
0.0
 10
12.26000000000001
 20
-2.665096338223372
 30
0.0
  0
SPLINE
  5
A9
330
1F
100
AcDbEntity
  8
SK1
  6
Continuous
100
AcDbSpline
210
0.0
220
0.0
230
1.0
 70
     8
 71
     3
 72
    10
 73
     6
 74
     0
 42
0.0000000169213589
 43
0.0000000001
 12
1.0
 22
0.0
 32
0.0
 13
1.0
 23
0.0
 33
0.0
 40
0.0
 40
0.0
 40
0.0
 40
0.0
 40
0.5
 40
0.5
 40
1.0
 40
1.0
 40
1.0
 40
1.0
 10
3.047372104567811
 20
-6.654394012924378
 30
0.0
 10
3.173819526776412
 20
-6.661196707071585
 30
0.0
 10
3.309218523067396
 20
-6.645805855872224
 30
0.0
 10
3.501666558321584
 20
-6.581684225258582
 30
0.0
 10
3.560000000000008
 20
-6.533136474325344
 30
0.0
 10
3.560000000000008
 20
-6.483810396325247
 30
0.0
  0
LINE
  5
AA
330
1F
100
AcDbEntity
  8
SK1
  6
Continuous
100
AcDbLine
 10
7.16
 20
-6.6819726397
 30
0.0
 11
7.4631088913
 21
-6.6819726397
 31
0.0
  0
SPLINE
  5
AB
330
1F
100
AcDbEntity
  8
SK1
  6
Continuous
100
AcDbSpline
210
0.0
220
0.0
230
1.0
 70
     8
 71
     3
 72
     8
 73
     4
 74
     0
 42
0.0000000019251887
 43
0.0000000001
 12
1.0
 22
0.0
 32
0.0
 13
1.0
 23
0.0
 33
0.0
 40
0.0
 40
0.0
 40
0.0
 40
0.0
 40
1.0
 40
1.0
 40
1.0
 40
1.0
 10
7.46310889132458
 20
-6.681972639746563
 30
0.0
 10
9.153766091781735
 20
-6.308324997978291
 30
0.0
 10
10.84440226444509
 20
-5.934663415116292
 30
0.0
 10
12.535
 20
-5.560976384894776
 30
0.0
  0
SPLINE
  5
AC
330
1F
100
AcDbEntity
  8
SK1
  6
Continuous
100
AcDbSpline
210
0.0
220
0.0
230
1.0
 70
     8
 71
     3
 72
    10
 73
     6
 74
     0
 42
0.0000000616220022
 43
0.0000000001
 12
1.0
 22
0.0
 32
0.0
 13
1.0
 23
0.0
 33
0.0
 40
0.0
 40
0.0
 40
0.0
 40
0.0
 40
0.5
 40
0.5
 40
1.0
 40
1.0
 40
1.0
 40
1.0
 10
12.535
 20
-5.560976384894776
 30
0.0
 10
12.57278451834512
 20
-5.552624555153264
 30
0.0
 10
12.60478782474132
 20
-5.540375432695384
 30
0.0
 10
12.64845197751802
 20
-5.511360010131076
 30
0.0
 10
12.66000000000005
 20
-5.494730866040763
 30
0.0
 10
12.66000000000155
 20
-5.478086398152391
 30
0.0
  0
LINE
  5
AD
330
1F
100
AcDbEntity
  8
SK1
  6
Continuous
100
AcDbLine
 10
12.66
 20
-5.4780863982
 30
0.0
 11
12.66
 21
-4.7389827721
 31
0.0
  0
SPLINE
  5
AE
330
1F
100
AcDbEntity
  8
SK3
100
AcDbSpline
210
0.0
220
0.0
230
1.0
 70
     8
 71
     3
 72
    10
 73
     6
 74
     0
 42
0.0000000213866721
 43
0.0000000001
 12
1.0
 22
0.0
 32
0.0
 13
1.0
 23
0.0
 33
0.0
 40
0.0
 40
0.0
 40
0.0
 40
0.0
 40
0.5
 40
0.5
 40
1.0
 40
1.0
 40
1.0
 40
1.0
 10
12.66
 20
-3.557458601420071
 30
0.0
 10
12.66
 20
-3.517196455649001
 30
0.0
 10
12.61687875043439
 20
-3.47747033579014
 30
0.0
 10
12.46893335030763
 20
-3.420758787978217
 30
0.0
 10
12.36507650275378
 20
-3.404199964232402
 30
0.0
 10
12.26000000000001
 20
-3.404199964232402
 30
0.0
  0
LINE
  5
AF
330
1F
100
AcDbEntity
  8
SK1
  6
Continuous
100
AcDbLine
 10
7.16
 20
-6.6819726397
 30
0.0
 11
7.16
 21
-6.0311975753
 31
0.0
  0
SPLINE
  5
B0
330
1F
100
AcDbEntity
  8
SK1
  6
Continuous
100
AcDbSpline
210
0.0
220
0.0
230
1.0
 70
     8
 71
     3
 72
    10
 73
     6
 74
     0
 42
0.0000000427826839
 43
0.0000000001
 12
1.0
 22
0.0
 32
0.0
 13
1.0
 23
0.0
 33
0.0
 40
0.0
 40
0.0
 40
0.0
 40
0.0
 40
0.5
 40
0.5
 40
1.0
 40
1.0
 40
1.0
 40
1.0
 10
7.160000000000006
 20
-6.031197575255225
 30
0.0
 10
7.16000000000001
 20
-6.011184992289529
 30
0.0
 10
7.138635819677391
 20
-5.991303224044008
 30
0.0
 10
7.064192627192706
 20
-5.962807309761726
 30
0.0
 10
7.012249111975046
 20
-5.954632536608946
 30
0.0
 10
6.960000000000023
 20
-5.954632536608875
 30
0.0
  0
LINE
  5
B1
330
1F
100
AcDbEntity
  8
SK1
  6
Continuous
100
AcDbLine
 10
6.96
 20
-5.9546325366
 30
0.0
 11
3.76
 21
-5.9546325366
 31
0.0
  0
SPLINE
  5
B2
330
1F
100
AcDbEntity
  8
SK1
  6
Continuous
100
AcDbSpline
210
0.0
220
0.0
230
1.0
 70
     8
 71
     3
 72
    10
 73
     6
 74
     0
 42
0.0000000427930393
 43
0.0000000001
 12
1.0
 22
0.0
 32
0.0
 13
1.0
 23
0.0
 33
0.0
 40
0.0
 40
0.0
 40
0.0
 40
0.0
 40
0.5
 40
0.5
 40
1.0
 40
1.0
 40
1.0
 40
1.0
 10
3.760000000000006
 20
-5.954632536608944
 30
0.0
 10
3.707859588765452
 20
-5.954632536608942
 30
0.0
 10
3.655643858538256
 20
-5.962895670392808
 30
0.0
 10
3.58178541629286
 20
-5.991116300603322
 30
0.0
 10
3.560000000000446
 20
-6.011253676527252
 30
0.0
 10
3.559999999989988
 20
-6.031197575254709
 30
0.0
  0
LINE
  5
B3
330
1F
100
AcDbEntity
  8
SK1
  6
Continuous
100
AcDbLine
 10
3.56
 20
-6.0311975753
 30
0.0
 11
3.56
 21
-6.4838103963
 31
0.0
  0
LINE
  5
B4
330
1F
100
AcDbEntity
  8
SK1
  6
Continuous
100
AcDbLine
 10
-27.34
 20
0.4000000998
 30
0.0
 11
-27.34
 21
8.1244983543
 31
0.0
  0
LINE
  5
B5
330
1F
100
AcDbEntity
  8
SK1
  6
Continuous
100
AcDbLine
 10
-27.0817519303
 20
-0.3999999002
 30
0.0
 11
-27.0817519303
 21
-8.3346816813
 31
0.0
  0
LINE
  5
B6
330
1F
100
AcDbEntity
  8
SK3
100
AcDbLine
 10
-26.9164617093
 20
0.4000000998
 30
0.0
 11
-26.9164617093
 21
5.3244562022
 31
0.0
  0
LINE
  5
B7
330
1F
100
AcDbEntity
  8
SK1
  6
Continuous
100
AcDbLine
 10
-27.34
 20
0.4000000998
 30
0.0
 11
-27.0817519303
 21
0.4000000998
 31
0.0
  0
LINE
  5
B8
330
1F
100
AcDbEntity
  8
SK1
  6
Continuous
100
AcDbLine
 10
-27.0817519303
 20
0.4000000998
 30
0.0
 11
-3.7359913242
 21
0.4000000998
 31
0.0
  0
LINE
  5
B9
330
1F
100
AcDbEntity
  8
SK1
  6
Continuous
100
AcDbLine
 10
-27.34
 20
-0.3999999002
 30
0.0
 11
-27.0817519303
 21
-0.3999999002
 31
0.0
  0
LINE
  5
BA
330
1F
100
AcDbEntity
  8
SK1
  6
Continuous
100
AcDbLine
 10
-27.0817519303
 20
-0.3999999002
 30
0.0
 11
-3.7359913242
 21
-0.3999999002
 31
0.0
  0
LINE
  5
BB
330
1F
100
AcDbEntity
  8
SK1
  6
Continuous
100
AcDbLine
 10
7.16
 20
6.6819728393
 30
0.0
 11
7.16
 21
15.086458939
 31
0.0
  0
LINE
  5
BC
330
1F
100
AcDbEntity
  8
SK1
  6
Continuous
100
AcDbLine
 10
7.4631088913
 20
6.6819728393
 30
0.0
 11
7.4631088913
 21
15.086458939
 31
0.0
  0
LINE
  5
BD
330
1F
100
AcDbEntity
  8
SK1
  6
Continuous
100
AcDbLine
 10
12.535
 20
5.5609765844
 30
0.0
 11
12.535
 21
12.3801345772
 31
0.0
  0
LINE
  5
BE
330
1F
100
AcDbEntity
  8
SK1
  6
Continuous
100
AcDbLine
 10
12.66
 20
4.7389829717
 30
0.0
 11
12.66
 21
-4.7389827721
 31
0.0
  0
LINE
  5
BF
330
1F
100
AcDbEntity
  8
SK1
  6
Continuous
100
AcDbLine
 10
3.0473721046
 20
6.6543942125
 30
0.0
 11
3.0473721046
 21
15.0198782441
 31
0.0
  0
LINE
  5
C0
330
1F
100
AcDbEntity
  8
SK1
  6
Continuous
100
AcDbLine
 10
3.56
 20
6.4838105959
 30
0.0
 11
3.56
 21
14.6080529634
 31
0.0
  0
LINE
  5
C1
330
1F
100
AcDbEntity
  8
SK1
  6
Continuous
100
AcDbLine
 10
6.96
 20
5.9546327362
 30
0.0
 11
6.96
 21
13.3305045976
 31
0.0
  0
LINE
  5
C2
330
1F
100
AcDbEntity
  8
SK1
  6
Continuous
100
AcDbLine
 10
3.76
 20
5.2155291101
 30
0.0
 11
3.76
 21
-5.2155289106
 31
0.0
  0
LINE
  5
C3
330
1F
100
AcDbEntity
  8
SK1
  6
Continuous
100
AcDbLine
 10
7.16
 20
6.6819728393
 30
0.0
 11
7.16
 21
6.0311977748
 31
0.0
  0
SPLINE
  5
C4
330
1F
100
AcDbEntity
  8
SK1
  6
Continuous
100
AcDbSpline
210
0.0
220
0.0
230
1.0
 70
     8
 71
     3
 72
    10
 73
     6
 74
     0
 42
0.0000000427824414
 43
0.0000000001
 12
1.0
 22
0.0
 32
0.0
 13
1.0
 23
0.0
 33
0.0
 40
0.0
 40
0.0
 40
0.0
 40
0.0
 40
0.5
 40
0.5
 40
1.0
 40
1.0
 40
1.0
 40
1.0
 10
7.160000000000006
 20
6.031197774796638
 30
0.0
 10
7.160000000000013
 20
6.011237063787545
 30
0.0
 10
7.138792746349947
 20
5.991378542977356
 30
0.0
 10
7.064184492779326
 20
5.962789375685927
 30
0.0
 10
7.012831382487986
 20
5.954632736150049
 30
0.0
 10
6.960000000000008
 20
5.954632736150356
 30
0.0
  0
LINE
  5
C5
330
1F
100
AcDbEntity
  8
SK1
  6
Continuous
100
AcDbLine
 10
6.96
 20
5.9546327362
 30
0.0
 11
3.76
 21
5.9546327362
 31
0.0
  0
SPLINE
  5
C6
330
1F
100
AcDbEntity
  8
SK1
  6
Continuous
100
AcDbSpline
210
0.0
220
0.0
230
1.0
 70
     8
 71
     3
 72
    10
 73
     6
 74
     0
 42
0.0000000427888826
 43
0.0000000001
 12
1.0
 22
0.0
 32
0.0
 13
1.0
 23
0.0
 33
0.0
 40
0.0
 40
0.0
 40
0.0
 40
0.0
 40
0.5
 40
0.5
 40
1.0
 40
1.0
 40
1.0
 40
1.0
 10
3.760000000000006
 20
5.954632736150356
 30
0.0
 10
3.70712883428833
 20
5.954632736150354
 30
0.0
 10
3.655412931721452
 20
5.962944612910954
 30
0.0
 10
3.581619568483867
 20
5.991219573861275
 30
0.0
 10
3.559999999999897
 20
6.011219705364262
 30
0.0
 10
3.559999999997622
 20
6.031197774796745
 30
0.0
  0
LINE
  5
C7
330
1F
100
AcDbEntity
  8
SK1
  6
Continuous
100
AcDbLine
 10
3.56
 20
6.0311977748
 30
0.0
 11
3.56
 21
6.4838105959
 31
0.0
  0
SPLINE
  5
C8
330
1F
100
AcDbEntity
  8
SK1
  6
Continuous
100
AcDbSpline
210
0.0
220
0.0
230
1.0
 70
     8
 71
     3
 72
    10
 73
     6
 74
     0
 42
0.0000000169199522
 43
0.0000000001
 12
1.0
 22
0.0
 32
0.0
 13
1.0
 23
0.0
 33
0.0
 40
0.0
 40
0.0
 40
0.0
 40
0.0
 40
0.5
 40
0.5
 40
1.0
 40
1.0
 40
1.0
 40
1.0
 10
3.047372104567986
 20
6.654394212460752
 30
0.0
 10
3.175618258191283
 20
6.661293675843199
 30
0.0
 10
3.308843327162862
 20
6.64588559619831
 30
0.0
 10
3.501565786969163
 20
6.581763359029273
 30
0.0
 10
3.560000000000006
 20
6.533184113839759
 30
0.0
 10
3.560000000000008
 20
6.483810595866661
 30
0.0
  0
LINE
  5
C9
330
1F
100
AcDbEntity
  8
SK1
  6
Continuous
100
AcDbLine
 10
7.16
 20
6.6819728393
 30
0.0
 11
7.4631088913
 21
6.6819728393
 31
0.0
  0
LINE
  5
CA
330
1F
100
AcDbEntity
  8
SK1
  6
Continuous
100
AcDbLine
 10
7.4631088913
 20
6.6819728393
 30
0.0
 11
12.535
 21
5.5609765844
 31
0.0
  0
SPLINE
  5
CB
330
1F
100
AcDbEntity
  8
SK1
  6
Continuous
100
AcDbSpline
210
0.0
220
0.0
230
1.0
 70
     8
 71
     3
 72
     8
 73
     4
 74
     0
 42
0.0000000587479703
 43
0.0000000001
 12
1.0
 22
0.0
 32
0.0
 13
1.0
 23
0.0
 33
0.0
 40
0.0
 40
0.0
 40
0.0
 40
0.0
 40
1.0
 40
1.0
 40
1.0
 40
1.0
 10
12.535
 20
5.560976584436187
 30
0.0
 10
12.61128692078017
 20
5.544114244997568
 30
0.0
 10
12.66
 20
5.511621430539104
 30
0.0
 10
12.66
 20
5.478086597693867
 30
0.0
  0
LINE
  5
CC
330
1F
100
AcDbEntity
  8
SK1
  6
Continuous
100
AcDbLine
 10
12.66
 20
5.4780865977
 30
0.0
 11
12.66
 21
4.7389829717
 31
0.0
  0
SPLINE
  5
CD
330
1F
100
AcDbEntity
  8
SK3
100
AcDbSpline
210
0.0
220
0.0
230
1.0
 70
     8
 71
     3
 72
    10
 73
     6
 74
     0
 42
0.0000000213880433
 43
0.0000000001
 12
1.0
 22
0.0
 32
0.0
 13
1.0
 23
0.0
 33
0.0
 40
0.0
 40
0.0
 40
0.0
 40
0.0
 40
0.5
 40
0.5
 40
1.0
 40
1.0
 40
1.0
 40
1.0
 10
12.66
 20
3.557458800961482
 30
0.0
 10
12.66000000000002
 20
3.517520037973767
 30
0.0
 10
12.61761985741373
 20
3.477780934146256
 30
0.0
 10
12.46845209722827
 20
3.420548243649741
 30
0.0
 10
12.36571198697215
 20
3.404200163773663
 30
0.0
 10
12.26000000000001
 20
3.404200163773811
 30
0.0
  0
SPLINE
  5
CE
330
1F
100
AcDbEntity
  8
SK1
  6
Continuous
100
AcDbSpline
210
0.0
220
0.0
230
1.0
 70
     8
 71
     3
 72
    10
 73
     6
 74
     0
 42
0.0000000169199522
 43
0.0000000001
 12
1.0
 22
0.0
 32
0.0
 13
1.0
 23
0.0
 33
0.0
 40
0.0
 40
0.0
 40
0.0
 40
0.0
 40
0.5
 40
0.5
 40
1.0
 40
1.0
 40
1.0
 40
1.0
 10
3.047372104567986
 20
5.915290586451724
 30
0.0
 10
3.175618258191284
 20
5.922190049834173
 30
0.0
 10
3.308843327162863
 20
5.90678197018928
 30
0.0
 10
3.501565786969163
 20
5.842659733020245
 30
0.0
 10
3.560000000000008
 20
5.794080487830728
 30
0.0
 10
3.560000000000008
 20
5.744706969857631
 30
0.0
  0
LINE
  5
CF
330
1F
100
AcDbEntity
  8
SK1
  6
Continuous
100
AcDbLine
 10
7.16
 20
5.9428692133
 30
0.0
 11
7.4631088913
 21
5.9428692133
 31
0.0
  0
LINE
  5
D0
330
1F
100
AcDbEntity
  8
SK1
  6
Continuous
100
AcDbLine
 10
7.4631088913
 20
5.9428692133
 30
0.0
 11
12.535
 21
4.8218729584
 31
0.0
  0
SPLINE
  5
D1
330
1F
100
AcDbEntity
  8
SK1
  6
Continuous
100
AcDbSpline
210
0.0
220
0.0
230
1.0
 70
     8
 71
     3
 72
     8
 73
     4
 74
     0
 42
0.0000000587479703
 43
0.0000000001
 12
1.0
 22
0.0
 32
0.0
 13
1.0
 23
0.0
 33
0.0
 40
0.0
 40
0.0
 40
0.0
 40
0.0
 40
1.0
 40
1.0
 40
1.0
 40
1.0
 10
12.535
 20
4.821872958427157
 30
0.0
 10
12.61128692078017
 20
4.80501061898854
 30
0.0
 10
12.66
 20
4.772517804530073
 30
0.0
 10
12.66
 20
4.738982971684836
 30
0.0
  0
SPLINE
  5
D2
330
1F
100
AcDbEntity
  8
SK3
100
AcDbSpline
210
0.0
220
0.0
230
1.0
 70
     8
 71
     3
 72
    10
 73
     6
 74
     0
 42
0.0000000213880433
 43
0.0000000001
 12
1.0
 22
0.0
 32
0.0
 13
1.0
 23
0.0
 33
0.0
 40
0.0
 40
0.0
 40
0.0
 40
0.0
 40
0.5
 40
0.5
 40
1.0
 40
1.0
 40
1.0
 40
1.0
 10
12.66
 20
2.818355174952452
 30
0.0
 10
12.66000000000002
 20
2.77841641196474
 30
0.0
 10
12.61761985741373
 20
2.738677308137225
 30
0.0
 10
12.46845209722827
 20
2.681444617640711
 30
0.0
 10
12.36571198697215
 20
2.665096537764634
 30
0.0
 10
12.26000000000001
 20
2.665096537764783
 30
0.0
  0
SPLINE
  5
D3
330
1F
100
AcDbEntity
  8
SK1
  6
Continuous
100
AcDbSpline
210
0.0
220
0.0
230
1.0
 70
     8
 71
     3
 72
    10
 73
     6
 74
     0
 42
0.0000000427824414
 43
0.0000000001
 12
1.0
 22
0.0
 32
0.0
 13
1.0
 23
0.0
 33
0.0
 40
0.0
 40
0.0
 40
0.0
 40
0.0
 40
0.5
 40
0.5
 40
1.0
 40
1.0
 40
1.0
 40
1.0
 10
7.160000000000006
 20
5.292094148787605
 30
0.0
 10
7.160000000000012
 20
5.272133437778517
 30
0.0
 10
7.138792746349949
 20
5.252274916968323
 30
0.0
 10
7.064184492779326
 20
5.223685749676893
 30
0.0
 10
7.012831382487986
 20
5.21552911014102
 30
0.0
 10
6.960000000000008
 20
5.215529110141326
 30
0.0
  0
LINE
  5
D4
330
1F
100
AcDbEntity
  8
SK1
  6
Continuous
100
AcDbLine
 10
6.96
 20
5.2155291101
 30
0.0
 11
3.76
 21
5.2155291101
 31
0.0
  0
SPLINE
  5
D5
330
1F
100
AcDbEntity
  8
SK1
  6
Continuous
100
AcDbSpline
210
0.0
220
0.0
230
1.0
 70
     8
 71
     3
 72
    10
 73
     6
 74
     0
 42
0.0000000427888826
 43
0.0000000001
 12
1.0
 22
0.0
 32
0.0
 13
1.0
 23
0.0
 33
0.0
 40
0.0
 40
0.0
 40
0.0
 40
0.0
 40
0.5
 40
0.5
 40
1.0
 40
1.0
 40
1.0
 40
1.0
 10
3.760000000000006
 20
5.215529110141325
 30
0.0
 10
3.707128834288332
 20
5.215529110141325
 30
0.0
 10
3.655412931721452
 20
5.223840986901926
 30
0.0
 10
3.581619568483869
 20
5.252115947852249
 30
0.0
 10
3.559999999999897
 20
5.272116079355231
 30
0.0
 10
3.559999999997622
 20
5.292094148787714
 30
0.0
  0
LINE
  5
D6
330
1F
100
AcDbEntity
  8
SK1
  6
Continuous
100
AcDbLine
 10
-27.34
 20
8.6901837792
 30
0.0
 11
-27.34
 21
11.8897757188
 31
0.0
  0
LINE
  5
D7
330
1F
100
AcDbEntity
  8
SK1
  6
Continuous
100
AcDbLine
 10
-27.0817519303
 20
8.3346818808
 30
0.0
 11
-27.0817519303
 21
0.4000000998
 31
0.0
  0
LINE
  5
D8
330
1F
100
AcDbEntity
  8
SK3
100
AcDbLine
 10
-26.9164617093
 20
5.8901416272
 30
0.0
 11
-26.9164617093
 21
7.9299181321
 31
0.0
  0
LINE
  5
D9
330
1F
100
AcDbEntity
  8
SK3
100
AcDbLine
 10
-26.9164617093
 20
5.8901416272
 30
0.0
 11
-2.5371250613
 21
5.8901416272
 31
0.0
  0
SPLINE
  5
DA
330
1F
100
AcDbEntity
  8
SK1
  6
Continuous
100
AcDbSpline
210
0.0
220
0.0
230
1.0
 70
     8
 71
     3
 72
    10
 73
     6
 74
     0
 42
0.0000000269170392
 43
0.0000000001
 12
1.0
 22
0.0
 32
0.0
 13
1.0
 23
0.0
 33
0.0
 40
0.0
 40
0.0
 40
0.0
 40
0.0
 40
0.5
 40
0.5
 40
1.0
 40
1.0
 40
1.0
 40
1.0
 10
-27.34000000000013
 20
8.690183779217545
 30
0.0
 10
-27.34000000000001
 20
8.74071442591543
 30
0.0
 10
-27.31325218560487
 20
8.79125981422507
 30
0.0
 10
-27.21983457328357
 20
8.86739234921948
 30
0.0
 10
-27.1532676169232
 20
8.89325643733072
 30
0.0
 10
-27.08175193028801
 20
8.900367305772779
 30
0.0
  0
LINE
  5
DB
330
1F
100
AcDbEntity
  8
SK1
  6
Continuous
100
AcDbLine
 10
-27.0817519303
 20
8.9003673058
 30
0.0
 11
-3.7359913242
 21
11.2213920385
 31
0.0
  0
LINE
  5
DC
330
1F
100
AcDbEntity
  8
SK3
100
AcDbLine
 10
-26.9164617093
 20
5.8901416272
 30
0.0
 11
-27.34
 21
6.0632636637
 31
0.0
  0
LINE
  5
DD
330
1F
100
AcDbEntity
  8
SK1
  6
Continuous
100
AcDbLine
 10
-27.34
 20
8.1244983543
 30
0.0
 11
-27.34
 21
8.6901837792
 31
0.0
  0
SPLINE
  5
DE
330
1F
100
AcDbEntity
  8
SK1
  6
Continuous
100
AcDbSpline
210
0.0
220
0.0
230
1.0
 70
     8
 71
     3
 72
    10
 73
     6
 74
     0
 42
0.0000000269170392
 43
0.0000000001
 12
1.0
 22
0.0
 32
0.0
 13
1.0
 23
0.0
 33
0.0
 40
0.0
 40
0.0
 40
0.0
 40
0.0
 40
0.5
 40
0.5
 40
1.0
 40
1.0
 40
1.0
 40
1.0
 10
-27.34
 20
8.124498354268317
 30
0.0
 10
-27.34
 20
8.175029000966207
 30
0.0
 10
-27.31325218560486
 20
8.225574389275838
 30
0.0
 10
-27.21983457328356
 20
8.301706924270244
 30
0.0
 10
-27.1532676169232
 20
8.327571012381485
 30
0.0
 10
-27.08175193028801
 20
8.334681880823538
 30
0.0
  0
LINE
  5
DF
330
1F
100
AcDbEntity
  8
SK1
  6
Continuous
100
AcDbLine
 10
-27.0817519303
 20
8.3346818808
 30
0.0
 11
-3.7359913242
 21
10.6557066136
 31
0.0
  0
LINE
  5
E0
330
1F
100
AcDbEntity
  8
SK3
100
AcDbLine
 10
-26.9164617093
 20
5.3244562022
 30
0.0
 11
-27.34
 21
5.4975782387
 31
0.0
  0
LINE
  5
E1
330
1F
100
AcDbEntity
  8
SK3
100
AcDbLine
 10
-26.9164617093
 20
5.3244562022
 30
0.0
 11
-2.5371250613
 21
5.3244562022
 31
0.0
  0
SPLINE
  5
E2
330
1F
100
AcDbEntity
  8
SK3
100
AcDbSpline
210
0.0
220
0.0
230
1.0
 70
     8
 71
     3
 72
     8
 73
     4
 74
     0
 42
0.0000009093497102
 43
0.0000000001
 12
1.0
 22
0.0
 32
0.0
 13
1.0
 23
0.0
 33
0.0
 40
0.0
 40
0.0
 40
0.0
 40
0.0
 40
1.0
 40
1.0
 40
1.0
 40
1.0
 10
-22.34000000000014
 20
-11.88108364947847
 30
0.0
 10
-22.34000000000014
 20
-11.88467994924939
 30
0.0
 10
-22.33964677040112
 20
-11.888322793002
 30
0.0
 10
-22.33894757970072
 20
-11.89199750702647
 30
0.0
  0
SPLINE
  5
E3
330
1F
100
AcDbEntity
  8
SK3
100
AcDbSpline
210
0.0
220
0.0
230
1.0
 70
     8
 71
     3
 72
    11
 73
     7
 74
     0
 42
0.0000002597303085
 43
0.0000000001
 12
1.0
 22
0.0
 32
0.0
 13
1.0
 23
0.0
 33
0.0
 40
0.0
 40
0.0
 40
0.0
 40
0.0
 40
0.2515122942415396
 40
0.2515122942415396
 40
0.2515122942415396
 40
1.0
 40
1.0
 40
1.0
 40
1.0
 10
-23.01387104971998
 20
-7.376949992303325
 30
0.0
 10
-23.01603124797166
 20
-7.374164621440032
 30
0.0
 10
-23.01796565949442
 20
-7.37135015188917
 30
0.0
 10
-23.01966662966569
 20
-7.36851277308305
 30
0.0
 10
-23.02477062260951
 20
-7.359998831069244
 30
0.0
 10
-23.02786697863651
 20
-7.351181272234696
 30
0.0
 10
-23.02889618367665
 20
-7.342259196181142
 30
0.0
  0
SPLINE
  5
E4
330
1F
100
AcDbEntity
  8
SK3
100
AcDbSpline
210
0.0
220
0.0
230
1.0
 70
     8
 71
     3
 72
    35
 73
    31
 74
     0
 42
0.0000000108838917
 43
0.0000000001
 12
1.0
 22
0.0
 32
0.0
 13
1.0
 23
0.0
 33
0.0
 40
0.0
 40
0.0
 40
0.0
 40
0.0
 40
0.10789571003322
 40
0.10789571003322
 40
0.10789571003322
 40
0.215819833076457
 40
0.215819833076457
 40
0.215819833076457
 40
0.3233418293224826
 40
0.3233418293224826
 40
0.3233418293224826
 40
0.4305585611667626
 40
0.4305585611667626
 40
0.4305585611667626
 40
0.5000123314499952
 40
0.5000123314499952
 40
0.5000123314499952
 40
0.6071229865351198
 40
0.6071229865351198
 40
0.6071229865351198
 40
0.7142323854973307
 40
0.7142323854973307
 40
0.7142323854973307
 40
0.8213622989360593
 40
0.8213622989360593
 40
0.8213622989360593
 40
0.9286281217420953
 40
0.9286281217420953
 40
0.9286281217420953
 40
1.0
 40
1.0
 40
1.0
 40
1.0
 10
-22.62808530006283
 20
7.479362437309327
 30
0.0
 10
-22.67311486149736
 20
7.479362437309327
 30
0.0
 10
-22.718767361948
 20
7.476773662547202
 30
0.0
 10
-22.76126575373439
 20
7.471737682913582
 30
0.0
 10
-22.80377091592821
 20
7.466700900999394
 30
0.0
 10
-22.84429334770444
 20
7.459070131316553
 30
0.0
 10
-22.87943924697388
 20
7.449323748071551
 30
0.0
 10
-22.91445611328681
 20
7.439613147227098
 30
0.0
 10
-22.94510490869843
 20
7.427525418429992
 30
0.0
 10
-22.96882893122791
 20
7.41389209057693
 30
0.0
 10
-22.99248713358705
 20
7.40029658716787
 30
0.0
 10
-23.00991396374109
 20
7.384781339974515
 30
0.0
 10
-23.0196666296657
 20
7.36851297262445
 30
0.0
 10
-23.02603670435018
 20
7.357887086757384
 30
0.0
 10
-23.02927959031636
 20
7.346788273196787
 30
0.0
 10
-23.02927959031636
 20
7.335603587910317
 30
0.0
 10
-23.02927959031636
 20
7.318496195543383
 30
0.0
 10
-23.02157086150326
 20
7.300784919506217
 30
0.0
 10
-23.00678949018928
 20
7.283992993431319
 30
0.0
 10
-22.99200821102701
 20
7.267201172042547
 30
0.0
 10
-22.96974620947433
 20
7.250870958280768
 30
0.0
 10
-22.94184482587874
 20
7.236497445312632
 30
0.0
 10
-22.91393755726069
 20
7.222120900650879
 30
0.0
 10
-22.87962050319613
 20
7.209314306342043
 30
0.0
 10
-22.84173603542693
 20
7.199298211756418
 30
0.0
 10
-22.80380233776659
 20
7.189269101513585
 30
0.0
 10
-22.76125261514198
 20
7.181769213204893
 30
0.0
 10
-22.71759835244987
 20
7.177520059339626
 30
0.0
 10
-22.68832203294903
 20
7.174670404380495
 30
0.0
 10
-22.65811056509354
 20
7.173215691417255
 30
0.0
 10
-22.62808530006283
 20
7.173215691417255
 30
0.0
  0
SPLINE
  5
E5
330
1F
100
AcDbEntity
  8
SK1
  6
Continuous
100
AcDbSpline
210
0.0
220
0.0
230
1.0
 70
     8
 71
     3
 72
    35
 73
    31
 74
     0
 42
0.0000000105330634
 43
0.0000000001
 12
1.0
 22
0.0
 32
0.0
 13
1.0
 23
0.0
 33
0.0
 40
0.0
 40
0.0
 40
0.0
 40
0.0
 40
0.1140466951010004
 40
0.1140466951010004
 40
0.1140466951010004
 40
0.2282948207518979
 40
0.2282948207518979
 40
0.2282948207518979
 40
0.3392741566161804
 40
0.3392741566161804
 40
0.3392741566161804
 40
0.4452969336874708
 40
0.4452969336874708
 40
0.4452969336874708
 40
0.5002192508761243
 40
0.5002192508761243
 40
0.5002192508761243
 40
0.6019916732935748
 40
0.6019916732935748
 40
0.6019916732935748
 40
0.7036615082091257
 40
0.7036615082091257
 40
0.7036615082091257
 40
0.8069310276856894
 40
0.8069310276856894
 40
0.8069310276856894
 40
0.9141591791607976
 40
0.9141591791607976
 40
0.9141591791607976
 40
1.0
 40
1.0
 40
1.0
 40
1.0
 10
-21.92480702332896
 20
11.77619757333622
 30
0.0
 10
-21.97294452244875
 20
11.76994426722976
 30
0.0
 10
-22.02179045614391
 20
11.7669888206037
 30
0.0
 10
-22.06731538777531
 20
11.7676198887981
 30
0.0
 10
-22.11288603359827
 20
11.76825159068422
 30
0.0
 10
-22.1564180150216
 20
11.77250832149756
 30
0.0
 10
-22.19389651274892
 20
11.78006064560668
 30
0.0
 10
-22.23030119824842
 20
11.78739658489601
 30
0.0
 10
-22.26204048341444
 20
11.79806362337646
 30
0.0
 10
-22.28596647678707
 20
11.81109751927231
 30
0.0
 10
-22.30883959766339
 20
11.82355785359038
 30
0.0
 10
-22.32522337379231
 20
11.83854047715596
 30
0.0
 10
-22.3334800534375
 20
11.85469108451591
 30
0.0
 10
-22.33780546822939
 20
11.86315187977195
 30
0.0
 10
-22.34000000000016
 20
11.87202520467678
 30
0.0
 10
-22.34000000000016
 20
11.88108384901987
 30
0.0
 10
-22.34000000000016
 20
11.89769878921333
 30
0.0
 10
-22.33246049415373
 20
11.91530718698517
 30
0.0
 10
-22.31809824177583
 20
11.93246204204722
 30
0.0
 10
-22.30374405022954
 20
11.94960726892598
 30
0.0
 10
-22.28220523305036
 20
11.96676633984673
 30
0.0
 10
-22.25540696650819
 20
11.98266107258337
 30
0.0
 10
-22.22817994286375
 20
11.99881011205059
 30
0.0
 10
-22.19482910869285
 20
12.01408549331235
 30
0.0
 10
-22.15812035425783
 20
12.02746395401392
 30
0.0
 10
-22.12001391021601
 20
12.04135180098494
 30
0.0
 10
-22.07730851902695
 20
12.05356573513208
 30
0.0
 10
-22.03337750918217
 20
12.06332800345163
 30
0.0
 10
-21.99803558327055
 20
12.07118162131515
 30
0.0
 10
-21.96126607020196
 20
12.0776081035001
 30
0.0
 10
-21.92480702332896
 20
12.08234431922829
 30
0.0
  0
ELLIPSE
  5
E6
330
1F
100
AcDbEntity
  8
SK1
  6
Continuous
100
AcDbEllipse
 10
51.5492454892
 20
0.15307347
 30
0.0
 11
-74.60000002035041
 21
1.819501167698188E-8
 31
0.0
210
0.0
220
0.0
230
1.0
 40
0.9238795324
 41
-0.1739612068319394
 42
-0.1694205576459042
  0
ARC
  5
E7
330
1F
100
AcDbEntity
  8
SK3
100
AcDbCircle
 10
-2.5367855529
 20
-15.9038617465
 30
0.0
 40
7.973943821157717
100
AcDbArc
 50
87.1184933969
 51
90.0024394953
  0
SPLINE
  5
E8
330
1F
100
AcDbEntity
  8
SK1
  6
Continuous
100
AcDbSpline
210
0.0
220
0.0
230
1.0
 70
     8
 71
     3
 72
    20
 73
    16
 74
     0
 42
0.0000000249596325
 43
0.0000000001
 12
1.0
 22
0.0
 32
0.0
 13
1.0
 23
0.0
 33
0.0
 40
0.0
 40
0.0
 40
0.0
 40
0.0
 40
0.2153718826171145
 40
0.2153718826171145
 40
0.2153718826171145
 40
0.4307664362912462
 40
0.4307664362912462
 40
0.4307664362912462
 40
0.6458341186110127
 40
0.6458341186110127
 40
0.6458341186110127
 40
0.8605839001856211
 40
0.8605839001856211
 40
0.8605839001856211
 40
1.0
 40
1.0
 40
1.0
 40
1.0
 10
-3.735991324228686
 20
-15.46944456874255
 30
0.0
 10
-3.691530379694806
 20
-15.47569523556969
 30
0.0
 10
-3.646483917844949
 20
-15.48223342709087
 30
0.0
 10
-3.604576299425225
 20
-15.48848673993706
 30
0.0
 10
-3.562666046493907
 20
-15.49474044589616
 30
0.0
 10
-3.522738413628796
 20
-15.50087898123409
 30
0.0
 10
-3.488104890182384
 20
-15.50631212984705
 30
0.0
 10
-3.453523374075163
 20
-15.51173711978673
 30
0.0
 10
-3.423264198386322
 20
-15.51660431091758
 30
0.0
 10
-3.39983187825836
 20
-15.52041642536854
 30
0.0
 10
-3.376433513497199
 20
-15.52422301575087
 30
0.0
 10
-3.359195250862037
 20
-15.52707875177539
 30
0.0
 10
-3.349538750649147
 20
-15.52868172073151
 30
0.0
 10
-3.343217909000761
 20
-15.52973097384761
 30
0.0
 10
-3.340000000000003
 20
-15.5302681407828
 30
0.0
 10
-3.340000000000003
 20
-15.5302681407828
 30
0.0
  0
SPLINE
  5
E9
330
1F
100
AcDbEntity
  8
SK1
  6
Continuous
100
AcDbSpline
210
0.0
220
0.0
230
1.0
 70
     8
 71
     3
 72
    20
 73
    16
 74
     0
 42
0.0000000249596416
 43
0.0000000001
 12
1.0
 22
0.0
 32
0.0
 13
1.0
 23
0.0
 33
0.0
 40
0.0
 40
0.0
 40
0.0
 40
0.0
 40
0.2145786737343268
 40
0.2145786737343268
 40
0.2145786737343268
 40
0.4291541907561934
 40
0.4291541907561934
 40
0.4291541907561934
 40
0.6437810025606525
 40
0.6437810025606525
 40
0.6437810025606525
 40
0.8585972232109039
 40
0.8585972232109039
 40
0.8585972232109039
 40
1.0
 40
1.0
 40
1.0
 40
1.0
 10
-3.340000000000007
 20
15.53026834032419
 30
0.0
 10
-3.340000000000007
 20
15.53026834032419
 30
0.0
 10
-3.347618441149177
 20
15.52899378014555
 30
0.0
 10
-3.36222834763514
 20
15.52658076474043
 30
0.0
 10
-3.376838136566957
 20
15.5241677687509
 30
0.0
 10
-3.398842476522105
 20
15.52055256508602
 30
0.0
 10
-3.426428906884943
 20
15.5161129471168
 30
0.0
 10
-3.454022215765127
 20
15.51167222215444
 30
0.0
 10
-3.4879607415582
 20
15.50628872591499
 30
0.0
 10
-3.525446613183316
 20
15.50050019957226
 30
0.0
 10
-3.562965835685893
 20
15.49470652322435
 30
0.0
 10
-3.605070934506644
 20
15.48835178612611
 30
0.0
 10
-3.648290735418413
 20
15.48202679656847
 30
0.0
 10
-3.676969597923105
 20
15.47782979653515
 30
0.0
 10
-3.706564389521199
 20
15.47358183659252
 30
0.0
 10
-3.735991324228675
 20
15.46944476828395
 30
0.0
  0
ARC
  5
EA
330
1F
100
AcDbEntity
  8
SK3
100
AcDbCircle
 10
-2.5367855529
 20
15.9038619461
 30
0.0
 40
7.97394382115603
100
AcDbArc
 50
269.9975605047
 51
272.8331000288
  0
LINE
  5
EB
330
1F
100
AcDbEntity
  8
SK1
  6
Continuous
100
AcDbLine
 10
-3.7359913242
 20
15.4694447683
 30
0.0
 11
-27.0817519303
 21
12.1870201126
 31
0.0
  0
LINE
  5
EC
330
1F
100
AcDbEntity
  8
SK3
100
AcDbLine
 10
-2.5371250613
 20
7.9299181321
 30
0.0
 11
-26.9164617093
 21
7.9299181321
 31
0.0
  0
LINE
  5
ED
330
1F
100
AcDbEntity
  8
SK3
100
AcDbLine
 10
-22.6280853001
 20
-7.4793622378
 30
0.0
 11
12.26
 21
-7.4793622378
 31
0.0
  0
SPLINE
  5
EE
330
1F
100
AcDbEntity
  8
SK1
  6
Continuous
100
AcDbSpline
210
0.0
220
0.0
230
1.0
 70
     8
 71
     3
 72
    11
 73
     7
 74
     0
 42
0.0000000003971097
 43
0.0000000001
 12
1.0
 22
0.0
 32
0.0
 13
1.0
 23
0.0
 33
0.0
 40
0.0
 40
0.0
 40
0.0
 40
0.0
 40
0.8233273564535349
 40
0.8233273564535349
 40
0.8233273564535349
 40
1.0
 40
1.0
 40
1.0
 40
1.0
 10
-21.92480702332896
 20
-12.08234411968689
 30
0.0
 10
-15.07139456515264
 20
-12.97263727488795
 30
0.0
 10
-8.217968323330743
 20
-13.86283986438522
 30
0.0
 10
-1.364534694013495
 20
-14.75299390156436
 30
0.0
 10
0.1061005608936298
 20
-14.94400646259268
 30
0.0
 10
1.576736173439626
 20
-15.1350166733589
 30
0.0
 10
3.047372104567986
 20
-15.32602479045226
 30
0.0
  0
ELLIPSE
  5
EF
330
1F
100
AcDbEntity
  8
SK1
  6
Continuous
100
AcDbEllipse
 10
51.5492454895
 20
-0.1530732705
 30
0.0
 11
-74.6000000206956
 21
-1.800295160354787E-8
 31
0.0
210
0.0
220
0.0
230
1.0
 40
0.9238795324
 41
0.1693988338240457
 42
0.1739612068339051
  0
SPLINE
  5
F0
330
1F
100
AcDbEntity
  8
SK1
  6
Continuous
100
AcDbSpline
210
0.0
220
0.0
230
1.0
 70
     8
 71
     3
 72
    35
 73
    31
 74
     0
 42
0.000000010532683
 43
0.0000000001
 12
1.0
 22
0.0
 32
0.0
 13
1.0
 23
0.0
 33
0.0
 40
0.0
 40
0.0
 40
0.0
 40
0.0
 40
0.1140466951057616
 40
0.1140466951057616
 40
0.1140466951057616
 40
0.228294820761431
 40
0.228294820761431
 40
0.228294820761431
 40
0.339274156630352
 40
0.339274156630352
 40
0.339274156630352
 40
0.4452969337060649
 40
0.4452969337060649
 40
0.4452969337060649
 40
0.500219250897011
 40
0.500219250897011
 40
0.500219250897011
 40
0.6019916716268937
 40
0.6019916716268937
 40
0.6019916716268937
 40
0.7036615048631366
 40
0.7036615048631366
 40
0.7036615048631366
 40
0.806931024264333
 40
0.806931024264333
 40
0.806931024264333
 40
0.9141591755960854
 40
0.9141591755960854
 40
0.9141591755960854
 40
1.0
 40
1.0
 40
1.0
 40
1.0
 10
-21.92480702332896
 20
-12.08234411968689
 30
0.0
 10
-21.97294452244875
 20
-12.07609081358043
 30
0.0
 10
-22.02179045614391
 20
-12.0668399287593
 30
0.0
 10
-22.06731538777531
 20
-12.05524219669918
 30
0.0
 10
-22.11288603359827
 20
-12.04363281869196
 30
0.0
 10
-22.15641801502161
 20
-12.02932586670536
 30
0.0
 10
-22.19389651274892
 20
-12.01338114199382
 30
0.0
 10
-22.23030119824842
 20
-11.9978932563074
 30
0.0
 10
-22.26204048341444
 20
-11.98039334011961
 30
0.0
 10
-22.28596647678708
 20
-11.96229937306362
 30
0.0
 10
-22.30883959766339
 20
-11.9450016379536
 30
0.0
 10
-22.32522337379231
 20
-11.9266539175827
 30
0.0
 10
-22.3334800534375
 20
-11.90881036791736
 30
0.0
 10
-22.33780546822939
 20
-11.89946269343091
 30
0.0
 10
-22.34000000000014
 20
-11.89014229382158
 30
0.0
 10
-22.34000000000014
 20
-11.8810836494785
 30
0.0
 10
-22.34000000000015
 20
-11.86446870955336
 30
0.0
 10
-22.33246049440443
 20
-11.84838937411929
 30
0.0
 10
-22.31809824248176
 20
-11.8342093621923
 30
0.0
 10
-22.30374405138994
 20
-11.82003730881376
 30
0.0
 10
-22.28220523489145
 20
-11.80737838366701
 30
0.0
 10
-22.25540696913901
 20
-11.79726203798069
 30
0.0
 10
-22.22817994587895
 20
-11.78698383632941
 30
0.0
 10
-22.19482911204853
 20
-11.77905694815092
 30
0.0
 10
-22.15812035788852
 20
-11.77407513728751
 30
0.0
 10
-22.12001391415465
 20
-11.76890364346531
 30
0.0
 10
-22.07730852321562
 20
-11.76676715178901
 30
0.0
 10
-22.03337751354688
 20
-11.76778628116676
 30
0.0
 10
-21.99803558628583
 20
-11.76860615752767
 30
0.0
 10
-21.96126607169085
 20
-11.77146115787322
 30
0.0
 10
-21.92480702332897
 20
-11.77619737379482
 30
0.0
  0
SPLINE
  5
F1
330
1F
100
AcDbEntity
  8
SK3
100
AcDbSpline
210
0.0
220
0.0
230
1.0
 70
     8
 71
     3
 72
    35
 73
    31
 74
     0
 42
0.000000010883208
 43
0.0000000001
 12
1.0
 22
0.0
 32
0.0
 13
1.0
 23
0.0
 33
0.0
 40
0.0
 40
0.0
 40
0.0
 40
0.0
 40
0.1078957100332298
 40
0.1078957100332298
 40
0.1078957100332298
 40
0.2158198330764716
 40
0.2158198330764716
 40
0.2158198330764716
 40
0.3233418293225021
 40
0.3233418293225021
 40
0.3233418293225021
 40
0.430558561166786
 40
0.430558561166786
 40
0.430558561166786
 40
0.5000123314499956
 40
0.5000123314499956
 40
0.5000123314499956
 40
0.6071229865351202
 40
0.6071229865351202
 40
0.6071229865351202
 40
0.7142323854973315
 40
0.7142323854973315
 40
0.7142323854973315
 40
0.8213622989360577
 40
0.8213622989360577
 40
0.8213622989360577
 40
0.928628121742093
 40
0.928628121742093
 40
0.928628121742093
 40
1.0
 40
1.0
 40
1.0
 40
1.0
 10
-22.62808530006283
 20
-7.173215491875856
 30
0.0
 10
-22.67311486149736
 20
-7.173215491875857
 30
0.0
 10
-22.718767361948
 20
-7.176543645082244
 30
0.0
 10
-22.7612657537344
 20
-7.182886886201284
 30
0.0
 10
-22.80377091592822
 20
-7.189231137860367
 30
0.0
 10
-22.84429334770445
 20
-7.19876365791158
 30
0.0
 10
-22.87943924697389
 20
-7.210554553659465
 30
0.0
 10
-22.91445611328682
 20
-7.222302160882379
 30
0.0
 10
-22.94510490869845
 20
-7.236608566234317
 30
0.0
 10
-22.96882893122793
 20
-7.252115362515339
 30
0.0
 10
-22.99248713358707
 20
-7.267579136582427
 30
0.0
 10
-23.00991396374109
 20
-7.284656124927117
 30
0.0
 10
-23.0196666296657
 20
-7.301810204193867
 30
0.0
 10
-23.02603670435018
 20
-7.31301460378239
 30
0.0
 10
-23.02927959031636
 20
-7.324418703082449
 30
0.0
 10
-23.02927959031636
 20
-7.335603388368916
 30
0.0
 10
-23.02927959031636
 20
-7.352710780735849
 30
0.0
 10
-23.02157086150326
 20
-7.369686147098871
 30
0.0
 10
-23.00678949018928
 20
-7.3851800470078
 30
0.0
 10
-22.99200821102701
 20
-7.400673850322907
 30
0.0
 10
-22.96974620947433
 20
-7.415118405720395
 30
0.0
 10
-22.94184482587874
 20
-7.427463874348112
 30
0.0
 10
-22.91393755726069
 20
-7.439811946909783
 30
0.0
 10
-22.87962050319613
 20
-7.450407906596666
 30
0.0
 10
-22.84173603542693
 20
-7.458551919402523
 30
0.0
 10
-22.8038023377666
 20
-7.46670651514348
 30
0.0
 10
-22.76125261514199
 20
-7.47263456885877
 30
0.0
 10
-22.71759835244987
 20
-7.475981917479726
 30
0.0
 10
-22.68832203294903
 20
-7.478226785258135
 30
0.0
 10
-22.65811056509354
 20
-7.479362237767928
 30
0.0
 10
-22.62808530006283
 20
-7.479362237767927
 30
0.0
  0
SPLINE
  5
F2
330
1F
100
AcDbEntity
  8
SK3
100
AcDbSpline
210
0.0
220
0.0
230
1.0
 70
     8
 71
     3
 72
    11
 73
     7
 74
     0
 42
0.0000003241490485
 43
0.0000000001
 12
1.0
 22
0.0
 32
0.0
 13
1.0
 23
0.0
 33
0.0
 40
0.0
 40
0.0
 40
0.0
 40
0.0
 40
0.4064454829908822
 40
0.4064454829908822
 40
0.4064454829908822
 40
1.0
 40
1.0
 40
1.0
 40
1.0
 10
-22.32711295018638
 20
11.92026736718137
 30
0.0
 10
-22.32959355691637
 20
11.91643557111327
 30
0.0
 10
-22.33172120180087
 20
11.91261163009906
 30
0.0
 10
-22.33348005343751
 20
11.90881056745874
 30
0.0
 10
-22.3360775810346
 20
11.90319703821
 30
0.0
 10
-22.33790664303842
 20
11.89759334516738
 30
0.0
 10
-22.33895345507318
 20
11.8920502696238
 30
0.0
  0
SPLINE
  5
F3
330
1F
100
AcDbEntity
  8
SK1
  6
Continuous
100
AcDbSpline
210
0.0
220
0.0
230
1.0
 70
     8
 71
     3
 72
    11
 73
     7
 74
     0
 42
0.0000000003971097
 43
0.0000000001
 12
1.0
 22
0.0
 32
0.0
 13
1.0
 23
0.0
 33
0.0
 40
0.0
 40
0.0
 40
0.0
 40
0.0
 40
0.823327356453535
 40
0.823327356453535
 40
0.823327356453535
 40
1.0
 40
1.0
 40
1.0
 40
1.0
 10
-21.92480702332897
 20
-11.77619737379482
 30
0.0
 10
-15.07139456515264
 20
-12.66649052899587
 30
0.0
 10
-8.217968323330746
 20
-13.55669311849314
 30
0.0
 10
-1.364534694013495
 20
-14.44684715567228
 30
0.0
 10
0.1061005608936289
 20
-14.63785971670061
 30
0.0
 10
1.576736173439623
 20
-14.82886992746683
 30
0.0
 10
3.047372104567986
 20
-15.01987804456019
 30
0.0
  0
LINE
  5
F4
330
1F
100
AcDbEntity
  8
SK3
100
AcDbLine
 10
-22.6280853001
 20
-7.1732154919
 30
0.0
 11
12.26
 21
-7.1732154919
 31
0.0
  0
SPLINE
  5
F5
330
1F
100
AcDbEntity
  8
SK3
100
AcDbSpline
210
0.0
220
0.0
230
1.0
 70
     8
 71
     3
 72
    35
 73
    31
 74
     0
 42
0.0000000091961417
 43
0.0000000001
 12
1.0
 22
0.0
 32
0.0
 13
1.0
 23
0.0
 33
0.0
 40
0.0
 40
0.0
 40
0.0
 40
0.0
 40
0.1078957100332216
 40
0.1078957100332216
 40
0.1078957100332216
 40
0.2158198330764572
 40
0.2158198330764572
 40
0.2158198330764572
 40
0.3233418293224761
 40
0.3233418293224761
 40
0.3233418293224761
 40
0.4305585611667704
 40
0.4305585611667704
 40
0.4305585611667704
 40
0.5000123314499956
 40
0.5000123314499956
 40
0.5000123314499956
 40
0.6071229865351232
 40
0.6071229865351232
 40
0.6071229865351232
 40
0.7142323854973363
 40
0.7142323854973363
 40
0.7142323854973363
 40
0.8213622989360673
 40
0.8213622989360673
 40
0.8213622989360673
 40
0.9286281217420831
 40
0.9286281217420831
 40
0.9286281217420831
 40
1.0
 40
1.0
 40
1.0
 40
1.0
 10
-2.537125061281564
 20
-5.890141427641462
 30
0.0
 10
-2.492095499847037
 20
-5.890141427641462
 30
0.0
 10
-2.446442999396398
 20
-5.884957846876874
 30
0.0
 10
-2.40394460761
 20
-5.874945085039806
 30
0.0
 10
-2.361439445416184
 20
-5.864930728072327
 30
0.0
 10
-2.320917013639951
 20
-5.84980168433495
 30
0.0
 10
-2.285771114370513
 20
-5.830686234149553
 30
0.0
 10
-2.25075424805758
 20
-5.811640963504406
 30
0.0
 10
-2.220105452645962
 20
-5.788105013945056
 30
0.0
 10
-2.19638143011648
 20
-5.761899995011181
 30
0.0
 10
-2.172723227757337
 20
-5.7357676795494
 30
0.0
 10
-2.155296397603299
 20
-5.70625403268127
 30
0.0
 10
-2.14554373167869
 20
-5.675714665601904
 30
0.0
 10
-2.139173656994207
 20
-5.655767499297202
 30
0.0
 10
-2.135930771028029
 20
-5.635094346477985
 30
0.0
 10
-2.135930771028029
 20
-5.614427742850486
 30
0.0
 10
-2.135930771028029
 20
-5.582817403525586
 30
0.0
 10
-2.143639499841147
 20
-5.550489504120503
 30
0.0
 10
-2.158420871155118
 20
-5.520164557195332
 30
0.0
 10
-2.173202150317392
 20
-5.489839799325374
 30
0.0
 10
-2.195464151870071
 20
-5.460686009766252
 30
0.0
 10
-2.223365535465664
 20
-5.435224790571118
 30
0.0
 10
-2.251272804083714
 20
-5.409758201038479
 30
0.0
 10
-2.285589858148267
 20
-5.38729108714851
 30
0.0
 10
-2.323474325917473
 20
-5.369796920940166
 30
0.0
 10
-2.361408023577802
 20
-5.352280021512947
 30
0.0
 10
-2.403957746202399
 20
-5.339272705655929
 30
0.0
 10
-2.447612008894507
 20
-5.331909346564017
 30
0.0
 10
-2.476888328395346
 20
-5.326971179244718
 30
0.0
 10
-2.507099796250845
 20
-5.324456002692225
 30
0.0
 10
-2.537125061281564
 20
-5.324456002692223
 30
0.0
  0
SPLINE
  5
F6
330
1F
100
AcDbEntity
  8
SK1
  6
Continuous
100
AcDbSpline
210
0.0
220
0.0
230
1.0
 70
     8
 71
     3
 72
    35
 73
    31
 74
     0
 42
0.0000000092453942
 43
0.0000000001
 12
1.0
 22
0.0
 32
0.0
 13
1.0
 23
0.0
 33
0.0
 40
0.0
 40
0.0
 40
0.0
 40
0.0
 40
0.1076873144994248
 40
0.1076873144994248
 40
0.1076873144994248
 40
0.2153859646719059
 40
0.2153859646719059
 40
0.2153859646719059
 40
0.3229211770831064
 40
0.3229211770831064
 40
0.3229211770831064
 40
0.4302974370948144
 40
0.4302974370948144
 40
0.4302974370948144
 40
0.5000063759059408
 40
0.5000063759059408
 40
0.5000063759059408
 40
0.6072943446396617
 40
0.6072943446396617
 40
0.6072943446396617
 40
0.7145807350372823
 40
0.7145807350372823
 40
0.7145807350372823
 40
0.8218927724991374
 40
0.8218927724991374
 40
0.8218927724991374
 40
0.9292995131762521
 40
0.9292995131762521
 40
0.9292995131762521
 40
1.0
 40
1.0
 40
1.0
 40
1.0
 10
-3.735991324228686
 20
-10.65570641405048
 30
0.0
 10
-3.691530379694805
 20
-10.66012630295089
 30
0.0
 10
-3.646483917844948
 20
-10.67022000480769
 30
0.0
 10
-3.604576299425223
 20
-10.68514162237903
 30
0.0
 10
-3.562666046493904
 20
-10.70006417799401
 30
0.0
 10
-3.522738413628794
 20
-10.72022656875956
 30
0.0
 10
-3.488104890182381
 20
-10.7439064775586
 30
0.0
 10
-3.453523374075158
 20
-10.76755082748501
 30
0.0
 10
-3.423264198386322
 20
-10.79535256937627
 30
0.0
 10
-3.39983187825836
 20
-10.82494092519027
 30
0.0
 10
-3.376433513497202
 20
-10.85448640503341
 30
0.0
 10
-3.359195250862041
 20
-10.88662618585533
 30
0.0
 10
-3.349538750649152
 20
-10.9186498709289
 30
0.0
 10
-3.343217909000767
 20
-10.93961156904781
 30
0.0
 10
-3.34000000000001
 20
-10.96083674184806
 30
0.0
 10
-3.34000000000001
 20
-10.98155788677075
 30
0.0
 10
-3.34000000000001
 20
-11.01318866718802
 30
0.0
 10
-3.347618441149176
 20
-11.04435440363018
 30
0.0
 10
-3.362228347635139
 20
-11.07249559395462
 30
0.0
 10
-3.376838136566956
 20
-11.10063655784956
 30
0.0
 10
-3.398842476522117
 20
-11.12653081611262
 30
0.0
 10
-3.426428906884956
 20
-11.14809233162972
 30
0.0
 10
-3.454022215765139
 20
-11.16965922338639
 30
0.0
 10
-3.487960741558202
 20
-11.18748845238461
 30
0.0
 10
-3.525446613183314
 20
-11.2001774902396
 30
0.0
 10
-3.562965835685893
 20
-11.21287781742916
 30
0.0
 10
-3.605070934506648
 20
-11.22078173802565
 30
0.0
 10
-3.648290735418419
 20
-11.22329447639528
 30
0.0
 10
-3.676969597923113
 20
-11.2249618250802
 30
0.0
 10
-3.70656438952121
 20
-11.22431718805494
 30
0.0
 10
-3.735991324228714
 20
-11.22139183899971
 30
0.0
  0
ELLIPSE
  5
F7
330
1F
100
AcDbEntity
  8
SK1
  6
Continuous
100
AcDbEllipse
 10
-76.71445582
 20
-0.2828426138
 30
0.0
 11
74.59999998977192
 21
2.263099155309276E-9
 31
0.0
210
0.0
220
0.0
230
1.0
 40
0.7071067812
 41
-0.2088808539252947
 42
-0.1986429548105351
  0
LINE
  5
F8
330
1F
100
AcDbEntity
  8
SK3
100
AcDbLine
 10
-22.6280853001
 20
-3.4041999642
 30
0.0
 11
12.26
 21
-3.4041999642
 31
0.0
  0
LINE
  5
F9
330
1F
100
AcDbEntity
  8
SK1
  6
Continuous
100
AcDbLine
 10
-21.9248070233
 20
-5.3108174871
 30
0.0
 11
3.0473721046
 21
-6.6543940129
 31
0.0
  0
ELLIPSE
  5
FA
330
1F
100
AcDbEntity
  8
SK1
  6
Continuous
100
AcDbEllipse
 10
51.5492454893
 20
-0.3695517121
 30
0.0
 11
-74.60000002046775
 21
-1.265795581001767E-9
 31
0.0
210
0.0
220
0.0
230
1.0
 40
0.3826834323
 41
0.1508047264848264
 42
0.1739612070506411
  0
SPLINE
  5
FB
330
1F
100
AcDbEntity
  8
SK1
  6
Continuous
100
AcDbSpline
210
0.0
220
0.0
230
1.0
 70
     8
 71
     3
 72
    35
 73
    31
 74
     0
 42
0.0000000080647976
 43
0.0000000001
 12
1.0
 22
0.0
 32
0.0
 13
1.0
 23
0.0
 33
0.0
 40
0.0
 40
0.0
 40
0.0
 40
0.0
 40
0.1140466951010062
 40
0.1140466951010062
 40
0.1140466951010062
 40
0.2282948207519138
 40
0.2282948207519138
 40
0.2282948207519138
 40
0.3392741566161988
 40
0.3392741566161988
 40
0.3392741566161988
 40
0.4452969336874772
 40
0.4452969336874772
 40
0.4452969336874772
 40
0.500219250876123
 40
0.500219250876123
 40
0.500219250876123
 40
0.6019916732935728
 40
0.6019916732935728
 40
0.6019916732935728
 40
0.7036615082091224
 40
0.7036615082091224
 40
0.7036615082091224
 40
0.8069310276856875
 40
0.8069310276856875
 40
0.8069310276856875
 40
0.9141591791608003
 40
0.9141591791608003
 40
0.9141591791608003
 40
1.0
 40
1.0
 40
1.0
 40
1.0
 10
-21.92480702332896
 20
-5.310817487080869
 30
0.0
 10
-21.97294452244875
 20
-5.308227282881901
 30
0.0
 10
-22.02179045614391
 20
-5.298100002729965
 30
0.0
 10
-22.06731538777531
 20
-5.281067264563371
 30
0.0
 10
-22.11288603359827
 20
-5.264017422848729
 30
0.0
 10
-22.15641801502161
 20
-5.239527606499704
 30
0.0
 10
-22.19389651274894
 20
-5.209426036455215
 30
0.0
 10
-22.23030119824843
 20
-5.180186919175664
 30
0.0
 10
-22.26204048341445
 20
-5.144771261882056
 30
0.0
 10
-22.28596647678708
 20
-5.106148632378485
 30
0.0
 10
-22.30883959766339
 20
-5.0692256064695
 30
0.0
 10
-22.32522337379232
 20
-5.028295387916762
 30
0.0
 10
-22.33348005343751
 20
-4.986910190619211
 30
0.0
 10
-22.33780546822939
 20
-4.965229787327783
 30
0.0
 10
-22.34000000000014
 20
-4.943175426888704
 30
0.0
 10
-22.34000000000015
 20
-4.921305924858917
 30
0.0
 10
-22.34000000000015
 20
-4.881193910905841
 30
0.0
 10
-22.33246049415373
 20
-4.840845898530232
 30
0.0
 10
-22.31809824177583
 20
-4.803637478039198
 30
0.0
 10
-22.30374405022954
 20
-4.766449940819448
 30
0.0
 10
-22.28220523305036
 20
-4.7313884461128
 30
0.0
 10
-22.25540696650819
 20
-4.701187040090762
 30
0.0
 10
-22.22817994286375
 20
-4.670502428660263
 30
0.0
 10
-22.19482910869285
 20
-4.644016734872013
 30
0.0
 10
-22.15812035425783
 20
-4.623592929938185
 30
0.0
 10
-22.12001391021601
 20
-4.60239148652747
 30
0.0
 10
-22.07730851902694
 20
-4.587156097163336
 30
0.0
 10
-22.03337750918216
 20
-4.578835095722721
 30
0.0
 10
-21.99803558327054
 20
-4.572140958313549
 30
0.0
 10
-21.96126607020195
 20
-4.569752056282899
 30
0.0
 10
-21.92480702332896
 20
-4.57171386107184
 30
0.0
  0
SPLINE
  5
FC
330
1F
100
AcDbEntity
  8
SK3
100
AcDbSpline
210
0.0
220
0.0
230
1.0
 70
     8
 71
     3
 72
    35
 73
    31
 74
     0
 42
0.0000000082191043
 43
0.0000000001
 12
1.0
 22
0.0
 32
0.0
 13
1.0
 23
0.0
 33
0.0
 40
0.0
 40
0.0
 40
0.0
 40
0.0
 40
0.1078957100332199
 40
0.1078957100332199
 40
0.1078957100332199
 40
0.2158198330764569
 40
0.2158198330764569
 40
0.2158198330764569
 40
0.3233418293224823
 40
0.3233418293224823
 40
0.3233418293224823
 40
0.4305585611667624
 40
0.4305585611667624
 40
0.4305585611667624
 40
0.500012331449995
 40
0.500012331449995
 40
0.500012331449995
 40
0.6071229865351251
 40
0.6071229865351251
 40
0.6071229865351251
 40
0.7142323854973384
 40
0.7142323854973384
 40
0.7142323854973384
 40
0.8213622989360659
 40
0.8213622989360659
 40
0.8213622989360659
 40
0.9286281217420811
 40
0.9286281217420811
 40
0.9286281217420811
 40
1.0
 40
1.0
 40
1.0
 40
1.0
 10
-22.62808530006283
 20
-2.665096338223372
 30
0.0
 10
-22.67311486149736
 20
-2.665096338223372
 30
0.0
 10
-22.718767361948
 20
-2.67239183238762
 30
0.0
 10
-22.76126575373439
 20
-2.686398509641185
 30
0.0
 10
-22.80377091592821
 20
-2.700407418294754
 30
0.0
 10
-22.84429334770444
 20
-2.72151920711762
 30
0.0
 10
-22.87943924697388
 20
-2.747940435041808
 30
0.0
 10
-22.91445611328681
 20
-2.774264661346335
 30
0.0
 10
-22.94510490869843
 20
-2.806584702620963
 30
0.0
 10
-22.96882893122791
 20
-2.8421479520836
 30
0.0
 10
-22.99248713358705
 20
-2.877612534503806
 30
0.0
 10
-23.00991396374109
 20
-2.917278290218703
 30
0.0
 10
-23.0196666296657
 20
-2.957806189117827
 30
0.0
 10
-23.02603670435018
 20
-2.984277488841238
 30
0.0
 10
-23.02927959031635
 20
-3.011504134298635
 30
0.0
 10
-23.02927959031635
 20
-3.038506353208108
 30
0.0
 10
-23.02927959031635
 20
-3.079807251877198
 30
0.0
 10
-23.02157086150324
 20
-3.121525321251199
 30
0.0
 10
-23.00678949018926
 20
-3.160228930711356
 30
0.0
 10
-22.99200821102699
 20
-3.198932298881094
 30
0.0
 10
-22.96974620947432
 20
-3.235690198788455
 30
0.0
 10
-22.94184482587873
 20
-3.267522840923758
 30
0.0
 10
-22.91393755726068
 20
-3.299362197271396
 30
0.0
 10
-22.87962050319612
 20
-3.327153741475779
 30
0.0
 10
-22.84173603542692
 20
-3.348687209423582
 30
0.0
 10
-22.80380233776659
 20
-3.370248659558942
 30
0.0
 10
-22.76125261514199
 20
-3.386132081830274
 30
0.0
 10
-22.71759835244989
 20
-3.395115101513291
 30
0.0
 10
-22.68832203294905
 20
-3.401139478930387
 30
0.0
 10
-22.65811056509355
 20
-3.404199964232402
 30
0.0
 10
-22.62808530006283
 20
-3.404199964232402
 30
0.0
  0
LINE
  5
FD
330
1F
100
AcDbEntity
  8
SK1
  6
Continuous
100
AcDbLine
 10
-21.9248070233
 20
-4.5717138611
 30
0.0
 11
3.0473721046
 21
-5.9152903869
 31
0.0
  0
LINE
  5
FE
330
1F
100
AcDbEntity
  8
SK3
100
AcDbLine
 10
-22.6280853001
 20
-2.6650963382
 30
0.0
 11
12.26
 21
-2.6650963382
 31
0.0
  0
LINE
  5
FF
330
1F
100
AcDbEntity
  8
SK3
100
AcDbLine
 10
-2.5371250613
 20
0.4000000998
 30
0.0
 11
-3.7359913242
 21
0.4000000998
 31
0.0
  0
ARC
  5
100
330
1F
100
AcDbEntity
  8
SK3
100
AcDbCircle
 10
-2.5358823566
 20
0.0000000998
 30
0.0
 40
0.4000019303890265
100
AcDbArc
 50
269.8219962379
 51
90.1780037621
  0
ARC
  5
101
330
1F
100
AcDbEntity
  8
SK1
  6
Continuous
100
AcDbCircle
 10
-3.7399955132
 20
0.0000000998
 30
0.0
 40
0.4000200414090899
100
AcDbArc
 50
270.5735386566
 51
89.4264613434
  0
LINE
  5
102
330
1F
100
AcDbEntity
  8
SK3
100
AcDbLine
 10
-3.7359913242
 20
-0.3999999002
 30
0.0
 11
-2.5371250613
 21
-0.3999999002
 31
0.0
  0
LINE
  5
103
330
1F
100
AcDbEntity
  8
SK3
100
AcDbLine
 10
-22.6280853001
 20
2.6650965378
 30
0.0
 11
12.26
 21
2.6650965378
 31
0.0
  0
LINE
  5
104
330
1F
100
AcDbEntity
  8
SK1
  6
Continuous
100
AcDbLine
 10
-21.9248070233
 20
4.5717140606
 30
0.0
 11
3.0473721046
 21
5.9152905865
 31
0.0
  0
SPLINE
  5
105
330
1F
100
AcDbEntity
  8
SK1
  6
Continuous
100
AcDbSpline
210
0.0
220
0.0
230
1.0
 70
     8
 71
     3
 72
    35
 73
    31
 74
     0
 42
0.0000000080645082
 43
0.0000000001
 12
1.0
 22
0.0
 32
0.0
 13
1.0
 23
0.0
 33
0.0
 40
0.0
 40
0.0
 40
0.0
 40
0.0
 40
0.1140466951010024
 40
0.1140466951010024
 40
0.1140466951010024
 40
0.228294820751903
 40
0.228294820751903
 40
0.228294820751903
 40
0.3392741566161929
 40
0.3392741566161929
 40
0.3392741566161929
 40
0.4452969336874799
 40
0.4452969336874799
 40
0.4452969336874799
 40
0.5002192508761273
 40
0.5002192508761273
 40
0.5002192508761273
 40
0.6019916732935722
 40
0.6019916732935722
 40
0.6019916732935722
 40
0.7036615082091147
 40
0.7036615082091147
 40
0.7036615082091147
 40
0.8069310276856788
 40
0.8069310276856788
 40
0.8069310276856788
 40
0.9141591791607987
 40
0.9141591791607987
 40
0.9141591791607987
 40
1.0
 40
1.0
 40
1.0
 40
1.0
 10
-21.92480702332896
 20
4.571714060613251
 30
0.0
 10
-21.97294452244875
 20
4.569123856414283
 30
0.0
 10
-22.02179045614391
 20
4.574195108533974
 30
0.0
 10
-22.06731538777531
 20
4.586685305793398
 30
0.0
 10
-22.11288603359827
 20
4.599188045175343
 30
0.0
 10
-22.15641801502161
 20
4.619514923609544
 30
0.0
 10
-22.19389651274893
 20
4.646140247503639
 30
0.0
 10
-22.23030119824843
 20
4.672002718025775
 30
0.0
 10
-22.26204048341444
 20
4.704588104702979
 30
0.0
 10
-22.28596647678708
 20
4.741114784105443
 30
0.0
 10
-22.30883959766339
 20
4.776034092999775
 30
0.0
 10
-22.32522337379231
 20
4.815570442817047
 30
0.0
 10
-22.3334800534375
 20
4.856254400451395
 30
0.0
 10
-22.33780546822939
 20
4.877567446337398
 30
0.0
 10
-22.34000000000014
 20
4.899436622370485
 30
0.0
 10
-22.34000000000014
 20
4.921306124400271
 30
0.0
 10
-22.34000000000015
 20
4.961418138353344
 30
0.0
 10
-22.33246049415373
 20
5.00239950898183
 30
0.0
 10
-22.31809824177582
 20
5.040840149772925
 30
0.0
 10
-22.30374405022954
 20
5.079259215707592
 30
0.0
 10
-22.28220523305038
 20
5.116184731780128
 30
0.0
 10
-22.25540696650821
 20
5.148779624082903
 30
0.0
 10
-22.22817994286378
 20
5.181896016220405
 30
0.0
 10
-22.19482910869286
 20
5.211425555577891
 30
0.0
 10
-22.15812035425784
 20
5.235327366828153
 30
0.0
 10
-22.12001391021602
 20
5.2601392420041
 30
0.0
 10
-22.07730851902695
 20
5.279548844797912
 30
0.0
 10
-22.03337750918217
 20
5.292335647471354
 30
0.0
 10
-21.99803558327055
 20
5.302622463875712
 30
0.0
 10
-21.96126607020196
 20
5.30885588183334
 30
0.0
 10
-21.92480702332896
 20
5.310817686622281
 30
0.0
  0
SPLINE
  5
106
330
1F
100
AcDbEntity
  8
SK3
100
AcDbSpline
210
0.0
220
0.0
230
1.0
 70
     8
 71
     3
 72
    35
 73
    31
 74
     0
 42
0.0000000082192355
 43
0.0000000001
 12
1.0
 22
0.0
 32
0.0
 13
1.0
 23
0.0
 33
0.0
 40
0.0
 40
0.0
 40
0.0
 40
0.0
 40
0.1078957100332294
 40
0.1078957100332294
 40
0.1078957100332294
 40
0.2158198330764722
 40
0.2158198330764722
 40
0.2158198330764722
 40
0.3233418293225062
 40
0.3233418293225062
 40
0.3233418293225062
 40
0.43055856116679
 40
0.43055856116679
 40
0.43055856116679
 40
0.5000123314499951
 40
0.5000123314499951
 40
0.5000123314499951
 40
0.6071229865351194
 40
0.6071229865351194
 40
0.6071229865351194
 40
0.714232385497329
 40
0.714232385497329
 40
0.714232385497329
 40
0.8213622989360545
 40
0.8213622989360545
 40
0.8213622989360545
 40
0.928628121742088
 40
0.928628121742088
 40
0.928628121742088
 40
1.0
 40
1.0
 40
1.0
 40
1.0
 10
-22.62808530006283
 20
3.404200163773811
 30
0.0
 10
-22.67311486149736
 20
3.40420016377381
 30
0.0
 10
-22.718767361948
 20
3.39721093018889
 30
0.0
 10
-22.7612657537344
 20
3.38374573837215
 30
0.0
 10
-22.80377091592822
 20
3.370278401419307
 30
0.0
 10
-22.84429334770445
 20
3.34995434339128
 30
0.0
 10
-22.8794392469739
 20
3.324379980274225
 30
0.0
 10
-22.91445611328683
 20
3.298899509638293
 30
0.0
 10
-22.94510490869844
 20
3.267498474283188
 30
0.0
 10
-22.96882893122793
 20
3.232711240852085
 30
0.0
 10
-22.99248713358706
 20
3.198020521476615
 30
0.0
 10
-23.00991396374109
 20
3.159001660127512
 30
0.0
 10
-23.0196666296657
 20
3.118840635116632
 30
0.0
 10
-23.02603670435018
 20
3.09260896362268
 30
0.0
 10
-23.02927959031636
 20
3.06550877165898
 30
0.0
 10
-23.02927959031636
 20
3.038506552749518
 30
0.0
 10
-23.02927959031636
 20
2.997205654080429
 30
0.0
 10
-23.02157086150326
 20
2.955182760938716
 30
0.0
 10
-23.00678949018928
 20
2.9159414914363
 30
0.0
 10
-22.99200821102701
 20
2.876700466576243
 30
0.0
 10
-22.96974620947433
 20
2.839161501400394
 30
0.0
 10
-22.94184482587874
 20
2.806488815794196
 30
0.0
 10
-22.91393755726069
 20
2.773809238791809
 30
0.0
 10
-22.87962050319614
 20
2.745102019745565
 30
0.0
 10
-22.84173603542693
 20
2.722793110134707
 30
0.0
 10
-22.8038023377666
 20
2.700455210669801
 30
0.0
 10
-22.76125261514199
 20
2.683920713192072
 30
0.0
 10
-22.71759835244988
 20
2.674564153546246
 30
0.0
 10
-22.68832203294904
 20
2.668289265076549
 30
0.0
 10
-22.65811056509355
 20
2.665096537764783
 30
0.0
 10
-22.62808530006283
 20
2.665096537764782
 30
0.0
  0
LINE
  5
107
330
1F
100
AcDbEntity
  8
SK1
  6
Continuous
100
AcDbLine
 10
-21.9248070233
 20
5.3108176866
 30
0.0
 11
3.0473721046
 21
6.6543942125
 31
0.0
  0
LINE
  5
108
330
1F
100
AcDbEntity
  8
SK3
100
AcDbLine
 10
-22.6280853001
 20
3.4042001638
 30
0.0
 11
12.26
 21
3.4042001638
 31
0.0
  0
ELLIPSE
  5
109
330
1F
100
AcDbEntity
  8
SK1
  6
Continuous
100
AcDbEllipse
 10
51.5492454898
 20
0.3695519116
 30
0.0
 11
-74.60000002090948
 21
1.328199897832958E-9
 31
0.0
210
0.0
220
0.0
230
1.0
 40
0.3826834323
 41
-0.1739612070498158
 42
-0.1503892274039007
  0
ELLIPSE
  5
10A
330
1F
100
AcDbEntity
  8
SK1
  6
Continuous
100
AcDbEllipse
 10
-76.7144558364
 20
0.2828428116
 30
0.0
 11
74.60000000616751
 21
1.350633126889077E-9
 31
0.0
210
0.0
220
0.0
230
1.0
 40
0.7071067812
 41
0.1987294243537065
 42
0.2088808538680643
  0
SPLINE
  5
10B
330
1F
100
AcDbEntity
  8
SK3
100
AcDbSpline
210
0.0
220
0.0
230
1.0
 70
     8
 71
     3
 72
    35
 73
    31
 74
     0
 42
0.0000000091958583
 43
0.0000000001
 12
1.0
 22
0.0
 32
0.0
 13
1.0
 23
0.0
 33
0.0
 40
0.0
 40
0.0
 40
0.0
 40
0.0
 40
0.1078957100332217
 40
0.1078957100332217
 40
0.1078957100332217
 40
0.2158198330764569
 40
0.2158198330764569
 40
0.2158198330764569
 40
0.3233418293224758
 40
0.3233418293224758
 40
0.3233418293224758
 40
0.430558561166771
 40
0.430558561166771
 40
0.430558561166771
 40
0.5000123314499958
 40
0.5000123314499958
 40
0.5000123314499958
 40
0.6071229865351234
 40
0.6071229865351234
 40
0.6071229865351234
 40
0.7142323854973333
 40
0.7142323854973333
 40
0.7142323854973333
 40
0.8213622989360675
 40
0.8213622989360675
 40
0.8213622989360675
 40
0.9286281217420802
 40
0.9286281217420802
 40
0.9286281217420802
 40
1.0
 40
1.0
 40
1.0
 40
1.0
 10
-2.537125061281564
 20
5.324456202233629
 30
0.0
 10
-2.492095499847037
 20
5.324456202233629
 30
0.0
 10
-2.446442999396398
 20
5.330205678759951
 30
0.0
 10
-2.40394460761
 20
5.341218975221497
 30
0.0
 10
-2.361439445416184
 20
5.352234026208354
 30
0.0
 10
-2.320917013639951
 20
5.368818606662673
 30
0.0
 10
-2.285771114370514
 20
5.389498858972303
 30
0.0
 10
-2.250754248057581
 20
5.410103186802769
 30
0.0
 10
-2.220105452645963
 20
5.435337237880738
 30
0.0
 10
-2.196381430116481
 20
5.462976147471491
 30
0.0
 10
-2.172723227757338
 20
5.490538375389272
 30
0.0
 10
-2.155296397603301
 20
5.521247327185919
 30
0.0
 10
-2.145543731678692
 20
5.552464588818012
 30
0.0
 10
-2.13917365699421
 20
5.572854530355912
 30
0.0
 10
-2.135930771028029
 20
5.593761338764391
 30
0.0
 10
-2.135930771028029
 20
5.614427942391889
 30
0.0
 10
-2.135930771028029
 20
5.646038281716789
 30
0.0
 10
-2.143639499841147
 20
5.677802940241848
 30
0.0
 10
-2.158420871155118
 20
5.707134420950034
 30
0.0
 10
-2.173202150317392
 20
5.736465718796586
 30
0.0
 10
-2.195464151870063
 20
5.764176287925483
 30
0.0
 10
-2.223365535465654
 20
5.788085309182256
 30
0.0
 10
-2.251272804083706
 20
5.811999373383463
 30
0.0
 10
-2.285589858148262
 20
5.832774540783762
 30
0.0
 10
-2.32347432591747
 20
5.848835877629806
 30
0.0
 10
-2.361408023577798
 20
5.864918085769833
 30
0.0
 10
-2.403957746202397
 20
5.876722371512225
 30
0.0
 10
-2.447612008894503
 20
5.883395518751701
 30
0.0
 10
-2.476888328395343
 20
5.887870802002663
 30
0.0
 10
-2.507099796250844
 20
5.890141627182867
 30
0.0
 10
-2.537125061281564
 20
5.890141627182866
 30
0.0
  0
SPLINE
  5
10C
330
1F
100
AcDbEntity
  8
SK1
  6
Continuous
100
AcDbSpline
210
0.0
220
0.0
230
1.0
 70
     8
 71
     3
 72
    35
 73
    31
 74
     0
 42
0.0000000092457244
 43
0.0000000001
 12
1.0
 22
0.0
 32
0.0
 13
1.0
 23
0.0
 33
0.0
 40
0.0
 40
0.0
 40
0.0
 40
0.0
 40
0.107687314499424
 40
0.107687314499424
 40
0.107687314499424
 40
0.2153859646719062
 40
0.2153859646719062
 40
0.2153859646719062
 40
0.3229211770831059
 40
0.3229211770831059
 40
0.3229211770831059
 40
0.4302974370948144
 40
0.4302974370948144
 40
0.4302974370948144
 40
0.5000063759059392
 40
0.5000063759059392
 40
0.5000063759059392
 40
0.6072943446396679
 40
0.6072943446396679
 40
0.6072943446396679
 40
0.7145807350372904
 40
0.7145807350372904
 40
0.7145807350372904
 40
0.82189277249914
 40
0.82189277249914
 40
0.82189277249914
 40
0.9292995131762629
 40
0.9292995131762629
 40
0.9292995131762629
 40
1.0
 40
1.0
 40
1.0
 40
1.0
 10
-3.735991324228686
 20
11.22139203854112
 30
0.0
 10
-3.691530379694805
 20
11.22581192744153
 30
0.0
 10
-3.646483917844948
 20
11.22496462470737
 30
0.0
 10
-3.604576299425224
 20
11.21888652697288
 30
0.0
 10
-3.562666046493904
 20
11.21280804714035
 30
0.0
 10
-3.522738413628794
 20
11.20132685630281
 30
0.0
 10
-3.488104890182381
 20
11.18533057995861
 30
0.0
 10
-3.453523374075158
 20
11.16935832438063
 30
0.0
 10
-3.423264198386323
 20
11.14843983019727
 30
0.0
 10
-3.399831878258362
 20
11.12424261834114
 30
0.0
 10
-3.376433513497204
 20
11.10008047024309
 30
0.0
 10
-3.359195250862043
 20
11.0719793100376
 30
0.0
 10
-3.349538750649154
 20
11.04222256540185
 30
0.0
 10
-3.343217909000769
 20
11.02274473527008
 30
0.0
 10
-3.339999999999997
 20
11.00227923123484
 30
0.0
 10
-3.339999999999997
 20
10.98155808631215
 30
0.0
 10
-3.339999999999997
 20
10.94992730589487
 30
0.0
 10
-3.347618441149181
 20
10.916959069162
 30
0.0
 10
-3.362228347635147
 20
10.88540535972544
 30
0.0
 10
-3.376838136566965
 20
10.85385190417615
 30
0.0
 10
-3.398842476522118
 20
10.82284497585948
 30
0.0
 10
-3.426428906884959
 20
10.79500489239855
 30
0.0
 10
-3.454022215765143
 20
10.76715786717334
 30
0.0
 10
-3.487960741558203
 20
10.74171522478031
 30
0.0
 10
-3.525446613183314
 20
10.72083997446527
 30
0.0
 10
-3.562965835685897
 20
10.69994615160851
 30
0.0
 10
-3.605070934506658
 20
10.68305527562237
 30
0.0
 10
-3.648290735418433
 20
10.67159765123846
 30
0.0
 10
-3.676969597923122
 20
10.66399484818513
 30
0.0
 10
-3.706564389521215
 20
10.65863196264711
 30
0.0
 10
-3.735991324228714
 20
10.65570661359188
 30
0.0
  0
LINE
  5
10D
330
1F
100
AcDbEntity
  8
SK1
  6
Continuous
100
AcDbLine
 10
3.0473721046
 20
16.4279549475
 30
0.0
 11
-3.34
 21
15.5302683403
 31
0.0
  0
LINE
  5
10E
330
1F
100
AcDbEntity
  8
SK1
  6
Continuous
100
AcDbLine
 10
-3.34
 20
-15.5302681408
 30
0.0
 11
3.0473721046
 21
-16.4279547479
 31
0.0
  0
LINE
  5
10F
330
1F
100
AcDbEntity
  8
SK3
100
AcDbLine
 10
-2.135930771
 20
-7.9399999002
 30
0.0
 11
12.26
 21
-7.9399999002
 31
0.0
  0
LINE
  5
110
330
1F
100
AcDbEntity
  8
SK3
100
AcDbLine
 10
12.26
 20
7.9400000998
 30
0.0
 11
-2.135930771
 21
7.9400000998
 31
0.0
  0
LINE
  5
111
330
1F
100
AcDbEntity
  8
SK1
  6
Continuous
100
AcDbLine
 10
7.16
 20
-16.4999999002
 30
0.0
 11
7.4631088913
 21
-16.4999999002
 31
0.0
  0
ARC
  5
112
330
1F
100
AcDbEntity
  8
SK3
100
AcDbCircle
 10
12.26
 20
-8.3399999002
 30
0.0
 40
0.3999999999999997
100
AcDbArc
 50
0.0
 51
90.0
  0
ARC
  5
113
330
1F
100
AcDbEntity
  8
SK1
  6
Continuous
100
AcDbCircle
 10
12.41
 20
-13.3552358524
 30
0.0
 40
0.2500000000000023
100
AcDbArc
 50
300.0
 51
0.0
  0
ARC
  5
114
330
1F
100
AcDbEntity
  8
SK1
  6
Continuous
100
AcDbCircle
 10
3.11
 20
-15.982334117
 30
0.0
 40
0.4500000000000015
100
AcDbArc
 50
262.0
 51
0.0
  0
ARC
  5
115
330
1F
100
AcDbEntity
  8
SK1
  6
Continuous
100
AcDbCircle
 10
6.96
 20
-14.7999999002
 30
0.0
 40
0.199999999999999
100
AcDbArc
 50
0.0
 51
90.0
  0
ARC
  5
116
330
1F
100
AcDbEntity
  8
SK1
  6
Continuous
100
AcDbCircle
 10
3.76
 20
-14.7999999002
 30
0.0
 40
0.1999999999999994
100
AcDbArc
 50
90.0
 51
180.0
  0
LINE
  5
117
330
1F
100
AcDbEntity
  8
SK1
  6
Continuous
100
AcDbLine
 10
3.76
 20
-14.5999999002
 30
0.0
 11
6.96
 21
-14.5999999002
 31
0.0
  0
LINE
  5
118
330
1F
100
AcDbEntity
  8
SK1
  6
Continuous
100
AcDbLine
 10
7.4631088913
 20
-16.4999999002
 30
0.0
 11
12.535
 21
-13.5717422033
 31
0.0
  0
LINE
  5
119
330
1F
100
AcDbEntity
  8
SK1
  6
Continuous
100
AcDbLine
 10
7.4631088913
 20
16.5000000998
 30
0.0
 11
7.16
 21
16.5000000998
 31
0.0
  0
ARC
  5
11A
330
1F
100
AcDbEntity
  8
SK3
100
AcDbCircle
 10
12.26
 20
8.3400000998
 30
0.0
 40
0.3999999999999976
100
AcDbArc
 50
270.0
 51
0.0
  0
ARC
  5
11B
330
1F
100
AcDbEntity
  8
SK1
  6
Continuous
100
AcDbCircle
 10
12.41
 20
13.3552360519
 30
0.0
 40
0.2500000000000002
100
AcDbArc
 50
0.0
 51
60.0
  0
ARC
  5
11C
330
1F
100
AcDbEntity
  8
SK1
  6
Continuous
100
AcDbCircle
 10
3.11
 20
15.9823343165
 30
0.0
 40
0.45
100
AcDbArc
 50
0.0
 51
98.0
  0
ARC
  5
11D
330
1F
100
AcDbEntity
  8
SK1
  6
Continuous
100
AcDbCircle
 10
6.96
 20
14.8000000998
 30
0.0
 40
0.1999999999999997
100
AcDbArc
 50
270.0
 51
0.0
  0
ARC
  5
11E
330
1F
100
AcDbEntity
  8
SK1
  6
Continuous
100
AcDbCircle
 10
3.76
 20
14.8000000998
 30
0.0
 40
0.199999999999999
100
AcDbArc
 50
180.0
 51
270.0
  0
LINE
  5
11F
330
1F
100
AcDbEntity
  8
SK1
  6
Continuous
100
AcDbLine
 10
6.96
 20
14.6000000998
 30
0.0
 11
3.76
 21
14.6000000998
 31
0.0
  0
LINE
  5
120
330
1F
100
AcDbEntity
  8
SK1
  6
Continuous
100
AcDbLine
 10
12.535
 20
13.5717424029
 30
0.0
 11
7.4631088913
 21
16.5000000998
 31
0.0
  0
ARC
  5
121
330
1F
100
AcDbEntity
  8
SK3
100
AcDbCircle
 10
40.451153369
 20
0.0342443358
 30
0.0
 40
63.89933148648069
100
AcDbArc
 50
169.3048733264
 51
173.4581932419
  0
ARC
  5
122
330
1F
100
AcDbEntity
  8
SK3
100
AcDbCircle
 10
-76.7144558302
 20
0.0000000998
 30
0.0
 40
75.00000000000003
100
AcDbArc
 50
348.0492930542
 51
353.9228698878
  0
ARC
  5
123
330
1F
100
AcDbEntity
  8
SK3
100
AcDbCircle
 10
-76.7144558302
 20
0.0000000998
 30
0.0
 40
75.00000000000001
100
AcDbArc
 50
6.0771310505
 51
11.95070576
  0
ARC
  5
124
330
1F
100
AcDbEntity
  8
SK3
100
AcDbCircle
 10
39.7580411389
 20
-0.130044224
 30
0.0
 40
63.19981986812819
100
AcDbArc
 50
186.5271098661
 51
190.7259146039
  0
ARC
  5
125
330
1F
100
AcDbEntity
  8
SK3
100
AcDbCircle
 10
-40.6717373134
 20
0.1676861835
 30
0.0
 40
38.96905857266115
100
AcDbArc
 50
343.28838383
 51
351.4228378775
  0
ARC
  5
126
330
1F
100
AcDbEntity
  8
SK3
100
AcDbCircle
 10
-10.4818112644
 20
0.3715924573
 30
0.0
 40
13.01482400794694
100
AcDbArc
 50
195.5506889812
 51
204.6887082928
  0
ARC
  5
127
330
1F
100
AcDbEntity
  8
SK3
100
AcDbCircle
 10
-10.3852154318
 20
-0.4028240134
 30
0.0
 40
13.11625743581313
100
AcDbArc
 50
155.3655829089
 51
164.4309989959
  0
ARC
  5
128
330
1F
100
AcDbEntity
  8
SK3
100
AcDbCircle
 10
-40.6690764691
 20
-0.169137163
 30
0.0
 40
38.96675877288235
100
AcDbArc
 50
8.5799973278
 51
16.7146156753
  0
LINE
  5
129
330
1F
100
AcDbEntity
  8
SK1
  6
Continuous
100
AcDbLine
 10
0.0
 20
15.9996747282
 30
0.0
 11
0.0
 21
-15.9996745287
 31
0.0
  0
LINE
  5
12B
330
1F
100
AcDbEntity
  8
SK4
  6
Continuous
100
AcDbLine
 10
12.66
 20
0.0000000998
 30
0.0
 11
-27.34
 21
0.0000000998
 31
0.0
  0
DIMENSION
  5
141
330
1F
100
AcDbEntity
  8
SK2
  6
Continuous
 62
   136
100
AcDbDimension
  2
DMBLK81
 10
12.66
 20
26.730247277
 30
0.0
 11
-7.340000447
 21
26.730247277
 31
0.0
 70
   160
  1
\A1;<>
 71
     5
 42
-1.0
  3
DIN
100
AcDbAlignedDimension
 13
-27.34
 23
11.8897757188
 33
0.0
 14
12.66
 24
12.4861671929
 34
0.0
100
AcDbRotatedDimension
  0
INSERT
  5
155
330
1F
100
AcDbEntity
  8
SK2
 62
     7
100
AcDbBlockReference
  2
Nullpunkt
 10
0.0
 20
0.0000000998
 30
0.0
  0
INSERT
  5
160
330
1F
100
AcDbEntity
  8
SK2
 62
     7
100
AcDbBlockReference
  2
Einfügepunkt
 10
12.66
 20
0.0000000998
 30
0.0
  0
DIMENSION
  5
161
330
1F
100
AcDbEntity
  8
SK2
  6
Continuous
 62
   136
100
AcDbDimension
  2
DMBLK82
 10
22.6600000283
 20
-7.9399999002
 30
0.0
 11
22.6600000283
 21
11.5767885228
 31
0.0
 70
   161
  1
\A1;ø <>
 71
     5
 42
-1.0
  3
DIN
100
AcDbAlignedDimension
 13
12.26
 23
-7.9399999002
 33
0.0
 14
12.26
 24
7.9400000998
 34
0.0
  0
DIMENSION
  5
16C
330
1F
100
AcDbEntity
  8
SK2
  6
Continuous
 62
   136
100
AcDbDimension
  2
DMBLK83
 10
12.66
 20
-24.2025067209
 30
0.0
 11
6.329999771
 21
-24.2025067209
 31
0.0
 70
   160
  1
\A1;<>
 71
     5
 42
-1.0
  3
DIN
100
AcDbAlignedDimension
 13
0.0
 23
-15.9996745287
 33
0.0
 14
12.66
 24
-12.4861669934
 34
0.0
100
AcDbRotatedDimension
  0
DIMENSION
  5
176
330
1F
100
AcDbEntity
  8
SK2
  6
Continuous
 62
   136
100
AcDbDimension
  2
DMBLK84
 10
-35.4755744338
 20
15.9996747282
 30
0.0
 11
-35.4755744338
 21
-0.0000000688
 31
0.0
 70
   161
  1
\A1;ø <>
 71
     5
 42
-1.0
  3
DIN
100
AcDbAlignedDimension
 13
0.0
 23
15.9996747282
 33
0.0
 14
0.0
 24
-15.9996745287
 34
0.0
  0
ENDSEC
  0
SECTION
  2
OBJECTS
  0
DICTIONARY
  5
C
330
0
100
AcDbDictionary
281
     1
  3
ACAD_GROUP
350
D
  3
ACAD_LAYOUT
350
1A
  3
ACAD_MATERIAL
350
3B
  3
ACAD_MLEADERSTYLE
350
183
  3
ACAD_MLINESTYLE
350
17
  3
ACAD_PLOTSETTINGS
350
19
  3
ACAD_PLOTSTYLENAME
350
E
  3
ACAD_VISUALSTYLE
350
2A
  3
AcDbVariableDictionary
350
181
  0
DICTIONARY
  5
D
102
{ACAD_REACTORS
330
C
102
}
330
C
100
AcDbDictionary
281
     1
  0
DICTIONARY
  5
1A
102
{ACAD_REACTORS
330
C
102
}
330
C
100
AcDbDictionary
281
     1
  3
Layout1
350
1E
  3
Model
350
22
  0
DICTIONARY
  5
3B
102
{ACAD_REACTORS
330
C
102
}
330
C
100
AcDbDictionary
281
     1
  3
ByBlock
350
3D
  3
ByLayer
350
3C
  3
Global
350
3E
  0
DICTIONARY
  5
183
102
{ACAD_REACTORS
330
C
102
}
330
C
100
AcDbDictionary
281
     1
  0
DICTIONARY
  5
17
102
{ACAD_REACTORS
330
C
102
}
330
C
100
AcDbDictionary
281
     1
  3
Standard
350
18
  0
DICTIONARY
  5
19
102
{ACAD_REACTORS
330
C
102
}
330
C
100
AcDbDictionary
281
     1
  0
ACDBDICTIONARYWDFLT
  5
E
102
{ACAD_REACTORS
330
C
102
}
330
C
100
AcDbDictionary
281
     1
  3
Normal
350
F
100
AcDbDictionaryWithDefault
340
F
  0
DICTIONARY
  5
2A
102
{ACAD_REACTORS
330
C
102
}
330
C
100
AcDbDictionary
281
     1
  3
2dWireframe
350
2F
  3
3D Hidden
350
31
  3
3dWireframe
350
30
  3
Basic
350
32
  3
Brighten
350
36
  3
ColorChange
350
3A
  3
Conceptual
350
34
  3
Dim
350
35
  3
Facepattern
350
39
  3
Flat
350
2B
  3
FlatWithEdges
350
2C
  3
Gouraud
350
2D
  3
GouraudWithEdges
350
2E
  3
Linepattern
350
38
  3
Realistic
350
33
  3
Thicken
350
37
  0
DICTIONARY
  5
181
102
{ACAD_REACTORS
330
C
102
}
330
C
100
AcDbDictionary
281
     1
  3
DIMASSOC
350
186
  3
HIDETEXT
350
187
  3
PSOLHEIGHT
350
185
  3
PSOLWIDTH
350
184
  0
LAYOUT
  5
1E
102
{ACAD_REACTORS
330
1A
102
}
330
1A
100
AcDbPlotSettings
  1

  2
none_device
  4

  6

 40
0.0
 41
0.0
 42
0.0
 43
0.0
 44
0.0
 45
0.0
 46
0.0
 47
0.0
 48
0.0
 49
0.0
140
0.0
141
0.0
142
1.0
143
1.0
 70
   688
 72
     0
 73
     0
 74
     5
  7

 75
    16
147
1.0
148
0.0
149
0.0
100
AcDbLayout
  1
Layout1
 70
     1
 71
     1
 10
0.0
 20
0.0
 11
210.0
 21
297.0
 12
0.0
 22
0.0
 32
0.0
 14
0.0
 24
0.0
 34
0.0
 15
210.0
 25
297.0
 35
0.0
146
0.0
 13
0.0
 23
0.0
 33
0.0
 16
1.0
 26
0.0
 36
0.0
 17
0.0
 27
1.0
 37
0.0
 76
     0
330
1B
  0
LAYOUT
  5
22
102
{ACAD_REACTORS
330
1A
102
}
330
1A
100
AcDbPlotSettings
  1

  2
none_device
  4

  6

 40
0.0
 41
0.0
 42
0.0
 43
0.0
 44
0.0
 45
0.0
 46
0.0
 47
0.0
 48
0.0
 49
0.0
140
0.0
141
0.0
142
1.0
143
1.0
 70
  1712
 72
     0
 73
     0
 74
     0
  7

 75
     0
147
1.0
148
0.0
149
0.0
100
AcDbLayout
  1
Model
 70
     1
 71
     0
 10
0.0
 20
0.0
 11
210.0
 21
297.0
 12
0.0
 22
0.0
 32
0.0
 14
0.0
 24
0.0
 34
0.0
 15
210.0
 25
297.0
 35
0.0
146
0.0
 13
0.0
 23
0.0
 33
0.0
 16
1.0
 26
0.0
 36
0.0
 17
0.0
 27
1.0
 37
0.0
 76
     0
330
1F
331
29
  0
MATERIAL
  5
3D
102
{ACAD_REACTORS
330
3B
102
}
102
{ACAD_XDICTIONARY
360
1AA
102
}
330
3B
100
AcDbMaterial
  1
ByBlock
  0
MATERIAL
  5
3C
102
{ACAD_REACTORS
330
3B
102
}
102
{ACAD_XDICTIONARY
360
1A8
102
}
330
3B
100
AcDbMaterial
  1
ByLayer
  0
MATERIAL
  5
3E
102
{ACAD_REACTORS
330
3B
102
}
102
{ACAD_XDICTIONARY
360
1AC
102
}
330
3B
100
AcDbMaterial
  1
Global
  0
MLINESTYLE
  5
18
102
{ACAD_REACTORS
330
17
102
}
330
17
100
AcDbMlineStyle
  2
Standard
 70
     0
  3

 62
   256
 51
90.0
 52
90.0
 71
     2
 49
0.5
 62
   256
  6
BYLAYER
 49
-0.5
 62
   256
  6
BYLAYER
  0
ACDBPLACEHOLDER
  5
F
102
{ACAD_REACTORS
330
E
102
}
330
E
  0
VISUALSTYLE
  5
2F
102
{ACAD_REACTORS
330
2A
102
}
102
{ACAD_XDICTIONARY
360
190
102
}
330
2A
100
AcDbVisualStyle
  2
2dWireframe
 70
     4
 71
     0
 72
     2
 73
     0
 90
        0
 40
-0.6
 41
-30.0
 62
     5
 63
     7
 74
     1
 91
        4
 64
     7
 65
   257
 75
     1
175
     1
 42
1.0
 92
        0
 66
   257
 43
1.0
 76
     1
 77
     6
 78
     2
 67
     7
 79
     5
170
     0
171
     0
290
     0
174
     0
 93
        1
 44
0.0
173
     0
291
     0
 45
0.0
1001
ACAD
1000
AcDbSavedByObjectVersion
1070
     0
  0
VISUALSTYLE
  5
31
102
{ACAD_REACTORS
330
2A
102
}
102
{ACAD_XDICTIONARY
360
194
102
}
330
2A
100
AcDbVisualStyle
  2
3D Hidden
 70
     6
 71
     1
 72
     2
 73
     2
 90
        0
 40
-0.6
 41
-30.0
 62
     5
 63
     7
 74
     2
 91
        2
 64
     7
 65
   257
 75
     2
175
     1
 42
40.0
 92
        0
 66
   257
 43
1.0
 76
     1
 77
     6
 78
     2
 67
     7
 79
     3
170
     0
171
     0
290
     0
174
     0
 93
        1
 44
0.0
173
     0
291
     0
 45
0.0
1001
ACAD
1000
AcDbSavedByObjectVersion
1070
     0
  0
VISUALSTYLE
  5
30
102
{ACAD_REACTORS
330
2A
102
}
102
{ACAD_XDICTIONARY
360
192
102
}
330
2A
100
AcDbVisualStyle
  2
3dWireframe
 70
     5
 71
     0
 72
     2
 73
     0
 90
        0
 40
-0.6
 41
-30.0
 62
     5
 63
     7
 74
     1
 91
        4
 64
     7
 65
   257
 75
     1
175
     1
 42
1.0
 92
        0
 66
   257
 43
1.0
 76
     1
 77
     6
 78
     2
 67
     7
 79
     5
170
     0
171
     0
290
     0
174
     0
 93
        1
 44
0.0
173
     0
291
     0
 45
0.0
1001
ACAD
1000
AcDbSavedByObjectVersion
1070
     0
  0
VISUALSTYLE
  5
32
102
{ACAD_REACTORS
330
2A
102
}
102
{ACAD_XDICTIONARY
360
196
102
}
330
2A
100
AcDbVisualStyle
  2
Basic
 70
     7
 71
     1
 72
     0
 73
     1
 90
        0
 40
-0.6
 41
-30.0
 62
     5
 63
     7
 74
     0
 91
        4
 64
     7
 65
   257
 75
     1
175
     1
 42
1.0
 92
        8
 66
     7
 43
1.0
 76
     1
 77
     6
 78
     2
 67
     7
 79
     5
170
     0
171
     0
290
     0
174
     0
 93
        1
 44
0.0
173
     0
291
     1
 45
0.0
1001
ACAD
1000
AcDbSavedByObjectVersion
1070
     0
  0
VISUALSTYLE
  5
36
102
{ACAD_REACTORS
330
2A
102
}
102
{ACAD_XDICTIONARY
360
19E
102
}
330
2A
100
AcDbVisualStyle
  2
Brighten
 70
    12
 71
     2
 72
     2
 73
     0
 90
        0
 40
-0.6
 41
-30.0
 62
     5
 63
     7
 74
     1
 91
        4
 64
     7
 65
   257
 75
     1
175
     1
 42
1.0
 92
        8
 66
     7
 43
1.0
 76
     1
 77
     6
 78
     2
 67
     7
 79
     5
170
     0
171
     0
290
     0
174
     0
 93
        1
 44
50.0
173
     0
291
     1
 45
0.0
1001
ACAD
1000
AcDbSavedByObjectVersion
1070
     0
  0
VISUALSTYLE
  5
3A
102
{ACAD_REACTORS
330
2A
102
}
102
{ACAD_XDICTIONARY
360
1A6
102
}
330
2A
100
AcDbVisualStyle
  2
ColorChange
 70
    16
 71
     2
 72
     2
 73
     3
 90
        0
 40
-0.6
 41
-30.0
 62
     5
 63
     8
 74
     1
 91
        4
 64
     7
 65
   257
 75
     1
175
     1
 42
1.0
 92
        8
 66
     8
 43
1.0
 76
     1
 77
     6
 78
     2
 67
     7
 79
     5
170
     0
171
     0
290
     0
174
     0
 93
        1
 44
0.0
173
     0
291
     1
 45
0.0
1001
ACAD
1000
AcDbSavedByObjectVersion
1070
     0
  0
VISUALSTYLE
  5
34
102
{ACAD_REACTORS
330
2A
102
}
102
{ACAD_XDICTIONARY
360
19A
102
}
330
2A
100
AcDbVisualStyle
  2
Conceptual
 70
     9
 71
     3
 72
     2
 73
     0
 90
        0
 40
-0.6
 41
-30.0
 62
     5
 63
     7
 74
     2
 91
        2
 64
     7
 65
   257
 75
     1
175
     1
 42
40.0
 92
        8
 66
     7
 43
1.0
 76
     1
 77
     6
 78
     2
 67
     7
 79
     3
170
     0
171
     0
290
     0
174
     0
 93
        1
 44
0.0
173
     0
291
     0
 45
0.0
1001
ACAD
1000
AcDbSavedByObjectVersion
1070
     0
  0
VISUALSTYLE
  5
35
102
{ACAD_REACTORS
330
2A
102
}
102
{ACAD_XDICTIONARY
360
19C
102
}
330
2A
100
AcDbVisualStyle
  2
Dim
 70
    11
 71
     2
 72
     2
 73
     0
 90
        0
 40
-0.6
 41
-30.0
 62
     5
 63
     7
 74
     1
 91
        4
 64
     7
 65
   257
 75
     1
175
     1
 42
1.0
 92
        8
 66
     7
 43
1.0
 76
     1
 77
     6
 78
     2
 67
     7
 79
     5
170
     0
171
     0
290
     0
174
     0
 93
        1
 44
-50.0
173
     0
291
     1
 45
0.0
1001
ACAD
1000
AcDbSavedByObjectVersion
1070
     0
  0
VISUALSTYLE
  5
39
102
{ACAD_REACTORS
330
2A
102
}
102
{ACAD_XDICTIONARY
360
1A4
102
}
330
2A
100
AcDbVisualStyle
  2
Facepattern
 70
    15
 71
     2
 72
     2
 73
     0
 90
        0
 40
-0.6
 41
-30.0
 62
     5
 63
     7
 74
     1
 91
        4
 64
     7
 65
   257
 75
     1
175
     1
 42
1.0
 92
        8
 66
     7
 43
1.0
 76
     1
 77
     6
 78
     2
 67
     7
 79
     5
170
     0
171
     0
290
     0
174
     0
 93
        1
 44
0.0
173
     0
291
     1
 45
0.0
1001
ACAD
1000
AcDbSavedByObjectVersion
1070
     0
  0
VISUALSTYLE
  5
2B
102
{ACAD_REACTORS
330
2A
102
}
102
{ACAD_XDICTIONARY
360
188
102
}
330
2A
100
AcDbVisualStyle
  2
Flat
 70
     0
 71
     2
 72
     1
 73
     1
 90
        2
 40
-0.6
 41
30.0
 62
     5
 63
     7
 74
     0
 91
        4
 64
     7
 65
   257
 75
     1
175
     1
 42
1.0
 92
        8
 66
     7
 43
1.0
 76
     1
 77
     6
 78
     2
 67
     7
 79
     5
170
     0
171
     0
290
     0
174
     0
 93
       13
 44
0.0
173
     0
291
     1
 45
0.0
1001
ACAD
1000
AcDbSavedByObjectVersion
1070
     0
  0
VISUALSTYLE
  5
2C
102
{ACAD_REACTORS
330
2A
102
}
102
{ACAD_XDICTIONARY
360
18A
102
}
330
2A
100
AcDbVisualStyle
  2
FlatWithEdges
 70
     1
 71
     2
 72
     1
 73
     1
 90
        2
 40
-0.6
 41
30.0
 62
     5
 63
     7
 74
     1
 91
        4
 64
     7
 65
   257
 75
     1
175
     1
 42
1.0
 92
        0
 66
   257
 43
1.0
 76
     1
 77
     6
 78
     2
 67
     7
 79
     5
170
     0
171
     0
290
     0
174
     0
 93
       13
 44
0.0
173
     0
291
     1
 45
0.0
1001
ACAD
1000
AcDbSavedByObjectVersion
1070
     0
  0
VISUALSTYLE
  5
2D
102
{ACAD_REACTORS
330
2A
102
}
102
{ACAD_XDICTIONARY
360
18C
102
}
330
2A
100
AcDbVisualStyle
  2
Gouraud
 70
     2
 71
     2
 72
     2
 73
     1
 90
        2
 40
-0.6
 41
30.0
 62
     5
 63
     7
 74
     0
 91
        4
 64
     7
 65
   257
 75
     1
175
     1
 42
1.0
 92
        0
 66
     7
 43
1.0
 76
     1
 77
     6
 78
     2
 67
     7
 79
     5
170
     0
171
     0
290
     0
174
     0
 93
       13
 44
0.0
173
     0
291
     1
 45
0.0
1001
ACAD
1000
AcDbSavedByObjectVersion
1070
     0
  0
VISUALSTYLE
  5
2E
102
{ACAD_REACTORS
330
2A
102
}
102
{ACAD_XDICTIONARY
360
18E
102
}
330
2A
100
AcDbVisualStyle
  2
GouraudWithEdges
 70
     3
 71
     2
 72
     2
 73
     1
 90
        2
 40
-0.6
 41
30.0
 62
     5
 63
     7
 74
     1
 91
        4
 64
     7
 65
   257
 75
     1
175
     1
 42
1.0
 92
        0
 66
   257
 43
1.0
 76
     1
 77
     6
 78
     2
 67
     7
 79
     5
170
     0
171
     0
290
     0
174
     0
 93
       13
 44
0.0
173
     0
291
     1
 45
0.0
1001
ACAD
1000
AcDbSavedByObjectVersion
1070
     0
  0
VISUALSTYLE
  5
38
102
{ACAD_REACTORS
330
2A
102
}
102
{ACAD_XDICTIONARY
360
1A2
102
}
330
2A
100
AcDbVisualStyle
  2
Linepattern
 70
    14
 71
     2
 72
     2
 73
     0
 90
        0
 40
-0.6
 41
-30.0
 62
     5
 63
     7
 74
     1
 91
        4
 64
     7
 65
   257
 75
     7
175
     7
 42
1.0
 92
        8
 66
     7
 43
1.0
 76
     1
 77
     6
 78
     2
 67
     7
 79
     5
170
     0
171
     0
290
     0
174
     0
 93
        1
 44
0.0
173
     0
291
     1
 45
0.0
1001
ACAD
1000
AcDbSavedByObjectVersion
1070
     0
  0
VISUALSTYLE
  5
33
102
{ACAD_REACTORS
330
2A
102
}
102
{ACAD_XDICTIONARY
360
198
102
}
330
2A
100
AcDbVisualStyle
  2
Realistic
 70
     8
 71
     2
 72
     2
 73
     0
 90
        0
 40
-0.6
 41
-30.0
 62
     5
 63
     7
 74
     1
 91
        0
 64
     7
 65
   257
 75
     1
175
     1
 42
1.0
 92
        8
 66
     8
 43
1.0
 76
     1
 77
     6
 78
     2
 67
     7
 79
     5
170
     0
171
     0
290
     0
174
     0
 93
       13
 44
0.0
173
     0
291
     0
 45
0.0
1001
ACAD
1000
AcDbSavedByObjectVersion
1070
     0
  0
VISUALSTYLE
  5
37
102
{ACAD_REACTORS
330
2A
102
}
102
{ACAD_XDICTIONARY
360
1A0
102
}
330
2A
100
AcDbVisualStyle
  2
Thicken
 70
    13
 71
     2
 72
     2
 73
     0
 90
        0
 40
-0.6
 41
-30.0
 62
     5
 63
     7
 74
     1
 91
        4
 64
     7
 65
   257
 75
     1
175
     1
 42
1.0
 92
       12
 66
     7
 43
1.0
 76
     1
 77
     6
 78
     2
 67
     7
 79
     5
170
     0
171
     0
290
     0
174
     0
 93
        1
 44
0.0
173
     0
291
     1
 45
0.0
1001
ACAD
1000
AcDbSavedByObjectVersion
1070
     0
  0
DICTIONARYVAR
  5
186
102
{ACAD_REACTORS
330
181
102
}
330
181
100
DictionaryVariables
280
     0
  1
2
  0
DICTIONARYVAR
  5
187
102
{ACAD_REACTORS
330
181
102
}
330
181
100
DictionaryVariables
280
     0
  1
1
  0
DICTIONARYVAR
  5
185
102
{ACAD_REACTORS
330
181
102
}
330
181
100
DictionaryVariables
280
     0
  1
80.000000
  0
DICTIONARYVAR
  5
184
102
{ACAD_REACTORS
330
181
102
}
330
181
100
DictionaryVariables
280
     0
  1
5.000000
  0
DICTIONARY
  5
1AA
330
3D
100
AcDbDictionary
280
     1
281
     1
  3
ACAD_XREC_ROUNDTRIP
360
1AB
  0
DICTIONARY
  5
1A8
330
3C
100
AcDbDictionary
280
     1
281
     1
  3
ACAD_XREC_ROUNDTRIP
360
1A9
  0
DICTIONARY
  5
1AC
330
3E
100
AcDbDictionary
280
     1
281
     1
  3
ACAD_XREC_ROUNDTRIP
360
1AD
  0
DICTIONARY
  5
190
330
2F
100
AcDbDictionary
280
     1
281
     1
  3
ACAD_XREC_ROUNDTRIP
360
191
  0
DICTIONARY
  5
194
330
31
100
AcDbDictionary
280
     1
281
     1
  3
ACAD_XREC_ROUNDTRIP
360
195
  0
DICTIONARY
  5
192
330
30
100
AcDbDictionary
280
     1
281
     1
  3
ACAD_XREC_ROUNDTRIP
360
193
  0
DICTIONARY
  5
196
330
32
100
AcDbDictionary
280
     1
281
     1
  3
ACAD_XREC_ROUNDTRIP
360
197
  0
DICTIONARY
  5
19E
330
36
100
AcDbDictionary
280
     1
281
     1
  3
ACAD_XREC_ROUNDTRIP
360
19F
  0
DICTIONARY
  5
1A6
330
3A
100
AcDbDictionary
280
     1
281
     1
  3
ACAD_XREC_ROUNDTRIP
360
1A7
  0
DICTIONARY
  5
19A
330
34
100
AcDbDictionary
280
     1
281
     1
  3
ACAD_XREC_ROUNDTRIP
360
19B
  0
DICTIONARY
  5
19C
330
35
100
AcDbDictionary
280
     1
281
     1
  3
ACAD_XREC_ROUNDTRIP
360
19D
  0
DICTIONARY
  5
1A4
330
39
100
AcDbDictionary
280
     1
281
     1
  3
ACAD_XREC_ROUNDTRIP
360
1A5
  0
DICTIONARY
  5
188
330
2B
100
AcDbDictionary
280
     1
281
     1
  3
ACAD_XREC_ROUNDTRIP
360
189
  0
DICTIONARY
  5
18A
330
2C
100
AcDbDictionary
280
     1
281
     1
  3
ACAD_XREC_ROUNDTRIP
360
18B
  0
DICTIONARY
  5
18C
330
2D
100
AcDbDictionary
280
     1
281
     1
  3
ACAD_XREC_ROUNDTRIP
360
18D
  0
DICTIONARY
  5
18E
330
2E
100
AcDbDictionary
280
     1
281
     1
  3
ACAD_XREC_ROUNDTRIP
360
18F
  0
DICTIONARY
  5
1A2
330
38
100
AcDbDictionary
280
     1
281
     1
  3
ACAD_XREC_ROUNDTRIP
360
1A3
  0
DICTIONARY
  5
198
330
33
100
AcDbDictionary
280
     1
281
     1
  3
ACAD_XREC_ROUNDTRIP
360
199
  0
DICTIONARY
  5
1A0
330
37
100
AcDbDictionary
280
     1
281
     1
  3
ACAD_XREC_ROUNDTRIP
360
1A1
  0
XRECORD
  5
1AB
102
{ACAD_REACTORS
330
1AA
102
}
330
1AA
100
AcDbXrecord
280
     1
102
MATERIAL
148
0.0
149
0.0
149
0.0
 93
        0
 94
      127
282
     0
 72
     1
 77
     1
171
     1
175
     1
179
     1
273
     0
  0
XRECORD
  5
1A9
102
{ACAD_REACTORS
330
1A8
102
}
330
1A8
100
AcDbXrecord
280
     1
102
MATERIAL
148
0.0
149
0.0
149
0.0
 93
        0
 94
      127
282
     0
 72
     1
 77
     1
171
     1
175
     1
179
     1
273
     0
  0
XRECORD
  5
1AD
102
{ACAD_REACTORS
330
1AC
102
}
330
1AC
100
AcDbXrecord
280
     1
102
MATERIAL
148
0.0
149
0.0
149
0.0
 93
        0
 94
      127
282
     0
 72
     1
 77
     1
171
     1
175
     1
179
     1
273
     0
  0
XRECORD
  5
191
102
{ACAD_REACTORS
330
190
102
}
330
190
100
AcDbXrecord
280
     1
102
RTVSPropertyOp0
 70
     1
102
RTVSPropertyOp1
 70
     1
102
RTVSPropertyOp2
 70
     1
102
RTVSPropertyOp3
 70
     1
102
RTVSPropertyOp4
 70
     1
102
RTVSPropertyOp5
 70
     1
102
RTVSPropertyOp6
 70
     1
102
RTVSPropertyOp7
 70
     1
102
RTVSPropertyOp8
 70
     1
102
RTVSPropertyOp9
 70
     1
102
RTVSPropertyOp10
 70
     1
102
RTVSPropertyOp11
 70
     1
102
RTVSPropertyOp12
 70
     1
102
RTVSPropertyOp13
 70
     1
102
RTVSPropertyOp14
 70
     1
102
RTVSPropertyOp15
 70
     1
102
RTVSPropertyOp16
 70
     1
102
RTVSPropertyOp17
 70
     1
102
RTVSPropertyOp18
 70
     1
102
RTVSPropertyOp19
 70
     1
102
RTVSPropertyOp20
 70
     1
102
RTVSPropertyOp21
 70
     1
102
RTVSPropertyOp22
 70
     1
102
RTVSPropertyOp23
 70
     1
102
RTVSPropertyOp24
 70
     1
102
RTVSPropertyOp25
 70
     1
102
RTVSPropertyOp26
 70
     1
102
RTVSPropertyOp27
 70
     1
102
RTVSPropertyOp28
 70
     1
102
RTVSPropertyOp29
 70
     1
102
RTVSPropertyOp30
 70
     1
102
RTVSPropertyOp31
 70
     1
102
RTVSPropertyOp32
 70
     1
  0
XRECORD
  5
195
102
{ACAD_REACTORS
330
194
102
}
330
194
100
AcDbXrecord
280
     1
102
RTVSPropertyOp0
 70
     1
102
RTVSPropertyOp1
 70
     1
102
RTVSPropertyOp2
 70
     1
102
RTVSPropertyOp3
 70
     1
102
RTVSPropertyOp4
 70
     1
102
RTVSPropertyOp5
 70
     1
102
RTVSPropertyOp6
 70
     1
102
RTVSPropertyOp7
 70
     1
102
RTVSPropertyOp8
 70
     1
102
RTVSPropertyOp9
 70
     1
102
RTVSPropertyOp10
 70
     1
102
RTVSPropertyOp11
 70
     1
102
RTVSPropertyOp12
 70
     1
102
RTVSPropertyOp13
 70
     1
102
RTVSPropertyOp14
 70
     1
102
RTVSPropertyOp15
 70
     1
102
RTVSPropertyOp16
 70
     1
102
RTVSPropertyOp17
 70
     1
102
RTVSPropertyOp18
 70
     1
102
RTVSPropertyOp19
 70
     1
102
RTVSPropertyOp20
 70
     1
102
RTVSPropertyOp21
 70
     1
102
RTVSPropertyOp22
 70
     1
102
RTVSPropertyOp23
 70
     1
102
RTVSPropertyOp24
 70
     1
102
RTVSPropertyOp25
 70
     1
102
RTVSPropertyOp26
 70
     1
102
RTVSPropertyOp27
 70
     1
102
RTVSPropertyOp28
 70
     1
102
RTVSPropertyOp29
 70
     1
102
RTVSPropertyOp30
 70
     1
102
RTVSPropertyOp31
 70
     1
102
RTVSPropertyOp32
 70
     1
  0
XRECORD
  5
193
102
{ACAD_REACTORS
330
192
102
}
330
192
100
AcDbXrecord
280
     1
102
RTVSPropertyOp0
 70
     1
102
RTVSPropertyOp1
 70
     1
102
RTVSPropertyOp2
 70
     1
102
RTVSPropertyOp3
 70
     1
102
RTVSPropertyOp4
 70
     1
102
RTVSPropertyOp5
 70
     1
102
RTVSPropertyOp6
 70
     1
102
RTVSPropertyOp7
 70
     1
102
RTVSPropertyOp8
 70
     1
102
RTVSPropertyOp9
 70
     1
102
RTVSPropertyOp10
 70
     1
102
RTVSPropertyOp11
 70
     1
102
RTVSPropertyOp12
 70
     1
102
RTVSPropertyOp13
 70
     1
102
RTVSPropertyOp14
 70
     1
102
RTVSPropertyOp15
 70
     1
102
RTVSPropertyOp16
 70
     1
102
RTVSPropertyOp17
 70
     1
102
RTVSPropertyOp18
 70
     1
102
RTVSPropertyOp19
 70
     1
102
RTVSPropertyOp20
 70
     1
102
RTVSPropertyOp21
 70
     1
102
RTVSPropertyOp22
 70
     1
102
RTVSPropertyOp23
 70
     1
102
RTVSPropertyOp24
 70
     1
102
RTVSPropertyOp25
 70
     1
102
RTVSPropertyOp26
 70
     1
102
RTVSPropertyOp27
 70
     1
102
RTVSPropertyOp28
 70
     1
102
RTVSPropertyOp29
 70
     1
102
RTVSPropertyOp30
 70
     1
102
RTVSPropertyOp31
 70
     1
102
RTVSPropertyOp32
 70
     1
  0
XRECORD
  5
197
102
{ACAD_REACTORS
330
196
102
}
330
196
100
AcDbXrecord
280
     1
102
RTVSPropertyOp0
 70
     1
102
RTVSPropertyOp1
 70
     1
102
RTVSPropertyOp2
 70
     1
102
RTVSPropertyOp3
 70
     1
102
RTVSPropertyOp4
 70
     1
102
RTVSPropertyOp5
 70
     1
102
RTVSPropertyOp6
 70
     1
102
RTVSPropertyOp7
 70
     1
102
RTVSPropertyOp8
 70
     1
102
RTVSPropertyOp9
 70
     1
102
RTVSPropertyOp10
 70
     1
102
RTVSPropertyOp11
 70
     1
102
RTVSPropertyOp12
 70
     1
102
RTVSPropertyOp13
 70
     1
102
RTVSPropertyOp14
 70
     1
102
RTVSPropertyOp15
 70
     1
102
RTVSPropertyOp16
 70
     1
102
RTVSPropertyOp17
 70
     1
102
RTVSPropertyOp18
 70
     1
102
RTVSPropertyOp19
 70
     1
102
RTVSPropertyOp20
 70
     1
102
RTVSPropertyOp21
 70
     1
102
RTVSPropertyOp22
 70
     1
102
RTVSPropertyOp23
 70
     1
102
RTVSPropertyOp24
 70
     1
102
RTVSPropertyOp25
 70
     1
102
RTVSPropertyOp26
 70
     1
102
RTVSPropertyOp27
 70
     1
102
RTVSPropertyOp28
 70
     1
102
RTVSPropertyOp29
 70
     1
102
RTVSPropertyOp30
 70
     1
102
RTVSPropertyOp31
 70
     1
102
RTVSPropertyOp32
 70
     1
  0
XRECORD
  5
19F
102
{ACAD_REACTORS
330
19E
102
}
330
19E
100
AcDbXrecord
280
     1
102
RTVSPropertyOp0
 70
     1
102
RTVSPropertyOp1
 70
     1
102
RTVSPropertyOp2
 70
     1
102
RTVSPropertyOp3
 70
     1
102
RTVSPropertyOp4
 70
     1
102
RTVSPropertyOp5
 70
     1
102
RTVSPropertyOp6
 70
     1
102
RTVSPropertyOp7
 70
     1
102
RTVSPropertyOp8
 70
     1
102
RTVSPropertyOp9
 70
     1
102
RTVSPropertyOp10
 70
     1
102
RTVSPropertyOp11
 70
     1
102
RTVSPropertyOp12
 70
     1
102
RTVSPropertyOp13
 70
     1
102
RTVSPropertyOp14
 70
     1
102
RTVSPropertyOp15
 70
     1
102
RTVSPropertyOp16
 70
     1
102
RTVSPropertyOp17
 70
     1
102
RTVSPropertyOp18
 70
     1
102
RTVSPropertyOp19
 70
     1
102
RTVSPropertyOp20
 70
     1
102
RTVSPropertyOp21
 70
     1
102
RTVSPropertyOp22
 70
     1
102
RTVSPropertyOp23
 70
     1
102
RTVSPropertyOp24
 70
     1
102
RTVSPropertyOp25
 70
     1
102
RTVSPropertyOp26
 70
     1
102
RTVSPropertyOp27
 70
     1
102
RTVSPropertyOp28
 70
     1
102
RTVSPropertyOp29
 70
     1
102
RTVSPropertyOp30
 70
     1
102
RTVSPropertyOp31
 70
     1
102
RTVSPropertyOp32
 70
     1
  0
XRECORD
  5
1A7
102
{ACAD_REACTORS
330
1A6
102
}
330
1A6
100
AcDbXrecord
280
     1
102
RTVSPropertyOp0
 70
     1
102
RTVSPropertyOp1
 70
     1
102
RTVSPropertyOp2
 70
     1
102
RTVSPropertyOp3
 70
     1
102
RTVSPropertyOp4
 70
     1
102
RTVSPropertyOp5
 70
     1
102
RTVSPropertyOp6
 70
     1
102
RTVSPropertyOp7
 70
     1
102
RTVSPropertyOp8
 70
     1
102
RTVSPropertyOp9
 70
     1
102
RTVSPropertyOp10
 70
     1
102
RTVSPropertyOp11
 70
     1
102
RTVSPropertyOp12
 70
     1
102
RTVSPropertyOp13
 70
     1
102
RTVSPropertyOp14
 70
     1
102
RTVSPropertyOp15
 70
     1
102
RTVSPropertyOp16
 70
     1
102
RTVSPropertyOp17
 70
     1
102
RTVSPropertyOp18
 70
     1
102
RTVSPropertyOp19
 70
     1
102
RTVSPropertyOp20
 70
     1
102
RTVSPropertyOp21
 70
     1
102
RTVSPropertyOp22
 70
     1
102
RTVSPropertyOp23
 70
     1
102
RTVSPropertyOp24
 70
     1
102
RTVSPropertyOp25
 70
     1
102
RTVSPropertyOp26
 70
     1
102
RTVSPropertyOp27
 70
     1
102
RTVSPropertyOp28
 70
     1
102
RTVSPropertyOp29
 70
     1
102
RTVSPropertyOp30
 70
     1
102
RTVSPropertyOp31
 70
     1
102
RTVSPropertyOp32
 70
     1
  0
XRECORD
  5
19B
102
{ACAD_REACTORS
330
19A
102
}
330
19A
100
AcDbXrecord
280
     1
102
RTVSPropertyOp0
 70
     1
102
RTVSPropertyOp1
 70
     1
102
RTVSPropertyOp2
 70
     1
102
RTVSPropertyOp3
 70
     1
102
RTVSPropertyOp4
 70
     1
102
RTVSPropertyOp5
 70
     1
102
RTVSPropertyOp6
 70
     1
102
RTVSPropertyOp7
 70
     1
102
RTVSPropertyOp8
 70
     1
102
RTVSPropertyOp9
 70
     1
102
RTVSPropertyOp10
 70
     1
102
RTVSPropertyOp11
 70
     1
102
RTVSPropertyOp12
 70
     1
102
RTVSPropertyOp13
 70
     1
102
RTVSPropertyOp14
 70
     1
102
RTVSPropertyOp15
 70
     1
102
RTVSPropertyOp16
 70
     1
102
RTVSPropertyOp17
 70
     1
102
RTVSPropertyOp18
 70
     1
102
RTVSPropertyOp19
 70
     1
102
RTVSPropertyOp20
 70
     1
102
RTVSPropertyOp21
 70
     1
102
RTVSPropertyOp22
 70
     1
102
RTVSPropertyOp23
 70
     1
102
RTVSPropertyOp24
 70
     1
102
RTVSPropertyOp25
 70
     1
102
RTVSPropertyOp26
 70
     1
102
RTVSPropertyOp27
 70
     1
102
RTVSPropertyOp28
 70
     1
102
RTVSPropertyOp29
 70
     1
102
RTVSPropertyOp30
 70
     1
102
RTVSPropertyOp31
 70
     1
102
RTVSPropertyOp32
 70
     1
  0
XRECORD
  5
19D
102
{ACAD_REACTORS
330
19C
102
}
330
19C
100
AcDbXrecord
280
     1
102
RTVSPropertyOp0
 70
     1
102
RTVSPropertyOp1
 70
     1
102
RTVSPropertyOp2
 70
     1
102
RTVSPropertyOp3
 70
     1
102
RTVSPropertyOp4
 70
     1
102
RTVSPropertyOp5
 70
     1
102
RTVSPropertyOp6
 70
     1
102
RTVSPropertyOp7
 70
     1
102
RTVSPropertyOp8
 70
     1
102
RTVSPropertyOp9
 70
     1
102
RTVSPropertyOp10
 70
     1
102
RTVSPropertyOp11
 70
     1
102
RTVSPropertyOp12
 70
     1
102
RTVSPropertyOp13
 70
     1
102
RTVSPropertyOp14
 70
     1
102
RTVSPropertyOp15
 70
     1
102
RTVSPropertyOp16
 70
     1
102
RTVSPropertyOp17
 70
     1
102
RTVSPropertyOp18
 70
     1
102
RTVSPropertyOp19
 70
     1
102
RTVSPropertyOp20
 70
     1
102
RTVSPropertyOp21
 70
     1
102
RTVSPropertyOp22
 70
     1
102
RTVSPropertyOp23
 70
     1
102
RTVSPropertyOp24
 70
     1
102
RTVSPropertyOp25
 70
     1
102
RTVSPropertyOp26
 70
     1
102
RTVSPropertyOp27
 70
     1
102
RTVSPropertyOp28
 70
     1
102
RTVSPropertyOp29
 70
     1
102
RTVSPropertyOp30
 70
     1
102
RTVSPropertyOp31
 70
     1
102
RTVSPropertyOp32
 70
     1
  0
XRECORD
  5
1A5
102
{ACAD_REACTORS
330
1A4
102
}
330
1A4
100
AcDbXrecord
280
     1
102
RTVSPropertyOp0
 70
     1
102
RTVSPropertyOp1
 70
     1
102
RTVSPropertyOp2
 70
     1
102
RTVSPropertyOp3
 70
     1
102
RTVSPropertyOp4
 70
     1
102
RTVSPropertyOp5
 70
     1
102
RTVSPropertyOp6
 70
     1
102
RTVSPropertyOp7
 70
     1
102
RTVSPropertyOp8
 70
     1
102
RTVSPropertyOp9
 70
     1
102
RTVSPropertyOp10
 70
     1
102
RTVSPropertyOp11
 70
     1
102
RTVSPropertyOp12
 70
     1
102
RTVSPropertyOp13
 70
     1
102
RTVSPropertyOp14
 70
     1
102
RTVSPropertyOp15
 70
     1
102
RTVSPropertyOp16
 70
     1
102
RTVSPropertyOp17
 70
     1
102
RTVSPropertyOp18
 70
     1
102
RTVSPropertyOp19
 70
     1
102
RTVSPropertyOp20
 70
     1
102
RTVSPropertyOp21
 70
     1
102
RTVSPropertyOp22
 70
     1
102
RTVSPropertyOp23
 70
     1
102
RTVSPropertyOp24
 70
     1
102
RTVSPropertyOp25
 70
     1
102
RTVSPropertyOp26
 70
     1
102
RTVSPropertyOp27
 70
     1
102
RTVSPropertyOp28
 70
     1
102
RTVSPropertyOp29
 70
     1
102
RTVSPropertyOp30
 70
     1
102
RTVSPropertyOp31
 70
     1
102
RTVSPropertyOp32
 70
     1
  0
XRECORD
  5
189
102
{ACAD_REACTORS
330
188
102
}
330
188
100
AcDbXrecord
280
     1
102
RTVSPropertyOp0
 70
     1
102
RTVSPropertyOp1
 70
     1
102
RTVSPropertyOp2
 70
     1
102
RTVSPropertyOp3
 70
     1
102
RTVSPropertyOp4
 70
     1
102
RTVSPropertyOp5
 70
     1
102
RTVSPropertyOp6
 70
     1
102
RTVSPropertyOp7
 70
     1
102
RTVSPropertyOp8
 70
     1
102
RTVSPropertyOp9
 70
     1
102
RTVSPropertyOp10
 70
     1
102
RTVSPropertyOp11
 70
     1
102
RTVSPropertyOp12
 70
     1
102
RTVSPropertyOp13
 70
     1
102
RTVSPropertyOp14
 70
     1
102
RTVSPropertyOp15
 70
     1
102
RTVSPropertyOp16
 70
     1
102
RTVSPropertyOp17
 70
     1
102
RTVSPropertyOp18
 70
     1
102
RTVSPropertyOp19
 70
     1
102
RTVSPropertyOp20
 70
     1
102
RTVSPropertyOp21
 70
     1
102
RTVSPropertyOp22
 70
     1
102
RTVSPropertyOp23
 70
     1
102
RTVSPropertyOp24
 70
     1
102
RTVSPropertyOp25
 70
     1
102
RTVSPropertyOp26
 70
     1
102
RTVSPropertyOp27
 70
     1
102
RTVSPropertyOp28
 70
     1
102
RTVSPropertyOp29
 70
     1
102
RTVSPropertyOp30
 70
     1
102
RTVSPropertyOp31
 70
     1
102
RTVSPropertyOp32
 70
     1
  0
XRECORD
  5
18B
102
{ACAD_REACTORS
330
18A
102
}
330
18A
100
AcDbXrecord
280
     1
102
RTVSPropertyOp0
 70
     1
102
RTVSPropertyOp1
 70
     1
102
RTVSPropertyOp2
 70
     1
102
RTVSPropertyOp3
 70
     1
102
RTVSPropertyOp4
 70
     1
102
RTVSPropertyOp5
 70
     1
102
RTVSPropertyOp6
 70
     1
102
RTVSPropertyOp7
 70
     1
102
RTVSPropertyOp8
 70
     1
102
RTVSPropertyOp9
 70
     1
102
RTVSPropertyOp10
 70
     1
102
RTVSPropertyOp11
 70
     1
102
RTVSPropertyOp12
 70
     1
102
RTVSPropertyOp13
 70
     1
102
RTVSPropertyOp14
 70
     1
102
RTVSPropertyOp15
 70
     1
102
RTVSPropertyOp16
 70
     1
102
RTVSPropertyOp17
 70
     1
102
RTVSPropertyOp18
 70
     1
102
RTVSPropertyOp19
 70
     1
102
RTVSPropertyOp20
 70
     1
102
RTVSPropertyOp21
 70
     1
102
RTVSPropertyOp22
 70
     1
102
RTVSPropertyOp23
 70
     1
102
RTVSPropertyOp24
 70
     1
102
RTVSPropertyOp25
 70
     1
102
RTVSPropertyOp26
 70
     1
102
RTVSPropertyOp27
 70
     1
102
RTVSPropertyOp28
 70
     1
102
RTVSPropertyOp29
 70
     1
102
RTVSPropertyOp30
 70
     1
102
RTVSPropertyOp31
 70
     1
102
RTVSPropertyOp32
 70
     1
  0
XRECORD
  5
18D
102
{ACAD_REACTORS
330
18C
102
}
330
18C
100
AcDbXrecord
280
     1
102
RTVSPropertyOp0
 70
     1
102
RTVSPropertyOp1
 70
     1
102
RTVSPropertyOp2
 70
     1
102
RTVSPropertyOp3
 70
     1
102
RTVSPropertyOp4
 70
     1
102
RTVSPropertyOp5
 70
     1
102
RTVSPropertyOp6
 70
     1
102
RTVSPropertyOp7
 70
     1
102
RTVSPropertyOp8
 70
     1
102
RTVSPropertyOp9
 70
     1
102
RTVSPropertyOp10
 70
     1
102
RTVSPropertyOp11
 70
     1
102
RTVSPropertyOp12
 70
     1
102
RTVSPropertyOp13
 70
     1
102
RTVSPropertyOp14
 70
     1
102
RTVSPropertyOp15
 70
     1
102
RTVSPropertyOp16
 70
     1
102
RTVSPropertyOp17
 70
     1
102
RTVSPropertyOp18
 70
     1
102
RTVSPropertyOp19
 70
     1
102
RTVSPropertyOp20
 70
     1
102
RTVSPropertyOp21
 70
     1
102
RTVSPropertyOp22
 70
     1
102
RTVSPropertyOp23
 70
     1
102
RTVSPropertyOp24
 70
     1
102
RTVSPropertyOp25
 70
     1
102
RTVSPropertyOp26
 70
     1
102
RTVSPropertyOp27
 70
     1
102
RTVSPropertyOp28
 70
     1
102
RTVSPropertyOp29
 70
     1
102
RTVSPropertyOp30
 70
     1
102
RTVSPropertyOp31
 70
     1
102
RTVSPropertyOp32
 70
     1
  0
XRECORD
  5
18F
102
{ACAD_REACTORS
330
18E
102
}
330
18E
100
AcDbXrecord
280
     1
102
RTVSPropertyOp0
 70
     1
102
RTVSPropertyOp1
 70
     1
102
RTVSPropertyOp2
 70
     1
102
RTVSPropertyOp3
 70
     1
102
RTVSPropertyOp4
 70
     1
102
RTVSPropertyOp5
 70
     1
102
RTVSPropertyOp6
 70
     1
102
RTVSPropertyOp7
 70
     1
102
RTVSPropertyOp8
 70
     1
102
RTVSPropertyOp9
 70
     1
102
RTVSPropertyOp10
 70
     1
102
RTVSPropertyOp11
 70
     1
102
RTVSPropertyOp12
 70
     1
102
RTVSPropertyOp13
 70
     1
102
RTVSPropertyOp14
 70
     1
102
RTVSPropertyOp15
 70
     1
102
RTVSPropertyOp16
 70
     1
102
RTVSPropertyOp17
 70
     1
102
RTVSPropertyOp18
 70
     1
102
RTVSPropertyOp19
 70
     1
102
RTVSPropertyOp20
 70
     1
102
RTVSPropertyOp21
 70
     1
102
RTVSPropertyOp22
 70
     1
102
RTVSPropertyOp23
 70
     1
102
RTVSPropertyOp24
 70
     1
102
RTVSPropertyOp25
 70
     1
102
RTVSPropertyOp26
 70
     1
102
RTVSPropertyOp27
 70
     1
102
RTVSPropertyOp28
 70
     1
102
RTVSPropertyOp29
 70
     1
102
RTVSPropertyOp30
 70
     1
102
RTVSPropertyOp31
 70
     1
102
RTVSPropertyOp32
 70
     1
  0
XRECORD
  5
1A3
102
{ACAD_REACTORS
330
1A2
102
}
330
1A2
100
AcDbXrecord
280
     1
102
RTVSPropertyOp0
 70
     1
102
RTVSPropertyOp1
 70
     1
102
RTVSPropertyOp2
 70
     1
102
RTVSPropertyOp3
 70
     1
102
RTVSPropertyOp4
 70
     1
102
RTVSPropertyOp5
 70
     1
102
RTVSPropertyOp6
 70
     1
102
RTVSPropertyOp7
 70
     1
102
RTVSPropertyOp8
 70
     1
102
RTVSPropertyOp9
 70
     1
102
RTVSPropertyOp10
 70
     1
102
RTVSPropertyOp11
 70
     1
102
RTVSPropertyOp12
 70
     1
102
RTVSPropertyOp13
 70
     1
102
RTVSPropertyOp14
 70
     1
102
RTVSPropertyOp15
 70
     1
102
RTVSPropertyOp16
 70
     1
102
RTVSPropertyOp17
 70
     1
102
RTVSPropertyOp18
 70
     1
102
RTVSPropertyOp19
 70
     1
102
RTVSPropertyOp20
 70
     1
102
RTVSPropertyOp21
 70
     1
102
RTVSPropertyOp22
 70
     1
102
RTVSPropertyOp23
 70
     1
102
RTVSPropertyOp24
 70
     1
102
RTVSPropertyOp25
 70
     1
102
RTVSPropertyOp26
 70
     1
102
RTVSPropertyOp27
 70
     1
102
RTVSPropertyOp28
 70
     1
102
RTVSPropertyOp29
 70
     1
102
RTVSPropertyOp30
 70
     1
102
RTVSPropertyOp31
 70
     1
102
RTVSPropertyOp32
 70
     1
  0
XRECORD
  5
199
102
{ACAD_REACTORS
330
198
102
}
330
198
100
AcDbXrecord
280
     1
102
RTVSPropertyOp0
 70
     1
102
RTVSPropertyOp1
 70
     1
102
RTVSPropertyOp2
 70
     1
102
RTVSPropertyOp3
 70
     1
102
RTVSPropertyOp4
 70
     1
102
RTVSPropertyOp5
 70
     1
102
RTVSPropertyOp6
 70
     1
102
RTVSPropertyOp7
 70
     1
102
RTVSPropertyOp8
 70
     1
102
RTVSPropertyOp9
 70
     1
102
RTVSPropertyOp10
 70
     1
102
RTVSPropertyOp11
 70
     1
102
RTVSPropertyOp12
 70
     1
102
RTVSPropertyOp13
 70
     1
102
RTVSPropertyOp14
 70
     1
102
RTVSPropertyOp15
 70
     1
102
RTVSPropertyOp16
 70
     1
102
RTVSPropertyOp17
 70
     1
102
RTVSPropertyOp18
 70
     1
102
RTVSPropertyOp19
 70
     1
102
RTVSPropertyOp20
 70
     1
102
RTVSPropertyOp21
 70
     1
102
RTVSPropertyOp22
 70
     1
102
RTVSPropertyOp23
 70
     1
102
RTVSPropertyOp24
 70
     1
102
RTVSPropertyOp25
 70
     1
102
RTVSPropertyOp26
 70
     1
102
RTVSPropertyOp27
 70
     1
102
RTVSPropertyOp28
 70
     1
102
RTVSPropertyOp29
 70
     1
102
RTVSPropertyOp30
 70
     1
102
RTVSPropertyOp31
 70
     1
102
RTVSPropertyOp32
 70
     1
  0
XRECORD
  5
1A1
102
{ACAD_REACTORS
330
1A0
102
}
330
1A0
100
AcDbXrecord
280
     1
102
RTVSPropertyOp0
 70
     1
102
RTVSPropertyOp1
 70
     1
102
RTVSPropertyOp2
 70
     1
102
RTVSPropertyOp3
 70
     1
102
RTVSPropertyOp4
 70
     1
102
RTVSPropertyOp5
 70
     1
102
RTVSPropertyOp6
 70
     1
102
RTVSPropertyOp7
 70
     1
102
RTVSPropertyOp8
 70
     1
102
RTVSPropertyOp9
 70
     1
102
RTVSPropertyOp10
 70
     1
102
RTVSPropertyOp11
 70
     1
102
RTVSPropertyOp12
 70
     1
102
RTVSPropertyOp13
 70
     1
102
RTVSPropertyOp14
 70
     1
102
RTVSPropertyOp15
 70
     1
102
RTVSPropertyOp16
 70
     1
102
RTVSPropertyOp17
 70
     1
102
RTVSPropertyOp18
 70
     1
102
RTVSPropertyOp19
 70
     1
102
RTVSPropertyOp20
 70
     1
102
RTVSPropertyOp21
 70
     1
102
RTVSPropertyOp22
 70
     1
102
RTVSPropertyOp23
 70
     1
102
RTVSPropertyOp24
 70
     1
102
RTVSPropertyOp25
 70
     1
102
RTVSPropertyOp26
 70
     1
102
RTVSPropertyOp27
 70
     1
102
RTVSPropertyOp28
 70
     1
102
RTVSPropertyOp29
 70
     1
102
RTVSPropertyOp30
 70
     1
102
RTVSPropertyOp31
 70
     1
102
RTVSPropertyOp32
 70
     1
  0
ENDSEC
  0
EOF
