  0
SECTION
  2
HEADER
  9
$ACADVER
  1
AC1015
  9
$ACADMAINTVER
 70
     6
  9
$DWGCODEPAGE
  3
ANSI_1252
  9
$INSBASE
 10
0.0
 20
0.0
 30
0.0
  9
$EXTMIN
 10
0.0
 20
0.0
 30
0.0
  9
$EXTMAX
 10
210.0
 20
297.0
 30
0.0
  9
$LIMMIN
 10
0.0
 20
0.0
  9
$LIMMAX
 10
210.0
 20
297.0
  9
$ORTHOMODE
 70
     0
  9
$REGENMODE
 70
     1
  9
$FILLMODE
 70
     1
  9
$QTEXTMODE
 70
     0
  9
$MIRRTEXT
 70
     1
  9
$LTSCALE
 40
1.0
  9
$ATTMODE
 70
     1
  9
$TEXTSIZE
 40
2.5
  9
$TRACEWID
 40
1.0
  9
$TEXTSTYLE
  7
Standard
  9
$CLAYER
  8
0
  9
$CELTYPE
  6
ByLayer
  9
$CECOLOR
 62
   256
  9
$CELTSCALE
 40
1.0
  9
$DISPSILH
 70
     0
  9
$DIMSCALE
 40
1.0
  9
$DIMASZ
 40
2.5
  9
$DIMEXO
 40
0.625
  9
$DIMDLI
 40
3.75
  9
$DIMRND
 40
0.0
  9
$DIMDLE
 40
0.0
  9
$DIMEXE
 40
1.25
  9
$DIMTP
 40
0.0
  9
$DIMTM
 40
0.0
  9
$DIMTXT
 40
2.5
  9
$DIMCEN
 40
2.5
  9
$DIMTSZ
 40
0.0
  9
$DIMTOL
 70
     0
  9
$DIMLIM
 70
     0
  9
$DIMTIH
 70
     0
  9
$DIMTOH
 70
     0
  9
$DIMSE1
 70
     0
  9
$DIMSE2
 70
     0
  9
$DIMTAD
 70
     1
  9
$DIMZIN
 70
     8
  9
$DIMBLK
  1

  9
$DIMASO
 70
     1
  9
$DIMSHO
 70
     1
  9
$DIMPOST
  1

  9
$DIMAPOST
  1

  9
$DIMALT
 70
     0
  9
$DIMALTD
 70
     3
  9
$DIMALTF
 40
0.0393700787
  9
$DIMLFAC
 40
1.0
  9
$DIMTOFL
 70
     1
  9
$DIMTVP
 40
0.0
  9
$DIMTIX
 70
     0
  9
$DIMSOXD
 70
     0
  9
$DIMSAH
 70
     0
  9
$DIMBLK1
  1

  9
$DIMBLK2
  1

  9
$DIMSTYLE
  2
ISO-25
  9
$DIMCLRD
 70
     0
  9
$DIMCLRE
 70
     0
  9
$DIMCLRT
 70
     0
  9
$DIMTFAC
 40
1.0
  9
$DIMGAP
 40
0.625
  9
$DIMJUST
 70
     0
  9
$DIMSD1
 70
     0
  9
$DIMSD2
 70
     0
  9
$DIMTOLJ
 70
     0
  9
$DIMTZIN
 70
     8
  9
$DIMALTZ
 70
     0
  9
$DIMALTTZ
 70
     0
  9
$DIMUPT
 70
     0
  9
$DIMDEC
 70
     2
  9
$DIMTDEC
 70
     2
  9
$DIMALTU
 70
     2
  9
$DIMALTTD
 70
     3
  9
$DIMTXSTY
  7
Standard
  9
$DIMAUNIT
 70
     0
  9
$DIMADEC
 70
     0
  9
$DIMALTRND
 40
0.0
  9
$DIMAZIN
 70
     0
  9
$DIMDSEP
 70
    44
  9
$DIMATFIT
 70
     3
  9
$DIMFRAC
 70
     0
  9
$DIMLDRBLK
  1

  9
$DIMLUNIT
 70
     2
  9
$DIMLWD
 70
    -2
  9
$DIMLWE
 70
    -2
  9
$DIMTMOVE
 70
     0
  9
$LUNITS
 70
     2
  9
$LUPREC
 70
     4
  9
$SKETCHINC
 40
1.0
  9
$FILLETRAD
 40
10.0
  9
$AUNITS
 70
     0
  9
$AUPREC
 70
     0
  9
$MENU
  1
.
  9
$ELEVATION
 40
0.0
  9
$PELEVATION
 40
0.0
  9
$THICKNESS
 40
0.0
  9
$LIMCHECK
 70
     0
  9
$CHAMFERA
 40
10.0
  9
$CHAMFERB
 40
10.0
  9
$CHAMFERC
 40
20.0
  9
$CHAMFERD
 40
0.0
  9
$SKPOLY
 70
     0
  9
$TDCREATE
 40
2457567.353000532
  9
$TDUCREATE
 40
2457567.269667199
  9
$TDUPDATE
 40
2457567.353002523
  9
$TDUUPDATE
 40
2457567.26966919
  9
$TDINDWG
 40
0.0000000116
  9
$TDUSRTIMER
 40
0.0000000116
  9
$USRTIMER
 70
     1
  9
$ANGBASE
 50
0.0
  9
$ANGDIR
 70
     0
  9
$PDMODE
 70
     0
  9
$PDSIZE
 40
0.0
  9
$PLINEWID
 40
0.0
  9
$SPLFRAME
 70
     0
  9
$SPLINETYPE
 70
     6
  9
$SPLINESEGS
 70
     8
  9
$HANDSEED
  5
1AD
  9
$SURFTAB1
 70
     6
  9
$SURFTAB2
 70
     6
  9
$SURFTYPE
 70
     6
  9
$SURFU
 70
     6
  9
$SURFV
 70
     6
  9
$UCSBASE
  2

  9
$UCSNAME
  2

  9
$UCSORG
 10
0.0
 20
0.0
 30
0.0
  9
$UCSXDIR
 10
1.0
 20
0.0
 30
0.0
  9
$UCSYDIR
 10
0.0
 20
1.0
 30
0.0
  9
$UCSORTHOREF
  2

  9
$UCSORTHOVIEW
 70
     0
  9
$UCSORGTOP
 10
0.0
 20
0.0
 30
0.0
  9
$UCSORGBOTTOM
 10
0.0
 20
0.0
 30
0.0
  9
$UCSORGLEFT
 10
0.0
 20
0.0
 30
0.0
  9
$UCSORGRIGHT
 10
0.0
 20
0.0
 30
0.0
  9
$UCSORGFRONT
 10
0.0
 20
0.0
 30
0.0
  9
$UCSORGBACK
 10
0.0
 20
0.0
 30
0.0
  9
$PUCSBASE
  2

  9
$PUCSNAME
  2

  9
$PUCSORG
 10
0.0
 20
0.0
 30
0.0
  9
$PUCSXDIR
 10
1.0
 20
0.0
 30
0.0
  9
$PUCSYDIR
 10
0.0
 20
1.0
 30
0.0
  9
$PUCSORTHOREF
  2

  9
$PUCSORTHOVIEW
 70
     0
  9
$PUCSORGTOP
 10
0.0
 20
0.0
 30
0.0
  9
$PUCSORGBOTTOM
 10
0.0
 20
0.0
 30
0.0
  9
$PUCSORGLEFT
 10
0.0
 20
0.0
 30
0.0
  9
$PUCSORGRIGHT
 10
0.0
 20
0.0
 30
0.0
  9
$PUCSORGFRONT
 10
0.0
 20
0.0
 30
0.0
  9
$PUCSORGBACK
 10
0.0
 20
0.0
 30
0.0
  9
$USERI1
 70
     0
  9
$USERI2
 70
     0
  9
$USERI3
 70
     0
  9
$USERI4
 70
     0
  9
$USERI5
 70
     0
  9
$USERR1
 40
0.0
  9
$USERR2
 40
0.0
  9
$USERR3
 40
0.0
  9
$USERR4
 40
0.0
  9
$USERR5
 40
0.0
  9
$WORLDVIEW
 70
     1
  9
$SHADEDGE
 70
     3
  9
$SHADEDIF
 70
    70
  9
$TILEMODE
 70
     1
  9
$MAXACTVP
 70
    64
  9
$PINSBASE
 10
0.0
 20
0.0
 30
0.0
  9
$PLIMCHECK
 70
     0
  9
$PEXTMIN
 10
0.0
 20
0.0
 30
0.0
  9
$PEXTMAX
 10
210.0
 20
297.0
 30
0.0
  9
$PLIMMIN
 10
0.0
 20
0.0
  9
$PLIMMAX
 10
210.0
 20
297.0
  9
$UNITMODE
 70
     0
  9
$VISRETAIN
 70
     1
  9
$PLINEGEN
 70
     0
  9
$PSLTSCALE
 70
     1
  9
$TREEDEPTH
 70
  3020
  9
$CMLSTYLE
  2
Standard
  9
$CMLJUST
 70
     0
  9
$CMLSCALE
 40
20.0
  9
$PROXYGRAPHICS
 70
     1
  9
$MEASUREMENT
 70
     1
  9
$CELWEIGHT
370
    -1
  9
$ENDCAPS
280
     0
  9
$JOINSTYLE
280
     0
  9
$LWDISPLAY
290
     0
  9
$INSUNITS
 70
     4
  9
$HYPERLINKBASE
  1

  9
$STYLESHEET
  1

  9
$XEDIT
290
     1
  9
$CEPSNTYPE
380
     0
  9
$PSTYLEMODE
290
     1
  9
$FINGERPRINTGUID
  2
{1034CB94-A416-4EA3-990D-9CACFBF007D4}
  9
$VERSIONGUID
  2
{FAEB1C32-E019-11D5-929B-00C0DF256EC4}
  9
$EXTNAMES
290
     1
  9
$PSVPSCALE
 40
0.0
  9
$OLESTARTUP
290
     0
  0
ENDSEC
  0
SECTION
  2
CLASSES
  0
CLASS
  1
ACDBDICTIONARYWDFLT
  2
AcDbDictionaryWithDefault
  3
ObjectDBX Classes
 90
        0
280
     0
281
     0
  0
CLASS
  1
VISUALSTYLE
  2
AcDbVisualStyle
  3
ObjectDBX Classes
 90
     4095
280
     0
281
     0
  0
CLASS
  1
MATERIAL
  2
AcDbMaterial
  3
ObjectDBX Classes
 90
     1153
280
     0
281
     0
  0
CLASS
  1
DICTIONARYVAR
  2
AcDbDictionaryVar
  3
ObjectDBX Classes
 90
        0
280
     0
281
     0
  0
CLASS
  1
ACDBPLACEHOLDER
  2
AcDbPlaceHolder
  3
ObjectDBX Classes
 90
        0
280
     0
281
     0
  0
CLASS
  1
LAYOUT
  2
AcDbLayout
  3
ObjectDBX Classes
 90
        0
280
     0
281
     0
  0
ENDSEC
  0
SECTION
  2
TABLES
  0
TABLE
  2
VPORT
  5
8
330
0
100
AcDbSymbolTable
 70
     1
  0
VPORT
  5
29
330
8
100
AcDbSymbolTableRecord
100
AcDbViewportTableRecord
  2
*Active
 70
     0
 10
0.0
 20
0.0
 11
1.0
 21
1.0
 12
344.1869158879
 22
148.5
 13
0.0
 23
0.0
 14
10.0
 24
10.0
 15
10.0
 25
10.0
 16
0.0
 26
0.0
 36
1.0
 17
0.0
 27
0.0
 37
0.0
 40
297.0
 41
1.9729729729
 42
50.0
 43
0.0
 44
0.0
 50
0.0
 51
0.0
 71
     0
 72
   100
 73
     1
 74
     3
 75
     0
 76
     0
 77
     0
 78
     0
281
     0
 65
     1
110
0.0
120
0.0
130
0.0
111
1.0
121
0.0
131
0.0
112
0.0
122
1.0
132
0.0
 79
     0
146
0.0
  0
ENDTAB
  0
TABLE
  2
LTYPE
  5
5
330
0
100
AcDbSymbolTable
 70
     2
  0
LTYPE
  5
14
330
5
100
AcDbSymbolTableRecord
100
AcDbLinetypeTableRecord
  2
ByBlock
 70
     0
  3

 72
    65
 73
     0
 40
0.0
  0
LTYPE
  5
15
330
5
100
AcDbSymbolTableRecord
100
AcDbLinetypeTableRecord
  2
ByLayer
 70
     0
  3

 72
    65
 73
     0
 40
0.0
  0
LTYPE
  5
16
330
5
100
AcDbSymbolTableRecord
100
AcDbLinetypeTableRecord
  2
Continuous
 70
     0
  3
Solid line
 72
    65
 73
     0
 40
0.0
  0
LTYPE
  5
54
330
5
100
AcDbSymbolTableRecord
100
AcDbLinetypeTableRecord
  2
HIDDEN2
 70
     0
  3
Hidden (.5x) _ _ _ _ _ _ _ _ _ _ _ _ _ _ _ _ _ 
 72
    65
 73
     2
 40
4.7625
 49
3.175
 74
     4
 75
     0
340
0
 46
0.0
 50
0.0
 44
0.0
 45
0.0
 49
-1.5875
 74
     4
 75
     0
340
0
 46
0.0
 50
0.0
 44
0.0
 45
0.0
  0
ENDTAB
  0
TABLE
  2
LAYER
  5
2
330
0
100
AcDbSymbolTable
 70
     5
  0
LAYER
  5
10
330
2
100
AcDbSymbolTableRecord
100
AcDbLayerTableRecord
  2
0
 70
     0
 62
     7
  6
Continuous
370
    -3
390
F
  0
LAYER
  5
3F
330
2
100
AcDbSymbolTableRecord
100
AcDbLayerTableRecord
  2
SK1
 70
     0
 62
     4
  6
Continuous
370
    18
390
F
  0
LAYER
  5
53
330
2
100
AcDbSymbolTableRecord
100
AcDbLayerTableRecord
  2
SK3
 70
     0
 62
     1
  6
HIDDEN2
370
    15
390
F
  0
LAYER
  5
129
330
2
100
AcDbSymbolTableRecord
100
AcDbLayerTableRecord
  2
SK4
 70
     0
 62
     2
  6
Continuous
370
    13
390
F
  0
LAYER
  5
12B
330
2
100
AcDbSymbolTableRecord
100
AcDbLayerTableRecord
  2
SK2
 70
     0
 62
     7
  6
Continuous
370
    15
390
F
  0
ENDTAB
  0
TABLE
  2
STYLE
  5
3
330
0
100
AcDbSymbolTable
 70
     2
  0
STYLE
  5
11
330
3
100
AcDbSymbolTableRecord
100
AcDbTextStyleTableRecord
  2
Standard
 70
     0
 40
0.0
 41
1.0
 50
0.0
 71
     0
 42
2.5
  3
txt
  4

  0
STYLE
  5
13E
330
3
100
AcDbSymbolTableRecord
100
AcDbTextStyleTableRecord
  2
SEACAD_Solid_Edge_ISO
 70
     0
 40
0.0
 41
1.0
 50
0.0
 71
     0
 42
0.2
  3
seiso.ttf
  4

1001
ACAD
1000
Solid Edge ISO
1071
        0
  0
ENDTAB
  0
TABLE
  2
VIEW
  5
6
330
0
100
AcDbSymbolTable
 70
     0
  0
ENDTAB
  0
TABLE
  2
UCS
  5
7
330
0
100
AcDbSymbolTable
 70
     0
  0
ENDTAB
  0
TABLE
  2
APPID
  5
9
330
0
100
AcDbSymbolTable
 70
     1
  0
APPID
  5
12
330
9
100
AcDbSymbolTableRecord
100
AcDbRegAppTableRecord
  2
ACAD
 70
     0
  0
ENDTAB
  0
TABLE
  2
DIMSTYLE
  5
A
330
0
100
AcDbSymbolTable
 70
     3
100
AcDbDimStyleTable
  0
DIMSTYLE
105
27
330
A
100
AcDbSymbolTableRecord
100
AcDbDimStyleTableRecord
  2
ISO-25
 70
     0
 41
2.5
 42
0.625
 43
3.75
 44
1.25
 73
     0
 74
     0
 77
     1
 78
     8
140
2.5
141
2.5
143
0.0393700787
147
0.625
171
     3
172
     1
178
     0
271
     2
272
     2
274
     3
278
    44
283
     0
284
     8
340
11
  0
DIMSTYLE
105
12C
330
A
100
AcDbSymbolTableRecord
100
AcDbDimStyleTableRecord
  2
Standard
 70
     0
178
     0
340
11
  0
DIMSTYLE
105
13F
102
{ACAD_REACTORS
330
140
330
160
330
16B
330
175
102
}
330
A
100
AcDbSymbolTableRecord
100
AcDbDimStyleTableRecord
  2
DIN
 70
     0
 41
3.5
 42
0.0
 44
1.75
 73
     0
 74
     0
 77
     1
 78
     8
140
3.5
141
1.75
147
1.75
172
     1
173
     1
178
     0
179
     3
271
     2
272
     2
278
    44
284
     8
340
13E
343
139
344
139
  0
ENDTAB
  0
TABLE
  2
BLOCK_RECORD
  5
1
330
0
100
AcDbSymbolTable
 70
    10
  0
BLOCK_RECORD
  5
1F
330
1
100
AcDbSymbolTableRecord
100
AcDbBlockTableRecord
  2
*Model_Space
340
22
  0
BLOCK_RECORD
  5
1B
330
1
100
AcDbSymbolTableRecord
100
AcDbBlockTableRecord
  2
*Paper_Space
340
1E
  0
BLOCK_RECORD
  5
12D
330
1
100
AcDbSymbolTableRecord
100
AcDbBlockTableRecord
  2
_OBLIQUE
340
0
  0
BLOCK_RECORD
  5
131
330
1
100
AcDbSymbolTableRecord
100
AcDbBlockTableRecord
  2
_DOT
340
0
  0
BLOCK_RECORD
  5
139
330
1
100
AcDbSymbolTableRecord
100
AcDbBlockTableRecord
  2
_SE_FILLED
340
0
  0
BLOCK_RECORD
  5
141
330
1
100
AcDbSymbolTableRecord
100
AcDbBlockTableRecord
  2
DMBLK57
340
0
  0
BLOCK_RECORD
  5
14A
330
1
100
AcDbSymbolTableRecord
100
AcDbBlockTableRecord
  2
Nullpunkt
340
0
102
{BLKREFS
331
154
102
}
  0
BLOCK_RECORD
  5
155
330
1
100
AcDbSymbolTableRecord
100
AcDbBlockTableRecord
  2
Einfügepunkt
340
0
102
{BLKREFS
331
15F
102
}
  0
BLOCK_RECORD
  5
161
330
1
100
AcDbSymbolTableRecord
100
AcDbBlockTableRecord
  2
DMBLK58
340
0
  0
BLOCK_RECORD
  5
16C
330
1
100
AcDbSymbolTableRecord
100
AcDbBlockTableRecord
  2
DMBLK59
340
0
  0
BLOCK_RECORD
  5
176
330
1
100
AcDbSymbolTableRecord
100
AcDbBlockTableRecord
  2
DMBLK60
340
0
  0
ENDTAB
  0
ENDSEC
  0
SECTION
  2
BLOCKS
  0
BLOCK
  5
20
330
1F
100
AcDbEntity
  8
0
100
AcDbBlockBegin
  2
*Model_Space
 70
     0
 10
0.0
 20
0.0
 30
0.0
  3
*Model_Space
  1

  0
ENDBLK
  5
21
330
1F
100
AcDbEntity
  8
0
100
AcDbBlockEnd
  0
BLOCK
  5
1C
330
1B
100
AcDbEntity
 67
     1
  8
0
100
AcDbBlockBegin
  2
*Paper_Space
 70
     0
 10
0.0
 20
0.0
 30
0.0
  3
*Paper_Space
  1

  0
ENDBLK
  5
1D
330
1B
100
AcDbEntity
 67
     1
  8
0
100
AcDbBlockEnd
  0
BLOCK
  5
12E
330
12D
100
AcDbEntity
  8
0
100
AcDbBlockBegin
  2
_OBLIQUE
 70
     0
 10
0.0
 20
0.0
 30
0.0
  3
_OBLIQUE
  1

  0
LINE
  5
130
330
12D
100
AcDbEntity
  8
0
  6
ByBlock
 62
     0
370
    -2
100
AcDbLine
 10
-0.5
 20
-0.5
 30
0.0
 11
0.5
 21
0.5
 31
0.0
  0
ENDBLK
  5
12F
330
12D
100
AcDbEntity
  8
0
100
AcDbBlockEnd
  0
BLOCK
  5
132
330
131
100
AcDbEntity
  8
0
100
AcDbBlockBegin
  2
_DOT
 70
     0
 10
0.0
 20
0.0
 30
0.0
  3
_DOT
  1

  0
POLYLINE
  5
134
330
131
100
AcDbEntity
  8
0
  6
ByBlock
 62
     0
100
AcDb2dPolyline
 66
     1
 10
0.0
 20
0.0
 30
0.0
 70
     1
 40
0.5
 41
0.5
  0
VERTEX
  5
136
330
134
100
AcDbEntity
  8
0
  6
ByBlock
 62
     0
100
AcDbVertex
100
AcDb2dVertex
 10
-0.25
 20
0.0
 30
0.0
 42
1.0
  0
VERTEX
  5
137
330
134
100
AcDbEntity
  8
0
  6
ByBlock
 62
     0
100
AcDbVertex
100
AcDb2dVertex
 10
0.25
 20
0.0
 30
0.0
 42
1.0
  0
SEQEND
  5
138
330
134
100
AcDbEntity
  8
0
  6
ByBlock
 62
     0
  0
LINE
  5
135
330
131
100
AcDbEntity
  8
0
  6
ByBlock
 62
     0
370
    -2
100
AcDbLine
 10
-0.5
 20
0.0
 30
0.0
 11
-1.0
 21
0.0
 31
0.0
  0
ENDBLK
  5
133
330
131
100
AcDbEntity
  8
0
100
AcDbBlockEnd
  0
BLOCK
  5
13C
330
139
100
AcDbEntity
  8
0
100
AcDbBlockBegin
  2
_SE_FILLED
 70
     0
 10
0.0
 20
0.0
 30
0.0
  3
_SE_FILLED
  1

  0
SOLID
  5
13A
330
139
100
AcDbEntity
  8
0
 62
     0
100
AcDbTrace
 10
0.0
 20
0.0
 30
0.0
 11
-1.0
 21
-0.1665
 31
0.0
 12
-1.0
 22
0.1665
 32
0.0
 13
0.0
 23
0.0
 33
0.0
  0
LINE
  5
13B
330
139
100
AcDbEntity
  8
0
 62
     0
100
AcDbLine
 10
0.0
 20
0.0
 30
0.0
 11
-1.0
 21
0.0
 31
0.0
  0
ENDBLK
  5
13D
330
139
100
AcDbEntity
  8
0
100
AcDbBlockEnd
  0
BLOCK
  5
148
330
141
100
AcDbEntity
  8
0
100
AcDbBlockBegin
  2
DMBLK57
 70
     0
 10
0.0
 20
0.0
 30
0.0
  3
DMBLK57
  1

  0
HATCH
  5
142
330
141
100
AcDbEntity
  8
SK2
  6
Continuous
 62
   136
100
AcDbHatch
 10
0.0
 20
0.0
 30
0.0
210
0.0
220
0.0
230
1.0
  2
SOLID
 70
     1
 71
     0
 91
        1
 92
        1
 93
        3
 72
     1
 10
-23.83999989196671
 20
26.12543031448398
 11
-27.34000000000013
 21
25.54209696314508
 72
     1
 10
-27.34000000000013
 20
25.54209696314508
 11
-23.83999989196671
 21
24.95876361180617
 72
     1
 10
-23.83999989196671
 20
24.95876361180617
 11
-23.83999989196671
 21
26.12543031448398
 97
        0
 75
     0
 76
     1
 98
        0
  0
HATCH
  5
143
330
141
100
AcDbEntity
  8
SK2
  6
Continuous
 62
   136
100
AcDbHatch
 10
0.0
 20
0.0
 30
0.0
210
0.0
220
0.0
230
1.0
  2
SOLID
 70
     1
 71
     0
 91
        1
 92
        1
 93
        3
 72
     1
 10
9.159998997896778
 20
26.12543031448398
 11
9.159998997896778
 21
24.95876361180617
 72
     1
 10
9.159998997896778
 20
24.95876361180617
 11
12.6599991059302
 21
25.54209696314508
 72
     1
 10
12.6599991059302
 20
25.54209696314508
 11
9.159998997896778
 21
26.12543031448398
 97
        0
 75
     0
 76
     1
 98
        0
  0
LINE
  5
144
330
141
100
AcDbEntity
  8
SK2
  6
Continuous
 62
   136
100
AcDbLine
 10
-27.34
 20
11.8897757791
 30
0.0
 11
-27.34
 21
27.2920970172
 31
0.0
  0
LINE
  5
145
330
141
100
AcDbEntity
  8
SK2
  6
Continuous
 62
   136
100
AcDbLine
 10
12.66
 20
12.180020447
 30
0.0
 11
12.66
 21
27.2920970172
 31
0.0
  0
LINE
  5
146
330
141
100
AcDbEntity
  8
SK2
  6
Continuous
 62
   136
100
AcDbLine
 10
-27.34
 20
25.5420969631
 30
0.0
 11
12.6599991059
 21
25.5420969631
 31
0.0
  0
TEXT
  5
147
330
141
100
AcDbEntity
  8
SK2
  6
Continuous
 62
   136
100
AcDbText
 10
-9.4081822652
 20
26.4170969631
 30
0.0
 40
3.5
  1
40
  7
SEACAD_Solid_Edge_ISO
 11
-9.4081822652
 21
29.9170969631
 31
0.0
100
AcDbText
 73
     3
  0
ENDBLK
  5
149
330
141
100
AcDbEntity
  8
0
100
AcDbBlockEnd
  0
BLOCK
  5
152
330
14A
100
AcDbEntity
  8
0
100
AcDbBlockBegin
  2
Nullpunkt
 70
     0
 10
0.0
 20
0.0
 30
0.0
  3
Nullpunkt
  1

  0
HATCH
  5
14B
330
14A
100
AcDbEntity
  8
SK2
  6
Continuous
 62
     7
100
AcDbHatch
 10
0.0
 20
0.0
 30
0.0
210
0.0
220
0.0
230
1.0
  2
SOLID
 70
     1
 71
     0
 91
        1
 92
        1
 93
        3
 72
     1
 10
-1.0
 20
0.0
 11
0.0000000000000009
 21
0.0
 72
     1
 10
0.0
 20
0.0
 11
0.0
 21
1.000000000000001
 72
     2
 10
0.0
 20
0.0
 40
1.0
 50
90.0
 51
180.0
 73
     1
 97
        0
 75
     0
 76
     1
 98
        0
  0
HATCH
  5
14C
330
14A
100
AcDbEntity
  8
SK2
  6
Continuous
 62
     7
100
AcDbHatch
 10
0.0
 20
0.0
 30
0.0
210
0.0
220
0.0
230
1.0
  2
SOLID
 70
     1
 71
     0
 91
        1
 92
        1
 93
        3
 72
     2
 10
0.0
 20
0.0
 40
1.0
 50
270.0
 51
360.0
 73
     1
 72
     1
 10
1.0
 20
0.0
 11
-0.0000000000000009
 21
0.0
 72
     1
 10
0.0
 20
0.0
 11
0.0
 21
-1.000000000000001
 97
        0
 75
     0
 76
     1
 98
        0
  0
CIRCLE
  5
14D
330
14A
100
AcDbEntity
  8
SK2
  6
Continuous
 62
     7
100
AcDbCircle
 10
0.0
 20
0.0
 30
0.0
 40
1.0
  0
LINE
  5
14E
330
14A
100
AcDbEntity
  8
SK1
  6
Continuous
100
AcDbLine
 10
-1.0
 20
0.0
 30
0.0
 11
1.0
 21
0.0
 31
0.0
  0
LINE
  5
14F
330
14A
100
AcDbEntity
  8
SK1
  6
Continuous
100
AcDbLine
 10
0.0
 20
1.0
 30
0.0
 11
0.0
 21
-1.0
 31
0.0
  0
POINT
  5
150
330
14A
100
AcDbEntity
  8
SK1
  6
Continuous
100
AcDbPoint
 10
0.0
 20
0.0
 30
0.0
  0
POINT
  5
151
330
14A
100
AcDbEntity
  8
SK1
  6
Continuous
100
AcDbPoint
 10
0.0
 20
0.0
 30
0.0
  0
ENDBLK
  5
153
330
14A
100
AcDbEntity
  8
0
100
AcDbBlockEnd
  0
BLOCK
  5
15D
330
155
100
AcDbEntity
  8
0
100
AcDbBlockBegin
  2
Einfügepunkt
 70
     0
 10
0.0
 20
0.0
 30
0.0
  3
Einfügepunkt
  1

  0
HATCH
  5
156
330
155
100
AcDbEntity
  8
SK2
  6
Continuous
 62
     7
100
AcDbHatch
 10
0.0
 20
0.0
 30
0.0
210
0.0
220
0.0
230
1.0
  2
SOLID
 70
     1
 71
     0
 91
        1
 92
        1
 93
        3
 72
     1
 10
-0.4502381196756744
 20
-0.0000000000000018
 11
0.0000000000000033
 21
-0.0000000000000018
 72
     1
 10
0.0
 20
-0.0000000000000018
 11
0.0
 21
0.4502381196756812
 72
     2
 10
0.0
 20
-0.0000000000000018
 40
0.4502381196756812
 50
90.0
 51
180.0
 73
     1
 97
        0
 75
     0
 76
     1
 98
        0
  0
HATCH
  5
157
330
155
100
AcDbEntity
  8
SK2
  6
Continuous
 62
     7
100
AcDbHatch
 10
0.0
 20
0.0
 30
0.0
210
0.0
220
0.0
230
1.0
  2
SOLID
 70
     1
 71
     0
 91
        1
 92
        1
 93
        3
 72
     2
 10
0.0
 20
-0.0000000000000018
 40
0.4502381196756812
 50
270.0
 51
360.0
 73
     1
 72
     1
 10
0.4502381196756815
 20
-0.0000000000000018
 11
0.0000000000000038
 21
-0.0000000000000018
 72
     1
 10
0.0
 20
-0.0000000000000018
 11
0.0
 21
-0.4502381196756812
 97
        0
 75
     0
 76
     1
 98
        0
  0
CIRCLE
  5
158
330
155
100
AcDbEntity
  8
SK2
  6
Continuous
 62
     7
100
AcDbCircle
 10
0.0
 20
0.0
 30
0.0
 40
0.4502381196756812
  0
LINE
  5
159
330
155
100
AcDbEntity
  8
SK1
  6
Continuous
100
AcDbLine
 10
-0.4502381197
 20
0.0
 30
0.0
 11
0.4502381197
 21
0.0
 31
0.0
  0
LINE
  5
15A
330
155
100
AcDbEntity
  8
SK1
  6
Continuous
100
AcDbLine
 10
0.0
 20
0.4502381197
 30
0.0
 11
0.0
 21
-0.4502381197
 31
0.0
  0
POINT
  5
15B
330
155
100
AcDbEntity
  8
SK2
  6
Continuous
 62
     7
100
AcDbPoint
 10
0.0
 20
0.0
 30
0.0
  0
POINT
  5
15C
330
155
100
AcDbEntity
  8
SK2
  6
Continuous
 62
     7
100
AcDbPoint
 10
0.0
 20
0.0
 30
0.0
  0
ENDBLK
  5
15E
330
155
100
AcDbEntity
  8
0
100
AcDbBlockEnd
  0
BLOCK
  5
169
330
161
100
AcDbEntity
  8
0
100
AcDbBlockBegin
  2
DMBLK58
 70
     0
 10
0.0
 20
0.0
 30
0.0
  3
DMBLK58
  1

  0
HATCH
  5
162
330
161
100
AcDbEntity
  8
SK2
  6
Continuous
 62
   136
100
AcDbHatch
 10
0.0
 20
0.0
 30
0.0
210
0.0
220
0.0
230
1.0
  2
SOLID
 70
     1
 71
     0
 91
        1
 92
        1
 93
        3
 72
     1
 10
23.77142028781276
 20
-8.26500000826272
 11
23.18808693647386
 21
-4.764999900229302
 72
     1
 10
23.18808693647386
 20
-4.764999900229301
 11
22.60475358513495
 21
-8.26500000826272
 72
     1
 10
22.60475358513495
 20
-8.26500000826272
 11
23.77142028781276
 21
-8.26500000826272
 97
        0
 75
     0
 76
     1
 98
        0
  0
HATCH
  5
163
330
161
100
AcDbEntity
  8
SK2
  6
Continuous
 62
   136
100
AcDbHatch
 10
0.0
 20
0.0
 30
0.0
210
0.0
220
0.0
230
1.0
  2
SOLID
 70
     1
 71
     0
 91
        1
 92
        1
 93
        3
 72
     1
 10
23.77142028781276
 20
8.265000207804118
 11
22.60475358513495
 21
8.265000207804118
 72
     1
 10
22.60475358513495
 20
8.265000207804118
 11
23.18808693647386
 21
4.765000099770699
 72
     1
 10
23.18808693647386
 20
4.765000099770699
 11
23.77142028781276
 21
8.265000207804118
 97
        0
 75
     0
 76
     1
 98
        0
  0
LINE
  5
164
330
161
100
AcDbEntity
  8
SK2
  6
Continuous
 62
   136
100
AcDbLine
 10
12.26
 20
-4.7649999002
 30
0.0
 11
24.9380869905
 21
-4.7649999002
 31
0.0
  0
LINE
  5
165
330
161
100
AcDbEntity
  8
SK2
  6
Continuous
 62
   136
100
AcDbLine
 10
12.26
 20
4.7650000998
 30
0.0
 11
24.9380869905
 21
4.7650000998
 31
0.0
  0
LINE
  5
166
330
161
100
AcDbEntity
  8
SK2
  6
Continuous
 62
   136
100
AcDbLine
 10
23.1880869365
 20
-11.7650001163
 30
0.0
 11
23.1880869365
 21
23.1250005921
 31
0.0
  0
TEXT
  5
167
330
161
100
AcDbEntity
  8
SK2
  6
Continuous
 62
   136
100
AcDbText
 10
22.3130869365
 20
15.2977273433
 30
0.0
 40
3.5
  1
9,53
 50
90.0
  7
SEACAD_Solid_Edge_ISO
 11
18.8130869365
 21
15.2977273433
 31
0.0
100
AcDbText
 73
     3
  0
TEXT
  5
168
330
161
100
AcDbEntity
  8
SK2
  6
Continuous
 62
   136
100
AcDbText
 10
22.3130869365
 20
11.2250000706
 30
0.0
 40
3.5
  1
ø
 50
90.0
  7
SEACAD_Solid_Edge_ISO
 11
18.8130869365
 21
11.2250000706
 31
0.0
100
AcDbText
 73
     3
  0
ENDBLK
  5
16A
330
161
100
AcDbEntity
  8
0
100
AcDbBlockEnd
  0
BLOCK
  5
173
330
16C
100
AcDbEntity
  8
0
100
AcDbBlockBegin
  2
DMBLK59
 70
     0
 10
0.0
 20
0.0
 30
0.0
  3
DMBLK59
  1

  0
HATCH
  5
16D
330
16C
100
AcDbEntity
  8
SK2
  6
Continuous
 62
   136
100
AcDbHatch
 10
0.0
 20
0.0
 30
0.0
210
0.0
220
0.0
230
1.0
  2
SOLID
 70
     1
 71
     0
 91
        1
 92
        1
 93
        3
 72
     1
 10
-3.500000108033415
 20
-25.46298702108423
 11
0.0000000000000036
 21
-24.87965366974532
 72
     1
 10
0.0000000000000035
 20
-24.87965366974532
 11
-3.500000108033415
 21
-24.29632031840642
 72
     1
 10
-3.500000108033415
 20
-24.29632031840642
 11
-3.500000108033415
 21
-25.46298702108423
 97
        0
 75
     0
 76
     1
 98
        0
  0
HATCH
  5
16E
330
16C
100
AcDbEntity
  8
SK2
  6
Continuous
 62
   136
100
AcDbHatch
 10
0.0
 20
0.0
 30
0.0
210
0.0
220
0.0
230
1.0
  2
SOLID
 70
     1
 71
     0
 91
        1
 92
        1
 93
        3
 72
     1
 10
16.16000010803342
 20
-25.46298702108423
 11
16.16000010803342
 21
-24.29632031840642
 72
     1
 10
16.16000010803342
 20
-24.29632031840642
 11
12.66
 21
-24.87965366974532
 72
     1
 10
12.66
 20
-24.87965366974532
 11
16.16000010803342
 21
-25.46298702108423
 97
        0
 75
     0
 76
     1
 98
        0
  0
LINE
  5
16F
330
16C
100
AcDbEntity
  8
SK2
  6
Continuous
 62
   136
100
AcDbLine
 10
0.0
 20
-15.9996745287
 30
0.0
 11
0.0
 21
-26.6296537238
 31
0.0
  0
LINE
  5
170
330
16C
100
AcDbEntity
  8
SK2
  6
Continuous
 62
   136
100
AcDbLine
 10
12.66
 20
-12.4861669934
 30
0.0
 11
12.66
 21
-26.6296537238
 31
0.0
  0
LINE
  5
171
330
16C
100
AcDbEntity
  8
SK2
  6
Continuous
 62
   136
100
AcDbLine
 10
-7.0000002161
 20
-24.8796536697
 30
0.0
 11
19.659999758
 21
-24.8796536697
 31
0.0
  0
TEXT
  5
172
330
16C
100
AcDbEntity
  8
SK2
  6
Continuous
 62
   136
100
AcDbText
 10
2.0743179528
 20
-24.0046536697
 30
0.0
 40
3.5
  1
12,66
  7
SEACAD_Solid_Edge_ISO
 11
2.0743179528
 21
-20.5046536697
 31
0.0
100
AcDbText
 73
     3
  0
ENDBLK
  5
174
330
16C
100
AcDbEntity
  8
0
100
AcDbBlockEnd
  0
BLOCK
  5
17E
330
176
100
AcDbEntity
  8
0
100
AcDbBlockBegin
  2
DMBLK60
 70
     0
 10
0.0
 20
0.0
 30
0.0
  3
DMBLK60
  1

  0
HATCH
  5
177
330
176
100
AcDbEntity
  8
SK2
  6
Continuous
 62
   136
100
AcDbHatch
 10
0.0
 20
0.0
 30
0.0
210
0.0
220
0.0
230
1.0
  2
SOLID
 70
     1
 71
     0
 91
        1
 92
        1
 93
        3
 72
     1
 10
-35.43944043728212
 20
12.49967462019676
 11
-34.27277373460432
 21
12.49967462019676
 72
     1
 10
-34.27277373460432
 20
12.49967462019676
 11
-34.85610708594322
 21
15.99967472823018
 72
     1
 10
-34.85610708594322
 20
15.99967472823018
 11
-35.43944043728212
 21
12.49967462019676
 97
        0
 75
     0
 76
     1
 98
        0
  0
HATCH
  5
178
330
176
100
AcDbEntity
  8
SK2
  6
Continuous
 62
   136
100
AcDbHatch
 10
0.0
 20
0.0
 30
0.0
210
0.0
220
0.0
230
1.0
  2
SOLID
 70
     1
 71
     0
 91
        1
 92
        1
 93
        3
 72
     1
 10
-35.43944043728212
 20
-12.49967475785261
 11
-34.85610708594322
 21
-15.99967486588603
 72
     1
 10
-34.85610708594322
 20
-15.99967486588603
 11
-34.27277373460432
 21
-12.49967475785261
 72
     1
 10
-34.27277373460432
 20
-12.49967475785261
 11
-35.43944043728212
 21
-12.49967475785261
 97
        0
 75
     0
 76
     1
 98
        0
  0
LINE
  5
179
330
176
100
AcDbEntity
  8
SK2
  6
Continuous
 62
   136
100
AcDbLine
 10
0.0
 20
15.9996747282
 30
0.0
 11
-36.60610714
 21
15.9996747282
 31
0.0
  0
LINE
  5
17A
330
176
100
AcDbEntity
  8
SK2
  6
Continuous
 62
   136
100
AcDbLine
 10
0.0
 20
-15.9996745287
 30
0.0
 11
-36.60610714
 21
-15.9996745287
 31
0.0
  0
LINE
  5
17B
330
176
100
AcDbEntity
  8
SK2
  6
Continuous
 62
   136
100
AcDbLine
 10
-34.8561070859
 20
15.9996747282
 30
0.0
 11
-34.8561070859
 21
-15.9996748659
 31
0.0
  0
TEXT
  5
17C
330
176
100
AcDbEntity
  8
SK2
  6
Continuous
 62
   136
100
AcDbText
 10
-35.7311070859
 20
0.0477272039
 30
0.0
 40
3.5
  1
32
 50
90.0
  7
SEACAD_Solid_Edge_ISO
 11
-39.2311070859
 21
0.0477272039
 31
0.0
100
AcDbText
 73
     3
  0
TEXT
  5
17D
330
176
100
AcDbEntity
  8
SK2
  6
Continuous
 62
   136
100
AcDbText
 10
-35.7311070859
 20
-4.0250000688
 30
0.0
 40
3.5
  1
ø
 50
90.0
  7
SEACAD_Solid_Edge_ISO
 11
-39.2311070859
 21
-4.0250000688
 31
0.0
100
AcDbText
 73
     3
  0
ENDBLK
  5
17F
330
176
100
AcDbEntity
  8
0
100
AcDbBlockEnd
  0
ENDSEC
  0
SECTION
  2
ENTITIES
  0
LINE
  5
40
330
1F
100
AcDbEntity
  8
SK1
  6
Continuous
100
AcDbLine
 10
3.76
 20
13.3305045976
 30
0.0
 11
3.76
 21
5.9546327362
 31
0.0
  0
LINE
  5
41
330
1F
100
AcDbEntity
  8
SK1
  6
Continuous
100
AcDbLine
 10
6.96
 20
-13.6366511439
 30
0.0
 11
6.96
 21
-14.5999999002
 31
0.0
  0
LINE
  5
42
330
1F
100
AcDbEntity
  8
SK1
  6
Continuous
100
AcDbLine
 10
3.56
 20
14.9141997093
 30
0.0
 11
3.56
 21
15.9823343165
 31
0.0
  0
LINE
  5
43
330
1F
100
AcDbEntity
  8
SK1
  6
Continuous
100
AcDbLine
 10
3.0473721046
 20
15.32602499
 30
0.0
 11
3.0473721046
 21
16.4279549475
 31
0.0
  0
LINE
  5
44
330
1F
100
AcDbEntity
  8
SK1
  6
Continuous
100
AcDbLine
 10
12.535
 20
-13.5717422033
 30
0.0
 11
12.535
 21
-12.6862811235
 31
0.0
  0
LINE
  5
45
330
1F
100
AcDbEntity
  8
SK1
  6
Continuous
100
AcDbLine
 10
7.4631088913
 20
15.3926056849
 30
0.0
 11
7.4631088913
 21
16.5000000998
 31
0.0
  0
LINE
  5
46
330
1F
100
AcDbEntity
  8
SK1
  6
Continuous
100
AcDbLine
 10
7.16
 20
15.3926056849
 30
0.0
 11
7.16
 21
16.5000000998
 31
0.0
  0
LINE
  5
47
330
1F
100
AcDbEntity
  8
SK1
  6
Continuous
100
AcDbLine
 10
7.4631088913
 20
-15.3926054854
 30
0.0
 11
7.4631088913
 21
-16.4999999002
 31
0.0
  0
LINE
  5
48
330
1F
100
AcDbEntity
  8
SK1
  6
Continuous
100
AcDbLine
 10
7.16
 20
-15.3926054854
 30
0.0
 11
7.16
 21
-16.4999999002
 31
0.0
  0
LINE
  5
49
330
1F
100
AcDbEntity
  8
SK1
  6
Continuous
100
AcDbLine
 10
7.4631088913
 20
15.3926056849
 30
0.0
 11
7.16
 21
15.3926056849
 31
0.0
  0
LINE
  5
4A
330
1F
100
AcDbEntity
  8
SK1
  6
Continuous
100
AcDbLine
 10
7.4631088913
 20
15.086458939
 30
0.0
 11
7.16
 21
15.086458939
 31
0.0
  0
LINE
  5
4B
330
1F
100
AcDbEntity
  8
SK1
  6
Continuous
100
AcDbLine
 10
12.66
 20
12.180020447
 30
0.0
 11
12.66
 21
5.4780865977
 31
0.0
  0
LINE
  5
4C
330
1F
100
AcDbEntity
  8
SK1
  6
Continuous
100
AcDbLine
 10
12.535
 20
13.5717424029
 30
0.0
 11
12.535
 21
12.6862813231
 31
0.0
  0
LINE
  5
4D
330
1F
100
AcDbEntity
  8
SK1
  6
Continuous
100
AcDbLine
 10
3.56
 20
-14.9141995098
 30
0.0
 11
3.56
 21
-15.982334117
 31
0.0
  0
LINE
  5
4E
330
1F
100
AcDbEntity
  8
SK1
  6
Continuous
100
AcDbLine
 10
3.0473721046
 20
-15.3260247905
 30
0.0
 11
3.0473721046
 21
-16.4279547479
 31
0.0
  0
LINE
  5
4F
330
1F
100
AcDbEntity
  8
SK1
  6
Continuous
100
AcDbLine
 10
6.96
 20
14.6000000998
 30
0.0
 11
6.96
 21
13.6366513435
 31
0.0
  0
ARC
  5
50
330
1F
100
AcDbEntity
  8
SK1
  6
Continuous
100
AcDbCircle
 10
3.7527009685
 20
13.5232284246
 30
0.0
 40
0.1928619956239739
100
AcDbArc
 50
182.3414991378
 51
272.1689270375
  0
LINE
  5
51
330
1F
100
AcDbEntity
  8
SK1
  6
Continuous
100
AcDbLine
 10
3.76
 20
13.3305045976
 30
0.0
 11
6.96
 21
13.3305045976
 31
0.0
  0
ARC
  5
52
330
1F
100
AcDbEntity
  8
SK1
  6
Continuous
100
AcDbCircle
 10
6.9672932853
 20
13.5232346419
 30
0.0
 40
0.1928679911219356
100
AcDbArc
 50
267.8328486851
 51
357.6567251494
  0
LINE
  5
55
330
1F
100
AcDbEntity
  8
SK3
100
AcDbLine
 10
12.26
 20
4.2336741826
 30
0.0
 11
-22.899493775
 21
4.2336741826
 31
0.0
  0
ARC
  5
56
330
1F
100
AcDbEntity
  8
SK3
100
AcDbCircle
 10
12.2740828684
 20
4.9257804635
 30
0.0
 40
0.3862163770211046
100
AcDbArc
 50
267.9103220725
 51
357.7443894639
  0
LINE
  5
57
330
1F
100
AcDbEntity
  8
SK1
  6
Continuous
100
AcDbLine
 10
12.66
 20
12.180020447
 30
0.0
 11
12.66
 21
12.4861671929
 31
0.0
  0
ARC
  5
58
330
1F
100
AcDbEntity
  8
SK1
  6
Continuous
100
AcDbCircle
 10
12.4315505616
 20
12.4825650122
 30
0.0
 40
0.2284778361298308
100
AcDbArc
 50
0.9033624596
 51
63.0780264505
  0
LINE
  5
59
330
1F
100
AcDbEntity
  8
SK1
  6
Continuous
100
AcDbLine
 10
12.535
 20
12.6862813231
 30
0.0
 11
7.4631088913
 21
15.3926056849
 31
0.0
  0
ARC
  5
5A
330
1F
100
AcDbEntity
  8
SK1
  6
Continuous
100
AcDbCircle
 10
3.12114953
 20
14.8928963004
 30
0.0
 40
0.4393672384933542
100
AcDbArc
 50
2.779165305
 51
99.6667570996
  0
SPLINE
  5
5B
330
1F
100
AcDbEntity
  8
SK1
  6
Continuous
100
AcDbSpline
210
0.0
220
0.0
230
1.0
 70
     8
 71
     3
 72
    14
 73
    10
 74
     0
 42
0.0000000003971097
 43
0.0000000001
 12
1.0
 22
0.0
 32
0.0
 13
1.0
 23
0.0
 33
0.0
 40
0.0
 40
0.0
 40
0.0
 40
0.0
 40
0.0174031987399629
 40
0.0174031987399629
 40
0.0174031987399629
 40
0.933118748361747
 40
0.933118748361747
 40
0.933118748361747
 40
1.0
 40
1.0
 40
1.0
 40
1.0
 10
3.047372104567939
 20
15.32602498999471
 30
0.0
 10
2.902506612833672
 20
15.30720967056464
 30
0.0
 10
2.757641124195289
 20
15.288394330789
 30
0.0
 10
2.612775638687779
 20
15.26957897043799
 30
0.0
 10
-5.009706851943903
 20
14.2795587849667
 30
0.0
 10
-12.63218119349327
 20
13.28948504023617
 30
0.0
 10
-20.25463946823026
 20
12.29930572625129
 30
0.0
 10
-20.81136207736722
 20
12.2269858536687
 30
0.0
 10
-21.36808459738507
 20
12.1546653955081
 30
0.0
 10
-21.92480702332896
 20
12.08234431922829
 30
0.0
  0
ARC
  5
5C
330
1F
100
AcDbEntity
  8
SK1
  6
Continuous
100
AcDbCircle
 10
3.12114953
 20
14.5867495545
 30
0.0
 40
0.4393672384933542
100
AcDbArc
 50
2.779165305
 51
99.6667570996
  0
SPLINE
  5
5D
330
1F
100
AcDbEntity
  8
SK1
  6
Continuous
100
AcDbSpline
210
0.0
220
0.0
230
1.0
 70
     8
 71
     3
 72
    14
 73
    10
 74
     0
 42
0.0000000003971097
 43
0.0000000001
 12
1.0
 22
0.0
 32
0.0
 13
1.0
 23
0.0
 33
0.0
 40
0.0
 40
0.0
 40
0.0
 40
0.0
 40
0.0174031987399629
 40
0.0174031987399629
 40
0.0174031987399629
 40
0.933118748361747
 40
0.933118748361747
 40
0.933118748361747
 40
1.0
 40
1.0
 40
1.0
 40
1.0
 10
3.047372104567939
 20
15.01987824410264
 30
0.0
 10
2.902506612833672
 20
15.00106292467257
 30
0.0
 10
2.757641124195289
 20
14.98224758489693
 30
0.0
 10
2.612775638687779
 20
14.96343222454592
 30
0.0
 10
-5.009706851943903
 20
13.97341203907463
 30
0.0
 10
-12.63218119349327
 20
12.9833382943441
 30
0.0
 10
-20.25463946823026
 20
11.99315898035922
 30
0.0
 10
-20.81136207736722
 20
11.92083910777663
 30
0.0
 10
-21.36808459738507
 20
11.84851864961603
 30
0.0
 10
-21.92480702332896
 20
11.77619757333622
 30
0.0
  0
ARC
  5
5E
330
1F
100
AcDbEntity
  8
SK3
100
AcDbCircle
 10
12.2740828684
 20
4.6196337176
 30
0.0
 40
0.3862163770211051
100
AcDbArc
 50
267.9103220725
 51
357.7443894639
  0
ARC
  5
5F
330
1F
100
AcDbEntity
  8
SK1
  6
Continuous
100
AcDbCircle
 10
12.4315505616
 20
12.1764182663
 30
0.0
 40
0.2284778361298286
100
AcDbArc
 50
0.9033624596
 51
63.0780264505
  0
LINE
  5
60
330
1F
100
AcDbEntity
  8
SK1
  6
Continuous
100
AcDbLine
 10
12.535
 20
12.3801345772
 30
0.0
 11
7.4631088913
 21
15.086458939
 31
0.0
  0
LINE
  5
61
330
1F
100
AcDbEntity
  8
SK1
  6
Continuous
100
AcDbLine
 10
3.56
 20
14.9141997093
 30
0.0
 11
3.56
 21
14.6080529634
 31
0.0
  0
ARC
  5
62
330
1F
100
AcDbEntity
  8
SK1
  6
Continuous
100
AcDbCircle
 10
3.7527009685
 20
13.8293751705
 30
0.0
 40
0.1928619956239752
100
AcDbArc
 50
182.3414991378
 51
272.1689270375
  0
LINE
  5
63
330
1F
100
AcDbEntity
  8
SK1
  6
Continuous
100
AcDbLine
 10
3.76
 20
13.6366513435
 30
0.0
 11
6.96
 21
13.6366513435
 31
0.0
  0
ARC
  5
64
330
1F
100
AcDbEntity
  8
SK1
  6
Continuous
100
AcDbCircle
 10
6.9672932853
 20
13.8293813878
 30
0.0
 40
0.1928679911219383
100
AcDbArc
 50
267.8328486851
 51
357.6567251494
  0
LINE
  5
65
330
1F
100
AcDbEntity
  8
SK1
  6
Continuous
100
AcDbLine
 10
7.16
 20
15.086458939
 30
0.0
 11
7.16
 21
15.3926056849
 31
0.0
  0
LINE
  5
66
330
1F
100
AcDbEntity
  8
SK3
100
AcDbLine
 10
12.26
 20
4.5398209285
 30
0.0
 11
-22.899493775
 21
4.5398209285
 31
0.0
  0
LINE
  5
67
330
1F
100
AcDbEntity
  8
SK1
  6
Continuous
100
AcDbLine
 10
-27.0817519303
 20
12.1870201126
 30
0.0
 11
-27.0817519303
 21
8.9003673058
 31
0.0
  0
LINE
  5
68
330
1F
100
AcDbEntity
  8
SK1
  6
Continuous
100
AcDbLine
 10
-27.34
 20
-11.8897755192
 30
0.0
 11
-27.34
 21
-8.6901835797
 31
0.0
  0
SPLINE
  5
69
330
1F
100
AcDbEntity
  8
SK1
  6
Continuous
100
AcDbSpline
210
0.0
220
0.0
230
1.0
 70
     8
 71
     3
 72
    10
 73
     6
 74
     0
 42
0.000000022804885
 43
0.0000000001
 12
1.0
 22
0.0
 32
0.0
 13
1.0
 23
0.0
 33
0.0
 40
0.0
 40
0.0
 40
0.0
 40
0.0
 40
0.5
 40
0.5
 40
1.0
 40
1.0
 40
1.0
 40
1.0
 10
-27.34000000000013
 20
-11.88977551921636
 30
0.0
 10
-27.34000000000001
 20
-11.96123664509199
 30
0.0
 10
-27.31325218560487
 20
-12.03271861875489
 30
0.0
 10
-27.21983457328357
 20
-12.14038628228183
 30
0.0
 10
-27.1532676169232
 20
-12.17696362646716
 30
0.0
 10
-27.08175193028801
 20
-12.18701991305817
 30
0.0
  0
SPLINE
  5
6A
330
1F
100
AcDbEntity
  8
SK1
  6
Continuous
100
AcDbSpline
210
0.0
220
0.0
230
1.0
 70
     8
 71
     3
 72
    10
 73
     6
 74
     0
 42
0.0000000228012562
 43
0.0000000001
 12
1.0
 22
0.0
 32
0.0
 13
1.0
 23
0.0
 33
0.0
 40
0.0
 40
0.0
 40
0.0
 40
0.0
 40
0.5
 40
0.5
 40
1.0
 40
1.0
 40
1.0
 40
1.0
 10
-27.08175193028801
 20
12.18702011259956
 30
0.0
 10
-27.15329203371258
 20
12.17696039260168
 30
0.0
 10
-27.21937890303853
 20
12.14086400426049
 30
0.0
 10
-27.31353686662996
 20
12.03243828152373
 30
0.0
 10
-27.34
 20
11.9612655161153
 30
0.0
 10
-27.34000000000013
 20
11.88977571875778
 30
0.0
  0
LINE
  5
6B
330
1F
100
AcDbEntity
  8
SK3
100
AcDbLine
 10
-26.8731604391
 20
-4.748181131
 30
0.0
 11
-26.8731604391
 21
-3.6403137593
 31
0.0
  0
LINE
  5
6C
330
1F
100
AcDbEntity
  8
SK3
100
AcDbLine
 10
-26.8731604391
 20
-4.748181131
 30
0.0
 11
-2.2657165863
 21
-4.748181131
 31
0.0
  0
LINE
  5
6D
330
1F
100
AcDbEntity
  8
SK3
100
AcDbLine
 10
-27.34
 20
5.0186146276
 30
0.0
 11
-26.8731604391
 21
4.7481813305
 31
0.0
  0
SPLINE
  5
6E
330
1F
100
AcDbEntity
  8
SK1
  6
Continuous
100
AcDbSpline
210
0.0
220
0.0
230
1.0
 70
     8
 71
     3
 72
    11
 73
     7
 74
     0
 42
0.0000000004241712
 43
0.0000000001
 12
1.0
 22
0.0
 32
0.0
 13
1.0
 23
0.0
 33
0.0
 40
0.0
 40
0.0
 40
0.0
 40
0.0
 40
0.9080456425272275
 40
0.9080456425272275
 40
0.9080456425272275
 40
1.0
 40
1.0
 40
1.0
 40
1.0
 10
-27.08175193028801
 20
-12.18701991305817
 30
0.0
 10
-20.01542884374032
 20
-13.18066163654469
 30
0.0
 10
-12.94908842150804
 20
-14.17418007798889
 30
0.0
 10
-5.882739207699524
 20
-15.16763597869006
 30
0.0
 10
-5.167156673908217
 20
-15.26823951088523
 30
0.0
 10
-4.451574044249451
 20
-15.36884236118717
 30
0.0
 10
-3.735991324228686
 20
-15.46944456874255
 30
0.0
  0
LINE
  5
6F
330
1F
100
AcDbEntity
  8
SK3
100
AcDbLine
 10
-26.8731604391
 20
-4.748181131
 30
0.0
 11
-27.34
 21
-5.018614428
 31
0.0
  0
LINE
  5
70
330
1F
100
AcDbEntity
  8
SK1
  6
Continuous
100
AcDbLine
 10
12.66
 20
13.3552360519
 30
0.0
 11
12.66
 21
12.4861671929
 31
0.0
  0
LINE
  5
71
330
1F
100
AcDbEntity
  8
SK1
  6
Continuous
100
AcDbLine
 10
3.76
 20
14.6000000998
 30
0.0
 11
3.76
 21
13.6366513435
 31
0.0
  0
LINE
  5
72
330
1F
100
AcDbEntity
  8
SK1
  6
Continuous
100
AcDbLine
 10
7.16
 20
-15.0864587395
 30
0.0
 11
7.16
 21
-6.6819726397
 31
0.0
  0
LINE
  5
73
330
1F
100
AcDbEntity
  8
SK1
  6
Continuous
100
AcDbLine
 10
7.4631088913
 20
-15.0864587395
 30
0.0
 11
7.4631088913
 21
-6.6819726397
 31
0.0
  0
LINE
  5
74
330
1F
100
AcDbEntity
  8
SK1
  6
Continuous
100
AcDbLine
 10
12.535
 20
-12.3801343776
 30
0.0
 11
12.535
 21
-5.5609763849
 31
0.0
  0
LINE
  5
75
330
1F
100
AcDbEntity
  8
SK1
  6
Continuous
100
AcDbLine
 10
12.66
 20
-12.4861669934
 30
0.0
 11
12.66
 21
-13.3552358524
 31
0.0
  0
LINE
  5
76
330
1F
100
AcDbEntity
  8
SK1
  6
Continuous
100
AcDbLine
 10
3.0473721046
 20
-15.0198780446
 30
0.0
 11
3.0473721046
 21
-6.6543940129
 31
0.0
  0
LINE
  5
77
330
1F
100
AcDbEntity
  8
SK1
  6
Continuous
100
AcDbLine
 10
3.56
 20
-14.6080527639
 30
0.0
 11
3.56
 21
-6.4838103963
 31
0.0
  0
LINE
  5
78
330
1F
100
AcDbEntity
  8
SK1
  6
Continuous
100
AcDbLine
 10
6.96
 20
-13.330504398
 30
0.0
 11
6.96
 21
-5.9546325366
 31
0.0
  0
LINE
  5
79
330
1F
100
AcDbEntity
  8
SK1
  6
Continuous
100
AcDbLine
 10
3.76
 20
-13.6366511439
 30
0.0
 11
3.76
 21
-14.5999999002
 31
0.0
  0
ARC
  5
7A
330
1F
100
AcDbEntity
  8
SK1
  6
Continuous
100
AcDbCircle
 10
6.967295287
 20
-13.5232322765
 30
0.0
 40
0.1928659025472767
100
AcDbArc
 50
2.3426562868
 51
92.1677698787
  0
LINE
  5
7B
330
1F
100
AcDbEntity
  8
SK1
  6
Continuous
100
AcDbLine
 10
6.96
 20
-13.330504398
 30
0.0
 11
3.76
 21
-13.330504398
 31
0.0
  0
ARC
  5
7C
330
1F
100
AcDbEntity
  8
SK1
  6
Continuous
100
AcDbCircle
 10
3.7527050682
 20
-13.5232326608
 30
0.0
 40
0.1928662731557804
100
AcDbArc
 50
87.8323398835
 51
177.6572339504
  0
ARC
  5
7D
330
1F
100
AcDbEntity
  8
SK1
  6
Continuous
100
AcDbCircle
 10
3.1211335529
 20
-14.5867294672
 30
0.0
 40
0.4393841614716074
100
AcDbArc
 50
260.3357322026
 51
357.2183453926
  0
LINE
  5
7E
330
1F
100
AcDbEntity
  8
SK1
  6
Continuous
100
AcDbLine
 10
7.16
 20
-15.0864587395
 30
0.0
 11
7.4631088913
 21
-15.0864587395
 31
0.0
  0
LINE
  5
7F
330
1F
100
AcDbEntity
  8
SK1
  6
Continuous
100
AcDbLine
 10
7.4631088913
 20
-15.0864587395
 30
0.0
 11
12.535
 21
-12.3801343776
 31
0.0
  0
ARC
  5
80
330
1F
100
AcDbEntity
  8
SK1
  6
Continuous
100
AcDbCircle
 10
12.4286867999
 20
-12.1746292365
 30
0.0
 40
0.2313760133481179
100
AcDbArc
 50
297.3537111502
 51
358.6648999396
  0
ARC
  5
81
330
1F
100
AcDbEntity
  8
SK3
100
AcDbCircle
 10
12.2740749305
 20
-4.6196420821
 30
0.0
 40
0.3862246459701092
100
AcDbArc
 50
2.2568336603
 51
92.0884548032
  0
ARC
  5
82
330
1F
100
AcDbEntity
  8
SK1
  6
Continuous
100
AcDbCircle
 10
3.1211335529
 20
-14.8928762131
 30
0.0
 40
0.4393841614716019
100
AcDbArc
 50
260.3357322026
 51
357.2183453927
  0
LINE
  5
83
330
1F
100
AcDbEntity
  8
SK1
  6
Continuous
100
AcDbLine
 10
7.16
 20
-15.3926054854
 30
0.0
 11
7.4631088913
 21
-15.3926054854
 31
0.0
  0
LINE
  5
84
330
1F
100
AcDbEntity
  8
SK1
  6
Continuous
100
AcDbLine
 10
7.4631088913
 20
-15.3926054854
 30
0.0
 11
12.535
 21
-12.6862811235
 31
0.0
  0
ARC
  5
85
330
1F
100
AcDbEntity
  8
SK1
  6
Continuous
100
AcDbCircle
 10
12.4286867999
 20
-12.4807759824
 30
0.0
 40
0.2313760133482017
100
AcDbArc
 50
297.3537111502
 51
358.6648999396
  0
LINE
  5
86
330
1F
100
AcDbEntity
  8
SK1
  6
Continuous
100
AcDbLine
 10
12.66
 20
-12.4861669934
 30
0.0
 11
12.66
 21
-12.1800202475
 31
0.0
  0
ARC
  5
87
330
1F
100
AcDbEntity
  8
SK3
100
AcDbCircle
 10
12.2740749305
 20
-4.925788828
 30
0.0
 40
0.3862246459701127
100
AcDbArc
 50
2.2568336603
 51
92.0884548032
  0
LINE
  5
88
330
1F
100
AcDbEntity
  8
SK1
  6
Continuous
100
AcDbLine
 10
7.16
 20
-15.3926054854
 30
0.0
 11
7.16
 21
-15.0864587395
 31
0.0
  0
ARC
  5
89
330
1F
100
AcDbEntity
  8
SK1
  6
Continuous
100
AcDbCircle
 10
6.967295287
 20
-13.8293790224
 30
0.0
 40
0.1928659025472804
100
AcDbArc
 50
2.3426562868
 51
92.1677698787
  0
LINE
  5
8A
330
1F
100
AcDbEntity
  8
SK1
  6
Continuous
100
AcDbLine
 10
6.96
 20
-13.6366511439
 30
0.0
 11
3.76
 21
-13.6366511439
 31
0.0
  0
ARC
  5
8B
330
1F
100
AcDbEntity
  8
SK1
  6
Continuous
100
AcDbCircle
 10
3.7527050682
 20
-13.8293794067
 30
0.0
 40
0.1928662731557801
100
AcDbArc
 50
87.8323398835
 51
177.6572339504
  0
LINE
  5
8C
330
1F
100
AcDbEntity
  8
SK1
  6
Continuous
100
AcDbLine
 10
3.56
 20
-14.6080527639
 30
0.0
 11
3.56
 21
-14.9141995098
 31
0.0
  0
LINE
  5
8D
330
1F
100
AcDbEntity
  8
SK1
  6
Continuous
100
AcDbLine
 10
-27.0817519303
 20
-8.9003671062
 30
0.0
 11
-27.0817519303
 21
-12.1870199131
 31
0.0
  0
LINE
  5
8E
330
1F
100
AcDbEntity
  8
SK1
  6
Continuous
100
AcDbLine
 10
-27.34
 20
-8.1244981547
 30
0.0
 11
-27.34
 21
-0.3999999002
 31
0.0
  0
LINE
  5
8F
330
1F
100
AcDbEntity
  8
SK3
100
AcDbLine
 10
-26.8731604391
 20
-3.0746283343
 30
0.0
 11
-26.8731604391
 21
-0.3999999002
 31
0.0
  0
LINE
  5
90
330
1F
100
AcDbEntity
  8
SK3
100
AcDbLine
 10
-26.8731604391
 20
-3.0746283343
 30
0.0
 11
-2.2657165863
 21
-3.0746283343
 31
0.0
  0
SPLINE
  5
91
330
1F
100
AcDbEntity
  8
SK1
  6
Continuous
100
AcDbSpline
210
0.0
220
0.0
230
1.0
 70
     8
 71
     3
 72
    10
 73
     6
 74
     0
 42
0.0000000269170392
 43
0.0000000001
 12
1.0
 22
0.0
 32
0.0
 13
1.0
 23
0.0
 33
0.0
 40
0.0
 40
0.0
 40
0.0
 40
0.0
 40
0.5
 40
0.5
 40
1.0
 40
1.0
 40
1.0
 40
1.0
 10
-27.34000000000013
 20
-8.124498154726906
 30
0.0
 10
-27.34000000000001
 20
-8.175028801424789
 30
0.0
 10
-27.31325218560487
 20
-8.225574189734424
 30
0.0
 10
-27.21983457328357
 20
-8.301706724728836
 30
0.0
 10
-27.1532676169232
 20
-8.327570812840078
 30
0.0
 10
-27.08175193028801
 20
-8.334681681282133
 30
0.0
  0
LINE
  5
92
330
1F
100
AcDbEntity
  8
SK1
  6
Continuous
100
AcDbLine
 10
-27.0817519303
 20
-8.3346816813
 30
0.0
 11
-3.7359913242
 21
-10.6557064141
 31
0.0
  0
LINE
  5
93
330
1F
100
AcDbEntity
  8
SK3
100
AcDbLine
 10
-26.8731604391
 20
-3.0746283343
 30
0.0
 11
-27.34
 21
-3.2658535525
 31
0.0
  0
SPLINE
  5
94
330
1F
100
AcDbEntity
  8
SK1
  6
Continuous
100
AcDbSpline
210
0.0
220
0.0
230
1.0
 70
     8
 71
     3
 72
    10
 73
     6
 74
     0
 42
0.0000000269170392
 43
0.0000000001
 12
1.0
 22
0.0
 32
0.0
 13
1.0
 23
0.0
 33
0.0
 40
0.0
 40
0.0
 40
0.0
 40
0.0
 40
0.5
 40
0.5
 40
1.0
 40
1.0
 40
1.0
 40
1.0
 10
-27.34
 20
-8.69018357967615
 30
0.0
 10
-27.34
 20
-8.740714226374038
 30
0.0
 10
-27.31325218560486
 20
-8.79125961468367
 30
0.0
 10
-27.21983457328357
 20
-8.867392149678077
 30
0.0
 10
-27.1532676169232
 20
-8.893256237789315
 30
0.0
 10
-27.08175193028801
 20
-8.900367106231373
 30
0.0
  0
LINE
  5
95
330
1F
100
AcDbEntity
  8
SK1
  6
Continuous
100
AcDbLine
 10
-27.0817519303
 20
-8.9003671062
 30
0.0
 11
-3.7359913242
 21
-11.221391839
 31
0.0
  0
LINE
  5
96
330
1F
100
AcDbEntity
  8
SK3
100
AcDbLine
 10
-26.8731604391
 20
-3.6403137593
 30
0.0
 11
-27.34
 21
-3.8315389775
 31
0.0
  0
LINE
  5
97
330
1F
100
AcDbEntity
  8
SK1
  6
Continuous
100
AcDbLine
 10
-27.34
 20
-8.1244981547
 30
0.0
 11
-27.34
 21
-8.6901835797
 31
0.0
  0
LINE
  5
98
330
1F
100
AcDbEntity
  8
SK3
100
AcDbLine
 10
-26.8731604391
 20
-3.6403137593
 30
0.0
 11
-2.2657165863
 21
-3.6403137593
 31
0.0
  0
LINE
  5
99
330
1F
100
AcDbEntity
  8
SK1
  6
Continuous
100
AcDbLine
 10
7.16
 20
-5.9428690137
 30
0.0
 11
7.16
 21
5.9428692133
 31
0.0
  0
LINE
  5
9A
330
1F
100
AcDbEntity
  8
SK1
  6
Continuous
100
AcDbLine
 10
7.4631088913
 20
-5.9428690137
 30
0.0
 11
7.4631088913
 21
5.9428692133
 31
0.0
  0
LINE
  5
9B
330
1F
100
AcDbEntity
  8
SK1
  6
Continuous
100
AcDbLine
 10
12.535
 20
-4.8218727589
 30
0.0
 11
12.535
 21
4.8218729584
 31
0.0
  0
LINE
  5
9C
330
1F
100
AcDbEntity
  8
SK1
  6
Continuous
100
AcDbLine
 10
12.66
 20
-5.4780863982
 30
0.0
 11
12.66
 21
-12.1800202475
 31
0.0
  0
LINE
  5
9D
330
1F
100
AcDbEntity
  8
SK1
  6
Continuous
100
AcDbLine
 10
3.0473721046
 20
-5.9152903869
 30
0.0
 11
3.0473721046
 21
5.9152905865
 31
0.0
  0
LINE
  5
9E
330
1F
100
AcDbEntity
  8
SK1
  6
Continuous
100
AcDbLine
 10
3.56
 20
-5.7447067703
 30
0.0
 11
3.56
 21
5.7447069699
 31
0.0
  0
LINE
  5
9F
330
1F
100
AcDbEntity
  8
SK1
  6
Continuous
100
AcDbLine
 10
6.96
 20
-5.2155289106
 30
0.0
 11
6.96
 21
5.2155291101
 31
0.0
  0
LINE
  5
A0
330
1F
100
AcDbEntity
  8
SK1
  6
Continuous
100
AcDbLine
 10
3.76
 20
-5.9546325366
 30
0.0
 11
3.76
 21
-13.330504398
 31
0.0
  0
SPLINE
  5
A1
330
1F
100
AcDbEntity
  8
SK1
  6
Continuous
100
AcDbSpline
210
0.0
220
0.0
230
1.0
 70
     8
 71
     3
 72
    10
 73
     6
 74
     0
 42
0.0000000427826839
 43
0.0000000001
 12
1.0
 22
0.0
 32
0.0
 13
1.0
 23
0.0
 33
0.0
 40
0.0
 40
0.0
 40
0.0
 40
0.0
 40
0.5
 40
0.5
 40
1.0
 40
1.0
 40
1.0
 40
1.0
 10
7.160000000000006
 20
-5.292093949246198
 30
0.0
 10
7.16000000000001
 20
-5.2720813662805
 30
0.0
 10
7.138635819677391
 20
-5.252199598034978
 30
0.0
 10
7.064192627192706
 20
-5.223703683752697
 30
0.0
 10
7.012249111975046
 20
-5.215528910599916
 30
0.0
 10
6.960000000000023
 20
-5.215528910599846
 30
0.0
  0
LINE
  5
A2
330
1F
100
AcDbEntity
  8
SK1
  6
Continuous
100
AcDbLine
 10
6.96
 20
-5.2155289106
 30
0.0
 11
3.76
 21
-5.2155289106
 31
0.0
  0
SPLINE
  5
A3
330
1F
100
AcDbEntity
  8
SK1
  6
Continuous
100
AcDbSpline
210
0.0
220
0.0
230
1.0
 70
     8
 71
     3
 72
    10
 73
     6
 74
     0
 42
0.0000000427930393
 43
0.0000000001
 12
1.0
 22
0.0
 32
0.0
 13
1.0
 23
0.0
 33
0.0
 40
0.0
 40
0.0
 40
0.0
 40
0.0
 40
0.5
 40
0.5
 40
1.0
 40
1.0
 40
1.0
 40
1.0
 10
3.760000000000006
 20
-5.215528910599915
 30
0.0
 10
3.707859588765452
 20
-5.215528910599914
 30
0.0
 10
3.655643858538256
 20
-5.22379204438378
 30
0.0
 10
3.58178541629286
 20
-5.252012674594293
 30
0.0
 10
3.560000000000446
 20
-5.272150050518223
 30
0.0
 10
3.559999999989988
 20
-5.292093949245682
 30
0.0
  0
SPLINE
  5
A4
330
1F
100
AcDbEntity
  8
SK1
  6
Continuous
100
AcDbSpline
210
0.0
220
0.0
230
1.0
 70
     8
 71
     3
 72
    10
 73
     6
 74
     0
 42
0.0000000169213589
 43
0.0000000001
 12
1.0
 22
0.0
 32
0.0
 13
1.0
 23
0.0
 33
0.0
 40
0.0
 40
0.0
 40
0.0
 40
0.0
 40
0.5
 40
0.5
 40
1.0
 40
1.0
 40
1.0
 40
1.0
 10
3.047372104567811
 20
-5.915290386915348
 30
0.0
 10
3.173819526776414
 20
-5.922093081062555
 30
0.0
 10
3.309218523067394
 20
-5.906702229863191
 30
0.0
 10
3.50166655832158
 20
-5.842580599249552
 30
0.0
 10
3.560000000000008
 20
-5.794032848316315
 30
0.0
 10
3.560000000000008
 20
-5.744706770316219
 30
0.0
  0
LINE
  5
A5
330
1F
100
AcDbEntity
  8
SK1
  6
Continuous
100
AcDbLine
 10
7.16
 20
-5.9428690137
 30
0.0
 11
7.4631088913
 21
-5.9428690137
 31
0.0
  0
SPLINE
  5
A6
330
1F
100
AcDbEntity
  8
SK1
  6
Continuous
100
AcDbSpline
210
0.0
220
0.0
230
1.0
 70
     8
 71
     3
 72
     8
 73
     4
 74
     0
 42
0.0000000019251887
 43
0.0000000001
 12
1.0
 22
0.0
 32
0.0
 13
1.0
 23
0.0
 33
0.0
 40
0.0
 40
0.0
 40
0.0
 40
0.0
 40
1.0
 40
1.0
 40
1.0
 40
1.0
 10
7.46310889132458
 20
-5.942869013737534
 30
0.0
 10
9.153766091781735
 20
-5.569221371969263
 30
0.0
 10
10.84440226444509
 20
-5.195559789107262
 30
0.0
 10
12.535
 20
-4.821872758885745
 30
0.0
  0
SPLINE
  5
A7
330
1F
100
AcDbEntity
  8
SK1
  6
Continuous
100
AcDbSpline
210
0.0
220
0.0
230
1.0
 70
     8
 71
     3
 72
    10
 73
     6
 74
     0
 42
0.0000000616220022
 43
0.0000000001
 12
1.0
 22
0.0
 32
0.0
 13
1.0
 23
0.0
 33
0.0
 40
0.0
 40
0.0
 40
0.0
 40
0.0
 40
0.5
 40
0.5
 40
1.0
 40
1.0
 40
1.0
 40
1.0
 10
12.535
 20
-4.821872758885745
 30
0.0
 10
12.57278451834512
 20
-4.813520929144235
 30
0.0
 10
12.60478782474132
 20
-4.801271806686355
 30
0.0
 10
12.64845197751802
 20
-4.772256384122047
 30
0.0
 10
12.66000000000005
 20
-4.755627240031735
 30
0.0
 10
12.66000000000155
 20
-4.738982772143362
 30
0.0
  0
SPLINE
  5
A8
330
1F
100
AcDbEntity
  8
SK3
100
AcDbSpline
210
0.0
220
0.0
230
1.0
 70
     8
 71
     3
 72
    10
 73
     6
 74
     0
 42
0.0000000213806309
 43
0.0000000001
 12
1.0
 22
0.0
 32
0.0
 13
1.0
 23
0.0
 33
0.0
 40
0.0
 40
0.0
 40
0.0
 40
0.0
 40
0.5
 40
0.5
 40
1.0
 40
1.0
 40
1.0
 40
1.0
 10
12.66
 20
-1.60107176822663
 30
0.0
 10
12.66000000000001
 20
-1.560793415373269
 30
0.0
 10
12.61653257988304
 20
-1.52078778932528
 30
0.0
 10
12.46920544228447
 20
-1.464207427985936
 30
0.0
 10
12.36537221012475
 20
-1.44749837809781
 30
0.0
 10
12.26000000000001
 20
-1.44749837809781
 30
0.0
  0
SPLINE
  5
A9
330
1F
100
AcDbEntity
  8
SK1
  6
Continuous
100
AcDbSpline
210
0.0
220
0.0
230
1.0
 70
     8
 71
     3
 72
    10
 73
     6
 74
     0
 42
0.0000000169213589
 43
0.0000000001
 12
1.0
 22
0.0
 32
0.0
 13
1.0
 23
0.0
 33
0.0
 40
0.0
 40
0.0
 40
0.0
 40
0.0
 40
0.5
 40
0.5
 40
1.0
 40
1.0
 40
1.0
 40
1.0
 10
3.047372104567811
 20
-6.654394012924378
 30
0.0
 10
3.173819526776412
 20
-6.661196707071585
 30
0.0
 10
3.309218523067396
 20
-6.645805855872224
 30
0.0
 10
3.501666558321584
 20
-6.581684225258582
 30
0.0
 10
3.560000000000008
 20
-6.533136474325344
 30
0.0
 10
3.560000000000008
 20
-6.483810396325247
 30
0.0
  0
LINE
  5
AA
330
1F
100
AcDbEntity
  8
SK1
  6
Continuous
100
AcDbLine
 10
7.16
 20
-6.6819726397
 30
0.0
 11
7.4631088913
 21
-6.6819726397
 31
0.0
  0
SPLINE
  5
AB
330
1F
100
AcDbEntity
  8
SK1
  6
Continuous
100
AcDbSpline
210
0.0
220
0.0
230
1.0
 70
     8
 71
     3
 72
     8
 73
     4
 74
     0
 42
0.0000000019251887
 43
0.0000000001
 12
1.0
 22
0.0
 32
0.0
 13
1.0
 23
0.0
 33
0.0
 40
0.0
 40
0.0
 40
0.0
 40
0.0
 40
1.0
 40
1.0
 40
1.0
 40
1.0
 10
7.46310889132458
 20
-6.681972639746563
 30
0.0
 10
9.153766091781735
 20
-6.308324997978291
 30
0.0
 10
10.84440226444509
 20
-5.934663415116292
 30
0.0
 10
12.535
 20
-5.560976384894776
 30
0.0
  0
SPLINE
  5
AC
330
1F
100
AcDbEntity
  8
SK1
  6
Continuous
100
AcDbSpline
210
0.0
220
0.0
230
1.0
 70
     8
 71
     3
 72
    10
 73
     6
 74
     0
 42
0.0000000616220022
 43
0.0000000001
 12
1.0
 22
0.0
 32
0.0
 13
1.0
 23
0.0
 33
0.0
 40
0.0
 40
0.0
 40
0.0
 40
0.0
 40
0.5
 40
0.5
 40
1.0
 40
1.0
 40
1.0
 40
1.0
 10
12.535
 20
-5.560976384894776
 30
0.0
 10
12.57278451834512
 20
-5.552624555153264
 30
0.0
 10
12.60478782474132
 20
-5.540375432695384
 30
0.0
 10
12.64845197751802
 20
-5.511360010131076
 30
0.0
 10
12.66000000000005
 20
-5.494730866040763
 30
0.0
 10
12.66000000000155
 20
-5.478086398152391
 30
0.0
  0
LINE
  5
AD
330
1F
100
AcDbEntity
  8
SK1
  6
Continuous
100
AcDbLine
 10
12.66
 20
-5.4780863982
 30
0.0
 11
12.66
 21
-4.7389827721
 31
0.0
  0
SPLINE
  5
AE
330
1F
100
AcDbEntity
  8
SK3
100
AcDbSpline
210
0.0
220
0.0
230
1.0
 70
     8
 71
     3
 72
    10
 73
     6
 74
     0
 42
0.0000000213806309
 43
0.0000000001
 12
1.0
 22
0.0
 32
0.0
 13
1.0
 23
0.0
 33
0.0
 40
0.0
 40
0.0
 40
0.0
 40
0.0
 40
0.5
 40
0.5
 40
1.0
 40
1.0
 40
1.0
 40
1.0
 10
12.66
 20
-2.340175394235659
 30
0.0
 10
12.66000000000001
 20
-2.299897041382298
 30
0.0
 10
12.61653257988304
 20
-2.25989141533431
 30
0.0
 10
12.46920544228447
 20
-2.203311053994966
 30
0.0
 10
12.36537221012474
 20
-2.18660200410684
 30
0.0
 10
12.26000000000001
 20
-2.186602004106839
 30
0.0
  0
LINE
  5
AF
330
1F
100
AcDbEntity
  8
SK1
  6
Continuous
100
AcDbLine
 10
7.16
 20
-6.6819726397
 30
0.0
 11
7.16
 21
-6.0311975753
 31
0.0
  0
SPLINE
  5
B0
330
1F
100
AcDbEntity
  8
SK1
  6
Continuous
100
AcDbSpline
210
0.0
220
0.0
230
1.0
 70
     8
 71
     3
 72
    10
 73
     6
 74
     0
 42
0.0000000427826839
 43
0.0000000001
 12
1.0
 22
0.0
 32
0.0
 13
1.0
 23
0.0
 33
0.0
 40
0.0
 40
0.0
 40
0.0
 40
0.0
 40
0.5
 40
0.5
 40
1.0
 40
1.0
 40
1.0
 40
1.0
 10
7.160000000000006
 20
-6.031197575255225
 30
0.0
 10
7.16000000000001
 20
-6.011184992289529
 30
0.0
 10
7.138635819677391
 20
-5.991303224044008
 30
0.0
 10
7.064192627192706
 20
-5.962807309761726
 30
0.0
 10
7.012249111975046
 20
-5.954632536608946
 30
0.0
 10
6.960000000000023
 20
-5.954632536608875
 30
0.0
  0
LINE
  5
B1
330
1F
100
AcDbEntity
  8
SK1
  6
Continuous
100
AcDbLine
 10
6.96
 20
-5.9546325366
 30
0.0
 11
3.76
 21
-5.9546325366
 31
0.0
  0
SPLINE
  5
B2
330
1F
100
AcDbEntity
  8
SK1
  6
Continuous
100
AcDbSpline
210
0.0
220
0.0
230
1.0
 70
     8
 71
     3
 72
    10
 73
     6
 74
     0
 42
0.0000000427930393
 43
0.0000000001
 12
1.0
 22
0.0
 32
0.0
 13
1.0
 23
0.0
 33
0.0
 40
0.0
 40
0.0
 40
0.0
 40
0.0
 40
0.5
 40
0.5
 40
1.0
 40
1.0
 40
1.0
 40
1.0
 10
3.760000000000006
 20
-5.954632536608944
 30
0.0
 10
3.707859588765452
 20
-5.954632536608942
 30
0.0
 10
3.655643858538256
 20
-5.962895670392808
 30
0.0
 10
3.58178541629286
 20
-5.991116300603322
 30
0.0
 10
3.560000000000446
 20
-6.011253676527252
 30
0.0
 10
3.559999999989988
 20
-6.031197575254709
 30
0.0
  0
LINE
  5
B3
330
1F
100
AcDbEntity
  8
SK1
  6
Continuous
100
AcDbLine
 10
3.56
 20
-6.0311975753
 30
0.0
 11
3.56
 21
-6.4838103963
 31
0.0
  0
LINE
  5
B4
330
1F
100
AcDbEntity
  8
SK1
  6
Continuous
100
AcDbLine
 10
-27.34
 20
0.4000000998
 30
0.0
 11
-27.34
 21
8.1244983543
 31
0.0
  0
LINE
  5
B5
330
1F
100
AcDbEntity
  8
SK1
  6
Continuous
100
AcDbLine
 10
-27.0817519303
 20
-0.3999999002
 30
0.0
 11
-27.0817519303
 21
-8.3346816813
 31
0.0
  0
LINE
  5
B6
330
1F
100
AcDbEntity
  8
SK3
100
AcDbLine
 10
-26.8731604391
 20
0.4000000998
 30
0.0
 11
-26.8731604391
 21
3.0746285339
 31
0.0
  0
LINE
  5
B7
330
1F
100
AcDbEntity
  8
SK1
  6
Continuous
100
AcDbLine
 10
-27.34
 20
0.4000000998
 30
0.0
 11
-27.0817519303
 21
0.4000000998
 31
0.0
  0
LINE
  5
B8
330
1F
100
AcDbEntity
  8
SK1
  6
Continuous
100
AcDbLine
 10
-27.0817519303
 20
0.4000000998
 30
0.0
 11
-3.7359913242
 21
0.4000000998
 31
0.0
  0
LINE
  5
B9
330
1F
100
AcDbEntity
  8
SK1
  6
Continuous
100
AcDbLine
 10
-27.34
 20
-0.3999999002
 30
0.0
 11
-27.0817519303
 21
-0.3999999002
 31
0.0
  0
LINE
  5
BA
330
1F
100
AcDbEntity
  8
SK1
  6
Continuous
100
AcDbLine
 10
-27.0817519303
 20
-0.3999999002
 30
0.0
 11
-3.7359913242
 21
-0.3999999002
 31
0.0
  0
LINE
  5
BB
330
1F
100
AcDbEntity
  8
SK1
  6
Continuous
100
AcDbLine
 10
7.16
 20
6.6819728393
 30
0.0
 11
7.16
 21
15.086458939
 31
0.0
  0
LINE
  5
BC
330
1F
100
AcDbEntity
  8
SK1
  6
Continuous
100
AcDbLine
 10
7.4631088913
 20
6.6819728393
 30
0.0
 11
7.4631088913
 21
15.086458939
 31
0.0
  0
LINE
  5
BD
330
1F
100
AcDbEntity
  8
SK1
  6
Continuous
100
AcDbLine
 10
12.535
 20
5.5609765844
 30
0.0
 11
12.535
 21
12.3801345772
 31
0.0
  0
LINE
  5
BE
330
1F
100
AcDbEntity
  8
SK1
  6
Continuous
100
AcDbLine
 10
12.66
 20
4.7389829717
 30
0.0
 11
12.66
 21
-4.7389827721
 31
0.0
  0
LINE
  5
BF
330
1F
100
AcDbEntity
  8
SK1
  6
Continuous
100
AcDbLine
 10
3.0473721046
 20
6.6543942125
 30
0.0
 11
3.0473721046
 21
15.0198782441
 31
0.0
  0
LINE
  5
C0
330
1F
100
AcDbEntity
  8
SK1
  6
Continuous
100
AcDbLine
 10
3.56
 20
6.4838105959
 30
0.0
 11
3.56
 21
14.6080529634
 31
0.0
  0
LINE
  5
C1
330
1F
100
AcDbEntity
  8
SK1
  6
Continuous
100
AcDbLine
 10
6.96
 20
5.9546327362
 30
0.0
 11
6.96
 21
13.3305045976
 31
0.0
  0
LINE
  5
C2
330
1F
100
AcDbEntity
  8
SK1
  6
Continuous
100
AcDbLine
 10
3.76
 20
5.2155291101
 30
0.0
 11
3.76
 21
-5.2155289106
 31
0.0
  0
LINE
  5
C3
330
1F
100
AcDbEntity
  8
SK1
  6
Continuous
100
AcDbLine
 10
7.16
 20
6.6819728393
 30
0.0
 11
7.16
 21
6.0311977748
 31
0.0
  0
SPLINE
  5
C4
330
1F
100
AcDbEntity
  8
SK1
  6
Continuous
100
AcDbSpline
210
0.0
220
0.0
230
1.0
 70
     8
 71
     3
 72
    10
 73
     6
 74
     0
 42
0.0000000427824414
 43
0.0000000001
 12
1.0
 22
0.0
 32
0.0
 13
1.0
 23
0.0
 33
0.0
 40
0.0
 40
0.0
 40
0.0
 40
0.0
 40
0.5
 40
0.5
 40
1.0
 40
1.0
 40
1.0
 40
1.0
 10
7.160000000000006
 20
6.031197774796638
 30
0.0
 10
7.160000000000013
 20
6.011237063787545
 30
0.0
 10
7.138792746349947
 20
5.991378542977356
 30
0.0
 10
7.064184492779326
 20
5.962789375685927
 30
0.0
 10
7.012831382487986
 20
5.954632736150049
 30
0.0
 10
6.960000000000008
 20
5.954632736150356
 30
0.0
  0
LINE
  5
C5
330
1F
100
AcDbEntity
  8
SK1
  6
Continuous
100
AcDbLine
 10
6.96
 20
5.9546327362
 30
0.0
 11
3.76
 21
5.9546327362
 31
0.0
  0
SPLINE
  5
C6
330
1F
100
AcDbEntity
  8
SK1
  6
Continuous
100
AcDbSpline
210
0.0
220
0.0
230
1.0
 70
     8
 71
     3
 72
    10
 73
     6
 74
     0
 42
0.0000000427888826
 43
0.0000000001
 12
1.0
 22
0.0
 32
0.0
 13
1.0
 23
0.0
 33
0.0
 40
0.0
 40
0.0
 40
0.0
 40
0.0
 40
0.5
 40
0.5
 40
1.0
 40
1.0
 40
1.0
 40
1.0
 10
3.760000000000006
 20
5.954632736150356
 30
0.0
 10
3.70712883428833
 20
5.954632736150354
 30
0.0
 10
3.655412931721452
 20
5.962944612910954
 30
0.0
 10
3.581619568483867
 20
5.991219573861275
 30
0.0
 10
3.559999999999897
 20
6.011219705364262
 30
0.0
 10
3.559999999997622
 20
6.031197774796745
 30
0.0
  0
LINE
  5
C7
330
1F
100
AcDbEntity
  8
SK1
  6
Continuous
100
AcDbLine
 10
3.56
 20
6.0311977748
 30
0.0
 11
3.56
 21
6.4838105959
 31
0.0
  0
SPLINE
  5
C8
330
1F
100
AcDbEntity
  8
SK1
  6
Continuous
100
AcDbSpline
210
0.0
220
0.0
230
1.0
 70
     8
 71
     3
 72
    10
 73
     6
 74
     0
 42
0.0000000169199522
 43
0.0000000001
 12
1.0
 22
0.0
 32
0.0
 13
1.0
 23
0.0
 33
0.0
 40
0.0
 40
0.0
 40
0.0
 40
0.0
 40
0.5
 40
0.5
 40
1.0
 40
1.0
 40
1.0
 40
1.0
 10
3.047372104567986
 20
6.654394212460752
 30
0.0
 10
3.175618258191283
 20
6.661293675843199
 30
0.0
 10
3.308843327162862
 20
6.64588559619831
 30
0.0
 10
3.501565786969163
 20
6.581763359029273
 30
0.0
 10
3.560000000000006
 20
6.533184113839759
 30
0.0
 10
3.560000000000008
 20
6.483810595866661
 30
0.0
  0
LINE
  5
C9
330
1F
100
AcDbEntity
  8
SK1
  6
Continuous
100
AcDbLine
 10
7.16
 20
6.6819728393
 30
0.0
 11
7.4631088913
 21
6.6819728393
 31
0.0
  0
LINE
  5
CA
330
1F
100
AcDbEntity
  8
SK1
  6
Continuous
100
AcDbLine
 10
7.4631088913
 20
6.6819728393
 30
0.0
 11
12.535
 21
5.5609765844
 31
0.0
  0
SPLINE
  5
CB
330
1F
100
AcDbEntity
  8
SK1
  6
Continuous
100
AcDbSpline
210
0.0
220
0.0
230
1.0
 70
     8
 71
     3
 72
     8
 73
     4
 74
     0
 42
0.0000000587479703
 43
0.0000000001
 12
1.0
 22
0.0
 32
0.0
 13
1.0
 23
0.0
 33
0.0
 40
0.0
 40
0.0
 40
0.0
 40
0.0
 40
1.0
 40
1.0
 40
1.0
 40
1.0
 10
12.535
 20
5.560976584436187
 30
0.0
 10
12.61128692078017
 20
5.544114244997568
 30
0.0
 10
12.66
 20
5.511621430539104
 30
0.0
 10
12.66
 20
5.478086597693867
 30
0.0
  0
LINE
  5
CC
330
1F
100
AcDbEntity
  8
SK1
  6
Continuous
100
AcDbLine
 10
12.66
 20
5.4780865977
 30
0.0
 11
12.66
 21
4.7389829717
 31
0.0
  0
SPLINE
  5
CD
330
1F
100
AcDbEntity
  8
SK3
100
AcDbSpline
210
0.0
220
0.0
230
1.0
 70
     8
 71
     3
 72
    10
 73
     6
 74
     0
 42
0.0000000213802348
 43
0.0000000001
 12
1.0
 22
0.0
 32
0.0
 13
1.0
 23
0.0
 33
0.0
 40
0.0
 40
0.0
 40
0.0
 40
0.0
 40
0.5
 40
0.5
 40
1.0
 40
1.0
 40
1.0
 40
1.0
 10
12.66
 20
2.340175593777068
 30
0.0
 10
12.66000000000001
 20
2.300192215542044
 30
0.0
 10
12.61771216997827
 20
2.260406420230995
 30
0.0
 10
12.46863419244872
 20
2.203030330165411
 30
0.0
 10
12.36582454912426
 20
2.186602203648101
 30
0.0
 10
12.26000000000001
 20
2.186602203648248
 30
0.0
  0
SPLINE
  5
CE
330
1F
100
AcDbEntity
  8
SK1
  6
Continuous
100
AcDbSpline
210
0.0
220
0.0
230
1.0
 70
     8
 71
     3
 72
    10
 73
     6
 74
     0
 42
0.0000000169199522
 43
0.0000000001
 12
1.0
 22
0.0
 32
0.0
 13
1.0
 23
0.0
 33
0.0
 40
0.0
 40
0.0
 40
0.0
 40
0.0
 40
0.5
 40
0.5
 40
1.0
 40
1.0
 40
1.0
 40
1.0
 10
3.047372104567986
 20
5.915290586451724
 30
0.0
 10
3.175618258191284
 20
5.922190049834173
 30
0.0
 10
3.308843327162863
 20
5.90678197018928
 30
0.0
 10
3.501565786969163
 20
5.842659733020245
 30
0.0
 10
3.560000000000008
 20
5.794080487830728
 30
0.0
 10
3.560000000000008
 20
5.744706969857631
 30
0.0
  0
LINE
  5
CF
330
1F
100
AcDbEntity
  8
SK1
  6
Continuous
100
AcDbLine
 10
7.16
 20
5.9428692133
 30
0.0
 11
7.4631088913
 21
5.9428692133
 31
0.0
  0
LINE
  5
D0
330
1F
100
AcDbEntity
  8
SK1
  6
Continuous
100
AcDbLine
 10
7.4631088913
 20
5.9428692133
 30
0.0
 11
12.535
 21
4.8218729584
 31
0.0
  0
SPLINE
  5
D1
330
1F
100
AcDbEntity
  8
SK1
  6
Continuous
100
AcDbSpline
210
0.0
220
0.0
230
1.0
 70
     8
 71
     3
 72
     8
 73
     4
 74
     0
 42
0.0000000587479703
 43
0.0000000001
 12
1.0
 22
0.0
 32
0.0
 13
1.0
 23
0.0
 33
0.0
 40
0.0
 40
0.0
 40
0.0
 40
0.0
 40
1.0
 40
1.0
 40
1.0
 40
1.0
 10
12.535
 20
4.821872958427157
 30
0.0
 10
12.61128692078017
 20
4.80501061898854
 30
0.0
 10
12.66
 20
4.772517804530073
 30
0.0
 10
12.66
 20
4.738982971684836
 30
0.0
  0
SPLINE
  5
D2
330
1F
100
AcDbEntity
  8
SK3
100
AcDbSpline
210
0.0
220
0.0
230
1.0
 70
     8
 71
     3
 72
    10
 73
     6
 74
     0
 42
0.0000000213802348
 43
0.0000000001
 12
1.0
 22
0.0
 32
0.0
 13
1.0
 23
0.0
 33
0.0
 40
0.0
 40
0.0
 40
0.0
 40
0.0
 40
0.5
 40
0.5
 40
1.0
 40
1.0
 40
1.0
 40
1.0
 10
12.66
 20
1.601071967768039
 30
0.0
 10
12.66000000000002
 20
1.561088589533015
 30
0.0
 10
12.61771216997827
 20
1.521302794221967
 30
0.0
 10
12.46863419244872
 20
1.463926704156381
 30
0.0
 10
12.36582454912426
 20
1.447498577639072
 30
0.0
 10
12.26000000000001
 20
1.447498577639219
 30
0.0
  0
SPLINE
  5
D3
330
1F
100
AcDbEntity
  8
SK1
  6
Continuous
100
AcDbSpline
210
0.0
220
0.0
230
1.0
 70
     8
 71
     3
 72
    10
 73
     6
 74
     0
 42
0.0000000427824414
 43
0.0000000001
 12
1.0
 22
0.0
 32
0.0
 13
1.0
 23
0.0
 33
0.0
 40
0.0
 40
0.0
 40
0.0
 40
0.0
 40
0.5
 40
0.5
 40
1.0
 40
1.0
 40
1.0
 40
1.0
 10
7.160000000000006
 20
5.292094148787605
 30
0.0
 10
7.160000000000012
 20
5.272133437778517
 30
0.0
 10
7.138792746349949
 20
5.252274916968323
 30
0.0
 10
7.064184492779326
 20
5.223685749676893
 30
0.0
 10
7.012831382487986
 20
5.21552911014102
 30
0.0
 10
6.960000000000008
 20
5.215529110141326
 30
0.0
  0
LINE
  5
D4
330
1F
100
AcDbEntity
  8
SK1
  6
Continuous
100
AcDbLine
 10
6.96
 20
5.2155291101
 30
0.0
 11
3.76
 21
5.2155291101
 31
0.0
  0
SPLINE
  5
D5
330
1F
100
AcDbEntity
  8
SK1
  6
Continuous
100
AcDbSpline
210
0.0
220
0.0
230
1.0
 70
     8
 71
     3
 72
    10
 73
     6
 74
     0
 42
0.0000000427888826
 43
0.0000000001
 12
1.0
 22
0.0
 32
0.0
 13
1.0
 23
0.0
 33
0.0
 40
0.0
 40
0.0
 40
0.0
 40
0.0
 40
0.5
 40
0.5
 40
1.0
 40
1.0
 40
1.0
 40
1.0
 10
3.760000000000006
 20
5.215529110141325
 30
0.0
 10
3.707128834288332
 20
5.215529110141325
 30
0.0
 10
3.655412931721452
 20
5.223840986901926
 30
0.0
 10
3.581619568483869
 20
5.252115947852249
 30
0.0
 10
3.559999999999897
 20
5.272116079355231
 30
0.0
 10
3.559999999997622
 20
5.292094148787714
 30
0.0
  0
LINE
  5
D6
330
1F
100
AcDbEntity
  8
SK1
  6
Continuous
100
AcDbLine
 10
-27.34
 20
8.6901837792
 30
0.0
 11
-27.34
 21
11.8897757188
 31
0.0
  0
LINE
  5
D7
330
1F
100
AcDbEntity
  8
SK1
  6
Continuous
100
AcDbLine
 10
-27.0817519303
 20
8.3346818808
 30
0.0
 11
-27.0817519303
 21
0.4000000998
 31
0.0
  0
LINE
  5
D8
330
1F
100
AcDbEntity
  8
SK3
100
AcDbLine
 10
-26.8731604391
 20
3.6403139588
 30
0.0
 11
-26.8731604391
 21
4.7481813305
 31
0.0
  0
LINE
  5
D9
330
1F
100
AcDbEntity
  8
SK3
100
AcDbLine
 10
-26.8731604391
 20
3.6403139588
 30
0.0
 11
-2.2657165863
 21
3.6403139588
 31
0.0
  0
SPLINE
  5
DA
330
1F
100
AcDbEntity
  8
SK1
  6
Continuous
100
AcDbSpline
210
0.0
220
0.0
230
1.0
 70
     8
 71
     3
 72
    10
 73
     6
 74
     0
 42
0.0000000269170392
 43
0.0000000001
 12
1.0
 22
0.0
 32
0.0
 13
1.0
 23
0.0
 33
0.0
 40
0.0
 40
0.0
 40
0.0
 40
0.0
 40
0.5
 40
0.5
 40
1.0
 40
1.0
 40
1.0
 40
1.0
 10
-27.34000000000013
 20
8.690183779217545
 30
0.0
 10
-27.34000000000001
 20
8.74071442591543
 30
0.0
 10
-27.31325218560487
 20
8.79125981422507
 30
0.0
 10
-27.21983457328357
 20
8.86739234921948
 30
0.0
 10
-27.1532676169232
 20
8.89325643733072
 30
0.0
 10
-27.08175193028801
 20
8.900367305772779
 30
0.0
  0
LINE
  5
DB
330
1F
100
AcDbEntity
  8
SK1
  6
Continuous
100
AcDbLine
 10
-27.0817519303
 20
8.9003673058
 30
0.0
 11
-3.7359913242
 21
11.2213920385
 31
0.0
  0
LINE
  5
DC
330
1F
100
AcDbEntity
  8
SK3
100
AcDbLine
 10
-26.8731604391
 20
3.6403139588
 30
0.0
 11
-27.34
 21
3.831539177
 31
0.0
  0
LINE
  5
DD
330
1F
100
AcDbEntity
  8
SK1
  6
Continuous
100
AcDbLine
 10
-27.34
 20
8.1244983543
 30
0.0
 11
-27.34
 21
8.6901837792
 31
0.0
  0
SPLINE
  5
DE
330
1F
100
AcDbEntity
  8
SK1
  6
Continuous
100
AcDbSpline
210
0.0
220
0.0
230
1.0
 70
     8
 71
     3
 72
    10
 73
     6
 74
     0
 42
0.0000000269170392
 43
0.0000000001
 12
1.0
 22
0.0
 32
0.0
 13
1.0
 23
0.0
 33
0.0
 40
0.0
 40
0.0
 40
0.0
 40
0.0
 40
0.5
 40
0.5
 40
1.0
 40
1.0
 40
1.0
 40
1.0
 10
-27.34
 20
8.124498354268317
 30
0.0
 10
-27.34
 20
8.175029000966207
 30
0.0
 10
-27.31325218560486
 20
8.225574389275838
 30
0.0
 10
-27.21983457328356
 20
8.301706924270244
 30
0.0
 10
-27.1532676169232
 20
8.327571012381485
 30
0.0
 10
-27.08175193028801
 20
8.334681880823538
 30
0.0
  0
LINE
  5
DF
330
1F
100
AcDbEntity
  8
SK1
  6
Continuous
100
AcDbLine
 10
-27.0817519303
 20
8.3346818808
 30
0.0
 11
-3.7359913242
 21
10.6557066136
 31
0.0
  0
LINE
  5
E0
330
1F
100
AcDbEntity
  8
SK3
100
AcDbLine
 10
-26.8731604391
 20
3.0746285339
 30
0.0
 11
-27.34
 21
3.2658537521
 31
0.0
  0
LINE
  5
E1
330
1F
100
AcDbEntity
  8
SK3
100
AcDbLine
 10
-26.8731604391
 20
3.0746285339
 30
0.0
 11
-2.2657165863
 21
3.0746285339
 31
0.0
  0
SPLINE
  5
E2
330
1F
100
AcDbEntity
  8
SK3
100
AcDbSpline
210
0.0
220
0.0
230
1.0
 70
     8
 71
     3
 72
     8
 73
     4
 74
     0
 42
0.0000009154330697
 43
0.0000000001
 12
1.0
 22
0.0
 32
0.0
 13
1.0
 23
0.0
 33
0.0
 40
0.0
 40
0.0
 40
0.0
 40
0.0
 40
1.0
 40
1.0
 40
1.0
 40
1.0
 10
-22.34000000000014
 20
-11.88108364947847
 30
0.0
 10
-22.34000000000014
 20
-11.88465662377916
 30
0.0
 10
-22.33965133761035
 20
-11.88827554025437
 30
0.0
 10
-22.33896114081412
 20
-11.89192600886587
 30
0.0
  0
SPLINE
  5
E3
330
1F
100
AcDbEntity
  8
SK3
100
AcDbSpline
210
0.0
220
0.0
230
1.0
 70
     8
 71
     3
 72
    35
 73
    31
 74
     0
 42
0.0000000109120139
 43
0.0000000001
 12
1.0
 22
0.0
 32
0.0
 13
1.0
 23
0.0
 33
0.0
 40
0.0
 40
0.0
 40
0.0
 40
0.0
 40
0.1072377967045695
 40
0.1072377967045695
 40
0.1072377967045695
 40
0.2144822968335714
 40
0.2144822968335714
 40
0.2144822968335714
 40
0.3216608953812454
 40
0.3216608953812454
 40
0.3216608953812454
 40
0.4290140034499683
 40
0.4290140034499683
 40
0.4290140034499683
 40
0.4999957197990603
 40
0.4999957197990603
 40
0.4999957197990603
 40
0.6074278370832172
 40
0.6074278370832172
 40
0.6074278370832172
 40
0.7148591831698327
 40
0.7148591831698327
 40
0.7148591831698327
 40
0.8222940863143702
 40
0.8222940863143702
 40
0.8222940863143702
 40
0.9295996384881998
 40
0.9295996384881998
 40
0.9295996384881998
 40
1.0
 40
1.0
 40
1.0
 40
1.0
 10
-22.89949377501298
 20
4.539820928456379
 30
0.0
 10
-22.94418146584308
 20
4.539820928456377
 30
0.0
 10
-22.98948695541914
 20
4.53749754635168
 30
0.0
 10
-23.03165745734436
 20
4.53293933344343
 30
0.0
 10
-23.07382991410303
 20
4.528380909237075
 30
0.0
 10
-23.1140277789303
 20
4.521453071730271
 30
0.0
 10
-23.14892514933082
 20
4.512485784794125
 30
0.0
 10
-23.18380280515431
 20
4.503523563748819
 30
0.0
 10
-23.2143483947056
 20
4.492264638275135
 30
0.0
 10
-23.23805917058407
 20
4.479356364926422
 30
0.0
 10
-23.26180778728556
 20
4.466427490831033
 30
0.0
 10
-23.27935514395964
 20
4.451475518575483
 30
0.0
 10
-23.28926453385682
 20
4.435535894635783
 30
0.0
 10
-23.29586911010108
 20
4.424912186949731
 30
0.0
 10
-23.29923330661147
 20
4.413696262404717
 30
0.0
 10
-23.29923330661147
 20
4.40228607218698
 30
0.0
 10
-23.29923330661147
 20
4.385154248097218
 30
0.0
 10
-23.2915311192465
 20
4.367171379648028
 30
0.0
 10
-23.27675842249812
 20
4.349920606807191
 30
0.0
 10
-23.26198579710805
 20
4.332669917294806
 30
0.0
 10
-23.23973466339009
 20
4.315683745493903
 30
0.0
 10
-23.2118303037789
 20
4.300609765751666
 30
0.0
 10
-23.18392570516047
 20
4.285535656897332
 30
0.0
 10
-23.14959475807856
 20
4.27197095793116
 30
0.0
 10
-23.11167107026479
 20
4.261325708635263
 30
0.0
 10
-23.07379271984223
 20
4.250693185628909
 30
0.0
 10
-23.03128353775222
 20
4.242692572799818
 30
0.0
 10
-22.98767140050114
 20
4.23818310212696
 30
0.0
 10
-22.95882518507159
 20
4.235200419536708
 30
0.0
 10
-22.92906896443694
 20
4.233674182564308
 30
0.0
 10
-22.89949377501298
 20
4.233674182564307
 30
0.0
  0
SPLINE
  5
E4
330
1F
100
AcDbEntity
  8
SK1
  6
Continuous
100
AcDbSpline
210
0.0
220
0.0
230
1.0
 70
     8
 71
     3
 72
    35
 73
    31
 74
     0
 42
0.0000000105330634
 43
0.0000000001
 12
1.0
 22
0.0
 32
0.0
 13
1.0
 23
0.0
 33
0.0
 40
0.0
 40
0.0
 40
0.0
 40
0.0
 40
0.1140466951010004
 40
0.1140466951010004
 40
0.1140466951010004
 40
0.2282948207518979
 40
0.2282948207518979
 40
0.2282948207518979
 40
0.3392741566161804
 40
0.3392741566161804
 40
0.3392741566161804
 40
0.4452969336874708
 40
0.4452969336874708
 40
0.4452969336874708
 40
0.5002192508761243
 40
0.5002192508761243
 40
0.5002192508761243
 40
0.6019916732935748
 40
0.6019916732935748
 40
0.6019916732935748
 40
0.7036615082091257
 40
0.7036615082091257
 40
0.7036615082091257
 40
0.8069310276856894
 40
0.8069310276856894
 40
0.8069310276856894
 40
0.9141591791607976
 40
0.9141591791607976
 40
0.9141591791607976
 40
1.0
 40
1.0
 40
1.0
 40
1.0
 10
-21.92480702332896
 20
11.77619757333622
 30
0.0
 10
-21.97294452244875
 20
11.76994426722976
 30
0.0
 10
-22.02179045614391
 20
11.7669888206037
 30
0.0
 10
-22.06731538777531
 20
11.7676198887981
 30
0.0
 10
-22.11288603359827
 20
11.76825159068422
 30
0.0
 10
-22.1564180150216
 20
11.77250832149756
 30
0.0
 10
-22.19389651274892
 20
11.78006064560668
 30
0.0
 10
-22.23030119824842
 20
11.78739658489601
 30
0.0
 10
-22.26204048341444
 20
11.79806362337646
 30
0.0
 10
-22.28596647678707
 20
11.81109751927231
 30
0.0
 10
-22.30883959766339
 20
11.82355785359038
 30
0.0
 10
-22.32522337379231
 20
11.83854047715596
 30
0.0
 10
-22.3334800534375
 20
11.85469108451591
 30
0.0
 10
-22.33780546822939
 20
11.86315187977195
 30
0.0
 10
-22.34000000000016
 20
11.87202520467678
 30
0.0
 10
-22.34000000000016
 20
11.88108384901987
 30
0.0
 10
-22.34000000000016
 20
11.89769878921333
 30
0.0
 10
-22.33246049415373
 20
11.91530718698517
 30
0.0
 10
-22.31809824177583
 20
11.93246204204722
 30
0.0
 10
-22.30374405022954
 20
11.94960726892598
 30
0.0
 10
-22.28220523305036
 20
11.96676633984673
 30
0.0
 10
-22.25540696650819
 20
11.98266107258337
 30
0.0
 10
-22.22817994286375
 20
11.99881011205059
 30
0.0
 10
-22.19482910869285
 20
12.01408549331235
 30
0.0
 10
-22.15812035425783
 20
12.02746395401392
 30
0.0
 10
-22.12001391021601
 20
12.04135180098494
 30
0.0
 10
-22.07730851902695
 20
12.05356573513208
 30
0.0
 10
-22.03337750918217
 20
12.06332800345163
 30
0.0
 10
-21.99803558327055
 20
12.07118162131515
 30
0.0
 10
-21.96126607020196
 20
12.0776081035001
 30
0.0
 10
-21.92480702332896
 20
12.08234431922829
 30
0.0
  0
ELLIPSE
  5
E5
330
1F
100
AcDbEntity
  8
SK1
  6
Continuous
100
AcDbEllipse
 10
51.5492454658
 20
0.153073473
 30
0.0
 11
-74.59999999694763
 21
-2.234108732281715E-9
 31
0.0
210
0.0
220
0.0
230
1.0
 40
0.9238795325
 41
-0.1739612071122369
 42
-0.1694205579559123
  0
ARC
  5
E6
330
1F
100
AcDbEntity
  8
SK3
100
AcDbCircle
 10
-2.2657211332
 20
-9.5070965075
 30
0.0
 40
4.758915376494793
100
AcDbArc
 50
85.1815347219
 51
89.9999452573
  0
SPLINE
  5
E7
330
1F
100
AcDbEntity
  8
SK1
  6
Continuous
100
AcDbSpline
210
0.0
220
0.0
230
1.0
 70
     8
 71
     3
 72
    23
 73
    19
 74
     0
 42
0.0000000245443856
 43
0.0000000001
 12
1.0
 22
0.0
 32
0.0
 13
1.0
 23
0.0
 33
0.0
 40
0.0
 40
0.0
 40
0.0
 40
0.0
 40
0.1928242140527417
 40
0.1928242140527417
 40
0.1928242140527417
 40
0.3856687256888912
 40
0.3856687256888912
 40
0.3856687256888912
 40
0.5782205867188616
 40
0.5782205867188616
 40
0.5782205867188616
 40
0.7704878286026974
 40
0.7704878286026974
 40
0.7704878286026974
 40
0.8953082069470614
 40
0.8953082069470614
 40
0.8953082069470614
 40
1.0
 40
1.0
 40
1.0
 40
1.0
 10
-3.735991324228686
 20
-15.46944456874255
 30
0.0
 10
-3.691530379694806
 20
-15.47569523556969
 30
0.0
 10
-3.646483917844949
 20
-15.48223342709087
 30
0.0
 10
-3.604576299425225
 20
-15.48848673993706
 30
0.0
 10
-3.562666046493907
 20
-15.49474044589616
 30
0.0
 10
-3.522738413628796
 20
-15.50087898123409
 30
0.0
 10
-3.488104890182384
 20
-15.50631212984705
 30
0.0
 10
-3.453523374075163
 20
-15.51173711978673
 30
0.0
 10
-3.423264198386322
 20
-15.51660431091758
 30
0.0
 10
-3.39983187825836
 20
-15.52041642536854
 30
0.0
 10
-3.376433513497199
 20
-15.52422301575087
 30
0.0
 10
-3.359195250862037
 20
-15.52707875177539
 30
0.0
 10
-3.349538750649147
 20
-15.52868172073151
 30
0.0
 10
-3.343217909000761
 20
-15.52973097384761
 30
0.0
 10
-3.340000000000003
 20
-15.5302681407828
 30
0.0
 10
-3.340000000000003
 20
-15.5302681407828
 30
0.0
 10
-3.340000000000003
 20
-15.5302681407828
 30
0.0
 10
-3.342262534972212
 20
-15.52988962017446
 30
0.0
 10
-3.34668613330397
 20
-15.52915460658423
 30
0.0
  0
SPLINE
  5
E8
330
1F
100
AcDbEntity
  8
SK1
  6
Continuous
100
AcDbSpline
210
0.0
220
0.0
230
1.0
 70
     8
 71
     3
 72
    20
 73
    16
 74
     0
 42
0.0000000249596416
 43
0.0000000001
 12
1.0
 22
0.0
 32
0.0
 13
1.0
 23
0.0
 33
0.0
 40
0.0
 40
0.0
 40
0.0
 40
0.0
 40
0.2145786737343268
 40
0.2145786737343268
 40
0.2145786737343268
 40
0.4291541907561934
 40
0.4291541907561934
 40
0.4291541907561934
 40
0.6437810025606525
 40
0.6437810025606525
 40
0.6437810025606525
 40
0.8585972232109039
 40
0.8585972232109039
 40
0.8585972232109039
 40
1.0
 40
1.0
 40
1.0
 40
1.0
 10
-3.340000000000007
 20
15.53026834032419
 30
0.0
 10
-3.340000000000007
 20
15.53026834032419
 30
0.0
 10
-3.347618441149177
 20
15.52899378014555
 30
0.0
 10
-3.36222834763514
 20
15.52658076474043
 30
0.0
 10
-3.376838136566957
 20
15.5241677687509
 30
0.0
 10
-3.398842476522105
 20
15.52055256508602
 30
0.0
 10
-3.426428906884943
 20
15.5161129471168
 30
0.0
 10
-3.454022215765127
 20
15.51167222215444
 30
0.0
 10
-3.4879607415582
 20
15.50628872591499
 30
0.0
 10
-3.525446613183316
 20
15.50050019957226
 30
0.0
 10
-3.562965835685893
 20
15.49470652322435
 30
0.0
 10
-3.605070934506644
 20
15.48835178612611
 30
0.0
 10
-3.648290735418413
 20
15.48202679656847
 30
0.0
 10
-3.676969597923105
 20
15.47782979653515
 30
0.0
 10
-3.706564389521199
 20
15.47358183659252
 30
0.0
 10
-3.735991324228675
 20
15.46944476828395
 30
0.0
  0
ARC
  5
E9
330
1F
100
AcDbEntity
  8
SK3
100
AcDbCircle
 10
-2.2657211332
 20
9.507096707
 30
0.0
 40
4.758915376494645
100
AcDbArc
 50
270.0000547427
 51
274.8184652781
  0
LINE
  5
EA
330
1F
100
AcDbEntity
  8
SK1
  6
Continuous
100
AcDbLine
 10
-3.7359913242
 20
15.4694447683
 30
0.0
 11
-27.0817519303
 21
12.1870201126
 31
0.0
  0
LINE
  5
EB
330
1F
100
AcDbEntity
  8
SK3
100
AcDbLine
 10
-2.2657165863
 20
4.7481813305
 30
0.0
 11
-26.8731604391
 21
4.7481813305
 31
0.0
  0
LINE
  5
EC
330
1F
100
AcDbEntity
  8
SK3
100
AcDbLine
 10
-22.899493775
 20
-4.5398207289
 30
0.0
 11
12.26
 21
-4.5398207289
 31
0.0
  0
SPLINE
  5
ED
330
1F
100
AcDbEntity
  8
SK1
  6
Continuous
100
AcDbSpline
210
0.0
220
0.0
230
1.0
 70
     8
 71
     3
 72
    11
 73
     7
 74
     0
 42
0.0000000003971097
 43
0.0000000001
 12
1.0
 22
0.0
 32
0.0
 13
1.0
 23
0.0
 33
0.0
 40
0.0
 40
0.0
 40
0.0
 40
0.0
 40
0.8233273564535349
 40
0.8233273564535349
 40
0.8233273564535349
 40
1.0
 40
1.0
 40
1.0
 40
1.0
 10
-21.92480702332896
 20
-12.08234411968689
 30
0.0
 10
-15.07139456515264
 20
-12.97263727488795
 30
0.0
 10
-8.217968323330743
 20
-13.86283986438522
 30
0.0
 10
-1.364534694013495
 20
-14.75299390156436
 30
0.0
 10
0.1061005608936298
 20
-14.94400646259268
 30
0.0
 10
1.576736173439626
 20
-15.1350166733589
 30
0.0
 10
3.047372104567986
 20
-15.32602479045226
 30
0.0
  0
ELLIPSE
  5
EE
330
1F
100
AcDbEntity
  8
SK1
  6
Continuous
100
AcDbEllipse
 10
51.5492454658
 20
-0.1530732735
 30
0.0
 11
-74.59999999698518
 21
2.305953505854761E-9
 31
0.0
210
0.0
220
0.0
230
1.0
 40
0.9238795325
 41
0.16939959629702
 42
0.1739612071130922
  0
SPLINE
  5
EF
330
1F
100
AcDbEntity
  8
SK1
  6
Continuous
100
AcDbSpline
210
0.0
220
0.0
230
1.0
 70
     8
 71
     3
 72
    35
 73
    31
 74
     0
 42
0.000000010532683
 43
0.0000000001
 12
1.0
 22
0.0
 32
0.0
 13
1.0
 23
0.0
 33
0.0
 40
0.0
 40
0.0
 40
0.0
 40
0.0
 40
0.1140466951057615
 40
0.1140466951057615
 40
0.1140466951057615
 40
0.2282948207614309
 40
0.2282948207614309
 40
0.2282948207614309
 40
0.3392741566303518
 40
0.3392741566303518
 40
0.3392741566303518
 40
0.4452969337060647
 40
0.4452969337060647
 40
0.4452969337060647
 40
0.5002192508970098
 40
0.5002192508970098
 40
0.5002192508970098
 40
0.6019916716268935
 40
0.6019916716268935
 40
0.6019916716268935
 40
0.7036615048631364
 40
0.7036615048631364
 40
0.7036615048631364
 40
0.806931024264333
 40
0.806931024264333
 40
0.806931024264333
 40
0.9141591755960853
 40
0.9141591755960853
 40
0.9141591755960853
 40
1.0
 40
1.0
 40
1.0
 40
1.0
 10
-21.92480702332896
 20
-12.08234411968689
 30
0.0
 10
-21.97294452244875
 20
-12.07609081358043
 30
0.0
 10
-22.02179045614391
 20
-12.0668399287593
 30
0.0
 10
-22.06731538777531
 20
-12.05524219669918
 30
0.0
 10
-22.11288603359827
 20
-12.04363281869196
 30
0.0
 10
-22.15641801502161
 20
-12.02932586670536
 30
0.0
 10
-22.19389651274892
 20
-12.01338114199382
 30
0.0
 10
-22.23030119824842
 20
-11.9978932563074
 30
0.0
 10
-22.26204048341444
 20
-11.98039334011961
 30
0.0
 10
-22.28596647678708
 20
-11.96229937306362
 30
0.0
 10
-22.30883959766339
 20
-11.9450016379536
 30
0.0
 10
-22.32522337379231
 20
-11.9266539175827
 30
0.0
 10
-22.3334800534375
 20
-11.90881036791736
 30
0.0
 10
-22.33780546822939
 20
-11.89946269343091
 30
0.0
 10
-22.34000000000014
 20
-11.89014229382158
 30
0.0
 10
-22.34000000000014
 20
-11.8810836494785
 30
0.0
 10
-22.34000000000015
 20
-11.86446870955335
 30
0.0
 10
-22.33246049440443
 20
-11.84838937411929
 30
0.0
 10
-22.31809824248176
 20
-11.8342093621923
 30
0.0
 10
-22.30374405138994
 20
-11.82003730881376
 30
0.0
 10
-22.28220523489145
 20
-11.80737838366701
 30
0.0
 10
-22.25540696913901
 20
-11.79726203798069
 30
0.0
 10
-22.22817994587895
 20
-11.78698383632941
 30
0.0
 10
-22.19482911204853
 20
-11.77905694815092
 30
0.0
 10
-22.15812035788852
 20
-11.77407513728751
 30
0.0
 10
-22.12001391415465
 20
-11.76890364346531
 30
0.0
 10
-22.07730852321562
 20
-11.76676715178901
 30
0.0
 10
-22.03337751354688
 20
-11.76778628116676
 30
0.0
 10
-21.99803558628583
 20
-11.76860615752767
 30
0.0
 10
-21.96126607169085
 20
-11.77146115787322
 30
0.0
 10
-21.92480702332897
 20
-11.77619737379482
 30
0.0
  0
SPLINE
  5
F0
330
1F
100
AcDbEntity
  8
SK3
100
AcDbSpline
210
0.0
220
0.0
230
1.0
 70
     8
 71
     3
 72
    35
 73
    31
 74
     0
 42
0.0000000109108853
 43
0.0000000001
 12
1.0
 22
0.0
 32
0.0
 13
1.0
 23
0.0
 33
0.0
 40
0.0
 40
0.0
 40
0.0
 40
0.0
 40
0.1072377967045621
 40
0.1072377967045621
 40
0.1072377967045621
 40
0.2144822968335559
 40
0.2144822968335559
 40
0.2144822968335559
 40
0.3216608953812405
 40
0.3216608953812405
 40
0.3216608953812405
 40
0.4290140034499603
 40
0.4290140034499603
 40
0.4290140034499603
 40
0.4999957197990675
 40
0.4999957197990675
 40
0.4999957197990675
 40
0.6074278370832231
 40
0.6074278370832231
 40
0.6074278370832231
 40
0.7148591831698369
 40
0.7148591831698369
 40
0.7148591831698369
 40
0.8222940863143733
 40
0.8222940863143733
 40
0.8222940863143733
 40
0.9295996384881943
 40
0.9295996384881943
 40
0.9295996384881943
 40
1.0
 40
1.0
 40
1.0
 40
1.0
 10
-22.89949377501296
 20
-4.233673983022908
 30
0.0
 10
-22.94418146584307
 20
-4.233673983022906
 30
0.0
 10
-22.98948695541912
 20
-4.237222619727524
 30
0.0
 10
-23.03165745734433
 20
-4.243945862099608
 30
0.0
 10
-23.073829914103
 20
-4.250669416130756
 30
0.0
 10
-23.11402777893027
 20
-4.260744657287561
 30
0.0
 10
-23.14892514933079
 20
-4.273097893294034
 30
0.0
 10
-23.18380280515428
 20
-4.285444150584917
 30
0.0
 10
-23.21434839470557
 20
-4.300391624929211
 30
0.0
 10
-23.23805917058404
 20
-4.316424528089992
 30
0.0
 10
-23.26180778728553
 20
-4.332483018699039
 30
0.0
 10
-23.27935514395964
 20
-4.350060697802805
 30
0.0
 10
-23.28926453385681
 20
-4.367503998136976
 30
0.0
 10
-23.29586911010108
 20
-4.379129901265638
 30
0.0
 10
-23.29923330661147
 20
-4.390875682427841
 30
0.0
 10
-23.29923330661147
 20
-4.402285872645582
 30
0.0
 10
-23.29923330661147
 20
-4.419417696735342
 30
0.0
 10
-23.2915311192465
 20
-4.436170921162846
 30
0.0
 10
-23.27675842249812
 20
-4.451252056049936
 30
0.0
 10
-23.26198579710805
 20
-4.466333118088834
 30
0.0
 10
-23.23973466339009
 20
-4.48016668375861
 30
0.0
 10
-23.2118303037789
 20
-4.491848783521625
 30
0.0
 10
-23.18392570516047
 20
-4.503530983344506
 30
0.0
 10
-23.14959475807855
 20
-4.513397484037445
 30
0.0
 10
-23.11167107026479
 20
-4.520913872056458
 30
0.0
 10
-23.07379271984222
 20
-4.528421274308432
 30
0.0
 10
-23.03128353775223
 20
-4.533803600774738
 30
0.0
 10
-22.98767140050115
 20
-4.536820217243335
 30
0.0
 10
-22.9588251850716
 20
-4.538815486771644
 30
0.0
 10
-22.92906896443694
 20
-4.539820728914981
 30
0.0
 10
-22.89949377501298
 20
-4.53982072891498
 30
0.0
  0
SPLINE
  5
F1
330
1F
100
AcDbEntity
  8
SK3
100
AcDbSpline
210
0.0
220
0.0
230
1.0
 70
     8
 71
     3
 72
    11
 73
     7
 74
     0
 42
0.0000003241705177
 43
0.0000000001
 12
1.0
 22
0.0
 32
0.0
 13
1.0
 23
0.0
 33
0.0
 40
0.0
 40
0.0
 40
0.0
 40
0.0
 40
0.4064743707788752
 40
0.4064743707788752
 40
0.4064743707788752
 40
1.0
 40
1.0
 40
1.0
 40
1.0
 10
-22.32711295018639
 20
11.92026736718136
 30
0.0
 10
-22.32959355691638
 20
11.91643557111327
 30
0.0
 10
-22.33172120180087
 20
11.91261163009906
 30
0.0
 10
-22.33348005343751
 20
11.90881056745874
 30
0.0
 10
-22.33607727002007
 20
11.90319771034497
 30
0.0
 10
-22.33790620502254
 20
11.897594687082
 30
0.0
 10
-22.33895307901995
 20
11.89205226072405
 30
0.0
  0
SPLINE
  5
F2
330
1F
100
AcDbEntity
  8
SK1
  6
Continuous
100
AcDbSpline
210
0.0
220
0.0
230
1.0
 70
     8
 71
     3
 72
    11
 73
     7
 74
     0
 42
0.0000000003971097
 43
0.0000000001
 12
1.0
 22
0.0
 32
0.0
 13
1.0
 23
0.0
 33
0.0
 40
0.0
 40
0.0
 40
0.0
 40
0.0
 40
0.823327356453535
 40
0.823327356453535
 40
0.823327356453535
 40
1.0
 40
1.0
 40
1.0
 40
1.0
 10
-21.92480702332897
 20
-11.77619737379482
 30
0.0
 10
-15.07139456515264
 20
-12.66649052899587
 30
0.0
 10
-8.217968323330746
 20
-13.55669311849314
 30
0.0
 10
-1.364534694013495
 20
-14.44684715567228
 30
0.0
 10
0.1061005608936289
 20
-14.63785971670061
 30
0.0
 10
1.576736173439623
 20
-14.82886992746683
 30
0.0
 10
3.047372104567986
 20
-15.01987804456019
 30
0.0
  0
LINE
  5
F3
330
1F
100
AcDbEntity
  8
SK3
100
AcDbLine
 10
-22.899493775
 20
-4.233673983
 30
0.0
 11
12.26
 21
-4.233673983
 31
0.0
  0
SPLINE
  5
F4
330
1F
100
AcDbEntity
  8
SK3
100
AcDbSpline
210
0.0
220
0.0
230
1.0
 70
     8
 71
     3
 72
    35
 73
    31
 74
     0
 42
0.0000000092161162
 43
0.0000000001
 12
1.0
 22
0.0
 32
0.0
 13
1.0
 23
0.0
 33
0.0
 40
0.0
 40
0.0
 40
0.0
 40
0.0
 40
0.1072377967045598
 40
0.1072377967045598
 40
0.1072377967045598
 40
0.2144822968335507
 40
0.2144822968335507
 40
0.2144822968335507
 40
0.3216608953812293
 40
0.3216608953812293
 40
0.3216608953812293
 40
0.4290140034499552
 40
0.4290140034499552
 40
0.4290140034499552
 40
0.4999957197990606
 40
0.4999957197990606
 40
0.4999957197990606
 40
0.6074278370832112
 40
0.6074278370832112
 40
0.6074278370832112
 40
0.7148591831698198
 40
0.7148591831698198
 40
0.7148591831698198
 40
0.8222940863143597
 40
0.8222940863143597
 40
0.8222940863143597
 40
0.9295996384881935
 40
0.9295996384881935
 40
0.9295996384881935
 40
1.0
 40
1.0
 40
1.0
 40
1.0
 10
-2.265716586331415
 20
-3.640313759266461
 30
0.0
 10
-2.221028895501312
 20
-3.640313759266461
 30
0.0
 10
-2.175723405925261
 20
-3.635357605909835
 30
0.0
 10
-2.133552904000047
 20
-3.625763421185785
 30
0.0
 10
-2.091380447241378
 20
-3.616168791718788
 30
0.0
 10
-2.051182582414103
 20
-3.601664454583623
 30
0.0
 10
-2.016285212013586
 20
-3.583262606426548
 30
0.0
 10
-1.981407556190098
 20
-3.56487115402849
 30
0.0
 10
-1.950861966638825
 20
-3.542071144158094
 30
0.0
 10
-1.927151190760355
 20
-3.51652872759553
 30
0.0
 10
-1.903402574058856
 20
-3.490945547033094
 30
0.0
 10
-1.885855217384751
 20
-3.461896882451559
 30
0.0
 10
-1.875945827487575
 20
-3.431630514023356
 30
0.0
 10
-1.869341251243307
 20
-3.411458077577177
 30
0.0
 10
-1.865977054732918
 20
-3.390446994991658
 30
0.0
 10
-1.865977054732918
 20
-3.369363712583197
 30
0.0
 10
-1.865977054732918
 20
-3.33770822932097
 30
0.0
 10
-1.873679242097885
 20
-3.305145699677978
 30
0.0
 10
-1.888451938846259
 20
-3.274444627381974
 30
0.0
 10
-1.903224564236325
 20
-3.243743703384996
 30
0.0
 10
-1.925475697954285
 20
-3.214063528603309
 30
0.0
 10
-1.953380057565469
 20
-3.188046118105544
 30
0.0
 10
-1.981284656183904
 20
-3.162028484762681
 30
0.0
 10
-2.01561560326582
 20
-3.138965639766677
 30
0.0
 10
-2.053539291079583
 20
-3.120989111401703
 30
0.0
 10
-2.091417641502153
 20
-3.103034073797406
 30
0.0
 10
-2.133926823592157
 20
-3.089667875285322
 30
0.0
 10
-2.177538960843243
 20
-3.082143386844529
 30
0.0
 10
-2.206385176272794
 20
-3.077166492148663
 30
0.0
 10
-2.236141396907454
 20
-3.074628334317222
 30
0.0
 10
-2.265716586331415
 20
-3.074628334317222
 30
0.0
  0
SPLINE
  5
F5
330
1F
100
AcDbEntity
  8
SK1
  6
Continuous
100
AcDbSpline
210
0.0
220
0.0
230
1.0
 70
     8
 71
     3
 72
    35
 73
    31
 74
     0
 42
0.0000000092453942
 43
0.0000000001
 12
1.0
 22
0.0
 32
0.0
 13
1.0
 23
0.0
 33
0.0
 40
0.0
 40
0.0
 40
0.0
 40
0.0
 40
0.1076873144994247
 40
0.1076873144994247
 40
0.1076873144994247
 40
0.2153859646719058
 40
0.2153859646719058
 40
0.2153859646719058
 40
0.3229211770831063
 40
0.3229211770831063
 40
0.3229211770831063
 40
0.4302974370948143
 40
0.4302974370948143
 40
0.4302974370948143
 40
0.5000063759059413
 40
0.5000063759059413
 40
0.5000063759059413
 40
0.6072943446396618
 40
0.6072943446396618
 40
0.6072943446396618
 40
0.7145807350372823
 40
0.7145807350372823
 40
0.7145807350372823
 40
0.8218927724991374
 40
0.8218927724991374
 40
0.8218927724991374
 40
0.9292995131762521
 40
0.9292995131762521
 40
0.9292995131762521
 40
1.0
 40
1.0
 40
1.0
 40
1.0
 10
-3.735991324228686
 20
-10.65570641405048
 30
0.0
 10
-3.691530379694805
 20
-10.66012630295089
 30
0.0
 10
-3.646483917844948
 20
-10.67022000480769
 30
0.0
 10
-3.604576299425223
 20
-10.68514162237903
 30
0.0
 10
-3.562666046493904
 20
-10.70006417799401
 30
0.0
 10
-3.522738413628794
 20
-10.72022656875956
 30
0.0
 10
-3.488104890182381
 20
-10.7439064775586
 30
0.0
 10
-3.453523374075158
 20
-10.76755082748501
 30
0.0
 10
-3.423264198386322
 20
-10.79535256937627
 30
0.0
 10
-3.39983187825836
 20
-10.82494092519027
 30
0.0
 10
-3.376433513497202
 20
-10.85448640503341
 30
0.0
 10
-3.359195250862041
 20
-10.88662618585533
 30
0.0
 10
-3.349538750649152
 20
-10.9186498709289
 30
0.0
 10
-3.343217909000767
 20
-10.93961156904781
 30
0.0
 10
-3.34000000000001
 20
-10.96083674184806
 30
0.0
 10
-3.34000000000001
 20
-10.98155788677075
 30
0.0
 10
-3.34000000000001
 20
-11.01318866718802
 30
0.0
 10
-3.347618441149177
 20
-11.04435440363018
 30
0.0
 10
-3.362228347635139
 20
-11.07249559395462
 30
0.0
 10
-3.376838136566956
 20
-11.10063655784956
 30
0.0
 10
-3.398842476522117
 20
-11.12653081611262
 30
0.0
 10
-3.426428906884956
 20
-11.14809233162972
 30
0.0
 10
-3.454022215765139
 20
-11.16965922338639
 30
0.0
 10
-3.487960741558202
 20
-11.18748845238461
 30
0.0
 10
-3.525446613183314
 20
-11.2001774902396
 30
0.0
 10
-3.562965835685893
 20
-11.21287781742916
 30
0.0
 10
-3.605070934506648
 20
-11.22078173802565
 30
0.0
 10
-3.648290735418419
 20
-11.22329447639528
 30
0.0
 10
-3.676969597923113
 20
-11.2249618250802
 30
0.0
 10
-3.70656438952121
 20
-11.22431718805494
 30
0.0
 10
-3.735991324228714
 20
-11.22139183899971
 30
0.0
  0
ELLIPSE
  5
F6
330
1F
100
AcDbEntity
  8
SK1
  6
Continuous
100
AcDbEllipse
 10
-76.7144558312
 20
-0.2828426126
 30
0.0
 11
74.60000000103706
 21
-1.888432759894174E-10
 31
0.0
210
0.0
220
0.0
230
1.0
 40
0.7071067812
 41
-0.2088808538862734
 42
-0.1986429546259174
  0
LINE
  5
F7
330
1F
100
AcDbEntity
  8
SK3
100
AcDbLine
 10
-22.899493775
 20
-2.1866020041
 30
0.0
 11
12.26
 21
-2.1866020041
 31
0.0
  0
LINE
  5
F8
330
1F
100
AcDbEntity
  8
SK1
  6
Continuous
100
AcDbLine
 10
-21.9248070233
 20
-5.3108174871
 30
0.0
 11
3.0473721046
 21
-6.6543940129
 31
0.0
  0
ELLIPSE
  5
F9
330
1F
100
AcDbEntity
  8
SK1
  6
Continuous
100
AcDbEllipse
 10
51.5492454658
 20
-0.3695517134
 30
0.0
 11
-74.59999999692663
 21
1.672364213088887E-10
 31
0.0
210
0.0
220
0.0
230
1.0
 40
0.3826834324
 41
0.1507819344320249
 42
0.1739612070854432
  0
SPLINE
  5
FA
330
1F
100
AcDbEntity
  8
SK1
  6
Continuous
100
AcDbSpline
210
0.0
220
0.0
230
1.0
 70
     8
 71
     3
 72
    35
 73
    31
 74
     0
 42
0.0000000080647976
 43
0.0000000001
 12
1.0
 22
0.0
 32
0.0
 13
1.0
 23
0.0
 33
0.0
 40
0.0
 40
0.0
 40
0.0
 40
0.0
 40
0.1140466951010062
 40
0.1140466951010062
 40
0.1140466951010062
 40
0.2282948207519138
 40
0.2282948207519138
 40
0.2282948207519138
 40
0.3392741566161988
 40
0.3392741566161988
 40
0.3392741566161988
 40
0.4452969336874772
 40
0.4452969336874772
 40
0.4452969336874772
 40
0.500219250876123
 40
0.500219250876123
 40
0.500219250876123
 40
0.6019916732935728
 40
0.6019916732935728
 40
0.6019916732935728
 40
0.7036615082091224
 40
0.7036615082091224
 40
0.7036615082091224
 40
0.8069310276856875
 40
0.8069310276856875
 40
0.8069310276856875
 40
0.9141591791608003
 40
0.9141591791608003
 40
0.9141591791608003
 40
1.0
 40
1.0
 40
1.0
 40
1.0
 10
-21.92480702332896
 20
-5.310817487080869
 30
0.0
 10
-21.97294452244875
 20
-5.308227282881901
 30
0.0
 10
-22.02179045614391
 20
-5.298100002729965
 30
0.0
 10
-22.06731538777531
 20
-5.281067264563371
 30
0.0
 10
-22.11288603359827
 20
-5.264017422848729
 30
0.0
 10
-22.15641801502161
 20
-5.239527606499704
 30
0.0
 10
-22.19389651274894
 20
-5.209426036455215
 30
0.0
 10
-22.23030119824843
 20
-5.180186919175664
 30
0.0
 10
-22.26204048341445
 20
-5.144771261882056
 30
0.0
 10
-22.28596647678708
 20
-5.106148632378485
 30
0.0
 10
-22.30883959766339
 20
-5.0692256064695
 30
0.0
 10
-22.32522337379232
 20
-5.028295387916762
 30
0.0
 10
-22.33348005343751
 20
-4.986910190619211
 30
0.0
 10
-22.33780546822939
 20
-4.965229787327783
 30
0.0
 10
-22.34000000000014
 20
-4.943175426888704
 30
0.0
 10
-22.34000000000015
 20
-4.921305924858917
 30
0.0
 10
-22.34000000000015
 20
-4.881193910905841
 30
0.0
 10
-22.33246049415373
 20
-4.840845898530232
 30
0.0
 10
-22.31809824177583
 20
-4.803637478039198
 30
0.0
 10
-22.30374405022954
 20
-4.766449940819448
 30
0.0
 10
-22.28220523305036
 20
-4.7313884461128
 30
0.0
 10
-22.25540696650819
 20
-4.701187040090762
 30
0.0
 10
-22.22817994286375
 20
-4.670502428660263
 30
0.0
 10
-22.19482910869285
 20
-4.644016734872013
 30
0.0
 10
-22.15812035425783
 20
-4.623592929938185
 30
0.0
 10
-22.12001391021601
 20
-4.60239148652747
 30
0.0
 10
-22.07730851902694
 20
-4.587156097163336
 30
0.0
 10
-22.03337750918216
 20
-4.578835095722721
 30
0.0
 10
-21.99803558327054
 20
-4.572140958313549
 30
0.0
 10
-21.96126607020195
 20
-4.569752056282899
 30
0.0
 10
-21.92480702332896
 20
-4.57171386107184
 30
0.0
  0
SPLINE
  5
FB
330
1F
100
AcDbEntity
  8
SK3
100
AcDbSpline
210
0.0
220
0.0
230
1.0
 70
     8
 71
     3
 72
    35
 73
    31
 74
     0
 42
0.0000000082347433
 43
0.0000000001
 12
1.0
 22
0.0
 32
0.0
 13
1.0
 23
0.0
 33
0.0
 40
0.0
 40
0.0
 40
0.0
 40
0.0
 40
0.1072377967045695
 40
0.1072377967045695
 40
0.1072377967045695
 40
0.2144822968335672
 40
0.2144822968335672
 40
0.2144822968335672
 40
0.3216608953812447
 40
0.3216608953812447
 40
0.3216608953812447
 40
0.4290140034499682
 40
0.4290140034499682
 40
0.4290140034499682
 40
0.4999957197990605
 40
0.4999957197990605
 40
0.4999957197990605
 40
0.6074278370832173
 40
0.6074278370832173
 40
0.6074278370832173
 40
0.7148591831698328
 40
0.7148591831698328
 40
0.7148591831698328
 40
0.8222940863143704
 40
0.8222940863143704
 40
0.8222940863143704
 40
0.9295996384881999
 40
0.9295996384881999
 40
0.9295996384881999
 40
1.0
 40
1.0
 40
1.0
 40
1.0
 10
-22.89949377501298
 20
-1.44749837809781
 30
0.0
 10
-22.94418146584308
 20
-1.447498378097811
 30
0.0
 10
-22.98948695541914
 20
-1.454840290358115
 30
0.0
 10
-23.03165745734436
 20
-1.468906603812091
 30
0.0
 10
-23.07382991410302
 20
-1.482973569316643
 30
0.0
 10
-23.1140277789303
 20
-1.504149949511573
 30
0.0
 10
-23.14892514933082
 20
-1.530587350347268
 30
0.0
 10
-23.18380280515431
 20
-1.557009815897891
 30
0.0
 10
-23.2143483947056
 20
-1.5894076623125
 30
0.0
 10
-23.23805917058407
 20
-1.624989884755404
 30
0.0
 10
-23.26180778728556
 20
-1.660628894061351
 30
0.0
 10
-23.27935514395964
 20
-1.700439458500493
 30
0.0
 10
-23.28926453385682
 20
-1.741047634345328
 30
0.0
 10
-23.29586911010108
 20
-1.768112851910766
 30
0.0
 10
-23.29923330661147
 20
-1.795939819476029
 30
0.0
 10
-23.29923330661147
 20
-1.823486455448948
 30
0.0
 10
-23.29923330661147
 20
-1.86484633751464
 30
0.0
 10
-23.2915311192465
 20
-1.906521843162684
 30
0.0
 10
-23.27675842249812
 20
-1.945100561496823
 30
0.0
 10
-23.26198579710805
 20
-1.983679093479608
 30
0.0
 10
-23.23973466339009
 20
-2.020228881466688
 30
0.0
 10
-23.2118303037789
 20
-2.051823845130774
 30
0.0
 10
-23.18392570516047
 20
-2.083419079412981
 30
0.0
 10
-23.14959475807856
 20
-2.110937117472273
 30
0.0
 10
-23.11167107026479
 20
-2.132212144644717
 30
0.0
 10
-23.07379271984223
 20
-2.153461737734002
 30
0.0
 10
-23.03128353775222
 20
-2.169074109648864
 30
0.0
 10
-22.98767140050114
 20
-2.177849720244089
 30
0.0
 10
-22.95882518507159
 20
-2.183654140061864
 30
0.0
 10
-22.92906896443694
 20
-2.186602004106839
 30
0.0
 10
-22.89949377501298
 20
-2.18660200410684
 30
0.0
  0
LINE
  5
FC
330
1F
100
AcDbEntity
  8
SK1
  6
Continuous
100
AcDbLine
 10
-21.9248070233
 20
-4.5717138611
 30
0.0
 11
3.0473721046
 21
-5.9152903869
 31
0.0
  0
LINE
  5
FD
330
1F
100
AcDbEntity
  8
SK3
100
AcDbLine
 10
-22.899493775
 20
-1.4474983781
 30
0.0
 11
12.26
 21
-1.4474983781
 31
0.0
  0
LINE
  5
FE
330
1F
100
AcDbEntity
  8
SK3
100
AcDbLine
 10
-2.2657165863
 20
0.4000000998
 30
0.0
 11
-3.7359913242
 21
0.4000000998
 31
0.0
  0
ARC
  5
FF
330
1F
100
AcDbEntity
  8
SK3
100
AcDbCircle
 10
-2.2659337879
 20
0.0000000998
 30
0.0
 40
0.4000000589706535
100
AcDbArc
 50
270.0311118314
 51
89.9688881686
  0
ARC
  5
100
330
1F
100
AcDbEntity
  8
SK1
  6
Continuous
100
AcDbCircle
 10
-3.7399955132
 20
0.0000000998
 30
0.0
 40
0.4000200414090899
100
AcDbArc
 50
270.5735386566
 51
89.4264613434
  0
LINE
  5
101
330
1F
100
AcDbEntity
  8
SK3
100
AcDbLine
 10
-3.7359913242
 20
-0.3999999002
 30
0.0
 11
-2.2657165863
 21
-0.3999999002
 31
0.0
  0
LINE
  5
102
330
1F
100
AcDbEntity
  8
SK3
100
AcDbLine
 10
-22.899493775
 20
1.4474985776
 30
0.0
 11
12.26
 21
1.4474985776
 31
0.0
  0
LINE
  5
103
330
1F
100
AcDbEntity
  8
SK1
  6
Continuous
100
AcDbLine
 10
-21.9248070233
 20
4.5717140606
 30
0.0
 11
3.0473721046
 21
5.9152905865
 31
0.0
  0
SPLINE
  5
104
330
1F
100
AcDbEntity
  8
SK1
  6
Continuous
100
AcDbSpline
210
0.0
220
0.0
230
1.0
 70
     8
 71
     3
 72
    35
 73
    31
 74
     0
 42
0.0000000080645082
 43
0.0000000001
 12
1.0
 22
0.0
 32
0.0
 13
1.0
 23
0.0
 33
0.0
 40
0.0
 40
0.0
 40
0.0
 40
0.0
 40
0.1140466951010024
 40
0.1140466951010024
 40
0.1140466951010024
 40
0.228294820751903
 40
0.228294820751903
 40
0.228294820751903
 40
0.3392741566161929
 40
0.3392741566161929
 40
0.3392741566161929
 40
0.4452969336874799
 40
0.4452969336874799
 40
0.4452969336874799
 40
0.5002192508761273
 40
0.5002192508761273
 40
0.5002192508761273
 40
0.6019916732935722
 40
0.6019916732935722
 40
0.6019916732935722
 40
0.7036615082091147
 40
0.7036615082091147
 40
0.7036615082091147
 40
0.8069310276856788
 40
0.8069310276856788
 40
0.8069310276856788
 40
0.9141591791607987
 40
0.9141591791607987
 40
0.9141591791607987
 40
1.0
 40
1.0
 40
1.0
 40
1.0
 10
-21.92480702332896
 20
4.571714060613251
 30
0.0
 10
-21.97294452244875
 20
4.569123856414283
 30
0.0
 10
-22.02179045614391
 20
4.574195108533974
 30
0.0
 10
-22.06731538777531
 20
4.586685305793398
 30
0.0
 10
-22.11288603359827
 20
4.599188045175343
 30
0.0
 10
-22.15641801502161
 20
4.619514923609544
 30
0.0
 10
-22.19389651274893
 20
4.646140247503639
 30
0.0
 10
-22.23030119824843
 20
4.672002718025775
 30
0.0
 10
-22.26204048341444
 20
4.704588104702979
 30
0.0
 10
-22.28596647678708
 20
4.741114784105443
 30
0.0
 10
-22.30883959766339
 20
4.776034092999775
 30
0.0
 10
-22.32522337379231
 20
4.815570442817047
 30
0.0
 10
-22.3334800534375
 20
4.856254400451395
 30
0.0
 10
-22.33780546822939
 20
4.877567446337398
 30
0.0
 10
-22.34000000000014
 20
4.899436622370485
 30
0.0
 10
-22.34000000000014
 20
4.921306124400271
 30
0.0
 10
-22.34000000000015
 20
4.961418138353344
 30
0.0
 10
-22.33246049415373
 20
5.00239950898183
 30
0.0
 10
-22.31809824177582
 20
5.040840149772925
 30
0.0
 10
-22.30374405022954
 20
5.079259215707592
 30
0.0
 10
-22.28220523305038
 20
5.116184731780128
 30
0.0
 10
-22.25540696650821
 20
5.148779624082903
 30
0.0
 10
-22.22817994286378
 20
5.181896016220405
 30
0.0
 10
-22.19482910869286
 20
5.211425555577891
 30
0.0
 10
-22.15812035425784
 20
5.235327366828153
 30
0.0
 10
-22.12001391021602
 20
5.2601392420041
 30
0.0
 10
-22.07730851902695
 20
5.279548844797912
 30
0.0
 10
-22.03337750918217
 20
5.292335647471354
 30
0.0
 10
-21.99803558327055
 20
5.302622463875712
 30
0.0
 10
-21.96126607020196
 20
5.30885588183334
 30
0.0
 10
-21.92480702332896
 20
5.310817686622281
 30
0.0
  0
SPLINE
  5
105
330
1F
100
AcDbEntity
  8
SK3
100
AcDbSpline
210
0.0
220
0.0
230
1.0
 70
     8
 71
     3
 72
    35
 73
    31
 74
     0
 42
0.0000000082349603
 43
0.0000000001
 12
1.0
 22
0.0
 32
0.0
 13
1.0
 23
0.0
 33
0.0
 40
0.0
 40
0.0
 40
0.0
 40
0.0
 40
0.1072377967045708
 40
0.1072377967045708
 40
0.1072377967045708
 40
0.2144822968335748
 40
0.2144822968335748
 40
0.2144822968335748
 40
0.3216608953812631
 40
0.3216608953812631
 40
0.3216608953812631
 40
0.4290140034499856
 40
0.4290140034499856
 40
0.4290140034499856
 40
0.4999957197990613
 40
0.4999957197990613
 40
0.4999957197990613
 40
0.6074278370832183
 40
0.6074278370832183
 40
0.6074278370832183
 40
0.714859183169834
 40
0.714859183169834
 40
0.714859183169834
 40
0.8222940863143714
 40
0.8222940863143714
 40
0.8222940863143714
 40
0.9295996384881936
 40
0.9295996384881936
 40
0.9295996384881936
 40
1.0
 40
1.0
 40
1.0
 40
1.0
 10
-22.89949377501298
 20
2.186602203648248
 30
0.0
 10
-22.94418146584308
 20
2.186602203648246
 30
0.0
 10
-22.98948695541914
 20
2.179767808460591
 30
0.0
 10
-23.03165745734436
 20
2.166598279573472
 30
0.0
 10
-23.07382991410303
 20
2.153428140206646
 30
0.0
 10
-23.1140277789303
 20
2.133555457289797
 30
0.0
 10
-23.14892514933082
 20
2.108520562480534
 30
0.0
 10
-23.18380280515431
 20
2.08349981063839
 30
0.0
 10
-23.21434839470559
 20
2.052629811191455
 30
0.0
 10
-23.23805917058406
 20
2.018341852794102
 30
0.0
 10
-23.26180778728555
 20
1.983999173093141
 30
0.0
 10
-23.27935514395964
 20
1.945276212041352
 30
0.0
 10
-23.28926453385682
 20
1.905290879352529
 30
0.0
 10
-23.29586911010108
 20
1.878640784731574
 30
0.0
 10
-23.29923330661147
 20
1.851033290963271
 30
0.0
 10
-23.29923330661147
 20
1.823486654990358
 30
0.0
 10
-23.29923330661147
 20
1.782126772924666
 30
0.0
 10
-23.2915311192465
 20
1.739941932045948
 30
0.0
 10
-23.27675842249812
 20
1.700464520245928
 30
0.0
 10
-23.26198579710805
 20
1.660987299138327
 30
0.0
 10
-23.23973466339009
 20
1.623131658934914
 30
0.0
 10
-23.2118303037789
 20
1.590131732581491
 30
0.0
 10
-23.18392570516047
 20
1.557131523576121
 30
0.0
 10
-23.14959475807855
 20
1.528081641635717
 30
0.0
 10
-23.11167107026479
 20
1.505510597687604
 30
0.0
 10
-23.07379271984222
 20
1.482966537197802
 30
0.0
 10
-23.03128353775223
 20
1.466269635561298
 30
0.0
 10
-22.98767140050115
 20
1.456875664508019
 30
0.0
 10
-22.9588251850716
 20
1.45066224480832
 30
0.0
 10
-22.92906896443694
 20
1.447498577639219
 30
0.0
 10
-22.89949377501298
 20
1.44749857763922
 30
0.0
  0
LINE
  5
106
330
1F
100
AcDbEntity
  8
SK1
  6
Continuous
100
AcDbLine
 10
-21.9248070233
 20
5.3108176866
 30
0.0
 11
3.0473721046
 21
6.6543942125
 31
0.0
  0
LINE
  5
107
330
1F
100
AcDbEntity
  8
SK3
100
AcDbLine
 10
-22.899493775
 20
2.1866022036
 30
0.0
 11
12.26
 21
2.1866022036
 31
0.0
  0
ELLIPSE
  5
108
330
1F
100
AcDbEntity
  8
SK1
  6
Continuous
100
AcDbEllipse
 10
51.5492454659
 20
0.3695519129
 30
0.0
 11
-74.59999999705401
 21
-1.525417914697947E-10
 31
0.0
210
0.0
220
0.0
230
1.0
 40
0.3826834324
 41
-0.1739612070852203
 42
-0.1503892267803302
  0
ELLIPSE
  5
109
330
1F
100
AcDbEntity
  8
SK1
  6
Continuous
100
AcDbEllipse
 10
-76.7144558313
 20
0.2828428121
 30
0.0
 11
74.60000000111584
 21
2.234303482906123E-10
 31
0.0
210
0.0
220
0.0
230
1.0
 40
0.7071067812
 41
0.1987271285417504
 42
0.2088808538858362
  0
SPLINE
  5
10A
330
1F
100
AcDbEntity
  8
SK3
100
AcDbSpline
210
0.0
220
0.0
230
1.0
 70
     8
 71
     3
 72
    35
 73
    31
 74
     0
 42
0.0000000092156484
 43
0.0000000001
 12
1.0
 22
0.0
 32
0.0
 13
1.0
 23
0.0
 33
0.0
 40
0.0
 40
0.0
 40
0.0
 40
0.0
 40
0.1072377967045586
 40
0.1072377967045586
 40
0.1072377967045586
 40
0.2144822968335491
 40
0.2144822968335491
 40
0.2144822968335491
 40
0.3216608953812189
 40
0.3216608953812189
 40
0.3216608953812189
 40
0.4290140034499447
 40
0.4290140034499447
 40
0.4290140034499447
 40
0.4999957197990593
 40
0.4999957197990593
 40
0.4999957197990593
 40
0.6074278370832104
 40
0.6074278370832104
 40
0.6074278370832104
 40
0.7148591831698192
 40
0.7148591831698192
 40
0.7148591831698192
 40
0.8222940863143595
 40
0.8222940863143595
 40
0.8222940863143595
 40
0.9295996384881929
 40
0.9295996384881929
 40
0.9295996384881929
 40
1.0
 40
1.0
 40
1.0
 40
1.0
 10
-2.265716586331415
 20
3.074628533858626
 30
0.0
 10
-2.221028895501312
 20
3.074628533858626
 30
0.0
 10
-2.175723405925262
 20
3.080522456486888
 30
0.0
 10
-2.133552904000047
 20
3.091773683023722
 30
0.0
 10
-2.091380447241378
 20
3.103025431116454
 30
0.0
 10
-2.051182582414102
 20
3.11993868671526
 30
0.0
 10
-2.016285212013585
 20
3.140932028096426
 30
0.0
 10
-1.981407556190099
 20
3.161913509705895
 30
0.0
 10
-1.950861966638832
 20
3.187536612660792
 30
0.0
 10
-1.927151190760363
 20
3.215470517346059
 30
0.0
 10
-1.903402574058862
 20
3.24344900268736
 30
0.0
 10
-1.885855217384749
 20
3.274507296287016
 30
0.0
 10
-1.875945827487572
 20
3.305924528802823
 30
0.0
 10
-1.869341251243301
 20
3.326864012432761
 30
0.0
 10
-1.865977054732918
 20
3.348280629716136
 30
0.0
 10
-1.865977054732918
 20
3.3693639121246
 30
0.0
 10
-1.865977054732918
 20
3.401019395386827
 30
0.0
 10
-1.873679242097885
 20
3.432640796240208
 30
0.0
 10
-1.888451938846259
 20
3.461681299537953
 30
0.0
 10
-1.903224564236325
 20
3.490721662557915
 30
0.0
 10
-1.925475697954285
 20
3.517988937069292
 30
0.0
 10
-1.953380057565469
 20
3.541410315021818
 30
0.0
 10
-1.981284656183904
 20
3.564831893583827
 30
0.0
 10
-2.01561560326582
 20
3.585064260162299
 30
0.0
 10
-2.053539291079583
 20
3.600646061781608
 30
0.0
 10
-2.091417641502153
 20
3.616209235512221
 30
0.0
 10
-2.133926823592156
 20
3.627571484399855
 30
0.0
 10
-2.177538960843242
 20
3.633953391698835
 30
0.0
 10
-2.206385176272793
 20
3.638174553155286
 30
0.0
 10
-2.236141396907453
 20
3.640313958807864
 30
0.0
 10
-2.265716586331415
 20
3.640313958807864
 30
0.0
  0
SPLINE
  5
10B
330
1F
100
AcDbEntity
  8
SK1
  6
Continuous
100
AcDbSpline
210
0.0
220
0.0
230
1.0
 70
     8
 71
     3
 72
    35
 73
    31
 74
     0
 42
0.0000000092457244
 43
0.0000000001
 12
1.0
 22
0.0
 32
0.0
 13
1.0
 23
0.0
 33
0.0
 40
0.0
 40
0.0
 40
0.0
 40
0.0
 40
0.1076873144994245
 40
0.1076873144994245
 40
0.1076873144994245
 40
0.2153859646719072
 40
0.2153859646719072
 40
0.2153859646719072
 40
0.3229211770831074
 40
0.3229211770831074
 40
0.3229211770831074
 40
0.4302974370948164
 40
0.4302974370948164
 40
0.4302974370948164
 40
0.5000063759059464
 40
0.5000063759059464
 40
0.5000063759059464
 40
0.6072943446396721
 40
0.6072943446396721
 40
0.6072943446396721
 40
0.7145807350372961
 40
0.7145807350372961
 40
0.7145807350372961
 40
0.8218927724991485
 40
0.8218927724991485
 40
0.8218927724991485
 40
0.9292995131762495
 40
0.9292995131762495
 40
0.9292995131762495
 40
1.0
 40
1.0
 40
1.0
 40
1.0
 10
-3.735991324228686
 20
11.22139203854112
 30
0.0
 10
-3.691530379694805
 20
11.22581192744153
 30
0.0
 10
-3.646483917844948
 20
11.22496462470737
 30
0.0
 10
-3.604576299425224
 20
11.21888652697288
 30
0.0
 10
-3.562666046493904
 20
11.21280804714035
 30
0.0
 10
-3.522738413628794
 20
11.20132685630281
 30
0.0
 10
-3.488104890182381
 20
11.18533057995861
 30
0.0
 10
-3.453523374075158
 20
11.16935832438063
 30
0.0
 10
-3.423264198386323
 20
11.14843983019727
 30
0.0
 10
-3.399831878258362
 20
11.12424261834114
 30
0.0
 10
-3.376433513497204
 20
11.10008047024309
 30
0.0
 10
-3.359195250862043
 20
11.0719793100376
 30
0.0
 10
-3.349538750649154
 20
11.04222256540185
 30
0.0
 10
-3.343217909000769
 20
11.02274473527008
 30
0.0
 10
-3.34000000000001
 20
11.00227923123484
 30
0.0
 10
-3.34000000000001
 20
10.98155808631215
 30
0.0
 10
-3.340000000000011
 20
10.94992730589487
 30
0.0
 10
-3.347618441149183
 20
10.916959069162
 30
0.0
 10
-3.362228347635148
 20
10.88540535972544
 30
0.0
 10
-3.376838136566966
 20
10.85385190417615
 30
0.0
 10
-3.398842476522121
 20
10.82284497585948
 30
0.0
 10
-3.426428906884963
 20
10.79500489239855
 30
0.0
 10
-3.454022215765146
 20
10.76715786717334
 30
0.0
 10
-3.487960741558207
 20
10.7417152247803
 30
0.0
 10
-3.525446613183319
 20
10.72083997446527
 30
0.0
 10
-3.562965835685896
 20
10.69994615160851
 30
0.0
 10
-3.605070934506647
 20
10.68305527562237
 30
0.0
 10
-3.648290735418414
 20
10.67159765123847
 30
0.0
 10
-3.676969597923109
 20
10.66399484818514
 30
0.0
 10
-3.706564389521207
 20
10.65863196264711
 30
0.0
 10
-3.735991324228714
 20
10.65570661359188
 30
0.0
  0
LINE
  5
10C
330
1F
100
AcDbEntity
  8
SK1
  6
Continuous
100
AcDbLine
 10
3.0473721046
 20
16.4279549475
 30
0.0
 11
-3.34
 21
15.5302683403
 31
0.0
  0
LINE
  5
10D
330
1F
100
AcDbEntity
  8
SK1
  6
Continuous
100
AcDbLine
 10
-3.34
 20
-15.5302681408
 30
0.0
 11
3.0473721046
 21
-16.4279547479
 31
0.0
  0
LINE
  5
10E
330
1F
100
AcDbEntity
  8
SK3
100
AcDbLine
 10
-1.8659770547
 20
-4.7649999002
 30
0.0
 11
12.26
 21
-4.7649999002
 31
0.0
  0
LINE
  5
10F
330
1F
100
AcDbEntity
  8
SK3
100
AcDbLine
 10
12.26
 20
4.7650000998
 30
0.0
 11
-1.8659770547
 21
4.7650000998
 31
0.0
  0
LINE
  5
110
330
1F
100
AcDbEntity
  8
SK1
  6
Continuous
100
AcDbLine
 10
7.16
 20
-16.4999999002
 30
0.0
 11
7.4631088913
 21
-16.4999999002
 31
0.0
  0
ARC
  5
111
330
1F
100
AcDbEntity
  8
SK3
100
AcDbCircle
 10
12.26
 20
-5.1649999002
 30
0.0
 40
0.3999999999999998
100
AcDbArc
 50
0.0
 51
90.0
  0
ARC
  5
112
330
1F
100
AcDbEntity
  8
SK1
  6
Continuous
100
AcDbCircle
 10
12.41
 20
-13.3552358524
 30
0.0
 40
0.2500000000000023
100
AcDbArc
 50
300.0
 51
0.0
  0
ARC
  5
113
330
1F
100
AcDbEntity
  8
SK1
  6
Continuous
100
AcDbCircle
 10
3.11
 20
-15.982334117
 30
0.0
 40
0.4500000000000015
100
AcDbArc
 50
262.0
 51
0.0
  0
ARC
  5
114
330
1F
100
AcDbEntity
  8
SK1
  6
Continuous
100
AcDbCircle
 10
6.96
 20
-14.7999999002
 30
0.0
 40
0.199999999999999
100
AcDbArc
 50
0.0
 51
90.0
  0
ARC
  5
115
330
1F
100
AcDbEntity
  8
SK1
  6
Continuous
100
AcDbCircle
 10
3.76
 20
-14.7999999002
 30
0.0
 40
0.1999999999999994
100
AcDbArc
 50
90.0
 51
180.0
  0
LINE
  5
116
330
1F
100
AcDbEntity
  8
SK1
  6
Continuous
100
AcDbLine
 10
3.76
 20
-14.5999999002
 30
0.0
 11
6.96
 21
-14.5999999002
 31
0.0
  0
LINE
  5
117
330
1F
100
AcDbEntity
  8
SK1
  6
Continuous
100
AcDbLine
 10
7.4631088913
 20
-16.4999999002
 30
0.0
 11
12.535
 21
-13.5717422033
 31
0.0
  0
LINE
  5
118
330
1F
100
AcDbEntity
  8
SK1
  6
Continuous
100
AcDbLine
 10
7.4631088913
 20
16.5000000998
 30
0.0
 11
7.16
 21
16.5000000998
 31
0.0
  0
ARC
  5
119
330
1F
100
AcDbEntity
  8
SK3
100
AcDbCircle
 10
12.26
 20
5.1650000998
 30
0.0
 40
0.3999999999999976
100
AcDbArc
 50
270.0
 51
0.0
  0
ARC
  5
11A
330
1F
100
AcDbEntity
  8
SK1
  6
Continuous
100
AcDbCircle
 10
12.41
 20
13.3552360519
 30
0.0
 40
0.2500000000000002
100
AcDbArc
 50
0.0
 51
60.0
  0
ARC
  5
11B
330
1F
100
AcDbEntity
  8
SK1
  6
Continuous
100
AcDbCircle
 10
3.11
 20
15.9823343165
 30
0.0
 40
0.45
100
AcDbArc
 50
0.0
 51
98.0
  0
ARC
  5
11C
330
1F
100
AcDbEntity
  8
SK1
  6
Continuous
100
AcDbCircle
 10
6.96
 20
14.8000000998
 30
0.0
 40
0.1999999999999997
100
AcDbArc
 50
270.0
 51
0.0
  0
ARC
  5
11D
330
1F
100
AcDbEntity
  8
SK1
  6
Continuous
100
AcDbCircle
 10
3.76
 20
14.8000000998
 30
0.0
 40
0.199999999999999
100
AcDbArc
 50
180.0
 51
270.0
  0
LINE
  5
11E
330
1F
100
AcDbEntity
  8
SK1
  6
Continuous
100
AcDbLine
 10
6.96
 20
14.6000000998
 30
0.0
 11
3.76
 21
14.6000000998
 31
0.0
  0
LINE
  5
11F
330
1F
100
AcDbEntity
  8
SK1
  6
Continuous
100
AcDbLine
 10
12.535
 20
13.5717424029
 30
0.0
 11
7.4631088913
 21
16.5000000998
 31
0.0
  0
ARC
  5
120
330
1F
100
AcDbEntity
  8
SK3
100
AcDbCircle
 10
40.6617019136
 20
0.0018619829
 30
0.0
 40
64.11217487167558
100
AcDbArc
 50
169.3113539219
 51
176.0607565808
  0
ARC
  5
121
330
1F
100
AcDbEntity
  8
SK3
100
AcDbCircle
 10
-76.7144558302
 20
0.0000000998
 30
0.0
 40
75.00000000000001
100
AcDbArc
 50
348.0492930629
 51
356.3573556272
  0
ARC
  5
122
330
1F
100
AcDbEntity
  8
SK3
100
AcDbCircle
 10
-76.7144558302
 20
0.0000000998
 30
0.0
 40
75.00000000000001
100
AcDbArc
 50
3.6426454158
 51
11.9507057705
  0
ARC
  5
123
330
1F
100
AcDbEntity
  8
SK3
100
AcDbCircle
 10
40.7644462005
 20
0.0055291159
 30
0.0
 40
64.21502964286324
100
AcDbArc
 50
183.9395222303
 51
190.6776168349
  0
ARC
  5
124
330
1F
100
AcDbEntity
  8
SK3
100
AcDbCircle
 10
-40.3920981667
 20
0.1026585729
 30
0.0
 40
38.68245753921953
100
AcDbArc
 50
343.2615112302
 51
354.823840367
  0
ARC
  5
125
330
1F
100
AcDbEntity
  8
SK3
100
AcDbCircle
 10
-10.7784415913
 20
0.2511857204
 30
0.0
 40
12.69597408227333
100
AcDbArc
 50
189.6605279271
 51
204.7526179051
  0
ARC
  5
126
330
1F
100
AcDbEntity
  8
SK3
100
AcDbCircle
 10
-10.7942204823
 20
-0.2483873287
 30
0.0
 40
12.68008345891937
100
AcDbArc
 50
155.229459087
 51
170.3399908103
  0
ARC
  5
127
330
1F
100
AcDbEntity
  8
SK3
100
AcDbCircle
 10
-40.3979369963
 20
-0.1072021838
 30
0.0
 40
38.68897626528172
100
AcDbArc
 50
5.1820387907
 51
16.7423173618
  0
LINE
  5
128
330
1F
100
AcDbEntity
  8
SK1
  6
Continuous
100
AcDbLine
 10
0.0
 20
15.9996747282
 30
0.0
 11
0.0
 21
-15.9996745287
 31
0.0
  0
LINE
  5
12A
330
1F
100
AcDbEntity
  8
SK4
  6
Continuous
100
AcDbLine
 10
12.66
 20
0.0000000998
 30
0.0
 11
-27.34
 21
0.0000000998
 31
0.0
  0
DIMENSION
  5
140
330
1F
100
AcDbEntity
  8
SK2
  6
Continuous
 62
   136
100
AcDbDimension
  2
DMBLK57
 10
12.66
 20
25.5420969631
 30
0.0
 11
-7.340000447
 21
25.5420969631
 31
0.0
 70
   160
  1
\A1;<>
 71
     5
 42
-1.0
  3
DIN
100
AcDbAlignedDimension
 13
-27.34
 23
8.6901837792
 33
0.0
 14
12.66
 24
12.180020447
 34
0.0
100
AcDbRotatedDimension
  0
INSERT
  5
154
330
1F
100
AcDbEntity
  8
SK2
 62
     7
100
AcDbBlockReference
  2
Nullpunkt
 10
0.0
 20
0.0000000998
 30
0.0
  0
INSERT
  5
15F
330
1F
100
AcDbEntity
  8
SK2
 62
     7
100
AcDbBlockReference
  2
Einfügepunkt
 10
12.66
 20
0.0000000998
 30
0.0
  0
DIMENSION
  5
160
330
1F
100
AcDbEntity
  8
SK2
  6
Continuous
 62
   136
100
AcDbDimension
  2
DMBLK58
 10
23.1880869365
 20
-4.7649999002
 30
0.0
 11
23.1880869365
 21
10.0000000706
 31
0.0
 70
   161
  1
\A1;ø <>
 71
     5
 42
-1.0
  3
DIN
100
AcDbAlignedDimension
 13
12.26
 23
-4.7649999002
 33
0.0
 14
12.26
 24
4.7650000998
 34
0.0
  0
DIMENSION
  5
16B
330
1F
100
AcDbEntity
  8
SK2
  6
Continuous
 62
   136
100
AcDbDimension
  2
DMBLK59
 10
12.66
 20
-24.8796536697
 30
0.0
 11
6.329999771
 21
-24.8796536697
 31
0.0
 70
   160
  1
\A1;<>
 71
     5
 42
-1.0
  3
DIN
100
AcDbAlignedDimension
 13
0.0
 23
-15.9996745287
 33
0.0
 14
12.66
 24
-12.4861669934
 34
0.0
100
AcDbRotatedDimension
  0
DIMENSION
  5
175
330
1F
100
AcDbEntity
  8
SK2
  6
Continuous
 62
   136
100
AcDbDimension
  2
DMBLK60
 10
-34.8561070859
 20
15.9996747282
 30
0.0
 11
-34.8561070859
 21
-0.0000000688
 31
0.0
 70
   161
  1
\A1;ø <>
 71
     5
 42
-1.0
  3
DIN
100
AcDbAlignedDimension
 13
0.0
 23
15.9996747282
 33
0.0
 14
0.0
 24
-15.9996745287
 34
0.0
  0
ENDSEC
  0
SECTION
  2
OBJECTS
  0
DICTIONARY
  5
C
330
0
100
AcDbDictionary
281
     1
  3
ACAD_GROUP
350
D
  3
ACAD_LAYOUT
350
1A
  3
ACAD_MATERIAL
350
3B
  3
ACAD_MLEADERSTYLE
350
182
  3
ACAD_MLINESTYLE
350
17
  3
ACAD_PLOTSETTINGS
350
19
  3
ACAD_PLOTSTYLENAME
350
E
  3
ACAD_VISUALSTYLE
350
2A
  3
AcDbVariableDictionary
350
180
  0
DICTIONARY
  5
D
102
{ACAD_REACTORS
330
C
102
}
330
C
100
AcDbDictionary
281
     1
  0
DICTIONARY
  5
1A
102
{ACAD_REACTORS
330
C
102
}
330
C
100
AcDbDictionary
281
     1
  3
Layout1
350
1E
  3
Model
350
22
  0
DICTIONARY
  5
3B
102
{ACAD_REACTORS
330
C
102
}
330
C
100
AcDbDictionary
281
     1
  3
ByBlock
350
3D
  3
ByLayer
350
3C
  3
Global
350
3E
  0
DICTIONARY
  5
182
102
{ACAD_REACTORS
330
C
102
}
330
C
100
AcDbDictionary
281
     1
  0
DICTIONARY
  5
17
102
{ACAD_REACTORS
330
C
102
}
330
C
100
AcDbDictionary
281
     1
  3
Standard
350
18
  0
DICTIONARY
  5
19
102
{ACAD_REACTORS
330
C
102
}
330
C
100
AcDbDictionary
281
     1
  0
ACDBDICTIONARYWDFLT
  5
E
102
{ACAD_REACTORS
330
C
102
}
330
C
100
AcDbDictionary
281
     1
  3
Normal
350
F
100
AcDbDictionaryWithDefault
340
F
  0
DICTIONARY
  5
2A
102
{ACAD_REACTORS
330
C
102
}
330
C
100
AcDbDictionary
281
     1
  3
2dWireframe
350
2F
  3
3D Hidden
350
31
  3
3dWireframe
350
30
  3
Basic
350
32
  3
Brighten
350
36
  3
ColorChange
350
3A
  3
Conceptual
350
34
  3
Dim
350
35
  3
Facepattern
350
39
  3
Flat
350
2B
  3
FlatWithEdges
350
2C
  3
Gouraud
350
2D
  3
GouraudWithEdges
350
2E
  3
Linepattern
350
38
  3
Realistic
350
33
  3
Thicken
350
37
  0
DICTIONARY
  5
180
102
{ACAD_REACTORS
330
C
102
}
330
C
100
AcDbDictionary
281
     1
  3
DIMASSOC
350
185
  3
HIDETEXT
350
186
  3
PSOLHEIGHT
350
184
  3
PSOLWIDTH
350
183
  0
LAYOUT
  5
1E
102
{ACAD_REACTORS
330
1A
102
}
330
1A
100
AcDbPlotSettings
  1

  2
none_device
  4

  6

 40
0.0
 41
0.0
 42
0.0
 43
0.0
 44
0.0
 45
0.0
 46
0.0
 47
0.0
 48
0.0
 49
0.0
140
0.0
141
0.0
142
1.0
143
1.0
 70
   688
 72
     0
 73
     0
 74
     5
  7

 75
    16
147
1.0
148
0.0
149
0.0
100
AcDbLayout
  1
Layout1
 70
     1
 71
     1
 10
0.0
 20
0.0
 11
210.0
 21
297.0
 12
0.0
 22
0.0
 32
0.0
 14
0.0
 24
0.0
 34
0.0
 15
210.0
 25
297.0
 35
0.0
146
0.0
 13
0.0
 23
0.0
 33
0.0
 16
1.0
 26
0.0
 36
0.0
 17
0.0
 27
1.0
 37
0.0
 76
     0
330
1B
  0
LAYOUT
  5
22
102
{ACAD_REACTORS
330
1A
102
}
330
1A
100
AcDbPlotSettings
  1

  2
none_device
  4

  6

 40
0.0
 41
0.0
 42
0.0
 43
0.0
 44
0.0
 45
0.0
 46
0.0
 47
0.0
 48
0.0
 49
0.0
140
0.0
141
0.0
142
1.0
143
1.0
 70
  1712
 72
     0
 73
     0
 74
     0
  7

 75
     0
147
1.0
148
0.0
149
0.0
100
AcDbLayout
  1
Model
 70
     1
 71
     0
 10
0.0
 20
0.0
 11
210.0
 21
297.0
 12
0.0
 22
0.0
 32
0.0
 14
0.0
 24
0.0
 34
0.0
 15
210.0
 25
297.0
 35
0.0
146
0.0
 13
0.0
 23
0.0
 33
0.0
 16
1.0
 26
0.0
 36
0.0
 17
0.0
 27
1.0
 37
0.0
 76
     0
330
1F
331
29
  0
MATERIAL
  5
3D
102
{ACAD_REACTORS
330
3B
102
}
102
{ACAD_XDICTIONARY
360
1A9
102
}
330
3B
100
AcDbMaterial
  1
ByBlock
  0
MATERIAL
  5
3C
102
{ACAD_REACTORS
330
3B
102
}
102
{ACAD_XDICTIONARY
360
1A7
102
}
330
3B
100
AcDbMaterial
  1
ByLayer
  0
MATERIAL
  5
3E
102
{ACAD_REACTORS
330
3B
102
}
102
{ACAD_XDICTIONARY
360
1AB
102
}
330
3B
100
AcDbMaterial
  1
Global
  0
MLINESTYLE
  5
18
102
{ACAD_REACTORS
330
17
102
}
330
17
100
AcDbMlineStyle
  2
Standard
 70
     0
  3

 62
   256
 51
90.0
 52
90.0
 71
     2
 49
0.5
 62
   256
  6
BYLAYER
 49
-0.5
 62
   256
  6
BYLAYER
  0
ACDBPLACEHOLDER
  5
F
102
{ACAD_REACTORS
330
E
102
}
330
E
  0
VISUALSTYLE
  5
2F
102
{ACAD_REACTORS
330
2A
102
}
102
{ACAD_XDICTIONARY
360
18F
102
}
330
2A
100
AcDbVisualStyle
  2
2dWireframe
 70
     4
 71
     0
 72
     2
 73
     0
 90
        0
 40
-0.6
 41
-30.0
 62
     5
 63
     7
 74
     1
 91
        4
 64
     7
 65
   257
 75
     1
175
     1
 42
1.0
 92
        0
 66
   257
 43
1.0
 76
     1
 77
     6
 78
     2
 67
     7
 79
     5
170
     0
171
     0
290
     0
174
     0
 93
        1
 44
0.0
173
     0
291
     0
 45
0.0
1001
ACAD
1000
AcDbSavedByObjectVersion
1070
     0
  0
VISUALSTYLE
  5
31
102
{ACAD_REACTORS
330
2A
102
}
102
{ACAD_XDICTIONARY
360
193
102
}
330
2A
100
AcDbVisualStyle
  2
3D Hidden
 70
     6
 71
     1
 72
     2
 73
     2
 90
        0
 40
-0.6
 41
-30.0
 62
     5
 63
     7
 74
     2
 91
        2
 64
     7
 65
   257
 75
     2
175
     1
 42
40.0
 92
        0
 66
   257
 43
1.0
 76
     1
 77
     6
 78
     2
 67
     7
 79
     3
170
     0
171
     0
290
     0
174
     0
 93
        1
 44
0.0
173
     0
291
     0
 45
0.0
1001
ACAD
1000
AcDbSavedByObjectVersion
1070
     0
  0
VISUALSTYLE
  5
30
102
{ACAD_REACTORS
330
2A
102
}
102
{ACAD_XDICTIONARY
360
191
102
}
330
2A
100
AcDbVisualStyle
  2
3dWireframe
 70
     5
 71
     0
 72
     2
 73
     0
 90
        0
 40
-0.6
 41
-30.0
 62
     5
 63
     7
 74
     1
 91
        4
 64
     7
 65
   257
 75
     1
175
     1
 42
1.0
 92
        0
 66
   257
 43
1.0
 76
     1
 77
     6
 78
     2
 67
     7
 79
     5
170
     0
171
     0
290
     0
174
     0
 93
        1
 44
0.0
173
     0
291
     0
 45
0.0
1001
ACAD
1000
AcDbSavedByObjectVersion
1070
     0
  0
VISUALSTYLE
  5
32
102
{ACAD_REACTORS
330
2A
102
}
102
{ACAD_XDICTIONARY
360
195
102
}
330
2A
100
AcDbVisualStyle
  2
Basic
 70
     7
 71
     1
 72
     0
 73
     1
 90
        0
 40
-0.6
 41
-30.0
 62
     5
 63
     7
 74
     0
 91
        4
 64
     7
 65
   257
 75
     1
175
     1
 42
1.0
 92
        8
 66
     7
 43
1.0
 76
     1
 77
     6
 78
     2
 67
     7
 79
     5
170
     0
171
     0
290
     0
174
     0
 93
        1
 44
0.0
173
     0
291
     1
 45
0.0
1001
ACAD
1000
AcDbSavedByObjectVersion
1070
     0
  0
VISUALSTYLE
  5
36
102
{ACAD_REACTORS
330
2A
102
}
102
{ACAD_XDICTIONARY
360
19D
102
}
330
2A
100
AcDbVisualStyle
  2
Brighten
 70
    12
 71
     2
 72
     2
 73
     0
 90
        0
 40
-0.6
 41
-30.0
 62
     5
 63
     7
 74
     1
 91
        4
 64
     7
 65
   257
 75
     1
175
     1
 42
1.0
 92
        8
 66
     7
 43
1.0
 76
     1
 77
     6
 78
     2
 67
     7
 79
     5
170
     0
171
     0
290
     0
174
     0
 93
        1
 44
50.0
173
     0
291
     1
 45
0.0
1001
ACAD
1000
AcDbSavedByObjectVersion
1070
     0
  0
VISUALSTYLE
  5
3A
102
{ACAD_REACTORS
330
2A
102
}
102
{ACAD_XDICTIONARY
360
1A5
102
}
330
2A
100
AcDbVisualStyle
  2
ColorChange
 70
    16
 71
     2
 72
     2
 73
     3
 90
        0
 40
-0.6
 41
-30.0
 62
     5
 63
     8
 74
     1
 91
        4
 64
     7
 65
   257
 75
     1
175
     1
 42
1.0
 92
        8
 66
     8
 43
1.0
 76
     1
 77
     6
 78
     2
 67
     7
 79
     5
170
     0
171
     0
290
     0
174
     0
 93
        1
 44
0.0
173
     0
291
     1
 45
0.0
1001
ACAD
1000
AcDbSavedByObjectVersion
1070
     0
  0
VISUALSTYLE
  5
34
102
{ACAD_REACTORS
330
2A
102
}
102
{ACAD_XDICTIONARY
360
199
102
}
330
2A
100
AcDbVisualStyle
  2
Conceptual
 70
     9
 71
     3
 72
     2
 73
     0
 90
        0
 40
-0.6
 41
-30.0
 62
     5
 63
     7
 74
     2
 91
        2
 64
     7
 65
   257
 75
     1
175
     1
 42
40.0
 92
        8
 66
     7
 43
1.0
 76
     1
 77
     6
 78
     2
 67
     7
 79
     3
170
     0
171
     0
290
     0
174
     0
 93
        1
 44
0.0
173
     0
291
     0
 45
0.0
1001
ACAD
1000
AcDbSavedByObjectVersion
1070
     0
  0
VISUALSTYLE
  5
35
102
{ACAD_REACTORS
330
2A
102
}
102
{ACAD_XDICTIONARY
360
19B
102
}
330
2A
100
AcDbVisualStyle
  2
Dim
 70
    11
 71
     2
 72
     2
 73
     0
 90
        0
 40
-0.6
 41
-30.0
 62
     5
 63
     7
 74
     1
 91
        4
 64
     7
 65
   257
 75
     1
175
     1
 42
1.0
 92
        8
 66
     7
 43
1.0
 76
     1
 77
     6
 78
     2
 67
     7
 79
     5
170
     0
171
     0
290
     0
174
     0
 93
        1
 44
-50.0
173
     0
291
     1
 45
0.0
1001
ACAD
1000
AcDbSavedByObjectVersion
1070
     0
  0
VISUALSTYLE
  5
39
102
{ACAD_REACTORS
330
2A
102
}
102
{ACAD_XDICTIONARY
360
1A3
102
}
330
2A
100
AcDbVisualStyle
  2
Facepattern
 70
    15
 71
     2
 72
     2
 73
     0
 90
        0
 40
-0.6
 41
-30.0
 62
     5
 63
     7
 74
     1
 91
        4
 64
     7
 65
   257
 75
     1
175
     1
 42
1.0
 92
        8
 66
     7
 43
1.0
 76
     1
 77
     6
 78
     2
 67
     7
 79
     5
170
     0
171
     0
290
     0
174
     0
 93
        1
 44
0.0
173
     0
291
     1
 45
0.0
1001
ACAD
1000
AcDbSavedByObjectVersion
1070
     0
  0
VISUALSTYLE
  5
2B
102
{ACAD_REACTORS
330
2A
102
}
102
{ACAD_XDICTIONARY
360
187
102
}
330
2A
100
AcDbVisualStyle
  2
Flat
 70
     0
 71
     2
 72
     1
 73
     1
 90
        2
 40
-0.6
 41
30.0
 62
     5
 63
     7
 74
     0
 91
        4
 64
     7
 65
   257
 75
     1
175
     1
 42
1.0
 92
        8
 66
     7
 43
1.0
 76
     1
 77
     6
 78
     2
 67
     7
 79
     5
170
     0
171
     0
290
     0
174
     0
 93
       13
 44
0.0
173
     0
291
     1
 45
0.0
1001
ACAD
1000
AcDbSavedByObjectVersion
1070
     0
  0
VISUALSTYLE
  5
2C
102
{ACAD_REACTORS
330
2A
102
}
102
{ACAD_XDICTIONARY
360
189
102
}
330
2A
100
AcDbVisualStyle
  2
FlatWithEdges
 70
     1
 71
     2
 72
     1
 73
     1
 90
        2
 40
-0.6
 41
30.0
 62
     5
 63
     7
 74
     1
 91
        4
 64
     7
 65
   257
 75
     1
175
     1
 42
1.0
 92
        0
 66
   257
 43
1.0
 76
     1
 77
     6
 78
     2
 67
     7
 79
     5
170
     0
171
     0
290
     0
174
     0
 93
       13
 44
0.0
173
     0
291
     1
 45
0.0
1001
ACAD
1000
AcDbSavedByObjectVersion
1070
     0
  0
VISUALSTYLE
  5
2D
102
{ACAD_REACTORS
330
2A
102
}
102
{ACAD_XDICTIONARY
360
18B
102
}
330
2A
100
AcDbVisualStyle
  2
Gouraud
 70
     2
 71
     2
 72
     2
 73
     1
 90
        2
 40
-0.6
 41
30.0
 62
     5
 63
     7
 74
     0
 91
        4
 64
     7
 65
   257
 75
     1
175
     1
 42
1.0
 92
        0
 66
     7
 43
1.0
 76
     1
 77
     6
 78
     2
 67
     7
 79
     5
170
     0
171
     0
290
     0
174
     0
 93
       13
 44
0.0
173
     0
291
     1
 45
0.0
1001
ACAD
1000
AcDbSavedByObjectVersion
1070
     0
  0
VISUALSTYLE
  5
2E
102
{ACAD_REACTORS
330
2A
102
}
102
{ACAD_XDICTIONARY
360
18D
102
}
330
2A
100
AcDbVisualStyle
  2
GouraudWithEdges
 70
     3
 71
     2
 72
     2
 73
     1
 90
        2
 40
-0.6
 41
30.0
 62
     5
 63
     7
 74
     1
 91
        4
 64
     7
 65
   257
 75
     1
175
     1
 42
1.0
 92
        0
 66
   257
 43
1.0
 76
     1
 77
     6
 78
     2
 67
     7
 79
     5
170
     0
171
     0
290
     0
174
     0
 93
       13
 44
0.0
173
     0
291
     1
 45
0.0
1001
ACAD
1000
AcDbSavedByObjectVersion
1070
     0
  0
VISUALSTYLE
  5
38
102
{ACAD_REACTORS
330
2A
102
}
102
{ACAD_XDICTIONARY
360
1A1
102
}
330
2A
100
AcDbVisualStyle
  2
Linepattern
 70
    14
 71
     2
 72
     2
 73
     0
 90
        0
 40
-0.6
 41
-30.0
 62
     5
 63
     7
 74
     1
 91
        4
 64
     7
 65
   257
 75
     7
175
     7
 42
1.0
 92
        8
 66
     7
 43
1.0
 76
     1
 77
     6
 78
     2
 67
     7
 79
     5
170
     0
171
     0
290
     0
174
     0
 93
        1
 44
0.0
173
     0
291
     1
 45
0.0
1001
ACAD
1000
AcDbSavedByObjectVersion
1070
     0
  0
VISUALSTYLE
  5
33
102
{ACAD_REACTORS
330
2A
102
}
102
{ACAD_XDICTIONARY
360
197
102
}
330
2A
100
AcDbVisualStyle
  2
Realistic
 70
     8
 71
     2
 72
     2
 73
     0
 90
        0
 40
-0.6
 41
-30.0
 62
     5
 63
     7
 74
     1
 91
        0
 64
     7
 65
   257
 75
     1
175
     1
 42
1.0
 92
        8
 66
     8
 43
1.0
 76
     1
 77
     6
 78
     2
 67
     7
 79
     5
170
     0
171
     0
290
     0
174
     0
 93
       13
 44
0.0
173
     0
291
     0
 45
0.0
1001
ACAD
1000
AcDbSavedByObjectVersion
1070
     0
  0
VISUALSTYLE
  5
37
102
{ACAD_REACTORS
330
2A
102
}
102
{ACAD_XDICTIONARY
360
19F
102
}
330
2A
100
AcDbVisualStyle
  2
Thicken
 70
    13
 71
     2
 72
     2
 73
     0
 90
        0
 40
-0.6
 41
-30.0
 62
     5
 63
     7
 74
     1
 91
        4
 64
     7
 65
   257
 75
     1
175
     1
 42
1.0
 92
       12
 66
     7
 43
1.0
 76
     1
 77
     6
 78
     2
 67
     7
 79
     5
170
     0
171
     0
290
     0
174
     0
 93
        1
 44
0.0
173
     0
291
     1
 45
0.0
1001
ACAD
1000
AcDbSavedByObjectVersion
1070
     0
  0
DICTIONARYVAR
  5
185
102
{ACAD_REACTORS
330
180
102
}
330
180
100
DictionaryVariables
280
     0
  1
2
  0
DICTIONARYVAR
  5
186
102
{ACAD_REACTORS
330
180
102
}
330
180
100
DictionaryVariables
280
     0
  1
1
  0
DICTIONARYVAR
  5
184
102
{ACAD_REACTORS
330
180
102
}
330
180
100
DictionaryVariables
280
     0
  1
80.000000
  0
DICTIONARYVAR
  5
183
102
{ACAD_REACTORS
330
180
102
}
330
180
100
DictionaryVariables
280
     0
  1
5.000000
  0
DICTIONARY
  5
1A9
330
3D
100
AcDbDictionary
280
     1
281
     1
  3
ACAD_XREC_ROUNDTRIP
360
1AA
  0
DICTIONARY
  5
1A7
330
3C
100
AcDbDictionary
280
     1
281
     1
  3
ACAD_XREC_ROUNDTRIP
360
1A8
  0
DICTIONARY
  5
1AB
330
3E
100
AcDbDictionary
280
     1
281
     1
  3
ACAD_XREC_ROUNDTRIP
360
1AC
  0
DICTIONARY
  5
18F
330
2F
100
AcDbDictionary
280
     1
281
     1
  3
ACAD_XREC_ROUNDTRIP
360
190
  0
DICTIONARY
  5
193
330
31
100
AcDbDictionary
280
     1
281
     1
  3
ACAD_XREC_ROUNDTRIP
360
194
  0
DICTIONARY
  5
191
330
30
100
AcDbDictionary
280
     1
281
     1
  3
ACAD_XREC_ROUNDTRIP
360
192
  0
DICTIONARY
  5
195
330
32
100
AcDbDictionary
280
     1
281
     1
  3
ACAD_XREC_ROUNDTRIP
360
196
  0
DICTIONARY
  5
19D
330
36
100
AcDbDictionary
280
     1
281
     1
  3
ACAD_XREC_ROUNDTRIP
360
19E
  0
DICTIONARY
  5
1A5
330
3A
100
AcDbDictionary
280
     1
281
     1
  3
ACAD_XREC_ROUNDTRIP
360
1A6
  0
DICTIONARY
  5
199
330
34
100
AcDbDictionary
280
     1
281
     1
  3
ACAD_XREC_ROUNDTRIP
360
19A
  0
DICTIONARY
  5
19B
330
35
100
AcDbDictionary
280
     1
281
     1
  3
ACAD_XREC_ROUNDTRIP
360
19C
  0
DICTIONARY
  5
1A3
330
39
100
AcDbDictionary
280
     1
281
     1
  3
ACAD_XREC_ROUNDTRIP
360
1A4
  0
DICTIONARY
  5
187
330
2B
100
AcDbDictionary
280
     1
281
     1
  3
ACAD_XREC_ROUNDTRIP
360
188
  0
DICTIONARY
  5
189
330
2C
100
AcDbDictionary
280
     1
281
     1
  3
ACAD_XREC_ROUNDTRIP
360
18A
  0
DICTIONARY
  5
18B
330
2D
100
AcDbDictionary
280
     1
281
     1
  3
ACAD_XREC_ROUNDTRIP
360
18C
  0
DICTIONARY
  5
18D
330
2E
100
AcDbDictionary
280
     1
281
     1
  3
ACAD_XREC_ROUNDTRIP
360
18E
  0
DICTIONARY
  5
1A1
330
38
100
AcDbDictionary
280
     1
281
     1
  3
ACAD_XREC_ROUNDTRIP
360
1A2
  0
DICTIONARY
  5
197
330
33
100
AcDbDictionary
280
     1
281
     1
  3
ACAD_XREC_ROUNDTRIP
360
198
  0
DICTIONARY
  5
19F
330
37
100
AcDbDictionary
280
     1
281
     1
  3
ACAD_XREC_ROUNDTRIP
360
1A0
  0
XRECORD
  5
1AA
102
{ACAD_REACTORS
330
1A9
102
}
330
1A9
100
AcDbXrecord
280
     1
102
MATERIAL
148
0.0
149
0.0
149
0.0
 93
        0
 94
      127
282
     0
 72
     1
 77
     1
171
     1
175
     1
179
     1
273
     0
  0
XRECORD
  5
1A8
102
{ACAD_REACTORS
330
1A7
102
}
330
1A7
100
AcDbXrecord
280
     1
102
MATERIAL
148
0.0
149
0.0
149
0.0
 93
        0
 94
      127
282
     0
 72
     1
 77
     1
171
     1
175
     1
179
     1
273
     0
  0
XRECORD
  5
1AC
102
{ACAD_REACTORS
330
1AB
102
}
330
1AB
100
AcDbXrecord
280
     1
102
MATERIAL
148
0.0
149
0.0
149
0.0
 93
        0
 94
      127
282
     0
 72
     1
 77
     1
171
     1
175
     1
179
     1
273
     0
  0
XRECORD
  5
190
102
{ACAD_REACTORS
330
18F
102
}
330
18F
100
AcDbXrecord
280
     1
102
RTVSPropertyOp0
 70
     1
102
RTVSPropertyOp1
 70
     1
102
RTVSPropertyOp2
 70
     1
102
RTVSPropertyOp3
 70
     1
102
RTVSPropertyOp4
 70
     1
102
RTVSPropertyOp5
 70
     1
102
RTVSPropertyOp6
 70
     1
102
RTVSPropertyOp7
 70
     1
102
RTVSPropertyOp8
 70
     1
102
RTVSPropertyOp9
 70
     1
102
RTVSPropertyOp10
 70
     1
102
RTVSPropertyOp11
 70
     1
102
RTVSPropertyOp12
 70
     1
102
RTVSPropertyOp13
 70
     1
102
RTVSPropertyOp14
 70
     1
102
RTVSPropertyOp15
 70
     1
102
RTVSPropertyOp16
 70
     1
102
RTVSPropertyOp17
 70
     1
102
RTVSPropertyOp18
 70
     1
102
RTVSPropertyOp19
 70
     1
102
RTVSPropertyOp20
 70
     1
102
RTVSPropertyOp21
 70
     1
102
RTVSPropertyOp22
 70
     1
102
RTVSPropertyOp23
 70
     1
102
RTVSPropertyOp24
 70
     1
102
RTVSPropertyOp25
 70
     1
102
RTVSPropertyOp26
 70
     1
102
RTVSPropertyOp27
 70
     1
102
RTVSPropertyOp28
 70
     1
102
RTVSPropertyOp29
 70
     1
102
RTVSPropertyOp30
 70
     1
102
RTVSPropertyOp31
 70
     1
102
RTVSPropertyOp32
 70
     1
  0
XRECORD
  5
194
102
{ACAD_REACTORS
330
193
102
}
330
193
100
AcDbXrecord
280
     1
102
RTVSPropertyOp0
 70
     1
102
RTVSPropertyOp1
 70
     1
102
RTVSPropertyOp2
 70
     1
102
RTVSPropertyOp3
 70
     1
102
RTVSPropertyOp4
 70
     1
102
RTVSPropertyOp5
 70
     1
102
RTVSPropertyOp6
 70
     1
102
RTVSPropertyOp7
 70
     1
102
RTVSPropertyOp8
 70
     1
102
RTVSPropertyOp9
 70
     1
102
RTVSPropertyOp10
 70
     1
102
RTVSPropertyOp11
 70
     1
102
RTVSPropertyOp12
 70
     1
102
RTVSPropertyOp13
 70
     1
102
RTVSPropertyOp14
 70
     1
102
RTVSPropertyOp15
 70
     1
102
RTVSPropertyOp16
 70
     1
102
RTVSPropertyOp17
 70
     1
102
RTVSPropertyOp18
 70
     1
102
RTVSPropertyOp19
 70
     1
102
RTVSPropertyOp20
 70
     1
102
RTVSPropertyOp21
 70
     1
102
RTVSPropertyOp22
 70
     1
102
RTVSPropertyOp23
 70
     1
102
RTVSPropertyOp24
 70
     1
102
RTVSPropertyOp25
 70
     1
102
RTVSPropertyOp26
 70
     1
102
RTVSPropertyOp27
 70
     1
102
RTVSPropertyOp28
 70
     1
102
RTVSPropertyOp29
 70
     1
102
RTVSPropertyOp30
 70
     1
102
RTVSPropertyOp31
 70
     1
102
RTVSPropertyOp32
 70
     1
  0
XRECORD
  5
192
102
{ACAD_REACTORS
330
191
102
}
330
191
100
AcDbXrecord
280
     1
102
RTVSPropertyOp0
 70
     1
102
RTVSPropertyOp1
 70
     1
102
RTVSPropertyOp2
 70
     1
102
RTVSPropertyOp3
 70
     1
102
RTVSPropertyOp4
 70
     1
102
RTVSPropertyOp5
 70
     1
102
RTVSPropertyOp6
 70
     1
102
RTVSPropertyOp7
 70
     1
102
RTVSPropertyOp8
 70
     1
102
RTVSPropertyOp9
 70
     1
102
RTVSPropertyOp10
 70
     1
102
RTVSPropertyOp11
 70
     1
102
RTVSPropertyOp12
 70
     1
102
RTVSPropertyOp13
 70
     1
102
RTVSPropertyOp14
 70
     1
102
RTVSPropertyOp15
 70
     1
102
RTVSPropertyOp16
 70
     1
102
RTVSPropertyOp17
 70
     1
102
RTVSPropertyOp18
 70
     1
102
RTVSPropertyOp19
 70
     1
102
RTVSPropertyOp20
 70
     1
102
RTVSPropertyOp21
 70
     1
102
RTVSPropertyOp22
 70
     1
102
RTVSPropertyOp23
 70
     1
102
RTVSPropertyOp24
 70
     1
102
RTVSPropertyOp25
 70
     1
102
RTVSPropertyOp26
 70
     1
102
RTVSPropertyOp27
 70
     1
102
RTVSPropertyOp28
 70
     1
102
RTVSPropertyOp29
 70
     1
102
RTVSPropertyOp30
 70
     1
102
RTVSPropertyOp31
 70
     1
102
RTVSPropertyOp32
 70
     1
  0
XRECORD
  5
196
102
{ACAD_REACTORS
330
195
102
}
330
195
100
AcDbXrecord
280
     1
102
RTVSPropertyOp0
 70
     1
102
RTVSPropertyOp1
 70
     1
102
RTVSPropertyOp2
 70
     1
102
RTVSPropertyOp3
 70
     1
102
RTVSPropertyOp4
 70
     1
102
RTVSPropertyOp5
 70
     1
102
RTVSPropertyOp6
 70
     1
102
RTVSPropertyOp7
 70
     1
102
RTVSPropertyOp8
 70
     1
102
RTVSPropertyOp9
 70
     1
102
RTVSPropertyOp10
 70
     1
102
RTVSPropertyOp11
 70
     1
102
RTVSPropertyOp12
 70
     1
102
RTVSPropertyOp13
 70
     1
102
RTVSPropertyOp14
 70
     1
102
RTVSPropertyOp15
 70
     1
102
RTVSPropertyOp16
 70
     1
102
RTVSPropertyOp17
 70
     1
102
RTVSPropertyOp18
 70
     1
102
RTVSPropertyOp19
 70
     1
102
RTVSPropertyOp20
 70
     1
102
RTVSPropertyOp21
 70
     1
102
RTVSPropertyOp22
 70
     1
102
RTVSPropertyOp23
 70
     1
102
RTVSPropertyOp24
 70
     1
102
RTVSPropertyOp25
 70
     1
102
RTVSPropertyOp26
 70
     1
102
RTVSPropertyOp27
 70
     1
102
RTVSPropertyOp28
 70
     1
102
RTVSPropertyOp29
 70
     1
102
RTVSPropertyOp30
 70
     1
102
RTVSPropertyOp31
 70
     1
102
RTVSPropertyOp32
 70
     1
  0
XRECORD
  5
19E
102
{ACAD_REACTORS
330
19D
102
}
330
19D
100
AcDbXrecord
280
     1
102
RTVSPropertyOp0
 70
     1
102
RTVSPropertyOp1
 70
     1
102
RTVSPropertyOp2
 70
     1
102
RTVSPropertyOp3
 70
     1
102
RTVSPropertyOp4
 70
     1
102
RTVSPropertyOp5
 70
     1
102
RTVSPropertyOp6
 70
     1
102
RTVSPropertyOp7
 70
     1
102
RTVSPropertyOp8
 70
     1
102
RTVSPropertyOp9
 70
     1
102
RTVSPropertyOp10
 70
     1
102
RTVSPropertyOp11
 70
     1
102
RTVSPropertyOp12
 70
     1
102
RTVSPropertyOp13
 70
     1
102
RTVSPropertyOp14
 70
     1
102
RTVSPropertyOp15
 70
     1
102
RTVSPropertyOp16
 70
     1
102
RTVSPropertyOp17
 70
     1
102
RTVSPropertyOp18
 70
     1
102
RTVSPropertyOp19
 70
     1
102
RTVSPropertyOp20
 70
     1
102
RTVSPropertyOp21
 70
     1
102
RTVSPropertyOp22
 70
     1
102
RTVSPropertyOp23
 70
     1
102
RTVSPropertyOp24
 70
     1
102
RTVSPropertyOp25
 70
     1
102
RTVSPropertyOp26
 70
     1
102
RTVSPropertyOp27
 70
     1
102
RTVSPropertyOp28
 70
     1
102
RTVSPropertyOp29
 70
     1
102
RTVSPropertyOp30
 70
     1
102
RTVSPropertyOp31
 70
     1
102
RTVSPropertyOp32
 70
     1
  0
XRECORD
  5
1A6
102
{ACAD_REACTORS
330
1A5
102
}
330
1A5
100
AcDbXrecord
280
     1
102
RTVSPropertyOp0
 70
     1
102
RTVSPropertyOp1
 70
     1
102
RTVSPropertyOp2
 70
     1
102
RTVSPropertyOp3
 70
     1
102
RTVSPropertyOp4
 70
     1
102
RTVSPropertyOp5
 70
     1
102
RTVSPropertyOp6
 70
     1
102
RTVSPropertyOp7
 70
     1
102
RTVSPropertyOp8
 70
     1
102
RTVSPropertyOp9
 70
     1
102
RTVSPropertyOp10
 70
     1
102
RTVSPropertyOp11
 70
     1
102
RTVSPropertyOp12
 70
     1
102
RTVSPropertyOp13
 70
     1
102
RTVSPropertyOp14
 70
     1
102
RTVSPropertyOp15
 70
     1
102
RTVSPropertyOp16
 70
     1
102
RTVSPropertyOp17
 70
     1
102
RTVSPropertyOp18
 70
     1
102
RTVSPropertyOp19
 70
     1
102
RTVSPropertyOp20
 70
     1
102
RTVSPropertyOp21
 70
     1
102
RTVSPropertyOp22
 70
     1
102
RTVSPropertyOp23
 70
     1
102
RTVSPropertyOp24
 70
     1
102
RTVSPropertyOp25
 70
     1
102
RTVSPropertyOp26
 70
     1
102
RTVSPropertyOp27
 70
     1
102
RTVSPropertyOp28
 70
     1
102
RTVSPropertyOp29
 70
     1
102
RTVSPropertyOp30
 70
     1
102
RTVSPropertyOp31
 70
     1
102
RTVSPropertyOp32
 70
     1
  0
XRECORD
  5
19A
102
{ACAD_REACTORS
330
199
102
}
330
199
100
AcDbXrecord
280
     1
102
RTVSPropertyOp0
 70
     1
102
RTVSPropertyOp1
 70
     1
102
RTVSPropertyOp2
 70
     1
102
RTVSPropertyOp3
 70
     1
102
RTVSPropertyOp4
 70
     1
102
RTVSPropertyOp5
 70
     1
102
RTVSPropertyOp6
 70
     1
102
RTVSPropertyOp7
 70
     1
102
RTVSPropertyOp8
 70
     1
102
RTVSPropertyOp9
 70
     1
102
RTVSPropertyOp10
 70
     1
102
RTVSPropertyOp11
 70
     1
102
RTVSPropertyOp12
 70
     1
102
RTVSPropertyOp13
 70
     1
102
RTVSPropertyOp14
 70
     1
102
RTVSPropertyOp15
 70
     1
102
RTVSPropertyOp16
 70
     1
102
RTVSPropertyOp17
 70
     1
102
RTVSPropertyOp18
 70
     1
102
RTVSPropertyOp19
 70
     1
102
RTVSPropertyOp20
 70
     1
102
RTVSPropertyOp21
 70
     1
102
RTVSPropertyOp22
 70
     1
102
RTVSPropertyOp23
 70
     1
102
RTVSPropertyOp24
 70
     1
102
RTVSPropertyOp25
 70
     1
102
RTVSPropertyOp26
 70
     1
102
RTVSPropertyOp27
 70
     1
102
RTVSPropertyOp28
 70
     1
102
RTVSPropertyOp29
 70
     1
102
RTVSPropertyOp30
 70
     1
102
RTVSPropertyOp31
 70
     1
102
RTVSPropertyOp32
 70
     1
  0
XRECORD
  5
19C
102
{ACAD_REACTORS
330
19B
102
}
330
19B
100
AcDbXrecord
280
     1
102
RTVSPropertyOp0
 70
     1
102
RTVSPropertyOp1
 70
     1
102
RTVSPropertyOp2
 70
     1
102
RTVSPropertyOp3
 70
     1
102
RTVSPropertyOp4
 70
     1
102
RTVSPropertyOp5
 70
     1
102
RTVSPropertyOp6
 70
     1
102
RTVSPropertyOp7
 70
     1
102
RTVSPropertyOp8
 70
     1
102
RTVSPropertyOp9
 70
     1
102
RTVSPropertyOp10
 70
     1
102
RTVSPropertyOp11
 70
     1
102
RTVSPropertyOp12
 70
     1
102
RTVSPropertyOp13
 70
     1
102
RTVSPropertyOp14
 70
     1
102
RTVSPropertyOp15
 70
     1
102
RTVSPropertyOp16
 70
     1
102
RTVSPropertyOp17
 70
     1
102
RTVSPropertyOp18
 70
     1
102
RTVSPropertyOp19
 70
     1
102
RTVSPropertyOp20
 70
     1
102
RTVSPropertyOp21
 70
     1
102
RTVSPropertyOp22
 70
     1
102
RTVSPropertyOp23
 70
     1
102
RTVSPropertyOp24
 70
     1
102
RTVSPropertyOp25
 70
     1
102
RTVSPropertyOp26
 70
     1
102
RTVSPropertyOp27
 70
     1
102
RTVSPropertyOp28
 70
     1
102
RTVSPropertyOp29
 70
     1
102
RTVSPropertyOp30
 70
     1
102
RTVSPropertyOp31
 70
     1
102
RTVSPropertyOp32
 70
     1
  0
XRECORD
  5
1A4
102
{ACAD_REACTORS
330
1A3
102
}
330
1A3
100
AcDbXrecord
280
     1
102
RTVSPropertyOp0
 70
     1
102
RTVSPropertyOp1
 70
     1
102
RTVSPropertyOp2
 70
     1
102
RTVSPropertyOp3
 70
     1
102
RTVSPropertyOp4
 70
     1
102
RTVSPropertyOp5
 70
     1
102
RTVSPropertyOp6
 70
     1
102
RTVSPropertyOp7
 70
     1
102
RTVSPropertyOp8
 70
     1
102
RTVSPropertyOp9
 70
     1
102
RTVSPropertyOp10
 70
     1
102
RTVSPropertyOp11
 70
     1
102
RTVSPropertyOp12
 70
     1
102
RTVSPropertyOp13
 70
     1
102
RTVSPropertyOp14
 70
     1
102
RTVSPropertyOp15
 70
     1
102
RTVSPropertyOp16
 70
     1
102
RTVSPropertyOp17
 70
     1
102
RTVSPropertyOp18
 70
     1
102
RTVSPropertyOp19
 70
     1
102
RTVSPropertyOp20
 70
     1
102
RTVSPropertyOp21
 70
     1
102
RTVSPropertyOp22
 70
     1
102
RTVSPropertyOp23
 70
     1
102
RTVSPropertyOp24
 70
     1
102
RTVSPropertyOp25
 70
     1
102
RTVSPropertyOp26
 70
     1
102
RTVSPropertyOp27
 70
     1
102
RTVSPropertyOp28
 70
     1
102
RTVSPropertyOp29
 70
     1
102
RTVSPropertyOp30
 70
     1
102
RTVSPropertyOp31
 70
     1
102
RTVSPropertyOp32
 70
     1
  0
XRECORD
  5
188
102
{ACAD_REACTORS
330
187
102
}
330
187
100
AcDbXrecord
280
     1
102
RTVSPropertyOp0
 70
     1
102
RTVSPropertyOp1
 70
     1
102
RTVSPropertyOp2
 70
     1
102
RTVSPropertyOp3
 70
     1
102
RTVSPropertyOp4
 70
     1
102
RTVSPropertyOp5
 70
     1
102
RTVSPropertyOp6
 70
     1
102
RTVSPropertyOp7
 70
     1
102
RTVSPropertyOp8
 70
     1
102
RTVSPropertyOp9
 70
     1
102
RTVSPropertyOp10
 70
     1
102
RTVSPropertyOp11
 70
     1
102
RTVSPropertyOp12
 70
     1
102
RTVSPropertyOp13
 70
     1
102
RTVSPropertyOp14
 70
     1
102
RTVSPropertyOp15
 70
     1
102
RTVSPropertyOp16
 70
     1
102
RTVSPropertyOp17
 70
     1
102
RTVSPropertyOp18
 70
     1
102
RTVSPropertyOp19
 70
     1
102
RTVSPropertyOp20
 70
     1
102
RTVSPropertyOp21
 70
     1
102
RTVSPropertyOp22
 70
     1
102
RTVSPropertyOp23
 70
     1
102
RTVSPropertyOp24
 70
     1
102
RTVSPropertyOp25
 70
     1
102
RTVSPropertyOp26
 70
     1
102
RTVSPropertyOp27
 70
     1
102
RTVSPropertyOp28
 70
     1
102
RTVSPropertyOp29
 70
     1
102
RTVSPropertyOp30
 70
     1
102
RTVSPropertyOp31
 70
     1
102
RTVSPropertyOp32
 70
     1
  0
XRECORD
  5
18A
102
{ACAD_REACTORS
330
189
102
}
330
189
100
AcDbXrecord
280
     1
102
RTVSPropertyOp0
 70
     1
102
RTVSPropertyOp1
 70
     1
102
RTVSPropertyOp2
 70
     1
102
RTVSPropertyOp3
 70
     1
102
RTVSPropertyOp4
 70
     1
102
RTVSPropertyOp5
 70
     1
102
RTVSPropertyOp6
 70
     1
102
RTVSPropertyOp7
 70
     1
102
RTVSPropertyOp8
 70
     1
102
RTVSPropertyOp9
 70
     1
102
RTVSPropertyOp10
 70
     1
102
RTVSPropertyOp11
 70
     1
102
RTVSPropertyOp12
 70
     1
102
RTVSPropertyOp13
 70
     1
102
RTVSPropertyOp14
 70
     1
102
RTVSPropertyOp15
 70
     1
102
RTVSPropertyOp16
 70
     1
102
RTVSPropertyOp17
 70
     1
102
RTVSPropertyOp18
 70
     1
102
RTVSPropertyOp19
 70
     1
102
RTVSPropertyOp20
 70
     1
102
RTVSPropertyOp21
 70
     1
102
RTVSPropertyOp22
 70
     1
102
RTVSPropertyOp23
 70
     1
102
RTVSPropertyOp24
 70
     1
102
RTVSPropertyOp25
 70
     1
102
RTVSPropertyOp26
 70
     1
102
RTVSPropertyOp27
 70
     1
102
RTVSPropertyOp28
 70
     1
102
RTVSPropertyOp29
 70
     1
102
RTVSPropertyOp30
 70
     1
102
RTVSPropertyOp31
 70
     1
102
RTVSPropertyOp32
 70
     1
  0
XRECORD
  5
18C
102
{ACAD_REACTORS
330
18B
102
}
330
18B
100
AcDbXrecord
280
     1
102
RTVSPropertyOp0
 70
     1
102
RTVSPropertyOp1
 70
     1
102
RTVSPropertyOp2
 70
     1
102
RTVSPropertyOp3
 70
     1
102
RTVSPropertyOp4
 70
     1
102
RTVSPropertyOp5
 70
     1
102
RTVSPropertyOp6
 70
     1
102
RTVSPropertyOp7
 70
     1
102
RTVSPropertyOp8
 70
     1
102
RTVSPropertyOp9
 70
     1
102
RTVSPropertyOp10
 70
     1
102
RTVSPropertyOp11
 70
     1
102
RTVSPropertyOp12
 70
     1
102
RTVSPropertyOp13
 70
     1
102
RTVSPropertyOp14
 70
     1
102
RTVSPropertyOp15
 70
     1
102
RTVSPropertyOp16
 70
     1
102
RTVSPropertyOp17
 70
     1
102
RTVSPropertyOp18
 70
     1
102
RTVSPropertyOp19
 70
     1
102
RTVSPropertyOp20
 70
     1
102
RTVSPropertyOp21
 70
     1
102
RTVSPropertyOp22
 70
     1
102
RTVSPropertyOp23
 70
     1
102
RTVSPropertyOp24
 70
     1
102
RTVSPropertyOp25
 70
     1
102
RTVSPropertyOp26
 70
     1
102
RTVSPropertyOp27
 70
     1
102
RTVSPropertyOp28
 70
     1
102
RTVSPropertyOp29
 70
     1
102
RTVSPropertyOp30
 70
     1
102
RTVSPropertyOp31
 70
     1
102
RTVSPropertyOp32
 70
     1
  0
XRECORD
  5
18E
102
{ACAD_REACTORS
330
18D
102
}
330
18D
100
AcDbXrecord
280
     1
102
RTVSPropertyOp0
 70
     1
102
RTVSPropertyOp1
 70
     1
102
RTVSPropertyOp2
 70
     1
102
RTVSPropertyOp3
 70
     1
102
RTVSPropertyOp4
 70
     1
102
RTVSPropertyOp5
 70
     1
102
RTVSPropertyOp6
 70
     1
102
RTVSPropertyOp7
 70
     1
102
RTVSPropertyOp8
 70
     1
102
RTVSPropertyOp9
 70
     1
102
RTVSPropertyOp10
 70
     1
102
RTVSPropertyOp11
 70
     1
102
RTVSPropertyOp12
 70
     1
102
RTVSPropertyOp13
 70
     1
102
RTVSPropertyOp14
 70
     1
102
RTVSPropertyOp15
 70
     1
102
RTVSPropertyOp16
 70
     1
102
RTVSPropertyOp17
 70
     1
102
RTVSPropertyOp18
 70
     1
102
RTVSPropertyOp19
 70
     1
102
RTVSPropertyOp20
 70
     1
102
RTVSPropertyOp21
 70
     1
102
RTVSPropertyOp22
 70
     1
102
RTVSPropertyOp23
 70
     1
102
RTVSPropertyOp24
 70
     1
102
RTVSPropertyOp25
 70
     1
102
RTVSPropertyOp26
 70
     1
102
RTVSPropertyOp27
 70
     1
102
RTVSPropertyOp28
 70
     1
102
RTVSPropertyOp29
 70
     1
102
RTVSPropertyOp30
 70
     1
102
RTVSPropertyOp31
 70
     1
102
RTVSPropertyOp32
 70
     1
  0
XRECORD
  5
1A2
102
{ACAD_REACTORS
330
1A1
102
}
330
1A1
100
AcDbXrecord
280
     1
102
RTVSPropertyOp0
 70
     1
102
RTVSPropertyOp1
 70
     1
102
RTVSPropertyOp2
 70
     1
102
RTVSPropertyOp3
 70
     1
102
RTVSPropertyOp4
 70
     1
102
RTVSPropertyOp5
 70
     1
102
RTVSPropertyOp6
 70
     1
102
RTVSPropertyOp7
 70
     1
102
RTVSPropertyOp8
 70
     1
102
RTVSPropertyOp9
 70
     1
102
RTVSPropertyOp10
 70
     1
102
RTVSPropertyOp11
 70
     1
102
RTVSPropertyOp12
 70
     1
102
RTVSPropertyOp13
 70
     1
102
RTVSPropertyOp14
 70
     1
102
RTVSPropertyOp15
 70
     1
102
RTVSPropertyOp16
 70
     1
102
RTVSPropertyOp17
 70
     1
102
RTVSPropertyOp18
 70
     1
102
RTVSPropertyOp19
 70
     1
102
RTVSPropertyOp20
 70
     1
102
RTVSPropertyOp21
 70
     1
102
RTVSPropertyOp22
 70
     1
102
RTVSPropertyOp23
 70
     1
102
RTVSPropertyOp24
 70
     1
102
RTVSPropertyOp25
 70
     1
102
RTVSPropertyOp26
 70
     1
102
RTVSPropertyOp27
 70
     1
102
RTVSPropertyOp28
 70
     1
102
RTVSPropertyOp29
 70
     1
102
RTVSPropertyOp30
 70
     1
102
RTVSPropertyOp31
 70
     1
102
RTVSPropertyOp32
 70
     1
  0
XRECORD
  5
198
102
{ACAD_REACTORS
330
197
102
}
330
197
100
AcDbXrecord
280
     1
102
RTVSPropertyOp0
 70
     1
102
RTVSPropertyOp1
 70
     1
102
RTVSPropertyOp2
 70
     1
102
RTVSPropertyOp3
 70
     1
102
RTVSPropertyOp4
 70
     1
102
RTVSPropertyOp5
 70
     1
102
RTVSPropertyOp6
 70
     1
102
RTVSPropertyOp7
 70
     1
102
RTVSPropertyOp8
 70
     1
102
RTVSPropertyOp9
 70
     1
102
RTVSPropertyOp10
 70
     1
102
RTVSPropertyOp11
 70
     1
102
RTVSPropertyOp12
 70
     1
102
RTVSPropertyOp13
 70
     1
102
RTVSPropertyOp14
 70
     1
102
RTVSPropertyOp15
 70
     1
102
RTVSPropertyOp16
 70
     1
102
RTVSPropertyOp17
 70
     1
102
RTVSPropertyOp18
 70
     1
102
RTVSPropertyOp19
 70
     1
102
RTVSPropertyOp20
 70
     1
102
RTVSPropertyOp21
 70
     1
102
RTVSPropertyOp22
 70
     1
102
RTVSPropertyOp23
 70
     1
102
RTVSPropertyOp24
 70
     1
102
RTVSPropertyOp25
 70
     1
102
RTVSPropertyOp26
 70
     1
102
RTVSPropertyOp27
 70
     1
102
RTVSPropertyOp28
 70
     1
102
RTVSPropertyOp29
 70
     1
102
RTVSPropertyOp30
 70
     1
102
RTVSPropertyOp31
 70
     1
102
RTVSPropertyOp32
 70
     1
  0
XRECORD
  5
1A0
102
{ACAD_REACTORS
330
19F
102
}
330
19F
100
AcDbXrecord
280
     1
102
RTVSPropertyOp0
 70
     1
102
RTVSPropertyOp1
 70
     1
102
RTVSPropertyOp2
 70
     1
102
RTVSPropertyOp3
 70
     1
102
RTVSPropertyOp4
 70
     1
102
RTVSPropertyOp5
 70
     1
102
RTVSPropertyOp6
 70
     1
102
RTVSPropertyOp7
 70
     1
102
RTVSPropertyOp8
 70
     1
102
RTVSPropertyOp9
 70
     1
102
RTVSPropertyOp10
 70
     1
102
RTVSPropertyOp11
 70
     1
102
RTVSPropertyOp12
 70
     1
102
RTVSPropertyOp13
 70
     1
102
RTVSPropertyOp14
 70
     1
102
RTVSPropertyOp15
 70
     1
102
RTVSPropertyOp16
 70
     1
102
RTVSPropertyOp17
 70
     1
102
RTVSPropertyOp18
 70
     1
102
RTVSPropertyOp19
 70
     1
102
RTVSPropertyOp20
 70
     1
102
RTVSPropertyOp21
 70
     1
102
RTVSPropertyOp22
 70
     1
102
RTVSPropertyOp23
 70
     1
102
RTVSPropertyOp24
 70
     1
102
RTVSPropertyOp25
 70
     1
102
RTVSPropertyOp26
 70
     1
102
RTVSPropertyOp27
 70
     1
102
RTVSPropertyOp28
 70
     1
102
RTVSPropertyOp29
 70
     1
102
RTVSPropertyOp30
 70
     1
102
RTVSPropertyOp31
 70
     1
102
RTVSPropertyOp32
 70
     1
  0
ENDSEC
  0
EOF
