  0
SECTION
  2
HEADER
  9
$ACADVER
  1
AC1015
  9
$ACADMAINTVER
 70
     6
  9
$DWGCODEPAGE
  3
ANSI_1252
  9
$INSBASE
 10
0.0
 20
0.0
 30
0.0
  9
$EXTMIN
 10
0.0
 20
0.0
 30
0.0
  9
$EXTMAX
 10
210.0
 20
297.0
 30
0.0
  9
$LIMMIN
 10
0.0
 20
0.0
  9
$LIMMAX
 10
210.0
 20
297.0
  9
$ORTHOMODE
 70
     0
  9
$REGENMODE
 70
     1
  9
$FILLMODE
 70
     1
  9
$QTEXTMODE
 70
     0
  9
$MIRRTEXT
 70
     1
  9
$LTSCALE
 40
1.0
  9
$ATTMODE
 70
     1
  9
$TEXTSIZE
 40
2.5
  9
$TRACEWID
 40
1.0
  9
$TEXTSTYLE
  7
Standard
  9
$CLAYER
  8
0
  9
$CELTYPE
  6
ByLayer
  9
$CECOLOR
 62
   256
  9
$CELTSCALE
 40
1.0
  9
$DISPSILH
 70
     0
  9
$DIMSCALE
 40
1.0
  9
$DIMASZ
 40
2.5
  9
$DIMEXO
 40
0.625
  9
$DIMDLI
 40
3.75
  9
$DIMRND
 40
0.0
  9
$DIMDLE
 40
0.0
  9
$DIMEXE
 40
1.25
  9
$DIMTP
 40
0.0
  9
$DIMTM
 40
0.0
  9
$DIMTXT
 40
2.5
  9
$DIMCEN
 40
2.5
  9
$DIMTSZ
 40
0.0
  9
$DIMTOL
 70
     0
  9
$DIMLIM
 70
     0
  9
$DIMTIH
 70
     0
  9
$DIMTOH
 70
     0
  9
$DIMSE1
 70
     0
  9
$DIMSE2
 70
     0
  9
$DIMTAD
 70
     1
  9
$DIMZIN
 70
     8
  9
$DIMBLK
  1

  9
$DIMASO
 70
     1
  9
$DIMSHO
 70
     1
  9
$DIMPOST
  1

  9
$DIMAPOST
  1

  9
$DIMALT
 70
     0
  9
$DIMALTD
 70
     3
  9
$DIMALTF
 40
0.0393700787
  9
$DIMLFAC
 40
1.0
  9
$DIMTOFL
 70
     1
  9
$DIMTVP
 40
0.0
  9
$DIMTIX
 70
     0
  9
$DIMSOXD
 70
     0
  9
$DIMSAH
 70
     0
  9
$DIMBLK1
  1

  9
$DIMBLK2
  1

  9
$DIMSTYLE
  2
ISO-25
  9
$DIMCLRD
 70
     0
  9
$DIMCLRE
 70
     0
  9
$DIMCLRT
 70
     0
  9
$DIMTFAC
 40
1.0
  9
$DIMGAP
 40
0.625
  9
$DIMJUST
 70
     0
  9
$DIMSD1
 70
     0
  9
$DIMSD2
 70
     0
  9
$DIMTOLJ
 70
     0
  9
$DIMTZIN
 70
     8
  9
$DIMALTZ
 70
     0
  9
$DIMALTTZ
 70
     0
  9
$DIMUPT
 70
     0
  9
$DIMDEC
 70
     2
  9
$DIMTDEC
 70
     2
  9
$DIMALTU
 70
     2
  9
$DIMALTTD
 70
     3
  9
$DIMTXSTY
  7
Standard
  9
$DIMAUNIT
 70
     0
  9
$DIMADEC
 70
     0
  9
$DIMALTRND
 40
0.0
  9
$DIMAZIN
 70
     0
  9
$DIMDSEP
 70
    44
  9
$DIMATFIT
 70
     3
  9
$DIMFRAC
 70
     0
  9
$DIMLDRBLK
  1

  9
$DIMLUNIT
 70
     2
  9
$DIMLWD
 70
    -2
  9
$DIMLWE
 70
    -2
  9
$DIMTMOVE
 70
     0
  9
$LUNITS
 70
     2
  9
$LUPREC
 70
     4
  9
$SKETCHINC
 40
1.0
  9
$FILLETRAD
 40
10.0
  9
$AUNITS
 70
     0
  9
$AUPREC
 70
     0
  9
$MENU
  1
.
  9
$ELEVATION
 40
0.0
  9
$PELEVATION
 40
0.0
  9
$THICKNESS
 40
0.0
  9
$LIMCHECK
 70
     0
  9
$CHAMFERA
 40
10.0
  9
$CHAMFERB
 40
10.0
  9
$CHAMFERC
 40
20.0
  9
$CHAMFERD
 40
0.0
  9
$SKPOLY
 70
     0
  9
$TDCREATE
 40
2457567.447201389
  9
$TDUCREATE
 40
2457567.363868055
  9
$TDUPDATE
 40
2457567.447203021
  9
$TDUUPDATE
 40
2457567.363869688
  9
$TDINDWG
 40
0.0000000116
  9
$TDUSRTIMER
 40
0.0000000116
  9
$USRTIMER
 70
     1
  9
$ANGBASE
 50
0.0
  9
$ANGDIR
 70
     0
  9
$PDMODE
 70
     0
  9
$PDSIZE
 40
0.0
  9
$PLINEWID
 40
0.0
  9
$SPLFRAME
 70
     0
  9
$SPLINETYPE
 70
     6
  9
$SPLINESEGS
 70
     8
  9
$HANDSEED
  5
1B1
  9
$SURFTAB1
 70
     6
  9
$SURFTAB2
 70
     6
  9
$SURFTYPE
 70
     6
  9
$SURFU
 70
     6
  9
$SURFV
 70
     6
  9
$UCSBASE
  2

  9
$UCSNAME
  2

  9
$UCSORG
 10
0.0
 20
0.0
 30
0.0
  9
$UCSXDIR
 10
1.0
 20
0.0
 30
0.0
  9
$UCSYDIR
 10
0.0
 20
1.0
 30
0.0
  9
$UCSORTHOREF
  2

  9
$UCSORTHOVIEW
 70
     0
  9
$UCSORGTOP
 10
0.0
 20
0.0
 30
0.0
  9
$UCSORGBOTTOM
 10
0.0
 20
0.0
 30
0.0
  9
$UCSORGLEFT
 10
0.0
 20
0.0
 30
0.0
  9
$UCSORGRIGHT
 10
0.0
 20
0.0
 30
0.0
  9
$UCSORGFRONT
 10
0.0
 20
0.0
 30
0.0
  9
$UCSORGBACK
 10
0.0
 20
0.0
 30
0.0
  9
$PUCSBASE
  2

  9
$PUCSNAME
  2

  9
$PUCSORG
 10
0.0
 20
0.0
 30
0.0
  9
$PUCSXDIR
 10
1.0
 20
0.0
 30
0.0
  9
$PUCSYDIR
 10
0.0
 20
1.0
 30
0.0
  9
$PUCSORTHOREF
  2

  9
$PUCSORTHOVIEW
 70
     0
  9
$PUCSORGTOP
 10
0.0
 20
0.0
 30
0.0
  9
$PUCSORGBOTTOM
 10
0.0
 20
0.0
 30
0.0
  9
$PUCSORGLEFT
 10
0.0
 20
0.0
 30
0.0
  9
$PUCSORGRIGHT
 10
0.0
 20
0.0
 30
0.0
  9
$PUCSORGFRONT
 10
0.0
 20
0.0
 30
0.0
  9
$PUCSORGBACK
 10
0.0
 20
0.0
 30
0.0
  9
$USERI1
 70
     0
  9
$USERI2
 70
     0
  9
$USERI3
 70
     0
  9
$USERI4
 70
     0
  9
$USERI5
 70
     0
  9
$USERR1
 40
0.0
  9
$USERR2
 40
0.0
  9
$USERR3
 40
0.0
  9
$USERR4
 40
0.0
  9
$USERR5
 40
0.0
  9
$WORLDVIEW
 70
     1
  9
$SHADEDGE
 70
     3
  9
$SHADEDIF
 70
    70
  9
$TILEMODE
 70
     1
  9
$MAXACTVP
 70
    64
  9
$PINSBASE
 10
0.0
 20
0.0
 30
0.0
  9
$PLIMCHECK
 70
     0
  9
$PEXTMIN
 10
0.0
 20
0.0
 30
0.0
  9
$PEXTMAX
 10
210.0
 20
297.0
 30
0.0
  9
$PLIMMIN
 10
0.0
 20
0.0
  9
$PLIMMAX
 10
210.0
 20
297.0
  9
$UNITMODE
 70
     0
  9
$VISRETAIN
 70
     1
  9
$PLINEGEN
 70
     0
  9
$PSLTSCALE
 70
     1
  9
$TREEDEPTH
 70
  3020
  9
$CMLSTYLE
  2
Standard
  9
$CMLJUST
 70
     0
  9
$CMLSCALE
 40
20.0
  9
$PROXYGRAPHICS
 70
     1
  9
$MEASUREMENT
 70
     1
  9
$CELWEIGHT
370
    -1
  9
$ENDCAPS
280
     0
  9
$JOINSTYLE
280
     0
  9
$LWDISPLAY
290
     0
  9
$INSUNITS
 70
     4
  9
$HYPERLINKBASE
  1

  9
$STYLESHEET
  1

  9
$XEDIT
290
     1
  9
$CEPSNTYPE
380
     0
  9
$PSTYLEMODE
290
     1
  9
$FINGERPRINTGUID
  2
{D4CC64D6-3241-4786-AD93-F361D49D99C8}
  9
$VERSIONGUID
  2
{FAEB1C32-E019-11D5-929B-00C0DF256EC4}
  9
$EXTNAMES
290
     1
  9
$PSVPSCALE
 40
0.0
  9
$OLESTARTUP
290
     0
  0
ENDSEC
  0
SECTION
  2
CLASSES
  0
CLASS
  1
ACDBDICTIONARYWDFLT
  2
AcDbDictionaryWithDefault
  3
ObjectDBX Classes
 90
        0
280
     0
281
     0
  0
CLASS
  1
VISUALSTYLE
  2
AcDbVisualStyle
  3
ObjectDBX Classes
 90
     4095
280
     0
281
     0
  0
CLASS
  1
MATERIAL
  2
AcDbMaterial
  3
ObjectDBX Classes
 90
     1153
280
     0
281
     0
  0
CLASS
  1
DICTIONARYVAR
  2
AcDbDictionaryVar
  3
ObjectDBX Classes
 90
        0
280
     0
281
     0
  0
CLASS
  1
ACDBPLACEHOLDER
  2
AcDbPlaceHolder
  3
ObjectDBX Classes
 90
        0
280
     0
281
     0
  0
CLASS
  1
LAYOUT
  2
AcDbLayout
  3
ObjectDBX Classes
 90
        0
280
     0
281
     0
  0
ENDSEC
  0
SECTION
  2
TABLES
  0
TABLE
  2
VPORT
  5
8
330
0
100
AcDbSymbolTable
 70
     1
  0
VPORT
  5
29
330
8
100
AcDbSymbolTableRecord
100
AcDbViewportTableRecord
  2
*Active
 70
     0
 10
0.0
 20
0.0
 11
1.0
 21
1.0
 12
344.1869158879
 22
148.5
 13
0.0
 23
0.0
 14
10.0
 24
10.0
 15
10.0
 25
10.0
 16
0.0
 26
0.0
 36
1.0
 17
0.0
 27
0.0
 37
0.0
 40
297.0
 41
1.9729729729
 42
50.0
 43
0.0
 44
0.0
 50
0.0
 51
0.0
 71
     0
 72
   100
 73
     1
 74
     3
 75
     0
 76
     0
 77
     0
 78
     0
281
     0
 65
     1
110
0.0
120
0.0
130
0.0
111
1.0
121
0.0
131
0.0
112
0.0
122
1.0
132
0.0
 79
     0
146
0.0
  0
ENDTAB
  0
TABLE
  2
LTYPE
  5
5
330
0
100
AcDbSymbolTable
 70
     2
  0
LTYPE
  5
14
330
5
100
AcDbSymbolTableRecord
100
AcDbLinetypeTableRecord
  2
ByBlock
 70
     0
  3

 72
    65
 73
     0
 40
0.0
  0
LTYPE
  5
15
330
5
100
AcDbSymbolTableRecord
100
AcDbLinetypeTableRecord
  2
ByLayer
 70
     0
  3

 72
    65
 73
     0
 40
0.0
  0
LTYPE
  5
16
330
5
100
AcDbSymbolTableRecord
100
AcDbLinetypeTableRecord
  2
Continuous
 70
     0
  3
Solid line
 72
    65
 73
     0
 40
0.0
  0
LTYPE
  5
54
330
5
100
AcDbSymbolTableRecord
100
AcDbLinetypeTableRecord
  2
HIDDEN2
 70
     0
  3
Hidden (.5x) _ _ _ _ _ _ _ _ _ _ _ _ _ _ _ _ _ 
 72
    65
 73
     2
 40
4.7625
 49
3.175
 74
     4
 75
     0
340
0
 46
0.0
 50
0.0
 44
0.0
 45
0.0
 49
-1.5875
 74
     4
 75
     0
340
0
 46
0.0
 50
0.0
 44
0.0
 45
0.0
  0
ENDTAB
  0
TABLE
  2
LAYER
  5
2
330
0
100
AcDbSymbolTable
 70
     5
  0
LAYER
  5
10
330
2
100
AcDbSymbolTableRecord
100
AcDbLayerTableRecord
  2
0
 70
     0
 62
     7
  6
Continuous
370
    -3
390
F
  0
LAYER
  5
3F
330
2
100
AcDbSymbolTableRecord
100
AcDbLayerTableRecord
  2
SK1
 70
     0
 62
     4
  6
Continuous
370
    18
390
F
  0
LAYER
  5
53
330
2
100
AcDbSymbolTableRecord
100
AcDbLayerTableRecord
  2
SK3
 70
     0
 62
     1
  6
HIDDEN2
370
    15
390
F
  0
LAYER
  5
12D
330
2
100
AcDbSymbolTableRecord
100
AcDbLayerTableRecord
  2
SK4
 70
     0
 62
     2
  6
Continuous
370
    13
390
F
  0
LAYER
  5
12F
330
2
100
AcDbSymbolTableRecord
100
AcDbLayerTableRecord
  2
SK2
 70
     0
 62
     7
  6
Continuous
370
    15
390
F
  0
ENDTAB
  0
TABLE
  2
STYLE
  5
3
330
0
100
AcDbSymbolTable
 70
     2
  0
STYLE
  5
11
330
3
100
AcDbSymbolTableRecord
100
AcDbTextStyleTableRecord
  2
Standard
 70
     0
 40
0.0
 41
1.0
 50
0.0
 71
     0
 42
2.5
  3
txt
  4

  0
STYLE
  5
142
330
3
100
AcDbSymbolTableRecord
100
AcDbTextStyleTableRecord
  2
SEACAD_Solid_Edge_ISO
 70
     0
 40
0.0
 41
1.0
 50
0.0
 71
     0
 42
0.2
  3
seiso.ttf
  4

1001
ACAD
1000
Solid Edge ISO
1071
        0
  0
ENDTAB
  0
TABLE
  2
VIEW
  5
6
330
0
100
AcDbSymbolTable
 70
     0
  0
ENDTAB
  0
TABLE
  2
UCS
  5
7
330
0
100
AcDbSymbolTable
 70
     0
  0
ENDTAB
  0
TABLE
  2
APPID
  5
9
330
0
100
AcDbSymbolTable
 70
     1
  0
APPID
  5
12
330
9
100
AcDbSymbolTableRecord
100
AcDbRegAppTableRecord
  2
ACAD
 70
     0
  0
ENDTAB
  0
TABLE
  2
DIMSTYLE
  5
A
330
0
100
AcDbSymbolTable
 70
     3
100
AcDbDimStyleTable
  0
DIMSTYLE
105
27
330
A
100
AcDbSymbolTableRecord
100
AcDbDimStyleTableRecord
  2
ISO-25
 70
     0
 41
2.5
 42
0.625
 43
3.75
 44
1.25
 73
     0
 74
     0
 77
     1
 78
     8
140
2.5
141
2.5
143
0.0393700787
147
0.625
171
     3
172
     1
178
     0
271
     2
272
     2
274
     3
278
    44
283
     0
284
     8
340
11
  0
DIMSTYLE
105
130
330
A
100
AcDbSymbolTableRecord
100
AcDbDimStyleTableRecord
  2
Standard
 70
     0
178
     0
340
11
  0
DIMSTYLE
105
143
102
{ACAD_REACTORS
330
144
330
164
330
16F
330
179
102
}
330
A
100
AcDbSymbolTableRecord
100
AcDbDimStyleTableRecord
  2
DIN
 70
     0
 41
3.5
 42
0.0
 44
1.75
 73
     0
 74
     0
 77
     1
 78
     8
140
3.5
141
1.75
147
1.75
172
     1
173
     1
178
     0
179
     3
271
     2
272
     2
278
    44
284
     8
340
142
343
13D
344
13D
  0
ENDTAB
  0
TABLE
  2
BLOCK_RECORD
  5
1
330
0
100
AcDbSymbolTable
 70
    10
  0
BLOCK_RECORD
  5
1F
330
1
100
AcDbSymbolTableRecord
100
AcDbBlockTableRecord
  2
*Model_Space
340
22
  0
BLOCK_RECORD
  5
1B
330
1
100
AcDbSymbolTableRecord
100
AcDbBlockTableRecord
  2
*Paper_Space
340
1E
  0
BLOCK_RECORD
  5
131
330
1
100
AcDbSymbolTableRecord
100
AcDbBlockTableRecord
  2
_OBLIQUE
340
0
  0
BLOCK_RECORD
  5
135
330
1
100
AcDbSymbolTableRecord
100
AcDbBlockTableRecord
  2
_DOT
340
0
  0
BLOCK_RECORD
  5
13D
330
1
100
AcDbSymbolTableRecord
100
AcDbBlockTableRecord
  2
_SE_FILLED
340
0
  0
BLOCK_RECORD
  5
145
330
1
100
AcDbSymbolTableRecord
100
AcDbBlockTableRecord
  2
DMBLK93
340
0
  0
BLOCK_RECORD
  5
14E
330
1
100
AcDbSymbolTableRecord
100
AcDbBlockTableRecord
  2
Nullpunkt
340
0
102
{BLKREFS
331
158
102
}
  0
BLOCK_RECORD
  5
159
330
1
100
AcDbSymbolTableRecord
100
AcDbBlockTableRecord
  2
Einfügepunkt
340
0
102
{BLKREFS
331
163
102
}
  0
BLOCK_RECORD
  5
165
330
1
100
AcDbSymbolTableRecord
100
AcDbBlockTableRecord
  2
DMBLK94
340
0
  0
BLOCK_RECORD
  5
170
330
1
100
AcDbSymbolTableRecord
100
AcDbBlockTableRecord
  2
DMBLK95
340
0
  0
BLOCK_RECORD
  5
17A
330
1
100
AcDbSymbolTableRecord
100
AcDbBlockTableRecord
  2
DMBLK96
340
0
  0
ENDTAB
  0
ENDSEC
  0
SECTION
  2
BLOCKS
  0
BLOCK
  5
20
330
1F
100
AcDbEntity
  8
0
100
AcDbBlockBegin
  2
*Model_Space
 70
     0
 10
0.0
 20
0.0
 30
0.0
  3
*Model_Space
  1

  0
ENDBLK
  5
21
330
1F
100
AcDbEntity
  8
0
100
AcDbBlockEnd
  0
BLOCK
  5
1C
330
1B
100
AcDbEntity
 67
     1
  8
0
100
AcDbBlockBegin
  2
*Paper_Space
 70
     0
 10
0.0
 20
0.0
 30
0.0
  3
*Paper_Space
  1

  0
ENDBLK
  5
1D
330
1B
100
AcDbEntity
 67
     1
  8
0
100
AcDbBlockEnd
  0
BLOCK
  5
132
330
131
100
AcDbEntity
  8
0
100
AcDbBlockBegin
  2
_OBLIQUE
 70
     0
 10
0.0
 20
0.0
 30
0.0
  3
_OBLIQUE
  1

  0
LINE
  5
134
330
131
100
AcDbEntity
  8
0
  6
ByBlock
 62
     0
370
    -2
100
AcDbLine
 10
-0.5
 20
-0.5
 30
0.0
 11
0.5
 21
0.5
 31
0.0
  0
ENDBLK
  5
133
330
131
100
AcDbEntity
  8
0
100
AcDbBlockEnd
  0
BLOCK
  5
136
330
135
100
AcDbEntity
  8
0
100
AcDbBlockBegin
  2
_DOT
 70
     0
 10
0.0
 20
0.0
 30
0.0
  3
_DOT
  1

  0
POLYLINE
  5
138
330
135
100
AcDbEntity
  8
0
  6
ByBlock
 62
     0
100
AcDb2dPolyline
 66
     1
 10
0.0
 20
0.0
 30
0.0
 70
     1
 40
0.5
 41
0.5
  0
VERTEX
  5
13A
330
138
100
AcDbEntity
  8
0
  6
ByBlock
 62
     0
100
AcDbVertex
100
AcDb2dVertex
 10
-0.25
 20
0.0
 30
0.0
 42
1.0
  0
VERTEX
  5
13B
330
138
100
AcDbEntity
  8
0
  6
ByBlock
 62
     0
100
AcDbVertex
100
AcDb2dVertex
 10
0.25
 20
0.0
 30
0.0
 42
1.0
  0
SEQEND
  5
13C
330
138
100
AcDbEntity
  8
0
  6
ByBlock
 62
     0
  0
LINE
  5
139
330
135
100
AcDbEntity
  8
0
  6
ByBlock
 62
     0
370
    -2
100
AcDbLine
 10
-0.5
 20
0.0
 30
0.0
 11
-1.0
 21
0.0
 31
0.0
  0
ENDBLK
  5
137
330
135
100
AcDbEntity
  8
0
100
AcDbBlockEnd
  0
BLOCK
  5
140
330
13D
100
AcDbEntity
  8
0
100
AcDbBlockBegin
  2
_SE_FILLED
 70
     0
 10
0.0
 20
0.0
 30
0.0
  3
_SE_FILLED
  1

  0
SOLID
  5
13E
330
13D
100
AcDbEntity
  8
0
 62
     0
100
AcDbTrace
 10
0.0
 20
0.0
 30
0.0
 11
-1.0
 21
-0.1665
 31
0.0
 12
-1.0
 22
0.1665
 32
0.0
 13
0.0
 23
0.0
 33
0.0
  0
LINE
  5
13F
330
13D
100
AcDbEntity
  8
0
 62
     0
100
AcDbLine
 10
0.0
 20
0.0
 30
0.0
 11
-1.0
 21
0.0
 31
0.0
  0
ENDBLK
  5
141
330
13D
100
AcDbEntity
  8
0
100
AcDbBlockEnd
  0
BLOCK
  5
14C
330
145
100
AcDbEntity
  8
0
100
AcDbBlockBegin
  2
DMBLK93
 70
     0
 10
0.0
 20
0.0
 30
0.0
  3
DMBLK93
  1

  0
HATCH
  5
146
330
145
100
AcDbEntity
  8
SK2
  6
Continuous
 62
   136
100
AcDbHatch
 10
0.0
 20
0.0
 30
0.0
210
0.0
220
0.0
230
1.0
  2
SOLID
 70
     1
 71
     0
 91
        1
 92
        1
 93
        3
 72
     1
 10
-23.83999989196784
 20
25.1458379289848
 11
-27.34000000000125
 21
24.5625045776459
 72
     1
 10
-27.34000000000125
 20
24.5625045776459
 11
-23.83999989196784
 21
23.979171226307
 72
     1
 10
-23.83999989196784
 20
23.979171226307
 11
-23.83999989196784
 21
25.1458379289848
 97
        0
 75
     0
 76
     1
 98
        0
  0
HATCH
  5
147
330
145
100
AcDbEntity
  8
SK2
  6
Continuous
 62
   136
100
AcDbHatch
 10
0.0
 20
0.0
 30
0.0
210
0.0
220
0.0
230
1.0
  2
SOLID
 70
     1
 71
     0
 91
        1
 92
        1
 93
        3
 72
     1
 10
9.159998997895658
 20
25.1458379289848
 11
9.159998997895658
 21
23.979171226307
 72
     1
 10
9.159998997895658
 20
23.979171226307
 11
12.65999910592908
 21
24.5625045776459
 72
     1
 10
12.65999910592908
 20
24.5625045776459
 11
9.159998997895658
 21
25.1458379289848
 97
        0
 75
     0
 76
     1
 98
        0
  0
LINE
  5
148
330
145
100
AcDbEntity
  8
SK2
  6
Continuous
 62
   136
100
AcDbLine
 10
-27.34
 20
11.8897757188
 30
0.0
 11
-27.34
 21
26.3125046317
 31
0.0
  0
LINE
  5
149
330
145
100
AcDbEntity
  8
SK2
  6
Continuous
 62
   136
100
AcDbLine
 10
12.66
 20
12.180020447
 30
0.0
 11
12.66
 21
26.3125046317
 31
0.0
  0
LINE
  5
14A
330
145
100
AcDbEntity
  8
SK2
  6
Continuous
 62
   136
100
AcDbLine
 10
-27.34
 20
24.5625045776
 30
0.0
 11
12.6599991059
 21
24.5625045776
 31
0.0
  0
TEXT
  5
14B
330
145
100
AcDbEntity
  8
SK2
  6
Continuous
 62
   136
100
AcDbText
 10
-9.4081822652
 20
25.4375045776
 30
0.0
 40
3.5
  1
40
  7
SEACAD_Solid_Edge_ISO
 11
-9.4081822652
 21
28.9375045776
 31
0.0
100
AcDbText
 73
     3
  0
ENDBLK
  5
14D
330
145
100
AcDbEntity
  8
0
100
AcDbBlockEnd
  0
BLOCK
  5
156
330
14E
100
AcDbEntity
  8
0
100
AcDbBlockBegin
  2
Nullpunkt
 70
     0
 10
0.0
 20
0.0
 30
0.0
  3
Nullpunkt
  1

  0
HATCH
  5
14F
330
14E
100
AcDbEntity
  8
SK2
  6
Continuous
 62
     7
100
AcDbHatch
 10
0.0
 20
0.0
 30
0.0
210
0.0
220
0.0
230
1.0
  2
SOLID
 70
     1
 71
     0
 91
        1
 92
        1
 93
        3
 72
     1
 10
-1.0
 20
0.0
 11
0.0000000000000009
 21
0.0
 72
     1
 10
0.0
 20
0.0
 11
0.0
 21
1.000000000000001
 72
     2
 10
0.0
 20
0.0
 40
1.0
 50
90.0
 51
180.0
 73
     1
 97
        0
 75
     0
 76
     1
 98
        0
  0
HATCH
  5
150
330
14E
100
AcDbEntity
  8
SK2
  6
Continuous
 62
     7
100
AcDbHatch
 10
0.0
 20
0.0
 30
0.0
210
0.0
220
0.0
230
1.0
  2
SOLID
 70
     1
 71
     0
 91
        1
 92
        1
 93
        3
 72
     2
 10
0.0
 20
0.0
 40
1.0
 50
270.0
 51
360.0
 73
     1
 72
     1
 10
1.0
 20
0.0
 11
-0.0000000000000009
 21
0.0
 72
     1
 10
0.0
 20
0.0
 11
0.0
 21
-1.000000000000001
 97
        0
 75
     0
 76
     1
 98
        0
  0
CIRCLE
  5
151
330
14E
100
AcDbEntity
  8
SK2
  6
Continuous
 62
     7
100
AcDbCircle
 10
0.0
 20
0.0
 30
0.0
 40
1.0
  0
LINE
  5
152
330
14E
100
AcDbEntity
  8
SK1
  6
Continuous
100
AcDbLine
 10
-1.0
 20
0.0
 30
0.0
 11
1.0
 21
0.0
 31
0.0
  0
LINE
  5
153
330
14E
100
AcDbEntity
  8
SK1
  6
Continuous
100
AcDbLine
 10
0.0
 20
1.0
 30
0.0
 11
0.0
 21
-1.0
 31
0.0
  0
POINT
  5
154
330
14E
100
AcDbEntity
  8
SK1
  6
Continuous
100
AcDbPoint
 10
0.0
 20
0.0
 30
0.0
  0
POINT
  5
155
330
14E
100
AcDbEntity
  8
SK1
  6
Continuous
100
AcDbPoint
 10
0.0
 20
0.0
 30
0.0
  0
ENDBLK
  5
157
330
14E
100
AcDbEntity
  8
0
100
AcDbBlockEnd
  0
BLOCK
  5
161
330
159
100
AcDbEntity
  8
0
100
AcDbBlockBegin
  2
Einfügepunkt
 70
     0
 10
0.0
 20
0.0
 30
0.0
  3
Einfügepunkt
  1

  0
HATCH
  5
15A
330
159
100
AcDbEntity
  8
SK2
  6
Continuous
 62
     7
100
AcDbHatch
 10
0.0
 20
0.0
 30
0.0
210
0.0
220
0.0
230
1.0
  2
SOLID
 70
     1
 71
     0
 91
        1
 92
        1
 93
        3
 72
     1
 10
-0.4502381196756744
 20
-0.0000000000000018
 11
0.0000000000000033
 21
-0.0000000000000018
 72
     1
 10
0.0
 20
-0.0000000000000018
 11
0.0
 21
0.4502381196756812
 72
     2
 10
0.0
 20
-0.0000000000000018
 40
0.4502381196756812
 50
90.0
 51
180.0
 73
     1
 97
        0
 75
     0
 76
     1
 98
        0
  0
HATCH
  5
15B
330
159
100
AcDbEntity
  8
SK2
  6
Continuous
 62
     7
100
AcDbHatch
 10
0.0
 20
0.0
 30
0.0
210
0.0
220
0.0
230
1.0
  2
SOLID
 70
     1
 71
     0
 91
        1
 92
        1
 93
        3
 72
     2
 10
0.0
 20
-0.0000000000000018
 40
0.4502381196756812
 50
270.0
 51
360.0
 73
     1
 72
     1
 10
0.4502381196756815
 20
-0.0000000000000018
 11
0.0000000000000038
 21
-0.0000000000000018
 72
     1
 10
0.0
 20
-0.0000000000000018
 11
0.0
 21
-0.4502381196756812
 97
        0
 75
     0
 76
     1
 98
        0
  0
CIRCLE
  5
15C
330
159
100
AcDbEntity
  8
SK2
  6
Continuous
 62
     7
100
AcDbCircle
 10
0.0
 20
0.0
 30
0.0
 40
0.4502381196756812
  0
LINE
  5
15D
330
159
100
AcDbEntity
  8
SK1
  6
Continuous
100
AcDbLine
 10
-0.4502381197
 20
0.0
 30
0.0
 11
0.4502381197
 21
0.0
 31
0.0
  0
LINE
  5
15E
330
159
100
AcDbEntity
  8
SK1
  6
Continuous
100
AcDbLine
 10
0.0
 20
0.4502381197
 30
0.0
 11
0.0
 21
-0.4502381197
 31
0.0
  0
POINT
  5
15F
330
159
100
AcDbEntity
  8
SK2
  6
Continuous
 62
     7
100
AcDbPoint
 10
0.0
 20
0.0
 30
0.0
  0
POINT
  5
160
330
159
100
AcDbEntity
  8
SK2
  6
Continuous
 62
     7
100
AcDbPoint
 10
0.0
 20
0.0
 30
0.0
  0
ENDBLK
  5
162
330
159
100
AcDbEntity
  8
0
100
AcDbBlockEnd
  0
BLOCK
  5
16D
330
165
100
AcDbEntity
  8
0
100
AcDbBlockBegin
  2
DMBLK94
 70
     0
 10
0.0
 20
0.0
 30
0.0
  3
DMBLK94
  1

  0
HATCH
  5
166
330
165
100
AcDbEntity
  8
SK2
  6
Continuous
 62
   136
100
AcDbHatch
 10
0.0
 20
0.0
 30
0.0
210
0.0
220
0.0
230
1.0
  2
SOLID
 70
     1
 71
     0
 91
        1
 92
        1
 93
        3
 72
     1
 10
23.24333337964996
 20
-6.024999792195883
 11
22.07666667697215
 21
-6.024999792195883
 72
     1
 10
22.07666667697215
 20
-6.024999792195883
 11
22.66000002831105
 21
-9.524999900229302
 72
     1
 10
22.66000002831105
 20
-9.524999900229302
 11
23.24333337964996
 21
-6.024999792195883
 97
        0
 75
     0
 76
     1
 98
        0
  0
HATCH
  5
167
330
165
100
AcDbEntity
  8
SK2
  6
Continuous
 62
   136
100
AcDbHatch
 10
0.0
 20
0.0
 30
0.0
210
0.0
220
0.0
230
1.0
  2
SOLID
 70
     1
 71
     0
 91
        1
 92
        1
 93
        3
 72
     1
 10
23.24333337964996
 20
6.025000227175626
 11
22.66000002831105
 21
9.525000335209045
 72
     1
 10
22.66000002831105
 20
9.525000335209045
 11
22.07666667697215
 21
6.025000227175626
 72
     1
 10
22.07666667697215
 20
6.025000227175626
 11
23.24333337964996
 21
6.025000227175626
 97
        0
 75
     0
 76
     1
 98
        0
  0
LINE
  5
168
330
165
100
AcDbEntity
  8
SK2
  6
Continuous
 62
   136
100
AcDbLine
 10
12.26
 20
-9.5249999002
 30
0.0
 11
24.4100000823
 21
-9.5249999002
 31
0.0
  0
LINE
  5
169
330
165
100
AcDbEntity
  8
SK2
  6
Continuous
 62
   136
100
AcDbLine
 10
12.26
 20
9.5250000998
 30
0.0
 11
24.4100000823
 21
9.5250000998
 31
0.0
  0
LINE
  5
16A
330
165
100
AcDbEntity
  8
SK2
  6
Continuous
 62
   136
100
AcDbLine
 10
22.6600000283
 20
-9.5249999002
 30
0.0
 11
22.6600000283
 21
9.5250003352
 31
0.0
  0
TEXT
  5
16B
330
165
100
AcDbEntity
  8
SK2
  6
Continuous
 62
   136
100
AcDbText
 10
21.7850000283
 20
-2.0999997825
 30
0.0
 40
3.5
  1
19,05
 50
90.0
  7
SEACAD_Solid_Edge_ISO
 11
18.2850000283
 21
-2.0999997825
 31
0.0
100
AcDbText
 73
     3
  0
TEXT
  5
16C
330
165
100
AcDbEntity
  8
SK2
  6
Continuous
 62
   136
100
AcDbText
 10
21.7850000283
 20
-6.1727270552
 30
0.0
 40
3.5
  1
ø
 50
90.0
  7
SEACAD_Solid_Edge_ISO
 11
18.2850000283
 21
-6.1727270552
 31
0.0
100
AcDbText
 73
     3
  0
ENDBLK
  5
16E
330
165
100
AcDbEntity
  8
0
100
AcDbBlockEnd
  0
BLOCK
  5
177
330
170
100
AcDbEntity
  8
0
100
AcDbBlockBegin
  2
DMBLK95
 70
     0
 10
0.0
 20
0.0
 30
0.0
  3
DMBLK95
  1

  0
HATCH
  5
171
330
170
100
AcDbEntity
  8
SK2
  6
Continuous
 62
   136
100
AcDbHatch
 10
0.0
 20
0.0
 30
0.0
210
0.0
220
0.0
230
1.0
  2
SOLID
 70
     1
 71
     0
 91
        1
 92
        1
 93
        3
 72
     1
 10
-3.500000108033415
 20
-24.31671705889281
 11
0.0000000000000036
 21
-23.73338370755391
 72
     1
 10
0.0000000000000035
 20
-23.73338370755391
 11
-3.500000108033415
 21
-23.150050356215
 72
     1
 10
-3.500000108033415
 20
-23.150050356215
 11
-3.500000108033415
 21
-24.31671705889281
 97
        0
 75
     0
 76
     1
 98
        0
  0
HATCH
  5
172
330
170
100
AcDbEntity
  8
SK2
  6
Continuous
 62
   136
100
AcDbHatch
 10
0.0
 20
0.0
 30
0.0
210
0.0
220
0.0
230
1.0
  2
SOLID
 70
     1
 71
     0
 91
        1
 92
        1
 93
        3
 72
     1
 10
16.16000010803342
 20
-24.31671705889281
 11
16.16000010803342
 21
-23.150050356215
 72
     1
 10
16.16000010803342
 20
-23.150050356215
 11
12.66
 21
-23.73338370755391
 72
     1
 10
12.66
 20
-23.73338370755391
 11
16.16000010803342
 21
-24.31671705889281
 97
        0
 75
     0
 76
     1
 98
        0
  0
LINE
  5
173
330
170
100
AcDbEntity
  8
SK2
  6
Continuous
 62
   136
100
AcDbLine
 10
0.0
 20
-15.9996745287
 30
0.0
 11
0.0
 21
-25.4833837616
 31
0.0
  0
LINE
  5
174
330
170
100
AcDbEntity
  8
SK2
  6
Continuous
 62
   136
100
AcDbLine
 10
12.66
 20
-12.1800202475
 30
0.0
 11
12.66
 21
-25.4833837616
 31
0.0
  0
LINE
  5
175
330
170
100
AcDbEntity
  8
SK2
  6
Continuous
 62
   136
100
AcDbLine
 10
-7.0000002161
 20
-23.7333837076
 30
0.0
 11
19.659999758
 21
-23.7333837076
 31
0.0
  0
TEXT
  5
176
330
170
100
AcDbEntity
  8
SK2
  6
Continuous
 62
   136
100
AcDbText
 10
2.0743179528
 20
-22.8583837076
 30
0.0
 40
3.5
  1
12,66
  7
SEACAD_Solid_Edge_ISO
 11
2.0743179528
 21
-19.3583837076
 31
0.0
100
AcDbText
 73
     3
  0
ENDBLK
  5
178
330
170
100
AcDbEntity
  8
0
100
AcDbBlockEnd
  0
BLOCK
  5
182
330
17A
100
AcDbEntity
  8
0
100
AcDbBlockBegin
  2
DMBLK96
 70
     0
 10
0.0
 20
0.0
 30
0.0
  3
DMBLK96
  1

  0
HATCH
  5
17B
330
17A
100
AcDbEntity
  8
SK2
  6
Continuous
 62
   136
100
AcDbHatch
 10
0.0
 20
0.0
 30
0.0
210
0.0
220
0.0
230
1.0
  2
SOLID
 70
     1
 71
     0
 91
        1
 92
        1
 93
        3
 72
     1
 10
-35.33483801099161
 20
12.49967462019693
 11
-34.16817130831381
 21
12.49967462019693
 72
     1
 10
-34.16817130831381
 20
12.49967462019693
 11
-34.75150465965271
 21
15.99967472823035
 72
     1
 10
-34.75150465965271
 20
15.99967472823035
 11
-35.33483801099161
 21
12.49967462019693
 97
        0
 75
     0
 76
     1
 98
        0
  0
HATCH
  5
17C
330
17A
100
AcDbEntity
  8
SK2
  6
Continuous
 62
   136
100
AcDbHatch
 10
0.0
 20
0.0
 30
0.0
210
0.0
220
0.0
230
1.0
  2
SOLID
 70
     1
 71
     0
 91
        1
 92
        1
 93
        3
 72
     1
 10
-35.33483801099161
 20
-12.49967475785245
 11
-34.75150465965271
 21
-15.99967486588586
 72
     1
 10
-34.75150465965271
 20
-15.99967486588586
 11
-34.16817130831381
 21
-12.49967475785245
 72
     1
 10
-34.16817130831381
 20
-12.49967475785245
 11
-35.33483801099161
 21
-12.49967475785245
 97
        0
 75
     0
 76
     1
 98
        0
  0
LINE
  5
17D
330
17A
100
AcDbEntity
  8
SK2
  6
Continuous
 62
   136
100
AcDbLine
 10
0.0
 20
15.9996747282
 30
0.0
 11
-36.5015047137
 21
15.9996747282
 31
0.0
  0
LINE
  5
17E
330
17A
100
AcDbEntity
  8
SK2
  6
Continuous
 62
   136
100
AcDbLine
 10
0.0
 20
-15.9996745287
 30
0.0
 11
-36.5015047137
 21
-15.9996745287
 31
0.0
  0
LINE
  5
17F
330
17A
100
AcDbEntity
  8
SK2
  6
Continuous
 62
   136
100
AcDbLine
 10
-34.7515046597
 20
15.9996747282
 30
0.0
 11
-34.7515046597
 21
-15.9996748659
 31
0.0
  0
TEXT
  5
180
330
17A
100
AcDbEntity
  8
SK2
  6
Continuous
 62
   136
100
AcDbText
 10
-35.6265046597
 20
0.0477272039
 30
0.0
 40
3.5
  1
32
 50
90.0
  7
SEACAD_Solid_Edge_ISO
 11
-39.1265046597
 21
0.0477272039
 31
0.0
100
AcDbText
 73
     3
  0
TEXT
  5
181
330
17A
100
AcDbEntity
  8
SK2
  6
Continuous
 62
   136
100
AcDbText
 10
-35.6265046597
 20
-4.0250000688
 30
0.0
 40
3.5
  1
ø
 50
90.0
  7
SEACAD_Solid_Edge_ISO
 11
-39.1265046597
 21
-4.0250000688
 31
0.0
100
AcDbText
 73
     3
  0
ENDBLK
  5
183
330
17A
100
AcDbEntity
  8
0
100
AcDbBlockEnd
  0
ENDSEC
  0
SECTION
  2
ENTITIES
  0
LINE
  5
40
330
1F
100
AcDbEntity
  8
SK1
  6
Continuous
100
AcDbLine
 10
3.76
 20
13.3305045976
 30
0.0
 11
3.76
 21
5.9546327362
 31
0.0
  0
LINE
  5
41
330
1F
100
AcDbEntity
  8
SK1
  6
Continuous
100
AcDbLine
 10
6.96
 20
-13.6366511439
 30
0.0
 11
6.96
 21
-14.5999999002
 31
0.0
  0
LINE
  5
42
330
1F
100
AcDbEntity
  8
SK1
  6
Continuous
100
AcDbLine
 10
3.56
 20
14.9141997093
 30
0.0
 11
3.56
 21
15.9823343165
 31
0.0
  0
LINE
  5
43
330
1F
100
AcDbEntity
  8
SK1
  6
Continuous
100
AcDbLine
 10
3.0473721046
 20
15.32602499
 30
0.0
 11
3.0473721046
 21
16.4279549475
 31
0.0
  0
LINE
  5
44
330
1F
100
AcDbEntity
  8
SK1
  6
Continuous
100
AcDbLine
 10
12.535
 20
-13.5717422033
 30
0.0
 11
12.535
 21
-12.6862811235
 31
0.0
  0
LINE
  5
45
330
1F
100
AcDbEntity
  8
SK1
  6
Continuous
100
AcDbLine
 10
7.4631088913
 20
15.3926056849
 30
0.0
 11
7.4631088913
 21
16.5000000998
 31
0.0
  0
LINE
  5
46
330
1F
100
AcDbEntity
  8
SK1
  6
Continuous
100
AcDbLine
 10
7.16
 20
15.3926056849
 30
0.0
 11
7.16
 21
16.5000000998
 31
0.0
  0
LINE
  5
47
330
1F
100
AcDbEntity
  8
SK1
  6
Continuous
100
AcDbLine
 10
7.4631088913
 20
-15.3926054854
 30
0.0
 11
7.4631088913
 21
-16.4999999002
 31
0.0
  0
LINE
  5
48
330
1F
100
AcDbEntity
  8
SK1
  6
Continuous
100
AcDbLine
 10
7.16
 20
-15.3926054854
 30
0.0
 11
7.16
 21
-16.4999999002
 31
0.0
  0
LINE
  5
49
330
1F
100
AcDbEntity
  8
SK1
  6
Continuous
100
AcDbLine
 10
7.4631088913
 20
15.3926056849
 30
0.0
 11
7.16
 21
15.3926056849
 31
0.0
  0
LINE
  5
4A
330
1F
100
AcDbEntity
  8
SK1
  6
Continuous
100
AcDbLine
 10
7.4631088913
 20
15.086458939
 30
0.0
 11
7.16
 21
15.086458939
 31
0.0
  0
LINE
  5
4B
330
1F
100
AcDbEntity
  8
SK1
  6
Continuous
100
AcDbLine
 10
12.66
 20
12.180020447
 30
0.0
 11
12.66
 21
5.4780865977
 31
0.0
  0
LINE
  5
4C
330
1F
100
AcDbEntity
  8
SK1
  6
Continuous
100
AcDbLine
 10
12.535
 20
13.5717424029
 30
0.0
 11
12.535
 21
12.6862813231
 31
0.0
  0
LINE
  5
4D
330
1F
100
AcDbEntity
  8
SK1
  6
Continuous
100
AcDbLine
 10
3.56
 20
-14.9141995098
 30
0.0
 11
3.56
 21
-15.982334117
 31
0.0
  0
LINE
  5
4E
330
1F
100
AcDbEntity
  8
SK1
  6
Continuous
100
AcDbLine
 10
3.0473721046
 20
-15.3260247905
 30
0.0
 11
3.0473721046
 21
-16.4279547479
 31
0.0
  0
LINE
  5
4F
330
1F
100
AcDbEntity
  8
SK1
  6
Continuous
100
AcDbLine
 10
6.96
 20
14.6000000998
 30
0.0
 11
6.96
 21
13.6366513435
 31
0.0
  0
ARC
  5
50
330
1F
100
AcDbEntity
  8
SK1
  6
Continuous
100
AcDbCircle
 10
3.7527009685
 20
13.5232284246
 30
0.0
 40
0.1928619956239739
100
AcDbArc
 50
182.3414991378
 51
272.1689270375
  0
LINE
  5
51
330
1F
100
AcDbEntity
  8
SK1
  6
Continuous
100
AcDbLine
 10
3.76
 20
13.3305045976
 30
0.0
 11
6.96
 21
13.3305045976
 31
0.0
  0
ARC
  5
52
330
1F
100
AcDbEntity
  8
SK1
  6
Continuous
100
AcDbCircle
 10
6.9672932853
 20
13.5232346419
 30
0.0
 40
0.1928679911219356
100
AcDbArc
 50
267.8328486851
 51
357.6567251494
  0
LINE
  5
55
330
1F
100
AcDbEntity
  8
SK3
100
AcDbLine
 10
12.26
 20
8.6391162317
 30
0.0
 11
-22.4412564554
 21
8.6391162317
 31
0.0
  0
ARC
  5
56
330
1F
100
AcDbEntity
  8
SK3
100
AcDbCircle
 10
12.2745145597
 20
9.3307934716
 30
0.0
 40
0.3858036213473743
100
AcDbArc
 50
267.8439307752
 51
357.6728655406
  0
LINE
  5
57
330
1F
100
AcDbEntity
  8
SK1
  6
Continuous
100
AcDbLine
 10
12.66
 20
12.180020447
 30
0.0
 11
12.66
 21
12.4861671929
 31
0.0
  0
ARC
  5
58
330
1F
100
AcDbEntity
  8
SK1
  6
Continuous
100
AcDbCircle
 10
12.4315505616
 20
12.4825650122
 30
0.0
 40
0.2284778361298308
100
AcDbArc
 50
0.9033624596
 51
63.0780264505
  0
LINE
  5
59
330
1F
100
AcDbEntity
  8
SK1
  6
Continuous
100
AcDbLine
 10
12.535
 20
12.6862813231
 30
0.0
 11
7.4631088913
 21
15.3926056849
 31
0.0
  0
ARC
  5
5A
330
1F
100
AcDbEntity
  8
SK1
  6
Continuous
100
AcDbCircle
 10
3.12114953
 20
14.8928963004
 30
0.0
 40
0.4393672384933542
100
AcDbArc
 50
2.779165305
 51
99.6667570996
  0
SPLINE
  5
5B
330
1F
100
AcDbEntity
  8
SK1
  6
Continuous
100
AcDbSpline
210
0.0
220
0.0
230
1.0
 70
     8
 71
     3
 72
    14
 73
    10
 74
     0
 42
0.0000000003971097
 43
0.0000000001
 12
1.0
 22
0.0
 32
0.0
 13
1.0
 23
0.0
 33
0.0
 40
0.0
 40
0.0
 40
0.0
 40
0.0
 40
0.0174031987399629
 40
0.0174031987399629
 40
0.0174031987399629
 40
0.933118748361747
 40
0.933118748361747
 40
0.933118748361747
 40
1.0
 40
1.0
 40
1.0
 40
1.0
 10
3.047372104566782
 20
15.32602498999471
 30
0.0
 10
2.902506612832515
 20
15.30720967056464
 30
0.0
 10
2.757641124194132
 20
15.288394330789
 30
0.0
 10
2.612775638686622
 20
15.26957897043799
 30
0.0
 10
-5.009706851945061
 20
14.2795587849667
 30
0.0
 10
-12.63218119349443
 20
13.28948504023617
 30
0.0
 10
-20.25463946823142
 20
12.29930572625129
 30
0.0
 10
-20.81136207736838
 20
12.2269858536687
 30
0.0
 10
-21.36808459738623
 20
12.1546653955081
 30
0.0
 10
-21.92480702333012
 20
12.08234431922829
 30
0.0
  0
ARC
  5
5C
330
1F
100
AcDbEntity
  8
SK1
  6
Continuous
100
AcDbCircle
 10
3.12114953
 20
14.5867495545
 30
0.0
 40
0.4393672384933542
100
AcDbArc
 50
2.779165305
 51
99.6667570996
  0
SPLINE
  5
5D
330
1F
100
AcDbEntity
  8
SK1
  6
Continuous
100
AcDbSpline
210
0.0
220
0.0
230
1.0
 70
     8
 71
     3
 72
    14
 73
    10
 74
     0
 42
0.0000000003971097
 43
0.0000000001
 12
1.0
 22
0.0
 32
0.0
 13
1.0
 23
0.0
 33
0.0
 40
0.0
 40
0.0
 40
0.0
 40
0.0
 40
0.0174031987399629
 40
0.0174031987399629
 40
0.0174031987399629
 40
0.933118748361747
 40
0.933118748361747
 40
0.933118748361747
 40
1.0
 40
1.0
 40
1.0
 40
1.0
 10
3.047372104566782
 20
15.01987824410264
 30
0.0
 10
2.902506612832515
 20
15.00106292467257
 30
0.0
 10
2.757641124194132
 20
14.98224758489693
 30
0.0
 10
2.612775638686622
 20
14.96343222454592
 30
0.0
 10
-5.009706851945061
 20
13.97341203907463
 30
0.0
 10
-12.63218119349443
 20
12.9833382943441
 30
0.0
 10
-20.25463946823142
 20
11.99315898035922
 30
0.0
 10
-20.81136207736838
 20
11.92083910777663
 30
0.0
 10
-21.36808459738623
 20
11.84851864961603
 30
0.0
 10
-21.92480702333012
 20
11.77619757333622
 30
0.0
  0
ARC
  5
5E
330
1F
100
AcDbEntity
  8
SK3
100
AcDbCircle
 10
12.2745145597
 20
9.0246467257
 30
0.0
 40
0.3858036213473715
100
AcDbArc
 50
267.8439307752
 51
357.6728655406
  0
ARC
  5
5F
330
1F
100
AcDbEntity
  8
SK1
  6
Continuous
100
AcDbCircle
 10
12.4315505616
 20
12.1764182663
 30
0.0
 40
0.2284778361298286
100
AcDbArc
 50
0.9033624596
 51
63.0780264505
  0
LINE
  5
60
330
1F
100
AcDbEntity
  8
SK1
  6
Continuous
100
AcDbLine
 10
12.535
 20
12.3801345772
 30
0.0
 11
7.4631088913
 21
15.086458939
 31
0.0
  0
LINE
  5
61
330
1F
100
AcDbEntity
  8
SK1
  6
Continuous
100
AcDbLine
 10
3.56
 20
14.9141997093
 30
0.0
 11
3.56
 21
14.6080529634
 31
0.0
  0
ARC
  5
62
330
1F
100
AcDbEntity
  8
SK1
  6
Continuous
100
AcDbCircle
 10
3.7527009685
 20
13.8293751705
 30
0.0
 40
0.1928619956239752
100
AcDbArc
 50
182.3414991378
 51
272.1689270375
  0
LINE
  5
63
330
1F
100
AcDbEntity
  8
SK1
  6
Continuous
100
AcDbLine
 10
3.76
 20
13.6366513435
 30
0.0
 11
6.96
 21
13.6366513435
 31
0.0
  0
ARC
  5
64
330
1F
100
AcDbEntity
  8
SK1
  6
Continuous
100
AcDbCircle
 10
6.9672932853
 20
13.8293813878
 30
0.0
 40
0.1928679911219383
100
AcDbArc
 50
267.8328486851
 51
357.6567251494
  0
LINE
  5
65
330
1F
100
AcDbEntity
  8
SK1
  6
Continuous
100
AcDbLine
 10
7.16
 20
15.086458939
 30
0.0
 11
7.16
 21
15.3926056849
 31
0.0
  0
LINE
  5
66
330
1F
100
AcDbEntity
  8
SK3
100
AcDbLine
 10
12.26
 20
8.9452629776
 30
0.0
 11
-22.4412564554
 21
8.9452629776
 31
0.0
  0
LINE
  5
67
330
1F
100
AcDbEntity
  8
SK1
  6
Continuous
100
AcDbLine
 10
-27.0817519303
 20
12.1870201126
 30
0.0
 11
-27.0817519303
 21
8.9003673058
 31
0.0
  0
LINE
  5
68
330
1F
100
AcDbEntity
  8
SK1
  6
Continuous
100
AcDbLine
 10
-27.34
 20
-11.8897755192
 30
0.0
 11
-27.34
 21
-8.6901835797
 31
0.0
  0
SPLINE
  5
69
330
1F
100
AcDbEntity
  8
SK1
  6
Continuous
100
AcDbSpline
210
0.0
220
0.0
230
1.0
 70
     8
 71
     3
 72
    10
 73
     6
 74
     0
 42
0.000000022804885
 43
0.0000000001
 12
1.0
 22
0.0
 32
0.0
 13
1.0
 23
0.0
 33
0.0
 40
0.0
 40
0.0
 40
0.0
 40
0.0
 40
0.5
 40
0.5
 40
1.0
 40
1.0
 40
1.0
 40
1.0
 10
-27.34000000000129
 20
-11.88977551921636
 30
0.0
 10
-27.34000000000116
 20
-11.96123664509199
 30
0.0
 10
-27.31325218560603
 20
-12.03271861875489
 30
0.0
 10
-27.21983457328473
 20
-12.14038628228183
 30
0.0
 10
-27.15326761692436
 20
-12.17696362646716
 30
0.0
 10
-27.08175193028917
 20
-12.18701991305817
 30
0.0
  0
SPLINE
  5
6A
330
1F
100
AcDbEntity
  8
SK1
  6
Continuous
100
AcDbSpline
210
0.0
220
0.0
230
1.0
 70
     8
 71
     3
 72
    10
 73
     6
 74
     0
 42
0.0000000228012562
 43
0.0000000001
 12
1.0
 22
0.0
 32
0.0
 13
1.0
 23
0.0
 33
0.0
 40
0.0
 40
0.0
 40
0.0
 40
0.0
 40
0.5
 40
0.5
 40
1.0
 40
1.0
 40
1.0
 40
1.0
 10
-27.08175193028917
 20
12.18702011259956
 30
0.0
 10
-27.15329203371374
 20
12.17696039260168
 30
0.0
 10
-27.21937890303969
 20
12.14086400426049
 30
0.0
 10
-27.31353686663112
 20
12.03243828152373
 30
0.0
 10
-27.34000000000115
 20
11.9612655161153
 30
0.0
 10
-27.34000000000129
 20
11.88977571875778
 30
0.0
  0
LINE
  5
6B
330
1F
100
AcDbEntity
  8
SK3
100
AcDbLine
 10
-26.4574682453
 20
-9.5165972438
 30
0.0
 11
-26.4574682453
 21
-7.0120931282
 31
0.0
  0
LINE
  5
6C
330
1F
100
AcDbEntity
  8
SK3
100
AcDbLine
 10
-26.4574682453
 20
-9.5165972438
 30
0.0
 11
-2.723953906
 21
-9.5165972438
 31
0.0
  0
LINE
  5
6D
330
1F
100
AcDbEntity
  8
SK3
100
AcDbLine
 10
-27.34
 20
10.0265544052
 30
0.0
 11
-26.4574682453
 21
9.5165974434
 31
0.0
  0
SPLINE
  5
6E
330
1F
100
AcDbEntity
  8
SK1
  6
Continuous
100
AcDbSpline
210
0.0
220
0.0
230
1.0
 70
     8
 71
     3
 72
    11
 73
     7
 74
     0
 42
0.0000000004241712
 43
0.0000000001
 12
1.0
 22
0.0
 32
0.0
 13
1.0
 23
0.0
 33
0.0
 40
0.0
 40
0.0
 40
0.0
 40
0.0
 40
0.9080456425272275
 40
0.9080456425272275
 40
0.9080456425272275
 40
1.0
 40
1.0
 40
1.0
 40
1.0
 10
-27.08175193028917
 20
-12.18701991305817
 30
0.0
 10
-20.01542884374148
 20
-13.18066163654469
 30
0.0
 10
-12.9490884215092
 20
-14.17418007798889
 30
0.0
 10
-5.882739207700681
 20
-15.16763597869006
 30
0.0
 10
-5.167156673909374
 20
-15.26823951088523
 30
0.0
 10
-4.451574044250608
 20
-15.36884236118717
 30
0.0
 10
-3.735991324229844
 20
-15.46944456874255
 30
0.0
  0
LINE
  5
6F
330
1F
100
AcDbEntity
  8
SK3
100
AcDbLine
 10
-26.4574682453
 20
-9.5165972438
 30
0.0
 11
-27.34
 21
-10.0265542057
 31
0.0
  0
LINE
  5
70
330
1F
100
AcDbEntity
  8
SK1
  6
Continuous
100
AcDbLine
 10
12.66
 20
13.3552360519
 30
0.0
 11
12.66
 21
12.4861671929
 31
0.0
  0
LINE
  5
71
330
1F
100
AcDbEntity
  8
SK1
  6
Continuous
100
AcDbLine
 10
3.76
 20
14.6000000998
 30
0.0
 11
3.76
 21
13.6366513435
 31
0.0
  0
LINE
  5
72
330
1F
100
AcDbEntity
  8
SK1
  6
Continuous
100
AcDbLine
 10
7.16
 20
-15.0864587395
 30
0.0
 11
7.16
 21
-6.6819726397
 31
0.0
  0
LINE
  5
73
330
1F
100
AcDbEntity
  8
SK1
  6
Continuous
100
AcDbLine
 10
7.4631088913
 20
-15.0864587395
 30
0.0
 11
7.4631088913
 21
-6.6819726397
 31
0.0
  0
LINE
  5
74
330
1F
100
AcDbEntity
  8
SK1
  6
Continuous
100
AcDbLine
 10
12.535
 20
-12.3801343776
 30
0.0
 11
12.535
 21
-5.5609763849
 31
0.0
  0
LINE
  5
75
330
1F
100
AcDbEntity
  8
SK1
  6
Continuous
100
AcDbLine
 10
12.66
 20
-12.4861669934
 30
0.0
 11
12.66
 21
-13.3552358524
 31
0.0
  0
LINE
  5
76
330
1F
100
AcDbEntity
  8
SK1
  6
Continuous
100
AcDbLine
 10
3.0473721046
 20
-15.0198780446
 30
0.0
 11
3.0473721046
 21
-6.6543940129
 31
0.0
  0
LINE
  5
77
330
1F
100
AcDbEntity
  8
SK1
  6
Continuous
100
AcDbLine
 10
3.56
 20
-14.6080527639
 30
0.0
 11
3.56
 21
-6.4838103963
 31
0.0
  0
LINE
  5
78
330
1F
100
AcDbEntity
  8
SK1
  6
Continuous
100
AcDbLine
 10
6.96
 20
-13.330504398
 30
0.0
 11
6.96
 21
-5.9546325366
 31
0.0
  0
LINE
  5
79
330
1F
100
AcDbEntity
  8
SK1
  6
Continuous
100
AcDbLine
 10
3.76
 20
-13.6366511439
 30
0.0
 11
3.76
 21
-14.5999999002
 31
0.0
  0
ARC
  5
7A
330
1F
100
AcDbEntity
  8
SK1
  6
Continuous
100
AcDbCircle
 10
6.967295287
 20
-13.5232322765
 30
0.0
 40
0.1928659025472767
100
AcDbArc
 50
2.3426562868
 51
92.1677698787
  0
LINE
  5
7B
330
1F
100
AcDbEntity
  8
SK1
  6
Continuous
100
AcDbLine
 10
6.96
 20
-13.330504398
 30
0.0
 11
3.76
 21
-13.330504398
 31
0.0
  0
ARC
  5
7C
330
1F
100
AcDbEntity
  8
SK1
  6
Continuous
100
AcDbCircle
 10
3.7527050682
 20
-13.5232326608
 30
0.0
 40
0.1928662731557804
100
AcDbArc
 50
87.8323398835
 51
177.6572339504
  0
ARC
  5
7D
330
1F
100
AcDbEntity
  8
SK1
  6
Continuous
100
AcDbCircle
 10
3.1211335529
 20
-14.5867294672
 30
0.0
 40
0.4393841614716074
100
AcDbArc
 50
260.3357322026
 51
357.2183453926
  0
LINE
  5
7E
330
1F
100
AcDbEntity
  8
SK1
  6
Continuous
100
AcDbLine
 10
7.16
 20
-15.0864587395
 30
0.0
 11
7.4631088913
 21
-15.0864587395
 31
0.0
  0
LINE
  5
7F
330
1F
100
AcDbEntity
  8
SK1
  6
Continuous
100
AcDbLine
 10
7.4631088913
 20
-15.0864587395
 30
0.0
 11
12.535
 21
-12.3801343776
 31
0.0
  0
ARC
  5
80
330
1F
100
AcDbEntity
  8
SK1
  6
Continuous
100
AcDbCircle
 10
12.4286867999
 20
-12.1746292365
 30
0.0
 40
0.2313760133481179
100
AcDbArc
 50
297.3537111502
 51
358.6648999396
  0
ARC
  5
81
330
1F
100
AcDbEntity
  8
SK3
100
AcDbCircle
 10
12.274507662
 20
-9.0246539858
 30
0.0
 40
0.3858108162896332
100
AcDbArc
 50
2.3281997699
 51
92.1550039173
  0
ARC
  5
82
330
1F
100
AcDbEntity
  8
SK1
  6
Continuous
100
AcDbCircle
 10
3.1211335529
 20
-14.8928762131
 30
0.0
 40
0.4393841614716019
100
AcDbArc
 50
260.3357322026
 51
357.2183453927
  0
LINE
  5
83
330
1F
100
AcDbEntity
  8
SK1
  6
Continuous
100
AcDbLine
 10
7.16
 20
-15.3926054854
 30
0.0
 11
7.4631088913
 21
-15.3926054854
 31
0.0
  0
LINE
  5
84
330
1F
100
AcDbEntity
  8
SK1
  6
Continuous
100
AcDbLine
 10
7.4631088913
 20
-15.3926054854
 30
0.0
 11
12.535
 21
-12.6862811235
 31
0.0
  0
ARC
  5
85
330
1F
100
AcDbEntity
  8
SK1
  6
Continuous
100
AcDbCircle
 10
12.4286867999
 20
-12.4807759824
 30
0.0
 40
0.2313760133482017
100
AcDbArc
 50
297.3537111502
 51
358.6648999396
  0
LINE
  5
86
330
1F
100
AcDbEntity
  8
SK1
  6
Continuous
100
AcDbLine
 10
12.66
 20
-12.4861669934
 30
0.0
 11
12.66
 21
-12.1800202475
 31
0.0
  0
ARC
  5
87
330
1F
100
AcDbEntity
  8
SK3
100
AcDbCircle
 10
12.274507662
 20
-9.3308007317
 30
0.0
 40
0.385810816289634
100
AcDbArc
 50
2.3281997699
 51
92.1550039173
  0
LINE
  5
88
330
1F
100
AcDbEntity
  8
SK1
  6
Continuous
100
AcDbLine
 10
7.16
 20
-15.3926054854
 30
0.0
 11
7.16
 21
-15.0864587395
 31
0.0
  0
ARC
  5
89
330
1F
100
AcDbEntity
  8
SK1
  6
Continuous
100
AcDbCircle
 10
6.967295287
 20
-13.8293790224
 30
0.0
 40
0.1928659025472804
100
AcDbArc
 50
2.3426562868
 51
92.1677698787
  0
LINE
  5
8A
330
1F
100
AcDbEntity
  8
SK1
  6
Continuous
100
AcDbLine
 10
6.96
 20
-13.6366511439
 30
0.0
 11
3.76
 21
-13.6366511439
 31
0.0
  0
ARC
  5
8B
330
1F
100
AcDbEntity
  8
SK1
  6
Continuous
100
AcDbCircle
 10
3.7527050682
 20
-13.8293794067
 30
0.0
 40
0.1928662731557801
100
AcDbArc
 50
87.8323398835
 51
177.6572339504
  0
LINE
  5
8C
330
1F
100
AcDbEntity
  8
SK1
  6
Continuous
100
AcDbLine
 10
3.56
 20
-14.6080527639
 30
0.0
 11
3.56
 21
-14.9141995098
 31
0.0
  0
LINE
  5
8D
330
1F
100
AcDbEntity
  8
SK1
  6
Continuous
100
AcDbLine
 10
-27.0817519303
 20
-8.9003671062
 30
0.0
 11
-27.0817519303
 21
-12.1870199131
 31
0.0
  0
LINE
  5
8E
330
1F
100
AcDbEntity
  8
SK1
  6
Continuous
100
AcDbLine
 10
-27.34
 20
-8.1244981547
 30
0.0
 11
-27.34
 21
-0.3999999002
 31
0.0
  0
LINE
  5
8F
330
1F
100
AcDbEntity
  8
SK3
100
AcDbLine
 10
-26.4574682453
 20
-6.4464077032
 30
0.0
 11
-26.4574682453
 21
-0.3999999002
 31
0.0
  0
LINE
  5
90
330
1F
100
AcDbEntity
  8
SK3
100
AcDbLine
 10
-26.4574682453
 20
-6.4464077032
 30
0.0
 11
-2.723953906
 21
-6.4464077032
 31
0.0
  0
SPLINE
  5
91
330
1F
100
AcDbEntity
  8
SK1
  6
Continuous
100
AcDbSpline
210
0.0
220
0.0
230
1.0
 70
     8
 71
     3
 72
    10
 73
     6
 74
     0
 42
0.0000000269170392
 43
0.0000000001
 12
1.0
 22
0.0
 32
0.0
 13
1.0
 23
0.0
 33
0.0
 40
0.0
 40
0.0
 40
0.0
 40
0.0
 40
0.5
 40
0.5
 40
1.0
 40
1.0
 40
1.0
 40
1.0
 10
-27.34000000000129
 20
-8.124498154726906
 30
0.0
 10
-27.34000000000116
 20
-8.175028801424789
 30
0.0
 10
-27.31325218560603
 20
-8.225574189734424
 30
0.0
 10
-27.21983457328473
 20
-8.301706724728836
 30
0.0
 10
-27.15326761692436
 20
-8.327570812840078
 30
0.0
 10
-27.08175193028917
 20
-8.334681681282133
 30
0.0
  0
LINE
  5
92
330
1F
100
AcDbEntity
  8
SK1
  6
Continuous
100
AcDbLine
 10
-27.0817519303
 20
-8.3346816813
 30
0.0
 11
-3.7359913242
 21
-10.6557064141
 31
0.0
  0
LINE
  5
93
330
1F
100
AcDbEntity
  8
SK3
100
AcDbLine
 10
-26.4574682453
 20
-6.4464077032
 30
0.0
 11
-27.34
 21
-6.8070017291
 31
0.0
  0
SPLINE
  5
94
330
1F
100
AcDbEntity
  8
SK1
  6
Continuous
100
AcDbSpline
210
0.0
220
0.0
230
1.0
 70
     8
 71
     3
 72
    10
 73
     6
 74
     0
 42
0.0000000269170392
 43
0.0000000001
 12
1.0
 22
0.0
 32
0.0
 13
1.0
 23
0.0
 33
0.0
 40
0.0
 40
0.0
 40
0.0
 40
0.0
 40
0.5
 40
0.5
 40
1.0
 40
1.0
 40
1.0
 40
1.0
 10
-27.34000000000115
 20
-8.69018357967615
 30
0.0
 10
-27.34000000000115
 20
-8.740714226374038
 30
0.0
 10
-27.31325218560602
 20
-8.79125961468367
 30
0.0
 10
-27.21983457328473
 20
-8.867392149678077
 30
0.0
 10
-27.15326761692435
 20
-8.893256237789315
 30
0.0
 10
-27.08175193028917
 20
-8.900367106231373
 30
0.0
  0
LINE
  5
95
330
1F
100
AcDbEntity
  8
SK1
  6
Continuous
100
AcDbLine
 10
-27.0817519303
 20
-8.9003671062
 30
0.0
 11
-3.7359913242
 21
-11.221391839
 31
0.0
  0
LINE
  5
96
330
1F
100
AcDbEntity
  8
SK3
100
AcDbLine
 10
-26.4574682453
 20
-7.0120931282
 30
0.0
 11
-27.34
 21
-7.372687154
 31
0.0
  0
LINE
  5
97
330
1F
100
AcDbEntity
  8
SK1
  6
Continuous
100
AcDbLine
 10
-27.34
 20
-8.1244981547
 30
0.0
 11
-27.34
 21
-8.6901835797
 31
0.0
  0
LINE
  5
98
330
1F
100
AcDbEntity
  8
SK3
100
AcDbLine
 10
-26.4574682453
 20
-7.0120931282
 30
0.0
 11
-2.723953906
 21
-7.0120931282
 31
0.0
  0
LINE
  5
99
330
1F
100
AcDbEntity
  8
SK1
  6
Continuous
100
AcDbLine
 10
7.16
 20
-5.9428690137
 30
0.0
 11
7.16
 21
5.9428692133
 31
0.0
  0
LINE
  5
9A
330
1F
100
AcDbEntity
  8
SK1
  6
Continuous
100
AcDbLine
 10
7.4631088913
 20
-5.9428690137
 30
0.0
 11
7.4631088913
 21
5.9428692133
 31
0.0
  0
LINE
  5
9B
330
1F
100
AcDbEntity
  8
SK1
  6
Continuous
100
AcDbLine
 10
12.535
 20
-4.8218727589
 30
0.0
 11
12.535
 21
4.8218729584
 31
0.0
  0
LINE
  5
9C
330
1F
100
AcDbEntity
  8
SK1
  6
Continuous
100
AcDbLine
 10
12.66
 20
-5.4780863982
 30
0.0
 11
12.66
 21
-12.1800202475
 31
0.0
  0
LINE
  5
9D
330
1F
100
AcDbEntity
  8
SK1
  6
Continuous
100
AcDbLine
 10
3.0473721046
 20
-5.9152903869
 30
0.0
 11
3.0473721046
 21
5.9152905865
 31
0.0
  0
LINE
  5
9E
330
1F
100
AcDbEntity
  8
SK1
  6
Continuous
100
AcDbLine
 10
3.56
 20
-5.7447067703
 30
0.0
 11
3.56
 21
5.7447069699
 31
0.0
  0
LINE
  5
9F
330
1F
100
AcDbEntity
  8
SK1
  6
Continuous
100
AcDbLine
 10
6.96
 20
-5.2155289106
 30
0.0
 11
6.96
 21
5.2155291101
 31
0.0
  0
LINE
  5
A0
330
1F
100
AcDbEntity
  8
SK1
  6
Continuous
100
AcDbLine
 10
3.76
 20
-5.9546325366
 30
0.0
 11
3.76
 21
-13.330504398
 31
0.0
  0
SPLINE
  5
A1
330
1F
100
AcDbEntity
  8
SK1
  6
Continuous
100
AcDbSpline
210
0.0
220
0.0
230
1.0
 70
     8
 71
     3
 72
    10
 73
     6
 74
     0
 42
0.0000000427826839
 43
0.0000000001
 12
1.0
 22
0.0
 32
0.0
 13
1.0
 23
0.0
 33
0.0
 40
0.0
 40
0.0
 40
0.0
 40
0.0
 40
0.5
 40
0.5
 40
1.0
 40
1.0
 40
1.0
 40
1.0
 10
7.159999999998852
 20
-5.292093949246198
 30
0.0
 10
7.159999999998853
 20
-5.2720813662805
 30
0.0
 10
7.138635819676234
 20
-5.252199598034978
 30
0.0
 10
7.064192627191549
 20
-5.223703683752697
 30
0.0
 10
7.01224911197389
 20
-5.215528910599916
 30
0.0
 10
6.959999999998867
 20
-5.215528910599846
 30
0.0
  0
LINE
  5
A2
330
1F
100
AcDbEntity
  8
SK1
  6
Continuous
100
AcDbLine
 10
6.96
 20
-5.2155289106
 30
0.0
 11
3.76
 21
-5.2155289106
 31
0.0
  0
SPLINE
  5
A3
330
1F
100
AcDbEntity
  8
SK1
  6
Continuous
100
AcDbSpline
210
0.0
220
0.0
230
1.0
 70
     8
 71
     3
 72
    10
 73
     6
 74
     0
 42
0.0000000427930393
 43
0.0000000001
 12
1.0
 22
0.0
 32
0.0
 13
1.0
 23
0.0
 33
0.0
 40
0.0
 40
0.0
 40
0.0
 40
0.0
 40
0.5
 40
0.5
 40
1.0
 40
1.0
 40
1.0
 40
1.0
 10
3.759999999998849
 20
-5.215528910599915
 30
0.0
 10
3.707859588764295
 20
-5.215528910599914
 30
0.0
 10
3.655643858537099
 20
-5.22379204438378
 30
0.0
 10
3.581785416291703
 20
-5.252012674594293
 30
0.0
 10
3.55999999999929
 20
-5.272150050518223
 30
0.0
 10
3.559999999988831
 20
-5.292093949245682
 30
0.0
  0
SPLINE
  5
A4
330
1F
100
AcDbEntity
  8
SK1
  6
Continuous
100
AcDbSpline
210
0.0
220
0.0
230
1.0
 70
     8
 71
     3
 72
    10
 73
     6
 74
     0
 42
0.0000000169213589
 43
0.0000000001
 12
1.0
 22
0.0
 32
0.0
 13
1.0
 23
0.0
 33
0.0
 40
0.0
 40
0.0
 40
0.0
 40
0.0
 40
0.5
 40
0.5
 40
1.0
 40
1.0
 40
1.0
 40
1.0
 10
3.047372104566653
 20
-5.915290386915348
 30
0.0
 10
3.173819526775257
 20
-5.922093081062555
 30
0.0
 10
3.309218523066237
 20
-5.906702229863191
 30
0.0
 10
3.501666558320423
 20
-5.842580599249552
 30
0.0
 10
3.559999999998851
 20
-5.794032848316315
 30
0.0
 10
3.559999999998851
 20
-5.744706770316219
 30
0.0
  0
LINE
  5
A5
330
1F
100
AcDbEntity
  8
SK1
  6
Continuous
100
AcDbLine
 10
7.16
 20
-5.9428690137
 30
0.0
 11
7.4631088913
 21
-5.9428690137
 31
0.0
  0
SPLINE
  5
A6
330
1F
100
AcDbEntity
  8
SK1
  6
Continuous
100
AcDbSpline
210
0.0
220
0.0
230
1.0
 70
     8
 71
     3
 72
     8
 73
     4
 74
     0
 42
0.0000000019251887
 43
0.0000000001
 12
1.0
 22
0.0
 32
0.0
 13
1.0
 23
0.0
 33
0.0
 40
0.0
 40
0.0
 40
0.0
 40
0.0
 40
1.0
 40
1.0
 40
1.0
 40
1.0
 10
7.463108891323422
 20
-5.942869013737534
 30
0.0
 10
9.15376609178058
 20
-5.569221371969263
 30
0.0
 10
10.84440226444394
 20
-5.195559789107262
 30
0.0
 10
12.53499999999885
 20
-4.821872758885745
 30
0.0
  0
SPLINE
  5
A7
330
1F
100
AcDbEntity
  8
SK1
  6
Continuous
100
AcDbSpline
210
0.0
220
0.0
230
1.0
 70
     8
 71
     3
 72
    10
 73
     6
 74
     0
 42
0.0000000616220022
 43
0.0000000001
 12
1.0
 22
0.0
 32
0.0
 13
1.0
 23
0.0
 33
0.0
 40
0.0
 40
0.0
 40
0.0
 40
0.0
 40
0.5
 40
0.5
 40
1.0
 40
1.0
 40
1.0
 40
1.0
 10
12.53499999999885
 20
-4.821872758885745
 30
0.0
 10
12.57278451834397
 20
-4.813520929144235
 30
0.0
 10
12.60478782474016
 20
-4.801271806686355
 30
0.0
 10
12.64845197751686
 20
-4.772256384122047
 30
0.0
 10
12.6599999999989
 20
-4.755627240031735
 30
0.0
 10
12.66000000000039
 20
-4.738982772143362
 30
0.0
  0
SPLINE
  5
A8
330
1F
100
AcDbEntity
  8
SK3
100
AcDbSpline
210
0.0
220
0.0
230
1.0
 70
     8
 71
     3
 72
    10
 73
     6
 74
     0
 42
0.0000000213921938
 43
0.0000000001
 12
1.0
 22
0.0
 32
0.0
 13
1.0
 23
0.0
 33
0.0
 40
0.0
 40
0.0
 40
0.0
 40
0.0
 40
0.5
 40
0.5
 40
1.0
 40
1.0
 40
1.0
 40
1.0
 10
12.65999999999885
 20
-3.425495297897577
 30
0.0
 10
12.65999999999885
 20
-3.385404942698064
 30
0.0
 10
12.61634017403724
 20
-3.345277593565657
 30
0.0
 10
12.46895971535205
 20
-3.28890580303099
 30
0.0
 10
12.36487758329993
 20
-3.272292223105809
 30
0.0
 10
12.25999999999885
 20
-3.272292223105809
 30
0.0
  0
SPLINE
  5
A9
330
1F
100
AcDbEntity
  8
SK1
  6
Continuous
100
AcDbSpline
210
0.0
220
0.0
230
1.0
 70
     8
 71
     3
 72
    10
 73
     6
 74
     0
 42
0.0000000169213589
 43
0.0000000001
 12
1.0
 22
0.0
 32
0.0
 13
1.0
 23
0.0
 33
0.0
 40
0.0
 40
0.0
 40
0.0
 40
0.0
 40
0.5
 40
0.5
 40
1.0
 40
1.0
 40
1.0
 40
1.0
 10
3.047372104566653
 20
-6.654394012924378
 30
0.0
 10
3.173819526775255
 20
-6.661196707071585
 30
0.0
 10
3.309218523066239
 20
-6.645805855872224
 30
0.0
 10
3.501666558320427
 20
-6.581684225258582
 30
0.0
 10
3.559999999998851
 20
-6.533136474325344
 30
0.0
 10
3.559999999998851
 20
-6.483810396325247
 30
0.0
  0
LINE
  5
AA
330
1F
100
AcDbEntity
  8
SK1
  6
Continuous
100
AcDbLine
 10
7.16
 20
-6.6819726397
 30
0.0
 11
7.4631088913
 21
-6.6819726397
 31
0.0
  0
SPLINE
  5
AB
330
1F
100
AcDbEntity
  8
SK1
  6
Continuous
100
AcDbSpline
210
0.0
220
0.0
230
1.0
 70
     8
 71
     3
 72
     8
 73
     4
 74
     0
 42
0.0000000019251887
 43
0.0000000001
 12
1.0
 22
0.0
 32
0.0
 13
1.0
 23
0.0
 33
0.0
 40
0.0
 40
0.0
 40
0.0
 40
0.0
 40
1.0
 40
1.0
 40
1.0
 40
1.0
 10
7.463108891323422
 20
-6.681972639746563
 30
0.0
 10
9.15376609178058
 20
-6.308324997978291
 30
0.0
 10
10.84440226444394
 20
-5.934663415116292
 30
0.0
 10
12.53499999999885
 20
-5.560976384894776
 30
0.0
  0
SPLINE
  5
AC
330
1F
100
AcDbEntity
  8
SK1
  6
Continuous
100
AcDbSpline
210
0.0
220
0.0
230
1.0
 70
     8
 71
     3
 72
    10
 73
     6
 74
     0
 42
0.0000000616220022
 43
0.0000000001
 12
1.0
 22
0.0
 32
0.0
 13
1.0
 23
0.0
 33
0.0
 40
0.0
 40
0.0
 40
0.0
 40
0.0
 40
0.5
 40
0.5
 40
1.0
 40
1.0
 40
1.0
 40
1.0
 10
12.53499999999885
 20
-5.560976384894776
 30
0.0
 10
12.57278451834397
 20
-5.552624555153264
 30
0.0
 10
12.60478782474016
 20
-5.540375432695384
 30
0.0
 10
12.64845197751686
 20
-5.511360010131076
 30
0.0
 10
12.6599999999989
 20
-5.494730866040763
 30
0.0
 10
12.66000000000039
 20
-5.478086398152391
 30
0.0
  0
LINE
  5
AD
330
1F
100
AcDbEntity
  8
SK1
  6
Continuous
100
AcDbLine
 10
12.66
 20
-5.4780863982
 30
0.0
 11
12.66
 21
-4.7389827721
 31
0.0
  0
SPLINE
  5
AE
330
1F
100
AcDbEntity
  8
SK3
100
AcDbSpline
210
0.0
220
0.0
230
1.0
 70
     8
 71
     3
 72
    10
 73
     6
 74
     0
 42
0.0000000213921938
 43
0.0000000001
 12
1.0
 22
0.0
 32
0.0
 13
1.0
 23
0.0
 33
0.0
 40
0.0
 40
0.0
 40
0.0
 40
0.0
 40
0.5
 40
0.5
 40
1.0
 40
1.0
 40
1.0
 40
1.0
 10
12.65999999999885
 20
-4.164598923906606
 30
0.0
 10
12.65999999999885
 20
-4.124508568707093
 30
0.0
 10
12.61634017403724
 20
-4.084381219574686
 30
0.0
 10
12.46895971535205
 20
-4.02800942904002
 30
0.0
 10
12.36487758329993
 20
-4.011395849114838
 30
0.0
 10
12.25999999999885
 20
-4.011395849114837
 30
0.0
  0
LINE
  5
AF
330
1F
100
AcDbEntity
  8
SK1
  6
Continuous
100
AcDbLine
 10
7.16
 20
-6.6819726397
 30
0.0
 11
7.16
 21
-6.0311975753
 31
0.0
  0
SPLINE
  5
B0
330
1F
100
AcDbEntity
  8
SK1
  6
Continuous
100
AcDbSpline
210
0.0
220
0.0
230
1.0
 70
     8
 71
     3
 72
    10
 73
     6
 74
     0
 42
0.0000000427826839
 43
0.0000000001
 12
1.0
 22
0.0
 32
0.0
 13
1.0
 23
0.0
 33
0.0
 40
0.0
 40
0.0
 40
0.0
 40
0.0
 40
0.5
 40
0.5
 40
1.0
 40
1.0
 40
1.0
 40
1.0
 10
7.159999999998852
 20
-6.031197575255225
 30
0.0
 10
7.159999999998853
 20
-6.011184992289529
 30
0.0
 10
7.138635819676234
 20
-5.991303224044008
 30
0.0
 10
7.064192627191549
 20
-5.962807309761726
 30
0.0
 10
7.01224911197389
 20
-5.954632536608946
 30
0.0
 10
6.959999999998867
 20
-5.954632536608875
 30
0.0
  0
LINE
  5
B1
330
1F
100
AcDbEntity
  8
SK1
  6
Continuous
100
AcDbLine
 10
6.96
 20
-5.9546325366
 30
0.0
 11
3.76
 21
-5.9546325366
 31
0.0
  0
SPLINE
  5
B2
330
1F
100
AcDbEntity
  8
SK1
  6
Continuous
100
AcDbSpline
210
0.0
220
0.0
230
1.0
 70
     8
 71
     3
 72
    10
 73
     6
 74
     0
 42
0.0000000427930393
 43
0.0000000001
 12
1.0
 22
0.0
 32
0.0
 13
1.0
 23
0.0
 33
0.0
 40
0.0
 40
0.0
 40
0.0
 40
0.0
 40
0.5
 40
0.5
 40
1.0
 40
1.0
 40
1.0
 40
1.0
 10
3.759999999998849
 20
-5.954632536608944
 30
0.0
 10
3.707859588764295
 20
-5.954632536608942
 30
0.0
 10
3.655643858537099
 20
-5.962895670392808
 30
0.0
 10
3.581785416291703
 20
-5.991116300603322
 30
0.0
 10
3.55999999999929
 20
-6.011253676527252
 30
0.0
 10
3.559999999988831
 20
-6.031197575254709
 30
0.0
  0
LINE
  5
B3
330
1F
100
AcDbEntity
  8
SK1
  6
Continuous
100
AcDbLine
 10
3.56
 20
-6.0311975753
 30
0.0
 11
3.56
 21
-6.4838103963
 31
0.0
  0
LINE
  5
B4
330
1F
100
AcDbEntity
  8
SK1
  6
Continuous
100
AcDbLine
 10
-27.34
 20
0.4000000998
 30
0.0
 11
-27.34
 21
8.1244983543
 31
0.0
  0
LINE
  5
B5
330
1F
100
AcDbEntity
  8
SK1
  6
Continuous
100
AcDbLine
 10
-27.0817519303
 20
-0.3999999002
 30
0.0
 11
-27.0817519303
 21
-8.3346816813
 31
0.0
  0
LINE
  5
B6
330
1F
100
AcDbEntity
  8
SK3
100
AcDbLine
 10
-26.4574682453
 20
0.4000000998
 30
0.0
 11
-26.4574682453
 21
6.4464079028
 31
0.0
  0
LINE
  5
B7
330
1F
100
AcDbEntity
  8
SK1
  6
Continuous
100
AcDbLine
 10
-27.34
 20
0.4000000998
 30
0.0
 11
-27.0817519303
 21
0.4000000998
 31
0.0
  0
LINE
  5
B8
330
1F
100
AcDbEntity
  8
SK1
  6
Continuous
100
AcDbLine
 10
-27.0817519303
 20
0.4000000998
 30
0.0
 11
-3.7359913242
 21
0.4000000998
 31
0.0
  0
LINE
  5
B9
330
1F
100
AcDbEntity
  8
SK1
  6
Continuous
100
AcDbLine
 10
-27.34
 20
-0.3999999002
 30
0.0
 11
-27.0817519303
 21
-0.3999999002
 31
0.0
  0
LINE
  5
BA
330
1F
100
AcDbEntity
  8
SK1
  6
Continuous
100
AcDbLine
 10
-27.0817519303
 20
-0.3999999002
 30
0.0
 11
-3.7359913242
 21
-0.3999999002
 31
0.0
  0
LINE
  5
BB
330
1F
100
AcDbEntity
  8
SK1
  6
Continuous
100
AcDbLine
 10
7.16
 20
6.6819728393
 30
0.0
 11
7.16
 21
15.086458939
 31
0.0
  0
LINE
  5
BC
330
1F
100
AcDbEntity
  8
SK1
  6
Continuous
100
AcDbLine
 10
7.4631088913
 20
6.6819728393
 30
0.0
 11
7.4631088913
 21
15.086458939
 31
0.0
  0
LINE
  5
BD
330
1F
100
AcDbEntity
  8
SK1
  6
Continuous
100
AcDbLine
 10
12.535
 20
5.5609765844
 30
0.0
 11
12.535
 21
12.3801345772
 31
0.0
  0
LINE
  5
BE
330
1F
100
AcDbEntity
  8
SK1
  6
Continuous
100
AcDbLine
 10
12.66
 20
4.7389829717
 30
0.0
 11
12.66
 21
-4.7389827721
 31
0.0
  0
LINE
  5
BF
330
1F
100
AcDbEntity
  8
SK1
  6
Continuous
100
AcDbLine
 10
3.0473721046
 20
6.6543942125
 30
0.0
 11
3.0473721046
 21
15.0198782441
 31
0.0
  0
LINE
  5
C0
330
1F
100
AcDbEntity
  8
SK1
  6
Continuous
100
AcDbLine
 10
3.56
 20
6.4838105959
 30
0.0
 11
3.56
 21
14.6080529634
 31
0.0
  0
LINE
  5
C1
330
1F
100
AcDbEntity
  8
SK1
  6
Continuous
100
AcDbLine
 10
6.96
 20
5.9546327362
 30
0.0
 11
6.96
 21
13.3305045976
 31
0.0
  0
LINE
  5
C2
330
1F
100
AcDbEntity
  8
SK1
  6
Continuous
100
AcDbLine
 10
3.76
 20
5.2155291101
 30
0.0
 11
3.76
 21
-5.2155289106
 31
0.0
  0
LINE
  5
C3
330
1F
100
AcDbEntity
  8
SK1
  6
Continuous
100
AcDbLine
 10
7.16
 20
6.6819728393
 30
0.0
 11
7.16
 21
6.0311977748
 31
0.0
  0
SPLINE
  5
C4
330
1F
100
AcDbEntity
  8
SK1
  6
Continuous
100
AcDbSpline
210
0.0
220
0.0
230
1.0
 70
     8
 71
     3
 72
    10
 73
     6
 74
     0
 42
0.0000000427824414
 43
0.0000000001
 12
1.0
 22
0.0
 32
0.0
 13
1.0
 23
0.0
 33
0.0
 40
0.0
 40
0.0
 40
0.0
 40
0.0
 40
0.5
 40
0.5
 40
1.0
 40
1.0
 40
1.0
 40
1.0
 10
7.159999999998852
 20
6.031197774796638
 30
0.0
 10
7.159999999998856
 20
6.011237063787545
 30
0.0
 10
7.138792746348789
 20
5.991378542977356
 30
0.0
 10
7.064184492778169
 20
5.962789375685927
 30
0.0
 10
7.012831382486829
 20
5.954632736150049
 30
0.0
 10
6.959999999998851
 20
5.954632736150356
 30
0.0
  0
LINE
  5
C5
330
1F
100
AcDbEntity
  8
SK1
  6
Continuous
100
AcDbLine
 10
6.96
 20
5.9546327362
 30
0.0
 11
3.76
 21
5.9546327362
 31
0.0
  0
SPLINE
  5
C6
330
1F
100
AcDbEntity
  8
SK1
  6
Continuous
100
AcDbSpline
210
0.0
220
0.0
230
1.0
 70
     8
 71
     3
 72
    10
 73
     6
 74
     0
 42
0.0000000427888826
 43
0.0000000001
 12
1.0
 22
0.0
 32
0.0
 13
1.0
 23
0.0
 33
0.0
 40
0.0
 40
0.0
 40
0.0
 40
0.0
 40
0.5
 40
0.5
 40
1.0
 40
1.0
 40
1.0
 40
1.0
 10
3.759999999998849
 20
5.954632736150356
 30
0.0
 10
3.707128834287173
 20
5.954632736150354
 30
0.0
 10
3.655412931720295
 20
5.962944612910954
 30
0.0
 10
3.58161956848271
 20
5.991219573861275
 30
0.0
 10
3.55999999999874
 20
6.011219705364262
 30
0.0
 10
3.559999999996465
 20
6.031197774796745
 30
0.0
  0
LINE
  5
C7
330
1F
100
AcDbEntity
  8
SK1
  6
Continuous
100
AcDbLine
 10
3.56
 20
6.0311977748
 30
0.0
 11
3.56
 21
6.4838105959
 31
0.0
  0
SPLINE
  5
C8
330
1F
100
AcDbEntity
  8
SK1
  6
Continuous
100
AcDbSpline
210
0.0
220
0.0
230
1.0
 70
     8
 71
     3
 72
    10
 73
     6
 74
     0
 42
0.0000000169199522
 43
0.0000000001
 12
1.0
 22
0.0
 32
0.0
 13
1.0
 23
0.0
 33
0.0
 40
0.0
 40
0.0
 40
0.0
 40
0.0
 40
0.5
 40
0.5
 40
1.0
 40
1.0
 40
1.0
 40
1.0
 10
3.047372104566829
 20
6.654394212460752
 30
0.0
 10
3.175618258190125
 20
6.661293675843199
 30
0.0
 10
3.308843327161704
 20
6.64588559619831
 30
0.0
 10
3.501565786968006
 20
6.581763359029273
 30
0.0
 10
3.559999999998849
 20
6.533184113839759
 30
0.0
 10
3.559999999998851
 20
6.483810595866661
 30
0.0
  0
LINE
  5
C9
330
1F
100
AcDbEntity
  8
SK1
  6
Continuous
100
AcDbLine
 10
7.16
 20
6.6819728393
 30
0.0
 11
7.4631088913
 21
6.6819728393
 31
0.0
  0
LINE
  5
CA
330
1F
100
AcDbEntity
  8
SK1
  6
Continuous
100
AcDbLine
 10
7.4631088913
 20
6.6819728393
 30
0.0
 11
12.535
 21
5.5609765844
 31
0.0
  0
SPLINE
  5
CB
330
1F
100
AcDbEntity
  8
SK1
  6
Continuous
100
AcDbSpline
210
0.0
220
0.0
230
1.0
 70
     8
 71
     3
 72
     8
 73
     4
 74
     0
 42
0.0000000587479703
 43
0.0000000001
 12
1.0
 22
0.0
 32
0.0
 13
1.0
 23
0.0
 33
0.0
 40
0.0
 40
0.0
 40
0.0
 40
0.0
 40
1.0
 40
1.0
 40
1.0
 40
1.0
 10
12.53499999999885
 20
5.560976584436187
 30
0.0
 10
12.61128692077902
 20
5.544114244997568
 30
0.0
 10
12.65999999999885
 20
5.511621430539104
 30
0.0
 10
12.65999999999885
 20
5.478086597693867
 30
0.0
  0
LINE
  5
CC
330
1F
100
AcDbEntity
  8
SK1
  6
Continuous
100
AcDbLine
 10
12.66
 20
5.4780865977
 30
0.0
 11
12.66
 21
4.7389829717
 31
0.0
  0
SPLINE
  5
CD
330
1F
100
AcDbEntity
  8
SK3
100
AcDbSpline
210
0.0
220
0.0
230
1.0
 70
     8
 71
     3
 72
    10
 73
     6
 74
     0
 42
0.000000021389433
 43
0.0000000001
 12
1.0
 22
0.0
 32
0.0
 13
1.0
 23
0.0
 33
0.0
 40
0.0
 40
0.0
 40
0.0
 40
0.0
 40
0.5
 40
0.5
 40
1.0
 40
1.0
 40
1.0
 40
1.0
 10
12.65999999999885
 20
4.164599123448017
 30
0.0
 10
12.65999999999886
 20
4.124668276728861
 30
0.0
 10
12.61760284599245
 20
4.084937519592753
 30
0.0
 10
12.46841949200572
 20
4.027730211753236
 30
0.0
 10
12.36569204472805
 20
4.0113960486561
 30
0.0
 10
12.25999999999885
 20
4.011396048656249
 30
0.0
  0
SPLINE
  5
CE
330
1F
100
AcDbEntity
  8
SK1
  6
Continuous
100
AcDbSpline
210
0.0
220
0.0
230
1.0
 70
     8
 71
     3
 72
    10
 73
     6
 74
     0
 42
0.0000000169199522
 43
0.0000000001
 12
1.0
 22
0.0
 32
0.0
 13
1.0
 23
0.0
 33
0.0
 40
0.0
 40
0.0
 40
0.0
 40
0.0
 40
0.5
 40
0.5
 40
1.0
 40
1.0
 40
1.0
 40
1.0
 10
3.047372104566829
 20
5.915290586451724
 30
0.0
 10
3.175618258190127
 20
5.922190049834173
 30
0.0
 10
3.308843327161706
 20
5.90678197018928
 30
0.0
 10
3.501565786968006
 20
5.842659733020245
 30
0.0
 10
3.559999999998851
 20
5.794080487830728
 30
0.0
 10
3.559999999998851
 20
5.744706969857631
 30
0.0
  0
LINE
  5
CF
330
1F
100
AcDbEntity
  8
SK1
  6
Continuous
100
AcDbLine
 10
7.16
 20
5.9428692133
 30
0.0
 11
7.4631088913
 21
5.9428692133
 31
0.0
  0
LINE
  5
D0
330
1F
100
AcDbEntity
  8
SK1
  6
Continuous
100
AcDbLine
 10
7.4631088913
 20
5.9428692133
 30
0.0
 11
12.535
 21
4.8218729584
 31
0.0
  0
SPLINE
  5
D1
330
1F
100
AcDbEntity
  8
SK1
  6
Continuous
100
AcDbSpline
210
0.0
220
0.0
230
1.0
 70
     8
 71
     3
 72
     8
 73
     4
 74
     0
 42
0.0000000587479703
 43
0.0000000001
 12
1.0
 22
0.0
 32
0.0
 13
1.0
 23
0.0
 33
0.0
 40
0.0
 40
0.0
 40
0.0
 40
0.0
 40
1.0
 40
1.0
 40
1.0
 40
1.0
 10
12.53499999999885
 20
4.821872958427157
 30
0.0
 10
12.61128692077901
 20
4.80501061898854
 30
0.0
 10
12.65999999999885
 20
4.772517804530073
 30
0.0
 10
12.65999999999885
 20
4.738982971684836
 30
0.0
  0
SPLINE
  5
D2
330
1F
100
AcDbEntity
  8
SK3
100
AcDbSpline
210
0.0
220
0.0
230
1.0
 70
     8
 71
     3
 72
    10
 73
     6
 74
     0
 42
0.000000021389433
 43
0.0000000001
 12
1.0
 22
0.0
 32
0.0
 13
1.0
 23
0.0
 33
0.0
 40
0.0
 40
0.0
 40
0.0
 40
0.0
 40
0.5
 40
0.5
 40
1.0
 40
1.0
 40
1.0
 40
1.0
 10
12.65999999999885
 20
3.425495497438988
 30
0.0
 10
12.65999999999886
 20
3.385564650719831
 30
0.0
 10
12.61760284599245
 20
3.345833893583723
 30
0.0
 10
12.46841949200572
 20
3.288626585744206
 30
0.0
 10
12.36569204472805
 20
3.272292422647072
 30
0.0
 10
12.25999999999885
 20
3.272292422647219
 30
0.0
  0
SPLINE
  5
D3
330
1F
100
AcDbEntity
  8
SK1
  6
Continuous
100
AcDbSpline
210
0.0
220
0.0
230
1.0
 70
     8
 71
     3
 72
    10
 73
     6
 74
     0
 42
0.0000000427824414
 43
0.0000000001
 12
1.0
 22
0.0
 32
0.0
 13
1.0
 23
0.0
 33
0.0
 40
0.0
 40
0.0
 40
0.0
 40
0.0
 40
0.5
 40
0.5
 40
1.0
 40
1.0
 40
1.0
 40
1.0
 10
7.159999999998852
 20
5.292094148787605
 30
0.0
 10
7.159999999998854
 20
5.272133437778517
 30
0.0
 10
7.138792746348791
 20
5.252274916968323
 30
0.0
 10
7.064184492778169
 20
5.223685749676893
 30
0.0
 10
7.012831382486829
 20
5.21552911014102
 30
0.0
 10
6.959999999998851
 20
5.215529110141326
 30
0.0
  0
LINE
  5
D4
330
1F
100
AcDbEntity
  8
SK1
  6
Continuous
100
AcDbLine
 10
6.96
 20
5.2155291101
 30
0.0
 11
3.76
 21
5.2155291101
 31
0.0
  0
SPLINE
  5
D5
330
1F
100
AcDbEntity
  8
SK1
  6
Continuous
100
AcDbSpline
210
0.0
220
0.0
230
1.0
 70
     8
 71
     3
 72
    10
 73
     6
 74
     0
 42
0.0000000427888826
 43
0.0000000001
 12
1.0
 22
0.0
 32
0.0
 13
1.0
 23
0.0
 33
0.0
 40
0.0
 40
0.0
 40
0.0
 40
0.0
 40
0.5
 40
0.5
 40
1.0
 40
1.0
 40
1.0
 40
1.0
 10
3.759999999998849
 20
5.215529110141325
 30
0.0
 10
3.707128834287174
 20
5.215529110141325
 30
0.0
 10
3.655412931720295
 20
5.223840986901926
 30
0.0
 10
3.581619568482712
 20
5.252115947852249
 30
0.0
 10
3.55999999999874
 20
5.272116079355231
 30
0.0
 10
3.559999999996465
 20
5.292094148787714
 30
0.0
  0
LINE
  5
D6
330
1F
100
AcDbEntity
  8
SK1
  6
Continuous
100
AcDbLine
 10
-27.34
 20
8.6901837792
 30
0.0
 11
-27.34
 21
11.8897757188
 31
0.0
  0
LINE
  5
D7
330
1F
100
AcDbEntity
  8
SK1
  6
Continuous
100
AcDbLine
 10
-27.0817519303
 20
8.3346818808
 30
0.0
 11
-27.0817519303
 21
0.4000000998
 31
0.0
  0
LINE
  5
D8
330
1F
100
AcDbEntity
  8
SK3
100
AcDbLine
 10
-26.4574682453
 20
7.0120933277
 30
0.0
 11
-26.4574682453
 21
9.5165974434
 31
0.0
  0
LINE
  5
D9
330
1F
100
AcDbEntity
  8
SK3
100
AcDbLine
 10
-26.4574682453
 20
7.0120933277
 30
0.0
 11
-2.723953906
 21
7.0120933277
 31
0.0
  0
SPLINE
  5
DA
330
1F
100
AcDbEntity
  8
SK1
  6
Continuous
100
AcDbSpline
210
0.0
220
0.0
230
1.0
 70
     8
 71
     3
 72
    10
 73
     6
 74
     0
 42
0.0000000269170392
 43
0.0000000001
 12
1.0
 22
0.0
 32
0.0
 13
1.0
 23
0.0
 33
0.0
 40
0.0
 40
0.0
 40
0.0
 40
0.0
 40
0.5
 40
0.5
 40
1.0
 40
1.0
 40
1.0
 40
1.0
 10
-27.34000000000129
 20
8.690183779217545
 30
0.0
 10
-27.34000000000117
 20
8.74071442591543
 30
0.0
 10
-27.31325218560603
 20
8.79125981422507
 30
0.0
 10
-27.21983457328473
 20
8.86739234921948
 30
0.0
 10
-27.15326761692436
 20
8.89325643733072
 30
0.0
 10
-27.08175193028917
 20
8.900367305772779
 30
0.0
  0
LINE
  5
DB
330
1F
100
AcDbEntity
  8
SK1
  6
Continuous
100
AcDbLine
 10
-27.0817519303
 20
8.9003673058
 30
0.0
 11
-3.7359913242
 21
11.2213920385
 31
0.0
  0
LINE
  5
DC
330
1F
100
AcDbEntity
  8
SK3
100
AcDbLine
 10
-26.4574682453
 20
7.0120933277
 30
0.0
 11
-27.34
 21
7.3726873536
 31
0.0
  0
LINE
  5
DD
330
1F
100
AcDbEntity
  8
SK1
  6
Continuous
100
AcDbLine
 10
-27.34
 20
8.1244983543
 30
0.0
 11
-27.34
 21
8.6901837792
 31
0.0
  0
SPLINE
  5
DE
330
1F
100
AcDbEntity
  8
SK1
  6
Continuous
100
AcDbSpline
210
0.0
220
0.0
230
1.0
 70
     8
 71
     3
 72
    10
 73
     6
 74
     0
 42
0.0000000269170392
 43
0.0000000001
 12
1.0
 22
0.0
 32
0.0
 13
1.0
 23
0.0
 33
0.0
 40
0.0
 40
0.0
 40
0.0
 40
0.0
 40
0.5
 40
0.5
 40
1.0
 40
1.0
 40
1.0
 40
1.0
 10
-27.34000000000115
 20
8.124498354268317
 30
0.0
 10
-27.34000000000115
 20
8.175029000966207
 30
0.0
 10
-27.31325218560602
 20
8.225574389275838
 30
0.0
 10
-27.21983457328472
 20
8.301706924270244
 30
0.0
 10
-27.15326761692435
 20
8.327571012381485
 30
0.0
 10
-27.08175193028917
 20
8.334681880823538
 30
0.0
  0
LINE
  5
DF
330
1F
100
AcDbEntity
  8
SK1
  6
Continuous
100
AcDbLine
 10
-27.0817519303
 20
8.3346818808
 30
0.0
 11
-3.7359913242
 21
10.6557066136
 31
0.0
  0
LINE
  5
E0
330
1F
100
AcDbEntity
  8
SK3
100
AcDbLine
 10
-26.4574682453
 20
6.4464079028
 30
0.0
 11
-27.34
 21
6.8070019286
 31
0.0
  0
LINE
  5
E1
330
1F
100
AcDbEntity
  8
SK3
100
AcDbLine
 10
-26.4574682453
 20
6.4464079028
 30
0.0
 11
-2.723953906
 21
6.4464079028
 31
0.0
  0
SPLINE
  5
E2
330
1F
100
AcDbEntity
  8
SK3
100
AcDbSpline
210
0.0
220
0.0
230
1.0
 70
     8
 71
     3
 72
     8
 73
     4
 74
     0
 42
0.0000009104728184
 43
0.0000000001
 12
1.0
 22
0.0
 32
0.0
 13
1.0
 23
0.0
 33
0.0
 40
0.0
 40
0.0
 40
0.0
 40
0.0
 40
0.9999999999999999
 40
0.9999999999999999
 40
0.9999999999999999
 40
0.9999999999999999
 10
-22.3400000000013
 20
-11.88108364947847
 30
0.0
 10
-22.3400000000013
 20
-11.88467562012061
 30
0.0
 10
-22.33964762030697
 20
-11.88831402275509
 30
0.0
 10
-22.33895010319869
 20
-11.89198423659979
 30
0.0
  0
SPLINE
  5
E3
330
1F
100
AcDbEntity
  8
SK3
100
AcDbSpline
210
0.0
220
0.0
230
1.0
 70
     8
 71
     3
 72
    11
 73
     7
 74
     0
 42
0.0000002707496877
 43
0.0000000001
 12
1.0
 22
0.0
 32
0.0
 13
1.0
 23
0.0
 33
0.0
 40
0.0
 40
0.0
 40
0.0
 40
0.0
 40
0.2673005884018995
 40
0.2673005884018995
 40
0.2673005884018995
 40
1.0
 40
1.0
 40
1.0
 40
1.0
 10
-22.82819717772946
 20
-8.841173368113525
 30
0.0
 10
-22.83038344713244
 20
-8.83832655180688
 30
0.0
 10
-22.83233634629839
 20
-8.835451349826942
 30
0.0
 10
-22.83404780679609
 20
-8.832554436533947
 30
0.0
 10
-22.83877888651917
 20
-8.824546347677423
 30
0.0
 10
-22.84174761604419
 20
-8.816286603047507
 30
0.0
 10
-22.84290510880376
 20
-8.807940133811169
 30
0.0
  0
SPLINE
  5
E4
330
1F
100
AcDbEntity
  8
SK3
100
AcDbSpline
210
0.0
220
0.0
230
1.0
 70
     8
 71
     3
 72
    35
 73
    31
 74
     0
 42
0.0000000108625091
 43
0.0000000001
 12
1.0
 22
0.0
 32
0.0
 13
1.0
 23
0.0
 33
0.0
 40
0.0
 40
0.0
 40
0.0
 40
0.0
 40
0.1082667668886122
 40
0.1082667668886122
 40
0.1082667668886122
 40
0.216571703003776
 40
0.216571703003776
 40
0.216571703003776
 40
0.3243189631398881
 40
0.3243189631398881
 40
0.3243189631398881
 40
0.4314824303129308
 40
0.4314824303129308
 40
0.4314824303129308
 40
0.5000235567329139
 40
0.5000235567329139
 40
0.5000235567329139
 40
0.606826998989534
 40
0.606826998989534
 40
0.606826998989534
 40
0.713623533529387
 40
0.713623533529387
 40
0.713623533529387
 40
0.8205317906913302
 40
0.8205317906913302
 40
0.8205317906913302
 40
0.927812517289253
 40
0.927812517289253
 40
0.927812517289253
 40
1.0
 40
1.0
 40
1.0
 40
1.0
 10
-22.44125645538938
 20
8.94526297760964
 30
0.0
 10
-22.48649463465857
 20
8.94526297760964
 30
0.0
 10
-22.53235882170645
 20
8.942601874565757
 30
0.0
 10
-22.57505628510951
 20
8.937433325781337
 30
0.0
 10
-22.61776267961004
 20
8.932263695883204
 30
0.0
 10
-22.65848048310938
 20
8.924435830183702
 30
0.0
 10
-22.69378023040809
 20
8.914464433232943
 30
0.0
 10
-22.72889984956076
 20
8.904543918494769
 30
0.0
 10
-22.75963048590141
 20
8.892218743924262
 30
0.0
 10
-22.78338115659945
 20
8.878368828161735
 30
0.0
 10
-22.80700555816838
 20
8.86459254471148
 30
0.0
 10
-22.82437932957414
 20
8.848920038738687
 30
0.0
 10
-22.83404780679609
 20
8.832554636075345
 30
0.0
 10
-22.84028415015208
 20
8.821998654215454
 30
0.0
 10
-22.84345830645901
 20
8.81100540565854
 30
0.0
 10
-22.84345830645901
 20
8.799952646940705
 30
0.0
 10
-22.84345830645901
 20
8.782873276318579
 30
0.0
 10
-22.83575468437643
 20
8.765252647925863
 30
0.0
 10
-22.82098850803761
 20
8.748597501665742
 30
0.0
 10
-22.8062228561338
 20
8.731942946929223
 30
0.0
 10
-22.78398889826708
 20
8.715799501955273
 30
0.0
 10
-22.75613502082578
 20
8.701617457190183
 30
0.0
 10
-22.72825096425796
 20
8.687420046459465
 30
0.0
 10
-22.69397108995005
 20
8.674805102253936
 30
0.0
 10
-22.65613517488711
 20
8.66493890896565
 30
0.0
 10
-22.61816684716563
 20
8.655038187402283
 30
0.0
 10
-22.57558151921433
 20
8.647639659888679
 30
0.0
 10
-22.53188241297136
 20
8.643428622084443
 30
0.0
 10
-22.50225043679017
 20
8.640573154715854
 30
0.0
 10
-22.4716577698245
 20
8.63911623171757
 30
0.0
 10
-22.44125645538938
 20
8.63911623171757
 30
0.0
  0
SPLINE
  5
E5
330
1F
100
AcDbEntity
  8
SK1
  6
Continuous
100
AcDbSpline
210
0.0
220
0.0
230
1.0
 70
     8
 71
     3
 72
    35
 73
    31
 74
     0
 42
0.0000000105330634
 43
0.0000000001
 12
1.0
 22
0.0
 32
0.0
 13
1.0
 23
0.0
 33
0.0
 40
0.0
 40
0.0
 40
0.0
 40
0.0
 40
0.1140466951010004
 40
0.1140466951010004
 40
0.1140466951010004
 40
0.2282948207518979
 40
0.2282948207518979
 40
0.2282948207518979
 40
0.3392741566161804
 40
0.3392741566161804
 40
0.3392741566161804
 40
0.4452969336874708
 40
0.4452969336874708
 40
0.4452969336874708
 40
0.5002192508761243
 40
0.5002192508761243
 40
0.5002192508761243
 40
0.6019916732935748
 40
0.6019916732935748
 40
0.6019916732935748
 40
0.7036615082091257
 40
0.7036615082091257
 40
0.7036615082091257
 40
0.8069310276856894
 40
0.8069310276856894
 40
0.8069310276856894
 40
0.9141591791607976
 40
0.9141591791607976
 40
0.9141591791607976
 40
1.0
 40
1.0
 40
1.0
 40
1.0
 10
-21.92480702333012
 20
11.77619757333622
 30
0.0
 10
-21.9729445224499
 20
11.76994426722976
 30
0.0
 10
-22.02179045614507
 20
11.7669888206037
 30
0.0
 10
-22.06731538777646
 20
11.7676198887981
 30
0.0
 10
-22.11288603359942
 20
11.76825159068422
 30
0.0
 10
-22.15641801502276
 20
11.77250832149756
 30
0.0
 10
-22.19389651275008
 20
11.78006064560668
 30
0.0
 10
-22.23030119824957
 20
11.78739658489601
 30
0.0
 10
-22.2620404834156
 20
11.79806362337646
 30
0.0
 10
-22.28596647678823
 20
11.81109751927231
 30
0.0
 10
-22.30883959766454
 20
11.82355785359038
 30
0.0
 10
-22.32522337379347
 20
11.83854047715596
 30
0.0
 10
-22.33348005343866
 20
11.85469108451591
 30
0.0
 10
-22.33780546823055
 20
11.86315187977195
 30
0.0
 10
-22.34000000000131
 20
11.87202520467678
 30
0.0
 10
-22.34000000000132
 20
11.88108384901987
 30
0.0
 10
-22.34000000000132
 20
11.89769878921333
 30
0.0
 10
-22.33246049415489
 20
11.91530718698517
 30
0.0
 10
-22.31809824177698
 20
11.93246204204722
 30
0.0
 10
-22.3037440502307
 20
11.94960726892598
 30
0.0
 10
-22.28220523305151
 20
11.96676633984673
 30
0.0
 10
-22.25540696650935
 20
11.98266107258337
 30
0.0
 10
-22.22817994286491
 20
11.99881011205059
 30
0.0
 10
-22.19482910869401
 20
12.01408549331235
 30
0.0
 10
-22.15812035425899
 20
12.02746395401392
 30
0.0
 10
-22.12001391021717
 20
12.04135180098494
 30
0.0
 10
-22.07730851902811
 20
12.05356573513208
 30
0.0
 10
-22.03337750918333
 20
12.06332800345163
 30
0.0
 10
-21.99803558327171
 20
12.07118162131515
 30
0.0
 10
-21.96126607020311
 20
12.0776081035001
 30
0.0
 10
-21.92480702333012
 20
12.08234431922829
 30
0.0
  0
ELLIPSE
  5
E6
330
1F
100
AcDbEntity
  8
SK1
  6
Continuous
100
AcDbEllipse
 10
51.549245554
 20
0.1530734608
 30
0.0
 11
-74.60000008526725
 21
8.064462108792765E-8
 31
0.0
210
0.0
220
0.0
230
1.0
 40
0.923879532
 41
-0.1739612059831916
 42
-0.1694205568007696
  0
ARC
  5
E7
330
1F
100
AcDbEntity
  8
SK3
100
AcDbCircle
 10
-2.7235524517
 20
-19.1274866116
 30
0.0
 40
9.61088937618856
100
AcDbArc
 50
87.6039492806
 51
90.002393289
  0
SPLINE
  5
E8
330
1F
100
AcDbEntity
  8
SK1
  6
Continuous
100
AcDbSpline
210
0.0
220
0.0
230
1.0
 70
     8
 71
     3
 72
    23
 73
    19
 74
     0
 42
0.0000000245443856
 43
0.0000000001
 12
1.0
 22
0.0
 32
0.0
 13
1.0
 23
0.0
 33
0.0
 40
0.0
 40
0.0
 40
0.0
 40
0.0
 40
0.1928242140527417
 40
0.1928242140527417
 40
0.1928242140527417
 40
0.3856687256888912
 40
0.3856687256888912
 40
0.3856687256888912
 40
0.5782205867188616
 40
0.5782205867188616
 40
0.5782205867188616
 40
0.7704878286026974
 40
0.7704878286026974
 40
0.7704878286026974
 40
0.8953082069470614
 40
0.8953082069470614
 40
0.8953082069470614
 40
1.0
 40
1.0
 40
1.0
 40
1.0
 10
-3.735991324229844
 20
-15.46944456874255
 30
0.0
 10
-3.691530379695963
 20
-15.47569523556969
 30
0.0
 10
-3.646483917846106
 20
-15.48223342709087
 30
0.0
 10
-3.604576299426382
 20
-15.48848673993706
 30
0.0
 10
-3.562666046495064
 20
-15.49474044589616
 30
0.0
 10
-3.522738413629953
 20
-15.50087898123409
 30
0.0
 10
-3.488104890183541
 20
-15.50631212984705
 30
0.0
 10
-3.453523374076319
 20
-15.51173711978673
 30
0.0
 10
-3.423264198387479
 20
-15.51660431091758
 30
0.0
 10
-3.399831878259517
 20
-15.52041642536854
 30
0.0
 10
-3.376433513498357
 20
-15.52422301575087
 30
0.0
 10
-3.359195250863193
 20
-15.52707875177539
 30
0.0
 10
-3.349538750650304
 20
-15.52868172073151
 30
0.0
 10
-3.343217909001918
 20
-15.52973097384761
 30
0.0
 10
-3.34000000000116
 20
-15.5302681407828
 30
0.0
 10
-3.34000000000116
 20
-15.5302681407828
 30
0.0
 10
-3.34000000000116
 20
-15.5302681407828
 30
0.0
 10
-3.342262534973369
 20
-15.52988962017446
 30
0.0
 10
-3.346686133305127
 20
-15.52915460658423
 30
0.0
  0
SPLINE
  5
E9
330
1F
100
AcDbEntity
  8
SK1
  6
Continuous
100
AcDbSpline
210
0.0
220
0.0
230
1.0
 70
     8
 71
     3
 72
    20
 73
    16
 74
     0
 42
0.0000000249596416
 43
0.0000000001
 12
1.0
 22
0.0
 32
0.0
 13
1.0
 23
0.0
 33
0.0
 40
0.0
 40
0.0
 40
0.0
 40
0.0
 40
0.2145786737343263
 40
0.2145786737343263
 40
0.2145786737343263
 40
0.4291541907561929
 40
0.4291541907561929
 40
0.4291541907561929
 40
0.6437810025606522
 40
0.6437810025606522
 40
0.6437810025606522
 40
0.8585972232109037
 40
0.8585972232109037
 40
0.8585972232109037
 40
1.0
 40
1.0
 40
1.0
 40
1.0
 10
-3.340000000001164
 20
15.5302683403242
 30
0.0
 10
-3.340000000001164
 20
15.53026834032419
 30
0.0
 10
-3.347618441150333
 20
15.52899378014555
 30
0.0
 10
-3.362228347636298
 20
15.52658076474043
 30
0.0
 10
-3.376838136568113
 20
15.5241677687509
 30
0.0
 10
-3.398842476523262
 20
15.52055256508602
 30
0.0
 10
-3.4264289068861
 20
15.5161129471168
 30
0.0
 10
-3.454022215766285
 20
15.51167222215444
 30
0.0
 10
-3.487960741559357
 20
15.50628872591499
 30
0.0
 10
-3.525446613184473
 20
15.50050019957226
 30
0.0
 10
-3.56296583568705
 20
15.49470652322435
 30
0.0
 10
-3.605070934507801
 20
15.48835178612611
 30
0.0
 10
-3.64829073541957
 20
15.48202679656847
 30
0.0
 10
-3.676969597924262
 20
15.47782979653515
 30
0.0
 10
-3.706564389522356
 20
15.47358183659252
 30
0.0
 10
-3.735991324229832
 20
15.46944476828395
 30
0.0
  0
ARC
  5
EA
330
1F
100
AcDbEntity
  8
SK3
100
AcDbCircle
 10
-2.7235524517
 20
19.1274868112
 30
0.0
 40
9.610889376184304
100
AcDbArc
 50
269.997606711
 51
272.3571053481
  0
LINE
  5
EB
330
1F
100
AcDbEntity
  8
SK1
  6
Continuous
100
AcDbLine
 10
-3.7359913242
 20
15.4694447683
 30
0.0
 11
-27.0817519303
 21
12.1870201126
 31
0.0
  0
LINE
  5
EC
330
1F
100
AcDbEntity
  8
SK3
100
AcDbLine
 10
-2.723953906
 20
9.5165974434
 30
0.0
 11
-26.4574682453
 21
9.5165974434
 31
0.0
  0
LINE
  5
ED
330
1F
100
AcDbEntity
  8
SK3
100
AcDbLine
 10
-22.4412564554
 20
-8.9452627781
 30
0.0
 11
12.26
 21
-8.9452627781
 31
0.0
  0
SPLINE
  5
EE
330
1F
100
AcDbEntity
  8
SK1
  6
Continuous
100
AcDbSpline
210
0.0
220
0.0
230
1.0
 70
     8
 71
     3
 72
    11
 73
     7
 74
     0
 42
0.0000000003971097
 43
0.0000000001
 12
1.0
 22
0.0
 32
0.0
 13
1.0
 23
0.0
 33
0.0
 40
0.0
 40
0.0
 40
0.0
 40
0.0
 40
0.8233273564535349
 40
0.8233273564535349
 40
0.8233273564535349
 40
1.0
 40
1.0
 40
1.0
 40
1.0
 10
-21.92480702333012
 20
-12.08234411968689
 30
0.0
 10
-15.0713945651538
 20
-12.97263727488795
 30
0.0
 10
-8.2179683233319
 20
-13.86283986438522
 30
0.0
 10
-1.364534694014652
 20
-14.75299390156436
 30
0.0
 10
0.1061005608924727
 20
-14.94400646259268
 30
0.0
 10
1.576736173438469
 20
-15.1350166733589
 30
0.0
 10
3.047372104566829
 20
-15.32602479045226
 30
0.0
  0
ELLIPSE
  5
EF
330
1F
100
AcDbEntity
  8
SK1
  6
Continuous
100
AcDbEllipse
 10
51.5492455554
 20
-0.153073261
 30
0.0
 11
-74.60000008663268
 21
-8.251010058333217E-8
 31
0.0
210
0.0
220
0.0
230
1.0
 40
0.923879532
 41
0.169386467823397
 42
0.1739612059583661
  0
SPLINE
  5
F0
330
1F
100
AcDbEntity
  8
SK1
  6
Continuous
100
AcDbSpline
210
0.0
220
0.0
230
1.0
 70
     8
 71
     3
 72
    35
 73
    31
 74
     0
 42
0.000000010532683
 43
0.0000000001
 12
1.0
 22
0.0
 32
0.0
 13
1.0
 23
0.0
 33
0.0
 40
0.0
 40
0.0
 40
0.0
 40
0.0
 40
0.1140466951057615
 40
0.1140466951057615
 40
0.1140466951057615
 40
0.2282948207614309
 40
0.2282948207614309
 40
0.2282948207614309
 40
0.3392741566303518
 40
0.3392741566303518
 40
0.3392741566303518
 40
0.4452969337060647
 40
0.4452969337060647
 40
0.4452969337060647
 40
0.5002192508970098
 40
0.5002192508970098
 40
0.5002192508970098
 40
0.6019916716268935
 40
0.6019916716268935
 40
0.6019916716268935
 40
0.7036615048631364
 40
0.7036615048631364
 40
0.7036615048631364
 40
0.806931024264333
 40
0.806931024264333
 40
0.806931024264333
 40
0.9141591755960853
 40
0.9141591755960853
 40
0.9141591755960853
 40
1.0
 40
1.0
 40
1.0
 40
1.0
 10
-21.92480702333012
 20
-12.08234411968689
 30
0.0
 10
-21.9729445224499
 20
-12.07609081358043
 30
0.0
 10
-22.02179045614507
 20
-12.0668399287593
 30
0.0
 10
-22.06731538777646
 20
-12.05524219669918
 30
0.0
 10
-22.11288603359942
 20
-12.04363281869196
 30
0.0
 10
-22.15641801502277
 20
-12.02932586670536
 30
0.0
 10
-22.19389651275008
 20
-12.01338114199382
 30
0.0
 10
-22.23030119824958
 20
-11.9978932563074
 30
0.0
 10
-22.2620404834156
 20
-11.98039334011961
 30
0.0
 10
-22.28596647678823
 20
-11.96229937306362
 30
0.0
 10
-22.30883959766454
 20
-11.9450016379536
 30
0.0
 10
-22.32522337379347
 20
-11.9266539175827
 30
0.0
 10
-22.33348005343866
 20
-11.90881036791736
 30
0.0
 10
-22.33780546823055
 20
-11.89946269343091
 30
0.0
 10
-22.3400000000013
 20
-11.89014229382158
 30
0.0
 10
-22.3400000000013
 20
-11.8810836494785
 30
0.0
 10
-22.3400000000013
 20
-11.86446870955335
 30
0.0
 10
-22.33246049440559
 20
-11.84838937411929
 30
0.0
 10
-22.31809824248292
 20
-11.8342093621923
 30
0.0
 10
-22.3037440513911
 20
-11.82003730881376
 30
0.0
 10
-22.28220523489261
 20
-11.80737838366701
 30
0.0
 10
-22.25540696914016
 20
-11.79726203798069
 30
0.0
 10
-22.22817994588011
 20
-11.78698383632941
 30
0.0
 10
-22.19482911204969
 20
-11.77905694815092
 30
0.0
 10
-22.15812035788968
 20
-11.77407513728751
 30
0.0
 10
-22.12001391415582
 20
-11.76890364346531
 30
0.0
 10
-22.07730852321678
 20
-11.76676715178901
 30
0.0
 10
-22.03337751354804
 20
-11.76778628116676
 30
0.0
 10
-21.99803558628699
 20
-11.76860615752767
 30
0.0
 10
-21.96126607169201
 20
-11.77146115787322
 30
0.0
 10
-21.92480702333013
 20
-11.77619737379482
 30
0.0
  0
SPLINE
  5
F1
330
1F
100
AcDbEntity
  8
SK3
100
AcDbSpline
210
0.0
220
0.0
230
1.0
 70
     8
 71
     3
 72
    35
 73
    31
 74
     0
 42
0.0000000108619402
 43
0.0000000001
 12
1.0
 22
0.0
 32
0.0
 13
1.0
 23
0.0
 33
0.0
 40
0.0
 40
0.0
 40
0.0
 40
0.0
 40
0.1082667668886131
 40
0.1082667668886131
 40
0.1082667668886131
 40
0.2165717030037738
 40
0.2165717030037738
 40
0.2165717030037738
 40
0.3243189631398884
 40
0.3243189631398884
 40
0.3243189631398884
 40
0.4314824303129352
 40
0.4314824303129352
 40
0.4314824303129352
 40
0.5000235567329119
 40
0.5000235567329119
 40
0.5000235567329119
 40
0.6068269989895287
 40
0.6068269989895287
 40
0.6068269989895287
 40
0.7136235335293841
 40
0.7136235335293841
 40
0.7136235335293841
 40
0.8205317906913172
 40
0.8205317906913172
 40
0.8205317906913172
 40
0.9278125172892571
 40
0.9278125172892571
 40
0.9278125172892571
 40
1.0
 40
1.0
 40
1.0
 40
1.0
 10
-22.44125645538938
 20
-8.63911603217617
 30
0.0
 10
-22.48649463465857
 20
-8.63911603217617
 30
0.0
 10
-22.53235882170645
 20
-8.64239580859827
 30
0.0
 10
-22.57505628510951
 20
-8.648658390370088
 30
0.0
 10
-22.61776267961004
 20
-8.654922282096262
 30
0.0
 10
-22.65848048310938
 20
-8.664342124494851
 30
0.0
 10
-22.69378023040809
 20
-8.67602424999825
 30
0.0
 10
-22.72889984956076
 20
-8.687646763754543
 30
0.0
 10
-22.75963048590141
 20
-8.701824948858093
 30
0.0
 10
-22.78338115659945
 20
-8.717236672042375
 30
0.0
 10
-22.80700555816838
 20
-8.73256645965148
 30
0.0
 10
-22.82437932957413
 20
-8.749534899692344
 30
0.0
 10
-22.83404780679608
 20
-8.766630840786641
 30
0.0
 10
-22.84028415015207
 20
-8.777658033198675
 30
0.0
 10
-22.843458306459
 20
-8.788899688681472
 30
0.0
 10
-22.843458306459
 20
-8.799952447399306
 30
0.0
 10
-22.843458306459
 20
-8.817031818021434
 30
0.0
 10
-22.83575468437644
 20
-8.83404098284831
 30
0.0
 10
-22.82098850803762
 20
-8.849617734168085
 30
0.0
 10
-22.80622285613381
 20
-8.865193932264495
 30
0.0
 10
-22.78398889826707
 20
-8.879771057353604
 30
0.0
 10
-22.75613502082578
 20
-8.892268104144023
 30
0.0
 10
-22.72825096425796
 20
-8.904778691238015
 30
0.0
 10
-22.69397108995006
 20
-8.915554972607325
 30
0.0
 10
-22.65613517488713
 20
-8.923861915060176
 30
0.0
 10
-22.61816684716563
 20
-8.932197928947742
 30
0.0
 10
-22.57558151921433
 20
-8.938282425877846
 30
0.0
 10
-22.53188241297136
 20
-8.941735687051715
 30
0.0
 10
-22.50225043679016
 20
-8.94407731281135
 30
0.0
 10
-22.4716577698245
 20
-8.94526277806824
 30
0.0
 10
-22.44125645538938
 20
-8.945262778068242
 30
0.0
  0
SPLINE
  5
F2
330
1F
100
AcDbEntity
  8
SK3
100
AcDbSpline
210
0.0
220
0.0
230
1.0
 70
     8
 71
     3
 72
    11
 73
     7
 74
     0
 42
0.0000003241376185
 43
0.0000000001
 12
1.0
 22
0.0
 32
0.0
 13
1.0
 23
0.0
 33
0.0
 40
0.0
 40
0.0
 40
0.0
 40
0.0
 40
0.4064301034519249
 40
0.4064301034519249
 40
0.4064301034519249
 40
1.0
 40
1.0
 40
1.0
 40
1.0
 10
-22.32711295018754
 20
11.92026736718136
 30
0.0
 10
-22.32959355691753
 20
11.91643557111327
 30
0.0
 10
-22.33172120180203
 20
11.91261163009906
 30
0.0
 10
-22.33348005343867
 20
11.90881056745874
 30
0.0
 10
-22.33607774663449
 20
11.90319668033379
 30
0.0
 10
-22.3379068762508
 20
11.89759263066917
 30
0.0
 10
-22.33895365527528
 20
11.89204920947071
 30
0.0
  0
SPLINE
  5
F3
330
1F
100
AcDbEntity
  8
SK1
  6
Continuous
100
AcDbSpline
210
0.0
220
0.0
230
1.0
 70
     8
 71
     3
 72
    11
 73
     7
 74
     0
 42
0.0000000003971097
 43
0.0000000001
 12
1.0
 22
0.0
 32
0.0
 13
1.0
 23
0.0
 33
0.0
 40
0.0
 40
0.0
 40
0.0
 40
0.0
 40
0.823327356453535
 40
0.823327356453535
 40
0.823327356453535
 40
1.0
 40
1.0
 40
1.0
 40
1.0
 10
-21.92480702333013
 20
-11.77619737379482
 30
0.0
 10
-15.0713945651538
 20
-12.66649052899587
 30
0.0
 10
-8.217968323331904
 20
-13.55669311849314
 30
0.0
 10
-1.364534694014652
 20
-14.44684715567228
 30
0.0
 10
0.1061005608924718
 20
-14.63785971670061
 30
0.0
 10
1.576736173438467
 20
-14.82886992746683
 30
0.0
 10
3.047372104566829
 20
-15.01987804456019
 30
0.0
  0
LINE
  5
F4
330
1F
100
AcDbEntity
  8
SK3
100
AcDbLine
 10
-22.4412564554
 20
-8.6391160322
 30
0.0
 11
12.26
 21
-8.6391160322
 31
0.0
  0
SPLINE
  5
F5
330
1F
100
AcDbEntity
  8
SK3
100
AcDbSpline
210
0.0
220
0.0
230
1.0
 70
     8
 71
     3
 72
    35
 73
    31
 74
     0
 42
0.0000000091818367
 43
0.0000000001
 12
1.0
 22
0.0
 32
0.0
 13
1.0
 23
0.0
 33
0.0
 40
0.0
 40
0.0
 40
0.0
 40
0.0
 40
0.1082667668886122
 40
0.1082667668886122
 40
0.1082667668886122
 40
0.2165717030037778
 40
0.2165717030037778
 40
0.2165717030037778
 40
0.3243189631398906
 40
0.3243189631398906
 40
0.3243189631398906
 40
0.4314824303129301
 40
0.4314824303129301
 40
0.4314824303129301
 40
0.5000235567329151
 40
0.5000235567329151
 40
0.5000235567329151
 40
0.6068269989895316
 40
0.6068269989895316
 40
0.6068269989895316
 40
0.7136235335293852
 40
0.7136235335293852
 40
0.7136235335293852
 40
0.820531790691318
 40
0.820531790691318
 40
0.820531790691318
 40
0.9278125172892441
 40
0.9278125172892441
 40
0.9278125172892441
 40
1.0
 40
1.0
 40
1.0
 40
1.0
 10
-2.723953905957329
 20
-7.01209312817739
 30
0.0
 10
-2.678715726688135
 20
-7.01209312817739
 30
0.0
 10
-2.632851539640261
 20
-7.006841227285543
 30
0.0
 10
-2.590154076237201
 20
-6.996698908029906
 30
0.0
 10
-2.547447681736663
 20
-6.986554467288946
 30
0.0
 10
-2.506729878237322
 20
-6.971228885901842
 30
0.0
 10
-2.471430130938611
 20
-6.95187830717404
 30
0.0
 10
-2.436310511785948
 20
-6.932626470905829
 30
0.0
 10
-2.405579875445289
 20
-6.908849675791178
 30
0.0
 10
-2.381829204747256
 20
-6.882413124305335
 30
0.0
 10
-2.358204803178328
 20
-6.856117121285477
 30
0.0
 10
-2.340831031772576
 20
-6.826456751838943
 30
0.0
 10
-2.331162554550625
 20
-6.795822066165167
 30
0.0
 10
-2.324926211194633
 20
-6.776062137680172
 30
0.0
 10
-2.321752054887708
 20
-6.75561482614555
 30
0.0
 10
-2.321752054887708
 20
-6.735191991031163
 30
0.0
 10
-2.321752054887708
 20
-6.703633429139249
 30
0.0
 10
-2.329455676970266
 20
-6.671405674992427
 30
0.0
 10
-2.344221853309087
 20
-6.641214600647144
 30
0.0
 10
-2.358987505212897
 20
-6.611024598567022
 30
0.0
 10
-2.381221463079632
 20
-6.582043087988969
 30
0.0
 10
-2.409075340520921
 20
-6.556750000546365
 30
0.0
 10
-2.436959397088738
 20
-6.531429508542663
 30
0.0
 10
-2.47123927139664
 20
-6.509115208188589
 30
0.0
 10
-2.509075186459573
 20
-6.491728720574178
 30
0.0
 10
-2.547043514181065
 20
-6.474281386247215
 30
0.0
 10
-2.589628842132365
 20
-6.461321838193398
 30
0.0
 10
-2.633327948375331
 20
-6.453950960674605
 30
0.0
 10
-2.662959924556531
 20
-6.448952834034281
 30
0.0
 10
-2.693552591522202
 20
-6.446407703228152
 30
0.0
 10
-2.723953905957329
 20
-6.446407703228152
 30
0.0
  0
SPLINE
  5
F6
330
1F
100
AcDbEntity
  8
SK1
  6
Continuous
100
AcDbSpline
210
0.0
220
0.0
230
1.0
 70
     8
 71
     3
 72
    35
 73
    31
 74
     0
 42
0.0000000092453942
 43
0.0000000001
 12
1.0
 22
0.0
 32
0.0
 13
1.0
 23
0.0
 33
0.0
 40
0.0
 40
0.0
 40
0.0
 40
0.0
 40
0.1076873144994248
 40
0.1076873144994248
 40
0.1076873144994248
 40
0.2153859646719059
 40
0.2153859646719059
 40
0.2153859646719059
 40
0.3229211770831064
 40
0.3229211770831064
 40
0.3229211770831064
 40
0.4302974370948144
 40
0.4302974370948144
 40
0.4302974370948144
 40
0.5000063759059408
 40
0.5000063759059408
 40
0.5000063759059408
 40
0.6072943446396617
 40
0.6072943446396617
 40
0.6072943446396617
 40
0.7145807350372823
 40
0.7145807350372823
 40
0.7145807350372823
 40
0.8218927724991374
 40
0.8218927724991374
 40
0.8218927724991374
 40
0.9292995131762521
 40
0.9292995131762521
 40
0.9292995131762521
 40
1.0
 40
1.0
 40
1.0
 40
1.0
 10
-3.735991324229844
 20
-10.65570641405048
 30
0.0
 10
-3.691530379695962
 20
-10.66012630295089
 30
0.0
 10
-3.646483917846104
 20
-10.67022000480769
 30
0.0
 10
-3.604576299426379
 20
-10.68514162237903
 30
0.0
 10
-3.562666046495061
 20
-10.70006417799401
 30
0.0
 10
-3.522738413629951
 20
-10.72022656875956
 30
0.0
 10
-3.488104890183538
 20
-10.7439064775586
 30
0.0
 10
-3.453523374076315
 20
-10.76755082748501
 30
0.0
 10
-3.423264198387479
 20
-10.79535256937627
 30
0.0
 10
-3.399831878259517
 20
-10.82494092519027
 30
0.0
 10
-3.376433513498359
 20
-10.85448640503341
 30
0.0
 10
-3.359195250863198
 20
-10.88662618585533
 30
0.0
 10
-3.349538750650309
 20
-10.9186498709289
 30
0.0
 10
-3.343217909001924
 20
-10.93961156904781
 30
0.0
 10
-3.340000000001166
 20
-10.96083674184806
 30
0.0
 10
-3.340000000001166
 20
-10.98155788677075
 30
0.0
 10
-3.340000000001166
 20
-11.01318866718802
 30
0.0
 10
-3.347618441150332
 20
-11.04435440363018
 30
0.0
 10
-3.362228347636297
 20
-11.07249559395462
 30
0.0
 10
-3.376838136568113
 20
-11.10063655784956
 30
0.0
 10
-3.398842476523274
 20
-11.12653081611262
 30
0.0
 10
-3.426428906886113
 20
-11.14809233162972
 30
0.0
 10
-3.454022215766297
 20
-11.16965922338639
 30
0.0
 10
-3.487960741559359
 20
-11.18748845238461
 30
0.0
 10
-3.525446613184471
 20
-11.2001774902396
 30
0.0
 10
-3.56296583568705
 20
-11.21287781742916
 30
0.0
 10
-3.605070934507804
 20
-11.22078173802565
 30
0.0
 10
-3.648290735419576
 20
-11.22329447639528
 30
0.0
 10
-3.676969597924269
 20
-11.2249618250802
 30
0.0
 10
-3.706564389522367
 20
-11.22431718805494
 30
0.0
 10
-3.735991324229871
 20
-11.22139183899971
 30
0.0
  0
SPLINE
  5
F7
330
1F
100
AcDbEntity
  8
SK3
100
AcDbSpline
210
0.0
220
0.0
230
1.0
 70
     8
 71
     3
 72
    11
 73
     7
 74
     0
 42
0.0000002324378264
 43
0.0000000001
 12
1.0
 22
0.0
 32
0.0
 13
1.0
 23
0.0
 33
0.0
 40
0.0
 40
0.0
 40
0.0
 40
0.0
 40
0.3985784911767518
 40
0.3985784911767518
 40
0.3985784911767518
 40
1.0
 40
1.0
 40
1.0
 40
1.0
 10
-2.337008407113835
 20
6.811974084000606
 30
0.0
 10
-2.334824069692977
 20
6.806629447927464
 30
0.0
 10
-2.332872768566909
 20
6.801241099264461
 30
0.0
 10
-2.331162554550617
 20
6.795822265706574
 30
0.0
 10
-2.328560100817893
 20
6.787576359939577
 30
0.0
 10
-2.326490905495093
 20
6.77921075123276
 30
0.0
 10
-2.324963105460071
 20
6.770777170870811
 30
0.0
  0
ELLIPSE
  5
F8
330
1F
100
AcDbEntity
  8
SK1
  6
Continuous
100
AcDbEllipse
 10
-76.7144558225
 20
-0.2828426136
 30
0.0
 11
74.59999999231565
 21
1.774038742191636E-9
 31
0.0
210
0.0
220
0.0
230
1.0
 40
0.7071067812
 41
-0.2088808539170888
 42
-0.1986429548287951
  0
LINE
  5
F9
330
1F
100
AcDbEntity
  8
SK3
100
AcDbLine
 10
-22.4412564554
 20
-4.0113958491
 30
0.0
 11
12.26
 21
-4.0113958491
 31
0.0
  0
LINE
  5
FA
330
1F
100
AcDbEntity
  8
SK1
  6
Continuous
100
AcDbLine
 10
-21.9248070233
 20
-5.3108174871
 30
0.0
 11
3.0473721046
 21
-6.6543940129
 31
0.0
  0
ELLIPSE
  5
FB
330
1F
100
AcDbEntity
  8
SK1
  6
Continuous
100
AcDbEllipse
 10
51.5492455537
 20
-0.3695517083
 30
0.0
 11
-74.6000000848784
 21
-5.746427354497823E-9
 31
0.0
210
0.0
220
0.0
230
1.0
 40
0.3826834322
 41
0.1505403323634179
 42
0.173961206952715
  0
SPLINE
  5
FC
330
1F
100
AcDbEntity
  8
SK1
  6
Continuous
100
AcDbSpline
210
0.0
220
0.0
230
1.0
 70
     8
 71
     3
 72
    35
 73
    31
 74
     0
 42
0.0000000080647976
 43
0.0000000001
 12
1.0
 22
0.0
 32
0.0
 13
1.0
 23
0.0
 33
0.0
 40
0.0
 40
0.0
 40
0.0
 40
0.0
 40
0.1140466951010062
 40
0.1140466951010062
 40
0.1140466951010062
 40
0.2282948207519138
 40
0.2282948207519138
 40
0.2282948207519138
 40
0.3392741566161988
 40
0.3392741566161988
 40
0.3392741566161988
 40
0.4452969336874772
 40
0.4452969336874772
 40
0.4452969336874772
 40
0.500219250876123
 40
0.500219250876123
 40
0.500219250876123
 40
0.6019916732935728
 40
0.6019916732935728
 40
0.6019916732935728
 40
0.7036615082091224
 40
0.7036615082091224
 40
0.7036615082091224
 40
0.8069310276856875
 40
0.8069310276856875
 40
0.8069310276856875
 40
0.9141591791608003
 40
0.9141591791608003
 40
0.9141591791608003
 40
1.0
 40
1.0
 40
1.0
 40
1.0
 10
-21.92480702333011
 20
-5.310817487080869
 30
0.0
 10
-21.9729445224499
 20
-5.308227282881901
 30
0.0
 10
-22.02179045614507
 20
-5.298100002729965
 30
0.0
 10
-22.06731538777647
 20
-5.281067264563371
 30
0.0
 10
-22.11288603359943
 20
-5.264017422848729
 30
0.0
 10
-22.15641801502277
 20
-5.239527606499704
 30
0.0
 10
-22.19389651275009
 20
-5.209426036455215
 30
0.0
 10
-22.23030119824958
 20
-5.180186919175664
 30
0.0
 10
-22.26204048341561
 20
-5.144771261882056
 30
0.0
 10
-22.28596647678825
 20
-5.106148632378485
 30
0.0
 10
-22.30883959766456
 20
-5.0692256064695
 30
0.0
 10
-22.32522337379347
 20
-5.028295387916762
 30
0.0
 10
-22.33348005343867
 20
-4.986910190619211
 30
0.0
 10
-22.33780546823055
 20
-4.965229787327783
 30
0.0
 10
-22.3400000000013
 20
-4.943175426888704
 30
0.0
 10
-22.3400000000013
 20
-4.921305924858917
 30
0.0
 10
-22.3400000000013
 20
-4.881193910905841
 30
0.0
 10
-22.33246049415489
 20
-4.840845898530232
 30
0.0
 10
-22.31809824177698
 20
-4.803637478039198
 30
0.0
 10
-22.3037440502307
 20
-4.766449940819448
 30
0.0
 10
-22.28220523305151
 20
-4.7313884461128
 30
0.0
 10
-22.25540696650935
 20
-4.701187040090762
 30
0.0
 10
-22.22817994286491
 20
-4.670502428660263
 30
0.0
 10
-22.19482910869401
 20
-4.644016734872013
 30
0.0
 10
-22.15812035425898
 20
-4.623592929938185
 30
0.0
 10
-22.12001391021717
 20
-4.60239148652747
 30
0.0
 10
-22.07730851902809
 20
-4.587156097163336
 30
0.0
 10
-22.03337750918331
 20
-4.578835095722721
 30
0.0
 10
-21.9980355832717
 20
-4.572140958313549
 30
0.0
 10
-21.96126607020311
 20
-4.569752056282899
 30
0.0
 10
-21.92480702333011
 20
-4.57171386107184
 30
0.0
  0
SPLINE
  5
FD
330
1F
100
AcDbEntity
  8
SK3
100
AcDbSpline
210
0.0
220
0.0
230
1.0
 70
     8
 71
     3
 72
    35
 73
    31
 74
     0
 42
0.0000000082081953
 43
0.0000000001
 12
1.0
 22
0.0
 32
0.0
 13
1.0
 23
0.0
 33
0.0
 40
0.0
 40
0.0
 40
0.0
 40
0.0
 40
0.1082667668886119
 40
0.1082667668886119
 40
0.1082667668886119
 40
0.2165717030037753
 40
0.2165717030037753
 40
0.2165717030037753
 40
0.3243189631398872
 40
0.3243189631398872
 40
0.3243189631398872
 40
0.4314824303129295
 40
0.4314824303129295
 40
0.4314824303129295
 40
0.5000235567329123
 40
0.5000235567329123
 40
0.5000235567329123
 40
0.6068269989895293
 40
0.6068269989895293
 40
0.6068269989895293
 40
0.7136235335293842
 40
0.7136235335293842
 40
0.7136235335293842
 40
0.8205317906913188
 40
0.8205317906913188
 40
0.8205317906913188
 40
0.9278125172892446
 40
0.9278125172892446
 40
0.9278125172892446
 40
1.0
 40
1.0
 40
1.0
 40
1.0
 10
-22.44125645538938
 20
-3.27229222310581
 30
0.0
 10
-22.48649463465857
 20
-3.27229222310581
 30
0.0
 10
-22.53235882170645
 20
-3.279591630447373
 30
0.0
 10
-22.57505628510951
 20
-3.293616807308971
 30
0.0
 10
-22.61776267961004
 20
-3.307644917839497
 30
0.0
 10
-22.65848048310938
 20
-3.328794452414504
 30
0.0
 10
-22.69378023040809
 20
-3.355286869689514
 30
0.0
 10
-22.72889984956076
 20
-3.381644101010707
 30
0.0
 10
-22.75963048590141
 20
-3.414020257244489
 30
0.0
 10
-22.78338115659945
 20
-3.449665640953767
 30
0.0
 10
-22.80700555816838
 20
-3.485121517949117
 30
0.0
 10
-22.82437932957414
 20
-3.524791021960009
 30
0.0
 10
-22.83404780679609
 20
-3.565333736380438
 30
0.0
 10
-22.84028415015208
 20
-3.591484523304328
 30
0.0
 10
-22.84345830645899
 20
-3.618375873508541
 30
0.0
 10
-22.84345830645899
 20
-3.645059593506776
 30
0.0
 10
-22.84345830645899
 20
-3.686292841699508
 30
0.0
 10
-22.83575468437644
 20
-3.727968061675035
 30
0.0
 10
-22.82098850803762
 20
-3.766652060909295
 30
0.0
 10
-22.80622285613381
 20
-3.805334686243967
 30
0.0
 10
-22.78398889826707
 20
-3.842093299219341
 30
0.0
 10
-22.75613502082578
 20
-3.873948837045051
 30
0.0
 10
-22.72825096425796
 20
-3.905838889717344
 30
0.0
 10
-22.69397108995006
 20
-3.933693797187299
 30
0.0
 10
-22.65613517488713
 20
-3.955307781154261
 30
0.0
 10
-22.61816684716564
 20
-3.976997406613556
 30
0.0
 10
-22.57558151921434
 20
-3.99300071220593
 30
0.0
 10
-22.53188241297137
 20
-4.002095398796667
 30
0.0
 10
-22.50225043679017
 20
-4.008262425072531
 30
0.0
 10
-22.47165776982451
 20
-4.011395849114838
 30
0.0
 10
-22.44125645538938
 20
-4.011395849114838
 30
0.0
  0
LINE
  5
FE
330
1F
100
AcDbEntity
  8
SK1
  6
Continuous
100
AcDbLine
 10
-21.9248070233
 20
-4.5717138611
 30
0.0
 11
3.0473721046
 21
-5.9152903869
 31
0.0
  0
LINE
  5
FF
330
1F
100
AcDbEntity
  8
SK3
100
AcDbLine
 10
-22.4412564554
 20
-3.2722922231
 30
0.0
 11
12.26
 21
-3.2722922231
 31
0.0
  0
LINE
  5
100
330
1F
100
AcDbEntity
  8
SK3
100
AcDbLine
 10
-2.723953906
 20
0.4000000998
 30
0.0
 11
-3.7359913242
 21
0.4000000998
 31
0.0
  0
ARC
  5
101
330
1F
100
AcDbEntity
  8
SK3
100
AcDbCircle
 10
-2.7217022571
 20
0.0000000998
 30
0.0
 40
0.4000063373530068
100
AcDbArc
 50
269.6774784657
 51
90.3225215343
  0
ARC
  5
102
330
1F
100
AcDbEntity
  8
SK1
  6
Continuous
100
AcDbCircle
 10
-3.7399955132
 20
0.0000000998
 30
0.0
 40
0.4000200414090899
100
AcDbArc
 50
270.5735386566
 51
89.4264613434
  0
LINE
  5
103
330
1F
100
AcDbEntity
  8
SK3
100
AcDbLine
 10
-3.7359913242
 20
-0.3999999002
 30
0.0
 11
-2.723953906
 21
-0.3999999002
 31
0.0
  0
LINE
  5
104
330
1F
100
AcDbEntity
  8
SK3
100
AcDbLine
 10
-22.4412564554
 20
3.2722924226
 30
0.0
 11
12.26
 21
3.2722924226
 31
0.0
  0
LINE
  5
105
330
1F
100
AcDbEntity
  8
SK1
  6
Continuous
100
AcDbLine
 10
-21.9248070233
 20
4.5717140606
 30
0.0
 11
3.0473721046
 21
5.9152905865
 31
0.0
  0
SPLINE
  5
106
330
1F
100
AcDbEntity
  8
SK1
  6
Continuous
100
AcDbSpline
210
0.0
220
0.0
230
1.0
 70
     8
 71
     3
 72
    35
 73
    31
 74
     0
 42
0.0000000080645082
 43
0.0000000001
 12
1.0
 22
0.0
 32
0.0
 13
1.0
 23
0.0
 33
0.0
 40
0.0
 40
0.0
 40
0.0
 40
0.0
 40
0.1140466951010023
 40
0.1140466951010023
 40
0.1140466951010023
 40
0.2282948207519029
 40
0.2282948207519029
 40
0.2282948207519029
 40
0.3392741566161928
 40
0.3392741566161928
 40
0.3392741566161928
 40
0.4452969336874797
 40
0.4452969336874797
 40
0.4452969336874797
 40
0.5002192508761253
 40
0.5002192508761253
 40
0.5002192508761253
 40
0.6019916732935721
 40
0.6019916732935721
 40
0.6019916732935721
 40
0.7036615082091146
 40
0.7036615082091146
 40
0.7036615082091146
 40
0.8069310276856786
 40
0.8069310276856786
 40
0.8069310276856786
 40
0.9141591791607986
 40
0.9141591791607986
 40
0.9141591791607986
 40
1.0
 40
1.0
 40
1.0
 40
1.0
 10
-21.92480702333012
 20
4.571714060613251
 30
0.0
 10
-21.9729445224499
 20
4.569123856414283
 30
0.0
 10
-22.02179045614507
 20
4.574195108533974
 30
0.0
 10
-22.06731538777646
 20
4.586685305793398
 30
0.0
 10
-22.11288603359943
 20
4.599188045175343
 30
0.0
 10
-22.15641801502277
 20
4.619514923609544
 30
0.0
 10
-22.19389651275008
 20
4.646140247503639
 30
0.0
 10
-22.23030119824958
 20
4.672002718025775
 30
0.0
 10
-22.2620404834156
 20
4.704588104702979
 30
0.0
 10
-22.28596647678823
 20
4.741114784105443
 30
0.0
 10
-22.30883959766454
 20
4.776034092999775
 30
0.0
 10
-22.32522337379347
 20
4.815570442817047
 30
0.0
 10
-22.33348005343866
 20
4.856254400451395
 30
0.0
 10
-22.33780546823055
 20
4.877567446337396
 30
0.0
 10
-22.3400000000013
 20
4.899436622370482
 30
0.0
 10
-22.3400000000013
 20
4.921306124400268
 30
0.0
 10
-22.3400000000013
 20
4.961418138353342
 30
0.0
 10
-22.33246049415489
 20
5.00239950898183
 30
0.0
 10
-22.31809824177698
 20
5.040840149772925
 30
0.0
 10
-22.3037440502307
 20
5.079259215707592
 30
0.0
 10
-22.28220523305153
 20
5.116184731780128
 30
0.0
 10
-22.25540696650937
 20
5.148779624082903
 30
0.0
 10
-22.22817994286493
 20
5.181896016220405
 30
0.0
 10
-22.19482910869401
 20
5.211425555577891
 30
0.0
 10
-22.15812035425899
 20
5.235327366828153
 30
0.0
 10
-22.12001391021717
 20
5.2601392420041
 30
0.0
 10
-22.07730851902811
 20
5.279548844797912
 30
0.0
 10
-22.03337750918332
 20
5.292335647471354
 30
0.0
 10
-21.99803558327171
 20
5.302622463875712
 30
0.0
 10
-21.96126607020312
 20
5.30885588183334
 30
0.0
 10
-21.92480702333012
 20
5.310817686622281
 30
0.0
  0
SPLINE
  5
107
330
1F
100
AcDbEntity
  8
SK3
100
AcDbSpline
210
0.0
220
0.0
230
1.0
 70
     8
 71
     3
 72
    35
 73
    31
 74
     0
 42
0.000000008208304
 43
0.0000000001
 12
1.0
 22
0.0
 32
0.0
 13
1.0
 23
0.0
 33
0.0
 40
0.0
 40
0.0
 40
0.0
 40
0.0
 40
0.108266766888613
 40
0.108266766888613
 40
0.108266766888613
 40
0.216571703003774
 40
0.216571703003774
 40
0.216571703003774
 40
0.3243189631398894
 40
0.3243189631398894
 40
0.3243189631398894
 40
0.4314824303129353
 40
0.4314824303129353
 40
0.4314824303129353
 40
0.5000235567329119
 40
0.5000235567329119
 40
0.5000235567329119
 40
0.6068269989895242
 40
0.6068269989895242
 40
0.6068269989895242
 40
0.7136235335293729
 40
0.7136235335293729
 40
0.7136235335293729
 40
0.8205317906913074
 40
0.8205317906913074
 40
0.8205317906913074
 40
0.9278125172892461
 40
0.9278125172892461
 40
0.9278125172892461
 40
1.0
 40
1.0
 40
1.0
 40
1.0
 10
-22.44125645538938
 20
4.011396048656248
 30
0.0
 10
-22.48649463465857
 20
4.011396048656248
 30
0.0
 10
-22.53235882170645
 20
4.004352904218616
 30
0.0
 10
-22.57505628510951
 20
3.990780890658082
 30
0.0
 10
-22.61776267961004
 20
3.977206038217521
 30
0.0
 10
-22.65848048310938
 20
3.956715921982263
 30
0.0
 10
-22.69378023040809
 20
3.930932111675295
 30
0.0
 10
-22.72889984956076
 20
3.905279871430552
 30
0.0
 10
-22.75963048590141
 20
3.873671257290775
 30
0.0
 10
-22.78338115659945
 20
3.8386727953974
 30
0.0
 10
-22.80700555816838
 20
3.803860400893847
 30
0.0
 10
-22.82437932957413
 20
3.764727690349887
 30
0.0
 10
-22.83404780679608
 20
3.724487574855392
 30
0.0
 10
-22.84028415015207
 20
3.698531969732937
 30
0.0
 10
-22.84345830645901
 20
3.671743513046417
 30
0.0
 10
-22.84345830645901
 20
3.645059793048185
 30
0.0
 10
-22.84345830645901
 20
3.603826544855453
 30
0.0
 10
-22.83575468437644
 20
3.561898048378061
 30
0.0
 10
-22.82098850803763
 20
3.522767363333916
 30
0.0
 10
-22.80622285613382
 20
3.483638068053839
 30
0.0
 10
-22.78398889826708
 20
3.446230664139147
 30
0.0
 10
-22.75613502082579
 20
3.413677177299757
 30
0.0
 10
-22.72825096425798
 20
3.3810884193998
 30
0.0
 10
-22.69397108995008
 20
3.352471912846454
 30
0.0
 10
-22.65613517488714
 20
3.330212066036308
 30
0.0
 10
-22.61816684716565
 20
3.307874317436544
 30
0.0
 10
-22.57558151921434
 20
3.291326722555117
 30
0.0
 10
-22.53188241297137
 20
3.281918154606832
 30
0.0
 10
-22.50225043679017
 20
3.275538288167627
 30
0.0
 10
-22.4716577698245
 20
3.27229242264722
 30
0.0
 10
-22.44125645538938
 20
3.27229242264722
 30
0.0
  0
SPLINE
  5
108
330
1F
100
AcDbEntity
  8
SK3
100
AcDbSpline
210
0.0
220
0.0
230
1.0
 70
     8
 71
     3
 72
     8
 73
     4
 74
     0
 42
0.0000001800931474
 43
0.0000000001
 12
1.0
 22
0.0
 32
0.0
 13
1.0
 23
0.0
 33
0.0
 40
0.0
 40
0.0
 40
0.0
 40
0.0
 40
0.9999999999999999
 40
0.9999999999999999
 40
0.9999999999999999
 40
0.9999999999999999
 10
-22.80419454387086
 20
-3.803835882900292
 30
0.0
 10
-22.81278035541681
 20
-3.787389627328371
 30
0.0
 10
-22.8200571837035
 20
-3.770303053461622
 30
0.0
 10
-22.8258999337443
 20
-3.752852458138439
 30
0.0
  0
LINE
  5
109
330
1F
100
AcDbEntity
  8
SK1
  6
Continuous
100
AcDbLine
 10
-21.9248070233
 20
5.3108176866
 30
0.0
 11
3.0473721046
 21
6.6543942125
 31
0.0
  0
LINE
  5
10A
330
1F
100
AcDbEntity
  8
SK3
100
AcDbLine
 10
-22.4412564554
 20
4.0113960487
 30
0.0
 11
12.26
 21
4.0113960487
 31
0.0
  0
ELLIPSE
  5
10B
330
1F
100
AcDbEntity
  8
SK1
  6
Continuous
100
AcDbEllipse
 10
51.5492455544
 20
0.3695519078
 30
0.0
 11
-74.60000008558697
 21
5.748668021608221E-9
 31
0.0
210
0.0
220
0.0
230
1.0
 40
0.3826834322
 41
-0.1739612069518648
 42
-0.1503892274344585
  0
ELLIPSE
  5
10C
330
1F
100
AcDbEntity
  8
SK1
  6
Continuous
100
AcDbEllipse
 10
-76.7144558027
 20
0.2828428155
 30
0.0
 11
74.59999997252154
 21
-6.433074963161455E-9
 31
0.0
210
0.0
220
0.0
230
1.0
 40
0.7071067813
 41
0.1986949999848044
 42
0.2088808539889624
  0
SPLINE
  5
10D
330
1F
100
AcDbEntity
  8
SK3
100
AcDbSpline
210
0.0
220
0.0
230
1.0
 70
     8
 71
     3
 72
    35
 73
    31
 74
     0
 42
0.0000000091816014
 43
0.0000000001
 12
1.0
 22
0.0
 32
0.0
 13
1.0
 23
0.0
 33
0.0
 40
0.0
 40
0.0
 40
0.0
 40
0.0
 40
0.1082667668886099
 40
0.1082667668886099
 40
0.1082667668886099
 40
0.2165717030037751
 40
0.2165717030037751
 40
0.2165717030037751
 40
0.3243189631398775
 40
0.3243189631398775
 40
0.3243189631398775
 40
0.4314824303129205
 40
0.4314824303129205
 40
0.4314824303129205
 40
0.5000235567329115
 40
0.5000235567329115
 40
0.5000235567329115
 40
0.6068269989895293
 40
0.6068269989895293
 40
0.6068269989895293
 40
0.7136235335293827
 40
0.7136235335293827
 40
0.7136235335293827
 40
0.8205317906913175
 40
0.8205317906913175
 40
0.8205317906913175
 40
0.9278125172892455
 40
0.9278125172892455
 40
0.9278125172892455
 40
1.0
 40
1.0
 40
1.0
 40
1.0
 10
-2.723953905957329
 20
6.446407902769558
 30
0.0
 10
-2.678715726688135
 20
6.446407902769558
 30
0.0
 10
-2.632851539640261
 20
6.452133315765182
 30
0.0
 10
-2.590154076237201
 20
6.463112971618293
 30
0.0
 10
-2.547447681736662
 20
6.474094924103777
 30
0.0
 10
-2.506729878237322
 20
6.490638951705785
 30
0.0
 10
-2.47143013093861
 20
6.511298865382324
 30
0.0
 10
-2.43631051178595
 20
6.531853355302804
 30
0.0
 10
-2.405579875445298
 20
6.557048383279444
 30
0.0
 10
-2.381829204747266
 20
6.584680290414982
 30
0.0
 10
-2.358204803178335
 20
6.612165294042246
 30
0.0
 10
-2.340831031772567
 20
6.642817528483351
 30
0.0
 10
-2.331162554550615
 20
6.67401134406559
 30
0.0
 10
-2.324926211194621
 20
6.694131921493512
 30
0.0
 10
-2.321752054887709
 20
6.714769355458178
 30
0.0
 10
-2.321752054887709
 20
6.735192190572567
 30
0.0
 10
-2.321752054887709
 20
6.766750752464481
 30
0.0
 10
-2.329455676970266
 20
6.79851051265902
 30
0.0
 10
-2.344221853309088
 20
6.82787621924987
 30
0.0
 10
-2.358987505212897
 20
6.857240882889291
 30
0.0
 10
-2.381221463079632
 20
6.885023584127917
 30
0.0
 10
-2.409075340520921
 20
6.90902702995357
 30
0.0
 10
-2.436959397088738
 20
6.933056483039081
 30
0.0
 10
-2.471239271396641
 20
6.953963531782904
 30
0.0
 10
-2.509075186459575
 20
6.970156620474067
 30
0.0
 10
-2.547043514181067
 20
6.986406379392985
 30
0.0
 10
-2.589628842132368
 20
6.998360211978949
 30
0.0
 10
-2.633327948375333
 20
7.005151112373992
 30
0.0
 10
-2.662959924556533
 20
7.009755961673105
 30
0.0
 10
-2.693552591522203
 20
7.012093327718794
 30
0.0
 10
-2.723953905957329
 20
7.012093327718794
 30
0.0
  0
SPLINE
  5
10E
330
1F
100
AcDbEntity
  8
SK1
  6
Continuous
100
AcDbSpline
210
0.0
220
0.0
230
1.0
 70
     8
 71
     3
 72
    35
 73
    31
 74
     0
 42
0.0000000092457244
 43
0.0000000001
 12
1.0
 22
0.0
 32
0.0
 13
1.0
 23
0.0
 33
0.0
 40
0.0
 40
0.0
 40
0.0
 40
0.0
 40
0.107687314499424
 40
0.107687314499424
 40
0.107687314499424
 40
0.2153859646719062
 40
0.2153859646719062
 40
0.2153859646719062
 40
0.3229211770831059
 40
0.3229211770831059
 40
0.3229211770831059
 40
0.4302974370948144
 40
0.4302974370948144
 40
0.4302974370948144
 40
0.5000063759059392
 40
0.5000063759059392
 40
0.5000063759059392
 40
0.6072943446396679
 40
0.6072943446396679
 40
0.6072943446396679
 40
0.7145807350372904
 40
0.7145807350372904
 40
0.7145807350372904
 40
0.82189277249914
 40
0.82189277249914
 40
0.82189277249914
 40
0.9292995131762629
 40
0.9292995131762629
 40
0.9292995131762629
 40
1.0
 40
1.0
 40
1.0
 40
1.0
 10
-3.735991324229844
 20
11.22139203854112
 30
0.0
 10
-3.691530379695962
 20
11.22581192744153
 30
0.0
 10
-3.646483917846105
 20
11.22496462470737
 30
0.0
 10
-3.60457629942638
 20
11.21888652697288
 30
0.0
 10
-3.562666046495061
 20
11.21280804714035
 30
0.0
 10
-3.522738413629951
 20
11.20132685630281
 30
0.0
 10
-3.488104890183538
 20
11.18533057995861
 30
0.0
 10
-3.453523374076315
 20
11.16935832438063
 30
0.0
 10
-3.423264198387481
 20
11.14843983019727
 30
0.0
 10
-3.399831878259519
 20
11.12424261834114
 30
0.0
 10
-3.376433513498361
 20
11.10008047024309
 30
0.0
 10
-3.3591952508632
 20
11.0719793100376
 30
0.0
 10
-3.349538750650311
 20
11.04222256540185
 30
0.0
 10
-3.343217909001926
 20
11.02274473527008
 30
0.0
 10
-3.340000000001154
 20
11.00227923123484
 30
0.0
 10
-3.340000000001154
 20
10.98155808631215
 30
0.0
 10
-3.340000000001154
 20
10.94992730589487
 30
0.0
 10
-3.347618441150339
 20
10.916959069162
 30
0.0
 10
-3.362228347636304
 20
10.88540535972544
 30
0.0
 10
-3.376838136568122
 20
10.85385190417615
 30
0.0
 10
-3.398842476523275
 20
10.82284497585948
 30
0.0
 10
-3.426428906886116
 20
10.79500489239855
 30
0.0
 10
-3.4540222157663
 20
10.76715786717334
 30
0.0
 10
-3.48796074155936
 20
10.74171522478031
 30
0.0
 10
-3.525446613184471
 20
10.72083997446527
 30
0.0
 10
-3.562965835687054
 20
10.69994615160851
 30
0.0
 10
-3.605070934507815
 20
10.68305527562237
 30
0.0
 10
-3.64829073541959
 20
10.67159765123846
 30
0.0
 10
-3.676969597924279
 20
10.66399484818513
 30
0.0
 10
-3.706564389522372
 20
10.65863196264711
 30
0.0
 10
-3.735991324229871
 20
10.65570661359188
 30
0.0
  0
SPLINE
  5
10F
330
1F
100
AcDbEntity
  8
SK3
100
AcDbSpline
210
0.0
220
0.0
230
1.0
 70
     8
 71
     3
 72
     8
 73
     4
 74
     0
 42
0.0000002804538353
 43
0.0000000001
 12
1.0
 22
0.0
 32
0.0
 13
1.0
 23
0.0
 33
0.0
 40
0.0
 40
0.0
 40
0.0
 40
0.0
 40
0.9999999999999999
 40
0.9999999999999999
 40
0.9999999999999999
 40
0.9999999999999999
 10
-2.321752054887708
 20
-6.735191991031167
 30
0.0
 10
-2.321752054887708
 20
-6.747014540988771
 30
0.0
 10
-2.322833197229367
 20
-6.75886532753453
 30
0.0
 10
-2.32496177757157
 20
-6.770607904489204
 30
0.0
  0
LINE
  5
110
330
1F
100
AcDbEntity
  8
SK1
  6
Continuous
100
AcDbLine
 10
3.0473721046
 20
16.4279549475
 30
0.0
 11
-3.34
 21
15.5302683403
 31
0.0
  0
LINE
  5
111
330
1F
100
AcDbEntity
  8
SK1
  6
Continuous
100
AcDbLine
 10
-3.34
 20
-15.5302681408
 30
0.0
 11
3.0473721046
 21
-16.4279547479
 31
0.0
  0
LINE
  5
112
330
1F
100
AcDbEntity
  8
SK3
100
AcDbLine
 10
-2.3217520549
 20
-9.5249999002
 30
0.0
 11
12.26
 21
-9.5249999002
 31
0.0
  0
LINE
  5
113
330
1F
100
AcDbEntity
  8
SK3
100
AcDbLine
 10
12.26
 20
9.5250000998
 30
0.0
 11
-2.3217520549
 21
9.5250000998
 31
0.0
  0
LINE
  5
114
330
1F
100
AcDbEntity
  8
SK1
  6
Continuous
100
AcDbLine
 10
7.16
 20
-16.4999999002
 30
0.0
 11
7.4631088913
 21
-16.4999999002
 31
0.0
  0
ARC
  5
115
330
1F
100
AcDbEntity
  8
SK3
100
AcDbCircle
 10
12.26
 20
-9.9249999002
 30
0.0
 40
0.4000000000000005
100
AcDbArc
 50
0.0
 51
90.0
  0
ARC
  5
116
330
1F
100
AcDbEntity
  8
SK1
  6
Continuous
100
AcDbCircle
 10
12.41
 20
-13.3552358524
 30
0.0
 40
0.2500000000000023
100
AcDbArc
 50
300.0
 51
0.0
  0
ARC
  5
117
330
1F
100
AcDbEntity
  8
SK1
  6
Continuous
100
AcDbCircle
 10
3.11
 20
-15.982334117
 30
0.0
 40
0.4500000000000015
100
AcDbArc
 50
262.0
 51
0.0
  0
ARC
  5
118
330
1F
100
AcDbEntity
  8
SK1
  6
Continuous
100
AcDbCircle
 10
6.96
 20
-14.7999999002
 30
0.0
 40
0.199999999999999
100
AcDbArc
 50
0.0
 51
90.0
  0
ARC
  5
119
330
1F
100
AcDbEntity
  8
SK1
  6
Continuous
100
AcDbCircle
 10
3.76
 20
-14.7999999002
 30
0.0
 40
0.1999999999999994
100
AcDbArc
 50
90.0
 51
180.0
  0
LINE
  5
11A
330
1F
100
AcDbEntity
  8
SK1
  6
Continuous
100
AcDbLine
 10
3.76
 20
-14.5999999002
 30
0.0
 11
6.96
 21
-14.5999999002
 31
0.0
  0
LINE
  5
11B
330
1F
100
AcDbEntity
  8
SK1
  6
Continuous
100
AcDbLine
 10
7.4631088913
 20
-16.4999999002
 30
0.0
 11
12.535
 21
-13.5717422033
 31
0.0
  0
LINE
  5
11C
330
1F
100
AcDbEntity
  8
SK1
  6
Continuous
100
AcDbLine
 10
7.4631088913
 20
16.5000000998
 30
0.0
 11
7.16
 21
16.5000000998
 31
0.0
  0
ARC
  5
11D
330
1F
100
AcDbEntity
  8
SK3
100
AcDbCircle
 10
12.26
 20
9.9250000998
 30
0.0
 40
0.3999999999999976
100
AcDbArc
 50
270.0
 51
0.0
  0
ARC
  5
11E
330
1F
100
AcDbEntity
  8
SK1
  6
Continuous
100
AcDbCircle
 10
12.41
 20
13.3552360519
 30
0.0
 40
0.2500000000000002
100
AcDbArc
 50
0.0
 51
60.0
  0
ARC
  5
11F
330
1F
100
AcDbEntity
  8
SK1
  6
Continuous
100
AcDbCircle
 10
3.11
 20
15.9823343165
 30
0.0
 40
0.45
100
AcDbArc
 50
0.0
 51
98.0
  0
ARC
  5
120
330
1F
100
AcDbEntity
  8
SK1
  6
Continuous
100
AcDbCircle
 10
6.96
 20
14.8000000998
 30
0.0
 40
0.1999999999999997
100
AcDbArc
 50
270.0
 51
0.0
  0
ARC
  5
121
330
1F
100
AcDbEntity
  8
SK1
  6
Continuous
100
AcDbCircle
 10
3.76
 20
14.8000000998
 30
0.0
 40
0.199999999999999
100
AcDbArc
 50
180.0
 51
270.0
  0
LINE
  5
122
330
1F
100
AcDbEntity
  8
SK1
  6
Continuous
100
AcDbLine
 10
6.96
 20
14.6000000998
 30
0.0
 11
3.76
 21
14.6000000998
 31
0.0
  0
LINE
  5
123
330
1F
100
AcDbEntity
  8
SK1
  6
Continuous
100
AcDbLine
 10
12.535
 20
13.5717424029
 30
0.0
 11
7.4631088913
 21
16.5000000998
 31
0.0
  0
ARC
  5
124
330
1F
100
AcDbEntity
  8
SK3
100
AcDbCircle
 10
39.8004338301
 20
0.1426193007
 30
0.0
 40
63.23983561504954
100
AcDbArc
 50
169.2919457962
 51
172.1419839854
  0
ARC
  5
125
330
1F
100
AcDbEntity
  8
SK3
100
AcDbCircle
 10
-76.7144558302
 20
0.0000000998
 30
0.0
 40
75.00000000000003
100
AcDbArc
 50
348.0492930526
 51
352.7037421937
  0
ARC
  5
126
330
1F
100
AcDbEntity
  8
SK3
100
AcDbCircle
 10
-76.7144558302
 20
0.0000000998
 30
0.0
 40
75.00000000000001
100
AcDbArc
 50
7.2962573122
 51
11.9507057581
  0
ARC
  5
127
330
1F
100
AcDbEntity
  8
SK3
100
AcDbCircle
 10
38.8542396788
 20
-0.2874063769
 30
0.0
 40
62.2827327704103
100
AcDbArc
 50
187.8450769435
 51
190.7384139207
  0
ARC
  5
128
330
1F
100
AcDbEntity
  8
SK3
100
AcDbCircle
 10
-40.8097338357
 20
0.2017825795
 30
0.0
 40
39.11107272762516
100
AcDbArc
 50
343.2986848296
 51
349.7305279938
  0
ARC
  5
129
330
1F
100
AcDbEntity
  8
SK3
100
AcDbCircle
 10
-10.3822479499
 20
0.4098771029
 30
0.0
 40
13.12148503398498
100
AcDbArc
 50
198.4573186599
 51
204.6586835629
  0
ARC
  5
12A
330
1F
100
AcDbEntity
  8
SK3
100
AcDbCircle
 10
-10.2317927038
 20
-0.4648814218
 30
0.0
 40
13.28161593066901
100
AcDbArc
 50
155.3981660692
 51
161.5230908846
  0
ARC
  5
12B
330
1F
100
AcDbEntity
  8
SK3
100
AcDbCircle
 10
-40.8034087806
 20
-0.2015800219
 30
0.0
 40
39.10486763243329
100
AcDbArc
 50
10.2711080565
 51
16.7035095817
  0
LINE
  5
12C
330
1F
100
AcDbEntity
  8
SK1
  6
Continuous
100
AcDbLine
 10
0.0
 20
15.9996747282
 30
0.0
 11
0.0
 21
-15.9996745287
 31
0.0
  0
LINE
  5
12E
330
1F
100
AcDbEntity
  8
SK4
  6
Continuous
100
AcDbLine
 10
12.66
 20
0.0000000998
 30
0.0
 11
-27.34
 21
0.0000000998
 31
0.0
  0
DIMENSION
  5
144
330
1F
100
AcDbEntity
  8
SK2
  6
Continuous
 62
   136
100
AcDbDimension
  2
DMBLK93
 10
12.66
 20
24.5625045776
 30
0.0
 11
-7.340000447
 21
24.5625045776
 31
0.0
 70
   160
  1
\A1;<>
 71
     5
 42
-1.0
  3
DIN
100
AcDbAlignedDimension
 13
-27.34
 23
11.8897757188
 33
0.0
 14
12.66
 24
12.180020447
 34
0.0
100
AcDbRotatedDimension
  0
INSERT
  5
158
330
1F
100
AcDbEntity
  8
SK2
 62
     7
100
AcDbBlockReference
  2
Nullpunkt
 10
0.0
 20
0.0000000998
 30
0.0
  0
INSERT
  5
163
330
1F
100
AcDbEntity
  8
SK2
 62
     7
100
AcDbBlockReference
  2
Einfügepunkt
 10
12.66
 20
0.0000000998
 30
0.0
  0
DIMENSION
  5
164
330
1F
100
AcDbEntity
  8
SK2
  6
Continuous
 62
   136
100
AcDbDimension
  2
DMBLK94
 10
22.6600000283
 20
-9.5249999002
 30
0.0
 11
22.6600000283
 21
0.0000002175
 31
0.0
 70
   161
  1
\A1;ø <>
 71
     5
 42
-1.0
  3
DIN
100
AcDbAlignedDimension
 13
12.26
 23
-9.5249999002
 33
0.0
 14
12.26
 24
9.5250000998
 34
0.0
  0
DIMENSION
  5
16F
330
1F
100
AcDbEntity
  8
SK2
  6
Continuous
 62
   136
100
AcDbDimension
  2
DMBLK95
 10
12.66
 20
-23.7333837076
 30
0.0
 11
6.329999771
 21
-23.7333837076
 31
0.0
 70
   160
  1
\A1;<>
 71
     5
 42
-1.0
  3
DIN
100
AcDbAlignedDimension
 13
0.0
 23
-15.9996745287
 33
0.0
 14
12.66
 24
-12.1800202475
 34
0.0
100
AcDbRotatedDimension
  0
DIMENSION
  5
179
330
1F
100
AcDbEntity
  8
SK2
  6
Continuous
 62
   136
100
AcDbDimension
  2
DMBLK96
 10
-34.7515046597
 20
15.9996747282
 30
0.0
 11
-34.7515046597
 21
-0.0000000688
 31
0.0
 70
   161
  1
\A1;ø <>
 71
     5
 42
-1.0
  3
DIN
100
AcDbAlignedDimension
 13
0.0
 23
15.9996747282
 33
0.0
 14
0.0
 24
-15.9996745287
 34
0.0
  0
ENDSEC
  0
SECTION
  2
OBJECTS
  0
DICTIONARY
  5
C
330
0
100
AcDbDictionary
281
     1
  3
ACAD_GROUP
350
D
  3
ACAD_LAYOUT
350
1A
  3
ACAD_MATERIAL
350
3B
  3
ACAD_MLEADERSTYLE
350
186
  3
ACAD_MLINESTYLE
350
17
  3
ACAD_PLOTSETTINGS
350
19
  3
ACAD_PLOTSTYLENAME
350
E
  3
ACAD_VISUALSTYLE
350
2A
  3
AcDbVariableDictionary
350
184
  0
DICTIONARY
  5
D
102
{ACAD_REACTORS
330
C
102
}
330
C
100
AcDbDictionary
281
     1
  0
DICTIONARY
  5
1A
102
{ACAD_REACTORS
330
C
102
}
330
C
100
AcDbDictionary
281
     1
  3
Layout1
350
1E
  3
Model
350
22
  0
DICTIONARY
  5
3B
102
{ACAD_REACTORS
330
C
102
}
330
C
100
AcDbDictionary
281
     1
  3
ByBlock
350
3D
  3
ByLayer
350
3C
  3
Global
350
3E
  0
DICTIONARY
  5
186
102
{ACAD_REACTORS
330
C
102
}
330
C
100
AcDbDictionary
281
     1
  0
DICTIONARY
  5
17
102
{ACAD_REACTORS
330
C
102
}
330
C
100
AcDbDictionary
281
     1
  3
Standard
350
18
  0
DICTIONARY
  5
19
102
{ACAD_REACTORS
330
C
102
}
330
C
100
AcDbDictionary
281
     1
  0
ACDBDICTIONARYWDFLT
  5
E
102
{ACAD_REACTORS
330
C
102
}
330
C
100
AcDbDictionary
281
     1
  3
Normal
350
F
100
AcDbDictionaryWithDefault
340
F
  0
DICTIONARY
  5
2A
102
{ACAD_REACTORS
330
C
102
}
330
C
100
AcDbDictionary
281
     1
  3
2dWireframe
350
2F
  3
3D Hidden
350
31
  3
3dWireframe
350
30
  3
Basic
350
32
  3
Brighten
350
36
  3
ColorChange
350
3A
  3
Conceptual
350
34
  3
Dim
350
35
  3
Facepattern
350
39
  3
Flat
350
2B
  3
FlatWithEdges
350
2C
  3
Gouraud
350
2D
  3
GouraudWithEdges
350
2E
  3
Linepattern
350
38
  3
Realistic
350
33
  3
Thicken
350
37
  0
DICTIONARY
  5
184
102
{ACAD_REACTORS
330
C
102
}
330
C
100
AcDbDictionary
281
     1
  3
DIMASSOC
350
189
  3
HIDETEXT
350
18A
  3
PSOLHEIGHT
350
188
  3
PSOLWIDTH
350
187
  0
LAYOUT
  5
1E
102
{ACAD_REACTORS
330
1A
102
}
330
1A
100
AcDbPlotSettings
  1

  2
none_device
  4

  6

 40
0.0
 41
0.0
 42
0.0
 43
0.0
 44
0.0
 45
0.0
 46
0.0
 47
0.0
 48
0.0
 49
0.0
140
0.0
141
0.0
142
1.0
143
1.0
 70
   688
 72
     0
 73
     0
 74
     5
  7

 75
    16
147
1.0
148
0.0
149
0.0
100
AcDbLayout
  1
Layout1
 70
     1
 71
     1
 10
0.0
 20
0.0
 11
210.0
 21
297.0
 12
0.0
 22
0.0
 32
0.0
 14
0.0
 24
0.0
 34
0.0
 15
210.0
 25
297.0
 35
0.0
146
0.0
 13
0.0
 23
0.0
 33
0.0
 16
1.0
 26
0.0
 36
0.0
 17
0.0
 27
1.0
 37
0.0
 76
     0
330
1B
  0
LAYOUT
  5
22
102
{ACAD_REACTORS
330
1A
102
}
330
1A
100
AcDbPlotSettings
  1

  2
none_device
  4

  6

 40
0.0
 41
0.0
 42
0.0
 43
0.0
 44
0.0
 45
0.0
 46
0.0
 47
0.0
 48
0.0
 49
0.0
140
0.0
141
0.0
142
1.0
143
1.0
 70
  1712
 72
     0
 73
     0
 74
     0
  7

 75
     0
147
1.0
148
0.0
149
0.0
100
AcDbLayout
  1
Model
 70
     1
 71
     0
 10
0.0
 20
0.0
 11
210.0
 21
297.0
 12
0.0
 22
0.0
 32
0.0
 14
0.0
 24
0.0
 34
0.0
 15
210.0
 25
297.0
 35
0.0
146
0.0
 13
0.0
 23
0.0
 33
0.0
 16
1.0
 26
0.0
 36
0.0
 17
0.0
 27
1.0
 37
0.0
 76
     0
330
1F
331
29
  0
MATERIAL
  5
3D
102
{ACAD_REACTORS
330
3B
102
}
102
{ACAD_XDICTIONARY
360
1AD
102
}
330
3B
100
AcDbMaterial
  1
ByBlock
  0
MATERIAL
  5
3C
102
{ACAD_REACTORS
330
3B
102
}
102
{ACAD_XDICTIONARY
360
1AB
102
}
330
3B
100
AcDbMaterial
  1
ByLayer
  0
MATERIAL
  5
3E
102
{ACAD_REACTORS
330
3B
102
}
102
{ACAD_XDICTIONARY
360
1AF
102
}
330
3B
100
AcDbMaterial
  1
Global
  0
MLINESTYLE
  5
18
102
{ACAD_REACTORS
330
17
102
}
330
17
100
AcDbMlineStyle
  2
Standard
 70
     0
  3

 62
   256
 51
90.0
 52
90.0
 71
     2
 49
0.5
 62
   256
  6
BYLAYER
 49
-0.5
 62
   256
  6
BYLAYER
  0
ACDBPLACEHOLDER
  5
F
102
{ACAD_REACTORS
330
E
102
}
330
E
  0
VISUALSTYLE
  5
2F
102
{ACAD_REACTORS
330
2A
102
}
102
{ACAD_XDICTIONARY
360
193
102
}
330
2A
100
AcDbVisualStyle
  2
2dWireframe
 70
     4
 71
     0
 72
     2
 73
     0
 90
        0
 40
-0.6
 41
-30.0
 62
     5
 63
     7
 74
     1
 91
        4
 64
     7
 65
   257
 75
     1
175
     1
 42
1.0
 92
        0
 66
   257
 43
1.0
 76
     1
 77
     6
 78
     2
 67
     7
 79
     5
170
     0
171
     0
290
     0
174
     0
 93
        1
 44
0.0
173
     0
291
     0
 45
0.0
1001
ACAD
1000
AcDbSavedByObjectVersion
1070
     0
  0
VISUALSTYLE
  5
31
102
{ACAD_REACTORS
330
2A
102
}
102
{ACAD_XDICTIONARY
360
197
102
}
330
2A
100
AcDbVisualStyle
  2
3D Hidden
 70
     6
 71
     1
 72
     2
 73
     2
 90
        0
 40
-0.6
 41
-30.0
 62
     5
 63
     7
 74
     2
 91
        2
 64
     7
 65
   257
 75
     2
175
     1
 42
40.0
 92
        0
 66
   257
 43
1.0
 76
     1
 77
     6
 78
     2
 67
     7
 79
     3
170
     0
171
     0
290
     0
174
     0
 93
        1
 44
0.0
173
     0
291
     0
 45
0.0
1001
ACAD
1000
AcDbSavedByObjectVersion
1070
     0
  0
VISUALSTYLE
  5
30
102
{ACAD_REACTORS
330
2A
102
}
102
{ACAD_XDICTIONARY
360
195
102
}
330
2A
100
AcDbVisualStyle
  2
3dWireframe
 70
     5
 71
     0
 72
     2
 73
     0
 90
        0
 40
-0.6
 41
-30.0
 62
     5
 63
     7
 74
     1
 91
        4
 64
     7
 65
   257
 75
     1
175
     1
 42
1.0
 92
        0
 66
   257
 43
1.0
 76
     1
 77
     6
 78
     2
 67
     7
 79
     5
170
     0
171
     0
290
     0
174
     0
 93
        1
 44
0.0
173
     0
291
     0
 45
0.0
1001
ACAD
1000
AcDbSavedByObjectVersion
1070
     0
  0
VISUALSTYLE
  5
32
102
{ACAD_REACTORS
330
2A
102
}
102
{ACAD_XDICTIONARY
360
199
102
}
330
2A
100
AcDbVisualStyle
  2
Basic
 70
     7
 71
     1
 72
     0
 73
     1
 90
        0
 40
-0.6
 41
-30.0
 62
     5
 63
     7
 74
     0
 91
        4
 64
     7
 65
   257
 75
     1
175
     1
 42
1.0
 92
        8
 66
     7
 43
1.0
 76
     1
 77
     6
 78
     2
 67
     7
 79
     5
170
     0
171
     0
290
     0
174
     0
 93
        1
 44
0.0
173
     0
291
     1
 45
0.0
1001
ACAD
1000
AcDbSavedByObjectVersion
1070
     0
  0
VISUALSTYLE
  5
36
102
{ACAD_REACTORS
330
2A
102
}
102
{ACAD_XDICTIONARY
360
1A1
102
}
330
2A
100
AcDbVisualStyle
  2
Brighten
 70
    12
 71
     2
 72
     2
 73
     0
 90
        0
 40
-0.6
 41
-30.0
 62
     5
 63
     7
 74
     1
 91
        4
 64
     7
 65
   257
 75
     1
175
     1
 42
1.0
 92
        8
 66
     7
 43
1.0
 76
     1
 77
     6
 78
     2
 67
     7
 79
     5
170
     0
171
     0
290
     0
174
     0
 93
        1
 44
50.0
173
     0
291
     1
 45
0.0
1001
ACAD
1000
AcDbSavedByObjectVersion
1070
     0
  0
VISUALSTYLE
  5
3A
102
{ACAD_REACTORS
330
2A
102
}
102
{ACAD_XDICTIONARY
360
1A9
102
}
330
2A
100
AcDbVisualStyle
  2
ColorChange
 70
    16
 71
     2
 72
     2
 73
     3
 90
        0
 40
-0.6
 41
-30.0
 62
     5
 63
     8
 74
     1
 91
        4
 64
     7
 65
   257
 75
     1
175
     1
 42
1.0
 92
        8
 66
     8
 43
1.0
 76
     1
 77
     6
 78
     2
 67
     7
 79
     5
170
     0
171
     0
290
     0
174
     0
 93
        1
 44
0.0
173
     0
291
     1
 45
0.0
1001
ACAD
1000
AcDbSavedByObjectVersion
1070
     0
  0
VISUALSTYLE
  5
34
102
{ACAD_REACTORS
330
2A
102
}
102
{ACAD_XDICTIONARY
360
19D
102
}
330
2A
100
AcDbVisualStyle
  2
Conceptual
 70
     9
 71
     3
 72
     2
 73
     0
 90
        0
 40
-0.6
 41
-30.0
 62
     5
 63
     7
 74
     2
 91
        2
 64
     7
 65
   257
 75
     1
175
     1
 42
40.0
 92
        8
 66
     7
 43
1.0
 76
     1
 77
     6
 78
     2
 67
     7
 79
     3
170
     0
171
     0
290
     0
174
     0
 93
        1
 44
0.0
173
     0
291
     0
 45
0.0
1001
ACAD
1000
AcDbSavedByObjectVersion
1070
     0
  0
VISUALSTYLE
  5
35
102
{ACAD_REACTORS
330
2A
102
}
102
{ACAD_XDICTIONARY
360
19F
102
}
330
2A
100
AcDbVisualStyle
  2
Dim
 70
    11
 71
     2
 72
     2
 73
     0
 90
        0
 40
-0.6
 41
-30.0
 62
     5
 63
     7
 74
     1
 91
        4
 64
     7
 65
   257
 75
     1
175
     1
 42
1.0
 92
        8
 66
     7
 43
1.0
 76
     1
 77
     6
 78
     2
 67
     7
 79
     5
170
     0
171
     0
290
     0
174
     0
 93
        1
 44
-50.0
173
     0
291
     1
 45
0.0
1001
ACAD
1000
AcDbSavedByObjectVersion
1070
     0
  0
VISUALSTYLE
  5
39
102
{ACAD_REACTORS
330
2A
102
}
102
{ACAD_XDICTIONARY
360
1A7
102
}
330
2A
100
AcDbVisualStyle
  2
Facepattern
 70
    15
 71
     2
 72
     2
 73
     0
 90
        0
 40
-0.6
 41
-30.0
 62
     5
 63
     7
 74
     1
 91
        4
 64
     7
 65
   257
 75
     1
175
     1
 42
1.0
 92
        8
 66
     7
 43
1.0
 76
     1
 77
     6
 78
     2
 67
     7
 79
     5
170
     0
171
     0
290
     0
174
     0
 93
        1
 44
0.0
173
     0
291
     1
 45
0.0
1001
ACAD
1000
AcDbSavedByObjectVersion
1070
     0
  0
VISUALSTYLE
  5
2B
102
{ACAD_REACTORS
330
2A
102
}
102
{ACAD_XDICTIONARY
360
18B
102
}
330
2A
100
AcDbVisualStyle
  2
Flat
 70
     0
 71
     2
 72
     1
 73
     1
 90
        2
 40
-0.6
 41
30.0
 62
     5
 63
     7
 74
     0
 91
        4
 64
     7
 65
   257
 75
     1
175
     1
 42
1.0
 92
        8
 66
     7
 43
1.0
 76
     1
 77
     6
 78
     2
 67
     7
 79
     5
170
     0
171
     0
290
     0
174
     0
 93
       13
 44
0.0
173
     0
291
     1
 45
0.0
1001
ACAD
1000
AcDbSavedByObjectVersion
1070
     0
  0
VISUALSTYLE
  5
2C
102
{ACAD_REACTORS
330
2A
102
}
102
{ACAD_XDICTIONARY
360
18D
102
}
330
2A
100
AcDbVisualStyle
  2
FlatWithEdges
 70
     1
 71
     2
 72
     1
 73
     1
 90
        2
 40
-0.6
 41
30.0
 62
     5
 63
     7
 74
     1
 91
        4
 64
     7
 65
   257
 75
     1
175
     1
 42
1.0
 92
        0
 66
   257
 43
1.0
 76
     1
 77
     6
 78
     2
 67
     7
 79
     5
170
     0
171
     0
290
     0
174
     0
 93
       13
 44
0.0
173
     0
291
     1
 45
0.0
1001
ACAD
1000
AcDbSavedByObjectVersion
1070
     0
  0
VISUALSTYLE
  5
2D
102
{ACAD_REACTORS
330
2A
102
}
102
{ACAD_XDICTIONARY
360
18F
102
}
330
2A
100
AcDbVisualStyle
  2
Gouraud
 70
     2
 71
     2
 72
     2
 73
     1
 90
        2
 40
-0.6
 41
30.0
 62
     5
 63
     7
 74
     0
 91
        4
 64
     7
 65
   257
 75
     1
175
     1
 42
1.0
 92
        0
 66
     7
 43
1.0
 76
     1
 77
     6
 78
     2
 67
     7
 79
     5
170
     0
171
     0
290
     0
174
     0
 93
       13
 44
0.0
173
     0
291
     1
 45
0.0
1001
ACAD
1000
AcDbSavedByObjectVersion
1070
     0
  0
VISUALSTYLE
  5
2E
102
{ACAD_REACTORS
330
2A
102
}
102
{ACAD_XDICTIONARY
360
191
102
}
330
2A
100
AcDbVisualStyle
  2
GouraudWithEdges
 70
     3
 71
     2
 72
     2
 73
     1
 90
        2
 40
-0.6
 41
30.0
 62
     5
 63
     7
 74
     1
 91
        4
 64
     7
 65
   257
 75
     1
175
     1
 42
1.0
 92
        0
 66
   257
 43
1.0
 76
     1
 77
     6
 78
     2
 67
     7
 79
     5
170
     0
171
     0
290
     0
174
     0
 93
       13
 44
0.0
173
     0
291
     1
 45
0.0
1001
ACAD
1000
AcDbSavedByObjectVersion
1070
     0
  0
VISUALSTYLE
  5
38
102
{ACAD_REACTORS
330
2A
102
}
102
{ACAD_XDICTIONARY
360
1A5
102
}
330
2A
100
AcDbVisualStyle
  2
Linepattern
 70
    14
 71
     2
 72
     2
 73
     0
 90
        0
 40
-0.6
 41
-30.0
 62
     5
 63
     7
 74
     1
 91
        4
 64
     7
 65
   257
 75
     7
175
     7
 42
1.0
 92
        8
 66
     7
 43
1.0
 76
     1
 77
     6
 78
     2
 67
     7
 79
     5
170
     0
171
     0
290
     0
174
     0
 93
        1
 44
0.0
173
     0
291
     1
 45
0.0
1001
ACAD
1000
AcDbSavedByObjectVersion
1070
     0
  0
VISUALSTYLE
  5
33
102
{ACAD_REACTORS
330
2A
102
}
102
{ACAD_XDICTIONARY
360
19B
102
}
330
2A
100
AcDbVisualStyle
  2
Realistic
 70
     8
 71
     2
 72
     2
 73
     0
 90
        0
 40
-0.6
 41
-30.0
 62
     5
 63
     7
 74
     1
 91
        0
 64
     7
 65
   257
 75
     1
175
     1
 42
1.0
 92
        8
 66
     8
 43
1.0
 76
     1
 77
     6
 78
     2
 67
     7
 79
     5
170
     0
171
     0
290
     0
174
     0
 93
       13
 44
0.0
173
     0
291
     0
 45
0.0
1001
ACAD
1000
AcDbSavedByObjectVersion
1070
     0
  0
VISUALSTYLE
  5
37
102
{ACAD_REACTORS
330
2A
102
}
102
{ACAD_XDICTIONARY
360
1A3
102
}
330
2A
100
AcDbVisualStyle
  2
Thicken
 70
    13
 71
     2
 72
     2
 73
     0
 90
        0
 40
-0.6
 41
-30.0
 62
     5
 63
     7
 74
     1
 91
        4
 64
     7
 65
   257
 75
     1
175
     1
 42
1.0
 92
       12
 66
     7
 43
1.0
 76
     1
 77
     6
 78
     2
 67
     7
 79
     5
170
     0
171
     0
290
     0
174
     0
 93
        1
 44
0.0
173
     0
291
     1
 45
0.0
1001
ACAD
1000
AcDbSavedByObjectVersion
1070
     0
  0
DICTIONARYVAR
  5
189
102
{ACAD_REACTORS
330
184
102
}
330
184
100
DictionaryVariables
280
     0
  1
2
  0
DICTIONARYVAR
  5
18A
102
{ACAD_REACTORS
330
184
102
}
330
184
100
DictionaryVariables
280
     0
  1
1
  0
DICTIONARYVAR
  5
188
102
{ACAD_REACTORS
330
184
102
}
330
184
100
DictionaryVariables
280
     0
  1
80.000000
  0
DICTIONARYVAR
  5
187
102
{ACAD_REACTORS
330
184
102
}
330
184
100
DictionaryVariables
280
     0
  1
5.000000
  0
DICTIONARY
  5
1AD
330
3D
100
AcDbDictionary
280
     1
281
     1
  3
ACAD_XREC_ROUNDTRIP
360
1AE
  0
DICTIONARY
  5
1AB
330
3C
100
AcDbDictionary
280
     1
281
     1
  3
ACAD_XREC_ROUNDTRIP
360
1AC
  0
DICTIONARY
  5
1AF
330
3E
100
AcDbDictionary
280
     1
281
     1
  3
ACAD_XREC_ROUNDTRIP
360
1B0
  0
DICTIONARY
  5
193
330
2F
100
AcDbDictionary
280
     1
281
     1
  3
ACAD_XREC_ROUNDTRIP
360
194
  0
DICTIONARY
  5
197
330
31
100
AcDbDictionary
280
     1
281
     1
  3
ACAD_XREC_ROUNDTRIP
360
198
  0
DICTIONARY
  5
195
330
30
100
AcDbDictionary
280
     1
281
     1
  3
ACAD_XREC_ROUNDTRIP
360
196
  0
DICTIONARY
  5
199
330
32
100
AcDbDictionary
280
     1
281
     1
  3
ACAD_XREC_ROUNDTRIP
360
19A
  0
DICTIONARY
  5
1A1
330
36
100
AcDbDictionary
280
     1
281
     1
  3
ACAD_XREC_ROUNDTRIP
360
1A2
  0
DICTIONARY
  5
1A9
330
3A
100
AcDbDictionary
280
     1
281
     1
  3
ACAD_XREC_ROUNDTRIP
360
1AA
  0
DICTIONARY
  5
19D
330
34
100
AcDbDictionary
280
     1
281
     1
  3
ACAD_XREC_ROUNDTRIP
360
19E
  0
DICTIONARY
  5
19F
330
35
100
AcDbDictionary
280
     1
281
     1
  3
ACAD_XREC_ROUNDTRIP
360
1A0
  0
DICTIONARY
  5
1A7
330
39
100
AcDbDictionary
280
     1
281
     1
  3
ACAD_XREC_ROUNDTRIP
360
1A8
  0
DICTIONARY
  5
18B
330
2B
100
AcDbDictionary
280
     1
281
     1
  3
ACAD_XREC_ROUNDTRIP
360
18C
  0
DICTIONARY
  5
18D
330
2C
100
AcDbDictionary
280
     1
281
     1
  3
ACAD_XREC_ROUNDTRIP
360
18E
  0
DICTIONARY
  5
18F
330
2D
100
AcDbDictionary
280
     1
281
     1
  3
ACAD_XREC_ROUNDTRIP
360
190
  0
DICTIONARY
  5
191
330
2E
100
AcDbDictionary
280
     1
281
     1
  3
ACAD_XREC_ROUNDTRIP
360
192
  0
DICTIONARY
  5
1A5
330
38
100
AcDbDictionary
280
     1
281
     1
  3
ACAD_XREC_ROUNDTRIP
360
1A6
  0
DICTIONARY
  5
19B
330
33
100
AcDbDictionary
280
     1
281
     1
  3
ACAD_XREC_ROUNDTRIP
360
19C
  0
DICTIONARY
  5
1A3
330
37
100
AcDbDictionary
280
     1
281
     1
  3
ACAD_XREC_ROUNDTRIP
360
1A4
  0
XRECORD
  5
1AE
102
{ACAD_REACTORS
330
1AD
102
}
330
1AD
100
AcDbXrecord
280
     1
102
MATERIAL
148
0.0
149
0.0
149
0.0
 93
        0
 94
      127
282
     0
 72
     1
 77
     1
171
     1
175
     1
179
     1
273
     0
  0
XRECORD
  5
1AC
102
{ACAD_REACTORS
330
1AB
102
}
330
1AB
100
AcDbXrecord
280
     1
102
MATERIAL
148
0.0
149
0.0
149
0.0
 93
        0
 94
      127
282
     0
 72
     1
 77
     1
171
     1
175
     1
179
     1
273
     0
  0
XRECORD
  5
1B0
102
{ACAD_REACTORS
330
1AF
102
}
330
1AF
100
AcDbXrecord
280
     1
102
MATERIAL
148
0.0
149
0.0
149
0.0
 93
        0
 94
      127
282
     0
 72
     1
 77
     1
171
     1
175
     1
179
     1
273
     0
  0
XRECORD
  5
194
102
{ACAD_REACTORS
330
193
102
}
330
193
100
AcDbXrecord
280
     1
102
RTVSPropertyOp0
 70
     1
102
RTVSPropertyOp1
 70
     1
102
RTVSPropertyOp2
 70
     1
102
RTVSPropertyOp3
 70
     1
102
RTVSPropertyOp4
 70
     1
102
RTVSPropertyOp5
 70
     1
102
RTVSPropertyOp6
 70
     1
102
RTVSPropertyOp7
 70
     1
102
RTVSPropertyOp8
 70
     1
102
RTVSPropertyOp9
 70
     1
102
RTVSPropertyOp10
 70
     1
102
RTVSPropertyOp11
 70
     1
102
RTVSPropertyOp12
 70
     1
102
RTVSPropertyOp13
 70
     1
102
RTVSPropertyOp14
 70
     1
102
RTVSPropertyOp15
 70
     1
102
RTVSPropertyOp16
 70
     1
102
RTVSPropertyOp17
 70
     1
102
RTVSPropertyOp18
 70
     1
102
RTVSPropertyOp19
 70
     1
102
RTVSPropertyOp20
 70
     1
102
RTVSPropertyOp21
 70
     1
102
RTVSPropertyOp22
 70
     1
102
RTVSPropertyOp23
 70
     1
102
RTVSPropertyOp24
 70
     1
102
RTVSPropertyOp25
 70
     1
102
RTVSPropertyOp26
 70
     1
102
RTVSPropertyOp27
 70
     1
102
RTVSPropertyOp28
 70
     1
102
RTVSPropertyOp29
 70
     1
102
RTVSPropertyOp30
 70
     1
102
RTVSPropertyOp31
 70
     1
102
RTVSPropertyOp32
 70
     1
  0
XRECORD
  5
198
102
{ACAD_REACTORS
330
197
102
}
330
197
100
AcDbXrecord
280
     1
102
RTVSPropertyOp0
 70
     1
102
RTVSPropertyOp1
 70
     1
102
RTVSPropertyOp2
 70
     1
102
RTVSPropertyOp3
 70
     1
102
RTVSPropertyOp4
 70
     1
102
RTVSPropertyOp5
 70
     1
102
RTVSPropertyOp6
 70
     1
102
RTVSPropertyOp7
 70
     1
102
RTVSPropertyOp8
 70
     1
102
RTVSPropertyOp9
 70
     1
102
RTVSPropertyOp10
 70
     1
102
RTVSPropertyOp11
 70
     1
102
RTVSPropertyOp12
 70
     1
102
RTVSPropertyOp13
 70
     1
102
RTVSPropertyOp14
 70
     1
102
RTVSPropertyOp15
 70
     1
102
RTVSPropertyOp16
 70
     1
102
RTVSPropertyOp17
 70
     1
102
RTVSPropertyOp18
 70
     1
102
RTVSPropertyOp19
 70
     1
102
RTVSPropertyOp20
 70
     1
102
RTVSPropertyOp21
 70
     1
102
RTVSPropertyOp22
 70
     1
102
RTVSPropertyOp23
 70
     1
102
RTVSPropertyOp24
 70
     1
102
RTVSPropertyOp25
 70
     1
102
RTVSPropertyOp26
 70
     1
102
RTVSPropertyOp27
 70
     1
102
RTVSPropertyOp28
 70
     1
102
RTVSPropertyOp29
 70
     1
102
RTVSPropertyOp30
 70
     1
102
RTVSPropertyOp31
 70
     1
102
RTVSPropertyOp32
 70
     1
  0
XRECORD
  5
196
102
{ACAD_REACTORS
330
195
102
}
330
195
100
AcDbXrecord
280
     1
102
RTVSPropertyOp0
 70
     1
102
RTVSPropertyOp1
 70
     1
102
RTVSPropertyOp2
 70
     1
102
RTVSPropertyOp3
 70
     1
102
RTVSPropertyOp4
 70
     1
102
RTVSPropertyOp5
 70
     1
102
RTVSPropertyOp6
 70
     1
102
RTVSPropertyOp7
 70
     1
102
RTVSPropertyOp8
 70
     1
102
RTVSPropertyOp9
 70
     1
102
RTVSPropertyOp10
 70
     1
102
RTVSPropertyOp11
 70
     1
102
RTVSPropertyOp12
 70
     1
102
RTVSPropertyOp13
 70
     1
102
RTVSPropertyOp14
 70
     1
102
RTVSPropertyOp15
 70
     1
102
RTVSPropertyOp16
 70
     1
102
RTVSPropertyOp17
 70
     1
102
RTVSPropertyOp18
 70
     1
102
RTVSPropertyOp19
 70
     1
102
RTVSPropertyOp20
 70
     1
102
RTVSPropertyOp21
 70
     1
102
RTVSPropertyOp22
 70
     1
102
RTVSPropertyOp23
 70
     1
102
RTVSPropertyOp24
 70
     1
102
RTVSPropertyOp25
 70
     1
102
RTVSPropertyOp26
 70
     1
102
RTVSPropertyOp27
 70
     1
102
RTVSPropertyOp28
 70
     1
102
RTVSPropertyOp29
 70
     1
102
RTVSPropertyOp30
 70
     1
102
RTVSPropertyOp31
 70
     1
102
RTVSPropertyOp32
 70
     1
  0
XRECORD
  5
19A
102
{ACAD_REACTORS
330
199
102
}
330
199
100
AcDbXrecord
280
     1
102
RTVSPropertyOp0
 70
     1
102
RTVSPropertyOp1
 70
     1
102
RTVSPropertyOp2
 70
     1
102
RTVSPropertyOp3
 70
     1
102
RTVSPropertyOp4
 70
     1
102
RTVSPropertyOp5
 70
     1
102
RTVSPropertyOp6
 70
     1
102
RTVSPropertyOp7
 70
     1
102
RTVSPropertyOp8
 70
     1
102
RTVSPropertyOp9
 70
     1
102
RTVSPropertyOp10
 70
     1
102
RTVSPropertyOp11
 70
     1
102
RTVSPropertyOp12
 70
     1
102
RTVSPropertyOp13
 70
     1
102
RTVSPropertyOp14
 70
     1
102
RTVSPropertyOp15
 70
     1
102
RTVSPropertyOp16
 70
     1
102
RTVSPropertyOp17
 70
     1
102
RTVSPropertyOp18
 70
     1
102
RTVSPropertyOp19
 70
     1
102
RTVSPropertyOp20
 70
     1
102
RTVSPropertyOp21
 70
     1
102
RTVSPropertyOp22
 70
     1
102
RTVSPropertyOp23
 70
     1
102
RTVSPropertyOp24
 70
     1
102
RTVSPropertyOp25
 70
     1
102
RTVSPropertyOp26
 70
     1
102
RTVSPropertyOp27
 70
     1
102
RTVSPropertyOp28
 70
     1
102
RTVSPropertyOp29
 70
     1
102
RTVSPropertyOp30
 70
     1
102
RTVSPropertyOp31
 70
     1
102
RTVSPropertyOp32
 70
     1
  0
XRECORD
  5
1A2
102
{ACAD_REACTORS
330
1A1
102
}
330
1A1
100
AcDbXrecord
280
     1
102
RTVSPropertyOp0
 70
     1
102
RTVSPropertyOp1
 70
     1
102
RTVSPropertyOp2
 70
     1
102
RTVSPropertyOp3
 70
     1
102
RTVSPropertyOp4
 70
     1
102
RTVSPropertyOp5
 70
     1
102
RTVSPropertyOp6
 70
     1
102
RTVSPropertyOp7
 70
     1
102
RTVSPropertyOp8
 70
     1
102
RTVSPropertyOp9
 70
     1
102
RTVSPropertyOp10
 70
     1
102
RTVSPropertyOp11
 70
     1
102
RTVSPropertyOp12
 70
     1
102
RTVSPropertyOp13
 70
     1
102
RTVSPropertyOp14
 70
     1
102
RTVSPropertyOp15
 70
     1
102
RTVSPropertyOp16
 70
     1
102
RTVSPropertyOp17
 70
     1
102
RTVSPropertyOp18
 70
     1
102
RTVSPropertyOp19
 70
     1
102
RTVSPropertyOp20
 70
     1
102
RTVSPropertyOp21
 70
     1
102
RTVSPropertyOp22
 70
     1
102
RTVSPropertyOp23
 70
     1
102
RTVSPropertyOp24
 70
     1
102
RTVSPropertyOp25
 70
     1
102
RTVSPropertyOp26
 70
     1
102
RTVSPropertyOp27
 70
     1
102
RTVSPropertyOp28
 70
     1
102
RTVSPropertyOp29
 70
     1
102
RTVSPropertyOp30
 70
     1
102
RTVSPropertyOp31
 70
     1
102
RTVSPropertyOp32
 70
     1
  0
XRECORD
  5
1AA
102
{ACAD_REACTORS
330
1A9
102
}
330
1A9
100
AcDbXrecord
280
     1
102
RTVSPropertyOp0
 70
     1
102
RTVSPropertyOp1
 70
     1
102
RTVSPropertyOp2
 70
     1
102
RTVSPropertyOp3
 70
     1
102
RTVSPropertyOp4
 70
     1
102
RTVSPropertyOp5
 70
     1
102
RTVSPropertyOp6
 70
     1
102
RTVSPropertyOp7
 70
     1
102
RTVSPropertyOp8
 70
     1
102
RTVSPropertyOp9
 70
     1
102
RTVSPropertyOp10
 70
     1
102
RTVSPropertyOp11
 70
     1
102
RTVSPropertyOp12
 70
     1
102
RTVSPropertyOp13
 70
     1
102
RTVSPropertyOp14
 70
     1
102
RTVSPropertyOp15
 70
     1
102
RTVSPropertyOp16
 70
     1
102
RTVSPropertyOp17
 70
     1
102
RTVSPropertyOp18
 70
     1
102
RTVSPropertyOp19
 70
     1
102
RTVSPropertyOp20
 70
     1
102
RTVSPropertyOp21
 70
     1
102
RTVSPropertyOp22
 70
     1
102
RTVSPropertyOp23
 70
     1
102
RTVSPropertyOp24
 70
     1
102
RTVSPropertyOp25
 70
     1
102
RTVSPropertyOp26
 70
     1
102
RTVSPropertyOp27
 70
     1
102
RTVSPropertyOp28
 70
     1
102
RTVSPropertyOp29
 70
     1
102
RTVSPropertyOp30
 70
     1
102
RTVSPropertyOp31
 70
     1
102
RTVSPropertyOp32
 70
     1
  0
XRECORD
  5
19E
102
{ACAD_REACTORS
330
19D
102
}
330
19D
100
AcDbXrecord
280
     1
102
RTVSPropertyOp0
 70
     1
102
RTVSPropertyOp1
 70
     1
102
RTVSPropertyOp2
 70
     1
102
RTVSPropertyOp3
 70
     1
102
RTVSPropertyOp4
 70
     1
102
RTVSPropertyOp5
 70
     1
102
RTVSPropertyOp6
 70
     1
102
RTVSPropertyOp7
 70
     1
102
RTVSPropertyOp8
 70
     1
102
RTVSPropertyOp9
 70
     1
102
RTVSPropertyOp10
 70
     1
102
RTVSPropertyOp11
 70
     1
102
RTVSPropertyOp12
 70
     1
102
RTVSPropertyOp13
 70
     1
102
RTVSPropertyOp14
 70
     1
102
RTVSPropertyOp15
 70
     1
102
RTVSPropertyOp16
 70
     1
102
RTVSPropertyOp17
 70
     1
102
RTVSPropertyOp18
 70
     1
102
RTVSPropertyOp19
 70
     1
102
RTVSPropertyOp20
 70
     1
102
RTVSPropertyOp21
 70
     1
102
RTVSPropertyOp22
 70
     1
102
RTVSPropertyOp23
 70
     1
102
RTVSPropertyOp24
 70
     1
102
RTVSPropertyOp25
 70
     1
102
RTVSPropertyOp26
 70
     1
102
RTVSPropertyOp27
 70
     1
102
RTVSPropertyOp28
 70
     1
102
RTVSPropertyOp29
 70
     1
102
RTVSPropertyOp30
 70
     1
102
RTVSPropertyOp31
 70
     1
102
RTVSPropertyOp32
 70
     1
  0
XRECORD
  5
1A0
102
{ACAD_REACTORS
330
19F
102
}
330
19F
100
AcDbXrecord
280
     1
102
RTVSPropertyOp0
 70
     1
102
RTVSPropertyOp1
 70
     1
102
RTVSPropertyOp2
 70
     1
102
RTVSPropertyOp3
 70
     1
102
RTVSPropertyOp4
 70
     1
102
RTVSPropertyOp5
 70
     1
102
RTVSPropertyOp6
 70
     1
102
RTVSPropertyOp7
 70
     1
102
RTVSPropertyOp8
 70
     1
102
RTVSPropertyOp9
 70
     1
102
RTVSPropertyOp10
 70
     1
102
RTVSPropertyOp11
 70
     1
102
RTVSPropertyOp12
 70
     1
102
RTVSPropertyOp13
 70
     1
102
RTVSPropertyOp14
 70
     1
102
RTVSPropertyOp15
 70
     1
102
RTVSPropertyOp16
 70
     1
102
RTVSPropertyOp17
 70
     1
102
RTVSPropertyOp18
 70
     1
102
RTVSPropertyOp19
 70
     1
102
RTVSPropertyOp20
 70
     1
102
RTVSPropertyOp21
 70
     1
102
RTVSPropertyOp22
 70
     1
102
RTVSPropertyOp23
 70
     1
102
RTVSPropertyOp24
 70
     1
102
RTVSPropertyOp25
 70
     1
102
RTVSPropertyOp26
 70
     1
102
RTVSPropertyOp27
 70
     1
102
RTVSPropertyOp28
 70
     1
102
RTVSPropertyOp29
 70
     1
102
RTVSPropertyOp30
 70
     1
102
RTVSPropertyOp31
 70
     1
102
RTVSPropertyOp32
 70
     1
  0
XRECORD
  5
1A8
102
{ACAD_REACTORS
330
1A7
102
}
330
1A7
100
AcDbXrecord
280
     1
102
RTVSPropertyOp0
 70
     1
102
RTVSPropertyOp1
 70
     1
102
RTVSPropertyOp2
 70
     1
102
RTVSPropertyOp3
 70
     1
102
RTVSPropertyOp4
 70
     1
102
RTVSPropertyOp5
 70
     1
102
RTVSPropertyOp6
 70
     1
102
RTVSPropertyOp7
 70
     1
102
RTVSPropertyOp8
 70
     1
102
RTVSPropertyOp9
 70
     1
102
RTVSPropertyOp10
 70
     1
102
RTVSPropertyOp11
 70
     1
102
RTVSPropertyOp12
 70
     1
102
RTVSPropertyOp13
 70
     1
102
RTVSPropertyOp14
 70
     1
102
RTVSPropertyOp15
 70
     1
102
RTVSPropertyOp16
 70
     1
102
RTVSPropertyOp17
 70
     1
102
RTVSPropertyOp18
 70
     1
102
RTVSPropertyOp19
 70
     1
102
RTVSPropertyOp20
 70
     1
102
RTVSPropertyOp21
 70
     1
102
RTVSPropertyOp22
 70
     1
102
RTVSPropertyOp23
 70
     1
102
RTVSPropertyOp24
 70
     1
102
RTVSPropertyOp25
 70
     1
102
RTVSPropertyOp26
 70
     1
102
RTVSPropertyOp27
 70
     1
102
RTVSPropertyOp28
 70
     1
102
RTVSPropertyOp29
 70
     1
102
RTVSPropertyOp30
 70
     1
102
RTVSPropertyOp31
 70
     1
102
RTVSPropertyOp32
 70
     1
  0
XRECORD
  5
18C
102
{ACAD_REACTORS
330
18B
102
}
330
18B
100
AcDbXrecord
280
     1
102
RTVSPropertyOp0
 70
     1
102
RTVSPropertyOp1
 70
     1
102
RTVSPropertyOp2
 70
     1
102
RTVSPropertyOp3
 70
     1
102
RTVSPropertyOp4
 70
     1
102
RTVSPropertyOp5
 70
     1
102
RTVSPropertyOp6
 70
     1
102
RTVSPropertyOp7
 70
     1
102
RTVSPropertyOp8
 70
     1
102
RTVSPropertyOp9
 70
     1
102
RTVSPropertyOp10
 70
     1
102
RTVSPropertyOp11
 70
     1
102
RTVSPropertyOp12
 70
     1
102
RTVSPropertyOp13
 70
     1
102
RTVSPropertyOp14
 70
     1
102
RTVSPropertyOp15
 70
     1
102
RTVSPropertyOp16
 70
     1
102
RTVSPropertyOp17
 70
     1
102
RTVSPropertyOp18
 70
     1
102
RTVSPropertyOp19
 70
     1
102
RTVSPropertyOp20
 70
     1
102
RTVSPropertyOp21
 70
     1
102
RTVSPropertyOp22
 70
     1
102
RTVSPropertyOp23
 70
     1
102
RTVSPropertyOp24
 70
     1
102
RTVSPropertyOp25
 70
     1
102
RTVSPropertyOp26
 70
     1
102
RTVSPropertyOp27
 70
     1
102
RTVSPropertyOp28
 70
     1
102
RTVSPropertyOp29
 70
     1
102
RTVSPropertyOp30
 70
     1
102
RTVSPropertyOp31
 70
     1
102
RTVSPropertyOp32
 70
     1
  0
XRECORD
  5
18E
102
{ACAD_REACTORS
330
18D
102
}
330
18D
100
AcDbXrecord
280
     1
102
RTVSPropertyOp0
 70
     1
102
RTVSPropertyOp1
 70
     1
102
RTVSPropertyOp2
 70
     1
102
RTVSPropertyOp3
 70
     1
102
RTVSPropertyOp4
 70
     1
102
RTVSPropertyOp5
 70
     1
102
RTVSPropertyOp6
 70
     1
102
RTVSPropertyOp7
 70
     1
102
RTVSPropertyOp8
 70
     1
102
RTVSPropertyOp9
 70
     1
102
RTVSPropertyOp10
 70
     1
102
RTVSPropertyOp11
 70
     1
102
RTVSPropertyOp12
 70
     1
102
RTVSPropertyOp13
 70
     1
102
RTVSPropertyOp14
 70
     1
102
RTVSPropertyOp15
 70
     1
102
RTVSPropertyOp16
 70
     1
102
RTVSPropertyOp17
 70
     1
102
RTVSPropertyOp18
 70
     1
102
RTVSPropertyOp19
 70
     1
102
RTVSPropertyOp20
 70
     1
102
RTVSPropertyOp21
 70
     1
102
RTVSPropertyOp22
 70
     1
102
RTVSPropertyOp23
 70
     1
102
RTVSPropertyOp24
 70
     1
102
RTVSPropertyOp25
 70
     1
102
RTVSPropertyOp26
 70
     1
102
RTVSPropertyOp27
 70
     1
102
RTVSPropertyOp28
 70
     1
102
RTVSPropertyOp29
 70
     1
102
RTVSPropertyOp30
 70
     1
102
RTVSPropertyOp31
 70
     1
102
RTVSPropertyOp32
 70
     1
  0
XRECORD
  5
190
102
{ACAD_REACTORS
330
18F
102
}
330
18F
100
AcDbXrecord
280
     1
102
RTVSPropertyOp0
 70
     1
102
RTVSPropertyOp1
 70
     1
102
RTVSPropertyOp2
 70
     1
102
RTVSPropertyOp3
 70
     1
102
RTVSPropertyOp4
 70
     1
102
RTVSPropertyOp5
 70
     1
102
RTVSPropertyOp6
 70
     1
102
RTVSPropertyOp7
 70
     1
102
RTVSPropertyOp8
 70
     1
102
RTVSPropertyOp9
 70
     1
102
RTVSPropertyOp10
 70
     1
102
RTVSPropertyOp11
 70
     1
102
RTVSPropertyOp12
 70
     1
102
RTVSPropertyOp13
 70
     1
102
RTVSPropertyOp14
 70
     1
102
RTVSPropertyOp15
 70
     1
102
RTVSPropertyOp16
 70
     1
102
RTVSPropertyOp17
 70
     1
102
RTVSPropertyOp18
 70
     1
102
RTVSPropertyOp19
 70
     1
102
RTVSPropertyOp20
 70
     1
102
RTVSPropertyOp21
 70
     1
102
RTVSPropertyOp22
 70
     1
102
RTVSPropertyOp23
 70
     1
102
RTVSPropertyOp24
 70
     1
102
RTVSPropertyOp25
 70
     1
102
RTVSPropertyOp26
 70
     1
102
RTVSPropertyOp27
 70
     1
102
RTVSPropertyOp28
 70
     1
102
RTVSPropertyOp29
 70
     1
102
RTVSPropertyOp30
 70
     1
102
RTVSPropertyOp31
 70
     1
102
RTVSPropertyOp32
 70
     1
  0
XRECORD
  5
192
102
{ACAD_REACTORS
330
191
102
}
330
191
100
AcDbXrecord
280
     1
102
RTVSPropertyOp0
 70
     1
102
RTVSPropertyOp1
 70
     1
102
RTVSPropertyOp2
 70
     1
102
RTVSPropertyOp3
 70
     1
102
RTVSPropertyOp4
 70
     1
102
RTVSPropertyOp5
 70
     1
102
RTVSPropertyOp6
 70
     1
102
RTVSPropertyOp7
 70
     1
102
RTVSPropertyOp8
 70
     1
102
RTVSPropertyOp9
 70
     1
102
RTVSPropertyOp10
 70
     1
102
RTVSPropertyOp11
 70
     1
102
RTVSPropertyOp12
 70
     1
102
RTVSPropertyOp13
 70
     1
102
RTVSPropertyOp14
 70
     1
102
RTVSPropertyOp15
 70
     1
102
RTVSPropertyOp16
 70
     1
102
RTVSPropertyOp17
 70
     1
102
RTVSPropertyOp18
 70
     1
102
RTVSPropertyOp19
 70
     1
102
RTVSPropertyOp20
 70
     1
102
RTVSPropertyOp21
 70
     1
102
RTVSPropertyOp22
 70
     1
102
RTVSPropertyOp23
 70
     1
102
RTVSPropertyOp24
 70
     1
102
RTVSPropertyOp25
 70
     1
102
RTVSPropertyOp26
 70
     1
102
RTVSPropertyOp27
 70
     1
102
RTVSPropertyOp28
 70
     1
102
RTVSPropertyOp29
 70
     1
102
RTVSPropertyOp30
 70
     1
102
RTVSPropertyOp31
 70
     1
102
RTVSPropertyOp32
 70
     1
  0
XRECORD
  5
1A6
102
{ACAD_REACTORS
330
1A5
102
}
330
1A5
100
AcDbXrecord
280
     1
102
RTVSPropertyOp0
 70
     1
102
RTVSPropertyOp1
 70
     1
102
RTVSPropertyOp2
 70
     1
102
RTVSPropertyOp3
 70
     1
102
RTVSPropertyOp4
 70
     1
102
RTVSPropertyOp5
 70
     1
102
RTVSPropertyOp6
 70
     1
102
RTVSPropertyOp7
 70
     1
102
RTVSPropertyOp8
 70
     1
102
RTVSPropertyOp9
 70
     1
102
RTVSPropertyOp10
 70
     1
102
RTVSPropertyOp11
 70
     1
102
RTVSPropertyOp12
 70
     1
102
RTVSPropertyOp13
 70
     1
102
RTVSPropertyOp14
 70
     1
102
RTVSPropertyOp15
 70
     1
102
RTVSPropertyOp16
 70
     1
102
RTVSPropertyOp17
 70
     1
102
RTVSPropertyOp18
 70
     1
102
RTVSPropertyOp19
 70
     1
102
RTVSPropertyOp20
 70
     1
102
RTVSPropertyOp21
 70
     1
102
RTVSPropertyOp22
 70
     1
102
RTVSPropertyOp23
 70
     1
102
RTVSPropertyOp24
 70
     1
102
RTVSPropertyOp25
 70
     1
102
RTVSPropertyOp26
 70
     1
102
RTVSPropertyOp27
 70
     1
102
RTVSPropertyOp28
 70
     1
102
RTVSPropertyOp29
 70
     1
102
RTVSPropertyOp30
 70
     1
102
RTVSPropertyOp31
 70
     1
102
RTVSPropertyOp32
 70
     1
  0
XRECORD
  5
19C
102
{ACAD_REACTORS
330
19B
102
}
330
19B
100
AcDbXrecord
280
     1
102
RTVSPropertyOp0
 70
     1
102
RTVSPropertyOp1
 70
     1
102
RTVSPropertyOp2
 70
     1
102
RTVSPropertyOp3
 70
     1
102
RTVSPropertyOp4
 70
     1
102
RTVSPropertyOp5
 70
     1
102
RTVSPropertyOp6
 70
     1
102
RTVSPropertyOp7
 70
     1
102
RTVSPropertyOp8
 70
     1
102
RTVSPropertyOp9
 70
     1
102
RTVSPropertyOp10
 70
     1
102
RTVSPropertyOp11
 70
     1
102
RTVSPropertyOp12
 70
     1
102
RTVSPropertyOp13
 70
     1
102
RTVSPropertyOp14
 70
     1
102
RTVSPropertyOp15
 70
     1
102
RTVSPropertyOp16
 70
     1
102
RTVSPropertyOp17
 70
     1
102
RTVSPropertyOp18
 70
     1
102
RTVSPropertyOp19
 70
     1
102
RTVSPropertyOp20
 70
     1
102
RTVSPropertyOp21
 70
     1
102
RTVSPropertyOp22
 70
     1
102
RTVSPropertyOp23
 70
     1
102
RTVSPropertyOp24
 70
     1
102
RTVSPropertyOp25
 70
     1
102
RTVSPropertyOp26
 70
     1
102
RTVSPropertyOp27
 70
     1
102
RTVSPropertyOp28
 70
     1
102
RTVSPropertyOp29
 70
     1
102
RTVSPropertyOp30
 70
     1
102
RTVSPropertyOp31
 70
     1
102
RTVSPropertyOp32
 70
     1
  0
XRECORD
  5
1A4
102
{ACAD_REACTORS
330
1A3
102
}
330
1A3
100
AcDbXrecord
280
     1
102
RTVSPropertyOp0
 70
     1
102
RTVSPropertyOp1
 70
     1
102
RTVSPropertyOp2
 70
     1
102
RTVSPropertyOp3
 70
     1
102
RTVSPropertyOp4
 70
     1
102
RTVSPropertyOp5
 70
     1
102
RTVSPropertyOp6
 70
     1
102
RTVSPropertyOp7
 70
     1
102
RTVSPropertyOp8
 70
     1
102
RTVSPropertyOp9
 70
     1
102
RTVSPropertyOp10
 70
     1
102
RTVSPropertyOp11
 70
     1
102
RTVSPropertyOp12
 70
     1
102
RTVSPropertyOp13
 70
     1
102
RTVSPropertyOp14
 70
     1
102
RTVSPropertyOp15
 70
     1
102
RTVSPropertyOp16
 70
     1
102
RTVSPropertyOp17
 70
     1
102
RTVSPropertyOp18
 70
     1
102
RTVSPropertyOp19
 70
     1
102
RTVSPropertyOp20
 70
     1
102
RTVSPropertyOp21
 70
     1
102
RTVSPropertyOp22
 70
     1
102
RTVSPropertyOp23
 70
     1
102
RTVSPropertyOp24
 70
     1
102
RTVSPropertyOp25
 70
     1
102
RTVSPropertyOp26
 70
     1
102
RTVSPropertyOp27
 70
     1
102
RTVSPropertyOp28
 70
     1
102
RTVSPropertyOp29
 70
     1
102
RTVSPropertyOp30
 70
     1
102
RTVSPropertyOp31
 70
     1
102
RTVSPropertyOp32
 70
     1
  0
ENDSEC
  0
EOF
