  0
SECTION
  2
HEADER
  9
$ACADVER
  1
AC1015
  9
$ACADMAINTVER
 70
     6
  9
$DWGCODEPAGE
  3
ANSI_1252
  9
$INSBASE
 10
0.0
 20
0.0
 30
0.0
  9
$EXTMIN
 10
0.0
 20
0.0
 30
0.0
  9
$EXTMAX
 10
210.0
 20
297.0
 30
0.0
  9
$LIMMIN
 10
0.0
 20
0.0
  9
$LIMMAX
 10
210.0
 20
297.0
  9
$ORTHOMODE
 70
     0
  9
$REGENMODE
 70
     1
  9
$FILLMODE
 70
     1
  9
$QTEXTMODE
 70
     0
  9
$MIRRTEXT
 70
     1
  9
$LTSCALE
 40
1.0
  9
$ATTMODE
 70
     1
  9
$TEXTSIZE
 40
2.5
  9
$TRACEWID
 40
1.0
  9
$TEXTSTYLE
  7
Standard
  9
$CLAYER
  8
0
  9
$CELTYPE
  6
ByLayer
  9
$CECOLOR
 62
   256
  9
$CELTSCALE
 40
1.0
  9
$DISPSILH
 70
     0
  9
$DIMSCALE
 40
1.0
  9
$DIMASZ
 40
2.5
  9
$DIMEXO
 40
0.625
  9
$DIMDLI
 40
3.75
  9
$DIMRND
 40
0.0
  9
$DIMDLE
 40
0.0
  9
$DIMEXE
 40
1.25
  9
$DIMTP
 40
0.0
  9
$DIMTM
 40
0.0
  9
$DIMTXT
 40
2.5
  9
$DIMCEN
 40
2.5
  9
$DIMTSZ
 40
0.0
  9
$DIMTOL
 70
     0
  9
$DIMLIM
 70
     0
  9
$DIMTIH
 70
     0
  9
$DIMTOH
 70
     0
  9
$DIMSE1
 70
     0
  9
$DIMSE2
 70
     0
  9
$DIMTAD
 70
     1
  9
$DIMZIN
 70
     8
  9
$DIMBLK
  1

  9
$DIMASO
 70
     1
  9
$DIMSHO
 70
     1
  9
$DIMPOST
  1

  9
$DIMAPOST
  1

  9
$DIMALT
 70
     0
  9
$DIMALTD
 70
     3
  9
$DIMALTF
 40
0.0393700787
  9
$DIMLFAC
 40
1.0
  9
$DIMTOFL
 70
     1
  9
$DIMTVP
 40
0.0
  9
$DIMTIX
 70
     0
  9
$DIMSOXD
 70
     0
  9
$DIMSAH
 70
     0
  9
$DIMBLK1
  1

  9
$DIMBLK2
  1

  9
$DIMSTYLE
  2
ISO-25
  9
$DIMCLRD
 70
     0
  9
$DIMCLRE
 70
     0
  9
$DIMCLRT
 70
     0
  9
$DIMTFAC
 40
1.0
  9
$DIMGAP
 40
0.625
  9
$DIMJUST
 70
     0
  9
$DIMSD1
 70
     0
  9
$DIMSD2
 70
     0
  9
$DIMTOLJ
 70
     0
  9
$DIMTZIN
 70
     8
  9
$DIMALTZ
 70
     0
  9
$DIMALTTZ
 70
     0
  9
$DIMUPT
 70
     0
  9
$DIMDEC
 70
     2
  9
$DIMTDEC
 70
     2
  9
$DIMALTU
 70
     2
  9
$DIMALTTD
 70
     3
  9
$DIMTXSTY
  7
Standard
  9
$DIMAUNIT
 70
     0
  9
$DIMADEC
 70
     0
  9
$DIMALTRND
 40
0.0
  9
$DIMAZIN
 70
     0
  9
$DIMDSEP
 70
    44
  9
$DIMATFIT
 70
     3
  9
$DIMFRAC
 70
     0
  9
$DIMLDRBLK
  1

  9
$DIMLUNIT
 70
     2
  9
$DIMLWD
 70
    -2
  9
$DIMLWE
 70
    -2
  9
$DIMTMOVE
 70
     0
  9
$LUNITS
 70
     2
  9
$LUPREC
 70
     4
  9
$SKETCHINC
 40
1.0
  9
$FILLETRAD
 40
10.0
  9
$AUNITS
 70
     0
  9
$AUPREC
 70
     0
  9
$MENU
  1
.
  9
$ELEVATION
 40
0.0
  9
$PELEVATION
 40
0.0
  9
$THICKNESS
 40
0.0
  9
$LIMCHECK
 70
     0
  9
$CHAMFERA
 40
10.0
  9
$CHAMFERB
 40
10.0
  9
$CHAMFERC
 40
20.0
  9
$CHAMFERD
 40
0.0
  9
$SKPOLY
 70
     0
  9
$TDCREATE
 40
2457567.342074711
  9
$TDUCREATE
 40
2457567.258741377
  9
$TDUPDATE
 40
2457567.342099988
  9
$TDUUPDATE
 40
2457567.258766655
  9
$TDINDWG
 40
0.0000000116
  9
$TDUSRTIMER
 40
0.0000000116
  9
$USRTIMER
 70
     1
  9
$ANGBASE
 50
0.0
  9
$ANGDIR
 70
     0
  9
$PDMODE
 70
     0
  9
$PDSIZE
 40
0.0
  9
$PLINEWID
 40
0.0
  9
$SPLFRAME
 70
     0
  9
$SPLINETYPE
 70
     6
  9
$SPLINESEGS
 70
     8
  9
$HANDSEED
  5
153
  9
$SURFTAB1
 70
     6
  9
$SURFTAB2
 70
     6
  9
$SURFTYPE
 70
     6
  9
$SURFU
 70
     6
  9
$SURFV
 70
     6
  9
$UCSBASE
  2

  9
$UCSNAME
  2

  9
$UCSORG
 10
0.0
 20
0.0
 30
0.0
  9
$UCSXDIR
 10
1.0
 20
0.0
 30
0.0
  9
$UCSYDIR
 10
0.0
 20
1.0
 30
0.0
  9
$UCSORTHOREF
  2

  9
$UCSORTHOVIEW
 70
     0
  9
$UCSORGTOP
 10
0.0
 20
0.0
 30
0.0
  9
$UCSORGBOTTOM
 10
0.0
 20
0.0
 30
0.0
  9
$UCSORGLEFT
 10
0.0
 20
0.0
 30
0.0
  9
$UCSORGRIGHT
 10
0.0
 20
0.0
 30
0.0
  9
$UCSORGFRONT
 10
0.0
 20
0.0
 30
0.0
  9
$UCSORGBACK
 10
0.0
 20
0.0
 30
0.0
  9
$PUCSBASE
  2

  9
$PUCSNAME
  2

  9
$PUCSORG
 10
0.0
 20
0.0
 30
0.0
  9
$PUCSXDIR
 10
1.0
 20
0.0
 30
0.0
  9
$PUCSYDIR
 10
0.0
 20
1.0
 30
0.0
  9
$PUCSORTHOREF
  2

  9
$PUCSORTHOVIEW
 70
     0
  9
$PUCSORGTOP
 10
0.0
 20
0.0
 30
0.0
  9
$PUCSORGBOTTOM
 10
0.0
 20
0.0
 30
0.0
  9
$PUCSORGLEFT
 10
0.0
 20
0.0
 30
0.0
  9
$PUCSORGRIGHT
 10
0.0
 20
0.0
 30
0.0
  9
$PUCSORGFRONT
 10
0.0
 20
0.0
 30
0.0
  9
$PUCSORGBACK
 10
0.0
 20
0.0
 30
0.0
  9
$USERI1
 70
     0
  9
$USERI2
 70
     0
  9
$USERI3
 70
     0
  9
$USERI4
 70
     0
  9
$USERI5
 70
     0
  9
$USERR1
 40
0.0
  9
$USERR2
 40
0.0
  9
$USERR3
 40
0.0
  9
$USERR4
 40
0.0
  9
$USERR5
 40
0.0
  9
$WORLDVIEW
 70
     1
  9
$SHADEDGE
 70
     3
  9
$SHADEDIF
 70
    70
  9
$TILEMODE
 70
     1
  9
$MAXACTVP
 70
    64
  9
$PINSBASE
 10
0.0
 20
0.0
 30
0.0
  9
$PLIMCHECK
 70
     0
  9
$PEXTMIN
 10
0.0
 20
0.0
 30
0.0
  9
$PEXTMAX
 10
210.0
 20
297.0
 30
0.0
  9
$PLIMMIN
 10
0.0
 20
0.0
  9
$PLIMMAX
 10
210.0
 20
297.0
  9
$UNITMODE
 70
     0
  9
$VISRETAIN
 70
     1
  9
$PLINEGEN
 70
     0
  9
$PSLTSCALE
 70
     1
  9
$TREEDEPTH
 70
  3020
  9
$CMLSTYLE
  2
Standard
  9
$CMLJUST
 70
     0
  9
$CMLSCALE
 40
20.0
  9
$PROXYGRAPHICS
 70
     1
  9
$MEASUREMENT
 70
     1
  9
$CELWEIGHT
370
    -1
  9
$ENDCAPS
280
     0
  9
$JOINSTYLE
280
     0
  9
$LWDISPLAY
290
     0
  9
$INSUNITS
 70
     4
  9
$HYPERLINKBASE
  1

  9
$STYLESHEET
  1

  9
$XEDIT
290
     1
  9
$CEPSNTYPE
380
     0
  9
$PSTYLEMODE
290
     1
  9
$FINGERPRINTGUID
  2
{8EEECCAF-7A36-42FE-BF89-2F2ED4D42BCE}
  9
$VERSIONGUID
  2
{FAEB1C32-E019-11D5-929B-00C0DF256EC4}
  9
$EXTNAMES
290
     1
  9
$PSVPSCALE
 40
0.0
  9
$OLESTARTUP
290
     0
  0
ENDSEC
  0
SECTION
  2
CLASSES
  0
CLASS
  1
ACDBDICTIONARYWDFLT
  2
AcDbDictionaryWithDefault
  3
ObjectDBX Classes
 90
        0
280
     0
281
     0
  0
CLASS
  1
VISUALSTYLE
  2
AcDbVisualStyle
  3
ObjectDBX Classes
 90
     4095
280
     0
281
     0
  0
CLASS
  1
MATERIAL
  2
AcDbMaterial
  3
ObjectDBX Classes
 90
     1153
280
     0
281
     0
  0
CLASS
  1
DICTIONARYVAR
  2
AcDbDictionaryVar
  3
ObjectDBX Classes
 90
        0
280
     0
281
     0
  0
CLASS
  1
ACDBPLACEHOLDER
  2
AcDbPlaceHolder
  3
ObjectDBX Classes
 90
        0
280
     0
281
     0
  0
CLASS
  1
LAYOUT
  2
AcDbLayout
  3
ObjectDBX Classes
 90
        0
280
     0
281
     0
  0
ENDSEC
  0
SECTION
  2
TABLES
  0
TABLE
  2
VPORT
  5
8
330
0
100
AcDbSymbolTable
 70
     1
  0
VPORT
  5
29
330
8
100
AcDbSymbolTableRecord
100
AcDbViewportTableRecord
  2
*Active
 70
     0
 10
0.0
 20
0.0
 11
1.0
 21
1.0
 12
344.1869158879
 22
148.5
 13
0.0
 23
0.0
 14
10.0
 24
10.0
 15
10.0
 25
10.0
 16
0.0
 26
0.0
 36
1.0
 17
0.0
 27
0.0
 37
0.0
 40
297.0
 41
1.9729729729
 42
50.0
 43
0.0
 44
0.0
 50
0.0
 51
0.0
 71
     0
 72
   100
 73
     1
 74
     3
 75
     0
 76
     0
 77
     0
 78
     0
281
     0
 65
     1
110
0.0
120
0.0
130
0.0
111
1.0
121
0.0
131
0.0
112
0.0
122
1.0
132
0.0
 79
     0
146
0.0
  0
ENDTAB
  0
TABLE
  2
LTYPE
  5
5
330
0
100
AcDbSymbolTable
 70
     2
  0
LTYPE
  5
14
330
5
100
AcDbSymbolTableRecord
100
AcDbLinetypeTableRecord
  2
ByBlock
 70
     0
  3

 72
    65
 73
     0
 40
0.0
  0
LTYPE
  5
15
330
5
100
AcDbSymbolTableRecord
100
AcDbLinetypeTableRecord
  2
ByLayer
 70
     0
  3

 72
    65
 73
     0
 40
0.0
  0
LTYPE
  5
16
330
5
100
AcDbSymbolTableRecord
100
AcDbLinetypeTableRecord
  2
Continuous
 70
     0
  3
Solid line
 72
    65
 73
     0
 40
0.0
  0
LTYPE
  5
54
330
5
100
AcDbSymbolTableRecord
100
AcDbLinetypeTableRecord
  2
HIDDEN2
 70
     0
  3
Hidden (.5x) _ _ _ _ _ _ _ _ _ _ _ _ _ _ _ _ _ 
 72
    65
 73
     2
 40
4.7625
 49
3.175
 74
     4
 75
     0
340
0
 46
0.0
 50
0.0
 44
0.0
 45
0.0
 49
-1.5875
 74
     4
 75
     0
340
0
 46
0.0
 50
0.0
 44
0.0
 45
0.0
  0
ENDTAB
  0
TABLE
  2
LAYER
  5
2
330
0
100
AcDbSymbolTable
 70
     5
  0
LAYER
  5
10
330
2
100
AcDbSymbolTableRecord
100
AcDbLayerTableRecord
  2
0
 70
     0
 62
     7
  6
Continuous
370
    -3
390
F
  0
LAYER
  5
3F
330
2
100
AcDbSymbolTableRecord
100
AcDbLayerTableRecord
  2
SK1
 70
     0
 62
     4
  6
Continuous
370
    18
390
F
  0
LAYER
  5
53
330
2
100
AcDbSymbolTableRecord
100
AcDbLayerTableRecord
  2
SK3
 70
     0
 62
     1
  6
HIDDEN2
370
    15
390
F
  0
LAYER
  5
CF
330
2
100
AcDbSymbolTableRecord
100
AcDbLayerTableRecord
  2
SK4
 70
     0
 62
     2
  6
Continuous
370
    13
390
F
  0
LAYER
  5
D1
330
2
100
AcDbSymbolTableRecord
100
AcDbLayerTableRecord
  2
SK2
 70
     0
 62
     7
  6
Continuous
370
    15
390
F
  0
ENDTAB
  0
TABLE
  2
STYLE
  5
3
330
0
100
AcDbSymbolTable
 70
     2
  0
STYLE
  5
11
330
3
100
AcDbSymbolTableRecord
100
AcDbTextStyleTableRecord
  2
Standard
 70
     0
 40
0.0
 41
1.0
 50
0.0
 71
     0
 42
2.5
  3
txt
  4

  0
STYLE
  5
E4
330
3
100
AcDbSymbolTableRecord
100
AcDbTextStyleTableRecord
  2
SEACAD_Solid_Edge_ISO
 70
     0
 40
0.0
 41
1.0
 50
0.0
 71
     0
 42
0.2
  3
seiso.ttf
  4

1001
ACAD
1000
Solid Edge ISO
1071
        0
  0
ENDTAB
  0
TABLE
  2
VIEW
  5
6
330
0
100
AcDbSymbolTable
 70
     0
  0
ENDTAB
  0
TABLE
  2
UCS
  5
7
330
0
100
AcDbSymbolTable
 70
     0
  0
ENDTAB
  0
TABLE
  2
APPID
  5
9
330
0
100
AcDbSymbolTable
 70
     1
  0
APPID
  5
12
330
9
100
AcDbSymbolTableRecord
100
AcDbRegAppTableRecord
  2
ACAD
 70
     0
  0
ENDTAB
  0
TABLE
  2
DIMSTYLE
  5
A
330
0
100
AcDbSymbolTable
 70
     3
100
AcDbDimStyleTable
  0
DIMSTYLE
105
27
330
A
100
AcDbSymbolTableRecord
100
AcDbDimStyleTableRecord
  2
ISO-25
 70
     0
 41
2.5
 42
0.625
 43
3.75
 44
1.25
 73
     0
 74
     0
 77
     1
 78
     8
140
2.5
141
2.5
143
0.0393700787
147
0.625
171
     3
172
     1
178
     0
271
     2
272
     2
274
     3
278
    44
283
     0
284
     8
340
11
  0
DIMSTYLE
105
D2
330
A
100
AcDbSymbolTableRecord
100
AcDbDimStyleTableRecord
  2
Standard
 70
     0
178
     0
340
11
  0
DIMSTYLE
105
E5
102
{ACAD_REACTORS
330
E6
330
106
330
111
330
11B
102
}
330
A
100
AcDbSymbolTableRecord
100
AcDbDimStyleTableRecord
  2
DIN
 70
     0
 41
3.5
 42
0.0
 44
1.75
 73
     0
 74
     0
 77
     1
 78
     8
140
3.5
141
1.75
147
1.75
172
     1
173
     1
178
     0
179
     3
271
     2
272
     2
278
    44
284
     8
340
E4
343
DF
344
DF
  0
ENDTAB
  0
TABLE
  2
BLOCK_RECORD
  5
1
330
0
100
AcDbSymbolTable
 70
    10
  0
BLOCK_RECORD
  5
1F
330
1
100
AcDbSymbolTableRecord
100
AcDbBlockTableRecord
  2
*Model_Space
340
22
  0
BLOCK_RECORD
  5
1B
330
1
100
AcDbSymbolTableRecord
100
AcDbBlockTableRecord
  2
*Paper_Space
340
1E
  0
BLOCK_RECORD
  5
D3
330
1
100
AcDbSymbolTableRecord
100
AcDbBlockTableRecord
  2
_OBLIQUE
340
0
  0
BLOCK_RECORD
  5
D7
330
1
100
AcDbSymbolTableRecord
100
AcDbBlockTableRecord
  2
_DOT
340
0
  0
BLOCK_RECORD
  5
DF
330
1
100
AcDbSymbolTableRecord
100
AcDbBlockTableRecord
  2
_SE_FILLED
340
0
  0
BLOCK_RECORD
  5
E7
330
1
100
AcDbSymbolTableRecord
100
AcDbBlockTableRecord
  2
DMBLK45
340
0
  0
BLOCK_RECORD
  5
F0
330
1
100
AcDbSymbolTableRecord
100
AcDbBlockTableRecord
  2
Nullpunkt
340
0
102
{BLKREFS
331
FA
102
}
  0
BLOCK_RECORD
  5
FB
330
1
100
AcDbSymbolTableRecord
100
AcDbBlockTableRecord
  2
Einfügepunkt
340
0
102
{BLKREFS
331
105
102
}
  0
BLOCK_RECORD
  5
107
330
1
100
AcDbSymbolTableRecord
100
AcDbBlockTableRecord
  2
DMBLK46
340
0
  0
BLOCK_RECORD
  5
112
330
1
100
AcDbSymbolTableRecord
100
AcDbBlockTableRecord
  2
DMBLK47
340
0
  0
BLOCK_RECORD
  5
11C
330
1
100
AcDbSymbolTableRecord
100
AcDbBlockTableRecord
  2
DMBLK48
340
0
  0
ENDTAB
  0
ENDSEC
  0
SECTION
  2
BLOCKS
  0
BLOCK
  5
20
330
1F
100
AcDbEntity
  8
0
100
AcDbBlockBegin
  2
*Model_Space
 70
     0
 10
0.0
 20
0.0
 30
0.0
  3
*Model_Space
  1

  0
ENDBLK
  5
21
330
1F
100
AcDbEntity
  8
0
100
AcDbBlockEnd
  0
BLOCK
  5
1C
330
1B
100
AcDbEntity
 67
     1
  8
0
100
AcDbBlockBegin
  2
*Paper_Space
 70
     0
 10
0.0
 20
0.0
 30
0.0
  3
*Paper_Space
  1

  0
ENDBLK
  5
1D
330
1B
100
AcDbEntity
 67
     1
  8
0
100
AcDbBlockEnd
  0
BLOCK
  5
D4
330
D3
100
AcDbEntity
  8
0
100
AcDbBlockBegin
  2
_OBLIQUE
 70
     0
 10
0.0
 20
0.0
 30
0.0
  3
_OBLIQUE
  1

  0
LINE
  5
D6
330
D3
100
AcDbEntity
  8
0
  6
ByBlock
 62
     0
370
    -2
100
AcDbLine
 10
-0.5
 20
-0.5
 30
0.0
 11
0.5
 21
0.5
 31
0.0
  0
ENDBLK
  5
D5
330
D3
100
AcDbEntity
  8
0
100
AcDbBlockEnd
  0
BLOCK
  5
D8
330
D7
100
AcDbEntity
  8
0
100
AcDbBlockBegin
  2
_DOT
 70
     0
 10
0.0
 20
0.0
 30
0.0
  3
_DOT
  1

  0
POLYLINE
  5
DA
330
D7
100
AcDbEntity
  8
0
  6
ByBlock
 62
     0
100
AcDb2dPolyline
 66
     1
 10
0.0
 20
0.0
 30
0.0
 70
     1
 40
0.5
 41
0.5
  0
VERTEX
  5
DC
330
DA
100
AcDbEntity
  8
0
  6
ByBlock
 62
     0
100
AcDbVertex
100
AcDb2dVertex
 10
-0.25
 20
0.0
 30
0.0
 42
1.0
  0
VERTEX
  5
DD
330
DA
100
AcDbEntity
  8
0
  6
ByBlock
 62
     0
100
AcDbVertex
100
AcDb2dVertex
 10
0.25
 20
0.0
 30
0.0
 42
1.0
  0
SEQEND
  5
DE
330
DA
100
AcDbEntity
  8
0
  6
ByBlock
 62
     0
  0
LINE
  5
DB
330
D7
100
AcDbEntity
  8
0
  6
ByBlock
 62
     0
370
    -2
100
AcDbLine
 10
-0.5
 20
0.0
 30
0.0
 11
-1.0
 21
0.0
 31
0.0
  0
ENDBLK
  5
D9
330
D7
100
AcDbEntity
  8
0
100
AcDbBlockEnd
  0
BLOCK
  5
E2
330
DF
100
AcDbEntity
  8
0
100
AcDbBlockBegin
  2
_SE_FILLED
 70
     0
 10
0.0
 20
0.0
 30
0.0
  3
_SE_FILLED
  1

  0
SOLID
  5
E0
330
DF
100
AcDbEntity
  8
0
 62
     0
100
AcDbTrace
 10
0.0
 20
0.0
 30
0.0
 11
-1.0
 21
-0.1665
 31
0.0
 12
-1.0
 22
0.1665
 32
0.0
 13
0.0
 23
0.0
 33
0.0
  0
LINE
  5
E1
330
DF
100
AcDbEntity
  8
0
 62
     0
100
AcDbLine
 10
0.0
 20
0.0
 30
0.0
 11
-1.0
 21
0.0
 31
0.0
  0
ENDBLK
  5
E3
330
DF
100
AcDbEntity
  8
0
100
AcDbBlockEnd
  0
BLOCK
  5
EE
330
E7
100
AcDbEntity
  8
0
100
AcDbBlockBegin
  2
DMBLK45
 70
     0
 10
0.0
 20
0.0
 30
0.0
  3
DMBLK45
  1

  0
HATCH
  5
E8
330
E7
100
AcDbEntity
  8
SK2
  6
Continuous
 62
   136
100
AcDbHatch
 10
0.0
 20
0.0
 30
0.0
210
0.0
220
0.0
230
1.0
  2
SOLID
 70
     1
 71
     0
 91
        1
 92
        1
 93
        3
 72
     1
 10
-23.83999989196791
 20
27.50691853824681
 11
-27.34000000000133
 21
26.9235851869079
 72
     1
 10
-27.34000000000133
 20
26.9235851869079
 11
-23.83999989196791
 21
26.340251835569
 72
     1
 10
-23.83999989196791
 20
26.340251835569
 11
-23.83999989196791
 21
27.50691853824681
 97
        0
 75
     0
 76
     1
 98
        0
  0
HATCH
  5
E9
330
E7
100
AcDbEntity
  8
SK2
  6
Continuous
 62
   136
100
AcDbHatch
 10
0.0
 20
0.0
 30
0.0
210
0.0
220
0.0
230
1.0
  2
SOLID
 70
     1
 71
     0
 91
        1
 92
        1
 93
        3
 72
     1
 10
9.159998997895581
 20
27.50691853824681
 11
9.159998997895581
 21
26.340251835569
 72
     1
 10
9.159998997895581
 20
26.340251835569
 11
12.659999105929
 21
26.9235851869079
 72
     1
 10
12.659999105929
 20
26.9235851869079
 11
9.159998997895581
 21
27.50691853824681
 97
        0
 75
     0
 76
     1
 98
        0
  0
LINE
  5
EA
330
E7
100
AcDbEntity
  8
SK2
  6
Continuous
 62
   136
100
AcDbLine
 10
-27.34
 20
11.8897757188
 30
0.0
 11
-27.34
 21
28.6735852409
 31
0.0
  0
LINE
  5
EB
330
E7
100
AcDbEntity
  8
SK2
  6
Continuous
 62
   136
100
AcDbLine
 10
12.66
 20
11.5387100686
 30
0.0
 11
12.66
 21
28.6735852409
 31
0.0
  0
LINE
  5
EC
330
E7
100
AcDbEntity
  8
SK2
  6
Continuous
 62
   136
100
AcDbLine
 10
-27.34
 20
26.9235851869
 30
0.0
 11
12.6599991059
 21
26.9235851869
 31
0.0
  0
TEXT
  5
ED
330
E7
100
AcDbEntity
  8
SK2
  6
Continuous
 62
   136
100
AcDbText
 10
-9.4081822652
 20
27.7985851869
 30
0.0
 40
3.5
  1
40
  7
SEACAD_Solid_Edge_ISO
 11
-9.4081822652
 21
31.2985851869
 31
0.0
100
AcDbText
 73
     3
  0
ENDBLK
  5
EF
330
E7
100
AcDbEntity
  8
0
100
AcDbBlockEnd
  0
BLOCK
  5
F8
330
F0
100
AcDbEntity
  8
0
100
AcDbBlockBegin
  2
Nullpunkt
 70
     0
 10
0.0
 20
0.0
 30
0.0
  3
Nullpunkt
  1

  0
HATCH
  5
F1
330
F0
100
AcDbEntity
  8
SK2
  6
Continuous
 62
     7
100
AcDbHatch
 10
0.0
 20
0.0
 30
0.0
210
0.0
220
0.0
230
1.0
  2
SOLID
 70
     1
 71
     0
 91
        1
 92
        1
 93
        3
 72
     1
 10
-1.0
 20
0.0
 11
0.0000000000000009
 21
0.0
 72
     1
 10
0.0
 20
0.0
 11
0.0
 21
1.000000000000001
 72
     2
 10
0.0
 20
0.0
 40
1.0
 50
90.0
 51
180.0
 73
     1
 97
        0
 75
     0
 76
     1
 98
        0
  0
HATCH
  5
F2
330
F0
100
AcDbEntity
  8
SK2
  6
Continuous
 62
     7
100
AcDbHatch
 10
0.0
 20
0.0
 30
0.0
210
0.0
220
0.0
230
1.0
  2
SOLID
 70
     1
 71
     0
 91
        1
 92
        1
 93
        3
 72
     2
 10
0.0
 20
0.0
 40
1.0
 50
270.0
 51
360.0
 73
     1
 72
     1
 10
1.0
 20
0.0
 11
-0.0000000000000009
 21
0.0
 72
     1
 10
0.0
 20
0.0
 11
0.0
 21
-1.000000000000001
 97
        0
 75
     0
 76
     1
 98
        0
  0
CIRCLE
  5
F3
330
F0
100
AcDbEntity
  8
SK2
  6
Continuous
 62
     7
100
AcDbCircle
 10
0.0
 20
0.0
 30
0.0
 40
1.0
  0
LINE
  5
F4
330
F0
100
AcDbEntity
  8
SK1
  6
Continuous
100
AcDbLine
 10
-1.0
 20
0.0
 30
0.0
 11
1.0
 21
0.0
 31
0.0
  0
LINE
  5
F5
330
F0
100
AcDbEntity
  8
SK1
  6
Continuous
100
AcDbLine
 10
0.0
 20
1.0
 30
0.0
 11
0.0
 21
-1.0
 31
0.0
  0
POINT
  5
F6
330
F0
100
AcDbEntity
  8
SK1
  6
Continuous
100
AcDbPoint
 10
0.0
 20
0.0
 30
0.0
  0
POINT
  5
F7
330
F0
100
AcDbEntity
  8
SK1
  6
Continuous
100
AcDbPoint
 10
0.0
 20
0.0
 30
0.0
  0
ENDBLK
  5
F9
330
F0
100
AcDbEntity
  8
0
100
AcDbBlockEnd
  0
BLOCK
  5
103
330
FB
100
AcDbEntity
  8
0
100
AcDbBlockBegin
  2
Einfügepunkt
 70
     0
 10
0.0
 20
0.0
 30
0.0
  3
Einfügepunkt
  1

  0
HATCH
  5
FC
330
FB
100
AcDbEntity
  8
SK2
  6
Continuous
 62
     7
100
AcDbHatch
 10
0.0
 20
0.0
 30
0.0
210
0.0
220
0.0
230
1.0
  2
SOLID
 70
     1
 71
     0
 91
        1
 92
        1
 93
        3
 72
     1
 10
-0.4502381196756744
 20
-0.0000000000000018
 11
0.0000000000000033
 21
-0.0000000000000018
 72
     1
 10
0.0
 20
-0.0000000000000018
 11
0.0
 21
0.4502381196756812
 72
     2
 10
0.0
 20
-0.0000000000000018
 40
0.4502381196756812
 50
90.0
 51
180.0
 73
     1
 97
        0
 75
     0
 76
     1
 98
        0
  0
HATCH
  5
FD
330
FB
100
AcDbEntity
  8
SK2
  6
Continuous
 62
     7
100
AcDbHatch
 10
0.0
 20
0.0
 30
0.0
210
0.0
220
0.0
230
1.0
  2
SOLID
 70
     1
 71
     0
 91
        1
 92
        1
 93
        3
 72
     2
 10
0.0
 20
-0.0000000000000018
 40
0.4502381196756812
 50
270.0
 51
360.0
 73
     1
 72
     1
 10
0.4502381196756815
 20
-0.0000000000000018
 11
0.0000000000000038
 21
-0.0000000000000018
 72
     1
 10
0.0
 20
-0.0000000000000018
 11
0.0
 21
-0.4502381196756812
 97
        0
 75
     0
 76
     1
 98
        0
  0
CIRCLE
  5
FE
330
FB
100
AcDbEntity
  8
SK2
  6
Continuous
 62
     7
100
AcDbCircle
 10
0.0
 20
0.0
 30
0.0
 40
0.4502381196756812
  0
LINE
  5
FF
330
FB
100
AcDbEntity
  8
SK1
  6
Continuous
100
AcDbLine
 10
-0.4502381197
 20
0.0
 30
0.0
 11
0.4502381197
 21
0.0
 31
0.0
  0
LINE
  5
100
330
FB
100
AcDbEntity
  8
SK1
  6
Continuous
100
AcDbLine
 10
0.0
 20
0.4502381197
 30
0.0
 11
0.0
 21
-0.4502381197
 31
0.0
  0
POINT
  5
101
330
FB
100
AcDbEntity
  8
SK2
  6
Continuous
 62
     7
100
AcDbPoint
 10
0.0
 20
0.0
 30
0.0
  0
POINT
  5
102
330
FB
100
AcDbEntity
  8
SK2
  6
Continuous
 62
     7
100
AcDbPoint
 10
0.0
 20
0.0
 30
0.0
  0
ENDBLK
  5
104
330
FB
100
AcDbEntity
  8
0
100
AcDbBlockEnd
  0
BLOCK
  5
10F
330
107
100
AcDbEntity
  8
0
100
AcDbBlockBegin
  2
DMBLK46
 70
     0
 10
0.0
 20
0.0
 30
0.0
  3
DMBLK46
  1

  0
HATCH
  5
108
330
107
100
AcDbEntity
  8
SK2
  6
Continuous
 62
   136
100
AcDbHatch
 10
0.0
 20
0.0
 30
0.0
210
0.0
220
0.0
230
1.0
  2
SOLID
 70
     1
 71
     0
 91
        1
 92
        1
 93
        3
 72
     1
 10
23.24333337964979
 20
6.675000207804117
 11
22.07666667697198
 21
6.675000207804117
 72
     1
 10
22.07666667697198
 20
6.675000207804117
 11
22.66000002831088
 21
3.175000099770698
 72
     1
 10
22.66000002831088
 20
3.175000099770699
 11
23.24333337964979
 21
6.675000207804118
 97
        0
 75
     0
 76
     1
 98
        0
  0
HATCH
  5
109
330
107
100
AcDbEntity
  8
SK2
  6
Continuous
 62
   136
100
AcDbHatch
 10
0.0
 20
0.0
 30
0.0
210
0.0
220
0.0
230
1.0
  2
SOLID
 70
     1
 71
     0
 91
        1
 92
        1
 93
        3
 72
     1
 10
23.24333337964979
 20
-6.675000008262717
 11
22.66000002831088
 21
-3.174999900229298
 72
     1
 10
22.66000002831088
 20
-3.174999900229298
 11
22.07666667697198
 21
-6.675000008262717
 72
     1
 10
22.07666667697198
 20
-6.675000008262717
 11
23.24333337964979
 21
-6.675000008262717
 97
        0
 75
     0
 76
     1
 98
        0
  0
LINE
  5
10A
330
107
100
AcDbEntity
  8
SK2
  6
Continuous
 62
   136
100
AcDbLine
 10
12.26
 20
3.1750000998
 30
0.0
 11
24.4100000823
 21
3.1750000998
 31
0.0
  0
LINE
  5
10B
330
107
100
AcDbEntity
  8
SK2
  6
Continuous
 62
   136
100
AcDbLine
 10
12.26
 20
-3.1749999002
 30
0.0
 11
24.4100000823
 21
-3.1749999002
 31
0.0
  0
LINE
  5
10C
330
107
100
AcDbEntity
  8
SK2
  6
Continuous
 62
   136
100
AcDbLine
 10
22.6600000283
 20
21.3759936377
 30
0.0
 11
22.6600000283
 21
-10.1749995739
 31
0.0
  0
TEXT
  5
10D
330
107
100
AcDbEntity
  8
SK2
  6
Continuous
 62
   136
100
AcDbText
 10
21.7850000283
 20
13.5487213202
 30
0.0
 40
3.5
  1
6,35
 50
90.0
  7
SEACAD_Solid_Edge_ISO
 11
18.2850000283
 21
13.5487213202
 31
0.0
100
AcDbText
 73
     3
  0
TEXT
  5
10E
330
107
100
AcDbEntity
  8
SK2
  6
Continuous
 62
   136
100
AcDbText
 10
21.7850000283
 20
9.4759940475
 30
0.0
 40
3.5
  1
ø
 50
90.0
  7
SEACAD_Solid_Edge_ISO
 11
18.2850000283
 21
9.4759940475
 31
0.0
100
AcDbText
 73
     3
  0
ENDBLK
  5
110
330
107
100
AcDbEntity
  8
0
100
AcDbBlockEnd
  0
BLOCK
  5
119
330
112
100
AcDbEntity
  8
0
100
AcDbBlockBegin
  2
DMBLK47
 70
     0
 10
0.0
 20
0.0
 30
0.0
  3
DMBLK47
  1

  0
HATCH
  5
113
330
112
100
AcDbEntity
  8
SK2
  6
Continuous
 62
   136
100
AcDbHatch
 10
0.0
 20
0.0
 30
0.0
210
0.0
220
0.0
230
1.0
  2
SOLID
 70
     1
 71
     0
 91
        1
 92
        1
 93
        3
 72
     1
 10
-3.500000108033415
 20
-24.70768720703899
 11
0.0000000000000036
 21
-24.12435385570009
 72
     1
 10
0.0000000000000035
 20
-24.12435385570009
 11
-3.500000108033415
 21
-23.54102050436118
 72
     1
 10
-3.500000108033415
 20
-23.54102050436118
 11
-3.500000108033415
 21
-24.70768720703899
 97
        0
 75
     0
 76
     1
 98
        0
  0
HATCH
  5
114
330
112
100
AcDbEntity
  8
SK2
  6
Continuous
 62
   136
100
AcDbHatch
 10
0.0
 20
0.0
 30
0.0
210
0.0
220
0.0
230
1.0
  2
SOLID
 70
     1
 71
     0
 91
        1
 92
        1
 93
        3
 72
     1
 10
16.16000010803342
 20
-24.70768720703899
 11
16.16000010803342
 21
-23.54102050436118
 72
     1
 10
16.16000010803342
 20
-23.54102050436118
 11
12.66
 21
-24.12435385570009
 72
     1
 10
12.66
 20
-24.12435385570009
 11
16.16000010803342
 21
-24.70768720703899
 97
        0
 75
     0
 76
     1
 98
        0
  0
LINE
  5
115
330
112
100
AcDbEntity
  8
SK2
  6
Continuous
 62
   136
100
AcDbLine
 10
0.0
 20
-15.9996745287
 30
0.0
 11
0.0
 21
-25.8743539097
 31
0.0
  0
LINE
  5
116
330
112
100
AcDbEntity
  8
SK2
  6
Continuous
 62
   136
100
AcDbLine
 10
12.66
 20
-11.5387098691
 30
0.0
 11
12.66
 21
-25.8743539097
 31
0.0
  0
LINE
  5
117
330
112
100
AcDbEntity
  8
SK2
  6
Continuous
 62
   136
100
AcDbLine
 10
-7.0000002161
 20
-24.1243538557
 30
0.0
 11
19.659999758
 21
-24.1243538557
 31
0.0
  0
TEXT
  5
118
330
112
100
AcDbEntity
  8
SK2
  6
Continuous
 62
   136
100
AcDbText
 10
2.0743179528
 20
-23.2493538557
 30
0.0
 40
3.5
  1
12,66
  7
SEACAD_Solid_Edge_ISO
 11
2.0743179528
 21
-19.7493538557
 31
0.0
100
AcDbText
 73
     3
  0
ENDBLK
  5
11A
330
112
100
AcDbEntity
  8
0
100
AcDbBlockEnd
  0
BLOCK
  5
124
330
11C
100
AcDbEntity
  8
0
100
AcDbBlockBegin
  2
DMBLK48
 70
     0
 10
0.0
 20
0.0
 30
0.0
  3
DMBLK48
  1

  0
HATCH
  5
11D
330
11C
100
AcDbEntity
  8
SK2
  6
Continuous
 62
   136
100
AcDbHatch
 10
0.0
 20
0.0
 30
0.0
210
0.0
220
0.0
230
1.0
  2
SOLID
 70
     1
 71
     0
 91
        1
 92
        1
 93
        3
 72
     1
 10
-35.4528105041633
 20
12.49967462019696
 11
-34.2861438014855
 21
12.49967462019696
 72
     1
 10
-34.2861438014855
 20
12.49967462019696
 11
-34.8694771528244
 21
15.99967472823037
 72
     1
 10
-34.8694771528244
 20
15.99967472823037
 11
-35.4528105041633
 21
12.49967462019696
 97
        0
 75
     0
 76
     1
 98
        0
  0
HATCH
  5
11E
330
11C
100
AcDbEntity
  8
SK2
  6
Continuous
 62
   136
100
AcDbHatch
 10
0.0
 20
0.0
 30
0.0
210
0.0
220
0.0
230
1.0
  2
SOLID
 70
     1
 71
     0
 91
        1
 92
        1
 93
        3
 72
     1
 10
-35.4528105041633
 20
-12.49967475785242
 11
-34.8694771528244
 21
-15.99967486588584
 72
     1
 10
-34.8694771528244
 20
-15.99967486588584
 11
-34.2861438014855
 21
-12.49967475785242
 72
     1
 10
-34.2861438014855
 20
-12.49967475785242
 11
-35.4528105041633
 21
-12.49967475785242
 97
        0
 75
     0
 76
     1
 98
        0
  0
LINE
  5
11F
330
11C
100
AcDbEntity
  8
SK2
  6
Continuous
 62
   136
100
AcDbLine
 10
0.0
 20
15.9996747282
 30
0.0
 11
-36.6194772068
 21
15.9996747282
 31
0.0
  0
LINE
  5
120
330
11C
100
AcDbEntity
  8
SK2
  6
Continuous
 62
   136
100
AcDbLine
 10
0.0
 20
-15.9996745287
 30
0.0
 11
-36.6194772068
 21
-15.9996745287
 31
0.0
  0
LINE
  5
121
330
11C
100
AcDbEntity
  8
SK2
  6
Continuous
 62
   136
100
AcDbLine
 10
-34.8694771528
 20
15.9996747282
 30
0.0
 11
-34.8694771528
 21
-15.9996748659
 31
0.0
  0
TEXT
  5
122
330
11C
100
AcDbEntity
  8
SK2
  6
Continuous
 62
   136
100
AcDbText
 10
-35.7444771528
 20
0.0477272039
 30
0.0
 40
3.5
  1
32
 50
90.0
  7
SEACAD_Solid_Edge_ISO
 11
-39.2444771528
 21
0.0477272039
 31
0.0
100
AcDbText
 73
     3
  0
TEXT
  5
123
330
11C
100
AcDbEntity
  8
SK2
  6
Continuous
 62
   136
100
AcDbText
 10
-35.7444771528
 20
-4.0250000688
 30
0.0
 40
3.5
  1
ø
 50
90.0
  7
SEACAD_Solid_Edge_ISO
 11
-39.2444771528
 21
-4.0250000688
 31
0.0
100
AcDbText
 73
     3
  0
ENDBLK
  5
125
330
11C
100
AcDbEntity
  8
0
100
AcDbBlockEnd
  0
ENDSEC
  0
SECTION
  2
ENTITIES
  0
LINE
  5
40
330
1F
100
AcDbEntity
  8
SK1
  6
Continuous
100
AcDbLine
 10
3.76
 20
10.0370411076
 30
0.0
 11
3.76
 21
-10.037040908
 31
0.0
  0
LINE
  5
41
330
1F
100
AcDbEntity
  8
SK1
  6
Continuous
100
AcDbLine
 10
6.96
 20
-14.5999999002
 30
0.0
 11
6.96
 21
-10.602726333
 31
0.0
  0
LINE
  5
42
330
1F
100
AcDbEntity
  8
SK1
  6
Continuous
100
AcDbLine
 10
3.56
 20
11.5805197198
 30
0.0
 11
3.56
 21
15.9823343165
 31
0.0
  0
LINE
  5
43
330
1F
100
AcDbEntity
  8
SK1
  6
Continuous
100
AcDbLine
 10
3.0473721046
 20
11.8957171437
 30
0.0
 11
3.0473721046
 21
16.4279549475
 31
0.0
  0
LINE
  5
44
330
1F
100
AcDbEntity
  8
SK1
  6
Continuous
100
AcDbLine
 10
12.535
 20
-13.5717422033
 30
0.0
 11
12.535
 21
-9.8753446101
 31
0.0
  0
LINE
  5
45
330
1F
100
AcDbEntity
  8
SK1
  6
Continuous
100
AcDbLine
 10
7.6882754963
 20
11.8547246817
 30
0.0
 11
7.6882754963
 21
16.3700000998
 31
0.0
  0
LINE
  5
46
330
1F
100
AcDbEntity
  8
SK1
  6
Continuous
100
AcDbLine
 10
7.16
 20
11.8547246817
 30
0.0
 11
7.16
 21
16.3700000998
 31
0.0
  0
LINE
  5
47
330
1F
100
AcDbEntity
  8
SK1
  6
Continuous
100
AcDbLine
 10
7.6882754963
 20
-16.3699999002
 30
0.0
 11
7.6882754963
 21
-11.8547244821
 31
0.0
  0
LINE
  5
48
330
1F
100
AcDbEntity
  8
SK1
  6
Continuous
100
AcDbLine
 10
7.16
 20
-16.3699999002
 30
0.0
 11
7.16
 21
-11.8547244821
 31
0.0
  0
LINE
  5
49
330
1F
100
AcDbEntity
  8
SK1
  6
Continuous
100
AcDbLine
 10
7.6882754963
 20
11.8547246817
 30
0.0
 11
7.16
 21
11.8547246817
 31
0.0
  0
LINE
  5
4A
330
1F
100
AcDbEntity
  8
SK1
  6
Continuous
100
AcDbLine
 10
7.6882754963
 20
11.2890392567
 30
0.0
 11
7.16
 21
11.2890392567
 31
0.0
  0
LINE
  5
4B
330
1F
100
AcDbEntity
  8
SK1
  6
Continuous
100
AcDbLine
 10
12.66
 20
9.1564986603
 30
0.0
 11
12.66
 21
-9.1564984608
 31
0.0
  0
LINE
  5
4C
330
1F
100
AcDbEntity
  8
SK1
  6
Continuous
100
AcDbLine
 10
12.535
 20
9.8753448097
 30
0.0
 11
12.535
 21
13.5717424029
 31
0.0
  0
LINE
  5
4D
330
1F
100
AcDbEntity
  8
SK1
  6
Continuous
100
AcDbLine
 10
3.56
 20
-15.982334117
 30
0.0
 11
3.56
 21
-11.5805195203
 31
0.0
  0
LINE
  5
4E
330
1F
100
AcDbEntity
  8
SK1
  6
Continuous
100
AcDbLine
 10
3.0473721046
 20
-11.8957169442
 30
0.0
 11
3.0473721046
 21
-16.4279547479
 31
0.0
  0
LINE
  5
4F
330
1F
100
AcDbEntity
  8
SK1
  6
Continuous
100
AcDbLine
 10
6.96
 20
10.6027265325
 30
0.0
 11
6.96
 21
14.6000000998
 31
0.0
  0
SPLINE
  5
50
330
1F
100
AcDbEntity
  8
SK1
  6
Continuous
100
AcDbSpline
210
0.0
220
0.0
230
1.0
 70
     8
 71
     3
 72
    10
 73
     6
 74
     0
 42
0.0000000361059983
 43
0.0000000001
 12
1.0
 22
0.0
 32
0.0
 13
1.0
 23
0.0
 33
0.0
 40
0.0
 40
0.0
 40
0.0
 40
0.0
 40
0.5
 40
0.5
 40
1.0
 40
1.0
 40
1.0
 40
1.0
 10
3.559999999968932
 20
10.17851485179053
 30
0.0
 10
3.559999999999997
 20
10.1416791489273
 30
0.0
 10
3.581356016811973
 20
10.10485227677355
 30
0.0
 10
3.655564089583804
 20
10.05227155091628
 30
0.0
 10
3.707892208943662
 20
10.03704110757123
 30
0.0
 10
3.759999999998674
 20
10.03704110757123
 30
0.0
  0
LINE
  5
51
330
1F
100
AcDbEntity
  8
SK1
  6
Continuous
100
AcDbLine
 10
3.76
 20
10.0370411076
 30
0.0
 11
6.96
 21
10.0370411076
 31
0.0
  0
SPLINE
  5
52
330
1F
100
AcDbEntity
  8
SK1
  6
Continuous
100
AcDbSpline
210
0.0
220
0.0
230
1.0
 70
     8
 71
     3
 72
    10
 73
     6
 74
     0
 42
0.0000000361090571
 43
0.0000000001
 12
1.0
 22
0.0
 32
0.0
 13
1.0
 23
0.0
 33
0.0
 40
0.0
 40
0.0
 40
0.0
 40
0.0
 40
0.5
 40
0.5
 40
1.0
 40
1.0
 40
1.0
 40
1.0
 10
6.959999999998681
 20
10.03704110757119
 30
0.0
 10
7.012290884019147
 20
10.03704110757123
 30
0.0
 10
7.064787753546437
 20
10.05250960882907
 30
0.0
 10
7.138353103290222
 20
10.10465742417257
 30
0.0
 10
7.159999999998678
 20
10.14150041444482
 30
0.0
 10
7.159999999998676
 20
10.1785148517937
 30
0.0
  0
SPLINE
  5
55
330
1F
100
AcDbEntity
  8
SK3
100
AcDbSpline
210
0.0
220
0.0
230
1.0
 70
     8
 71
     3
 72
    10
 73
     6
 74
     0
 42
0.0000000180116459
 43
0.0000000001
 12
1.0
 22
0.0
 32
0.0
 13
1.0
 23
0.0
 33
0.0
 40
0.0
 40
0.0
 40
0.0
 40
0.0
 40
0.5
 40
0.5
 40
1.0
 40
1.0
 40
1.0
 40
1.0
 10
12.25999999999867
 20
2.510018714593401
 30
0.0
 10
12.36452419062023
 20
2.510018714593418
 30
0.0
 10
12.46995593889763
 20
2.541301308396439
 30
0.0
 10
12.61723169686769
 20
2.646777387953585
 30
0.0
 10
12.65999999999868
 20
2.720939511501568
 30
0.0
 10
12.65999999999867
 20
2.794876351034161
 30
0.0
  0
LINE
  5
56
330
1F
100
AcDbEntity
  8
SK1
  6
Continuous
100
AcDbLine
 10
12.66
 20
9.1564986603
 30
0.0
 11
12.66
 21
9.7221840853
 31
0.0
  0
SPLINE
  5
57
330
1F
100
AcDbEntity
  8
SK1
  6
Continuous
100
AcDbSpline
210
0.0
220
0.0
230
1.0
 70
     8
 71
     3
 72
    10
 73
     6
 74
     0
 42
0.0000000470053418
 43
0.0000000001
 12
1.0
 22
0.0
 32
0.0
 13
1.0
 23
0.0
 33
0.0
 40
0.0
 40
0.0
 40
0.0
 40
0.0
 40
0.5
 40
0.5
 40
1.0
 40
1.0
 40
1.0
 40
1.0
 10
12.65999999999867
 20
9.722184085285985
 30
0.0
 10
12.65999999999867
 20
9.753280195829745
 30
0.0
 10
12.64825603037806
 20
9.783939723012164
 30
0.0
 10
12.60484795414231
 20
9.837171854456928
 30
0.0
 10
12.57289524145235
 20
9.85986741840896
 30
0.0
 10
12.53499999999867
 20
9.875344809688707
 30
0.0
  0
LINE
  5
58
330
1F
100
AcDbEntity
  8
SK1
  6
Continuous
100
AcDbLine
 10
12.535
 20
9.8753448097
 30
0.0
 11
7.6882754963
 21
11.8547246817
 31
0.0
  0
SPLINE
  5
59
330
1F
100
AcDbEntity
  8
SK1
  6
Continuous
100
AcDbSpline
210
0.0
220
0.0
230
1.0
 70
     8
 71
     3
 72
    10
 73
     6
 74
     0
 42
0.0000000145014029
 43
0.0000000001
 12
1.0
 22
0.0
 32
0.0
 13
1.0
 23
0.0
 33
0.0
 40
0.0
 40
0.0
 40
0.0
 40
0.0
 40
0.5
 40
0.5
 40
1.0
 40
1.0
 40
1.0
 40
1.0
 10
3.559999999998675
 20
11.58051971982051
 30
0.0
 10
3.559999999998681
 20
11.6712125959218
 30
0.0
 10
3.502115348737768
 20
11.76108490271098
 30
0.0
 10
3.308802338729155
 20
11.88011029541633
 30
0.0
 10
3.17413948998832
 20
11.90831869004816
 30
0.0
 10
3.047372104566607
 20
11.89571714372738
 30
0.0
  0
LINE
  5
5A
330
1F
100
AcDbEntity
  8
SK1
  6
Continuous
100
AcDbLine
 10
3.0473721046
 20
11.8957171437
 30
0.0
 11
-13.9226957732
 21
10.2086911841
 31
0.0
  0
SPLINE
  5
5B
330
1F
100
AcDbEntity
  8
SK1
  6
Continuous
100
AcDbSpline
210
0.0
220
0.0
230
1.0
 70
     8
 71
     3
 72
    10
 73
     6
 74
     0
 42
0.0000000145014029
 43
0.0000000001
 12
1.0
 22
0.0
 32
0.0
 13
1.0
 23
0.0
 33
0.0
 40
0.0
 40
0.0
 40
0.0
 40
0.0
 40
0.5
 40
0.5
 40
1.0
 40
1.0
 40
1.0
 40
1.0
 10
3.559999999998675
 20
11.01483429487127
 30
0.0
 10
3.559999999998681
 20
11.10552717097256
 30
0.0
 10
3.502115348737768
 20
11.19539947776174
 30
0.0
 10
3.308802338729155
 20
11.31442487046709
 30
0.0
 10
3.17413948998832
 20
11.34263326509892
 30
0.0
 10
3.047372104566607
 20
11.33003171877815
 30
0.0
  0
LINE
  5
5C
330
1F
100
AcDbEntity
  8
SK1
  6
Continuous
100
AcDbLine
 10
3.0473721046
 20
11.3300317188
 30
0.0
 11
-13.9226957732
 21
9.6430057591
 31
0.0
  0
SPLINE
  5
5D
330
1F
100
AcDbEntity
  8
SK3
100
AcDbSpline
210
0.0
220
0.0
230
1.0
 70
     8
 71
     3
 72
    10
 73
     6
 74
     0
 42
0.0000000180116459
 43
0.0000000001
 12
1.0
 22
0.0
 32
0.0
 13
1.0
 23
0.0
 33
0.0
 40
0.0
 40
0.0
 40
0.0
 40
0.0
 40
0.5
 40
0.5
 40
1.0
 40
1.0
 40
1.0
 40
1.0
 10
12.25999999999867
 20
1.944333289644163
 30
0.0
 10
12.36452419062023
 20
1.94433328964418
 30
0.0
 10
12.46995593889763
 20
1.975615883447201
 30
0.0
 10
12.61723169686769
 20
2.081091963004347
 30
0.0
 10
12.65999999999868
 20
2.15525408655233
 30
0.0
 10
12.65999999999867
 20
2.229190926084923
 30
0.0
  0
SPLINE
  5
5E
330
1F
100
AcDbEntity
  8
SK1
  6
Continuous
100
AcDbSpline
210
0.0
220
0.0
230
1.0
 70
     8
 71
     3
 72
    10
 73
     6
 74
     0
 42
0.0000000470053418
 43
0.0000000001
 12
1.0
 22
0.0
 32
0.0
 13
1.0
 23
0.0
 33
0.0
 40
0.0
 40
0.0
 40
0.0
 40
0.0
 40
0.5
 40
0.5
 40
1.0
 40
1.0
 40
1.0
 40
1.0
 10
12.65999999999867
 20
9.156498660336748
 30
0.0
 10
12.65999999999867
 20
9.187594770880507
 30
0.0
 10
12.64825603037806
 20
9.218254298062925
 30
0.0
 10
12.60484795414231
 20
9.271486429507691
 30
0.0
 10
12.57289524145235
 20
9.294181993459722
 30
0.0
 10
12.53499999999867
 20
9.309659384739469
 30
0.0
  0
LINE
  5
5F
330
1F
100
AcDbEntity
  8
SK1
  6
Continuous
100
AcDbLine
 10
12.535
 20
9.3096593847
 30
0.0
 11
7.6882754963
 21
11.2890392567
 31
0.0
  0
LINE
  5
60
330
1F
100
AcDbEntity
  8
SK1
  6
Continuous
100
AcDbLine
 10
3.56
 20
11.5805197198
 30
0.0
 11
3.56
 21
11.0148342949
 31
0.0
  0
SPLINE
  5
61
330
1F
100
AcDbEntity
  8
SK1
  6
Continuous
100
AcDbSpline
210
0.0
220
0.0
230
1.0
 70
     8
 71
     3
 72
    10
 73
     6
 74
     0
 42
0.0000000361059983
 43
0.0000000001
 12
1.0
 22
0.0
 32
0.0
 13
1.0
 23
0.0
 33
0.0
 40
0.0
 40
0.0
 40
0.0
 40
0.0
 40
0.5
 40
0.5
 40
1.0
 40
1.0
 40
1.0
 40
1.0
 10
3.559999999968932
 20
10.74420027673977
 30
0.0
 10
3.559999999999997
 20
10.70736457387654
 30
0.0
 10
3.581356016811973
 20
10.67053770172279
 30
0.0
 10
3.655564089583804
 20
10.61795697586552
 30
0.0
 10
3.707892208943662
 20
10.60272653252047
 30
0.0
 10
3.759999999998674
 20
10.60272653252047
 30
0.0
  0
LINE
  5
62
330
1F
100
AcDbEntity
  8
SK1
  6
Continuous
100
AcDbLine
 10
3.76
 20
10.6027265325
 30
0.0
 11
6.96
 21
10.6027265325
 31
0.0
  0
SPLINE
  5
63
330
1F
100
AcDbEntity
  8
SK1
  6
Continuous
100
AcDbSpline
210
0.0
220
0.0
230
1.0
 70
     8
 71
     3
 72
    10
 73
     6
 74
     0
 42
0.0000000361090571
 43
0.0000000001
 12
1.0
 22
0.0
 32
0.0
 13
1.0
 23
0.0
 33
0.0
 40
0.0
 40
0.0
 40
0.0
 40
0.0
 40
0.5
 40
0.5
 40
1.0
 40
1.0
 40
1.0
 40
1.0
 10
6.959999999998681
 20
10.60272653252042
 30
0.0
 10
7.012290884019147
 20
10.60272653252046
 30
0.0
 10
7.064787753546437
 20
10.61819503377831
 30
0.0
 10
7.138353103290222
 20
10.67034284912181
 30
0.0
 10
7.159999999998678
 20
10.70718583939406
 30
0.0
 10
7.159999999998676
 20
10.74420027674294
 30
0.0
  0
LINE
  5
64
330
1F
100
AcDbEntity
  8
SK1
  6
Continuous
100
AcDbLine
 10
7.16
 20
11.2890392567
 30
0.0
 11
7.16
 21
11.8547246817
 31
0.0
  0
LINE
  5
65
330
1F
100
AcDbEntity
  8
SK3
100
AcDbLine
 10
-26.34
 20
-7.4893256376
 30
0.0
 11
-26.34
 21
-0.3999999002
 31
0.0
  0
LINE
  5
66
330
1F
100
AcDbEntity
  8
SK3
100
AcDbLine
 10
-26.34
 20
-7.4893256376
 30
0.0
 11
-27.34
 21
-8.0674398517
 31
0.0
  0
LINE
  5
67
330
1F
100
AcDbEntity
  8
SK3
100
AcDbLine
 10
-27.34
 20
8.0674400513
 30
0.0
 11
-26.34
 21
7.4893258371
 31
0.0
  0
LINE
  5
68
330
1F
100
AcDbEntity
  8
SK1
  6
Continuous
100
AcDbLine
 10
-27.0817519303
 20
12.1870201126
 30
0.0
 11
-27.0817519303
 21
0.4000000998
 31
0.0
  0
LINE
  5
69
330
1F
100
AcDbEntity
  8
SK1
  6
Continuous
100
AcDbLine
 10
-27.34
 20
-11.8897755192
 30
0.0
 11
-27.34
 21
-0.3999999002
 31
0.0
  0
LINE
  5
6A
330
1F
100
AcDbEntity
  8
SK3
100
AcDbLine
 10
-18.04
 20
-7.4893256376
 30
0.0
 11
-18.04
 21
-0.3999999002
 31
0.0
  0
LINE
  5
6B
330
1F
100
AcDbEntity
  8
SK3
100
AcDbLine
 10
-17.34
 20
-7.0845715533
 30
0.0
 11
-17.34
 21
-0.3999999002
 31
0.0
  0
LINE
  5
6C
330
1F
100
AcDbEntity
  8
SK3
100
AcDbLine
 10
-16.7337822174
 20
-3.1497022671
 30
0.0
 11
-16.7337822174
 21
-0.3999999002
 31
0.0
  0
LINE
  5
6D
330
1F
100
AcDbEntity
  8
SK3
100
AcDbLine
 10
-17.34
 20
3.5022315313
 30
0.0
 11
-16.7337822174
 21
3.1497024667
 31
0.0
  0
LINE
  5
6E
330
1F
100
AcDbEntity
  8
SK3
100
AcDbLine
 10
-16.7337822174
 20
3.1497024667
 30
0.0
 11
-1.666069176
 21
3.1497024667
 31
0.0
  0
ARC
  5
6F
330
1F
100
AcDbEntity
  8
SK1
  6
Continuous
100
AcDbCircle
 10
-27.0398900537
 20
11.8898441246
 30
0.0
 40
0.3001099540887134
100
AcDbArc
 50
98.0182469643
 51
180.0130597707
  0
LINE
  5
70
330
1F
100
AcDbEntity
  8
SK3
100
AcDbLine
 10
-26.34
 20
7.4893258371
 30
0.0
 11
-18.04
 21
7.4893258371
 31
0.0
  0
LINE
  5
71
330
1F
100
AcDbEntity
  8
SK3
100
AcDbLine
 10
-18.04
 20
7.4893258371
 30
0.0
 11
-17.34
 21
7.0845717528
 31
0.0
  0
LINE
  5
72
330
1F
100
AcDbEntity
  8
SK3
100
AcDbLine
 10
-16.7337822174
 20
-3.1497022671
 30
0.0
 11
-17.34
 21
-3.5022313318
 31
0.0
  0
LINE
  5
73
330
1F
100
AcDbEntity
  8
SK3
100
AcDbLine
 10
-17.34
 20
-7.0845715533
 30
0.0
 11
-18.04
 21
-7.4893256376
 31
0.0
  0
LINE
  5
74
330
1F
100
AcDbEntity
  8
SK3
100
AcDbLine
 10
-18.04
 20
-7.4893256376
 30
0.0
 11
-26.34
 21
-7.4893256376
 31
0.0
  0
ARC
  5
75
330
1F
100
AcDbEntity
  8
SK1
  6
Continuous
100
AcDbCircle
 10
-27.0398899999
 20
-11.8898438783
 30
0.0
 40
0.3001100078931639
100
AcDbArc
 50
179.986949158
 51
261.9817441071
  0
SPLINE
  5
76
330
1F
100
AcDbEntity
  8
SK1
  6
Continuous
100
AcDbSpline
210
0.0
220
0.0
230
1.0
 70
     8
 71
     3
 72
    11
 73
     7
 74
     0
 42
0.0000000004152776
 43
0.0000000001
 12
1.0
 22
0.0
 32
0.0
 13
1.0
 23
0.0
 33
0.0
 40
0.0
 40
0.0
 40
0.0
 40
0.0
 40
0.8890066835680944
 40
0.8890066835680944
 40
0.8890066835680944
 40
1.0
 40
1.0
 40
1.0
 40
1.0
 10
-27.08175193028933
 20
-12.18701991305816
 30
0.0
 10
-20.01542884374165
 20
-13.18066163654469
 30
0.0
 10
-12.94908842150936
 20
-14.17418007798889
 30
0.0
 10
-5.882739207700853
 20
-15.16763597869006
 30
0.0
 10
-5.000498895163235
 20
-15.29166987763949
 30
0.0
 10
-4.118258436931488
 20
-15.41570274028546
 30
0.0
 10
-3.23601784322995
 20
-15.53973463932854
 30
0.0
  0
LINE
  5
77
330
1F
100
AcDbEntity
  8
SK1
  6
Continuous
100
AcDbLine
 10
12.66
 20
9.7221840853
 30
0.0
 11
12.66
 21
13.3552360519
 31
0.0
  0
LINE
  5
78
330
1F
100
AcDbEntity
  8
SK1
  6
Continuous
100
AcDbLine
 10
3.76
 20
10.6027265325
 30
0.0
 11
3.76
 21
14.6000000998
 31
0.0
  0
LINE
  5
79
330
1F
100
AcDbEntity
  8
SK1
  6
Continuous
100
AcDbLine
 10
7.16
 20
-11.2890390572
 30
0.0
 11
7.16
 21
11.2890392567
 31
0.0
  0
LINE
  5
7A
330
1F
100
AcDbEntity
  8
SK1
  6
Continuous
100
AcDbLine
 10
7.6882754963
 20
-11.2890390572
 30
0.0
 11
7.6882754963
 21
11.2890392567
 31
0.0
  0
LINE
  5
7B
330
1F
100
AcDbEntity
  8
SK1
  6
Continuous
100
AcDbLine
 10
12.535
 20
-9.3096591852
 30
0.0
 11
12.535
 21
9.3096593847
 31
0.0
  0
LINE
  5
7C
330
1F
100
AcDbEntity
  8
SK1
  6
Continuous
100
AcDbLine
 10
12.66
 20
-9.7221838857
 30
0.0
 11
12.66
 21
-13.3552358524
 31
0.0
  0
LINE
  5
7D
330
1F
100
AcDbEntity
  8
SK1
  6
Continuous
100
AcDbLine
 10
3.0473721046
 20
-11.3300315192
 30
0.0
 11
3.0473721046
 21
11.3300317188
 31
0.0
  0
LINE
  5
7E
330
1F
100
AcDbEntity
  8
SK1
  6
Continuous
100
AcDbLine
 10
3.56
 20
-11.0148340953
 30
0.0
 11
3.56
 21
11.0148342949
 31
0.0
  0
LINE
  5
7F
330
1F
100
AcDbEntity
  8
SK1
  6
Continuous
100
AcDbLine
 10
6.96
 20
-10.037040908
 30
0.0
 11
6.96
 21
10.0370411076
 31
0.0
  0
LINE
  5
80
330
1F
100
AcDbEntity
  8
SK1
  6
Continuous
100
AcDbLine
 10
3.76
 20
-10.602726333
 30
0.0
 11
3.76
 21
-14.5999999002
 31
0.0
  0
SPLINE
  5
81
330
1F
100
AcDbEntity
  8
SK1
  6
Continuous
100
AcDbSpline
210
0.0
220
0.0
230
1.0
 70
     8
 71
     3
 72
    10
 73
     6
 74
     0
 42
0.0000000361111989
 43
0.0000000001
 12
1.0
 22
0.0
 32
0.0
 13
1.0
 23
0.0
 33
0.0
 40
0.0
 40
0.0
 40
0.0
 40
0.0
 40
0.5
 40
0.5
 40
1.0
 40
1.0
 40
1.0
 40
1.0
 10
7.159999999998676
 20
-10.17851465225229
 30
0.0
 10
7.159999999998679
 20
-10.1416357067984
 30
0.0
 10
7.1381801413522
 20
-10.10442942173493
 30
0.0
 10
7.064388544614083
 20
-10.0523324406374
 30
0.0
 10
7.012186423675482
 20
-10.03704090802979
 30
0.0
 10
6.959999999998566
 20
-10.03704090802909
 30
0.0
  0
LINE
  5
82
330
1F
100
AcDbEntity
  8
SK1
  6
Continuous
100
AcDbLine
 10
6.96
 20
-10.037040908
 30
0.0
 11
3.76
 21
-10.037040908
 31
0.0
  0
SPLINE
  5
83
330
1F
100
AcDbEntity
  8
SK1
  6
Continuous
100
AcDbSpline
210
0.0
220
0.0
230
1.0
 70
     8
 71
     3
 72
    10
 73
     6
 74
     0
 42
0.0000000361111602
 43
0.0000000001
 12
1.0
 22
0.0
 32
0.0
 13
1.0
 23
0.0
 33
0.0
 40
0.0
 40
0.0
 40
0.0
 40
0.0
 40
0.5
 40
0.5
 40
1.0
 40
1.0
 40
1.0
 40
1.0
 10
3.759999999998674
 20
-10.03704090802982
 30
0.0
 10
3.70785958876412
 20
-10.03704090802982
 30
0.0
 10
3.655643858536924
 20
-10.05230918838445
 30
0.0
 10
3.581785416291528
 20
-10.10445411367658
 30
0.0
 10
3.559999999999114
 20
-10.14166313258579
 30
0.0
 10
3.559999999988656
 20
-10.17851465225134
 30
0.0
  0
SPLINE
  5
84
330
1F
100
AcDbEntity
  8
SK1
  6
Continuous
100
AcDbSpline
210
0.0
220
0.0
230
1.0
 70
     8
 71
     3
 72
    10
 73
     6
 74
     0
 42
0.0000000145018823
 43
0.0000000001
 12
1.0
 22
0.0
 32
0.0
 13
1.0
 23
0.0
 33
0.0
 40
0.0
 40
0.0
 40
0.0
 40
0.0
 40
0.5
 40
0.5
 40
1.0
 40
1.0
 40
1.0
 40
1.0
 10
3.047372104566478
 20
-11.33003151924524
 30
0.0
 10
3.173819526775081
 20
-11.34260125902232
 30
0.0
 10
3.309218523066062
 20
-11.31416267420028
 30
0.0
 10
3.501666558320248
 20
-11.1956813499699
 30
0.0
 10
3.559999999998675
 20
-11.10597680309656
 30
0.0
 10
3.559999999998675
 20
-11.01483409532986
 30
0.0
  0
LINE
  5
85
330
1F
100
AcDbEntity
  8
SK1
  6
Continuous
100
AcDbLine
 10
7.16
 20
-11.2890390572
 30
0.0
 11
7.6882754963
 21
-11.2890390572
 31
0.0
  0
SPLINE
  5
86
330
1F
100
AcDbEntity
  8
SK1
  6
Continuous
100
AcDbSpline
210
0.0
220
0.0
230
1.0
 70
     8
 71
     3
 72
     8
 73
     4
 74
     0
 42
0.0000000019100992
 43
0.0000000001
 12
1.0
 22
0.0
 32
0.0
 13
1.0
 23
0.0
 33
0.0
 40
0.0
 40
0.0
 40
0.0
 40
0.0
 40
1.0
 40
1.0
 40
1.0
 40
1.0
 10
7.688275496307185
 20
-11.28903905718283
 30
0.0
 10
9.303875223192758
 20
-10.62927624009804
 30
0.0
 10
10.91945520303335
 20
-9.969489232280837
 30
0.0
 10
12.53499999999867
 20
-9.309659185198061
 30
0.0
  0
SPLINE
  5
87
330
1F
100
AcDbEntity
  8
SK1
  6
Continuous
100
AcDbSpline
210
0.0
220
0.0
230
1.0
 70
     8
 71
     3
 72
    10
 73
     6
 74
     0
 42
0.0000000470063896
 43
0.0000000001
 12
1.0
 22
0.0
 32
0.0
 13
1.0
 23
0.0
 33
0.0
 40
0.0
 40
0.0
 40
0.0
 40
0.0
 40
0.5
 40
0.5
 40
1.0
 40
1.0
 40
1.0
 40
1.0
 10
12.53499999999867
 20
-9.309659185198061
 30
0.0
 10
12.57278451834379
 20
-9.294227016083656
 30
0.0
 10
12.60478782473999
 20
-9.271593589023542
 30
0.0
 10
12.64845197751668
 20
-9.217980078954882
 30
0.0
 10
12.65999999999872
 20
-9.187253427218439
 30
0.0
 10
12.66000000000022
 20
-9.15649846079522
 30
0.0
  0
SPLINE
  5
88
330
1F
100
AcDbEntity
  8
SK3
100
AcDbSpline
210
0.0
220
0.0
230
1.0
 70
     8
 71
     3
 72
    10
 73
     6
 74
     0
 42
0.0000000180108806
 43
0.0000000001
 12
1.0
 22
0.0
 32
0.0
 13
1.0
 23
0.0
 33
0.0
 40
0.0
 40
0.0
 40
0.0
 40
0.0
 40
0.5
 40
0.5
 40
1.0
 40
1.0
 40
1.0
 40
1.0
 10
12.65999999999867
 20
-2.229190726543518
 30
0.0
 10
12.65999999999867
 20
-2.155286969951582
 30
0.0
 10
12.61698553091212
 20
-2.080709302429821
 30
0.0
 10
12.46909586898615
 20
-1.975207429414354
 30
0.0
 10
12.36452066408065
 20
-1.944333090102777
 30
0.0
 10
12.25999999999867
 20
-1.944333090102758
 30
0.0
  0
LINE
  5
89
330
1F
100
AcDbEntity
  8
SK3
100
AcDbLine
 10
12.26
 20
-1.9443330901
 30
0.0
 11
-15.1887523874
 21
-1.9443330901
 31
0.0
  0
SPLINE
  5
8A
330
1F
100
AcDbEntity
  8
SK1
  6
Continuous
100
AcDbSpline
210
0.0
220
0.0
230
1.0
 70
     8
 71
     3
 72
    10
 73
     6
 74
     0
 42
0.0000000145018823
 43
0.0000000001
 12
1.0
 22
0.0
 32
0.0
 13
1.0
 23
0.0
 33
0.0
 40
0.0
 40
0.0
 40
0.0
 40
0.0
 40
0.5000000000000001
 40
0.5000000000000001
 40
1.0
 40
1.0
 40
1.0
 40
1.0
 10
3.047372104566478
 20
-11.89571694419448
 30
0.0
 10
3.17381952677508
 20
-11.90828668397156
 30
0.0
 10
3.309218523066064
 20
-11.87984809914952
 30
0.0
 10
3.501666558320252
 20
-11.76136677491914
 30
0.0
 10
3.559999999998675
 20
-11.67166222804579
 30
0.0
 10
3.559999999998675
 20
-11.5805195202791
 30
0.0
  0
LINE
  5
8B
330
1F
100
AcDbEntity
  8
SK1
  6
Continuous
100
AcDbLine
 10
7.16
 20
-11.8547244821
 30
0.0
 11
7.6882754963
 21
-11.8547244821
 31
0.0
  0
SPLINE
  5
8C
330
1F
100
AcDbEntity
  8
SK1
  6
Continuous
100
AcDbSpline
210
0.0
220
0.0
230
1.0
 70
     8
 71
     3
 72
     8
 73
     4
 74
     0
 42
0.0000000019100992
 43
0.0000000001
 12
1.0
 22
0.0
 32
0.0
 13
1.0
 23
0.0
 33
0.0
 40
0.0
 40
0.0
 40
0.0
 40
0.0
 40
1.0
 40
1.0
 40
1.0
 40
1.0
 10
7.688275496307185
 20
-11.85472448213207
 30
0.0
 10
9.303875223192758
 20
-11.19496166504728
 30
0.0
 10
10.91945520303335
 20
-10.53517465723007
 30
0.0
 10
12.53499999999867
 20
-9.8753446101473
 30
0.0
  0
SPLINE
  5
8D
330
1F
100
AcDbEntity
  8
SK1
  6
Continuous
100
AcDbSpline
210
0.0
220
0.0
230
1.0
 70
     8
 71
     3
 72
    10
 73
     6
 74
     0
 42
0.0000000470063896
 43
0.0000000001
 12
1.0
 22
0.0
 32
0.0
 13
1.0
 23
0.0
 33
0.0
 40
0.0
 40
0.0
 40
0.0
 40
0.0
 40
0.5
 40
0.5
 40
1.0
 40
1.0
 40
1.0
 40
1.0
 10
12.53499999999867
 20
-9.8753446101473
 30
0.0
 10
12.57278451834379
 20
-9.859912441032895
 30
0.0
 10
12.60478782473999
 20
-9.83727901397278
 30
0.0
 10
12.64845197751668
 20
-9.783665503904121
 30
0.0
 10
12.65999999999872
 20
-9.752938852167677
 30
0.0
 10
12.66000000000022
 20
-9.722183885744457
 30
0.0
  0
LINE
  5
8E
330
1F
100
AcDbEntity
  8
SK1
  6
Continuous
100
AcDbLine
 10
12.66
 20
-9.7221838857
 30
0.0
 11
12.66
 21
-9.1564984608
 31
0.0
  0
SPLINE
  5
8F
330
1F
100
AcDbEntity
  8
SK3
100
AcDbSpline
210
0.0
220
0.0
230
1.0
 70
     8
 71
     3
 72
    10
 73
     6
 74
     0
 42
0.0000000180108806
 43
0.0000000001
 12
1.0
 22
0.0
 32
0.0
 13
1.0
 23
0.0
 33
0.0
 40
0.0
 40
0.0
 40
0.0
 40
0.0
 40
0.5
 40
0.5
 40
1.0
 40
1.0
 40
1.0
 40
1.0
 10
12.65999999999867
 20
-2.794876151492756
 30
0.0
 10
12.65999999999867
 20
-2.720972394900821
 30
0.0
 10
12.61698553091212
 20
-2.646394727379061
 30
0.0
 10
12.46909586898615
 20
-2.540892854363593
 30
0.0
 10
12.36452066408065
 20
-2.510018515052016
 30
0.0
 10
12.25999999999867
 20
-2.510018515051997
 30
0.0
  0
LINE
  5
90
330
1F
100
AcDbEntity
  8
SK3
100
AcDbLine
 10
12.26
 20
-2.5100185151
 30
0.0
 11
-15.1887523874
 21
-2.5100185151
 31
0.0
  0
LINE
  5
91
330
1F
100
AcDbEntity
  8
SK1
  6
Continuous
100
AcDbLine
 10
7.16
 20
-11.8547244821
 30
0.0
 11
7.16
 21
-11.2890390572
 31
0.0
  0
SPLINE
  5
92
330
1F
100
AcDbEntity
  8
SK1
  6
Continuous
100
AcDbSpline
210
0.0
220
0.0
230
1.0
 70
     8
 71
     3
 72
    10
 73
     6
 74
     0
 42
0.0000000361111989
 43
0.0000000001
 12
1.0
 22
0.0
 32
0.0
 13
1.0
 23
0.0
 33
0.0
 40
0.0
 40
0.0
 40
0.0
 40
0.0
 40
0.5
 40
0.5
 40
1.0
 40
1.0
 40
1.0
 40
1.0
 10
7.159999999998676
 20
-10.74420007720153
 30
0.0
 10
7.159999999998679
 20
-10.70732113174764
 30
0.0
 10
7.1381801413522
 20
-10.67011484668417
 30
0.0
 10
7.064388544614083
 20
-10.61801786558664
 30
0.0
 10
7.012186423675482
 20
-10.60272633297902
 30
0.0
 10
6.959999999998566
 20
-10.60272633297833
 30
0.0
  0
LINE
  5
93
330
1F
100
AcDbEntity
  8
SK1
  6
Continuous
100
AcDbLine
 10
6.96
 20
-10.602726333
 30
0.0
 11
3.76
 21
-10.602726333
 31
0.0
  0
SPLINE
  5
94
330
1F
100
AcDbEntity
  8
SK1
  6
Continuous
100
AcDbSpline
210
0.0
220
0.0
230
1.0
 70
     8
 71
     3
 72
    10
 73
     6
 74
     0
 42
0.0000000361111602
 43
0.0000000001
 12
1.0
 22
0.0
 32
0.0
 13
1.0
 23
0.0
 33
0.0
 40
0.0
 40
0.0
 40
0.0
 40
0.0
 40
0.5
 40
0.5
 40
1.0
 40
1.0
 40
1.0
 40
1.0
 10
3.759999999998674
 20
-10.60272633297906
 30
0.0
 10
3.70785958876412
 20
-10.60272633297905
 30
0.0
 10
3.655643858536924
 20
-10.61799461333369
 30
0.0
 10
3.581785416291528
 20
-10.67013953862581
 30
0.0
 10
3.559999999999114
 20
-10.70734855753503
 30
0.0
 10
3.559999999988656
 20
-10.74420007720057
 30
0.0
  0
LINE
  5
95
330
1F
100
AcDbEntity
  8
SK1
  6
Continuous
100
AcDbLine
 10
3.56
 20
-11.0148340953
 30
0.0
 11
3.56
 21
-11.5805195203
 31
0.0
  0
LINE
  5
96
330
1F
100
AcDbEntity
  8
SK3
100
AcDbLine
 10
-26.34
 20
0.4000000998
 30
0.0
 11
-26.34
 21
7.4893258371
 31
0.0
  0
LINE
  5
97
330
1F
100
AcDbEntity
  8
SK1
  6
Continuous
100
AcDbLine
 10
-27.0817519303
 20
-0.3999999002
 30
0.0
 11
-27.0817519303
 21
-12.1870199131
 31
0.0
  0
LINE
  5
98
330
1F
100
AcDbEntity
  8
SK1
  6
Continuous
100
AcDbLine
 10
-27.34
 20
0.4000000998
 30
0.0
 11
-27.34
 21
11.8897757188
 31
0.0
  0
LINE
  5
99
330
1F
100
AcDbEntity
  8
SK3
100
AcDbLine
 10
-18.04
 20
0.4000000998
 30
0.0
 11
-18.04
 21
7.4893258371
 31
0.0
  0
LINE
  5
9A
330
1F
100
AcDbEntity
  8
SK3
100
AcDbLine
 10
-17.34
 20
0.4000000998
 30
0.0
 11
-17.34
 21
7.0845717528
 31
0.0
  0
LINE
  5
9B
330
1F
100
AcDbEntity
  8
SK3
100
AcDbLine
 10
-16.7337822174
 20
0.4000000998
 30
0.0
 11
-16.7337822174
 21
3.1497024667
 31
0.0
  0
LINE
  5
9C
330
1F
100
AcDbEntity
  8
SK1
  6
Continuous
100
AcDbLine
 10
-27.34
 20
0.4000000998
 30
0.0
 11
-27.0817519303
 21
0.4000000998
 31
0.0
  0
LINE
  5
9D
330
1F
100
AcDbEntity
  8
SK1
  6
Continuous
100
AcDbLine
 10
-27.0817519303
 20
0.4000000998
 30
0.0
 11
-3.2360178432
 21
0.4000000998
 31
0.0
  0
LINE
  5
9E
330
1F
100
AcDbEntity
  8
SK1
  6
Continuous
100
AcDbLine
 10
-27.34
 20
-0.3999999002
 30
0.0
 11
-27.0817519303
 21
-0.3999999002
 31
0.0
  0
LINE
  5
9F
330
1F
100
AcDbEntity
  8
SK1
  6
Continuous
100
AcDbLine
 10
-27.0817519303
 20
-0.3999999002
 30
0.0
 11
-3.2360178432
 21
-0.3999999002
 31
0.0
  0
SPLINE
  5
A0
330
1F
100
AcDbEntity
  8
SK3
100
AcDbSpline
210
0.0
220
0.0
230
1.0
 70
     8
 71
     3
 72
     8
 73
     4
 74
     0
 42
0.000000187406254
 43
0.0000000001
 12
1.0
 22
0.0
 32
0.0
 13
1.0
 23
0.0
 33
0.0
 40
0.0
 40
0.0
 40
0.0
 40
0.0
 40
0.9999999999999999
 40
0.9999999999999999
 40
0.9999999999999999
 40
0.9999999999999999
 10
-14.34000000000145
 20
-9.888406737002255
 30
0.0
 10
-14.34000000000145
 20
-9.905762753239992
 30
0.0
 10
-14.33757746468264
 20
-9.923446989836687
 30
0.0
 10
-14.332865389774
 20
-9.940979413700322
 30
0.0
  0
LINE
  5
A1
330
1F
100
AcDbEntity
  8
SK3
100
AcDbLine
 10
-15.1887523874
 20
1.9443332896
 30
0.0
 11
12.26
 21
1.9443332896
 31
0.0
  0
SPLINE
  5
A2
330
1F
100
AcDbEntity
  8
SK3
100
AcDbSpline
210
0.0
220
0.0
230
1.0
 70
     8
 71
     3
 72
    35
 73
    31
 74
     0
 42
0.0000000092206436
 43
0.0000000001
 12
1.0
 22
0.0
 32
0.0
 13
1.0
 23
0.0
 33
0.0
 40
0.0
 40
0.0
 40
0.0
 40
0.0
 40
0.1067621460927543
 40
0.1067621460927543
 40
0.1067621460927543
 40
0.2135073407065994
 40
0.2135073407065994
 40
0.2135073407065994
 40
0.3205421569454811
 40
0.3205421569454811
 40
0.3205421569454811
 40
0.4280766630876548
 40
0.4280766630876548
 40
0.4280766630876548
 40
0.4999894404968614
 40
0.4999894404968614
 40
0.4999894404968614
 40
0.6072487862713052
 40
0.6072487862713052
 40
0.6072487862713052
 40
0.7144906991799927
 40
0.7144906991799927
 40
0.7144906991799927
 40
0.8219839454328902
 40
0.8219839454328902
 40
0.8219839454328902
 40
0.9294460557810811
 40
0.9294460557810811
 40
0.9294460557810811
 40
1.0
 40
1.0
 40
1.0
 40
1.0
 10
-15.18875238739996
 20
2.510018714593401
 30
0.0
 10
-15.23324196134446
 20
2.510018714593401
 30
0.0
 10
-15.27834610239186
 20
2.505330234453089
 30
0.0
 10
-15.3203235007628
 20
2.496222539633625
 30
0.0
 10
-15.36229757804086
 20
2.487115565380503
 30
0.0
 10
-15.40229900925202
 20
2.4733326067707
 30
0.0
 10
-15.43705995311481
 20
2.455736295344535
 30
0.0
 10
-15.47191556660577
 20
2.438092061276615
 30
0.0
 10
-15.50246327645573
 20
2.416115488741736
 30
0.0
 10
-15.52622811040374
 20
2.391282350094973
 30
0.0
 10
-15.55010009869246
 20
2.366337240179863
 30
0.0
 10
-15.56778527759842
 20
2.337804878835942
 30
0.0
 10
-15.57782410165336
 20
2.307813901484192
 30
0.0
 10
-15.58459043907532
 20
2.28759947484757
 30
0.0
 10
-15.58803986822188
 20
2.266419872549032
 30
0.0
 10
-15.58803986822188
 20
2.245064130037987
 30
0.0
 10
-15.58803986822188
 20
2.213460262857132
 30
0.0
 10
-15.58037018653685
 20
2.18071710058381
 30
0.0
 10
-15.56566727473857
 20
2.149655652702007
 30
0.0
 10
-15.55096573677259
 20
2.118597107185466
 30
0.0
 10
-15.52883048626733
 20
2.088373134042267
 30
0.0
 10
-15.50106964583648
 20
2.061739429432469
 30
0.0
 10
-15.47324583164139
 20
2.035045307896917
 30
0.0
 10
-15.43899933472777
 20
2.011234933845262
 30
0.0
 10
-15.40113323155642
 20
1.992607352433597
 30
0.0
 10
-15.36328182405498
 20
1.973987000305235
 30
0.0
 10
-15.32075896980116
 20
1.960047016960656
 30
0.0
 10
-15.27710675177277
 20
1.952190945342932
 30
0.0
 10
-15.2482119099275
 20
1.946990752611108
 30
0.0
 10
-15.21839006188745
 20
1.944333289644163
 30
0.0
 10
-15.18875238739996
 20
1.944333289644163
 30
0.0
  0
SPLINE
  5
A3
330
1F
100
AcDbEntity
  8
SK1
  6
Continuous
100
AcDbSpline
210
0.0
220
0.0
230
1.0
 70
     8
 71
     3
 72
    35
 73
    31
 74
     0
 42
0.0000000089493337
 43
0.0000000001
 12
1.0
 22
0.0
 32
0.0
 13
1.0
 23
0.0
 33
0.0
 40
0.0
 40
0.0
 40
0.0
 40
0.0
 40
0.1148284554759609
 40
0.1148284554759609
 40
0.1148284554759609
 40
0.2298779740425053
 40
0.2298779740425053
 40
0.2298779740425053
 40
0.341307498172685
 40
0.341307498172685
 40
0.341307498172685
 40
0.4471733591607827
 40
0.4471733591607827
 40
0.4471733591607827
 40
0.500248899249582
 40
0.500248899249582
 40
0.500248899249582
 40
0.6013501018764212
 40
0.6013501018764212
 40
0.6013501018764212
 40
0.7023352050240306
 40
0.7023352050240306
 40
0.7023352050240306
 40
0.8051234678914656
 40
0.8051234678914656
 40
0.8051234678914656
 40
0.9123533748968523
 40
0.9123533748968523
 40
0.9123533748968523
 40
1.0
 40
1.0
 40
1.0
 40
1.0
 10
-13.92269577318351
 20
9.643005759145023
 30
0.0
 10
-13.9712917213726
 20
9.638174460961555
 30
0.0
 10
-14.02060061408504
 20
9.639309830943333
 30
0.0
 10
-14.06655543435759
 20
9.64644985900001
 30
0.0
 10
-14.11256040122571
 20
9.653597678363388
 30
0.0
 10
-14.15651062250241
 20
9.666996246536804
 30
0.0
 10
-14.19431006841483
 20
9.685660434950483
 30
0.0
 10
-14.23091778340574
 20
9.703736183774096
 30
0.0
 10
-14.26281392333189
 20
9.727303710841523
 30
0.0
 10
-14.2867679710834
 20
9.75432978344916
 30
0.0
 10
-14.30954348940371
 20
9.780026184248998
 30
0.0
 10
-14.32578975990253
 20
9.809600597540287
 30
0.0
 10
-14.33384361977577
 20
9.840424734848812
 30
0.0
 10
-14.3379285339607
 20
9.856058723732593
 30
0.0
 10
-14.34000000000144
 20
9.87218268141329
 30
0.0
 10
-14.34000000000144
 20
9.888406936543658
 30
0.0
 10
-14.34000000000144
 20
9.918989330887502
 30
0.0
 10
-14.33247835226811
 20
9.950590805489886
 30
0.0
 10
-14.31816267240345
 20
9.980585113854259
 30
0.0
 10
-14.30385615265106
 20
10.01056022989004
 30
0.0
 10
-14.28239974035617
 20
10.03974377317099
 30
0.0
 10
-14.25572747545533
 20
10.06592711153555
 30
0.0
 10
-14.22857114731324
 20
10.09258563982802
 30
0.0
 10
-14.19532143940651
 20
10.11684234572125
 30
0.0
 10
-14.15873259617331
 20
10.13706301816577
 30
0.0
 10
-14.12057376229855
 20
10.15815133942613
 30
0.0
 10
-14.0778080769792
 20
10.17540959728412
 30
0.0
 10
-14.03379497547569
 20
10.18776802576188
 30
0.0
 10
-13.99765565899866
 20
10.19791557598352
 30
0.0
 10
-13.96001334616202
 20
10.2049811562162
 30
0.0
 10
-13.92269577318351
 20
10.20869118409426
 30
0.0
  0
LINE
  5
A4
330
1F
100
AcDbEntity
  8
SK3
100
AcDbLine
 10
-15.1887523874
 20
2.5100187146
 30
0.0
 11
12.26
 21
2.5100187146
 31
0.0
  0
ELLIPSE
  5
A5
330
1F
100
AcDbEntity
  8
SK1
  6
Continuous
100
AcDbEllipse
 10
59.3447258303
 20
0.2828428121
 30
0.0
 11
-74.60000000155389
 21
2.504450034295581E-10
 31
0.0
210
0.0
220
0.0
230
1.0
 40
0.7071067812
 41
-0.1892956260037346
 42
-0.1784791172209719
  0
LINE
  5
A6
330
1F
100
AcDbEntity
  8
SK3
100
AcDbLine
 10
-1.666069176
 20
-3.1497022671
 30
0.0
 11
-16.7337822174
 21
-3.1497022671
 31
0.0
  0
ARC
  5
A7
330
1F
100
AcDbEntity
  8
SK3
100
AcDbCircle
 10
-1.6667433874
 20
-6.3240875991
 30
0.0
 40
3.174385403624622
100
AcDbArc
 50
82.7616895719
 51
89.9878308822
  0
SPLINE
  5
A8
330
1F
100
AcDbEntity
  8
SK1
  6
Continuous
100
AcDbSpline
210
0.0
220
0.0
230
1.0
 70
     8
 71
     3
 72
    20
 73
    16
 74
     0
 42
0.000000024958192
 43
0.0000000001
 12
1.0
 22
0.0
 32
0.0
 13
1.0
 23
0.0
 33
0.0
 40
0.0
 40
0.0
 40
0.0
 40
0.0
 40
0.2153888090632512
 40
0.2153888090632512
 40
0.2153888090632512
 40
0.4308008339901085
 40
0.4308008339901085
 40
0.4308008339901085
 40
0.6458776651971954
 40
0.6458776651971954
 40
0.6458776651971954
 40
0.860623823690998
 40
0.860623823690998
 40
0.860623823690998
 40
1.0
 40
1.0
 40
1.0
 40
1.0
 10
-3.23601784322995
 20
-15.53973463932854
 30
0.0
 10
-3.191552080076239
 20
-15.54598596474445
 30
0.0
 10
-3.146500598469622
 20
-15.55252393158893
 30
0.0
 10
-3.10458814680985
 20
-15.55877630690315
 30
0.0
 10
-3.06267299968723
 20
-15.56502908431853
 30
0.0
 10
-3.022740507465443
 20
-15.57116596980694
 30
0.0
 10
-2.988103089160322
 20
-15.57659716101642
 30
0.0
 10
-2.953519018758648
 20
-15.58201998720685
 30
0.0
 10
-2.923257726229658
 20
-15.58688472932101
 30
0.0
 10
-2.899824544706308
 20
-15.59069462633691
 30
0.0
 10
-2.876426688813906
 20
-15.59449877991521
 30
0.0
 10
-2.859189375479876
 20
-15.59735238810106
 30
0.0
 10
-2.849534550172785
 20
-15.59895395841825
 30
0.0
 10
-2.843216483237872
 20
-15.60000201761592
 30
0.0
 10
-2.840000000001332
 20
-15.60053855813399
 30
0.0
 10
-2.840000000001332
 20
-15.60053855813399
 30
0.0
  0
SPLINE
  5
A9
330
1F
100
AcDbEntity
  8
SK1
  6
Continuous
100
AcDbSpline
210
0.0
220
0.0
230
1.0
 70
     8
 71
     3
 72
    20
 73
    16
 74
     0
 42
0.000000024958201
 43
0.0000000001
 12
1.0
 22
0.0
 32
0.0
 13
1.0
 23
0.0
 33
0.0
 40
0.0
 40
0.0
 40
0.0
 40
0.0
 40
0.2145642722129454
 40
0.2145642722129454
 40
0.2145642722129454
 40
0.4291251465847268
 40
0.4291251465847268
 40
0.4291251465847268
 40
0.6437412054142696
 40
0.6437412054142696
 40
0.6437412054142696
 40
0.85855701702796
 40
0.85855701702796
 40
0.85855701702796
 40
1.0
 40
1.0
 40
1.0
 40
1.0
 10
-2.840000000001333
 20
15.60053875767539
 30
0.0
 10
-2.840000000001333
 20
15.60053875767539
 30
0.0
 10
-2.847618398883556
 20
15.59926513663657
 30
0.0
 10
-2.862228103635314
 20
15.5968537978466
 30
0.0
 10
-2.876837681750651
 20
15.59444247995804
 30
0.0
 10
-2.898841606542244
 20
15.59082973206399
 30
0.0
 10
-2.926427224157598
 20
15.5863928077071
 30
0.0
 10
-2.954020231882555
 20
15.58195469471063
 30
0.0
 10
-2.987958177095773
 20
15.57657408207321
 30
0.0
 10
-3.025443169612757
 20
15.57078804110887
 30
0.0
 10
-3.062963311995916
 20
15.56499657454479
 30
0.0
 10
-3.105069291051469
 20
15.55864366683671
 30
0.0
 10
-3.148290075058379
 20
15.55231963231697
 30
0.0
 10
-3.176977674628251
 20
15.54812208305596
 30
0.0
 10
-3.206581774013747
 20
15.54387317890021
 30
0.0
 10
-3.236017843229934
 20
15.53973483886994
 30
0.0
  0
ARC
  5
AA
330
1F
100
AcDbEntity
  8
SK3
100
AcDbCircle
 10
-1.6667433874
 20
6.3240877987
 30
0.0
 40
3.174385403624531
100
AcDbArc
 50
270.0121691178
 51
277.2383104281
  0
LINE
  5
AB
330
1F
100
AcDbEntity
  8
SK1
  6
Continuous
100
AcDbLine
 10
-3.2360178432
 20
15.5397348389
 30
0.0
 11
-27.0817519303
 21
12.1870201126
 31
0.0
  0
LINE
  5
AC
330
1F
100
AcDbEntity
  8
SK1
  6
Continuous
100
AcDbLine
 10
-13.9226957732
 20
-10.2086909846
 30
0.0
 11
3.0473721046
 21
-11.8957169442
 31
0.0
  0
ELLIPSE
  5
AD
330
1F
100
AcDbEntity
  8
SK1
  6
Continuous
100
AcDbEllipse
 10
59.3447258303
 20
-0.2828426126
 30
0.0
 11
-74.60000000155334
 21
-2.574493177509803E-10
 31
0.0
210
0.0
220
0.0
230
1.0
 40
0.7071067812
 41
0.1785218468286159
 42
0.1892956260036713
  0
SPLINE
  5
AE
330
1F
100
AcDbEntity
  8
SK1
  6
Continuous
100
AcDbSpline
210
0.0
220
0.0
230
1.0
 70
     8
 71
     3
 72
    35
 73
    31
 74
     0
 42
0.0000000089498001
 43
0.0000000001
 12
1.0
 22
0.0
 32
0.0
 13
1.0
 23
0.0
 33
0.0
 40
0.0
 40
0.0
 40
0.0
 40
0.0
 40
0.1148284554759617
 40
0.1148284554759617
 40
0.1148284554759617
 40
0.2298779740425048
 40
0.2298779740425048
 40
0.2298779740425048
 40
0.3413074981726959
 40
0.3413074981726959
 40
0.3413074981726959
 40
0.4471733591608021
 40
0.4471733591608021
 40
0.4471733591608021
 40
0.5002488992495807
 40
0.5002488992495807
 40
0.5002488992495807
 40
0.6013501018764263
 40
0.6013501018764263
 40
0.6013501018764263
 40
0.7023352050240376
 40
0.7023352050240376
 40
0.7023352050240376
 40
0.8051234678914675
 40
0.8051234678914675
 40
0.8051234678914675
 40
0.9123533748968599
 40
0.9123533748968599
 40
0.9123533748968599
 40
1.0
 40
1.0
 40
1.0
 40
1.0
 10
-13.92269577318352
 20
-10.20869098455285
 30
0.0
 10
-13.97129172137261
 20
-10.20385968636938
 30
0.0
 10
-14.02060061408504
 20
-10.19326393642848
 30
0.0
 10
-14.0665554343576
 20
-10.17759793637297
 30
0.0
 10
-14.11256040122571
 20
-10.16191484134105
 30
0.0
 10
-14.15651062250241
 20
-10.14067220482647
 30
0.0
 10
-14.19431006841483
 20
-10.11544607298782
 30
0.0
 10
-14.23091778340575
 20
-10.09101526395394
 30
0.0
 10
-14.26281392333189
 20
-10.06210397117515
 30
0.0
 10
-14.2867679710834
 20
-10.03112790108604
 30
0.0
 10
-14.30954348940371
 20
-10.00167584107831
 30
0.0
 10
-14.32578975990251
 20
-9.969491291854185
 30
0.0
 10
-14.33384361977575
 20
-9.937374925499148
 30
0.0
 10
-14.33792853396067
 20
-9.921085518611418
 30
0.0
 10
-14.34000000000144
 20
-9.90463099213264
 30
0.0
 10
-14.34000000000144
 20
-9.88840673700228
 30
0.0
 10
-14.34000000000144
 20
-9.857824342658434
 30
0.0
 10
-14.3324783522681
 20
-9.827418302460487
 30
0.0
 10
-14.31816267240344
 20
-9.79974216719271
 30
0.0
 10
-14.30385615265105
 20
-9.77208374093412
 30
0.0
 10
-14.28239974035617
 20
-9.746401603140908
 30
0.0
 10
-14.25572747545533
 20
-9.72469456029688
 30
0.0
 10
-14.22857114731324
 20
-9.70259356584972
 30
0.0
 10
-14.19532143940651
 20
-9.684025950984052
 30
0.0
 10
-14.15873259617331
 20
-9.67027901673739
 30
0.0
 10
-14.12057376229855
 20
-9.655942215301438
 30
0.0
 10
-14.0778080769792
 20
-9.646466456872
 30
0.0
 10
-14.03379497547569
 20
-9.642407649993425
 30
0.0
 10
-13.99765565899866
 20
-9.639074949018188
 30
0.0
 10
-13.96001334616202
 20
-9.63929553172555
 30
0.0
 10
-13.92269577318352
 20
-9.643005559603615
 30
0.0
  0
SPLINE
  5
AF
330
1F
100
AcDbEntity
  8
SK3
100
AcDbSpline
210
0.0
220
0.0
230
1.0
 70
     8
 71
     3
 72
    35
 73
    31
 74
     0
 42
0.0000000092199675
 43
0.0000000001
 12
1.0
 22
0.0
 32
0.0
 13
1.0
 23
0.0
 33
0.0
 40
0.0
 40
0.0
 40
0.0
 40
0.0
 40
0.1067621460927544
 40
0.1067621460927544
 40
0.1067621460927544
 40
0.2135073407065995
 40
0.2135073407065995
 40
0.2135073407065995
 40
0.3205421569454813
 40
0.3205421569454813
 40
0.3205421569454813
 40
0.428076663087655
 40
0.428076663087655
 40
0.428076663087655
 40
0.4999894404968617
 40
0.4999894404968617
 40
0.4999894404968617
 40
0.6072487862713063
 40
0.6072487862713063
 40
0.6072487862713063
 40
0.7144906991799975
 40
0.7144906991799975
 40
0.7144906991799975
 40
0.8219839454328869
 40
0.8219839454328869
 40
0.8219839454328869
 40
0.9294460557810812
 40
0.9294460557810812
 40
0.9294460557810812
 40
1.0
 40
1.0
 40
1.0
 40
1.0
 10
-15.18875238739996
 20
-1.944333090102758
 30
0.0
 10
-15.23324196134446
 20
-1.944333090102758
 30
0.0
 10
-15.27834610239186
 20
-1.950426298858087
 30
0.0
 10
-15.3203235007628
 20
-1.962013796898932
 30
0.0
 10
-15.36229757804086
 20
-1.973600378180789
 30
0.0
 10
-15.40229900925202
 20
-1.990985082396164
 30
0.0
 10
-15.43705995311481
 20
-2.012457288038671
 30
0.0
 10
-15.47191556660577
 20
-2.033987972119853
 30
0.0
 10
-15.50246327645573
 20
-2.060202915223067
 30
0.0
 10
-15.52622811040374
 20
-2.088634430079855
 30
0.0
 10
-15.55010009869246
 20
-2.117194141087151
 30
0.0
 10
-15.56778527759842
 20
-2.148767180419882
 30
0.0
 10
-15.57782410165336
 20
-2.180509119797216
 30
0.0
 10
-15.58459043907532
 20
-2.201903724491878
 30
0.0
 10
-15.58803986822188
 20
-2.223708187985538
 30
0.0
 10
-15.58803986822188
 20
-2.245063930496582
 30
0.0
 10
-15.58803986822188
 20
-2.276667797677437
 30
0.0
 10
-15.58037018653684
 20
-2.308003322148527
 30
0.0
 10
-15.56566727473856
 20
-2.336579880403649
 30
0.0
 10
-15.55096573677258
 20
-2.365153768480282
 30
0.0
 10
-15.52883048626732
 20
-2.391766954315857
 30
0.0
 10
-15.50106964583647
 20
-2.414509361077569
 30
0.0
 10
-15.47324583164138
 20
-2.437303357594476
 30
0.0
 10
-15.43899933472777
 20
-2.456853967420467
 30
0.0
 10
-15.40113323155643
 20
-2.471869908266773
 30
0.0
 10
-15.36328182405498
 20
-2.486880021491769
 30
0.0
 10
-15.32075896980116
 20
-2.497786984097252
 30
0.0
 10
-15.27710675177277
 20
-2.503912019786202
 30
0.0
 10
-15.2482119099275
 20
-2.507966382783605
 30
0.0
 10
-15.21839006188745
 20
-2.510018515051997
 30
0.0
 10
-15.18875238739996
 20
-2.510018515051997
 30
0.0
  0
SPLINE
  5
B0
330
1F
100
AcDbEntity
  8
SK3
100
AcDbSpline
210
0.0
220
0.0
230
1.0
 70
     8
 71
     3
 72
     8
 73
     4
 74
     0
 42
0.0000005481742517
 43
0.0000000001
 12
1.0
 22
0.0
 32
0.0
 13
1.0
 23
0.0
 33
0.0
 40
0.0
 40
0.0
 40
0.0
 40
0.0
 40
1.0
 40
1.0
 40
1.0
 40
1.0
 10
-14.32744242209831
 20
9.958313328744781
 30
0.0
 10
-14.32952736326163
 20
9.95252897447772
 30
0.0
 10
-14.3313566574809
 20
9.946726958050478
 30
0.0
 10
-14.33292049407634
 20
9.940923800092866
 30
0.0
  0
LINE
  5
B1
330
1F
100
AcDbEntity
  8
SK1
  6
Continuous
100
AcDbLine
 10
-13.9226957732
 20
-9.6430055596
 30
0.0
 11
3.0473721046
 21
-11.3300315192
 31
0.0
  0
LINE
  5
B2
330
1F
100
AcDbEntity
  8
SK3
100
AcDbLine
 10
-1.666069176
 20
0.4000000998
 30
0.0
 11
-3.2360178432
 21
0.4000000998
 31
0.0
  0
ARC
  5
B3
330
1F
100
AcDbEntity
  8
SK3
100
AcDbCircle
 10
-1.6667407276
 20
0.0000000998
 30
0.0
 40
0.4000005637266059
100
AcDbArc
 50
270.0961925961
 51
89.9038074039
  0
ARC
  5
B4
330
1F
100
AcDbEntity
  8
SK1
  6
Continuous
100
AcDbCircle
 10
-3.2399951518
 20
0.0000000998
 30
0.0
 40
0.400019773240287
100
AcDbArc
 50
270.5696887084
 51
89.4303112916
  0
LINE
  5
B5
330
1F
100
AcDbEntity
  8
SK3
100
AcDbLine
 10
-3.2360178432
 20
-0.3999999002
 30
0.0
 11
-1.666069176
 21
-0.3999999002
 31
0.0
  0
LINE
  5
B6
330
1F
100
AcDbEntity
  8
SK3
100
AcDbLine
 10
-1.2667816952
 20
-3.1749999002
 30
0.0
 11
12.26
 21
-3.1749999002
 31
0.0
  0
LINE
  5
B7
330
1F
100
AcDbEntity
  8
SK3
100
AcDbLine
 10
12.26
 20
3.1750000998
 30
0.0
 11
-1.2667816952
 21
3.1750000998
 31
0.0
  0
LINE
  5
B8
330
1F
100
AcDbEntity
  8
SK1
  6
Continuous
100
AcDbLine
 10
3.0473721046
 20
16.4279549475
 30
0.0
 11
-2.84
 21
15.6005387577
 31
0.0
  0
LINE
  5
B9
330
1F
100
AcDbEntity
  8
SK1
  6
Continuous
100
AcDbLine
 10
-2.84
 20
-15.6005385581
 30
0.0
 11
3.0473721046
 21
-16.4279547479
 31
0.0
  0
LINE
  5
BA
330
1F
100
AcDbEntity
  8
SK1
  6
Continuous
100
AcDbLine
 10
7.16
 20
-16.3699999002
 30
0.0
 11
7.6882754963
 21
-16.3699999002
 31
0.0
  0
ARC
  5
BB
330
1F
100
AcDbEntity
  8
SK3
100
AcDbCircle
 10
12.26
 20
-3.5749999002
 30
0.0
 40
0.4
100
AcDbArc
 50
0.0
 51
90.0
  0
ARC
  5
BC
330
1F
100
AcDbEntity
  8
SK1
  6
Continuous
100
AcDbCircle
 10
12.41
 20
-13.3552358524
 30
0.0
 40
0.2500000000000012
100
AcDbArc
 50
300.0
 51
0.0
  0
ARC
  5
BD
330
1F
100
AcDbEntity
  8
SK1
  6
Continuous
100
AcDbCircle
 10
3.11
 20
-15.982334117
 30
0.0
 40
0.4500000000000023
100
AcDbArc
 50
262.0
 51
0.0
  0
ARC
  5
BE
330
1F
100
AcDbEntity
  8
SK1
  6
Continuous
100
AcDbCircle
 10
6.96
 20
-14.7999999002
 30
0.0
 40
0.2000000000000015
100
AcDbArc
 50
0.0
 51
90.0
  0
ARC
  5
BF
330
1F
100
AcDbEntity
  8
SK1
  6
Continuous
100
AcDbCircle
 10
3.76
 20
-14.7999999002
 30
0.0
 40
0.1999999999999994
100
AcDbArc
 50
90.0
 51
180.0
  0
LINE
  5
C0
330
1F
100
AcDbEntity
  8
SK1
  6
Continuous
100
AcDbLine
 10
3.76
 20
-14.5999999002
 30
0.0
 11
6.96
 21
-14.5999999002
 31
0.0
  0
LINE
  5
C1
330
1F
100
AcDbEntity
  8
SK1
  6
Continuous
100
AcDbLine
 10
7.6882754963
 20
-16.3699999002
 30
0.0
 11
12.535
 21
-13.5717422033
 31
0.0
  0
LINE
  5
C2
330
1F
100
AcDbEntity
  8
SK1
  6
Continuous
100
AcDbLine
 10
7.6882754963
 20
16.3700000998
 30
0.0
 11
7.16
 21
16.3700000998
 31
0.0
  0
ARC
  5
C3
330
1F
100
AcDbEntity
  8
SK3
100
AcDbCircle
 10
12.26
 20
3.5750000998
 30
0.0
 40
0.3999999999999976
100
AcDbArc
 50
270.0
 51
360.0
  0
ARC
  5
C4
330
1F
100
AcDbEntity
  8
SK1
  6
Continuous
100
AcDbCircle
 10
12.41
 20
13.3552360519
 30
0.0
 40
0.2500000000000002
100
AcDbArc
 50
0.0
 51
60.0
  0
ARC
  5
C5
330
1F
100
AcDbEntity
  8
SK1
  6
Continuous
100
AcDbCircle
 10
3.11
 20
15.9823343165
 30
0.0
 40
0.45
100
AcDbArc
 50
0.0
 51
98.0
  0
ARC
  5
C6
330
1F
100
AcDbEntity
  8
SK1
  6
Continuous
100
AcDbCircle
 10
6.96
 20
14.8000000998
 30
0.0
 40
0.2000000000000005
100
AcDbArc
 50
270.0
 51
360.0
  0
ARC
  5
C7
330
1F
100
AcDbEntity
  8
SK1
  6
Continuous
100
AcDbCircle
 10
3.76
 20
14.8000000998
 30
0.0
 40
0.2000000000000015
100
AcDbArc
 50
180.0
 51
270.0
  0
LINE
  5
C8
330
1F
100
AcDbEntity
  8
SK1
  6
Continuous
100
AcDbLine
 10
6.96
 20
14.6000000998
 30
0.0
 11
3.76
 21
14.6000000998
 31
0.0
  0
LINE
  5
C9
330
1F
100
AcDbEntity
  8
SK1
  6
Continuous
100
AcDbLine
 10
12.535
 20
13.5717424029
 30
0.0
 11
7.6882754963
 21
16.3700000998
 31
0.0
  0
ARC
  5
CA
330
1F
100
AcDbEntity
  8
SK3
100
AcDbCircle
 10
22.765389272
 20
-0.0649635982
 30
0.0
 40
38.42324167680766
100
AcDbArc
 50
164.9040669485
 51
176.5355795801
  0
ARC
  5
CB
330
1F
100
AcDbEntity
  8
SK3
100
AcDbCircle
 10
-76.1995473922
 20
0.0000000998
 30
0.0
 40
75.00000000000001
100
AcDbArc
 50
347.994419162
 51
357.5737620277
  0
ARC
  5
CC
330
1F
100
AcDbEntity
  8
SK3
100
AcDbCircle
 10
-76.1995473922
 20
0.0000000998
 30
0.0
 40
75.00000000000001
100
AcDbArc
 50
2.4262355039
 51
12.0055799338
  0
ARC
  5
CD
330
1F
100
AcDbEntity
  8
SK3
100
AcDbCircle
 10
22.8002907186
 20
0.0659194595
 30
0.0
 40
38.45782839024033
100
AcDbArc
 50
183.4626480029
 51
195.0821814539
  0
LINE
  5
CE
330
1F
100
AcDbEntity
  8
SK1
  6
Continuous
100
AcDbLine
 10
0.0
 20
15.9996747282
 30
0.0
 11
0.0
 21
-15.9996745287
 31
0.0
  0
LINE
  5
D0
330
1F
100
AcDbEntity
  8
SK4
  6
Continuous
100
AcDbLine
 10
12.66
 20
0.0000000998
 30
0.0
 11
-27.34
 21
0.0000000998
 31
0.0
  0
DIMENSION
  5
E6
330
1F
100
AcDbEntity
  8
SK2
  6
Continuous
 62
   136
100
AcDbDimension
  2
DMBLK45
 10
12.66
 20
26.9235851869
 30
0.0
 11
-7.340000447
 21
26.9235851869
 31
0.0
 70
   160
  1
\A1;<>
 71
     5
 42
-1.0
  3
DIN
100
AcDbAlignedDimension
 13
-27.34
 23
11.8897757188
 33
0.0
 14
12.66
 24
11.5387100686
 34
0.0
100
AcDbRotatedDimension
  0
INSERT
  5
FA
330
1F
100
AcDbEntity
  8
SK2
 62
     7
100
AcDbBlockReference
  2
Nullpunkt
 10
0.0
 20
0.0000000998
 30
0.0
  0
INSERT
  5
105
330
1F
100
AcDbEntity
  8
SK2
 62
     7
100
AcDbBlockReference
  2
Einfügepunkt
 10
12.66
 20
0.0000000998
 30
0.0
  0
DIMENSION
  5
106
330
1F
100
AcDbEntity
  8
SK2
  6
Continuous
 62
   136
100
AcDbDimension
  2
DMBLK46
 10
22.6600000283
 20
3.1750000998
 30
0.0
 11
22.6600000283
 21
8.2509940475
 31
0.0
 70
   161
  1
\A1;ø <>
 71
     5
 42
-1.0
  3
DIN
100
AcDbAlignedDimension
 13
12.26
 23
3.1750000998
 33
0.0
 14
12.26
 24
-3.1749999002
 34
0.0
  0
DIMENSION
  5
111
330
1F
100
AcDbEntity
  8
SK2
  6
Continuous
 62
   136
100
AcDbDimension
  2
DMBLK47
 10
12.66
 20
-24.1243538557
 30
0.0
 11
6.329999771
 21
-24.1243538557
 31
0.0
 70
   160
  1
\A1;<>
 71
     5
 42
-1.0
  3
DIN
100
AcDbAlignedDimension
 13
0.0
 23
-15.9996745287
 33
0.0
 14
12.66
 24
-11.5387098691
 34
0.0
100
AcDbRotatedDimension
  0
DIMENSION
  5
11B
330
1F
100
AcDbEntity
  8
SK2
  6
Continuous
 62
   136
100
AcDbDimension
  2
DMBLK48
 10
-34.8694771528
 20
15.9996747282
 30
0.0
 11
-34.8694771528
 21
-0.0000000688
 31
0.0
 70
   161
  1
\A1;ø <>
 71
     5
 42
-1.0
  3
DIN
100
AcDbAlignedDimension
 13
0.0
 23
15.9996747282
 33
0.0
 14
0.0
 24
-15.9996745287
 34
0.0
  0
ENDSEC
  0
SECTION
  2
OBJECTS
  0
DICTIONARY
  5
C
330
0
100
AcDbDictionary
281
     1
  3
ACAD_GROUP
350
D
  3
ACAD_LAYOUT
350
1A
  3
ACAD_MATERIAL
350
3B
  3
ACAD_MLEADERSTYLE
350
128
  3
ACAD_MLINESTYLE
350
17
  3
ACAD_PLOTSETTINGS
350
19
  3
ACAD_PLOTSTYLENAME
350
E
  3
ACAD_VISUALSTYLE
350
2A
  3
AcDbVariableDictionary
350
126
  0
DICTIONARY
  5
D
102
{ACAD_REACTORS
330
C
102
}
330
C
100
AcDbDictionary
281
     1
  0
DICTIONARY
  5
1A
102
{ACAD_REACTORS
330
C
102
}
330
C
100
AcDbDictionary
281
     1
  3
Layout1
350
1E
  3
Model
350
22
  0
DICTIONARY
  5
3B
102
{ACAD_REACTORS
330
C
102
}
330
C
100
AcDbDictionary
281
     1
  3
ByBlock
350
3D
  3
ByLayer
350
3C
  3
Global
350
3E
  0
DICTIONARY
  5
128
102
{ACAD_REACTORS
330
C
102
}
330
C
100
AcDbDictionary
281
     1
  0
DICTIONARY
  5
17
102
{ACAD_REACTORS
330
C
102
}
330
C
100
AcDbDictionary
281
     1
  3
Standard
350
18
  0
DICTIONARY
  5
19
102
{ACAD_REACTORS
330
C
102
}
330
C
100
AcDbDictionary
281
     1
  0
ACDBDICTIONARYWDFLT
  5
E
102
{ACAD_REACTORS
330
C
102
}
330
C
100
AcDbDictionary
281
     1
  3
Normal
350
F
100
AcDbDictionaryWithDefault
340
F
  0
DICTIONARY
  5
2A
102
{ACAD_REACTORS
330
C
102
}
330
C
100
AcDbDictionary
281
     1
  3
2dWireframe
350
2F
  3
3D Hidden
350
31
  3
3dWireframe
350
30
  3
Basic
350
32
  3
Brighten
350
36
  3
ColorChange
350
3A
  3
Conceptual
350
34
  3
Dim
350
35
  3
Facepattern
350
39
  3
Flat
350
2B
  3
FlatWithEdges
350
2C
  3
Gouraud
350
2D
  3
GouraudWithEdges
350
2E
  3
Linepattern
350
38
  3
Realistic
350
33
  3
Thicken
350
37
  0
DICTIONARY
  5
126
102
{ACAD_REACTORS
330
C
102
}
330
C
100
AcDbDictionary
281
     1
  3
DIMASSOC
350
12B
  3
HIDETEXT
350
12C
  3
PSOLHEIGHT
350
12A
  3
PSOLWIDTH
350
129
  0
LAYOUT
  5
1E
102
{ACAD_REACTORS
330
1A
102
}
330
1A
100
AcDbPlotSettings
  1

  2
none_device
  4

  6

 40
0.0
 41
0.0
 42
0.0
 43
0.0
 44
0.0
 45
0.0
 46
0.0
 47
0.0
 48
0.0
 49
0.0
140
0.0
141
0.0
142
1.0
143
1.0
 70
   688
 72
     0
 73
     0
 74
     5
  7

 75
    16
147
1.0
148
0.0
149
0.0
100
AcDbLayout
  1
Layout1
 70
     1
 71
     1
 10
0.0
 20
0.0
 11
210.0
 21
297.0
 12
0.0
 22
0.0
 32
0.0
 14
0.0
 24
0.0
 34
0.0
 15
210.0
 25
297.0
 35
0.0
146
0.0
 13
0.0
 23
0.0
 33
0.0
 16
1.0
 26
0.0
 36
0.0
 17
0.0
 27
1.0
 37
0.0
 76
     0
330
1B
  0
LAYOUT
  5
22
102
{ACAD_REACTORS
330
1A
102
}
330
1A
100
AcDbPlotSettings
  1

  2
none_device
  4

  6

 40
0.0
 41
0.0
 42
0.0
 43
0.0
 44
0.0
 45
0.0
 46
0.0
 47
0.0
 48
0.0
 49
0.0
140
0.0
141
0.0
142
1.0
143
1.0
 70
  1712
 72
     0
 73
     0
 74
     0
  7

 75
     0
147
1.0
148
0.0
149
0.0
100
AcDbLayout
  1
Model
 70
     1
 71
     0
 10
0.0
 20
0.0
 11
210.0
 21
297.0
 12
0.0
 22
0.0
 32
0.0
 14
0.0
 24
0.0
 34
0.0
 15
210.0
 25
297.0
 35
0.0
146
0.0
 13
0.0
 23
0.0
 33
0.0
 16
1.0
 26
0.0
 36
0.0
 17
0.0
 27
1.0
 37
0.0
 76
     0
330
1F
331
29
  0
MATERIAL
  5
3D
102
{ACAD_REACTORS
330
3B
102
}
102
{ACAD_XDICTIONARY
360
14F
102
}
330
3B
100
AcDbMaterial
  1
ByBlock
  0
MATERIAL
  5
3C
102
{ACAD_REACTORS
330
3B
102
}
102
{ACAD_XDICTIONARY
360
14D
102
}
330
3B
100
AcDbMaterial
  1
ByLayer
  0
MATERIAL
  5
3E
102
{ACAD_REACTORS
330
3B
102
}
102
{ACAD_XDICTIONARY
360
151
102
}
330
3B
100
AcDbMaterial
  1
Global
  0
MLINESTYLE
  5
18
102
{ACAD_REACTORS
330
17
102
}
330
17
100
AcDbMlineStyle
  2
Standard
 70
     0
  3

 62
   256
 51
90.0
 52
90.0
 71
     2
 49
0.5
 62
   256
  6
BYLAYER
 49
-0.5
 62
   256
  6
BYLAYER
  0
ACDBPLACEHOLDER
  5
F
102
{ACAD_REACTORS
330
E
102
}
330
E
  0
VISUALSTYLE
  5
2F
102
{ACAD_REACTORS
330
2A
102
}
102
{ACAD_XDICTIONARY
360
135
102
}
330
2A
100
AcDbVisualStyle
  2
2dWireframe
 70
     4
 71
     0
 72
     2
 73
     0
 90
        0
 40
-0.6
 41
-30.0
 62
     5
 63
     7
 74
     1
 91
        4
 64
     7
 65
   257
 75
     1
175
     1
 42
1.0
 92
        0
 66
   257
 43
1.0
 76
     1
 77
     6
 78
     2
 67
     7
 79
     5
170
     0
171
     0
290
     0
174
     0
 93
        1
 44
0.0
173
     0
291
     0
 45
0.0
1001
ACAD
1000
AcDbSavedByObjectVersion
1070
     0
  0
VISUALSTYLE
  5
31
102
{ACAD_REACTORS
330
2A
102
}
102
{ACAD_XDICTIONARY
360
139
102
}
330
2A
100
AcDbVisualStyle
  2
3D Hidden
 70
     6
 71
     1
 72
     2
 73
     2
 90
        0
 40
-0.6
 41
-30.0
 62
     5
 63
     7
 74
     2
 91
        2
 64
     7
 65
   257
 75
     2
175
     1
 42
40.0
 92
        0
 66
   257
 43
1.0
 76
     1
 77
     6
 78
     2
 67
     7
 79
     3
170
     0
171
     0
290
     0
174
     0
 93
        1
 44
0.0
173
     0
291
     0
 45
0.0
1001
ACAD
1000
AcDbSavedByObjectVersion
1070
     0
  0
VISUALSTYLE
  5
30
102
{ACAD_REACTORS
330
2A
102
}
102
{ACAD_XDICTIONARY
360
137
102
}
330
2A
100
AcDbVisualStyle
  2
3dWireframe
 70
     5
 71
     0
 72
     2
 73
     0
 90
        0
 40
-0.6
 41
-30.0
 62
     5
 63
     7
 74
     1
 91
        4
 64
     7
 65
   257
 75
     1
175
     1
 42
1.0
 92
        0
 66
   257
 43
1.0
 76
     1
 77
     6
 78
     2
 67
     7
 79
     5
170
     0
171
     0
290
     0
174
     0
 93
        1
 44
0.0
173
     0
291
     0
 45
0.0
1001
ACAD
1000
AcDbSavedByObjectVersion
1070
     0
  0
VISUALSTYLE
  5
32
102
{ACAD_REACTORS
330
2A
102
}
102
{ACAD_XDICTIONARY
360
13B
102
}
330
2A
100
AcDbVisualStyle
  2
Basic
 70
     7
 71
     1
 72
     0
 73
     1
 90
        0
 40
-0.6
 41
-30.0
 62
     5
 63
     7
 74
     0
 91
        4
 64
     7
 65
   257
 75
     1
175
     1
 42
1.0
 92
        8
 66
     7
 43
1.0
 76
     1
 77
     6
 78
     2
 67
     7
 79
     5
170
     0
171
     0
290
     0
174
     0
 93
        1
 44
0.0
173
     0
291
     1
 45
0.0
1001
ACAD
1000
AcDbSavedByObjectVersion
1070
     0
  0
VISUALSTYLE
  5
36
102
{ACAD_REACTORS
330
2A
102
}
102
{ACAD_XDICTIONARY
360
143
102
}
330
2A
100
AcDbVisualStyle
  2
Brighten
 70
    12
 71
     2
 72
     2
 73
     0
 90
        0
 40
-0.6
 41
-30.0
 62
     5
 63
     7
 74
     1
 91
        4
 64
     7
 65
   257
 75
     1
175
     1
 42
1.0
 92
        8
 66
     7
 43
1.0
 76
     1
 77
     6
 78
     2
 67
     7
 79
     5
170
     0
171
     0
290
     0
174
     0
 93
        1
 44
50.0
173
     0
291
     1
 45
0.0
1001
ACAD
1000
AcDbSavedByObjectVersion
1070
     0
  0
VISUALSTYLE
  5
3A
102
{ACAD_REACTORS
330
2A
102
}
102
{ACAD_XDICTIONARY
360
14B
102
}
330
2A
100
AcDbVisualStyle
  2
ColorChange
 70
    16
 71
     2
 72
     2
 73
     3
 90
        0
 40
-0.6
 41
-30.0
 62
     5
 63
     8
 74
     1
 91
        4
 64
     7
 65
   257
 75
     1
175
     1
 42
1.0
 92
        8
 66
     8
 43
1.0
 76
     1
 77
     6
 78
     2
 67
     7
 79
     5
170
     0
171
     0
290
     0
174
     0
 93
        1
 44
0.0
173
     0
291
     1
 45
0.0
1001
ACAD
1000
AcDbSavedByObjectVersion
1070
     0
  0
VISUALSTYLE
  5
34
102
{ACAD_REACTORS
330
2A
102
}
102
{ACAD_XDICTIONARY
360
13F
102
}
330
2A
100
AcDbVisualStyle
  2
Conceptual
 70
     9
 71
     3
 72
     2
 73
     0
 90
        0
 40
-0.6
 41
-30.0
 62
     5
 63
     7
 74
     2
 91
        2
 64
     7
 65
   257
 75
     1
175
     1
 42
40.0
 92
        8
 66
     7
 43
1.0
 76
     1
 77
     6
 78
     2
 67
     7
 79
     3
170
     0
171
     0
290
     0
174
     0
 93
        1
 44
0.0
173
     0
291
     0
 45
0.0
1001
ACAD
1000
AcDbSavedByObjectVersion
1070
     0
  0
VISUALSTYLE
  5
35
102
{ACAD_REACTORS
330
2A
102
}
102
{ACAD_XDICTIONARY
360
141
102
}
330
2A
100
AcDbVisualStyle
  2
Dim
 70
    11
 71
     2
 72
     2
 73
     0
 90
        0
 40
-0.6
 41
-30.0
 62
     5
 63
     7
 74
     1
 91
        4
 64
     7
 65
   257
 75
     1
175
     1
 42
1.0
 92
        8
 66
     7
 43
1.0
 76
     1
 77
     6
 78
     2
 67
     7
 79
     5
170
     0
171
     0
290
     0
174
     0
 93
        1
 44
-50.0
173
     0
291
     1
 45
0.0
1001
ACAD
1000
AcDbSavedByObjectVersion
1070
     0
  0
VISUALSTYLE
  5
39
102
{ACAD_REACTORS
330
2A
102
}
102
{ACAD_XDICTIONARY
360
149
102
}
330
2A
100
AcDbVisualStyle
  2
Facepattern
 70
    15
 71
     2
 72
     2
 73
     0
 90
        0
 40
-0.6
 41
-30.0
 62
     5
 63
     7
 74
     1
 91
        4
 64
     7
 65
   257
 75
     1
175
     1
 42
1.0
 92
        8
 66
     7
 43
1.0
 76
     1
 77
     6
 78
     2
 67
     7
 79
     5
170
     0
171
     0
290
     0
174
     0
 93
        1
 44
0.0
173
     0
291
     1
 45
0.0
1001
ACAD
1000
AcDbSavedByObjectVersion
1070
     0
  0
VISUALSTYLE
  5
2B
102
{ACAD_REACTORS
330
2A
102
}
102
{ACAD_XDICTIONARY
360
12D
102
}
330
2A
100
AcDbVisualStyle
  2
Flat
 70
     0
 71
     2
 72
     1
 73
     1
 90
        2
 40
-0.6
 41
30.0
 62
     5
 63
     7
 74
     0
 91
        4
 64
     7
 65
   257
 75
     1
175
     1
 42
1.0
 92
        8
 66
     7
 43
1.0
 76
     1
 77
     6
 78
     2
 67
     7
 79
     5
170
     0
171
     0
290
     0
174
     0
 93
       13
 44
0.0
173
     0
291
     1
 45
0.0
1001
ACAD
1000
AcDbSavedByObjectVersion
1070
     0
  0
VISUALSTYLE
  5
2C
102
{ACAD_REACTORS
330
2A
102
}
102
{ACAD_XDICTIONARY
360
12F
102
}
330
2A
100
AcDbVisualStyle
  2
FlatWithEdges
 70
     1
 71
     2
 72
     1
 73
     1
 90
        2
 40
-0.6
 41
30.0
 62
     5
 63
     7
 74
     1
 91
        4
 64
     7
 65
   257
 75
     1
175
     1
 42
1.0
 92
        0
 66
   257
 43
1.0
 76
     1
 77
     6
 78
     2
 67
     7
 79
     5
170
     0
171
     0
290
     0
174
     0
 93
       13
 44
0.0
173
     0
291
     1
 45
0.0
1001
ACAD
1000
AcDbSavedByObjectVersion
1070
     0
  0
VISUALSTYLE
  5
2D
102
{ACAD_REACTORS
330
2A
102
}
102
{ACAD_XDICTIONARY
360
131
102
}
330
2A
100
AcDbVisualStyle
  2
Gouraud
 70
     2
 71
     2
 72
     2
 73
     1
 90
        2
 40
-0.6
 41
30.0
 62
     5
 63
     7
 74
     0
 91
        4
 64
     7
 65
   257
 75
     1
175
     1
 42
1.0
 92
        0
 66
     7
 43
1.0
 76
     1
 77
     6
 78
     2
 67
     7
 79
     5
170
     0
171
     0
290
     0
174
     0
 93
       13
 44
0.0
173
     0
291
     1
 45
0.0
1001
ACAD
1000
AcDbSavedByObjectVersion
1070
     0
  0
VISUALSTYLE
  5
2E
102
{ACAD_REACTORS
330
2A
102
}
102
{ACAD_XDICTIONARY
360
133
102
}
330
2A
100
AcDbVisualStyle
  2
GouraudWithEdges
 70
     3
 71
     2
 72
     2
 73
     1
 90
        2
 40
-0.6
 41
30.0
 62
     5
 63
     7
 74
     1
 91
        4
 64
     7
 65
   257
 75
     1
175
     1
 42
1.0
 92
        0
 66
   257
 43
1.0
 76
     1
 77
     6
 78
     2
 67
     7
 79
     5
170
     0
171
     0
290
     0
174
     0
 93
       13
 44
0.0
173
     0
291
     1
 45
0.0
1001
ACAD
1000
AcDbSavedByObjectVersion
1070
     0
  0
VISUALSTYLE
  5
38
102
{ACAD_REACTORS
330
2A
102
}
102
{ACAD_XDICTIONARY
360
147
102
}
330
2A
100
AcDbVisualStyle
  2
Linepattern
 70
    14
 71
     2
 72
     2
 73
     0
 90
        0
 40
-0.6
 41
-30.0
 62
     5
 63
     7
 74
     1
 91
        4
 64
     7
 65
   257
 75
     7
175
     7
 42
1.0
 92
        8
 66
     7
 43
1.0
 76
     1
 77
     6
 78
     2
 67
     7
 79
     5
170
     0
171
     0
290
     0
174
     0
 93
        1
 44
0.0
173
     0
291
     1
 45
0.0
1001
ACAD
1000
AcDbSavedByObjectVersion
1070
     0
  0
VISUALSTYLE
  5
33
102
{ACAD_REACTORS
330
2A
102
}
102
{ACAD_XDICTIONARY
360
13D
102
}
330
2A
100
AcDbVisualStyle
  2
Realistic
 70
     8
 71
     2
 72
     2
 73
     0
 90
        0
 40
-0.6
 41
-30.0
 62
     5
 63
     7
 74
     1
 91
        0
 64
     7
 65
   257
 75
     1
175
     1
 42
1.0
 92
        8
 66
     8
 43
1.0
 76
     1
 77
     6
 78
     2
 67
     7
 79
     5
170
     0
171
     0
290
     0
174
     0
 93
       13
 44
0.0
173
     0
291
     0
 45
0.0
1001
ACAD
1000
AcDbSavedByObjectVersion
1070
     0
  0
VISUALSTYLE
  5
37
102
{ACAD_REACTORS
330
2A
102
}
102
{ACAD_XDICTIONARY
360
145
102
}
330
2A
100
AcDbVisualStyle
  2
Thicken
 70
    13
 71
     2
 72
     2
 73
     0
 90
        0
 40
-0.6
 41
-30.0
 62
     5
 63
     7
 74
     1
 91
        4
 64
     7
 65
   257
 75
     1
175
     1
 42
1.0
 92
       12
 66
     7
 43
1.0
 76
     1
 77
     6
 78
     2
 67
     7
 79
     5
170
     0
171
     0
290
     0
174
     0
 93
        1
 44
0.0
173
     0
291
     1
 45
0.0
1001
ACAD
1000
AcDbSavedByObjectVersion
1070
     0
  0
DICTIONARYVAR
  5
12B
102
{ACAD_REACTORS
330
126
102
}
330
126
100
DictionaryVariables
280
     0
  1
2
  0
DICTIONARYVAR
  5
12C
102
{ACAD_REACTORS
330
126
102
}
330
126
100
DictionaryVariables
280
     0
  1
1
  0
DICTIONARYVAR
  5
12A
102
{ACAD_REACTORS
330
126
102
}
330
126
100
DictionaryVariables
280
     0
  1
80.000000
  0
DICTIONARYVAR
  5
129
102
{ACAD_REACTORS
330
126
102
}
330
126
100
DictionaryVariables
280
     0
  1
5.000000
  0
DICTIONARY
  5
14F
330
3D
100
AcDbDictionary
280
     1
281
     1
  3
ACAD_XREC_ROUNDTRIP
360
150
  0
DICTIONARY
  5
14D
330
3C
100
AcDbDictionary
280
     1
281
     1
  3
ACAD_XREC_ROUNDTRIP
360
14E
  0
DICTIONARY
  5
151
330
3E
100
AcDbDictionary
280
     1
281
     1
  3
ACAD_XREC_ROUNDTRIP
360
152
  0
DICTIONARY
  5
135
330
2F
100
AcDbDictionary
280
     1
281
     1
  3
ACAD_XREC_ROUNDTRIP
360
136
  0
DICTIONARY
  5
139
330
31
100
AcDbDictionary
280
     1
281
     1
  3
ACAD_XREC_ROUNDTRIP
360
13A
  0
DICTIONARY
  5
137
330
30
100
AcDbDictionary
280
     1
281
     1
  3
ACAD_XREC_ROUNDTRIP
360
138
  0
DICTIONARY
  5
13B
330
32
100
AcDbDictionary
280
     1
281
     1
  3
ACAD_XREC_ROUNDTRIP
360
13C
  0
DICTIONARY
  5
143
330
36
100
AcDbDictionary
280
     1
281
     1
  3
ACAD_XREC_ROUNDTRIP
360
144
  0
DICTIONARY
  5
14B
330
3A
100
AcDbDictionary
280
     1
281
     1
  3
ACAD_XREC_ROUNDTRIP
360
14C
  0
DICTIONARY
  5
13F
330
34
100
AcDbDictionary
280
     1
281
     1
  3
ACAD_XREC_ROUNDTRIP
360
140
  0
DICTIONARY
  5
141
330
35
100
AcDbDictionary
280
     1
281
     1
  3
ACAD_XREC_ROUNDTRIP
360
142
  0
DICTIONARY
  5
149
330
39
100
AcDbDictionary
280
     1
281
     1
  3
ACAD_XREC_ROUNDTRIP
360
14A
  0
DICTIONARY
  5
12D
330
2B
100
AcDbDictionary
280
     1
281
     1
  3
ACAD_XREC_ROUNDTRIP
360
12E
  0
DICTIONARY
  5
12F
330
2C
100
AcDbDictionary
280
     1
281
     1
  3
ACAD_XREC_ROUNDTRIP
360
130
  0
DICTIONARY
  5
131
330
2D
100
AcDbDictionary
280
     1
281
     1
  3
ACAD_XREC_ROUNDTRIP
360
132
  0
DICTIONARY
  5
133
330
2E
100
AcDbDictionary
280
     1
281
     1
  3
ACAD_XREC_ROUNDTRIP
360
134
  0
DICTIONARY
  5
147
330
38
100
AcDbDictionary
280
     1
281
     1
  3
ACAD_XREC_ROUNDTRIP
360
148
  0
DICTIONARY
  5
13D
330
33
100
AcDbDictionary
280
     1
281
     1
  3
ACAD_XREC_ROUNDTRIP
360
13E
  0
DICTIONARY
  5
145
330
37
100
AcDbDictionary
280
     1
281
     1
  3
ACAD_XREC_ROUNDTRIP
360
146
  0
XRECORD
  5
150
102
{ACAD_REACTORS
330
14F
102
}
330
14F
100
AcDbXrecord
280
     1
102
MATERIAL
148
0.0
149
0.0
149
0.0
 93
        0
 94
      127
282
     0
 72
     1
 77
     1
171
     1
175
     1
179
     1
273
     0
  0
XRECORD
  5
14E
102
{ACAD_REACTORS
330
14D
102
}
330
14D
100
AcDbXrecord
280
     1
102
MATERIAL
148
0.0
149
0.0
149
0.0
 93
        0
 94
      127
282
     0
 72
     1
 77
     1
171
     1
175
     1
179
     1
273
     0
  0
XRECORD
  5
152
102
{ACAD_REACTORS
330
151
102
}
330
151
100
AcDbXrecord
280
     1
102
MATERIAL
148
0.0
149
0.0
149
0.0
 93
        0
 94
      127
282
     0
 72
     1
 77
     1
171
     1
175
     1
179
     1
273
     0
  0
XRECORD
  5
136
102
{ACAD_REACTORS
330
135
102
}
330
135
100
AcDbXrecord
280
     1
102
RTVSPropertyOp0
 70
     1
102
RTVSPropertyOp1
 70
     1
102
RTVSPropertyOp2
 70
     1
102
RTVSPropertyOp3
 70
     1
102
RTVSPropertyOp4
 70
     1
102
RTVSPropertyOp5
 70
     1
102
RTVSPropertyOp6
 70
     1
102
RTVSPropertyOp7
 70
     1
102
RTVSPropertyOp8
 70
     1
102
RTVSPropertyOp9
 70
     1
102
RTVSPropertyOp10
 70
     1
102
RTVSPropertyOp11
 70
     1
102
RTVSPropertyOp12
 70
     1
102
RTVSPropertyOp13
 70
     1
102
RTVSPropertyOp14
 70
     1
102
RTVSPropertyOp15
 70
     1
102
RTVSPropertyOp16
 70
     1
102
RTVSPropertyOp17
 70
     1
102
RTVSPropertyOp18
 70
     1
102
RTVSPropertyOp19
 70
     1
102
RTVSPropertyOp20
 70
     1
102
RTVSPropertyOp21
 70
     1
102
RTVSPropertyOp22
 70
     1
102
RTVSPropertyOp23
 70
     1
102
RTVSPropertyOp24
 70
     1
102
RTVSPropertyOp25
 70
     1
102
RTVSPropertyOp26
 70
     1
102
RTVSPropertyOp27
 70
     1
102
RTVSPropertyOp28
 70
     1
102
RTVSPropertyOp29
 70
     1
102
RTVSPropertyOp30
 70
     1
102
RTVSPropertyOp31
 70
     1
102
RTVSPropertyOp32
 70
     1
  0
XRECORD
  5
13A
102
{ACAD_REACTORS
330
139
102
}
330
139
100
AcDbXrecord
280
     1
102
RTVSPropertyOp0
 70
     1
102
RTVSPropertyOp1
 70
     1
102
RTVSPropertyOp2
 70
     1
102
RTVSPropertyOp3
 70
     1
102
RTVSPropertyOp4
 70
     1
102
RTVSPropertyOp5
 70
     1
102
RTVSPropertyOp6
 70
     1
102
RTVSPropertyOp7
 70
     1
102
RTVSPropertyOp8
 70
     1
102
RTVSPropertyOp9
 70
     1
102
RTVSPropertyOp10
 70
     1
102
RTVSPropertyOp11
 70
     1
102
RTVSPropertyOp12
 70
     1
102
RTVSPropertyOp13
 70
     1
102
RTVSPropertyOp14
 70
     1
102
RTVSPropertyOp15
 70
     1
102
RTVSPropertyOp16
 70
     1
102
RTVSPropertyOp17
 70
     1
102
RTVSPropertyOp18
 70
     1
102
RTVSPropertyOp19
 70
     1
102
RTVSPropertyOp20
 70
     1
102
RTVSPropertyOp21
 70
     1
102
RTVSPropertyOp22
 70
     1
102
RTVSPropertyOp23
 70
     1
102
RTVSPropertyOp24
 70
     1
102
RTVSPropertyOp25
 70
     1
102
RTVSPropertyOp26
 70
     1
102
RTVSPropertyOp27
 70
     1
102
RTVSPropertyOp28
 70
     1
102
RTVSPropertyOp29
 70
     1
102
RTVSPropertyOp30
 70
     1
102
RTVSPropertyOp31
 70
     1
102
RTVSPropertyOp32
 70
     1
  0
XRECORD
  5
138
102
{ACAD_REACTORS
330
137
102
}
330
137
100
AcDbXrecord
280
     1
102
RTVSPropertyOp0
 70
     1
102
RTVSPropertyOp1
 70
     1
102
RTVSPropertyOp2
 70
     1
102
RTVSPropertyOp3
 70
     1
102
RTVSPropertyOp4
 70
     1
102
RTVSPropertyOp5
 70
     1
102
RTVSPropertyOp6
 70
     1
102
RTVSPropertyOp7
 70
     1
102
RTVSPropertyOp8
 70
     1
102
RTVSPropertyOp9
 70
     1
102
RTVSPropertyOp10
 70
     1
102
RTVSPropertyOp11
 70
     1
102
RTVSPropertyOp12
 70
     1
102
RTVSPropertyOp13
 70
     1
102
RTVSPropertyOp14
 70
     1
102
RTVSPropertyOp15
 70
     1
102
RTVSPropertyOp16
 70
     1
102
RTVSPropertyOp17
 70
     1
102
RTVSPropertyOp18
 70
     1
102
RTVSPropertyOp19
 70
     1
102
RTVSPropertyOp20
 70
     1
102
RTVSPropertyOp21
 70
     1
102
RTVSPropertyOp22
 70
     1
102
RTVSPropertyOp23
 70
     1
102
RTVSPropertyOp24
 70
     1
102
RTVSPropertyOp25
 70
     1
102
RTVSPropertyOp26
 70
     1
102
RTVSPropertyOp27
 70
     1
102
RTVSPropertyOp28
 70
     1
102
RTVSPropertyOp29
 70
     1
102
RTVSPropertyOp30
 70
     1
102
RTVSPropertyOp31
 70
     1
102
RTVSPropertyOp32
 70
     1
  0
XRECORD
  5
13C
102
{ACAD_REACTORS
330
13B
102
}
330
13B
100
AcDbXrecord
280
     1
102
RTVSPropertyOp0
 70
     1
102
RTVSPropertyOp1
 70
     1
102
RTVSPropertyOp2
 70
     1
102
RTVSPropertyOp3
 70
     1
102
RTVSPropertyOp4
 70
     1
102
RTVSPropertyOp5
 70
     1
102
RTVSPropertyOp6
 70
     1
102
RTVSPropertyOp7
 70
     1
102
RTVSPropertyOp8
 70
     1
102
RTVSPropertyOp9
 70
     1
102
RTVSPropertyOp10
 70
     1
102
RTVSPropertyOp11
 70
     1
102
RTVSPropertyOp12
 70
     1
102
RTVSPropertyOp13
 70
     1
102
RTVSPropertyOp14
 70
     1
102
RTVSPropertyOp15
 70
     1
102
RTVSPropertyOp16
 70
     1
102
RTVSPropertyOp17
 70
     1
102
RTVSPropertyOp18
 70
     1
102
RTVSPropertyOp19
 70
     1
102
RTVSPropertyOp20
 70
     1
102
RTVSPropertyOp21
 70
     1
102
RTVSPropertyOp22
 70
     1
102
RTVSPropertyOp23
 70
     1
102
RTVSPropertyOp24
 70
     1
102
RTVSPropertyOp25
 70
     1
102
RTVSPropertyOp26
 70
     1
102
RTVSPropertyOp27
 70
     1
102
RTVSPropertyOp28
 70
     1
102
RTVSPropertyOp29
 70
     1
102
RTVSPropertyOp30
 70
     1
102
RTVSPropertyOp31
 70
     1
102
RTVSPropertyOp32
 70
     1
  0
XRECORD
  5
144
102
{ACAD_REACTORS
330
143
102
}
330
143
100
AcDbXrecord
280
     1
102
RTVSPropertyOp0
 70
     1
102
RTVSPropertyOp1
 70
     1
102
RTVSPropertyOp2
 70
     1
102
RTVSPropertyOp3
 70
     1
102
RTVSPropertyOp4
 70
     1
102
RTVSPropertyOp5
 70
     1
102
RTVSPropertyOp6
 70
     1
102
RTVSPropertyOp7
 70
     1
102
RTVSPropertyOp8
 70
     1
102
RTVSPropertyOp9
 70
     1
102
RTVSPropertyOp10
 70
     1
102
RTVSPropertyOp11
 70
     1
102
RTVSPropertyOp12
 70
     1
102
RTVSPropertyOp13
 70
     1
102
RTVSPropertyOp14
 70
     1
102
RTVSPropertyOp15
 70
     1
102
RTVSPropertyOp16
 70
     1
102
RTVSPropertyOp17
 70
     1
102
RTVSPropertyOp18
 70
     1
102
RTVSPropertyOp19
 70
     1
102
RTVSPropertyOp20
 70
     1
102
RTVSPropertyOp21
 70
     1
102
RTVSPropertyOp22
 70
     1
102
RTVSPropertyOp23
 70
     1
102
RTVSPropertyOp24
 70
     1
102
RTVSPropertyOp25
 70
     1
102
RTVSPropertyOp26
 70
     1
102
RTVSPropertyOp27
 70
     1
102
RTVSPropertyOp28
 70
     1
102
RTVSPropertyOp29
 70
     1
102
RTVSPropertyOp30
 70
     1
102
RTVSPropertyOp31
 70
     1
102
RTVSPropertyOp32
 70
     1
  0
XRECORD
  5
14C
102
{ACAD_REACTORS
330
14B
102
}
330
14B
100
AcDbXrecord
280
     1
102
RTVSPropertyOp0
 70
     1
102
RTVSPropertyOp1
 70
     1
102
RTVSPropertyOp2
 70
     1
102
RTVSPropertyOp3
 70
     1
102
RTVSPropertyOp4
 70
     1
102
RTVSPropertyOp5
 70
     1
102
RTVSPropertyOp6
 70
     1
102
RTVSPropertyOp7
 70
     1
102
RTVSPropertyOp8
 70
     1
102
RTVSPropertyOp9
 70
     1
102
RTVSPropertyOp10
 70
     1
102
RTVSPropertyOp11
 70
     1
102
RTVSPropertyOp12
 70
     1
102
RTVSPropertyOp13
 70
     1
102
RTVSPropertyOp14
 70
     1
102
RTVSPropertyOp15
 70
     1
102
RTVSPropertyOp16
 70
     1
102
RTVSPropertyOp17
 70
     1
102
RTVSPropertyOp18
 70
     1
102
RTVSPropertyOp19
 70
     1
102
RTVSPropertyOp20
 70
     1
102
RTVSPropertyOp21
 70
     1
102
RTVSPropertyOp22
 70
     1
102
RTVSPropertyOp23
 70
     1
102
RTVSPropertyOp24
 70
     1
102
RTVSPropertyOp25
 70
     1
102
RTVSPropertyOp26
 70
     1
102
RTVSPropertyOp27
 70
     1
102
RTVSPropertyOp28
 70
     1
102
RTVSPropertyOp29
 70
     1
102
RTVSPropertyOp30
 70
     1
102
RTVSPropertyOp31
 70
     1
102
RTVSPropertyOp32
 70
     1
  0
XRECORD
  5
140
102
{ACAD_REACTORS
330
13F
102
}
330
13F
100
AcDbXrecord
280
     1
102
RTVSPropertyOp0
 70
     1
102
RTVSPropertyOp1
 70
     1
102
RTVSPropertyOp2
 70
     1
102
RTVSPropertyOp3
 70
     1
102
RTVSPropertyOp4
 70
     1
102
RTVSPropertyOp5
 70
     1
102
RTVSPropertyOp6
 70
     1
102
RTVSPropertyOp7
 70
     1
102
RTVSPropertyOp8
 70
     1
102
RTVSPropertyOp9
 70
     1
102
RTVSPropertyOp10
 70
     1
102
RTVSPropertyOp11
 70
     1
102
RTVSPropertyOp12
 70
     1
102
RTVSPropertyOp13
 70
     1
102
RTVSPropertyOp14
 70
     1
102
RTVSPropertyOp15
 70
     1
102
RTVSPropertyOp16
 70
     1
102
RTVSPropertyOp17
 70
     1
102
RTVSPropertyOp18
 70
     1
102
RTVSPropertyOp19
 70
     1
102
RTVSPropertyOp20
 70
     1
102
RTVSPropertyOp21
 70
     1
102
RTVSPropertyOp22
 70
     1
102
RTVSPropertyOp23
 70
     1
102
RTVSPropertyOp24
 70
     1
102
RTVSPropertyOp25
 70
     1
102
RTVSPropertyOp26
 70
     1
102
RTVSPropertyOp27
 70
     1
102
RTVSPropertyOp28
 70
     1
102
RTVSPropertyOp29
 70
     1
102
RTVSPropertyOp30
 70
     1
102
RTVSPropertyOp31
 70
     1
102
RTVSPropertyOp32
 70
     1
  0
XRECORD
  5
142
102
{ACAD_REACTORS
330
141
102
}
330
141
100
AcDbXrecord
280
     1
102
RTVSPropertyOp0
 70
     1
102
RTVSPropertyOp1
 70
     1
102
RTVSPropertyOp2
 70
     1
102
RTVSPropertyOp3
 70
     1
102
RTVSPropertyOp4
 70
     1
102
RTVSPropertyOp5
 70
     1
102
RTVSPropertyOp6
 70
     1
102
RTVSPropertyOp7
 70
     1
102
RTVSPropertyOp8
 70
     1
102
RTVSPropertyOp9
 70
     1
102
RTVSPropertyOp10
 70
     1
102
RTVSPropertyOp11
 70
     1
102
RTVSPropertyOp12
 70
     1
102
RTVSPropertyOp13
 70
     1
102
RTVSPropertyOp14
 70
     1
102
RTVSPropertyOp15
 70
     1
102
RTVSPropertyOp16
 70
     1
102
RTVSPropertyOp17
 70
     1
102
RTVSPropertyOp18
 70
     1
102
RTVSPropertyOp19
 70
     1
102
RTVSPropertyOp20
 70
     1
102
RTVSPropertyOp21
 70
     1
102
RTVSPropertyOp22
 70
     1
102
RTVSPropertyOp23
 70
     1
102
RTVSPropertyOp24
 70
     1
102
RTVSPropertyOp25
 70
     1
102
RTVSPropertyOp26
 70
     1
102
RTVSPropertyOp27
 70
     1
102
RTVSPropertyOp28
 70
     1
102
RTVSPropertyOp29
 70
     1
102
RTVSPropertyOp30
 70
     1
102
RTVSPropertyOp31
 70
     1
102
RTVSPropertyOp32
 70
     1
  0
XRECORD
  5
14A
102
{ACAD_REACTORS
330
149
102
}
330
149
100
AcDbXrecord
280
     1
102
RTVSPropertyOp0
 70
     1
102
RTVSPropertyOp1
 70
     1
102
RTVSPropertyOp2
 70
     1
102
RTVSPropertyOp3
 70
     1
102
RTVSPropertyOp4
 70
     1
102
RTVSPropertyOp5
 70
     1
102
RTVSPropertyOp6
 70
     1
102
RTVSPropertyOp7
 70
     1
102
RTVSPropertyOp8
 70
     1
102
RTVSPropertyOp9
 70
     1
102
RTVSPropertyOp10
 70
     1
102
RTVSPropertyOp11
 70
     1
102
RTVSPropertyOp12
 70
     1
102
RTVSPropertyOp13
 70
     1
102
RTVSPropertyOp14
 70
     1
102
RTVSPropertyOp15
 70
     1
102
RTVSPropertyOp16
 70
     1
102
RTVSPropertyOp17
 70
     1
102
RTVSPropertyOp18
 70
     1
102
RTVSPropertyOp19
 70
     1
102
RTVSPropertyOp20
 70
     1
102
RTVSPropertyOp21
 70
     1
102
RTVSPropertyOp22
 70
     1
102
RTVSPropertyOp23
 70
     1
102
RTVSPropertyOp24
 70
     1
102
RTVSPropertyOp25
 70
     1
102
RTVSPropertyOp26
 70
     1
102
RTVSPropertyOp27
 70
     1
102
RTVSPropertyOp28
 70
     1
102
RTVSPropertyOp29
 70
     1
102
RTVSPropertyOp30
 70
     1
102
RTVSPropertyOp31
 70
     1
102
RTVSPropertyOp32
 70
     1
  0
XRECORD
  5
12E
102
{ACAD_REACTORS
330
12D
102
}
330
12D
100
AcDbXrecord
280
     1
102
RTVSPropertyOp0
 70
     1
102
RTVSPropertyOp1
 70
     1
102
RTVSPropertyOp2
 70
     1
102
RTVSPropertyOp3
 70
     1
102
RTVSPropertyOp4
 70
     1
102
RTVSPropertyOp5
 70
     1
102
RTVSPropertyOp6
 70
     1
102
RTVSPropertyOp7
 70
     1
102
RTVSPropertyOp8
 70
     1
102
RTVSPropertyOp9
 70
     1
102
RTVSPropertyOp10
 70
     1
102
RTVSPropertyOp11
 70
     1
102
RTVSPropertyOp12
 70
     1
102
RTVSPropertyOp13
 70
     1
102
RTVSPropertyOp14
 70
     1
102
RTVSPropertyOp15
 70
     1
102
RTVSPropertyOp16
 70
     1
102
RTVSPropertyOp17
 70
     1
102
RTVSPropertyOp18
 70
     1
102
RTVSPropertyOp19
 70
     1
102
RTVSPropertyOp20
 70
     1
102
RTVSPropertyOp21
 70
     1
102
RTVSPropertyOp22
 70
     1
102
RTVSPropertyOp23
 70
     1
102
RTVSPropertyOp24
 70
     1
102
RTVSPropertyOp25
 70
     1
102
RTVSPropertyOp26
 70
     1
102
RTVSPropertyOp27
 70
     1
102
RTVSPropertyOp28
 70
     1
102
RTVSPropertyOp29
 70
     1
102
RTVSPropertyOp30
 70
     1
102
RTVSPropertyOp31
 70
     1
102
RTVSPropertyOp32
 70
     1
  0
XRECORD
  5
130
102
{ACAD_REACTORS
330
12F
102
}
330
12F
100
AcDbXrecord
280
     1
102
RTVSPropertyOp0
 70
     1
102
RTVSPropertyOp1
 70
     1
102
RTVSPropertyOp2
 70
     1
102
RTVSPropertyOp3
 70
     1
102
RTVSPropertyOp4
 70
     1
102
RTVSPropertyOp5
 70
     1
102
RTVSPropertyOp6
 70
     1
102
RTVSPropertyOp7
 70
     1
102
RTVSPropertyOp8
 70
     1
102
RTVSPropertyOp9
 70
     1
102
RTVSPropertyOp10
 70
     1
102
RTVSPropertyOp11
 70
     1
102
RTVSPropertyOp12
 70
     1
102
RTVSPropertyOp13
 70
     1
102
RTVSPropertyOp14
 70
     1
102
RTVSPropertyOp15
 70
     1
102
RTVSPropertyOp16
 70
     1
102
RTVSPropertyOp17
 70
     1
102
RTVSPropertyOp18
 70
     1
102
RTVSPropertyOp19
 70
     1
102
RTVSPropertyOp20
 70
     1
102
RTVSPropertyOp21
 70
     1
102
RTVSPropertyOp22
 70
     1
102
RTVSPropertyOp23
 70
     1
102
RTVSPropertyOp24
 70
     1
102
RTVSPropertyOp25
 70
     1
102
RTVSPropertyOp26
 70
     1
102
RTVSPropertyOp27
 70
     1
102
RTVSPropertyOp28
 70
     1
102
RTVSPropertyOp29
 70
     1
102
RTVSPropertyOp30
 70
     1
102
RTVSPropertyOp31
 70
     1
102
RTVSPropertyOp32
 70
     1
  0
XRECORD
  5
132
102
{ACAD_REACTORS
330
131
102
}
330
131
100
AcDbXrecord
280
     1
102
RTVSPropertyOp0
 70
     1
102
RTVSPropertyOp1
 70
     1
102
RTVSPropertyOp2
 70
     1
102
RTVSPropertyOp3
 70
     1
102
RTVSPropertyOp4
 70
     1
102
RTVSPropertyOp5
 70
     1
102
RTVSPropertyOp6
 70
     1
102
RTVSPropertyOp7
 70
     1
102
RTVSPropertyOp8
 70
     1
102
RTVSPropertyOp9
 70
     1
102
RTVSPropertyOp10
 70
     1
102
RTVSPropertyOp11
 70
     1
102
RTVSPropertyOp12
 70
     1
102
RTVSPropertyOp13
 70
     1
102
RTVSPropertyOp14
 70
     1
102
RTVSPropertyOp15
 70
     1
102
RTVSPropertyOp16
 70
     1
102
RTVSPropertyOp17
 70
     1
102
RTVSPropertyOp18
 70
     1
102
RTVSPropertyOp19
 70
     1
102
RTVSPropertyOp20
 70
     1
102
RTVSPropertyOp21
 70
     1
102
RTVSPropertyOp22
 70
     1
102
RTVSPropertyOp23
 70
     1
102
RTVSPropertyOp24
 70
     1
102
RTVSPropertyOp25
 70
     1
102
RTVSPropertyOp26
 70
     1
102
RTVSPropertyOp27
 70
     1
102
RTVSPropertyOp28
 70
     1
102
RTVSPropertyOp29
 70
     1
102
RTVSPropertyOp30
 70
     1
102
RTVSPropertyOp31
 70
     1
102
RTVSPropertyOp32
 70
     1
  0
XRECORD
  5
134
102
{ACAD_REACTORS
330
133
102
}
330
133
100
AcDbXrecord
280
     1
102
RTVSPropertyOp0
 70
     1
102
RTVSPropertyOp1
 70
     1
102
RTVSPropertyOp2
 70
     1
102
RTVSPropertyOp3
 70
     1
102
RTVSPropertyOp4
 70
     1
102
RTVSPropertyOp5
 70
     1
102
RTVSPropertyOp6
 70
     1
102
RTVSPropertyOp7
 70
     1
102
RTVSPropertyOp8
 70
     1
102
RTVSPropertyOp9
 70
     1
102
RTVSPropertyOp10
 70
     1
102
RTVSPropertyOp11
 70
     1
102
RTVSPropertyOp12
 70
     1
102
RTVSPropertyOp13
 70
     1
102
RTVSPropertyOp14
 70
     1
102
RTVSPropertyOp15
 70
     1
102
RTVSPropertyOp16
 70
     1
102
RTVSPropertyOp17
 70
     1
102
RTVSPropertyOp18
 70
     1
102
RTVSPropertyOp19
 70
     1
102
RTVSPropertyOp20
 70
     1
102
RTVSPropertyOp21
 70
     1
102
RTVSPropertyOp22
 70
     1
102
RTVSPropertyOp23
 70
     1
102
RTVSPropertyOp24
 70
     1
102
RTVSPropertyOp25
 70
     1
102
RTVSPropertyOp26
 70
     1
102
RTVSPropertyOp27
 70
     1
102
RTVSPropertyOp28
 70
     1
102
RTVSPropertyOp29
 70
     1
102
RTVSPropertyOp30
 70
     1
102
RTVSPropertyOp31
 70
     1
102
RTVSPropertyOp32
 70
     1
  0
XRECORD
  5
148
102
{ACAD_REACTORS
330
147
102
}
330
147
100
AcDbXrecord
280
     1
102
RTVSPropertyOp0
 70
     1
102
RTVSPropertyOp1
 70
     1
102
RTVSPropertyOp2
 70
     1
102
RTVSPropertyOp3
 70
     1
102
RTVSPropertyOp4
 70
     1
102
RTVSPropertyOp5
 70
     1
102
RTVSPropertyOp6
 70
     1
102
RTVSPropertyOp7
 70
     1
102
RTVSPropertyOp8
 70
     1
102
RTVSPropertyOp9
 70
     1
102
RTVSPropertyOp10
 70
     1
102
RTVSPropertyOp11
 70
     1
102
RTVSPropertyOp12
 70
     1
102
RTVSPropertyOp13
 70
     1
102
RTVSPropertyOp14
 70
     1
102
RTVSPropertyOp15
 70
     1
102
RTVSPropertyOp16
 70
     1
102
RTVSPropertyOp17
 70
     1
102
RTVSPropertyOp18
 70
     1
102
RTVSPropertyOp19
 70
     1
102
RTVSPropertyOp20
 70
     1
102
RTVSPropertyOp21
 70
     1
102
RTVSPropertyOp22
 70
     1
102
RTVSPropertyOp23
 70
     1
102
RTVSPropertyOp24
 70
     1
102
RTVSPropertyOp25
 70
     1
102
RTVSPropertyOp26
 70
     1
102
RTVSPropertyOp27
 70
     1
102
RTVSPropertyOp28
 70
     1
102
RTVSPropertyOp29
 70
     1
102
RTVSPropertyOp30
 70
     1
102
RTVSPropertyOp31
 70
     1
102
RTVSPropertyOp32
 70
     1
  0
XRECORD
  5
13E
102
{ACAD_REACTORS
330
13D
102
}
330
13D
100
AcDbXrecord
280
     1
102
RTVSPropertyOp0
 70
     1
102
RTVSPropertyOp1
 70
     1
102
RTVSPropertyOp2
 70
     1
102
RTVSPropertyOp3
 70
     1
102
RTVSPropertyOp4
 70
     1
102
RTVSPropertyOp5
 70
     1
102
RTVSPropertyOp6
 70
     1
102
RTVSPropertyOp7
 70
     1
102
RTVSPropertyOp8
 70
     1
102
RTVSPropertyOp9
 70
     1
102
RTVSPropertyOp10
 70
     1
102
RTVSPropertyOp11
 70
     1
102
RTVSPropertyOp12
 70
     1
102
RTVSPropertyOp13
 70
     1
102
RTVSPropertyOp14
 70
     1
102
RTVSPropertyOp15
 70
     1
102
RTVSPropertyOp16
 70
     1
102
RTVSPropertyOp17
 70
     1
102
RTVSPropertyOp18
 70
     1
102
RTVSPropertyOp19
 70
     1
102
RTVSPropertyOp20
 70
     1
102
RTVSPropertyOp21
 70
     1
102
RTVSPropertyOp22
 70
     1
102
RTVSPropertyOp23
 70
     1
102
RTVSPropertyOp24
 70
     1
102
RTVSPropertyOp25
 70
     1
102
RTVSPropertyOp26
 70
     1
102
RTVSPropertyOp27
 70
     1
102
RTVSPropertyOp28
 70
     1
102
RTVSPropertyOp29
 70
     1
102
RTVSPropertyOp30
 70
     1
102
RTVSPropertyOp31
 70
     1
102
RTVSPropertyOp32
 70
     1
  0
XRECORD
  5
146
102
{ACAD_REACTORS
330
145
102
}
330
145
100
AcDbXrecord
280
     1
102
RTVSPropertyOp0
 70
     1
102
RTVSPropertyOp1
 70
     1
102
RTVSPropertyOp2
 70
     1
102
RTVSPropertyOp3
 70
     1
102
RTVSPropertyOp4
 70
     1
102
RTVSPropertyOp5
 70
     1
102
RTVSPropertyOp6
 70
     1
102
RTVSPropertyOp7
 70
     1
102
RTVSPropertyOp8
 70
     1
102
RTVSPropertyOp9
 70
     1
102
RTVSPropertyOp10
 70
     1
102
RTVSPropertyOp11
 70
     1
102
RTVSPropertyOp12
 70
     1
102
RTVSPropertyOp13
 70
     1
102
RTVSPropertyOp14
 70
     1
102
RTVSPropertyOp15
 70
     1
102
RTVSPropertyOp16
 70
     1
102
RTVSPropertyOp17
 70
     1
102
RTVSPropertyOp18
 70
     1
102
RTVSPropertyOp19
 70
     1
102
RTVSPropertyOp20
 70
     1
102
RTVSPropertyOp21
 70
     1
102
RTVSPropertyOp22
 70
     1
102
RTVSPropertyOp23
 70
     1
102
RTVSPropertyOp24
 70
     1
102
RTVSPropertyOp25
 70
     1
102
RTVSPropertyOp26
 70
     1
102
RTVSPropertyOp27
 70
     1
102
RTVSPropertyOp28
 70
     1
102
RTVSPropertyOp29
 70
     1
102
RTVSPropertyOp30
 70
     1
102
RTVSPropertyOp31
 70
     1
102
RTVSPropertyOp32
 70
     1
  0
ENDSEC
  0
EOF
