  0
SECTION
  2
HEADER
  9
$ACADVER
  1
AC1015
  9
$ACADMAINTVER
 70
     6
  9
$DWGCODEPAGE
  3
ANSI_1252
  9
$INSBASE
 10
0.0
 20
0.0
 30
0.0
  9
$EXTMIN
 10
0.0
 20
0.0
 30
0.0
  9
$EXTMAX
 10
210.0
 20
297.0
 30
0.0
  9
$LIMMIN
 10
0.0
 20
0.0
  9
$LIMMAX
 10
210.0
 20
297.0
  9
$ORTHOMODE
 70
     0
  9
$REGENMODE
 70
     1
  9
$FILLMODE
 70
     1
  9
$QTEXTMODE
 70
     0
  9
$MIRRTEXT
 70
     1
  9
$LTSCALE
 40
1.0
  9
$ATTMODE
 70
     1
  9
$TEXTSIZE
 40
2.5
  9
$TRACEWID
 40
1.0
  9
$TEXTSTYLE
  7
Standard
  9
$CLAYER
  8
0
  9
$CELTYPE
  6
ByLayer
  9
$CECOLOR
 62
   256
  9
$CELTSCALE
 40
1.0
  9
$DISPSILH
 70
     0
  9
$DIMSCALE
 40
1.0
  9
$DIMASZ
 40
2.5
  9
$DIMEXO
 40
0.625
  9
$DIMDLI
 40
3.75
  9
$DIMRND
 40
0.0
  9
$DIMDLE
 40
0.0
  9
$DIMEXE
 40
1.25
  9
$DIMTP
 40
0.0
  9
$DIMTM
 40
0.0
  9
$DIMTXT
 40
2.5
  9
$DIMCEN
 40
2.5
  9
$DIMTSZ
 40
0.0
  9
$DIMTOL
 70
     0
  9
$DIMLIM
 70
     0
  9
$DIMTIH
 70
     0
  9
$DIMTOH
 70
     0
  9
$DIMSE1
 70
     0
  9
$DIMSE2
 70
     0
  9
$DIMTAD
 70
     1
  9
$DIMZIN
 70
     8
  9
$DIMBLK
  1

  9
$DIMASO
 70
     1
  9
$DIMSHO
 70
     1
  9
$DIMPOST
  1

  9
$DIMAPOST
  1

  9
$DIMALT
 70
     0
  9
$DIMALTD
 70
     3
  9
$DIMALTF
 40
0.0393700787
  9
$DIMLFAC
 40
1.0
  9
$DIMTOFL
 70
     1
  9
$DIMTVP
 40
0.0
  9
$DIMTIX
 70
     0
  9
$DIMSOXD
 70
     0
  9
$DIMSAH
 70
     0
  9
$DIMBLK1
  1

  9
$DIMBLK2
  1

  9
$DIMSTYLE
  2
ISO-25
  9
$DIMCLRD
 70
     0
  9
$DIMCLRE
 70
     0
  9
$DIMCLRT
 70
     0
  9
$DIMTFAC
 40
1.0
  9
$DIMGAP
 40
0.625
  9
$DIMJUST
 70
     0
  9
$DIMSD1
 70
     0
  9
$DIMSD2
 70
     0
  9
$DIMTOLJ
 70
     0
  9
$DIMTZIN
 70
     8
  9
$DIMALTZ
 70
     0
  9
$DIMALTTZ
 70
     0
  9
$DIMUPT
 70
     0
  9
$DIMDEC
 70
     2
  9
$DIMTDEC
 70
     2
  9
$DIMALTU
 70
     2
  9
$DIMALTTD
 70
     3
  9
$DIMTXSTY
  7
Standard
  9
$DIMAUNIT
 70
     0
  9
$DIMADEC
 70
     0
  9
$DIMALTRND
 40
0.0
  9
$DIMAZIN
 70
     0
  9
$DIMDSEP
 70
    44
  9
$DIMATFIT
 70
     3
  9
$DIMFRAC
 70
     0
  9
$DIMLDRBLK
  1

  9
$DIMLUNIT
 70
     2
  9
$DIMLWD
 70
    -2
  9
$DIMLWE
 70
    -2
  9
$DIMTMOVE
 70
     0
  9
$LUNITS
 70
     2
  9
$LUPREC
 70
     4
  9
$SKETCHINC
 40
1.0
  9
$FILLETRAD
 40
10.0
  9
$AUNITS
 70
     0
  9
$AUPREC
 70
     0
  9
$MENU
  1
.
  9
$ELEVATION
 40
0.0
  9
$PELEVATION
 40
0.0
  9
$THICKNESS
 40
0.0
  9
$LIMCHECK
 70
     0
  9
$CHAMFERA
 40
10.0
  9
$CHAMFERB
 40
10.0
  9
$CHAMFERC
 40
20.0
  9
$CHAMFERD
 40
0.0
  9
$SKPOLY
 70
     0
  9
$TDCREATE
 40
2457567.331587905
  9
$TDUCREATE
 40
2457567.248254572
  9
$TDUPDATE
 40
2457567.33158971
  9
$TDUUPDATE
 40
2457567.248256377
  9
$TDINDWG
 40
0.0000000116
  9
$TDUSRTIMER
 40
0.0000000116
  9
$USRTIMER
 70
     1
  9
$ANGBASE
 50
0.0
  9
$ANGDIR
 70
     0
  9
$PDMODE
 70
     0
  9
$PDSIZE
 40
0.0
  9
$PLINEWID
 40
0.0
  9
$SPLFRAME
 70
     0
  9
$SPLINETYPE
 70
     6
  9
$SPLINESEGS
 70
     8
  9
$HANDSEED
  5
1B2
  9
$SURFTAB1
 70
     6
  9
$SURFTAB2
 70
     6
  9
$SURFTYPE
 70
     6
  9
$SURFU
 70
     6
  9
$SURFV
 70
     6
  9
$UCSBASE
  2

  9
$UCSNAME
  2

  9
$UCSORG
 10
0.0
 20
0.0
 30
0.0
  9
$UCSXDIR
 10
1.0
 20
0.0
 30
0.0
  9
$UCSYDIR
 10
0.0
 20
1.0
 30
0.0
  9
$UCSORTHOREF
  2

  9
$UCSORTHOVIEW
 70
     0
  9
$UCSORGTOP
 10
0.0
 20
0.0
 30
0.0
  9
$UCSORGBOTTOM
 10
0.0
 20
0.0
 30
0.0
  9
$UCSORGLEFT
 10
0.0
 20
0.0
 30
0.0
  9
$UCSORGRIGHT
 10
0.0
 20
0.0
 30
0.0
  9
$UCSORGFRONT
 10
0.0
 20
0.0
 30
0.0
  9
$UCSORGBACK
 10
0.0
 20
0.0
 30
0.0
  9
$PUCSBASE
  2

  9
$PUCSNAME
  2

  9
$PUCSORG
 10
0.0
 20
0.0
 30
0.0
  9
$PUCSXDIR
 10
1.0
 20
0.0
 30
0.0
  9
$PUCSYDIR
 10
0.0
 20
1.0
 30
0.0
  9
$PUCSORTHOREF
  2

  9
$PUCSORTHOVIEW
 70
     0
  9
$PUCSORGTOP
 10
0.0
 20
0.0
 30
0.0
  9
$PUCSORGBOTTOM
 10
0.0
 20
0.0
 30
0.0
  9
$PUCSORGLEFT
 10
0.0
 20
0.0
 30
0.0
  9
$PUCSORGRIGHT
 10
0.0
 20
0.0
 30
0.0
  9
$PUCSORGFRONT
 10
0.0
 20
0.0
 30
0.0
  9
$PUCSORGBACK
 10
0.0
 20
0.0
 30
0.0
  9
$USERI1
 70
     0
  9
$USERI2
 70
     0
  9
$USERI3
 70
     0
  9
$USERI4
 70
     0
  9
$USERI5
 70
     0
  9
$USERR1
 40
0.0
  9
$USERR2
 40
0.0
  9
$USERR3
 40
0.0
  9
$USERR4
 40
0.0
  9
$USERR5
 40
0.0
  9
$WORLDVIEW
 70
     1
  9
$SHADEDGE
 70
     3
  9
$SHADEDIF
 70
    70
  9
$TILEMODE
 70
     1
  9
$MAXACTVP
 70
    64
  9
$PINSBASE
 10
0.0
 20
0.0
 30
0.0
  9
$PLIMCHECK
 70
     0
  9
$PEXTMIN
 10
0.0
 20
0.0
 30
0.0
  9
$PEXTMAX
 10
210.0
 20
297.0
 30
0.0
  9
$PLIMMIN
 10
0.0
 20
0.0
  9
$PLIMMAX
 10
210.0
 20
297.0
  9
$UNITMODE
 70
     0
  9
$VISRETAIN
 70
     1
  9
$PLINEGEN
 70
     0
  9
$PSLTSCALE
 70
     1
  9
$TREEDEPTH
 70
  3020
  9
$CMLSTYLE
  2
Standard
  9
$CMLJUST
 70
     0
  9
$CMLSCALE
 40
20.0
  9
$PROXYGRAPHICS
 70
     1
  9
$MEASUREMENT
 70
     1
  9
$CELWEIGHT
370
    -1
  9
$ENDCAPS
280
     0
  9
$JOINSTYLE
280
     0
  9
$LWDISPLAY
290
     0
  9
$INSUNITS
 70
     4
  9
$HYPERLINKBASE
  1

  9
$STYLESHEET
  1

  9
$XEDIT
290
     1
  9
$CEPSNTYPE
380
     0
  9
$PSTYLEMODE
290
     1
  9
$FINGERPRINTGUID
  2
{93EEFED0-C792-47F2-8AD0-86FF65133E2C}
  9
$VERSIONGUID
  2
{FAEB1C32-E019-11D5-929B-00C0DF256EC4}
  9
$EXTNAMES
290
     1
  9
$PSVPSCALE
 40
0.0
  9
$OLESTARTUP
290
     0
  0
ENDSEC
  0
SECTION
  2
CLASSES
  0
CLASS
  1
ACDBDICTIONARYWDFLT
  2
AcDbDictionaryWithDefault
  3
ObjectDBX Classes
 90
        0
280
     0
281
     0
  0
CLASS
  1
VISUALSTYLE
  2
AcDbVisualStyle
  3
ObjectDBX Classes
 90
     4095
280
     0
281
     0
  0
CLASS
  1
MATERIAL
  2
AcDbMaterial
  3
ObjectDBX Classes
 90
     1153
280
     0
281
     0
  0
CLASS
  1
DICTIONARYVAR
  2
AcDbDictionaryVar
  3
ObjectDBX Classes
 90
        0
280
     0
281
     0
  0
CLASS
  1
ACDBPLACEHOLDER
  2
AcDbPlaceHolder
  3
ObjectDBX Classes
 90
        0
280
     0
281
     0
  0
CLASS
  1
LAYOUT
  2
AcDbLayout
  3
ObjectDBX Classes
 90
        0
280
     0
281
     0
  0
ENDSEC
  0
SECTION
  2
TABLES
  0
TABLE
  2
VPORT
  5
8
330
0
100
AcDbSymbolTable
 70
     1
  0
VPORT
  5
29
330
8
100
AcDbSymbolTableRecord
100
AcDbViewportTableRecord
  2
*Active
 70
     0
 10
0.0
 20
0.0
 11
1.0
 21
1.0
 12
344.1869158879
 22
148.5
 13
0.0
 23
0.0
 14
10.0
 24
10.0
 15
10.0
 25
10.0
 16
0.0
 26
0.0
 36
1.0
 17
0.0
 27
0.0
 37
0.0
 40
297.0
 41
1.9729729729
 42
50.0
 43
0.0
 44
0.0
 50
0.0
 51
0.0
 71
     0
 72
   100
 73
     1
 74
     3
 75
     0
 76
     0
 77
     0
 78
     0
281
     0
 65
     1
110
0.0
120
0.0
130
0.0
111
1.0
121
0.0
131
0.0
112
0.0
122
1.0
132
0.0
 79
     0
146
0.0
  0
ENDTAB
  0
TABLE
  2
LTYPE
  5
5
330
0
100
AcDbSymbolTable
 70
     2
  0
LTYPE
  5
14
330
5
100
AcDbSymbolTableRecord
100
AcDbLinetypeTableRecord
  2
ByBlock
 70
     0
  3

 72
    65
 73
     0
 40
0.0
  0
LTYPE
  5
15
330
5
100
AcDbSymbolTableRecord
100
AcDbLinetypeTableRecord
  2
ByLayer
 70
     0
  3

 72
    65
 73
     0
 40
0.0
  0
LTYPE
  5
16
330
5
100
AcDbSymbolTableRecord
100
AcDbLinetypeTableRecord
  2
Continuous
 70
     0
  3
Solid line
 72
    65
 73
     0
 40
0.0
  0
LTYPE
  5
40
330
5
100
AcDbSymbolTableRecord
100
AcDbLinetypeTableRecord
  2
HIDDEN2
 70
     0
  3
Hidden (.5x) _ _ _ _ _ _ _ _ _ _ _ _ _ _ _ _ _ 
 72
    65
 73
     2
 40
4.7625
 49
3.175
 74
     4
 75
     0
340
0
 46
0.0
 50
0.0
 44
0.0
 45
0.0
 49
-1.5875
 74
     4
 75
     0
340
0
 46
0.0
 50
0.0
 44
0.0
 45
0.0
  0
ENDTAB
  0
TABLE
  2
LAYER
  5
2
330
0
100
AcDbSymbolTable
 70
     5
  0
LAYER
  5
10
330
2
100
AcDbSymbolTableRecord
100
AcDbLayerTableRecord
  2
0
 70
     0
 62
     7
  6
Continuous
370
    -3
390
F
  0
LAYER
  5
3F
330
2
100
AcDbSymbolTableRecord
100
AcDbLayerTableRecord
  2
SK3
 70
     0
 62
     1
  6
HIDDEN2
370
    15
390
F
  0
LAYER
  5
42
330
2
100
AcDbSymbolTableRecord
100
AcDbLayerTableRecord
  2
SK1
 70
     0
 62
     4
  6
Continuous
370
    18
390
F
  0
LAYER
  5
12E
330
2
100
AcDbSymbolTableRecord
100
AcDbLayerTableRecord
  2
SK4
 70
     0
 62
     2
  6
Continuous
370
    13
390
F
  0
LAYER
  5
130
330
2
100
AcDbSymbolTableRecord
100
AcDbLayerTableRecord
  2
SK2
 70
     0
 62
     7
  6
Continuous
370
    15
390
F
  0
ENDTAB
  0
TABLE
  2
STYLE
  5
3
330
0
100
AcDbSymbolTable
 70
     2
  0
STYLE
  5
11
330
3
100
AcDbSymbolTableRecord
100
AcDbTextStyleTableRecord
  2
Standard
 70
     0
 40
0.0
 41
1.0
 50
0.0
 71
     0
 42
2.5
  3
txt
  4

  0
STYLE
  5
143
330
3
100
AcDbSymbolTableRecord
100
AcDbTextStyleTableRecord
  2
SEACAD_Solid_Edge_ISO
 70
     0
 40
0.0
 41
1.0
 50
0.0
 71
     0
 42
0.2
  3
seiso.ttf
  4

1001
ACAD
1000
Solid Edge ISO
1071
        0
  0
ENDTAB
  0
TABLE
  2
VIEW
  5
6
330
0
100
AcDbSymbolTable
 70
     0
  0
ENDTAB
  0
TABLE
  2
UCS
  5
7
330
0
100
AcDbSymbolTable
 70
     0
  0
ENDTAB
  0
TABLE
  2
APPID
  5
9
330
0
100
AcDbSymbolTable
 70
     1
  0
APPID
  5
12
330
9
100
AcDbSymbolTableRecord
100
AcDbRegAppTableRecord
  2
ACAD
 70
     0
  0
ENDTAB
  0
TABLE
  2
DIMSTYLE
  5
A
330
0
100
AcDbSymbolTable
 70
     3
100
AcDbDimStyleTable
  0
DIMSTYLE
105
27
330
A
100
AcDbSymbolTableRecord
100
AcDbDimStyleTableRecord
  2
ISO-25
 70
     0
 41
2.5
 42
0.625
 43
3.75
 44
1.25
 73
     0
 74
     0
 77
     1
 78
     8
140
2.5
141
2.5
143
0.0393700787
147
0.625
171
     3
172
     1
178
     0
271
     2
272
     2
274
     3
278
    44
283
     0
284
     8
340
11
  0
DIMSTYLE
105
131
330
A
100
AcDbSymbolTableRecord
100
AcDbDimStyleTableRecord
  2
Standard
 70
     0
178
     0
340
11
  0
DIMSTYLE
105
144
102
{ACAD_REACTORS
330
145
330
165
330
170
330
17A
102
}
330
A
100
AcDbSymbolTableRecord
100
AcDbDimStyleTableRecord
  2
DIN
 70
     0
 41
3.5
 42
0.0
 44
1.75
 73
     0
 74
     0
 77
     1
 78
     8
140
3.5
141
1.75
147
1.75
172
     1
173
     1
178
     0
179
     3
271
     2
272
     2
278
    44
284
     8
340
143
343
13E
344
13E
  0
ENDTAB
  0
TABLE
  2
BLOCK_RECORD
  5
1
330
0
100
AcDbSymbolTable
 70
    10
  0
BLOCK_RECORD
  5
1F
330
1
100
AcDbSymbolTableRecord
100
AcDbBlockTableRecord
  2
*Model_Space
340
22
  0
BLOCK_RECORD
  5
1B
330
1
100
AcDbSymbolTableRecord
100
AcDbBlockTableRecord
  2
*Paper_Space
340
1E
  0
BLOCK_RECORD
  5
132
330
1
100
AcDbSymbolTableRecord
100
AcDbBlockTableRecord
  2
_OBLIQUE
340
0
  0
BLOCK_RECORD
  5
136
330
1
100
AcDbSymbolTableRecord
100
AcDbBlockTableRecord
  2
_DOT
340
0
  0
BLOCK_RECORD
  5
13E
330
1
100
AcDbSymbolTableRecord
100
AcDbBlockTableRecord
  2
_SE_FILLED
340
0
  0
BLOCK_RECORD
  5
146
330
1
100
AcDbSymbolTableRecord
100
AcDbBlockTableRecord
  2
DMBLK33
340
0
  0
BLOCK_RECORD
  5
14F
330
1
100
AcDbSymbolTableRecord
100
AcDbBlockTableRecord
  2
Nullpunkt
340
0
102
{BLKREFS
331
159
102
}
  0
BLOCK_RECORD
  5
15A
330
1
100
AcDbSymbolTableRecord
100
AcDbBlockTableRecord
  2
Einfügepunkt
340
0
102
{BLKREFS
331
164
102
}
  0
BLOCK_RECORD
  5
166
330
1
100
AcDbSymbolTableRecord
100
AcDbBlockTableRecord
  2
DMBLK34
340
0
  0
BLOCK_RECORD
  5
171
330
1
100
AcDbSymbolTableRecord
100
AcDbBlockTableRecord
  2
DMBLK35
340
0
  0
BLOCK_RECORD
  5
17B
330
1
100
AcDbSymbolTableRecord
100
AcDbBlockTableRecord
  2
DMBLK36
340
0
  0
ENDTAB
  0
ENDSEC
  0
SECTION
  2
BLOCKS
  0
BLOCK
  5
20
330
1F
100
AcDbEntity
  8
0
100
AcDbBlockBegin
  2
*Model_Space
 70
     0
 10
0.0
 20
0.0
 30
0.0
  3
*Model_Space
  1

  0
ENDBLK
  5
21
330
1F
100
AcDbEntity
  8
0
100
AcDbBlockEnd
  0
BLOCK
  5
1C
330
1B
100
AcDbEntity
 67
     1
  8
0
100
AcDbBlockBegin
  2
*Paper_Space
 70
     0
 10
0.0
 20
0.0
 30
0.0
  3
*Paper_Space
  1

  0
ENDBLK
  5
1D
330
1B
100
AcDbEntity
 67
     1
  8
0
100
AcDbBlockEnd
  0
BLOCK
  5
133
330
132
100
AcDbEntity
  8
0
100
AcDbBlockBegin
  2
_OBLIQUE
 70
     0
 10
0.0
 20
0.0
 30
0.0
  3
_OBLIQUE
  1

  0
LINE
  5
135
330
132
100
AcDbEntity
  8
0
  6
ByBlock
 62
     0
370
    -2
100
AcDbLine
 10
-0.5
 20
-0.5
 30
0.0
 11
0.5
 21
0.5
 31
0.0
  0
ENDBLK
  5
134
330
132
100
AcDbEntity
  8
0
100
AcDbBlockEnd
  0
BLOCK
  5
137
330
136
100
AcDbEntity
  8
0
100
AcDbBlockBegin
  2
_DOT
 70
     0
 10
0.0
 20
0.0
 30
0.0
  3
_DOT
  1

  0
POLYLINE
  5
139
330
136
100
AcDbEntity
  8
0
  6
ByBlock
 62
     0
100
AcDb2dPolyline
 66
     1
 10
0.0
 20
0.0
 30
0.0
 70
     1
 40
0.5
 41
0.5
  0
VERTEX
  5
13B
330
139
100
AcDbEntity
  8
0
  6
ByBlock
 62
     0
100
AcDbVertex
100
AcDb2dVertex
 10
-0.25
 20
0.0
 30
0.0
 42
1.0
  0
VERTEX
  5
13C
330
139
100
AcDbEntity
  8
0
  6
ByBlock
 62
     0
100
AcDbVertex
100
AcDb2dVertex
 10
0.25
 20
0.0
 30
0.0
 42
1.0
  0
SEQEND
  5
13D
330
139
100
AcDbEntity
  8
0
  6
ByBlock
 62
     0
  0
LINE
  5
13A
330
136
100
AcDbEntity
  8
0
  6
ByBlock
 62
     0
370
    -2
100
AcDbLine
 10
-0.5
 20
0.0
 30
0.0
 11
-1.0
 21
0.0
 31
0.0
  0
ENDBLK
  5
138
330
136
100
AcDbEntity
  8
0
100
AcDbBlockEnd
  0
BLOCK
  5
141
330
13E
100
AcDbEntity
  8
0
100
AcDbBlockBegin
  2
_SE_FILLED
 70
     0
 10
0.0
 20
0.0
 30
0.0
  3
_SE_FILLED
  1

  0
SOLID
  5
13F
330
13E
100
AcDbEntity
  8
0
 62
     0
100
AcDbTrace
 10
0.0
 20
0.0
 30
0.0
 11
-1.0
 21
-0.1665
 31
0.0
 12
-1.0
 22
0.1665
 32
0.0
 13
0.0
 23
0.0
 33
0.0
  0
LINE
  5
140
330
13E
100
AcDbEntity
  8
0
 62
     0
100
AcDbLine
 10
0.0
 20
0.0
 30
0.0
 11
-1.0
 21
0.0
 31
0.0
  0
ENDBLK
  5
142
330
13E
100
AcDbEntity
  8
0
100
AcDbBlockEnd
  0
BLOCK
  5
14D
330
146
100
AcDbEntity
  8
0
100
AcDbBlockBegin
  2
DMBLK33
 70
     0
 10
0.0
 20
0.0
 30
0.0
  3
DMBLK33
  1

  0
HATCH
  5
147
330
146
100
AcDbEntity
  8
SK2
  6
Continuous
 62
   136
100
AcDbHatch
 10
0.0
 20
0.0
 30
0.0
210
0.0
220
0.0
230
1.0
  2
SOLID
 70
     1
 71
     0
 91
        1
 92
        1
 93
        3
 72
     1
 10
-18.83999989196672
 20
21.02900715182387
 11
-22.34000000000014
 21
20.44567380048496
 72
     1
 10
-22.34000000000014
 20
20.44567380048496
 11
-18.83999989196672
 21
19.86234044914606
 72
     1
 10
-18.83999989196672
 20
19.86234044914606
 11
-18.83999989196672
 21
21.02900715182387
 97
        0
 75
     0
 76
     1
 98
        0
  0
HATCH
  5
148
330
146
100
AcDbEntity
  8
SK2
  6
Continuous
 62
   136
100
AcDbHatch
 10
0.0
 20
0.0
 30
0.0
210
0.0
220
0.0
230
1.0
  2
SOLID
 70
     1
 71
     0
 91
        1
 92
        1
 93
        3
 72
     1
 10
8.160001739710431
 20
21.02900715182387
 11
8.160001739710431
 21
19.86234044914606
 72
     1
 10
8.160001739710431
 20
19.86234044914606
 11
11.66000184774385
 21
20.44567380048496
 72
     1
 10
11.66000184774385
 20
20.44567380048496
 11
8.160001739710431
 21
21.02900715182387
 97
        0
 75
     0
 76
     1
 98
        0
  0
LINE
  5
149
330
146
100
AcDbEntity
  8
SK2
  6
Continuous
 62
   136
100
AcDbLine
 10
-22.34
 20
9.0904101538
 30
0.0
 11
-22.34
 21
22.1956738545
 31
0.0
  0
LINE
  5
14A
330
146
100
AcDbEntity
  8
SK2
  6
Continuous
 62
   136
100
AcDbLine
 10
11.66
 20
9.8066661335
 30
0.0
 11
11.66
 21
22.1956738545
 31
0.0
  0
LINE
  5
14B
330
146
100
AcDbEntity
  8
SK2
  6
Continuous
 62
   136
100
AcDbLine
 10
-22.34
 20
20.4456738005
 30
0.0
 11
11.6600018477
 21
20.4456738005
 31
0.0
  0
TEXT
  5
14C
330
146
100
AcDbEntity
  8
SK2
  6
Continuous
 62
   136
100
AcDbText
 10
-7.2888627125
 20
21.3206738005
 30
0.0
 40
3.5
  1
34
  7
SEACAD_Solid_Edge_ISO
 11
-7.2888627125
 21
24.8206738005
 31
0.0
100
AcDbText
 73
     3
  0
ENDBLK
  5
14E
330
146
100
AcDbEntity
  8
0
100
AcDbBlockEnd
  0
BLOCK
  5
157
330
14F
100
AcDbEntity
  8
0
100
AcDbBlockBegin
  2
Nullpunkt
 70
     0
 10
0.0
 20
0.0
 30
0.0
  3
Nullpunkt
  1

  0
HATCH
  5
150
330
14F
100
AcDbEntity
  8
SK2
  6
Continuous
 62
     7
100
AcDbHatch
 10
0.0
 20
0.0
 30
0.0
210
0.0
220
0.0
230
1.0
  2
SOLID
 70
     1
 71
     0
 91
        1
 92
        1
 93
        3
 72
     1
 10
-1.0
 20
0.0
 11
0.0000000000000009
 21
0.0
 72
     1
 10
0.0
 20
0.0
 11
0.0
 21
1.000000000000001
 72
     2
 10
0.0
 20
0.0
 40
1.0
 50
90.0
 51
180.0
 73
     1
 97
        0
 75
     0
 76
     1
 98
        0
  0
HATCH
  5
151
330
14F
100
AcDbEntity
  8
SK2
  6
Continuous
 62
     7
100
AcDbHatch
 10
0.0
 20
0.0
 30
0.0
210
0.0
220
0.0
230
1.0
  2
SOLID
 70
     1
 71
     0
 91
        1
 92
        1
 93
        3
 72
     2
 10
0.0
 20
0.0
 40
1.0
 50
270.0
 51
360.0
 73
     1
 72
     1
 10
1.0
 20
0.0
 11
-0.0000000000000009
 21
0.0
 72
     1
 10
0.0
 20
0.0
 11
0.0
 21
-1.000000000000001
 97
        0
 75
     0
 76
     1
 98
        0
  0
CIRCLE
  5
152
330
14F
100
AcDbEntity
  8
SK2
  6
Continuous
 62
     7
100
AcDbCircle
 10
0.0
 20
0.0
 30
0.0
 40
1.0
  0
LINE
  5
153
330
14F
100
AcDbEntity
  8
SK1
  6
Continuous
100
AcDbLine
 10
-1.0
 20
0.0
 30
0.0
 11
1.0
 21
0.0
 31
0.0
  0
LINE
  5
154
330
14F
100
AcDbEntity
  8
SK1
  6
Continuous
100
AcDbLine
 10
0.0
 20
1.0
 30
0.0
 11
0.0
 21
-1.0
 31
0.0
  0
POINT
  5
155
330
14F
100
AcDbEntity
  8
SK1
  6
Continuous
100
AcDbPoint
 10
0.0
 20
0.0
 30
0.0
  0
POINT
  5
156
330
14F
100
AcDbEntity
  8
SK1
  6
Continuous
100
AcDbPoint
 10
0.0
 20
0.0
 30
0.0
  0
ENDBLK
  5
158
330
14F
100
AcDbEntity
  8
0
100
AcDbBlockEnd
  0
BLOCK
  5
162
330
15A
100
AcDbEntity
  8
0
100
AcDbBlockBegin
  2
Einfügepunkt
 70
     0
 10
0.0
 20
0.0
 30
0.0
  3
Einfügepunkt
  1

  0
HATCH
  5
15B
330
15A
100
AcDbEntity
  8
SK2
  6
Continuous
 62
     7
100
AcDbHatch
 10
0.0
 20
0.0
 30
0.0
210
0.0
220
0.0
230
1.0
  2
SOLID
 70
     1
 71
     0
 91
        1
 92
        1
 93
        3
 72
     1
 10
-0.4502381196756744
 20
-0.0000000000000018
 11
0.0000000000000033
 21
-0.0000000000000018
 72
     1
 10
0.0
 20
-0.0000000000000018
 11
0.0
 21
0.4502381196756812
 72
     2
 10
0.0
 20
-0.0000000000000018
 40
0.4502381196756812
 50
90.0
 51
180.0
 73
     1
 97
        0
 75
     0
 76
     1
 98
        0
  0
HATCH
  5
15C
330
15A
100
AcDbEntity
  8
SK2
  6
Continuous
 62
     7
100
AcDbHatch
 10
0.0
 20
0.0
 30
0.0
210
0.0
220
0.0
230
1.0
  2
SOLID
 70
     1
 71
     0
 91
        1
 92
        1
 93
        3
 72
     2
 10
0.0
 20
-0.0000000000000018
 40
0.4502381196756812
 50
270.0
 51
360.0
 73
     1
 72
     1
 10
0.4502381196756815
 20
-0.0000000000000018
 11
0.0000000000000038
 21
-0.0000000000000018
 72
     1
 10
0.0
 20
-0.0000000000000018
 11
0.0
 21
-0.4502381196756812
 97
        0
 75
     0
 76
     1
 98
        0
  0
CIRCLE
  5
15D
330
15A
100
AcDbEntity
  8
SK2
  6
Continuous
 62
     7
100
AcDbCircle
 10
0.0
 20
0.0
 30
0.0
 40
0.4502381196756812
  0
LINE
  5
15E
330
15A
100
AcDbEntity
  8
SK1
  6
Continuous
100
AcDbLine
 10
-0.4502381197
 20
0.0
 30
0.0
 11
0.4502381197
 21
0.0
 31
0.0
  0
LINE
  5
15F
330
15A
100
AcDbEntity
  8
SK1
  6
Continuous
100
AcDbLine
 10
0.0
 20
0.4502381197
 30
0.0
 11
0.0
 21
-0.4502381197
 31
0.0
  0
POINT
  5
160
330
15A
100
AcDbEntity
  8
SK2
  6
Continuous
 62
     7
100
AcDbPoint
 10
0.0
 20
0.0
 30
0.0
  0
POINT
  5
161
330
15A
100
AcDbEntity
  8
SK2
  6
Continuous
 62
     7
100
AcDbPoint
 10
0.0
 20
0.0
 30
0.0
  0
ENDBLK
  5
163
330
15A
100
AcDbEntity
  8
0
100
AcDbBlockEnd
  0
BLOCK
  5
16E
330
166
100
AcDbEntity
  8
0
100
AcDbBlockBegin
  2
DMBLK34
 70
     0
 10
0.0
 20
0.0
 30
0.0
  3
DMBLK34
  1

  0
HATCH
  5
167
330
166
100
AcDbEntity
  8
SK2
  6
Continuous
 62
   136
100
AcDbHatch
 10
0.0
 20
0.0
 30
0.0
210
0.0
220
0.0
230
1.0
  2
SOLID
 70
     1
 71
     0
 91
        1
 92
        1
 93
        3
 72
     1
 10
22.98592064055304
 20
-11.44000010803342
 11
22.40258728921413
 21
-7.940000000000005
 72
     1
 10
22.40258728921413
 20
-7.940000000000004
 11
21.81925393787523
 21
-11.44000010803342
 72
     1
 10
21.81925393787523
 20
-11.44000010803342
 11
22.98592064055304
 21
-11.44000010803342
 97
        0
 75
     0
 76
     1
 98
        0
  0
HATCH
  5
168
330
166
100
AcDbEntity
  8
SK2
  6
Continuous
 62
   136
100
AcDbHatch
 10
0.0
 20
0.0
 30
0.0
210
0.0
220
0.0
230
1.0
  2
SOLID
 70
     1
 71
     0
 91
        1
 92
        1
 93
        3
 72
     1
 10
22.98592064055304
 20
11.44000010803343
 11
21.81925393787523
 21
11.44000010803343
 72
     1
 10
21.81925393787523
 20
11.44000010803343
 11
22.40258728921413
 21
7.940000000000008
 72
     1
 10
22.40258728921413
 20
7.940000000000007
 11
22.98592064055304
 21
11.44000010803343
 97
        0
 75
     0
 76
     1
 98
        0
  0
LINE
  5
169
330
166
100
AcDbEntity
  8
SK2
  6
Continuous
 62
   136
100
AcDbLine
 10
11.26
 20
-7.94
 30
0.0
 11
24.1525873432
 21
-7.94
 31
0.0
  0
LINE
  5
16A
330
166
100
AcDbEntity
  8
SK2
  6
Continuous
 62
   136
100
AcDbLine
 10
11.26
 20
7.94
 30
0.0
 11
24.1525873432
 21
7.94
 31
0.0
  0
LINE
  5
16B
330
166
100
AcDbEntity
  8
SK2
  6
Continuous
 62
   136
100
AcDbLine
 10
22.4025872892
 20
-14.9400002161
 30
0.0
 11
22.4025872892
 21
14.939999131
 31
0.0
  0
TEXT
  5
16C
330
166
100
AcDbEntity
  8
SK2
  6
Continuous
 62
   136
100
AcDbText
 10
21.5275872892
 20
-2.2193182587
 30
0.0
 40
3.5
  1
15,88
 50
90.0
  7
SEACAD_Solid_Edge_ISO
 11
18.0275872892
 21
-2.2193182587
 31
0.0
100
AcDbText
 73
     3
  0
TEXT
  5
16D
330
166
100
AcDbEntity
  8
SK2
  6
Continuous
 62
   136
100
AcDbText
 10
21.5275872892
 20
-6.2920455314
 30
0.0
 40
3.5
  1
ø
 50
90.0
  7
SEACAD_Solid_Edge_ISO
 11
18.0275872892
 21
-6.2920455314
 31
0.0
100
AcDbText
 73
     3
  0
ENDBLK
  5
16F
330
166
100
AcDbEntity
  8
0
100
AcDbBlockEnd
  0
BLOCK
  5
178
330
171
100
AcDbEntity
  8
0
100
AcDbBlockBegin
  2
DMBLK35
 70
     0
 10
0.0
 20
0.0
 30
0.0
  3
DMBLK35
  1

  0
HATCH
  5
172
330
171
100
AcDbEntity
  8
SK2
  6
Continuous
 62
   136
100
AcDbHatch
 10
0.0
 20
0.0
 30
0.0
210
0.0
220
0.0
230
1.0
  2
SOLID
 70
     1
 71
     0
 91
        1
 92
        1
 93
        3
 72
     1
 10
-3.500000108033418
 20
-20.58333330940015
 11
0.0000000000000009
 21
-19.99999995806124
 72
     1
 10
0.0000000000000009
 20
-19.99999995806124
 11
-3.500000108033418
 21
-19.41666660672234
 72
     1
 10
-3.500000108033418
 20
-19.41666660672234
 11
-3.500000108033418
 21
-20.58333330940015
 97
        0
 75
     0
 76
     1
 98
        0
  0
HATCH
  5
173
330
171
100
AcDbEntity
  8
SK2
  6
Continuous
 62
   136
100
AcDbHatch
 10
0.0
 20
0.0
 30
0.0
210
0.0
220
0.0
230
1.0
  2
SOLID
 70
     1
 71
     0
 91
        1
 92
        1
 93
        3
 72
     1
 10
15.16000010803342
 20
-20.58333330940015
 11
15.16000010803342
 21
-19.41666660672234
 72
     1
 10
15.16000010803342
 20
-19.41666660672234
 11
11.66
 21
-19.99999995806124
 72
     1
 10
11.66
 20
-19.99999995806124
 11
15.16000010803342
 21
-20.58333330940015
 97
        0
 75
     0
 76
     1
 98
        0
  0
LINE
  5
174
330
171
100
AcDbEntity
  8
SK2
  6
Continuous
 62
   136
100
AcDbLine
 10
0.0
 20
-12.4996746285
 30
0.0
 11
0.0
 21
-21.7500000121
 31
0.0
  0
LINE
  5
175
330
171
100
AcDbEntity
  8
SK2
  6
Continuous
 62
   136
100
AcDbLine
 10
11.66
 20
-9.1882744343
 30
0.0
 11
11.66
 21
-21.7500000121
 31
0.0
  0
LINE
  5
176
330
171
100
AcDbEntity
  8
SK2
  6
Continuous
 62
   136
100
AcDbLine
 10
-7.0000002161
 20
-19.9999999581
 30
0.0
 11
18.6599995941
 21
-19.9999999581
 31
0.0
  0
TEXT
  5
177
330
171
100
AcDbEntity
  8
SK2
  6
Continuous
 62
   136
100
AcDbText
 10
1.9322728819
 20
-19.1249999581
 30
0.0
 40
3.5
  1
11,66
  7
SEACAD_Solid_Edge_ISO
 11
1.9322728819
 21
-15.6249999581
 31
0.0
100
AcDbText
 73
     3
  0
ENDBLK
  5
179
330
171
100
AcDbEntity
  8
0
100
AcDbBlockEnd
  0
BLOCK
  5
183
330
17B
100
AcDbEntity
  8
0
100
AcDbBlockBegin
  2
DMBLK36
 70
     0
 10
0.0
 20
0.0
 30
0.0
  3
DMBLK36
  1

  0
HATCH
  5
17C
330
17B
100
AcDbEntity
  8
SK2
  6
Continuous
 62
   136
100
AcDbHatch
 10
0.0
 20
0.0
 30
0.0
210
0.0
220
0.0
230
1.0
  2
SOLID
 70
     1
 71
     0
 91
        1
 92
        1
 93
        3
 72
     1
 10
-29.13982366832595
 20
8.999674520426058
 11
-27.97315696564814
 21
8.999674520426058
 72
     1
 10
-27.97315696564814
 20
8.999674520426058
 11
-28.55649031698704
 21
12.49967462845948
 72
     1
 10
-28.55649031698704
 20
12.49967462845948
 11
-29.13982366832595
 21
8.999674520426058
 97
        0
 75
     0
 76
     1
 98
        0
  0
HATCH
  5
17D
330
17B
100
AcDbEntity
  8
SK2
  6
Continuous
 62
   136
100
AcDbHatch
 10
0.0
 20
0.0
 30
0.0
210
0.0
220
0.0
230
1.0
  2
SOLID
 70
     1
 71
     0
 91
        1
 92
        1
 93
        3
 72
     1
 10
-29.13982366832595
 20
-8.999673710233903
 11
-28.55649031698704
 21
-12.49967381826732
 72
     1
 10
-28.55649031698704
 20
-12.49967381826732
 11
-27.97315696564814
 21
-8.999673710233903
 72
     1
 10
-27.97315696564814
 20
-8.999673710233903
 11
-29.13982366832595
 21
-8.999673710233903
 97
        0
 75
     0
 76
     1
 98
        0
  0
LINE
  5
17E
330
17B
100
AcDbEntity
  8
SK2
  6
Continuous
 62
   136
100
AcDbLine
 10
0.0
 20
12.4996746285
 30
0.0
 11
-30.306490371
 21
12.4996746285
 31
0.0
  0
LINE
  5
17F
330
17B
100
AcDbEntity
  8
SK2
  6
Continuous
 62
   136
100
AcDbLine
 10
0.0
 20
-12.4996746285
 30
0.0
 11
-30.306490371
 21
-12.4996746285
 31
0.0
  0
LINE
  5
180
330
17B
100
AcDbEntity
  8
SK2
  6
Continuous
 62
   136
100
AcDbLine
 10
-28.556490317
 20
12.4996746285
 30
0.0
 11
-28.556490317
 21
-12.4996738183
 31
0.0
  0
TEXT
  5
181
330
17B
100
AcDbEntity
  8
SK2
  6
Continuous
 62
   136
100
AcDbText
 10
-29.431490317
 20
-0.0318177767
 30
0.0
 40
3.5
  1
25
 50
90.0
  7
SEACAD_Solid_Edge_ISO
 11
-32.931490317
 21
-0.0318177767
 31
0.0
100
AcDbText
 73
     3
  0
TEXT
  5
182
330
17B
100
AcDbEntity
  8
SK2
  6
Continuous
 62
   136
100
AcDbText
 10
-29.431490317
 20
-4.1045450494
 30
0.0
 40
3.5
  1
ø
 50
90.0
  7
SEACAD_Solid_Edge_ISO
 11
-32.931490317
 21
-4.1045450494
 31
0.0
100
AcDbText
 73
     3
  0
ENDBLK
  5
184
330
17B
100
AcDbEntity
  8
0
100
AcDbBlockEnd
  0
ENDSEC
  0
SECTION
  2
ENTITIES
  0
LINE
  5
41
330
1F
100
AcDbEntity
  8
SK3
100
AcDbLine
 10
-21.9164617093
 20
-5.8901415274
 30
0.0
 11
-21.9164617093
 21
-7.9299180324
 31
0.0
  0
LINE
  5
43
330
1F
100
AcDbEntity
  8
SK1
  6
Continuous
100
AcDbLine
 10
6.9198076211
 20
-4.6029772751
 30
0.0
 11
6.9198076211
 21
4.6029772751
 31
0.0
  0
LINE
  5
44
330
1F
100
AcDbEntity
  8
SK1
  6
Continuous
100
AcDbLine
 10
6.66
 20
-4.6029772751
 30
0.0
 11
6.66
 21
4.6029772751
 31
0.0
  0
LINE
  5
45
330
1F
100
AcDbEntity
  8
SK1
  6
Continuous
100
AcDbLine
 10
6.66
 20
-5.3420809011
 30
0.0
 11
6.9198076211
 21
-5.3420809011
 31
0.0
  0
LINE
  5
46
330
1F
100
AcDbEntity
  8
SK1
  6
Continuous
100
AcDbLine
 10
6.66
 20
-4.6029772751
 30
0.0
 11
6.9198076211
 21
-4.6029772751
 31
0.0
  0
LINE
  5
47
330
1F
100
AcDbEntity
  8
SK1
  6
Continuous
100
AcDbLine
 10
3.2182480697
 20
-4.5845882118
 30
0.0
 11
3.2182480697
 21
4.5845882118
 31
0.0
  0
LINE
  5
48
330
1F
100
AcDbEntity
  8
SK1
  6
Continuous
100
AcDbLine
 10
3.56
 20
-4.4708449267
 30
0.0
 11
3.56
 21
4.4708449267
 31
0.0
  0
LINE
  5
49
330
1F
100
AcDbEntity
  8
SK1
  6
Continuous
100
AcDbLine
 10
11.66
 20
-3.4997611396
 30
0.0
 11
11.66
 21
3.4997611396
 31
0.0
  0
LINE
  5
4A
330
1F
100
AcDbEntity
  8
SK1
  6
Continuous
100
AcDbLine
 10
11.535
 20
-3.5826779839
 30
0.0
 11
11.535
 21
3.5826779839
 31
0.0
  0
LINE
  5
4B
330
1F
100
AcDbEntity
  8
SK1
  6
Continuous
100
AcDbLine
 10
3.76
 20
-3.8371818701
 30
0.0
 11
3.76
 21
3.8371818701
 31
0.0
  0
LINE
  5
4C
330
1F
100
AcDbEntity
  8
SK1
  6
Continuous
100
AcDbLine
 10
6.46
 20
-3.8371818701
 30
0.0
 11
6.46
 21
3.8371818701
 31
0.0
  0
SPLINE
  5
4D
330
1F
100
AcDbEntity
  8
SK1
  6
Continuous
100
AcDbSpline
210
0.0
220
0.0
230
1.0
 70
     8
 71
     3
 72
     8
 73
     4
 74
     0
 42
0.0000000021156732
 43
0.0000000001
 12
1.0
 22
0.0
 32
0.0
 13
1.0
 23
0.0
 33
0.0
 40
0.0
 40
0.0
 40
0.0
 40
0.0
 40
1.0
 40
1.0
 40
1.0
 40
1.0
 10
6.919807621135324
 20
-4.602977275118715
 30
0.0
 10
8.458252117700763
 20
-4.262908665067294
 30
0.0
 10
9.996661747832876
 20
-3.922816934205696
 30
0.0
 10
11.535
 20
-3.582677983937337
 30
0.0
  0
SPLINE
  5
4E
330
1F
100
AcDbEntity
  8
SK1
  6
Continuous
100
AcDbSpline
210
0.0
220
0.0
230
1.0
 70
     8
 71
     3
 72
    10
 73
     6
 74
     0
 42
0.0000000616132438
 43
0.0000000001
 12
1.0
 22
0.0
 32
0.0
 13
1.0
 23
0.0
 33
0.0
 40
0.0
 40
0.0
 40
0.0
 40
0.0
 40
0.5
 40
0.5
 40
1.0
 40
1.0
 40
1.0
 40
1.0
 10
11.535
 20
-3.582677983937337
 30
0.0
 10
11.57259151117949
 20
-3.574366198714825
 30
0.0
 10
11.60494850261215
 20
-3.561964136799313
 30
0.0
 10
11.64829447702993
 20
-3.533150008862113
 30
0.0
 10
11.66
 20
-3.516554190841954
 30
0.0
 10
11.66
 20
-3.49976113961046
 30
0.0
  0
SPLINE
  5
4F
330
1F
100
AcDbEntity
  8
SK3
100
AcDbSpline
210
0.0
220
0.0
230
1.0
 70
     8
 71
     3
 72
    10
 73
     6
 74
     0
 42
0.0000000213926534
 43
0.0000000001
 12
1.0
 22
0.0
 32
0.0
 13
1.0
 23
0.0
 33
0.0
 40
0.0
 40
0.0
 40
0.0
 40
0.0
 40
0.5
 40
0.5
 40
1.0
 40
1.0
 40
1.0
 40
1.0
 10
11.66
 20
-2.818355075181747
 30
0.0
 10
11.66
 20
-2.778476115321511
 30
0.0
 10
11.61673453550373
 20
-2.738262450565132
 30
0.0
 10
11.46858733670091
 20
-2.681571865362303
 30
0.0
 10
11.36421223882644
 20
-2.665096437994076
 30
0.0
 10
11.26
 20
-2.665096437994076
 30
0.0
  0
SPLINE
  5
50
330
1F
100
AcDbEntity
  8
SK1
  6
Continuous
100
AcDbSpline
210
0.0
220
0.0
230
1.0
 70
     8
 71
     3
 72
    10
 73
     6
 74
     0
 42
0.0000000253845494
 43
0.0000000001
 12
1.0
 22
0.0
 32
0.0
 13
1.0
 23
0.0
 33
0.0
 40
0.0
 40
0.0
 40
0.0
 40
0.0
 40
0.5
 40
0.5
 40
1.0
 40
1.0
 40
1.0
 40
1.0
 10
3.56
 20
-5.209948552723161
 30
0.0
 10
3.560000000000013
 20
-5.242516148093735
 30
0.0
 10
3.521600558429439
 20
-5.275053735258338
 30
0.0
 10
3.392249740846039
 20
-5.318145836471669
 30
0.0
 10
3.303521262204408
 20
-5.328280244642724
 30
0.0
 10
3.218248069711986
 20
-5.323691837772869
 30
0.0
  0
LINE
  5
51
330
1F
100
AcDbEntity
  8
SK1
  6
Continuous
100
AcDbLine
 10
3.2182480697
 20
-5.3236918378
 30
0.0
 11
-16.926410275
 21
-4.2395969187
 31
0.0
  0
LINE
  5
52
330
1F
100
AcDbEntity
  8
SK1
  6
Continuous
100
AcDbLine
 10
6.66
 20
-5.3420809011
 30
0.0
 11
6.66
 21
-4.6528719302
 31
0.0
  0
SPLINE
  5
53
330
1F
100
AcDbEntity
  8
SK1
  6
Continuous
100
AcDbSpline
210
0.0
220
0.0
230
1.0
 70
     8
 71
     3
 72
    10
 73
     6
 74
     0
 42
0.000000042790812
 43
0.0000000001
 12
1.0
 22
0.0
 32
0.0
 13
1.0
 23
0.0
 33
0.0
 40
0.0
 40
0.0
 40
0.0
 40
0.0
 40
0.5
 40
0.5
 40
1.0
 40
1.0
 40
1.0
 40
1.0
 10
6.660000000000006
 20
-4.652871930212034
 30
0.0
 10
6.66000000000001
 20
-4.632921433508729
 30
0.0
 10
6.638212026177222
 20
-4.61278041752099
 30
0.0
 10
6.564376700676173
 20
-4.584557069685546
 30
0.0
 10
6.512157774181685
 20
-4.576285496125938
 30
0.0
 10
6.459999999999646
 20
-4.57628549612483
 30
0.0
  0
LINE
  5
54
330
1F
100
AcDbEntity
  8
SK1
  6
Continuous
100
AcDbLine
 10
6.46
 20
-4.5762854961
 30
0.0
 11
3.76
 21
-4.5762854961
 31
0.0
  0
SPLINE
  5
55
330
1F
100
AcDbEntity
  8
SK1
  6
Continuous
100
AcDbSpline
210
0.0
220
0.0
230
1.0
 70
     8
 71
     3
 72
    10
 73
     6
 74
     0
 42
0.0000000427691831
 43
0.0000000001
 12
1.0
 22
0.0
 32
0.0
 13
1.0
 23
0.0
 33
0.0
 40
0.0
 40
0.0
 40
0.0
 40
0.0
 40
0.5
 40
0.5
 40
1.0
 40
1.0
 40
1.0
 40
1.0
 10
3.760000000000006
 20
-4.57628549612599
 30
0.0
 10
3.707252529531883
 20
-4.576285496125992
 30
0.0
 10
3.655686903106357
 20
-4.58450197116727
 30
0.0
 10
3.581417235304668
 20
-4.612953044945287
 30
0.0
 10
3.560000000000006
 20
-4.63265792822308
 30
0.0
 10
3.560000000000008
 20
-4.652871930212034
 30
0.0
  0
LINE
  5
56
330
1F
100
AcDbEntity
  8
SK1
  6
Continuous
100
AcDbLine
 10
3.56
 20
-4.6528719302
 30
0.0
 11
3.56
 21
-5.2099485527
 31
0.0
  0
SPLINE
  5
57
330
1F
100
AcDbEntity
  8
SK1
  6
Continuous
100
AcDbSpline
210
0.0
220
0.0
230
1.0
 70
     8
 71
     3
 72
    10
 73
     6
 74
     0
 42
0.0000000253845494
 43
0.0000000001
 12
1.0
 22
0.0
 32
0.0
 13
1.0
 23
0.0
 33
0.0
 40
0.0
 40
0.0
 40
0.0
 40
0.0
 40
0.5
 40
0.5
 40
1.0
 40
1.0
 40
1.0
 40
1.0
 10
3.56
 20
-4.470844926714134
 30
0.0
 10
3.560000000000013
 20
-4.503412522084705
 30
0.0
 10
3.521600558429439
 20
-4.53595010924931
 30
0.0
 10
3.392249740846039
 20
-4.579042210462639
 30
0.0
 10
3.303521262204408
 20
-4.589176618633693
 30
0.0
 10
3.218248069711986
 20
-4.584588211763841
 30
0.0
  0
LINE
  5
58
330
1F
100
AcDbEntity
  8
SK1
  6
Continuous
100
AcDbLine
 10
3.2182480697
 20
-4.5845882118
 30
0.0
 11
-16.926410275
 21
-3.5004932927
 31
0.0
  0
SPLINE
  5
59
330
1F
100
AcDbEntity
  8
SK1
  6
Continuous
100
AcDbSpline
210
0.0
220
0.0
230
1.0
 70
     8
 71
     3
 72
    10
 73
     6
 74
     0
 42
0.000000042790812
 43
0.0000000001
 12
1.0
 22
0.0
 32
0.0
 13
1.0
 23
0.0
 33
0.0
 40
0.0
 40
0.0
 40
0.0
 40
0.0
 40
0.5
 40
0.5
 40
1.0
 40
1.0
 40
1.0
 40
1.0
 10
6.660000000000006
 20
-3.913768304203006
 30
0.0
 10
6.66000000000001
 20
-3.893817807499699
 30
0.0
 10
6.638212026177222
 20
-3.87367679151196
 30
0.0
 10
6.564376700676173
 20
-3.845453443676518
 30
0.0
 10
6.512157774181685
 20
-3.837181870116908
 30
0.0
 10
6.459999999999646
 20
-3.837181870115799
 30
0.0
  0
LINE
  5
5A
330
1F
100
AcDbEntity
  8
SK1
  6
Continuous
100
AcDbLine
 10
6.46
 20
-3.8371818701
 30
0.0
 11
3.76
 21
-3.8371818701
 31
0.0
  0
SPLINE
  5
5B
330
1F
100
AcDbEntity
  8
SK1
  6
Continuous
100
AcDbSpline
210
0.0
220
0.0
230
1.0
 70
     8
 71
     3
 72
    10
 73
     6
 74
     0
 42
0.0000000427691831
 43
0.0000000001
 12
1.0
 22
0.0
 32
0.0
 13
1.0
 23
0.0
 33
0.0
 40
0.0
 40
0.0
 40
0.0
 40
0.0
 40
0.5
 40
0.5
 40
1.0
 40
1.0
 40
1.0
 40
1.0
 10
3.760000000000006
 20
-3.837181870116961
 30
0.0
 10
3.707252529531883
 20
-3.837181870116962
 30
0.0
 10
3.655686903106357
 20
-3.84539834515824
 30
0.0
 10
3.581417235304668
 20
-3.873849418936257
 30
0.0
 10
3.560000000000006
 20
-3.89355430221405
 30
0.0
 10
3.560000000000008
 20
-3.913768304203005
 30
0.0
  0
SPLINE
  5
5C
330
1F
100
AcDbEntity
  8
SK1
  6
Continuous
100
AcDbSpline
210
0.0
220
0.0
230
1.0
 70
     8
 71
     3
 72
     8
 73
     4
 74
     0
 42
0.0000000021156732
 43
0.0000000001
 12
1.0
 22
0.0
 32
0.0
 13
1.0
 23
0.0
 33
0.0
 40
0.0
 40
0.0
 40
0.0
 40
0.0
 40
1.0
 40
1.0
 40
1.0
 40
1.0
 10
6.919807621135324
 20
-5.342080901127744
 30
0.0
 10
8.458252117700763
 20
-5.002012291076323
 30
0.0
 10
9.996661747832876
 20
-4.661920560214727
 30
0.0
 10
11.535
 20
-4.321781609946368
 30
0.0
  0
SPLINE
  5
5D
330
1F
100
AcDbEntity
  8
SK1
  6
Continuous
100
AcDbSpline
210
0.0
220
0.0
230
1.0
 70
     8
 71
     3
 72
    10
 73
     6
 74
     0
 42
0.0000000616132438
 43
0.0000000001
 12
1.0
 22
0.0
 32
0.0
 13
1.0
 23
0.0
 33
0.0
 40
0.0
 40
0.0
 40
0.0
 40
0.0
 40
0.5
 40
0.5
 40
1.0
 40
1.0
 40
1.0
 40
1.0
 10
11.535
 20
-4.321781609946368
 30
0.0
 10
11.57259151117949
 20
-4.313469824723856
 30
0.0
 10
11.60494850261215
 20
-4.301067762808343
 30
0.0
 10
11.64829447702993
 20
-4.272253634871142
 30
0.0
 10
11.66
 20
-4.255657816850982
 30
0.0
 10
11.66
 20
-4.238864765619488
 30
0.0
  0
LINE
  5
5E
330
1F
100
AcDbEntity
  8
SK1
  6
Continuous
100
AcDbLine
 10
11.66
 20
-4.2388647656
 30
0.0
 11
11.66
 21
-3.5574587012
 31
0.0
  0
SPLINE
  5
5F
330
1F
100
AcDbEntity
  8
SK1
  6
Continuous
100
AcDbSpline
210
0.0
220
0.0
230
1.0
 70
     8
 71
     3
 72
     8
 73
     4
 74
     0
 42
0.0000002888433808
 43
0.0000000001
 12
1.0
 22
0.0
 32
0.0
 13
1.0
 23
0.0
 33
0.0
 40
0.0
 40
0.0
 40
0.0
 40
0.0
 40
0.9999999999999999
 40
0.9999999999999999
 40
0.9999999999999999
 40
0.9999999999999999
 10
11.66
 20
-3.557458701190776
 30
0.0
 10
11.66
 20
-3.546571421080397
 30
0.0
 10
11.65677527622649
 20
-3.535659194263718
 30
0.0
 10
11.65057931333688
 20
-3.524970331807973
 30
0.0
  0
SPLINE
  5
60
330
1F
100
AcDbEntity
  8
SK3
100
AcDbSpline
210
0.0
220
0.0
230
1.0
 70
     8
 71
     3
 72
    10
 73
     6
 74
     0
 42
0.0000000234772686
 43
0.0000000001
 12
1.0
 22
0.0
 32
0.0
 13
1.0
 23
0.0
 33
0.0
 40
0.0
 40
0.0
 40
0.0
 40
0.0
 40
0.4209584797526429
 40
0.4209584797526429
 40
1.0
 40
1.0
 40
1.0
 40
1.0
 10
11.65057931333688
 20
-3.524970331807973
 30
0.0
 10
11.63408011702554
 20
-3.496507017365295
 30
0.0
 10
11.59651184092259
 20
-3.469627581351522
 30
0.0
 10
11.46858733670091
 20
-3.420675491371332
 30
0.0
 10
11.36421223882644
 20
-3.404200064003106
 30
0.0
 10
11.26
 20
-3.404200064003106
 30
0.0
  0
LINE
  5
61
330
1F
100
AcDbEntity
  8
SK1
  6
Continuous
100
AcDbLine
 10
-22.34
 20
-6.1450479361
 30
0.0
 11
-22.34
 21
-0.4
 31
0.0
  0
LINE
  5
62
330
1F
100
AcDbEntity
  8
SK1
  6
Continuous
100
AcDbLine
 10
-22.0817519303
 20
-6.3553123498
 30
0.0
 11
-22.0817519303
 21
-0.4
 31
0.0
  0
SPLINE
  5
63
330
1F
100
AcDbEntity
  8
SK1
  6
Continuous
100
AcDbSpline
210
0.0
220
0.0
230
1.0
 70
     8
 71
     3
 72
    10
 73
     6
 74
     0
 42
0.0000000269084072
 43
0.0000000001
 12
1.0
 22
0.0
 32
0.0
 13
1.0
 23
0.0
 33
0.0
 40
0.0
 40
0.0
 40
0.0
 40
0.0
 40
0.5
 40
0.5
 40
1.0
 40
1.0
 40
1.0
 40
1.0
 10
-22.08175193028802
 20
-6.920997774731317
 30
0.0
 10
-22.15330684542487
 20
-6.913880382922661
 30
0.0
 10
-22.21940242541914
 20
-6.888335995334573
 30
0.0
 10
-22.31354727266464
 20
-6.811635673201014
 30
0.0
 10
-22.34000000000001
 20
-6.761293609469144
 30
0.0
 10
-22.34000000000001
 20
-6.710733361022307
 30
0.0
  0
SPLINE
  5
64
330
1F
100
AcDbEntity
  8
SK1
  6
Continuous
100
AcDbSpline
210
0.0
220
0.0
230
1.0
 70
     8
 71
     3
 72
    10
 73
     6
 74
     0
 42
0.0000000269084072
 43
0.0000000001
 12
1.0
 22
0.0
 32
0.0
 13
1.0
 23
0.0
 33
0.0
 40
0.0
 40
0.0
 40
0.0
 40
0.0
 40
0.5
 40
0.5
 40
1.0
 40
1.0
 40
1.0
 40
1.0
 10
-22.08175193028802
 20
-6.35531234978208
 30
0.0
 10
-22.15330684542467
 20
-6.348194957973443
 30
0.0
 10
-22.21940242541923
 20
-6.322650570385267
 30
0.0
 10
-22.31354727266455
 20
-6.245950248251861
 30
0.0
 10
-22.33999999999999
 20
-6.195608184519855
 30
0.0
 10
-22.34000000000014
 20
-6.145047936073076
 30
0.0
  0
LINE
  5
65
330
1F
100
AcDbEntity
  8
SK1
  6
Continuous
100
AcDbLine
 10
-22.34
 20
-6.710733361
 30
0.0
 11
-22.34
 21
-6.1450479361
 31
0.0
  0
LINE
  5
66
330
1F
100
AcDbEntity
  8
SK3
100
AcDbLine
 10
-22.34
 20
-6.0632635639
 30
0.0
 11
-21.9164617093
 21
-5.8901415274
 31
0.0
  0
LINE
  5
67
330
1F
100
AcDbEntity
  8
SK3
100
AcDbLine
 10
-21.9164617093
 20
-5.8901415274
 30
0.0
 11
-3.0796436017
 21
-5.8901415274
 31
0.0
  0
LINE
  5
68
330
1F
100
AcDbEntity
  8
SK3
100
AcDbLine
 10
-22.34
 20
-5.497578139
 30
0.0
 11
-21.9164617093
 21
-5.3244561025
 31
0.0
  0
LINE
  5
69
330
1F
100
AcDbEntity
  8
SK3
100
AcDbLine
 10
-21.9164617093
 20
-5.3244561025
 30
0.0
 11
-3.0796436017
 21
-5.3244561025
 31
0.0
  0
LINE
  5
6A
330
1F
100
AcDbEntity
  8
SK1
  6
Continuous
100
AcDbLine
 10
6.66
 20
-11.8516737909
 30
0.0
 11
6.66
 21
-5.3420809011
 31
0.0
  0
LINE
  5
6B
330
1F
100
AcDbEntity
  8
SK1
  6
Continuous
100
AcDbLine
 10
6.9198076211
 20
-11.8516737909
 30
0.0
 11
6.9198076211
 21
-5.3420809011
 31
0.0
  0
LINE
  5
6C
330
1F
100
AcDbEntity
  8
SK1
  6
Continuous
100
AcDbLine
 10
6.66
 20
-12.1578205368
 30
0.0
 11
6.9198076211
 21
-12.1578205368
 31
0.0
  0
LINE
  5
6D
330
1F
100
AcDbEntity
  8
SK1
  6
Continuous
100
AcDbLine
 10
6.66
 20
-11.8516737909
 30
0.0
 11
6.9198076211
 21
-11.8516737909
 31
0.0
  0
LINE
  5
6E
330
1F
100
AcDbEntity
  8
SK1
  6
Continuous
100
AcDbLine
 10
3.56
 20
-11.5326780833
 30
0.0
 11
3.56
 21
-5.2099485527
 31
0.0
  0
LINE
  5
6F
330
1F
100
AcDbEntity
  8
SK1
  6
Continuous
100
AcDbLine
 10
3.2182480697
 20
-11.8072786647
 30
0.0
 11
3.2182480697
 21
-5.3236918378
 31
0.0
  0
LINE
  5
70
330
1F
100
AcDbEntity
  8
SK1
  6
Continuous
100
AcDbLine
 10
11.535
 20
-9.3884534044
 30
0.0
 11
11.535
 21
-4.3217816099
 31
0.0
  0
LINE
  5
71
330
1F
100
AcDbEntity
  8
SK1
  6
Continuous
100
AcDbLine
 10
11.66
 20
-9.1882744343
 30
0.0
 11
11.66
 21
-4.2388647656
 31
0.0
  0
LINE
  5
72
330
1F
100
AcDbEntity
  8
SK1
  6
Continuous
100
AcDbLine
 10
3.76
 20
-10.0028801381
 30
0.0
 11
3.76
 21
-4.5762854961
 31
0.0
  0
LINE
  5
73
330
1F
100
AcDbEntity
  8
SK1
  6
Continuous
100
AcDbLine
 10
6.46
 20
-10.0028801381
 30
0.0
 11
6.46
 21
-4.5762854961
 31
0.0
  0
LINE
  5
74
330
1F
100
AcDbEntity
  8
SK1
  6
Continuous
100
AcDbLine
 10
6.9198076211
 20
-11.8516737909
 30
0.0
 11
11.535
 21
-9.3884534044
 31
0.0
  0
ARC
  5
75
330
1F
100
AcDbEntity
  8
SK1
  6
Continuous
100
AcDbCircle
 10
11.4286092649
 20
-9.182901583
 30
0.0
 40
0.2314531049789563
100
AcDbArc
 50
297.3654490732
 51
358.6698413103
  0
ARC
  5
76
330
1F
100
AcDbEntity
  8
SK3
100
AcDbCircle
 10
11.2744441706
 20
-7.5588165271
 30
0.0
 40
0.3858713716544363
100
AcDbArc
 50
2.3172597207
 51
92.1452314595
  0
ARC
  5
77
330
1F
100
AcDbEntity
  8
SK1
  6
Continuous
100
AcDbCircle
 10
3.2674163507
 20
-11.824654807
 30
0.0
 40
0.2929265801809828
100
AcDbArc
 50
260.3370530069
 51
357.227293464
  0
LINE
  5
78
330
1F
100
AcDbEntity
  8
SK1
  6
Continuous
100
AcDbLine
 10
3.2182480697
 20
-12.1134254106
 30
0.0
 11
-16.926410275
 21
-9.4961887542
 31
0.0
  0
LINE
  5
79
330
1F
100
AcDbEntity
  8
SK1
  6
Continuous
100
AcDbLine
 10
6.66
 20
-12.1578205368
 30
0.0
 11
6.66
 21
-11.8516737909
 31
0.0
  0
ARC
  5
7A
330
1F
100
AcDbEntity
  8
SK1
  6
Continuous
100
AcDbCircle
 10
6.4672716847
 20
-10.5017780977
 30
0.0
 40
0.192888329786198
100
AcDbArc
 50
2.3339651308
 51
92.1605018627
  0
LINE
  5
7B
330
1F
100
AcDbEntity
  8
SK1
  6
Continuous
100
AcDbLine
 10
6.46
 20
-10.309026884
 30
0.0
 11
3.76
 21
-10.309026884
 31
0.0
  0
ARC
  5
7C
330
1F
100
AcDbEntity
  8
SK1
  6
Continuous
100
AcDbCircle
 10
3.7527286759
 20
-10.5017784878
 30
0.0
 40
0.1928887059728785
100
AcDbArc
 50
87.8396095414
 51
177.6659234645
  0
LINE
  5
7D
330
1F
100
AcDbEntity
  8
SK1
  6
Continuous
100
AcDbLine
 10
3.56
 20
-11.5326780833
 30
0.0
 11
3.56
 21
-11.8388248292
 31
0.0
  0
ARC
  5
7E
330
1F
100
AcDbEntity
  8
SK1
  6
Continuous
100
AcDbCircle
 10
6.4672716847
 20
-10.1956313518
 30
0.0
 40
0.1928883297862046
100
AcDbArc
 50
2.3339651308
 51
92.1605018627
  0
LINE
  5
7F
330
1F
100
AcDbEntity
  8
SK1
  6
Continuous
100
AcDbLine
 10
6.46
 20
-10.0028801381
 30
0.0
 11
3.76
 21
-10.0028801381
 31
0.0
  0
ARC
  5
80
330
1F
100
AcDbEntity
  8
SK1
  6
Continuous
100
AcDbCircle
 10
3.7527286759
 20
-10.1956317419
 30
0.0
 40
0.192888705972885
100
AcDbArc
 50
87.8396095414
 51
177.6659234645
  0
ARC
  5
81
330
1F
100
AcDbEntity
  8
SK1
  6
Continuous
100
AcDbCircle
 10
3.2674163507
 20
-11.5185080611
 30
0.0
 40
0.2929265801809845
100
AcDbArc
 50
260.3370530069
 51
357.227293464
  0
LINE
  5
82
330
1F
100
AcDbEntity
  8
SK1
  6
Continuous
100
AcDbLine
 10
3.2182480697
 20
-11.8072786647
 30
0.0
 11
-16.926410275
 21
-9.1900420083
 31
0.0
  0
LINE
  5
83
330
1F
100
AcDbEntity
  8
SK1
  6
Continuous
100
AcDbLine
 10
6.9198076211
 20
-12.1578205368
 30
0.0
 11
11.535
 21
-9.6946001503
 31
0.0
  0
ARC
  5
84
330
1F
100
AcDbEntity
  8
SK1
  6
Continuous
100
AcDbCircle
 10
11.4286092649
 20
-9.4890483289
 30
0.0
 40
0.231453104980331
100
AcDbArc
 50
297.3654490734
 51
358.6698413101
  0
LINE
  5
85
330
1F
100
AcDbEntity
  8
SK1
  6
Continuous
100
AcDbLine
 10
11.66
 20
-9.4944211802
 30
0.0
 11
11.66
 21
-9.1882744343
 31
0.0
  0
ARC
  5
86
330
1F
100
AcDbEntity
  8
SK3
100
AcDbCircle
 10
11.2744441706
 20
-7.864963273
 30
0.0
 40
0.3858713716544325
100
AcDbArc
 50
2.3172597207
 51
92.1452314595
  0
LINE
  5
87
330
1F
100
AcDbEntity
  8
SK1
  6
Continuous
100
AcDbLine
 10
-22.34
 20
-9.0904101326
 30
0.0
 11
-22.34
 21
-6.710733361
 31
0.0
  0
LINE
  5
88
330
1F
100
AcDbEntity
  8
SK1
  6
Continuous
100
AcDbLine
 10
-22.0817519303
 20
-9.3877689182
 30
0.0
 11
-22.0817519303
 21
-6.9209977747
 31
0.0
  0
SPLINE
  5
89
330
1F
100
AcDbEntity
  8
SK1
  6
Continuous
100
AcDbSpline
210
0.0
220
0.0
230
1.0
 70
     8
 71
     3
 72
    10
 73
     6
 74
     0
 42
0.0000000227964674
 43
0.0000000001
 12
1.0
 22
0.0
 32
0.0
 13
1.0
 23
0.0
 33
0.0
 40
0.0
 40
0.0
 40
0.0
 40
0.0
 40
0.4999999999999996
 40
0.4999999999999996
 40
1.0
 40
1.0
 40
1.0
 40
1.0
 10
-22.08175193028802
 20
-9.387768918179042
 30
0.0
 10
-22.15330684542485
 20
-9.377703406154524
 30
0.0
 10
-22.21940242541913
 20
-9.341578186784918
 30
0.0
 10
-22.31354727266462
 20
-9.23310755098529
 30
0.0
 10
-22.33999999999999
 20
-9.161913121697808
 30
0.0
 10
-22.34000000000014
 20
-9.09041013262734
 30
0.0
  0
LINE
  5
8A
330
1F
100
AcDbEntity
  8
SK3
100
AcDbLine
 10
-21.9164617093
 20
7.9299180324
 30
0.0
 11
-21.9164617093
 21
5.8901415274
 31
0.0
  0
SPLINE
  5
8B
330
1F
100
AcDbEntity
  8
SK1
  6
Continuous
100
AcDbSpline
210
0.0
220
0.0
230
1.0
 70
     8
 71
     3
 72
    10
 73
     6
 74
     0
 42
0.0000000228000739
 43
0.0000000001
 12
1.0
 22
0.0
 32
0.0
 13
1.0
 23
0.0
 33
0.0
 40
0.0
 40
0.0
 40
0.0
 40
0.0
 40
0.5
 40
0.5
 40
1.0
 40
1.0
 40
1.0
 40
1.0
 10
-22.34000000000014
 20
9.090410132627321
 30
0.0
 10
-22.34000000000001
 20
9.161884936856628
 30
0.0
 10
-22.31326416133239
 20
9.233386588430836
 30
0.0
 10
-22.21985596458168
 20
9.341102701992277
 30
0.0
 10
-22.15328300875938
 20
9.377706759222027
 30
0.0
 10
-22.08175193028802
 20
9.387768918179045
 30
0.0
  0
SPLINE
  5
8C
330
1F
100
AcDbEntity
  8
SK1
  6
Continuous
100
AcDbSpline
210
0.0
220
0.0
230
1.0
 70
     8
 71
     3
 72
    11
 73
     7
 74
     0
 42
0.0000000005397559
 43
0.0000000001
 12
1.0
 22
0.0
 32
0.0
 13
1.0
 23
0.0
 33
0.0
 40
0.0
 40
0.0
 40
0.0
 40
0.0
 40
0.8904043968419015
 40
0.8904043968419015
 40
0.8904043968419015
 40
1.0
 40
1.0
 40
1.0
 40
1.0
 10
-22.08175193028802
 20
9.387768918179045
 30
0.0
 10
-16.63655230217699
 20
10.15373617881874
 30
0.0
 10
-11.19133014604001
 20
10.91954329254181
 30
0.0
 10
-5.74609657231322
 20
11.68526919775262
 30
0.0
 10
-5.075868909377588
 20
11.77951872386569
 30
0.0
 10
-4.405641062509899
 20
11.87376694200826
 30
0.0
 10
-3.735413044452093
 20
11.9680139427404
 30
0.0
  0
LINE
  5
8D
330
1F
100
AcDbEntity
  8
SK3
100
AcDbLine
 10
-22.34
 20
-8.1747495643
 30
0.0
 11
-21.9164617093
 21
-7.9299180324
 31
0.0
  0
LINE
  5
8E
330
1F
100
AcDbEntity
  8
SK3
100
AcDbLine
 10
-21.9164617093
 20
-7.9299180324
 30
0.0
 11
-3.0796436017
 21
-7.9299180324
 31
0.0
  0
LINE
  5
8F
330
1F
100
AcDbEntity
  8
SK3
100
AcDbLine
 10
-21.9164617093
 20
7.9299180324
 30
0.0
 11
-22.34
 21
8.1747495643
 31
0.0
  0
LINE
  5
90
330
1F
100
AcDbEntity
  8
SK1
  6
Continuous
100
AcDbLine
 10
6.66
 20
-13.0
 30
0.0
 11
6.66
 21
-12.1578205368
 31
0.0
  0
LINE
  5
91
330
1F
100
AcDbEntity
  8
SK1
  6
Continuous
100
AcDbLine
 10
6.9198076211
 20
-13.0
 30
0.0
 11
6.9198076211
 21
-12.1578205368
 31
0.0
  0
LINE
  5
92
330
1F
100
AcDbEntity
  8
SK1
  6
Continuous
100
AcDbLine
 10
3.56
 20
-11.8388248292
 30
0.0
 11
3.56
 21
-12.6548894778
 31
0.0
  0
LINE
  5
93
330
1F
100
AcDbEntity
  8
SK1
  6
Continuous
100
AcDbLine
 10
3.2182480697
 20
-12.1134254106
 30
0.0
 11
3.2182480697
 21
-12.9519698985
 31
0.0
  0
LINE
  5
94
330
1F
100
AcDbEntity
  8
SK1
  6
Continuous
100
AcDbLine
 10
11.535
 20
-10.3354174377
 30
0.0
 11
11.535
 21
-9.6946001503
 31
0.0
  0
LINE
  5
95
330
1F
100
AcDbEntity
  8
SK1
  6
Continuous
100
AcDbLine
 10
11.66
 20
-10.1189110868
 30
0.0
 11
11.66
 21
-9.4944211802
 31
0.0
  0
LINE
  5
96
330
1F
100
AcDbEntity
  8
SK1
  6
Continuous
100
AcDbLine
 10
3.76
 20
-10.309026884
 30
0.0
 11
3.76
 21
-11.0
 31
0.0
  0
LINE
  5
97
330
1F
100
AcDbEntity
  8
SK1
  6
Continuous
100
AcDbLine
 10
6.46
 20
-11.0
 30
0.0
 11
6.46
 21
-10.309026884
 31
0.0
  0
LINE
  5
98
330
1F
100
AcDbEntity
  8
SK1
  6
Continuous
100
AcDbLine
 10
6.9198076211
 20
12.1578205368
 30
0.0
 11
6.9198076211
 21
13.0
 31
0.0
  0
LINE
  5
99
330
1F
100
AcDbEntity
  8
SK1
  6
Continuous
100
AcDbLine
 10
6.66
 20
12.1578205368
 30
0.0
 11
6.66
 21
13.0
 31
0.0
  0
LINE
  5
9A
330
1F
100
AcDbEntity
  8
SK1
  6
Continuous
100
AcDbLine
 10
3.2182480697
 20
12.1134254106
 30
0.0
 11
3.2182480697
 21
12.9519698985
 31
0.0
  0
LINE
  5
9B
330
1F
100
AcDbEntity
  8
SK1
  6
Continuous
100
AcDbLine
 10
3.56
 20
11.8388248292
 30
0.0
 11
3.56
 21
12.6548894778
 31
0.0
  0
LINE
  5
9C
330
1F
100
AcDbEntity
  8
SK1
  6
Continuous
100
AcDbLine
 10
11.66
 20
9.4944211802
 30
0.0
 11
11.66
 21
10.1189110868
 31
0.0
  0
LINE
  5
9D
330
1F
100
AcDbEntity
  8
SK1
  6
Continuous
100
AcDbLine
 10
11.535
 20
10.3354174377
 30
0.0
 11
11.535
 21
9.6946001503
 31
0.0
  0
LINE
  5
9E
330
1F
100
AcDbEntity
  8
SK1
  6
Continuous
100
AcDbLine
 10
3.76
 20
10.309026884
 30
0.0
 11
3.76
 21
11.0
 31
0.0
  0
LINE
  5
9F
330
1F
100
AcDbEntity
  8
SK1
  6
Continuous
100
AcDbLine
 10
6.46
 20
10.309026884
 30
0.0
 11
6.46
 21
11.0
 31
0.0
  0
ARC
  5
A0
330
1F
100
AcDbEntity
  8
SK3
100
AcDbCircle
 10
11.2744535892
 20
7.5588063448
 30
0.0
 40
0.3858615492281621
100
AcDbArc
 50
267.853314383
 51
357.6841944368
  0
ARC
  5
A1
330
1F
100
AcDbEntity
  8
SK1
  6
Continuous
100
AcDbCircle
 10
11.4314734589
 20
9.1846901038
 30
0.0
 40
0.2285546486553126
100
AcDbArc
 50
0.8985834844
 51
63.066126132
  0
LINE
  5
A2
330
1F
100
AcDbEntity
  8
SK1
  6
Continuous
100
AcDbLine
 10
11.535
 20
9.3884534044
 30
0.0
 11
6.9198076211
 21
11.8516737909
 31
0.0
  0
LINE
  5
A3
330
1F
100
AcDbEntity
  8
SK1
  6
Continuous
100
AcDbLine
 10
6.9198076211
 20
11.8516737909
 30
0.0
 11
6.66
 21
11.8516737909
 31
0.0
  0
ARC
  5
A4
330
1F
100
AcDbEntity
  8
SK1
  6
Continuous
100
AcDbCircle
 10
3.2674011629
 20
11.8246359052
 30
0.0
 40
0.2929426650656614
100
AcDbArc
 50
2.7762554562
 51
99.6593980728
  0
LINE
  5
A5
330
1F
100
AcDbEntity
  8
SK1
  6
Continuous
100
AcDbLine
 10
3.56
 20
11.8388248292
 30
0.0
 11
3.56
 21
11.5326780833
 31
0.0
  0
ARC
  5
A6
330
1F
100
AcDbEntity
  8
SK1
  6
Continuous
100
AcDbCircle
 10
3.7527241638
 20
10.5017736071
 30
0.0
 40
0.1928839989105152
100
AcDbArc
 50
182.332682528
 51
272.1617844655
  0
LINE
  5
A7
330
1F
100
AcDbEntity
  8
SK1
  6
Continuous
100
AcDbLine
 10
3.76
 20
10.309026884
 30
0.0
 11
6.46
 21
10.309026884
 31
0.0
  0
ARC
  5
A8
330
1F
100
AcDbEntity
  8
SK1
  6
Continuous
100
AcDbCircle
 10
6.4672770835
 20
10.5017722579
 30
0.0
 40
0.1928826977831465
100
AcDbArc
 50
267.8378301847
 51
357.6677028219
  0
LINE
  5
A9
330
1F
100
AcDbEntity
  8
SK1
  6
Continuous
100
AcDbLine
 10
6.66
 20
11.8516737909
 30
0.0
 11
6.66
 21
12.1578205368
 31
0.0
  0
LINE
  5
AA
330
1F
100
AcDbEntity
  8
SK3
100
AcDbLine
 10
11.26
 20
7.4793623375
 30
0.0
 11
-17.246991492
 21
7.4793623375
 31
0.0
  0
ARC
  5
AB
330
1F
100
AcDbEntity
  8
SK1
  6
Continuous
100
AcDbCircle
 10
3.2674011629
 20
11.5184891593
 30
0.0
 40
0.2929426650656605
100
AcDbArc
 50
2.7762554562
 51
99.6593980728
  0
ARC
  5
AC
330
1F
100
AcDbEntity
  8
SK1
  6
Continuous
100
AcDbCircle
 10
3.7527241638
 20
10.1956268612
 30
0.0
 40
0.1928839989105148
100
AcDbArc
 50
182.332682528
 51
272.1617844655
  0
LINE
  5
AD
330
1F
100
AcDbEntity
  8
SK1
  6
Continuous
100
AcDbLine
 10
3.76
 20
10.0028801381
 30
0.0
 11
6.46
 21
10.0028801381
 31
0.0
  0
ARC
  5
AE
330
1F
100
AcDbEntity
  8
SK1
  6
Continuous
100
AcDbCircle
 10
6.4672770835
 20
10.195625512
 30
0.0
 40
0.1928826977831551
100
AcDbArc
 50
267.8378301847
 51
357.6677028219
  0
LINE
  5
AF
330
1F
100
AcDbEntity
  8
SK3
100
AcDbLine
 10
11.26
 20
7.1732155916
 30
0.0
 11
-17.246991492
 21
7.1732155916
 31
0.0
  0
ARC
  5
B0
330
1F
100
AcDbEntity
  8
SK3
100
AcDbCircle
 10
11.2744535892
 20
7.8649530907
 30
0.0
 40
0.3858615492281628
100
AcDbArc
 50
267.853314383
 51
357.6841944368
  0
LINE
  5
B1
330
1F
100
AcDbEntity
  8
SK1
  6
Continuous
100
AcDbLine
 10
11.66
 20
9.1882744343
 30
0.0
 11
11.66
 21
9.4944211802
 31
0.0
  0
ARC
  5
B2
330
1F
100
AcDbEntity
  8
SK1
  6
Continuous
100
AcDbCircle
 10
11.4314734589
 20
9.4908368497
 30
0.0
 40
0.2285546486553128
100
AcDbArc
 50
0.8985834844
 51
63.066126132
  0
LINE
  5
B3
330
1F
100
AcDbEntity
  8
SK1
  6
Continuous
100
AcDbLine
 10
11.535
 20
9.6946001503
 30
0.0
 11
6.9198076211
 21
12.1578205368
 31
0.0
  0
LINE
  5
B4
330
1F
100
AcDbEntity
  8
SK1
  6
Continuous
100
AcDbLine
 10
6.9198076211
 20
12.1578205368
 30
0.0
 11
6.66
 21
12.1578205368
 31
0.0
  0
LINE
  5
B5
330
1F
100
AcDbEntity
  8
SK1
  6
Continuous
100
AcDbLine
 10
-22.34
 20
6.710733361
 30
0.0
 11
-22.34
 21
9.0904101326
 31
0.0
  0
LINE
  5
B6
330
1F
100
AcDbEntity
  8
SK1
  6
Continuous
100
AcDbLine
 10
-22.0817519303
 20
6.9209977747
 30
0.0
 11
-22.0817519303
 21
9.3877689182
 31
0.0
  0
LINE
  5
B7
330
1F
100
AcDbEntity
  8
SK3
100
AcDbLine
 10
-21.9164617093
 20
5.3244561025
 30
0.0
 11
-21.9164617093
 21
0.4
 31
0.0
  0
SPLINE
  5
B8
330
1F
100
AcDbEntity
  8
SK1
  6
Continuous
100
AcDbSpline
210
0.0
220
0.0
230
1.0
 70
     8
 71
     3
 72
    10
 73
     6
 74
     0
 42
0.0000000269127736
 43
0.0000000001
 12
1.0
 22
0.0
 32
0.0
 13
1.0
 23
0.0
 33
0.0
 40
0.0
 40
0.0
 40
0.0
 40
0.0
 40
0.5
 40
0.5
 40
1.0
 40
1.0
 40
1.0
 40
1.0
 10
-22.34000000000014
 20
6.710733361022299
 30
0.0
 10
-22.34000000000001
 20
6.761273679776801
 30
0.0
 10
-22.31326416133238
 20
6.811832982470984
 30
0.0
 10
-22.2198559645817
 20
6.887999776813325
 30
0.0
 10
-22.15328300875939
 20
6.913882753899435
 30
0.0
 10
-22.08175193028802
 20
6.920997774731317
 30
0.0
  0
SPLINE
  5
B9
330
1F
100
AcDbEntity
  8
SK1
  6
Continuous
100
AcDbSpline
210
0.0
220
0.0
230
1.0
 70
     8
 71
     3
 72
    11
 73
     7
 74
     0
 42
0.0000000005423924
 43
0.0000000001
 12
1.0
 22
0.0
 32
0.0
 13
1.0
 23
0.0
 33
0.0
 40
0.0
 40
0.0
 40
0.0
 40
0.0
 40
0.8904043968419018
 40
0.8904043968419018
 40
0.8904043968419018
 40
1.0
 40
1.0
 40
1.0
 40
1.0
 10
-22.08175193028802
 20
6.920997774731317
 30
0.0
 10
-16.63655230217699
 20
7.462618418896527
 30
0.0
 10
-11.19133014604001
 20
8.00412582209101
 30
0.0
 10
-5.746096572313224
 20
8.545575802195785
 30
0.0
 10
-5.075868909377592
 20
8.612220281233954
 30
0.0
 10
-4.405641062509902
 20
8.678863835397312
 30
0.0
 10
-3.735413044452098
 20
8.745506528721503
 30
0.0
  0
LINE
  5
BA
330
1F
100
AcDbEntity
  8
SK3
100
AcDbLine
 10
-21.9164617093
 20
5.8901415274
 30
0.0
 11
-22.34
 21
6.0632635639
 31
0.0
  0
LINE
  5
BB
330
1F
100
AcDbEntity
  8
SK1
  6
Continuous
100
AcDbLine
 10
-22.34
 20
6.1450479361
 30
0.0
 11
-22.34
 21
6.710733361
 31
0.0
  0
SPLINE
  5
BC
330
1F
100
AcDbEntity
  8
SK1
  6
Continuous
100
AcDbSpline
210
0.0
220
0.0
230
1.0
 70
     8
 71
     3
 72
    10
 73
     6
 74
     0
 42
0.0000000269127736
 43
0.0000000001
 12
1.0
 22
0.0
 32
0.0
 13
1.0
 23
0.0
 33
0.0
 40
0.0
 40
0.0
 40
0.0
 40
0.0
 40
0.5
 40
0.5
 40
1.0
 40
1.0
 40
1.0
 40
1.0
 10
-22.34000000000014
 20
6.145047936073062
 30
0.0
 10
-22.33999999999999
 20
6.195588254827514
 30
0.0
 10
-22.31326416133238
 20
6.246147557521758
 30
0.0
 10
-22.21985596458174
 20
6.322314351864061
 30
0.0
 10
-22.15328300875938
 20
6.348197328950197
 30
0.0
 10
-22.08175193028802
 20
6.35531234978208
 30
0.0
  0
SPLINE
  5
BD
330
1F
100
AcDbEntity
  8
SK1
  6
Continuous
100
AcDbSpline
210
0.0
220
0.0
230
1.0
 70
     8
 71
     3
 72
    11
 73
     7
 74
     0
 42
0.0000000005423924
 43
0.0000000001
 12
1.0
 22
0.0
 32
0.0
 13
1.0
 23
0.0
 33
0.0
 40
0.0
 40
0.0
 40
0.0
 40
0.0
 40
0.8904043968419018
 40
0.8904043968419018
 40
0.8904043968419018
 40
1.0
 40
1.0
 40
1.0
 40
1.0
 10
-22.08175193028802
 20
6.35531234978208
 30
0.0
 10
-16.63655230217699
 20
6.896932993947289
 30
0.0
 10
-11.19133014604001
 20
7.438440397141772
 30
0.0
 10
-5.74609657231322
 20
7.979890377246548
 30
0.0
 10
-5.075868909377588
 20
8.046534856284715
 30
0.0
 10
-4.405641062509899
 20
8.113178410448072
 30
0.0
 10
-3.735413044452095
 20
8.179821103772268
 30
0.0
  0
LINE
  5
BE
330
1F
100
AcDbEntity
  8
SK3
100
AcDbLine
 10
-21.9164617093
 20
5.3244561025
 30
0.0
 11
-22.34
 21
5.497578139
 31
0.0
  0
LINE
  5
BF
330
1F
100
AcDbEntity
  8
SK1
  6
Continuous
100
AcDbLine
 10
6.9198076211
 20
5.3420809011
 30
0.0
 11
6.9198076211
 21
11.8516737909
 31
0.0
  0
LINE
  5
C0
330
1F
100
AcDbEntity
  8
SK1
  6
Continuous
100
AcDbLine
 10
6.66
 20
5.3420809011
 30
0.0
 11
6.66
 21
11.8516737909
 31
0.0
  0
LINE
  5
C1
330
1F
100
AcDbEntity
  8
SK1
  6
Continuous
100
AcDbLine
 10
3.2182480697
 20
5.3236918378
 30
0.0
 11
3.2182480697
 21
11.8072786647
 31
0.0
  0
LINE
  5
C2
330
1F
100
AcDbEntity
  8
SK1
  6
Continuous
100
AcDbLine
 10
3.56
 20
5.2099485527
 30
0.0
 11
3.56
 21
11.5326780833
 31
0.0
  0
LINE
  5
C3
330
1F
100
AcDbEntity
  8
SK1
  6
Continuous
100
AcDbLine
 10
11.66
 20
4.2388647656
 30
0.0
 11
11.66
 21
9.1882744343
 31
0.0
  0
LINE
  5
C4
330
1F
100
AcDbEntity
  8
SK1
  6
Continuous
100
AcDbLine
 10
11.535
 20
4.3217816099
 30
0.0
 11
11.535
 21
9.3884534044
 31
0.0
  0
LINE
  5
C5
330
1F
100
AcDbEntity
  8
SK1
  6
Continuous
100
AcDbLine
 10
3.76
 20
4.5762854961
 30
0.0
 11
3.76
 21
10.0028801381
 31
0.0
  0
LINE
  5
C6
330
1F
100
AcDbEntity
  8
SK1
  6
Continuous
100
AcDbLine
 10
6.46
 20
4.5762854961
 30
0.0
 11
6.46
 21
10.0028801381
 31
0.0
  0
SPLINE
  5
C7
330
1F
100
AcDbEntity
  8
SK3
100
AcDbSpline
210
0.0
220
0.0
230
1.0
 70
     8
 71
     3
 72
    10
 73
     6
 74
     0
 42
0.000000021391247
 43
0.0000000001
 12
1.0
 22
0.0
 32
0.0
 13
1.0
 23
0.0
 33
0.0
 40
0.0
 40
0.0
 40
0.0
 40
0.0
 40
0.5
 40
0.5
 40
1.0
 40
1.0
 40
1.0
 40
1.0
 10
11.26
 20
2.665096437994078
 30
0.0
 10
11.36579542463284
 20
2.66509643799408
 30
0.0
 10
11.46924918087262
 20
2.681752426703824
 30
0.0
 10
11.61680196624042
 20
2.738361316393233
 30
0.0
 10
11.66000000000001
 20
2.778382479684897
 30
0.0
 10
11.66
 20
2.81835507518175
 30
0.0
  0
SPLINE
  5
C8
330
1F
100
AcDbEntity
  8
SK1
  6
Continuous
100
AcDbSpline
210
0.0
220
0.0
230
1.0
 70
     8
 71
     3
 72
     8
 73
     4
 74
     0
 42
0.0000000587427727
 43
0.0000000001
 12
1.0
 22
0.0
 32
0.0
 13
1.0
 23
0.0
 33
0.0
 40
0.0
 40
0.0
 40
0.0
 40
0.0
 40
1.0
 40
1.0
 40
1.0
 40
1.0
 10
11.66
 20
3.499761139610462
 30
0.0
 10
11.66
 20
3.533298806959796
 30
0.0
 10
11.61129689683813
 20
3.565808126893492
 30
0.0
 10
11.535
 20
3.58267798393734
 30
0.0
  0
LINE
  5
C9
330
1F
100
AcDbEntity
  8
SK1
  6
Continuous
100
AcDbLine
 10
11.535
 20
3.5826779839
 30
0.0
 11
6.9198076211
 21
4.6029772751
 31
0.0
  0
LINE
  5
CA
330
1F
100
AcDbEntity
  8
SK1
  6
Continuous
100
AcDbLine
 10
6.9198076211
 20
4.6029772751
 30
0.0
 11
6.66
 21
4.6029772751
 31
0.0
  0
SPLINE
  5
CB
330
1F
100
AcDbEntity
  8
SK1
  6
Continuous
100
AcDbSpline
210
0.0
220
0.0
230
1.0
 70
     8
 71
     3
 72
    10
 73
     6
 74
     0
 42
0.0000000253792307
 43
0.0000000001
 12
1.0
 22
0.0
 32
0.0
 13
1.0
 23
0.0
 33
0.0
 40
0.0
 40
0.0
 40
0.0
 40
0.0
 40
0.5
 40
0.5
 40
1.0
 40
1.0
 40
1.0
 40
1.0
 10
3.218248069711986
 20
5.323691837772872
 30
0.0
 10
3.303749195478798
 20
5.328292509348336
 30
0.0
 10
3.392574993682196
 20
5.318016255956053
 30
0.0
 10
3.521053046577927
 20
5.275257322739534
 30
0.0
 10
3.560000000000006
 20
5.24286483649954
 30
0.0
 10
3.56
 20
5.209948552723165
 30
0.0
  0
LINE
  5
CC
330
1F
100
AcDbEntity
  8
SK1
  6
Continuous
100
AcDbLine
 10
3.56
 20
5.2099485527
 30
0.0
 11
3.56
 21
4.6528719302
 31
0.0
  0
SPLINE
  5
CD
330
1F
100
AcDbEntity
  8
SK1
  6
Continuous
100
AcDbSpline
210
0.0
220
0.0
230
1.0
 70
     8
 71
     3
 72
    10
 73
     6
 74
     0
 42
0.0000000427802756
 43
0.0000000001
 12
1.0
 22
0.0
 32
0.0
 13
1.0
 23
0.0
 33
0.0
 40
0.0
 40
0.0
 40
0.0
 40
0.0
 40
0.5
 40
0.5
 40
1.0
 40
1.0
 40
1.0
 40
1.0
 10
3.559999999997673
 20
4.652871930211934
 30
0.0
 10
3.560000000000108
 20
4.632908142912194
 30
0.0
 10
3.581200329542136
 20
4.61304636444246
 30
0.0
 10
3.655802726150724
 20
4.584447388079015
 30
0.0
 10
3.707160895659192
 20
4.576285496125685
 30
0.0
 10
3.760000000000006
 20
4.576285496125994
 30
0.0
  0
LINE
  5
CE
330
1F
100
AcDbEntity
  8
SK1
  6
Continuous
100
AcDbLine
 10
3.76
 20
4.5762854961
 30
0.0
 11
6.46
 21
4.5762854961
 31
0.0
  0
SPLINE
  5
CF
330
1F
100
AcDbEntity
  8
SK1
  6
Continuous
100
AcDbSpline
210
0.0
220
0.0
230
1.0
 70
     8
 71
     3
 72
    10
 73
     6
 74
     0
 42
0.0000000427867299
 43
0.0000000001
 12
1.0
 22
0.0
 32
0.0
 13
1.0
 23
0.0
 33
0.0
 40
0.0
 40
0.0
 40
0.0
 40
0.0
 40
0.5
 40
0.5
 40
1.0
 40
1.0
 40
1.0
 40
1.0
 10
6.460000000000007
 20
4.576285496125994
 30
0.0
 10
6.51287861641325
 20
4.576285496125994
 30
0.0
 10
6.564599852953434
 20
4.584602710151135
 30
0.0
 10
6.638387171863578
 20
4.612887239847588
 30
0.0
 10
6.66000000000001
 20
4.632890888076786
 30
0.0
 10
6.660000000000006
 20
4.652871930212036
 30
0.0
  0
LINE
  5
D0
330
1F
100
AcDbEntity
  8
SK1
  6
Continuous
100
AcDbLine
 10
6.66
 20
4.6528719302
 30
0.0
 11
6.66
 21
5.3420809011
 31
0.0
  0
LINE
  5
D1
330
1F
100
AcDbEntity
  8
SK3
100
AcDbLine
 10
11.26
 20
3.404200064
 30
0.0
 11
-17.246991492
 21
3.404200064
 31
0.0
  0
SPLINE
  5
D2
330
1F
100
AcDbEntity
  8
SK1
  6
Continuous
100
AcDbSpline
210
0.0
220
0.0
230
1.0
 70
     8
 71
     3
 72
    10
 73
     6
 74
     0
 42
0.0000000253792307
 43
0.0000000001
 12
1.0
 22
0.0
 32
0.0
 13
1.0
 23
0.0
 33
0.0
 40
0.0
 40
0.0
 40
0.0
 40
0.0
 40
0.5
 40
0.5
 40
1.0
 40
1.0
 40
1.0
 40
1.0
 10
3.218248069711986
 20
4.584588211763843
 30
0.0
 10
3.303749195478801
 20
4.589188883339302
 30
0.0
 10
3.392574993682198
 20
4.578912629947024
 30
0.0
 10
3.521053046577925
 20
4.536153696730501
 30
0.0
 10
3.560000000000006
 20
4.503761210490509
 30
0.0
 10
3.56
 20
4.470844926714138
 30
0.0
  0
SPLINE
  5
D3
330
1F
100
AcDbEntity
  8
SK1
  6
Continuous
100
AcDbSpline
210
0.0
220
0.0
230
1.0
 70
     8
 71
     3
 72
    10
 73
     6
 74
     0
 42
0.0000000427802756
 43
0.0000000001
 12
1.0
 22
0.0
 32
0.0
 13
1.0
 23
0.0
 33
0.0
 40
0.0
 40
0.0
 40
0.0
 40
0.0
 40
0.5
 40
0.5
 40
1.0
 40
1.0
 40
1.0
 40
1.0
 10
3.559999999997673
 20
3.913768304202904
 30
0.0
 10
3.560000000000108
 20
3.893804516903166
 30
0.0
 10
3.58120032954214
 20
3.873942738433429
 30
0.0
 10
3.655802726150726
 20
3.845343762069983
 30
0.0
 10
3.707160895659195
 20
3.83718187011666
 30
0.0
 10
3.760000000000006
 20
3.837181870116964
 30
0.0
  0
LINE
  5
D4
330
1F
100
AcDbEntity
  8
SK1
  6
Continuous
100
AcDbLine
 10
3.76
 20
3.8371818701
 30
0.0
 11
6.46
 21
3.8371818701
 31
0.0
  0
SPLINE
  5
D5
330
1F
100
AcDbEntity
  8
SK1
  6
Continuous
100
AcDbSpline
210
0.0
220
0.0
230
1.0
 70
     8
 71
     3
 72
    10
 73
     6
 74
     0
 42
0.0000000427867299
 43
0.0000000001
 12
1.0
 22
0.0
 32
0.0
 13
1.0
 23
0.0
 33
0.0
 40
0.0
 40
0.0
 40
0.0
 40
0.0
 40
0.5
 40
0.5
 40
1.0
 40
1.0
 40
1.0
 40
1.0
 10
6.460000000000007
 20
3.837181870116964
 30
0.0
 10
6.51287861641325
 20
3.837181870116964
 30
0.0
 10
6.564599852953438
 20
3.845499084142104
 30
0.0
 10
6.638387171863578
 20
3.873783613838556
 30
0.0
 10
6.66000000000001
 20
3.893787262067755
 30
0.0
 10
6.660000000000006
 20
3.913768304203008
 30
0.0
  0
LINE
  5
D6
330
1F
100
AcDbEntity
  8
SK3
100
AcDbLine
 10
11.26
 20
2.665096438
 30
0.0
 11
-17.246991492
 21
2.665096438
 31
0.0
  0
SPLINE
  5
D7
330
1F
100
AcDbEntity
  8
SK3
100
AcDbSpline
210
0.0
220
0.0
230
1.0
 70
     8
 71
     3
 72
    10
 73
     6
 74
     0
 42
0.000000021391247
 43
0.0000000001
 12
1.0
 22
0.0
 32
0.0
 13
1.0
 23
0.0
 33
0.0
 40
0.0
 40
0.0
 40
0.0
 40
0.0
 40
0.5
 40
0.5
 40
1.0
 40
1.0
 40
1.0
 40
1.0
 10
11.26
 20
3.404200064003108
 30
0.0
 10
11.36579542463284
 20
3.404200064003108
 30
0.0
 10
11.46924918087262
 20
3.420856052712853
 30
0.0
 10
11.61680196624042
 20
3.477464942402264
 30
0.0
 10
11.66000000000001
 20
3.517486105693929
 30
0.0
 10
11.66
 20
3.557458701190779
 30
0.0
  0
LINE
  5
D8
330
1F
100
AcDbEntity
  8
SK1
  6
Continuous
100
AcDbLine
 10
11.66
 20
3.5574587012
 30
0.0
 11
11.66
 21
4.2388647656
 31
0.0
  0
SPLINE
  5
D9
330
1F
100
AcDbEntity
  8
SK1
  6
Continuous
100
AcDbSpline
210
0.0
220
0.0
230
1.0
 70
     8
 71
     3
 72
     8
 73
     4
 74
     0
 42
0.0000000587427727
 43
0.0000000001
 12
1.0
 22
0.0
 32
0.0
 13
1.0
 23
0.0
 33
0.0
 40
0.0
 40
0.0
 40
0.0
 40
0.0
 40
1.0
 40
1.0
 40
1.0
 40
1.0
 10
11.66
 20
4.238864765619492
 30
0.0
 10
11.66
 20
4.27240243296876
 30
0.0
 10
11.61129689683813
 20
4.304911752902523
 30
0.0
 10
11.535
 20
4.32178160994637
 30
0.0
  0
LINE
  5
DA
330
1F
100
AcDbEntity
  8
SK1
  6
Continuous
100
AcDbLine
 10
11.535
 20
4.3217816099
 30
0.0
 11
6.9198076211
 21
5.3420809011
 31
0.0
  0
LINE
  5
DB
330
1F
100
AcDbEntity
  8
SK1
  6
Continuous
100
AcDbLine
 10
6.9198076211
 20
5.3420809011
 30
0.0
 11
6.66
 21
5.3420809011
 31
0.0
  0
LINE
  5
DC
330
1F
100
AcDbEntity
  8
SK1
  6
Continuous
100
AcDbLine
 10
-22.34
 20
0.4
 30
0.0
 11
-22.34
 21
6.1450479361
 31
0.0
  0
LINE
  5
DD
330
1F
100
AcDbEntity
  8
SK1
  6
Continuous
100
AcDbLine
 10
-22.0817519303
 20
0.4
 30
0.0
 11
-22.0817519303
 21
6.3553123498
 31
0.0
  0
LINE
  5
DE
330
1F
100
AcDbEntity
  8
SK3
100
AcDbLine
 10
-21.9164617093
 20
-0.4
 30
0.0
 11
-21.9164617093
 21
-5.3244561025
 31
0.0
  0
LINE
  5
DF
330
1F
100
AcDbEntity
  8
SK1
  6
Continuous
100
AcDbLine
 10
-22.34
 20
0.4
 30
0.0
 11
-22.0817519303
 21
0.4
 31
0.0
  0
LINE
  5
E0
330
1F
100
AcDbEntity
  8
SK1
  6
Continuous
100
AcDbLine
 10
-22.0817519303
 20
0.4
 30
0.0
 11
-3.7354130445
 21
0.4
 31
0.0
  0
LINE
  5
E1
330
1F
100
AcDbEntity
  8
SK1
  6
Continuous
100
AcDbLine
 10
-22.34
 20
-0.4
 30
0.0
 11
-22.0817519303
 21
-0.4
 31
0.0
  0
LINE
  5
E2
330
1F
100
AcDbEntity
  8
SK1
  6
Continuous
100
AcDbLine
 10
-22.0817519303
 20
-0.4
 30
0.0
 11
-3.7354130445
 21
-0.4
 31
0.0
  0
LINE
  5
E3
330
1F
100
AcDbEntity
  8
SK3
100
AcDbLine
 10
-17.246991492
 20
-2.665096438
 30
0.0
 11
11.26
 21
-2.665096438
 31
0.0
  0
SPLINE
  5
E4
330
1F
100
AcDbEntity
  8
SK1
  6
Continuous
100
AcDbSpline
210
0.0
220
0.0
230
1.0
 70
     8
 71
     3
 72
    35
 73
    31
 74
     0
 42
0.0000000080816639
 43
0.0000000001
 12
1.0
 22
0.0
 32
0.0
 13
1.0
 23
0.0
 33
0.0
 40
0.0
 40
0.0
 40
0.0
 40
0.0
 40
0.1134251203605287
 40
0.1134251203605287
 40
0.1134251203605287
 40
0.2270448956076113
 40
0.2270448956076113
 40
0.2270448956076113
 40
0.3375525299923994
 40
0.3375525299923994
 40
0.3375525299923994
 40
0.4436123154059478
 40
0.4436123154059478
 40
0.4436123154059478
 40
0.5001943358043288
 40
0.5001943358043288
 40
0.5001943358043288
 40
0.6025718788280243
 40
0.6025718788280243
 40
0.6025718788280243
 40
0.7048622826146601
 40
0.7048622826146601
 40
0.7048622826146601
 40
0.8085177663571332
 40
0.8085177663571332
 40
0.8085177663571332
 40
0.9156387561634702
 40
0.9156387561634702
 40
0.9156387561634702
 40
1.0
 40
1.0
 40
1.0
 40
1.0
 10
-16.92641027504489
 20
-4.239596918716479
 30
0.0
 10
-16.97418338792762
 20
-4.237025545092662
 30
0.0
 10
-17.02266979657091
 20
-4.227006356904928
 30
0.0
 10
-17.06786828878674
 20
-4.210154945025267
 30
0.0
 10
-17.11311117396345
 20
-4.193286982061012
 30
0.0
 10
-17.15633486494087
 20
-4.169060323510553
 30
0.0
 10
-17.19357317105913
 20
-4.139285345794772
 30
0.0
 10
-17.22979207083587
 20
-4.110325464259936
 30
0.0
 10
-17.26138521019838
 20
-4.075251825705287
 30
0.0
 10
-17.28527580782684
 20
-4.036986410856045
 30
0.0
 10
-17.30821952727531
 20
-4.000237604629676
 30
0.0
 10
-17.32471136232711
 20
-3.959481679113381
 30
0.0
 10
-17.33314397584146
 20
-3.918219431729703
 30
0.0
 10
-17.33769177696157
 20
-3.895966248354177
 30
0.0
 10
-17.33999999999999
 20
-3.873302295204452
 30
0.0
 10
-17.33999999999999
 20
-3.850827256408599
 30
0.0
 10
-17.33999999999999
 20
-3.810566507189556
 30
0.0
 10
-17.33244045748356
 20
-3.77004318419214
 30
0.0
 10
-17.31802614799303
 20
-3.732647902880417
 30
0.0
 10
-17.30361865999355
 20
-3.695270318675675
 30
0.0
 10
-17.28198757287048
 20
-3.660001641481505
 30
0.0
 10
-17.25505043752
 20
-3.629630989714
 30
0.0
 10
-17.22774723689759
 20
-3.598847612511767
 30
0.0
 10
-17.19428968317309
 20
-3.572273860377511
 30
0.0
 10
-17.15746020563424
 20
-3.551829644960562
 30
0.0
 10
-17.11940649113452
 20
-3.530705849874769
 30
0.0
 10
-17.07676917987024
 20
-3.515560361867671
 30
0.0
 10
-17.03293478755094
 20
-3.5073615653062
 30
0.0
 10
-16.99823368926005
 20
-3.500871062523037
 30
0.0
 10
-16.96217039816761
 20
-3.498568514692503
 30
0.0
 10
-16.92641027504489
 20
-3.50049329270745
 30
0.0
  0
SPLINE
  5
E5
330
1F
100
AcDbEntity
  8
SK3
100
AcDbSpline
210
0.0
220
0.0
230
1.0
 70
     8
 71
     3
 72
    35
 73
    31
 74
     0
 42
0.000000008210125
 43
0.0000000001
 12
1.0
 22
0.0
 32
0.0
 13
1.0
 23
0.0
 33
0.0
 40
0.0
 40
0.0
 40
0.0
 40
0.0
 40
0.1081896749085212
 40
0.1081896749085212
 40
0.1081896749085212
 40
0.216419162533682
 40
0.216419162533682
 40
0.216419162533682
 40
0.3240751100861238
 40
0.3240751100861238
 40
0.3240751100861238
 40
0.4312094465439906
 40
0.4312094465439906
 40
0.4312094465439906
 40
0.5000210071707785
 40
0.5000210071707785
 40
0.5000210071707785
 40
0.6068936836055959
 40
0.6068936836055959
 40
0.6068936836055959
 40
0.7137619519021491
 40
0.7137619519021491
 40
0.7137619519021491
 40
0.8207018846449765
 40
0.8207018846449765
 40
0.8207018846449765
 40
0.9279324985134937
 40
0.9279324985134937
 40
0.9279324985134937
 40
1.0
 40
1.0
 40
1.0
 40
1.0
 10
-17.24699149203205
 20
-2.665096437994076
 30
0.0
 10
-17.29218983685227
 20
-2.665096437994076
 30
0.0
 10
-17.33801396735107
 20
-2.672408788723954
 30
0.0
 10
-17.38067433712981
 20
-2.686460716409661
 30
0.0
 10
-17.42334410363429
 20
-2.700515739289127
 30
0.0
 10
-17.46402651794413
 20
-2.721706622611014
 30
0.0
 10
-17.4992955660095
 20
-2.748240674729909
 30
0.0
 10
-17.53437990203082
 20
-2.774635761969614
 30
0.0
 10
-17.56508011780361
 20
-2.80704797864085
 30
0.0
 10
-17.58881625243879
 20
-2.842713279006556
 30
0.0
 10
-17.61243973814145
 20
-2.878209316007542
 30
0.0
 10
-17.62982034716584
 20
-2.91790610955448
 30
0.0
 10
-17.63951047994835
 20
-2.95845614195284
 30
0.0
 10
-17.64578677245881
 20
-2.984720370767113
 30
0.0
 10
-17.6489813434542
 20
-3.011723375235681
 30
0.0
 10
-17.6489813434542
 20
-3.038506452978813
 30
0.0
 10
-17.6489813434542
 20
-3.079759015266277
 30
0.0
 10
-17.6412792363849
 20
-3.121428422673826
 30
0.0
 10
-17.62651296654586
 20
-3.160086357513123
 30
0.0
 10
-17.61174702863885
 20
-3.198743423357938
 30
0.0
 10
-17.58951016624784
 20
-3.235456142065133
 30
0.0
 10
-17.56164638084597
 20
-3.267254813839412
 30
0.0
 10
-17.5337629748845
 20
-3.299075876962369
 30
0.0
 10
-17.49947969627018
 20
-3.326853607781754
 30
0.0
 10
-17.46163673151802
 20
-3.348394522827302
 30
0.0
 10
-17.42368977548253
 20
-3.369994631633551
 30
0.0
 10
-17.38112762598008
 20
-3.385920172099043
 30
0.0
 10
-17.33745418395478
 20
-3.394963991722069
 30
0.0
 10
-17.30787429998124
 20
-3.401089342111714
 30
0.0
 10
-17.27733755545065
 20
-3.404200064003106
 30
0.0
 10
-17.24699149203205
 20
-3.404200064003106
 30
0.0
  0
SPLINE
  5
E6
330
1F
100
AcDbEntity
  8
SK3
100
AcDbSpline
210
0.0
220
0.0
230
1.0
 70
     8
 71
     3
 72
    11
 73
     7
 74
     0
 42
0.0000002320236094
 43
0.0000000001
 12
1.0
 22
0.0
 32
0.0
 13
1.0
 23
0.0
 33
0.0
 40
0.0
 40
0.0
 40
0.0
 40
0.0
 40
0.3953357812265018
 40
0.3953357812265018
 40
0.3953357812265018
 40
0.9999999999999999
 40
0.9999999999999999
 40
0.9999999999999999
 40
0.9999999999999999
 10
-2.692951803606592
 20
5.691262866519615
 30
0.0
 10
-2.690776163350432
 20
5.685957149687769
 30
0.0
 10
-2.68883113120412
 20
5.680606908150827
 30
0.0
 10
-2.687124613797841
 20
5.675225044767116
 30
0.0
 10
-2.684492530719812
 20
5.666924214380966
 30
0.0
 10
-2.682402431340746
 20
5.658498324018338
 30
0.0
 10
-2.680862638831599
 20
5.650000249697595
 30
0.0
  0
LINE
  5
E7
330
1F
100
AcDbEntity
  8
SK1
  6
Continuous
100
AcDbLine
 10
-3.7354130445
 20
-8.1798211038
 30
0.0
 11
-22.0817519303
 21
-6.3553123498
 31
0.0
  0
SPLINE
  5
E8
330
1F
100
AcDbEntity
  8
SK3
100
AcDbSpline
210
0.0
220
0.0
230
1.0
 70
     8
 71
     3
 72
    35
 73
    31
 74
     0
 42
0.000000009184375
 43
0.0000000001
 12
1.0
 22
0.0
 32
0.0
 13
1.0
 23
0.0
 33
0.0
 40
0.0
 40
0.0
 40
0.0
 40
0.0
 40
0.1081896749085228
 40
0.1081896749085228
 40
0.1081896749085228
 40
0.2164191625336829
 40
0.2164191625336829
 40
0.2164191625336829
 40
0.3240751100861247
 40
0.3240751100861247
 40
0.3240751100861247
 40
0.431209446543999
 40
0.431209446543999
 40
0.431209446543999
 40
0.5000210071707851
 40
0.5000210071707851
 40
0.5000210071707851
 40
0.6068936836056035
 40
0.6068936836056035
 40
0.6068936836056035
 40
0.7137619519021592
 40
0.7137619519021592
 40
0.7137619519021592
 40
0.8207018846449848
 40
0.8207018846449848
 40
0.8207018846449848
 40
0.9279324985135042
 40
0.9279324985135042
 40
0.9279324985135042
 40
1.0
 40
1.0
 40
1.0
 40
1.0
 10
-3.079643601714123
 20
-5.890141527412167
 30
0.0
 10
-3.034445256893919
 20
-5.890141527412167
 30
0.0
 10
-2.988621126395122
 20
-5.88494601821816
 30
0.0
 10
-2.945960756616371
 20
-5.874900786960983
 30
0.0
 10
-2.903290990111898
 20
-5.864853343058125
 30
0.0
 10
-2.862608575802054
 20
-5.849667379148127
 30
0.0
 10
-2.827339527736693
 20
-5.830469179844877
 30
0.0
 10
-2.79225519171537
 20
-5.811371525887465
 30
0.0
 10
-2.761554975942578
 20
-5.787766677770444
 30
0.0
 10
-2.737818841307402
 20
-5.761483580530932
 30
0.0
 10
-2.714195355604734
 20
-5.735325219812028
 30
0.0
 10
-2.696814746580362
 20
-5.705784926906984
 30
0.0
 10
-2.687124613797845
 20
-5.675225044767113
 30
0.0
 10
-2.680848321287385
 20
-5.655431429581465
 30
0.0
 10
-2.677653750291987
 20
-5.634926722861276
 30
0.0
 10
-2.677653750291987
 20
-5.614427842621192
 30
0.0
 10
-2.677653750291987
 20
-5.582854498361149
 30
0.0
 10
-2.685355857361288
 20
-5.550564771006739
 30
0.0
 10
-2.700122127200329
 20
-5.520276442169109
 30
0.0
 10
-2.714888065107335
 20
-5.489988794184992
 30
0.0
 10
-2.737124927498344
 20
-5.460872082787023
 30
0.0
 10
-2.764988712900221
 20
-5.435439345074525
 30
0.0
 10
-2.792872118861685
 20
-5.409988698648672
 30
0.0
 10
-2.827155397476007
 20
-5.387534110711434
 30
0.0
 10
-2.864998362228167
 20
-5.370034878788974
 30
0.0
 10
-2.902945318263662
 20
-5.352487559524604
 30
0.0
 10
-2.945507467766109
 20
-5.339446371886034
 30
0.0
 10
-2.989180909791406
 20
-5.332033390639151
 30
0.0
 10
-3.018760793764954
 20
-5.327012601916939
 30
0.0
 10
-3.049297538295531
 20
-5.324456102462928
 30
0.0
 10
-3.079643601714123
 20
-5.324456102462928
 30
0.0
  0
SPLINE
  5
E9
330
1F
100
AcDbEntity
  8
SK1
  6
Continuous
100
AcDbSpline
210
0.0
220
0.0
230
1.0
 70
     8
 71
     3
 72
    35
 73
    31
 74
     0
 42
0.0000000092524145
 43
0.0000000001
 12
1.0
 22
0.0
 32
0.0
 13
1.0
 23
0.0
 33
0.0
 40
0.0
 40
0.0
 40
0.0
 40
0.0
 40
0.1075456917067818
 40
0.1075456917067818
 40
0.1075456917067818
 40
0.2150989301385756
 40
0.2150989301385756
 40
0.2150989301385756
 40
0.322548403391312
 40
0.322548403391312
 40
0.322548403391312
 40
0.4299452396167556
 40
0.4299452396167556
 40
0.4299452396167556
 40
0.5000022276408221
 40
0.5000022276408221
 40
0.5000022276408221
 40
0.6074000166486768
 40
0.6074000166486768
 40
0.6074000166486768
 40
0.714798073743761
 40
0.714798073743761
 40
0.714798073743761
 40
0.8221915703467344
 40
0.8221915703467344
 40
0.8221915703467344
 40
0.9295934992251633
 40
0.9295934992251633
 40
0.9295934992251633
 40
1.0
 40
1.0
 40
1.0
 40
1.0
 10
-3.735413044452088
 20
-8.179821103772268
 30
0.0
 10
-3.691029899622519
 20
-8.184234247105502
 30
0.0
 10
-3.646070591160167
 20
-8.194353796213104
 30
0.0
 10
-3.604251747311368
 20
-8.209323061784334
 30
0.0
 10
-3.562431094453564
 20
-8.224292974899438
 30
0.0
 10
-3.522597455293369
 20
-8.24452428043581
 30
0.0
 10
-3.488043905251077
 20
-8.268271189928198
 30
0.0
 10
-3.453523039496958
 20
-8.291995637160355
 30
0.0
 10
-3.423318615637255
 20
-8.319879670680791
 30
0.0
 10
-3.399916600976036
 20
-8.34952929756186
 30
0.0
 10
-3.376525725949498
 20
-8.379164810871229
 30
0.0
 10
-3.359284309190155
 20
-8.411377977928217
 30
0.0
 10
-3.349605836744445
 20
-8.443442218482142
 30
0.0
 10
-3.343240640716422
 20
-8.46452975866581
 30
0.0
 10
-3.339999999999971
 20
-8.485869992403472
 30
0.0
 10
-3.339999999999971
 20
-8.506684252388524
 30
0.0
 10
-3.339999999999971
 20
-8.538333258317644
 30
0.0
 10
-3.347611532466511
 20
-8.569476024987992
 30
0.0
 10
-3.362211311005158
 20
-8.597561293583812
 30
0.0
 10
-3.376811110372902
 20
-8.625646602248105
 30
0.0
 10
-3.398802687503859
 20
-8.651451454699748
 30
0.0
 10
-3.426381423985211
 20
-8.672910160414496
 30
0.0
 10
-3.453959068452833
 20
-8.694368016445601
 30
0.0
 10
-3.487884880964154
 20
-8.712075572973617
 30
0.0
 10
-3.52536638434088
 20
-8.724653326085214
 30
0.0
 10
-3.562851255052247
 20
-8.737232209180933
 30
0.0
 10
-3.604925578052374
 20
-8.745030883577568
 30
0.0
 10
-3.648119116986679
 20
-8.747472025020949
 30
0.0
 10
-3.67666450453448
 20
-8.749085306319026
 30
0.0
 10
-3.706120119277527
 20
-8.748419208252024
 30
0.0
 10
-3.735413044452088
 20
-8.745506528721505
 30
0.0
  0
LINE
  5
EA
330
1F
100
AcDbEntity
  8
SK1
  6
Continuous
100
AcDbLine
 10
-3.7354130445
 20
-8.7455065287
 30
0.0
 11
-22.0817519303
 21
-6.9209977747
 31
0.0
  0
ELLIPSE
  5
EB
330
1F
100
AcDbEntity
  8
SK1
  6
Continuous
100
AcDbEllipse
 10
-64.6712534085
 20
-0.2828427138
 30
0.0
 11
62.09999998861075
 21
2.674690570386740E-9
 31
0.0
210
0.0
220
0.0
230
1.0
 40
0.7071067812
 41
-0.1939350327467668
 42
-0.1815526428433474
  0
LINE
  5
EC
330
1F
100
AcDbEntity
  8
SK3
100
AcDbLine
 10
-17.246991492
 20
-3.404200064
 30
0.0
 11
11.26
 21
-3.404200064
 31
0.0
  0
ELLIPSE
  5
ED
330
1F
100
AcDbEntity
  8
SK1
  6
Continuous
100
AcDbEllipse
 10
44.3446183992
 20
-0.369551809
 30
0.0
 11
-62.10000007297729
 21
-4.687265646783447E-9
 31
0.0
210
0.0
220
0.0
230
1.0
 40
0.3826834321
 41
0.1351783579581914
 42
0.1635773894798135
  0
LINE
  5
EE
330
1F
100
AcDbEntity
  8
SK3
100
AcDbLine
 10
-17.246991492
 20
-7.1732155916
 30
0.0
 11
11.26
 21
-7.1732155916
 31
0.0
  0
SPLINE
  5
EF
330
1F
100
AcDbEntity
  8
SK1
  6
Continuous
100
AcDbSpline
210
0.0
220
0.0
230
1.0
 70
     8
 71
     3
 72
    35
 73
    31
 74
     0
 42
0.0000000105687091
 43
0.0000000001
 12
1.0
 22
0.0
 32
0.0
 13
1.0
 23
0.0
 33
0.0
 40
0.0
 40
0.0
 40
0.0
 40
0.0
 40
0.1134251203605403
 40
0.1134251203605403
 40
0.1134251203605403
 40
0.227044895607639
 40
0.227044895607639
 40
0.227044895607639
 40
0.3375525299924255
 40
0.3375525299924255
 40
0.3375525299924255
 40
0.4436123154059775
 40
0.4436123154059775
 40
0.4436123154059775
 40
0.500194335804348
 40
0.500194335804348
 40
0.500194335804348
 40
0.602571878828041
 40
0.602571878828041
 40
0.602571878828041
 40
0.7048622826146732
 40
0.7048622826146732
 40
0.7048622826146732
 40
0.8085177663571474
 40
0.8085177663571474
 40
0.8085177663571474
 40
0.9156387561634853
 40
0.9156387561634853
 40
0.9156387561634853
 40
1.0
 40
1.0
 40
1.0
 40
1.0
 10
-16.92641027504484
 20
-9.496188754151488
 30
0.0
 10
-16.9741833879276
 20
-9.489980909075047
 30
0.0
 10
-17.02266979657088
 20
-9.480865285319593
 30
0.0
 10
-17.06786828878672
 20
-9.469471953437418
 30
0.0
 10
-17.11311117396344
 20
-9.45806743127628
 30
0.0
 10
-17.15633486494086
 20
-9.444041480486618
 30
0.0
 10
-17.19357317105913
 20
-9.42840740116428
 30
0.0
 10
-17.22979207083587
 20
-9.413201308000994
 30
0.0
 10
-17.26138521019839
 20
-9.396017979255651
 30
0.0
 10
-17.28527580782685
 20
-9.378208517515624
 30
0.0
 10
-17.30821952727532
 20
-9.361104914665406
 30
0.0
 10
-17.32471136232711
 20
-9.3429245376707
 30
0.0
 10
-17.33314397584146
 20
-9.325170882298135
 30
0.0
 10
-17.33769177696157
 20
-9.315596140890625
 30
0.0
 10
-17.34
 20
-9.306028854661719
 30
0.0
 10
-17.34
 20
-9.296719388777618
 30
0.0
 10
-17.34
 20
-9.280042840419789
 30
0.0
 10
-17.33244045748357
 20
-9.263841983060184
 30
0.0
 10
-17.31802614799303
 20
-9.249500265920682
 30
0.0
 10
-17.30361865999356
 20
-9.235165335918312
 30
0.0
 10
-17.28198757287049
 20
-9.222300123647553
 30
0.0
 10
-17.25505043752
 20
-9.211988441546609
 30
0.0
 10
-17.22774723689759
 20
-9.201536627666124
 30
0.0
 10
-17.19428968317309
 20
-9.193431341179267
 30
0.0
 10
-17.15746020563424
 20
-9.188323297914877
 30
0.0
 10
-17.11940649113452
 20
-9.183045459807339
 30
0.0
 10
-17.07676917987023
 20
-9.180826901698406
 30
0.0
 10
-17.03293478755093
 20
-9.18181976274748
 30
0.0
 10
-16.99823368926005
 20
-9.182605752173364
 30
0.0
 10
-16.96217039816761
 20
-9.185395183071169
 30
0.0
 10
-16.92641027504489
 20
-9.190042008259411
 30
0.0
  0
SPLINE
  5
F0
330
1F
100
AcDbEntity
  8
SK3
100
AcDbSpline
210
0.0
220
0.0
230
1.0
 70
     8
 71
     3
 72
    35
 73
    31
 74
     0
 42
0.0000000108655539
 43
0.0000000001
 12
1.0
 22
0.0
 32
0.0
 13
1.0
 23
0.0
 33
0.0
 40
0.0
 40
0.0
 40
0.0
 40
0.0
 40
0.1081896749085191
 40
0.1081896749085191
 40
0.1081896749085191
 40
0.2164191625336788
 40
0.2164191625336788
 40
0.2164191625336788
 40
0.3240751100861181
 40
0.3240751100861181
 40
0.3240751100861181
 40
0.4312094465439902
 40
0.4312094465439902
 40
0.4312094465439902
 40
0.5000210071707789
 40
0.5000210071707789
 40
0.5000210071707789
 40
0.6068936836055973
 40
0.6068936836055973
 40
0.6068936836055973
 40
0.7137619519021484
 40
0.7137619519021484
 40
0.7137619519021484
 40
0.820701884644973
 40
0.820701884644973
 40
0.820701884644973
 40
0.9279324985134912
 40
0.9279324985134912
 40
0.9279324985134912
 40
1.0
 40
1.0
 40
1.0
 40
1.0
 10
-17.24699149203205
 20
-7.173215591646558
 30
0.0
 10
-17.29218983685227
 20
-7.173215591646558
 30
0.0
 10
-17.33801396735106
 20
-7.176551471793942
 30
0.0
 10
-17.38067433712981
 20
-7.182915112326852
 30
0.0
 10
-17.42334410363429
 20
-7.189280154567835
 30
0.0
 10
-17.46402651794413
 20
-7.198848204304028
 30
0.0
 10
-17.49929556600949
 20
-7.210688590813726
 30
0.0
 10
-17.53437990203081
 20
-7.222466966520345
 30
0.0
 10
-17.5650801178036
 20
-7.236812814595818
 30
0.0
 10
-17.58881625243878
 20
-7.252361903231922
 30
0.0
 10
-17.61243973814145
 20
-7.267837197703001
 30
0.0
 10
-17.62982034716583
 20
-7.284924829885997
 30
0.0
 10
-17.63951047994835
 20
-7.302085341104442
 30
0.0
 10
-17.64578677245881
 20
-7.313200192722399
 30
0.0
 10
-17.6489813434542
 20
-7.324509574096321
 30
0.0
 10
-17.6489813434542
 20
-7.335603488139618
 30
0.0
 10
-17.6489813434542
 20
-7.352690858921727
 30
0.0
 10
-17.6412792363849
 20
-7.369646778941041
 30
0.0
 10
-17.62651296654586
 20
-7.385123030499964
 30
0.0
 10
-17.61174702863885
 20
-7.400598934167125
 30
0.0
 10
-17.58951016624785
 20
-7.415026686760403
 30
0.0
 10
-17.56164638084597
 20
-7.427359983810163
 30
0.0
 10
-17.53376297488451
 20
-7.439701965472808
 30
0.0
 10
-17.49947969627019
 20
-7.450293698723862
 30
0.0
 10
-17.46163673151803
 20
-7.458441281497731
 30
0.0
 10
-17.42368977548253
 20
-7.46661125357419
 30
0.0
 10
-17.38112762598008
 20
-7.472555501144385
 30
0.0
 10
-17.33745418395478
 20
-7.475925670552183
 30
0.0
 10
-17.30787429998124
 20
-7.478208275619036
 30
0.0
 10
-17.27733755545066
 20
-7.479362337538633
 30
0.0
 10
-17.24699149203205
 20
-7.479362337538631
 30
0.0
  0
SPLINE
  5
F1
330
1F
100
AcDbEntity
  8
SK1
  6
Continuous
100
AcDbSpline
210
0.0
220
0.0
230
1.0
 70
     8
 71
     3
 72
    20
 73
    16
 74
     0
 42
0.0000000249810842
 43
0.0000000001
 12
1.0
 22
0.0
 32
0.0
 13
1.0
 23
0.0
 33
0.0
 40
0.0
 40
0.0
 40
0.0
 40
0.0
 40
0.2147965349947687
 40
0.2147965349947687
 40
0.2147965349947687
 40
0.4295936061663773
 40
0.4295936061663773
 40
0.4295936061663773
 40
0.6443815563131285
 40
0.6443815563131285
 40
0.6443815563131285
 40
0.8591863710859444
 40
0.8591863710859444
 40
0.8591863710859444
 40
1.0
 40
1.0
 40
1.0
 40
1.0
 10
-3.339999999999963
 20
12.03026824055349
 30
0.0
 10
-3.339999999999963
 20
12.03026824055349
 30
0.0
 10
-3.347611532466509
 20
12.0289350554236
 30
0.0
 10
-3.362211311005156
 20
12.02641819902513
 30
0.0
 10
-3.376811110372901
 20
12.02390133903592
 30
0.0
 10
-3.398802687503854
 20
12.02013487285227
 30
0.0
 10
-3.426381423985205
 20
12.0155314356308
 30
0.0
 10
-3.453959068452826
 20
12.01092818068805
 30
0.0
 10
-3.487884880964149
 20
12.00536663551151
 30
0.0
 10
-3.525366384340876
 20
11.99942631279396
 30
0.0
 10
-3.562851255052244
 20
11.99348545639839
 30
0.0
 10
-3.604925578052372
 20
11.98700732767445
 30
0.0
 10
-3.648119116986679
 20
11.98061297070364
 30
0.0
 10
-3.67666450453448
 20
11.97638712113553
 30
0.0
 10
-3.706120119277525
 20
11.97213309363531
 30
0.0
 10
-3.735413044452093
 20
11.9680139427404
 30
0.0
  0
ARC
  5
F2
330
1F
100
AcDbEntity
  8
SK3
100
AcDbCircle
 10
-3.0791939868
 20
15.9311342268
 30
0.0
 40
8.001216207106875
100
AcDbArc
 50
269.9967803599
 51
272.876591298
  0
LINE
  5
F3
330
1F
100
AcDbEntity
  8
SK3
100
AcDbLine
 10
-3.0796436017
 20
7.9299180324
 30
0.0
 11
-21.9164617093
 21
7.9299180324
 31
0.0
  0
SPLINE
  5
F4
330
1F
100
AcDbEntity
  8
SK3
100
AcDbSpline
210
0.0
220
0.0
230
1.0
 70
     8
 71
     3
 72
    11
 73
     7
 74
     0
 42
0.0000003114537754
 43
0.0000000001
 12
1.0
 22
0.0
 32
0.0
 13
1.0
 23
0.0
 33
0.0
 40
0.0
 40
0.0
 40
0.0
 40
0.0
 40
0.3817263047524702
 40
0.3817263047524702
 40
0.3817263047524702
 40
1.0
 40
1.0
 40
1.0
 40
1.0
 10
-17.32680780842886
 20
9.3363560198265
 30
0.0
 10
-17.32926280361032
 20
9.332618141634086
 30
0.0
 10
-17.33137976566936
 20
9.328885173169763
 30
0.0
 10
-17.33314397584146
 20
9.325170882298144
 30
0.0
 10
-17.33603259684406
 20
9.319089306082805
 30
0.0
 10
-17.33801768403522
 20
9.3130107375795
 30
0.0
 10
-17.33908164700599
 20
9.306999333368289
 30
0.0
  0
LINE
  5
F5
330
1F
100
AcDbEntity
  8
SK1
  6
Continuous
100
AcDbLine
 10
-3.7354130445
 20
-11.9680139427
 30
0.0
 11
-22.0817519303
 21
-9.3877689182
 31
0.0
  0
ARC
  5
F6
330
1F
100
AcDbEntity
  8
SK3
100
AcDbCircle
 10
-3.0791939868
 20
-15.9311342268
 30
0.0
 40
8.001216207109827
100
AcDbArc
 50
87.123408702
 51
90.0032196401
  0
SPLINE
  5
F7
330
1F
100
AcDbEntity
  8
SK1
  6
Continuous
100
AcDbSpline
210
0.0
220
0.0
230
1.0
 70
     8
 71
     3
 72
    23
 73
    19
 74
     0
 42
0.0000000245603334
 43
0.0000000001
 12
1.0
 22
0.0
 32
0.0
 13
1.0
 23
0.0
 33
0.0
 40
0.0
 40
0.0
 40
0.0
 40
0.0
 40
0.192437391325775
 40
0.192437391325775
 40
0.192437391325775
 40
0.3848882864195933
 40
0.3848882864195933
 40
0.3848882864195933
 40
0.577153508800237
 40
0.577153508800237
 40
0.577153508800237
 40
0.7693245448675271
 40
0.7693245448675271
 40
0.7693245448675271
 40
0.8946813472232104
 40
0.8946813472232104
 40
0.8946813472232104
 40
0.9999999999999999
 40
0.9999999999999999
 40
0.9999999999999999
 40
0.9999999999999999
 10
-3.735413044452088
 20
-11.9680139427404
 30
0.0
 10
-3.691029899622519
 20
-11.97425506989496
 30
0.0
 10
-3.646070591160167
 20
-11.98084201834442
 30
0.0
 10
-3.604251747311368
 20
-11.98718892809334
 30
0.0
 10
-3.562431094453564
 20
-11.99353611239833
 30
0.0
 10
-3.522597455293369
 20
-11.99981462838286
 30
0.0
 10
-3.488043905251077
 20
-12.00540075095954
 30
0.0
 10
-3.45352303949696
 20
-12.0109815896091
 30
0.0
 10
-3.423318615637253
 20
-12.01601973808531
 30
0.0
 10
-3.399916600976036
 20
-12.01997878666215
 30
0.0
 10
-3.376525725949498
 20
-12.02393595068522
 30
0.0
 10
-3.35928430919015
 20
-12.02691915660881
 30
0.0
 10
-3.349605836744439
 20
-12.02859803143455
 30
0.0
 10
-3.343240640716417
 20
-12.02970216924476
 30
0.0
 10
-3.339999999999964
 20
-12.03026824055348
 30
0.0
 10
-3.339999999999964
 20
-12.03026824055349
 30
0.0
 10
-3.339999999999964
 20
-12.03026824055348
 30
0.0
 10
-3.342286120538091
 20
-12.0298678189669
 30
0.0
 10
-3.346755766145945
 20
-12.0290915863817
 30
0.0
  0
LINE
  5
F8
330
1F
100
AcDbEntity
  8
SK3
100
AcDbLine
 10
-17.246991492
 20
-7.4793623375
 30
0.0
 11
11.26
 21
-7.4793623375
 31
0.0
  0
ELLIPSE
  5
F9
330
1F
100
AcDbEntity
  8
SK1
  6
Continuous
100
AcDbEllipse
 10
44.3446183897
 20
-0.1530733644
 30
0.0
 11
-62.10000006346422
 21
-5.741379020901133E-8
 31
0.0
210
0.0
220
0.0
230
1.0
 40
0.9238795321
 41
0.1581167920432743
 42
0.1635773886670148
  0
SPLINE
  5
FA
330
1F
100
AcDbEntity
  8
SK3
100
AcDbSpline
210
0.0
220
0.0
230
1.0
 70
     8
 71
     3
 72
     8
 73
     4
 74
     0
 42
0.0000009771265772
 43
0.0000000001
 12
1.0
 22
0.0
 32
0.0
 13
1.0
 23
0.0
 33
0.0
 40
0.0
 40
0.0
 40
0.0
 40
0.0
 40
1.0
 40
1.0
 40
1.0
 40
1.0
 10
-17.34
 20
-9.29671938877762
 30
0.0
 10
-17.34
 20
-9.300074424403384
 30
0.0
 10
-17.33969403098253
 20
-9.303467315966573
 30
0.0
 10
-17.3390878317825
 20
-9.306886385715112
 30
0.0
  0
SPLINE
  5
FB
330
1F
100
AcDbEntity
  8
SK3
100
AcDbSpline
210
0.0
220
0.0
230
1.0
 70
     8
 71
     3
 72
    11
 73
     7
 74
     0
 42
0.0000002707965574
 43
0.0000000001
 12
1.0
 22
0.0
 32
0.0
 13
1.0
 23
0.0
 33
0.0
 40
0.0
 40
0.0
 40
0.0
 40
0.0
 40
0.2654203557515106
 40
0.2654203557515106
 40
0.2654203557515106
 40
1.0
 40
1.0
 40
1.0
 40
1.0
 10
-17.63367756494212
 20
-7.376785090204709
 30
0.0
 10
-17.63585551829465
 20
-7.373968300318587
 30
0.0
 10
-17.637802465781
 20
-7.371121794130977
 30
0.0
 10
-17.63951047994835
 20
-7.368251981042828
 30
0.0
 10
-17.64427738888492
 20
-7.360242599201826
 30
0.0
 10
-17.64726658850003
 20
-7.35196574712973
 30
0.0
 10
-17.64842863627316
 20
-7.343587422309863
 30
0.0
  0
LINE
  5
FC
330
1F
100
AcDbEntity
  8
SK3
100
AcDbLine
 10
-3.0796436017
 20
5.8901415274
 30
0.0
 11
-21.9164617093
 21
5.8901415274
 31
0.0
  0
ELLIPSE
  5
FD
330
1F
100
AcDbEntity
  8
SK1
  6
Continuous
100
AcDbEllipse
 10
-64.6712534082
 20
0.2828427138
 30
0.0
 11
62.0999999882288
 21
-2.577097674976715E-9
 31
0.0
210
0.0
220
0.0
230
1.0
 40
0.7071067813
 41
0.1816735815884591
 42
0.1939350327462677
  0
SPLINE
  5
FE
330
1F
100
AcDbEntity
  8
SK1
  6
Continuous
100
AcDbSpline
210
0.0
220
0.0
230
1.0
 70
     8
 71
     3
 72
    35
 73
    31
 74
     0
 42
0.0000000092527961
 43
0.0000000001
 12
1.0
 22
0.0
 32
0.0
 13
1.0
 23
0.0
 33
0.0
 40
0.0
 40
0.0
 40
0.0
 40
0.0
 40
0.1075456917067825
 40
0.1075456917067825
 40
0.1075456917067825
 40
0.2150989301385789
 40
0.2150989301385789
 40
0.2150989301385789
 40
0.3225484033913152
 40
0.3225484033913152
 40
0.3225484033913152
 40
0.4299452396167516
 40
0.4299452396167516
 40
0.4299452396167516
 40
0.5000022276408203
 40
0.5000022276408203
 40
0.5000022276408203
 40
0.6074000166486742
 40
0.6074000166486742
 40
0.6074000166486742
 40
0.7147980737437564
 40
0.7147980737437564
 40
0.7147980737437564
 40
0.8221915703467255
 40
0.8221915703467255
 40
0.8221915703467255
 40
0.929593499225159
 40
0.929593499225159
 40
0.929593499225159
 40
1.0
 40
1.0
 40
1.0
 40
1.0
 10
-3.735413044452098
 20
8.745506528721503
 30
0.0
 10
-3.691029899622528
 20
8.749919672054741
 30
0.0
 10
-3.646070591160176
 20
8.749115474779012
 30
0.0
 10
-3.604251747311375
 20
8.743122095053875
 30
0.0
 10
-3.56243109445357
 20
8.737128456065763
 30
0.0
 10
-3.522597455293375
 20
8.72577631298629
 30
0.0
 10
-3.488043905251081
 20
8.709929373802916
 30
0.0
 10
-3.45352303949696
 20
8.694097424278382
 30
0.0
 10
-3.423318615637251
 20
8.673338408662268
 30
0.0
 10
-3.399916600976032
 20
8.649287721972653
 30
0.0
 10
-3.376525725949497
 20
8.625248483693248
 30
0.0
 10
-3.359284309190151
 20
8.59725420691275
 30
0.0
 10
-3.349605836744441
 20
8.567564253906918
 30
0.0
 10
-3.343240640716417
 20
8.548038200389174
 30
0.0
 10
-3.339999999999964
 20
8.527498512373578
 30
0.0
 10
-3.339999999999964
 20
8.506684252388524
 30
0.0
 10
-3.339999999999964
 20
8.475035246459406
 30
0.0
 10
-3.347611532466505
 20
8.442007071297223
 30
0.0
 10
-3.362211311005153
 20
8.410362430248131
 30
0.0
 10
-3.376811110372897
 20
8.378717744052512
 30
0.0
 10
-3.398802687503856
 20
8.34758630404173
 30
0.0
 10
-3.426381423985207
 20
8.319617354974843
 30
0.0
 10
-3.453959068452828
 20
8.29164951337263
 30
0.0
 10
-3.487884880964149
 20
8.266076744228215
 30
0.0
 10
-3.525366384340876
 20
8.245098106164582
 30
0.0
 10
-3.562851255052244
 20
8.22411758338213
 30
0.0
 10
-3.604925578052372
 20
8.207157451485307
 30
0.0
 10
-3.648119116986679
 20
8.195673323691151
 30
0.0
 10
-3.67666450453448
 20
8.188083788621306
 30
0.0
 10
-3.706120119277527
 20
8.182733783302785
 30
0.0
 10
-3.735413044452095
 20
8.179821103772268
 30
0.0
  0
SPLINE
  5
FF
330
1F
100
AcDbEntity
  8
SK3
100
AcDbSpline
210
0.0
220
0.0
230
1.0
 70
     8
 71
     3
 72
    35
 73
    31
 74
     0
 42
0.0000000091840919
 43
0.0000000001
 12
1.0
 22
0.0
 32
0.0
 13
1.0
 23
0.0
 33
0.0
 40
0.0
 40
0.0
 40
0.0
 40
0.0
 40
0.1081896749085218
 40
0.1081896749085218
 40
0.1081896749085218
 40
0.2164191625336823
 40
0.2164191625336823
 40
0.2164191625336823
 40
0.3240751100861253
 40
0.3240751100861253
 40
0.3240751100861253
 40
0.4312094465439994
 40
0.4312094465439994
 40
0.4312094465439994
 40
0.5000210071707861
 40
0.5000210071707861
 40
0.5000210071707861
 40
0.6068936836056048
 40
0.6068936836056048
 40
0.6068936836056048
 40
0.7137619519021582
 40
0.7137619519021582
 40
0.7137619519021582
 40
0.8207018846449895
 40
0.8207018846449895
 40
0.8207018846449895
 40
0.9279324985135045
 40
0.9279324985135045
 40
0.9279324985135045
 40
1.0
 40
1.0
 40
1.0
 40
1.0
 10
-3.079643601714123
 20
5.32445610246293
 30
0.0
 10
-3.034445256893919
 20
5.324456102462928
 30
0.0
 10
-2.988621126395122
 20
5.330218883487159
 30
0.0
 10
-2.945960756616373
 20
5.341267709389343
 30
0.0
 10
-2.9032909901119
 20
5.352318968997261
 30
0.0
 10
-2.862608575802056
 20
5.368965583612951
 30
0.0
 10
-2.827339527736695
 20
5.389733680144047
 30
0.0
 10
-2.792255191715372
 20
5.410393009419671
 30
0.0
 10
-2.761554975942581
 20
5.435698291710974
 30
0.0
 10
-2.737818841307405
 20
5.463415319310124
 30
0.0
 10
-2.714195355604737
 20
5.491000805122066
 30
0.0
 10
-2.696814746580359
 20
5.521732314876149
 30
0.0
 10
-2.687124613797841
 20
5.552965036018882
 30
0.0
 10
-2.680848321287382
 20
5.573194448575857
 30
0.0
 10
-2.677653750291987
 20
5.593928962381107
 30
0.0
 10
-2.677653750291987
 20
5.614427842621192
 30
0.0
 10
-2.677653750291987
 20
5.646001186881234
 30
0.0
 10
-2.685355857361286
 20
5.677728985454445
 30
0.0
 10
-2.700122127200329
 20
5.707026196017751
 30
0.0
 10
-2.714888065107335
 20
5.736322748006964
 30
0.0
 10
-2.737124927498339
 20
5.763999771634419
 30
0.0
 10
-2.764988712900214
 20
5.787883821053762
 30
0.0
 10
-2.792872118861679
 20
5.811784688662311
 30
0.0
 10
-2.827155397476008
 20
5.832550092981934
 30
0.0
 10
-2.86499836222817
 20
5.848617392221001
 30
0.0
 10
-2.902945318263666
 20
5.864728843895758
 30
0.0
 10
-2.94550746776611
 20
5.876564687891696
 30
0.0
 10
-2.989180909791406
 20
5.883283090342434
 30
0.0
 10
-3.018760793764954
 20
5.887833443045694
 30
0.0
 10
-3.049297538295531
 20
5.890141527412167
 30
0.0
 10
-3.079643601714123
 20
5.890141527412167
 30
0.0
  0
LINE
  5
100
330
1F
100
AcDbEntity
  8
SK3
100
AcDbLine
 10
-3.0796436017
 20
5.3244561025
 30
0.0
 11
-21.9164617093
 21
5.3244561025
 31
0.0
  0
SPLINE
  5
101
330
1F
100
AcDbEntity
  8
SK1
  6
Continuous
100
AcDbSpline
210
0.0
220
0.0
230
1.0
 70
     8
 71
     3
 72
    14
 73
    10
 74
     0
 42
0.0000000004922722
 43
0.0000000001
 12
1.0
 22
0.0
 32
0.0
 13
1.0
 23
0.0
 33
0.0
 40
0.0
 40
0.0
 40
0.0
 40
0.0
 40
0.0674978826419864
 40
0.0674978826419864
 40
0.0674978826419864
 40
0.9574517239467035
 40
0.9574517239467035
 40
0.9574517239467035
 40
1.0
 40
1.0
 40
1.0
 40
1.0
 10
-16.92641027504489
 20
9.496188754151486
 30
0.0
 10
-16.47317118278356
 20
9.555084603670462
 30
0.0
 10
-16.01993196070587
 20
9.613979600482235
 30
0.0
 10
-15.56669261591317
 20
9.672873791197732
 30
0.0
 10
-9.590770408268883
 20
10.44938868612363
 30
0.0
 10
-3.614827684382492
 20
11.22576881612326
 30
0.0
 10
2.361125440140416
 20
12.00208059726193
 30
0.0
 10
2.646832958275159
 20
12.03919569968429
 30
0.0
 10
2.932540501699043
 20
12.07631063594346
 30
0.0
 10
3.218248069711964
 20
12.11342541063727
 30
0.0
  0
ELLIPSE
  5
102
330
1F
100
AcDbEntity
  8
SK1
  6
Continuous
100
AcDbEllipse
 10
44.3446183962
 20
0.1530733633
 30
0.0
 11
-62.10000007013456
 21
6.522783659253794E-8
 31
0.0
210
0.0
220
0.0
230
1.0
 40
0.923879532
 41
-0.1635773885422767
 42
-0.1581327560561485
  0
SPLINE
  5
103
330
1F
100
AcDbEntity
  8
SK3
100
AcDbSpline
210
0.0
220
0.0
230
1.0
 70
     8
 71
     3
 72
    35
 73
    31
 74
     0
 42
0.0000000108662372
 43
0.0000000001
 12
1.0
 22
0.0
 32
0.0
 13
1.0
 23
0.0
 33
0.0
 40
0.0
 40
0.0
 40
0.0
 40
0.0
 40
0.1081896749085212
 40
0.1081896749085212
 40
0.1081896749085212
 40
0.2164191625336821
 40
0.2164191625336821
 40
0.2164191625336821
 40
0.3240751100861241
 40
0.3240751100861241
 40
0.3240751100861241
 40
0.4312094465439927
 40
0.4312094465439927
 40
0.4312094465439927
 40
0.5000210071707777
 40
0.5000210071707777
 40
0.5000210071707777
 40
0.6068936836055963
 40
0.6068936836055963
 40
0.6068936836055963
 40
0.7137619519021494
 40
0.7137619519021494
 40
0.7137619519021494
 40
0.8207018846449766
 40
0.8207018846449766
 40
0.8207018846449766
 40
0.9279324985134939
 40
0.9279324985134939
 40
0.9279324985134939
 40
1.0
 40
1.0
 40
1.0
 40
1.0
 10
-17.24699149203205
 20
7.479362337538634
 30
0.0
 10
-17.29218983685227
 20
7.479362337538634
 30
0.0
 10
-17.33801396735107
 20
7.476767633755639
 30
0.0
 10
-17.38067433712981
 20
7.471715252817642
 30
0.0
 10
-17.42334410363429
 20
7.466661759000452
 30
0.0
 10
-17.46402651794413
 20
7.459002141380941
 30
0.0
 10
-17.4992955660095
 20
7.449212924447803
 30
0.0
 10
-17.53437990203082
 20
7.439474975875125
 30
0.0
 10
-17.56508011780361
 20
7.42735085211597
 30
0.0
 10
-17.58881625243879
 20
7.413675283781984
 30
0.0
 10
-17.61243973814145
 20
7.400064618103712
 30
0.0
 10
-17.62982034716583
 20
7.384533385738809
 30
0.0
 10
-17.63951047994835
 20
7.36825198104283
 30
0.0
 10
-17.64578677245881
 20
7.357706526130436
 30
0.0
 10
-17.6489813434542
 20
7.346697402182921
 30
0.0
 10
-17.6489813434542
 20
7.335603488139624
 30
0.0
 10
-17.6489813434542
 20
7.318516117357515
 30
0.0
 10
-17.6412792363849
 20
7.300826002003791
 30
0.0
 10
-17.62651296654586
 20
7.284054792013825
 30
0.0
 10
-17.61174702863885
 20
7.267283959025084
 30
0.0
 10
-17.58951016624784
 20
7.250975163709867
 30
0.0
 10
-17.56164638084597
 20
7.236618407892133
 30
0.0
 10
-17.5337629748845
 20
7.222251542623048
 30
0.0
 10
-17.49947969627018
 20
7.209452784616342
 30
0.0
 10
-17.46163673151802
 20
7.199434291630157
 30
0.0
 10
-17.42368977548253
 20
7.189388268138643
 30
0.0
 10
-17.38112762598008
 20
7.181869163205033
 30
0.0
 10
-17.33745418395478
 20
7.177591482866008
 30
0.0
 10
-17.30787429998124
 20
7.174694223519448
 30
0.0
 10
-17.27733755545065
 20
7.173215591646562
 30
0.0
 10
-17.24699149203205
 20
7.173215591646562
 30
0.0
  0
SPLINE
  5
104
330
1F
100
AcDbEntity
  8
SK1
  6
Continuous
100
AcDbSpline
210
0.0
220
0.0
230
1.0
 70
     8
 71
     3
 72
    35
 73
    31
 74
     0
 42
0.0000000105690596
 43
0.0000000001
 12
1.0
 22
0.0
 32
0.0
 13
1.0
 23
0.0
 33
0.0
 40
0.0
 40
0.0
 40
0.0
 40
0.0
 40
0.1134251203605257
 40
0.1134251203605257
 40
0.1134251203605257
 40
0.2270448956076044
 40
0.2270448956076044
 40
0.2270448956076044
 40
0.3375525299923959
 40
0.3375525299923959
 40
0.3375525299923959
 40
0.4436123154059448
 40
0.4436123154059448
 40
0.4436123154059448
 40
0.5001943358043293
 40
0.5001943358043293
 40
0.5001943358043293
 40
0.6025718788280229
 40
0.6025718788280229
 40
0.6025718788280229
 40
0.704862282614656
 40
0.704862282614656
 40
0.704862282614656
 40
0.8085177663571345
 40
0.8085177663571345
 40
0.8085177663571345
 40
0.9156387561634705
 40
0.9156387561634705
 40
0.9156387561634705
 40
1.0
 40
1.0
 40
1.0
 40
1.0
 10
-16.92641027504489
 20
9.190042008259413
 30
0.0
 10
-16.97418338792762
 20
9.183834163182864
 30
0.0
 10
-17.0226697965709
 20
9.180961912626296
 30
0.0
 10
-17.06786828878673
 20
9.181700720037567
 30
0.0
 10
-17.11311117396344
 20
9.182440253089162
 30
0.0
 10
-17.15633486494086
 20
9.186831221807699
 30
0.0
 10
-17.19357317105912
 20
9.194496272510618
 30
0.0
 10
-17.22979207083587
 20
9.201951490863227
 30
0.0
 10
-17.26138521019838
 20
9.212724232859497
 30
0.0
 10
-17.28527580782684
 20
9.225803265377428
 30
0.0
 10
-17.30821952727531
 20
9.238363924487578
 30
0.0
 10
-17.32471136232711
 20
9.253408914288908
 30
0.0
 10
-17.33314397584146
 20
9.269563701463008
 30
0.0
 10
-17.33769177696157
 20
9.278276155683812
 30
0.0
 10
-17.34
 20
9.28740992289352
 30
0.0
 10
-17.34
 20
9.296719388777623
 30
0.0
 10
-17.34
 20
9.313395937135452
 30
0.0
 10
-17.33244045748357
 20
9.331007787932847
 30
0.0
 10
-17.31802614799303
 20
9.348120818358163
 30
0.0
 10
-17.30361865999356
 20
9.365225750137887
 30
0.0
 10
-17.28198757287048
 20
9.382300269655943
 30
0.0
 10
-17.25505043752
 20
9.398088000745409
 30
0.0
 10
-17.22774723689759
 20
9.41409028100646
 30
0.0
 10
-17.19428968317309
 20
9.429201427064086
 30
0.0
 10
-17.15746020563424
 20
9.442421778419352
 30
0.0
 10
-17.11940649113452
 20
9.456081583273452
 30
0.0
 10
-17.07676917987023
 20
9.468089556313977
 30
0.0
 10
-17.03293478755093
 20
9.477692470436603
 30
0.0
 10
-16.99823368926005
 20
9.485294530125733
 30
0.0
 10
-16.96217039816761
 20
9.491541928963242
 30
0.0
 10
-16.92641027504489
 20
9.496188754151486
 30
0.0
  0
SPLINE
  5
105
330
1F
100
AcDbEntity
  8
SK1
  6
Continuous
100
AcDbSpline
210
0.0
220
0.0
230
1.0
 70
     8
 71
     3
 72
    14
 73
    10
 74
     0
 42
0.0000000004922722
 43
0.0000000001
 12
1.0
 22
0.0
 32
0.0
 13
1.0
 23
0.0
 33
0.0
 40
0.0
 40
0.0
 40
0.0
 40
0.0
 40
0.0674978826419864
 40
0.0674978826419864
 40
0.0674978826419864
 40
0.9574517239467035
 40
0.9574517239467035
 40
0.9574517239467035
 40
1.0
 40
1.0
 40
1.0
 40
1.0
 10
-16.92641027504489
 20
9.190042008259413
 30
0.0
 10
-16.47317118278356
 20
9.24893785777839
 30
0.0
 10
-16.01993196070587
 20
9.307832854590163
 30
0.0
 10
-15.56669261591317
 20
9.366727045305662
 30
0.0
 10
-9.590770408268883
 20
10.14324194023156
 30
0.0
 10
-3.614827684382492
 20
10.91962207023119
 30
0.0
 10
2.361125440140416
 20
11.69593385136986
 30
0.0
 10
2.646832958275159
 20
11.73304895379222
 30
0.0
 10
2.932540501699043
 20
11.77016389005139
 30
0.0
 10
3.218248069711964
 20
11.8072786647452
 30
0.0
  0
SPLINE
  5
106
330
1F
100
AcDbEntity
  8
SK3
100
AcDbSpline
210
0.0
220
0.0
230
1.0
 70
     8
 71
     3
 72
     8
 73
     4
 74
     0
 42
0.0000002805449475
 43
0.0000000001
 12
1.0
 22
0.0
 32
0.0
 13
1.0
 23
0.0
 33
0.0
 40
0.0
 40
0.0
 40
0.0
 40
0.0
 40
0.9999999999999999
 40
0.9999999999999999
 40
0.9999999999999999
 40
0.9999999999999999
 10
-2.677653750291987
 20
-5.614427842621192
 30
0.0
 10
-2.677653750291987
 20
-5.62625293366734
 30
0.0
 10
-2.678734132362241
 20
-5.63809969017063
 30
0.0
 10
-2.68086138186837
 20
-5.649832305998189
 30
0.0
  0
SPLINE
  5
107
330
1F
100
AcDbEntity
  8
SK3
100
AcDbSpline
210
0.0
220
0.0
230
1.0
 70
     8
 71
     3
 72
     8
 73
     4
 74
     0
 42
0.0000001800355414
 43
0.0000000001
 12
1.0
 22
0.0
 32
0.0
 13
1.0
 23
0.0
 33
0.0
 40
0.0
 40
0.0
 40
0.0
 40
0.0
 40
1.0
 40
1.0
 40
1.0
 40
1.0
 10
-17.60970856224793
 20
-3.19725648479179
 30
0.0
 10
-17.61830485859306
 20
-3.180811408721516
 30
0.0
 10
-17.62558881108282
 20
-3.163721684836497
 30
0.0
 10
-17.63143522587252
 20
-3.146263598137251
 30
0.0
  0
LINE
  5
108
330
1F
100
AcDbEntity
  8
SK3
100
AcDbLine
 10
-3.0796436017
 20
0.4
 30
0.0
 11
-3.7354130445
 21
0.4
 31
0.0
  0
ARC
  5
109
330
1F
100
AcDbEntity
  8
SK1
  6
Continuous
100
AcDbCircle
 10
-3.7399950541
 20
0.0
 30
0.0
 40
0.4000262426542516
100
AcDbArc
 50
270.6562958262
 51
89.3437041738
  0
ARC
  5
10A
330
1F
100
AcDbEntity
  8
SK3
100
AcDbCircle
 10
-3.0775952574
 20
0.0
 30
0.0
 40
0.4000052446088562
100
AcDbArc
 50
269.7065988485
 51
90.2934011515
  0
LINE
  5
10B
330
1F
100
AcDbEntity
  8
SK3
100
AcDbLine
 10
-3.7354130445
 20
-0.4
 30
0.0
 11
-3.0796436017
 21
-0.4
 31
0.0
  0
LINE
  5
10C
330
1F
100
AcDbEntity
  8
SK1
  6
Continuous
100
AcDbLine
 10
-16.926410275
 20
4.2395969187
 30
0.0
 11
3.2182480697
 21
5.3236918378
 31
0.0
  0
ELLIPSE
  5
10D
330
1F
100
AcDbEntity
  8
SK1
  6
Continuous
100
AcDbEllipse
 10
44.3446184009
 20
0.3695518087
 30
0.0
 11
-62.1000000747601
 21
4.945839632275007E-9
 31
0.0
210
0.0
220
0.0
230
1.0
 40
0.3826834321
 41
-0.1635773894759067
 42
-0.1350892265049897
  0
SPLINE
  5
10E
330
1F
100
AcDbEntity
  8
SK3
100
AcDbSpline
210
0.0
220
0.0
230
1.0
 70
     8
 71
     3
 72
    35
 73
    31
 74
     0
 42
0.0000000082102558
 43
0.0000000001
 12
1.0
 22
0.0
 32
0.0
 13
1.0
 23
0.0
 33
0.0
 40
0.0
 40
0.0
 40
0.0
 40
0.0
 40
0.1081896749085193
 40
0.1081896749085193
 40
0.1081896749085193
 40
0.2164191625336784
 40
0.2164191625336784
 40
0.2164191625336784
 40
0.3240751100861174
 40
0.3240751100861174
 40
0.3240751100861174
 40
0.431209446543993
 40
0.431209446543993
 40
0.431209446543993
 40
0.5000210071707806
 40
0.5000210071707806
 40
0.5000210071707806
 40
0.6068936836055989
 40
0.6068936836055989
 40
0.6068936836055989
 40
0.7137619519021514
 40
0.7137619519021514
 40
0.7137619519021514
 40
0.8207018846449812
 40
0.8207018846449812
 40
0.8207018846449812
 40
0.9279324985134941
 40
0.9279324985134941
 40
0.9279324985134941
 40
1.0
 40
1.0
 40
1.0
 40
1.0
 10
-17.24699149203205
 20
3.404200064003108
 30
0.0
 10
-17.29218983685227
 20
3.404200064003108
 30
0.0
 10
-17.33801396735106
 20
3.397194718575471
 30
0.0
 10
-17.38067433712981
 20
3.383685932397771
 30
0.0
 10
-17.42334410363429
 20
3.370174170663148
 30
0.0
 10
-17.46402651794413
 20
3.349773785806852
 30
0.0
 10
-17.49929556600949
 20
3.324089355945298
 30
0.0
 10
-17.53437990203081
 20
3.298539441297507
 30
0.0
 10
-17.56508011780361
 20
3.267047492969955
 30
0.0
 10
-17.58881625243878
 20
3.232158230122768
 30
0.0
 10
-17.61243973814145
 20
3.197434547656552
 30
0.0
 10
-17.62982034716583
 20
3.158382436022737
 30
0.0
 10
-17.63951047994834
 20
3.118196541468749
 30
0.0
 10
-17.6457867724588
 20
3.092168164492292
 30
0.0
 10
-17.6489813434542
 20
3.065289530721945
 30
0.0
 10
-17.6489813434542
 20
3.038506452978814
 30
0.0
 10
-17.6489813434542
 20
2.99725389069135
 30
0.0
 10
-17.64127923638489
 20
2.955280369618859
 30
0.0
 10
-17.62651296654585
 20
2.916086045434715
 30
0.0
 10
-17.61174702863885
 20
2.876892602302587
 30
0.0
 10
-17.58951016624785
 20
2.839400730188557
 30
0.0
 10
-17.56164638084597
 20
2.80676391434968
 30
0.0
 10
-17.53376297488451
 20
2.774104116974708
 30
0.0
 10
-17.49947969627018
 20
2.745412206569042
 30
0.0
 10
-17.46163673151802
 20
2.723096335139569
 30
0.0
 10
-17.42368977548252
 20
2.700719140393496
 30
0.0
 10
-17.38112762598008
 20
2.684141272649277
 30
0.0
 10
-17.33745418395478
 20
2.674721549690535
 30
0.0
 10
-17.30787429998124
 20
2.668341601162065
 30
0.0
 10
-17.27733755545065
 20
2.665096437994079
 30
0.0
 10
-17.24699149203205
 20
2.665096437994078
 30
0.0
  0
SPLINE
  5
10F
330
1F
100
AcDbEntity
  8
SK1
  6
Continuous
100
AcDbSpline
210
0.0
220
0.0
230
1.0
 70
     8
 71
     3
 72
    35
 73
    31
 74
     0
 42
0.0000000080813779
 43
0.0000000001
 12
1.0
 22
0.0
 32
0.0
 13
1.0
 23
0.0
 33
0.0
 40
0.0
 40
0.0
 40
0.0
 40
0.0
 40
0.1134251203605125
 40
0.1134251203605125
 40
0.1134251203605125
 40
0.227044895607593
 40
0.227044895607593
 40
0.227044895607593
 40
0.3375525299923799
 40
0.3375525299923799
 40
0.3375525299923799
 40
0.4436123154059354
 40
0.4436123154059354
 40
0.4436123154059354
 40
0.5001943358043228
 40
0.5001943358043228
 40
0.5001943358043228
 40
0.60257187882802
 40
0.60257187882802
 40
0.60257187882802
 40
0.7048622826146608
 40
0.7048622826146608
 40
0.7048622826146608
 40
0.8085177663571348
 40
0.8085177663571348
 40
0.8085177663571348
 40
0.9156387561634783
 40
0.9156387561634783
 40
0.9156387561634783
 40
1.0
 40
1.0
 40
1.0
 40
1.0
 10
-16.92641027504489
 20
3.500493292707453
 30
0.0
 10
-16.97418338792763
 20
3.497921919083637
 30
0.0
 10
-17.02266979657091
 20
3.502975567147354
 30
0.0
 10
-17.06786828878674
 20
3.515413730490528
 30
0.0
 10
-17.11311117396345
 20
3.527864110323049
 30
0.0
 10
-17.15633486494087
 20
3.548099828626425
 30
0.0
 10
-17.19357317105912
 20
3.574573926609106
 30
0.0
 10
-17.22979207083587
 20
3.600323290677101
 30
0.0
 10
-17.26138521019838
 20
3.632741577257512
 30
0.0
 10
-17.28527580782684
 20
3.669047584167114
 30
0.0
 10
-17.30821952727531
 20
3.70391464148325
 30
0.0
 10
-17.32471136232711
 20
3.74337184710076
 30
0.0
 10
-17.33314397584146
 20
3.78397182159219
 30
0.0
 10
-17.33769177696157
 20
3.80586783392032
 30
0.0
 10
-17.34
 20
3.828352217612747
 30
0.0
 10
-17.34
 20
3.850827256408603
 30
0.0
 10
-17.34
 20
3.891088005627645
 30
0.0
 10
-17.33244045748357
 20
3.932195781243417
 30
0.0
 10
-17.31802614799304
 20
3.970738978103709
 30
0.0
 10
-17.30361865999356
 20
4.009263934612432
 30
0.0
 10
-17.28198757287048
 20
4.046276163956622
 30
0.0
 10
-17.25505043752
 20
4.078915069483392
 30
0.0
 10
-17.22774723689759
 20
4.11199752513795
 30
0.0
 10
-17.19428968317309
 20
4.141473199322501
 30
0.0
 10
-17.15746020563424
 20
4.16527764277284
 30
0.0
 10
-17.11940649113452
 20
4.18987336216442
 30
0.0
 10
-17.07676917987023
 20
4.209073758603878
 30
0.0
 10
-17.03293478755093
 20
4.221661468945325
 30
0.0
 10
-16.99823368926005
 20
4.231626415433778
 30
0.0
 10
-16.96217039816762
 20
4.237672140701535
 30
0.0
 10
-16.9264102750449
 20
4.239596918716481
 30
0.0
  0
LINE
  5
110
330
1F
100
AcDbEntity
  8
SK1
  6
Continuous
100
AcDbLine
 10
-16.926410275
 20
3.5004932927
 30
0.0
 11
3.2182480697
 21
4.5845882118
 31
0.0
  0
LINE
  5
111
330
1F
100
AcDbEntity
  8
SK1
  6
Continuous
100
AcDbLine
 10
3.2182480697
 20
12.9519698985
 30
0.0
 11
-3.34
 21
12.0302682406
 31
0.0
  0
LINE
  5
112
330
1F
100
AcDbEntity
  8
SK1
  6
Continuous
100
AcDbLine
 10
-3.34
 20
-12.0302682406
 30
0.0
 11
3.2182480697
 21
-12.9519698985
 31
0.0
  0
LINE
  5
113
330
1F
100
AcDbEntity
  8
SK3
100
AcDbLine
 10
-2.6776537503
 20
-7.94
 30
0.0
 11
11.26
 21
-7.94
 31
0.0
  0
LINE
  5
114
330
1F
100
AcDbEntity
  8
SK3
100
AcDbLine
 10
11.26
 20
7.94
 30
0.0
 11
-2.6776537503
 21
7.94
 31
0.0
  0
LINE
  5
115
330
1F
100
AcDbEntity
  8
SK1
  6
Continuous
100
AcDbLine
 10
6.9198076211
 20
13.0
 30
0.0
 11
6.66
 21
13.0
 31
0.0
  0
ARC
  5
116
330
1F
100
AcDbEntity
  8
SK3
100
AcDbCircle
 10
11.26
 20
8.34
 30
0.0
 40
0.400000000000001
100
AcDbArc
 50
270.0
 51
360.0
  0
ARC
  5
117
330
1F
100
AcDbEntity
  8
SK1
  6
Continuous
100
AcDbCircle
 10
3.26
 20
12.6548894778
 30
0.0
 40
0.2999999999999982
100
AcDbArc
 50
0.0
 51
98.0
  0
ARC
  5
118
330
1F
100
AcDbEntity
  8
SK1
  6
Continuous
100
AcDbCircle
 10
11.41
 20
10.1189110868
 30
0.0
 40
0.2500000000000016
100
AcDbArc
 50
0.0
 51
60.0
  0
ARC
  5
119
330
1F
100
AcDbEntity
  8
SK1
  6
Continuous
100
AcDbCircle
 10
3.76
 20
11.2
 30
0.0
 40
0.1999999999999997
100
AcDbArc
 50
180.0
 51
270.0
  0
LINE
  5
11A
330
1F
100
AcDbEntity
  8
SK1
  6
Continuous
100
AcDbLine
 10
6.46
 20
11.0
 30
0.0
 11
3.76
 21
11.0
 31
0.0
  0
ARC
  5
11B
330
1F
100
AcDbEntity
  8
SK1
  6
Continuous
100
AcDbCircle
 10
6.46
 20
11.2
 30
0.0
 40
0.2000000000000005
100
AcDbArc
 50
270.0
 51
0.0
  0
LINE
  5
11C
330
1F
100
AcDbEntity
  8
SK1
  6
Continuous
100
AcDbLine
 10
11.535
 20
10.3354174377
 30
0.0
 11
6.9198076211
 21
13.0
 31
0.0
  0
LINE
  5
11D
330
1F
100
AcDbEntity
  8
SK1
  6
Continuous
100
AcDbLine
 10
6.66
 20
-13.0
 30
0.0
 11
6.9198076211
 21
-13.0
 31
0.0
  0
ARC
  5
11E
330
1F
100
AcDbEntity
  8
SK3
100
AcDbCircle
 10
11.26
 20
-8.34
 30
0.0
 40
0.3999999999999997
100
AcDbArc
 50
0.0
 51
90.0
  0
ARC
  5
11F
330
1F
100
AcDbEntity
  8
SK1
  6
Continuous
100
AcDbCircle
 10
3.26
 20
-12.6548894778
 30
0.0
 40
0.3000000000000007
100
AcDbArc
 50
262.0
 51
0.0
  0
ARC
  5
120
330
1F
100
AcDbEntity
  8
SK1
  6
Continuous
100
AcDbCircle
 10
11.41
 20
-10.1189110868
 30
0.0
 40
0.2499999999999997
100
AcDbArc
 50
300.0
 51
0.0
  0
ARC
  5
121
330
1F
100
AcDbEntity
  8
SK1
  6
Continuous
100
AcDbCircle
 10
3.76
 20
-11.2
 30
0.0
 40
0.2000000000000005
100
AcDbArc
 50
90.0
 51
180.0
  0
LINE
  5
122
330
1F
100
AcDbEntity
  8
SK1
  6
Continuous
100
AcDbLine
 10
3.76
 20
-11.0
 30
0.0
 11
6.46
 21
-11.0
 31
0.0
  0
ARC
  5
123
330
1F
100
AcDbEntity
  8
SK1
  6
Continuous
100
AcDbCircle
 10
6.46
 20
-11.2
 30
0.0
 40
0.1999999999999997
100
AcDbArc
 50
0.0
 51
90.0
  0
LINE
  5
124
330
1F
100
AcDbEntity
  8
SK1
  6
Continuous
100
AcDbLine
 10
6.9198076211
 20
-13.0
 30
0.0
 11
11.535
 21
-10.3354174377
 31
0.0
  0
ARC
  5
125
330
1F
100
AcDbEntity
  8
SK3
100
AcDbCircle
 10
-7.220529528
 20
0.3382085919
 30
0.0
 40
10.97856860475502
100
AcDbArc
 50
198.4744324989
 51
203.1985431315
  0
ARC
  5
126
330
1F
100
AcDbEntity
  8
SK3
100
AcDbCircle
 10
-34.7076525596
 20
0.1556334843
 30
0.0
 40
32.54874703921634
100
AcDbArc
 50
344.469536086
 51
349.7572088541
  0
ARC
  5
127
330
1F
100
AcDbEntity
  8
SK3
100
AcDbCircle
 10
34.6676993991
 20
-0.0993953104
 30
0.0
 40
52.81530257031294
100
AcDbArc
 50
187.8699488612
 51
190.040377189
  0
ARC
  5
128
330
1F
100
AcDbEntity
  8
SK3
100
AcDbCircle
 10
-64.6712534199
 20
0.0
 30
0.0
 40
62.5
100
AcDbArc
 50
7.2986289081
 51
11.0977819747
  0
ARC
  5
129
330
1F
100
AcDbEntity
  8
SK3
100
AcDbCircle
 10
-64.6712534199
 20
0.0
 30
0.0
 40
62.49999999999999
100
AcDbArc
 50
348.9021909341
 51
352.7014131731
  0
ARC
  5
12A
330
1F
100
AcDbEntity
  8
SK3
100
AcDbCircle
 10
-34.6347773262
 20
-0.1404813667
 30
0.0
 40
32.47433892586817
100
AcDbArc
 50
10.2393471807
 51
15.5390591716
  0
ARC
  5
12B
330
1F
100
AcDbEntity
  8
SK3
100
AcDbCircle
 10
33.2109756316
 20
0.3221309803
 30
0.0
 40
51.34180536117567
100
AcDbArc
 50
169.9204291277
 51
172.1536827457
  0
ARC
  5
12C
330
1F
100
AcDbEntity
  8
SK3
100
AcDbCircle
 10
-7.4265337575
 20
-0.262720506
 30
0.0
 40
10.75926185320392
100
AcDbArc
 50
156.7403286239
 51
161.5592172401
  0
LINE
  5
12D
330
1F
100
AcDbEntity
  8
SK1
  6
Continuous
100
AcDbLine
 10
0.0
 20
12.4996746285
 30
0.0
 11
0.0
 21
-12.4996746285
 31
0.0
  0
LINE
  5
12F
330
1F
100
AcDbEntity
  8
SK4
  6
Continuous
100
AcDbLine
 10
11.66
 20
0.0
 30
0.0
 11
-22.34
 21
0.0
 31
0.0
  0
DIMENSION
  5
145
330
1F
100
AcDbEntity
  8
SK2
  6
Continuous
 62
   136
100
AcDbDimension
  2
DMBLK33
 10
11.66
 20
20.4456738005
 30
0.0
 11
-5.3399990761
 21
20.4456738005
 31
0.0
 70
   160
  1
\A1;<>
 71
     5
 42
-1.0
  3
DIN
100
AcDbAlignedDimension
 13
-22.34
 23
6.710733361
 33
0.0
 14
11.66
 24
9.8066661335
 34
0.0
100
AcDbRotatedDimension
  0
INSERT
  5
159
330
1F
100
AcDbEntity
  8
SK2
 62
     7
100
AcDbBlockReference
  2
Nullpunkt
 10
0.0
 20
0.0000000998
 30
0.0
  0
INSERT
  5
164
330
1F
100
AcDbEntity
  8
SK2
 62
     7
100
AcDbBlockReference
  2
Einfügepunkt
 10
11.66
 20
0.0
 30
0.0
  0
DIMENSION
  5
165
330
1F
100
AcDbEntity
  8
SK2
  6
Continuous
 62
   136
100
AcDbDimension
  2
DMBLK34
 10
22.4025872892
 20
-7.94
 30
0.0
 11
22.4025872892
 21
-0.0000000769
 31
0.0
 70
   161
  1
\A1;ø <>
 71
     5
 42
-1.0
  3
DIN
100
AcDbAlignedDimension
 13
11.26
 23
-7.94
 33
0.0
 14
11.26
 24
7.94
 34
0.0
  0
DIMENSION
  5
170
330
1F
100
AcDbEntity
  8
SK2
  6
Continuous
 62
   136
100
AcDbDimension
  2
DMBLK35
 10
11.66
 20
-19.9999999581
 30
0.0
 11
5.8300001547
 21
-19.9999999581
 31
0.0
 70
   160
  1
\A1;<>
 71
     5
 42
-1.0
  3
DIN
100
AcDbAlignedDimension
 13
0.0
 23
-12.4996746285
 33
0.0
 14
11.66
 24
-9.1882744343
 34
0.0
100
AcDbRotatedDimension
  0
DIMENSION
  5
17A
330
1F
100
AcDbEntity
  8
SK2
  6
Continuous
 62
   136
100
AcDbDimension
  2
DMBLK36
 10
-28.556490317
 20
12.4996746285
 30
0.0
 11
-28.556490317
 21
0.0000004051
 31
0.0
 70
   161
  1
\A1;ø <>
 71
     5
 42
-1.0
  3
DIN
100
AcDbAlignedDimension
 13
0.0
 23
12.4996746285
 33
0.0
 14
0.0
 24
-12.4996746285
 34
0.0
  0
ENDSEC
  0
SECTION
  2
OBJECTS
  0
DICTIONARY
  5
C
330
0
100
AcDbDictionary
281
     1
  3
ACAD_GROUP
350
D
  3
ACAD_LAYOUT
350
1A
  3
ACAD_MATERIAL
350
3B
  3
ACAD_MLEADERSTYLE
350
187
  3
ACAD_MLINESTYLE
350
17
  3
ACAD_PLOTSETTINGS
350
19
  3
ACAD_PLOTSTYLENAME
350
E
  3
ACAD_VISUALSTYLE
350
2A
  3
AcDbVariableDictionary
350
185
  0
DICTIONARY
  5
D
102
{ACAD_REACTORS
330
C
102
}
330
C
100
AcDbDictionary
281
     1
  0
DICTIONARY
  5
1A
102
{ACAD_REACTORS
330
C
102
}
330
C
100
AcDbDictionary
281
     1
  3
Layout1
350
1E
  3
Model
350
22
  0
DICTIONARY
  5
3B
102
{ACAD_REACTORS
330
C
102
}
330
C
100
AcDbDictionary
281
     1
  3
ByBlock
350
3D
  3
ByLayer
350
3C
  3
Global
350
3E
  0
DICTIONARY
  5
187
102
{ACAD_REACTORS
330
C
102
}
330
C
100
AcDbDictionary
281
     1
  0
DICTIONARY
  5
17
102
{ACAD_REACTORS
330
C
102
}
330
C
100
AcDbDictionary
281
     1
  3
Standard
350
18
  0
DICTIONARY
  5
19
102
{ACAD_REACTORS
330
C
102
}
330
C
100
AcDbDictionary
281
     1
  0
ACDBDICTIONARYWDFLT
  5
E
102
{ACAD_REACTORS
330
C
102
}
330
C
100
AcDbDictionary
281
     1
  3
Normal
350
F
100
AcDbDictionaryWithDefault
340
F
  0
DICTIONARY
  5
2A
102
{ACAD_REACTORS
330
C
102
}
330
C
100
AcDbDictionary
281
     1
  3
2dWireframe
350
2F
  3
3D Hidden
350
31
  3
3dWireframe
350
30
  3
Basic
350
32
  3
Brighten
350
36
  3
ColorChange
350
3A
  3
Conceptual
350
34
  3
Dim
350
35
  3
Facepattern
350
39
  3
Flat
350
2B
  3
FlatWithEdges
350
2C
  3
Gouraud
350
2D
  3
GouraudWithEdges
350
2E
  3
Linepattern
350
38
  3
Realistic
350
33
  3
Thicken
350
37
  0
DICTIONARY
  5
185
102
{ACAD_REACTORS
330
C
102
}
330
C
100
AcDbDictionary
281
     1
  3
DIMASSOC
350
18A
  3
HIDETEXT
350
18B
  3
PSOLHEIGHT
350
189
  3
PSOLWIDTH
350
188
  0
LAYOUT
  5
1E
102
{ACAD_REACTORS
330
1A
102
}
330
1A
100
AcDbPlotSettings
  1

  2
none_device
  4

  6

 40
0.0
 41
0.0
 42
0.0
 43
0.0
 44
0.0
 45
0.0
 46
0.0
 47
0.0
 48
0.0
 49
0.0
140
0.0
141
0.0
142
1.0
143
1.0
 70
   688
 72
     0
 73
     0
 74
     5
  7

 75
    16
147
1.0
148
0.0
149
0.0
100
AcDbLayout
  1
Layout1
 70
     1
 71
     1
 10
0.0
 20
0.0
 11
210.0
 21
297.0
 12
0.0
 22
0.0
 32
0.0
 14
0.0
 24
0.0
 34
0.0
 15
210.0
 25
297.0
 35
0.0
146
0.0
 13
0.0
 23
0.0
 33
0.0
 16
1.0
 26
0.0
 36
0.0
 17
0.0
 27
1.0
 37
0.0
 76
     0
330
1B
  0
LAYOUT
  5
22
102
{ACAD_REACTORS
330
1A
102
}
330
1A
100
AcDbPlotSettings
  1

  2
none_device
  4

  6

 40
0.0
 41
0.0
 42
0.0
 43
0.0
 44
0.0
 45
0.0
 46
0.0
 47
0.0
 48
0.0
 49
0.0
140
0.0
141
0.0
142
1.0
143
1.0
 70
  1712
 72
     0
 73
     0
 74
     0
  7

 75
     0
147
1.0
148
0.0
149
0.0
100
AcDbLayout
  1
Model
 70
     1
 71
     0
 10
0.0
 20
0.0
 11
210.0
 21
297.0
 12
0.0
 22
0.0
 32
0.0
 14
0.0
 24
0.0
 34
0.0
 15
210.0
 25
297.0
 35
0.0
146
0.0
 13
0.0
 23
0.0
 33
0.0
 16
1.0
 26
0.0
 36
0.0
 17
0.0
 27
1.0
 37
0.0
 76
     0
330
1F
331
29
  0
MATERIAL
  5
3D
102
{ACAD_REACTORS
330
3B
102
}
102
{ACAD_XDICTIONARY
360
1AE
102
}
330
3B
100
AcDbMaterial
  1
ByBlock
  0
MATERIAL
  5
3C
102
{ACAD_REACTORS
330
3B
102
}
102
{ACAD_XDICTIONARY
360
1AC
102
}
330
3B
100
AcDbMaterial
  1
ByLayer
  0
MATERIAL
  5
3E
102
{ACAD_REACTORS
330
3B
102
}
102
{ACAD_XDICTIONARY
360
1B0
102
}
330
3B
100
AcDbMaterial
  1
Global
  0
MLINESTYLE
  5
18
102
{ACAD_REACTORS
330
17
102
}
330
17
100
AcDbMlineStyle
  2
Standard
 70
     0
  3

 62
   256
 51
90.0
 52
90.0
 71
     2
 49
0.5
 62
   256
  6
BYLAYER
 49
-0.5
 62
   256
  6
BYLAYER
  0
ACDBPLACEHOLDER
  5
F
102
{ACAD_REACTORS
330
E
102
}
330
E
  0
VISUALSTYLE
  5
2F
102
{ACAD_REACTORS
330
2A
102
}
102
{ACAD_XDICTIONARY
360
194
102
}
330
2A
100
AcDbVisualStyle
  2
2dWireframe
 70
     4
 71
     0
 72
     2
 73
     0
 90
        0
 40
-0.6
 41
-30.0
 62
     5
 63
     7
 74
     1
 91
        4
 64
     7
 65
   257
 75
     1
175
     1
 42
1.0
 92
        0
 66
   257
 43
1.0
 76
     1
 77
     6
 78
     2
 67
     7
 79
     5
170
     0
171
     0
290
     0
174
     0
 93
        1
 44
0.0
173
     0
291
     0
 45
0.0
1001
ACAD
1000
AcDbSavedByObjectVersion
1070
     0
  0
VISUALSTYLE
  5
31
102
{ACAD_REACTORS
330
2A
102
}
102
{ACAD_XDICTIONARY
360
198
102
}
330
2A
100
AcDbVisualStyle
  2
3D Hidden
 70
     6
 71
     1
 72
     2
 73
     2
 90
        0
 40
-0.6
 41
-30.0
 62
     5
 63
     7
 74
     2
 91
        2
 64
     7
 65
   257
 75
     2
175
     1
 42
40.0
 92
        0
 66
   257
 43
1.0
 76
     1
 77
     6
 78
     2
 67
     7
 79
     3
170
     0
171
     0
290
     0
174
     0
 93
        1
 44
0.0
173
     0
291
     0
 45
0.0
1001
ACAD
1000
AcDbSavedByObjectVersion
1070
     0
  0
VISUALSTYLE
  5
30
102
{ACAD_REACTORS
330
2A
102
}
102
{ACAD_XDICTIONARY
360
196
102
}
330
2A
100
AcDbVisualStyle
  2
3dWireframe
 70
     5
 71
     0
 72
     2
 73
     0
 90
        0
 40
-0.6
 41
-30.0
 62
     5
 63
     7
 74
     1
 91
        4
 64
     7
 65
   257
 75
     1
175
     1
 42
1.0
 92
        0
 66
   257
 43
1.0
 76
     1
 77
     6
 78
     2
 67
     7
 79
     5
170
     0
171
     0
290
     0
174
     0
 93
        1
 44
0.0
173
     0
291
     0
 45
0.0
1001
ACAD
1000
AcDbSavedByObjectVersion
1070
     0
  0
VISUALSTYLE
  5
32
102
{ACAD_REACTORS
330
2A
102
}
102
{ACAD_XDICTIONARY
360
19A
102
}
330
2A
100
AcDbVisualStyle
  2
Basic
 70
     7
 71
     1
 72
     0
 73
     1
 90
        0
 40
-0.6
 41
-30.0
 62
     5
 63
     7
 74
     0
 91
        4
 64
     7
 65
   257
 75
     1
175
     1
 42
1.0
 92
        8
 66
     7
 43
1.0
 76
     1
 77
     6
 78
     2
 67
     7
 79
     5
170
     0
171
     0
290
     0
174
     0
 93
        1
 44
0.0
173
     0
291
     1
 45
0.0
1001
ACAD
1000
AcDbSavedByObjectVersion
1070
     0
  0
VISUALSTYLE
  5
36
102
{ACAD_REACTORS
330
2A
102
}
102
{ACAD_XDICTIONARY
360
1A2
102
}
330
2A
100
AcDbVisualStyle
  2
Brighten
 70
    12
 71
     2
 72
     2
 73
     0
 90
        0
 40
-0.6
 41
-30.0
 62
     5
 63
     7
 74
     1
 91
        4
 64
     7
 65
   257
 75
     1
175
     1
 42
1.0
 92
        8
 66
     7
 43
1.0
 76
     1
 77
     6
 78
     2
 67
     7
 79
     5
170
     0
171
     0
290
     0
174
     0
 93
        1
 44
50.0
173
     0
291
     1
 45
0.0
1001
ACAD
1000
AcDbSavedByObjectVersion
1070
     0
  0
VISUALSTYLE
  5
3A
102
{ACAD_REACTORS
330
2A
102
}
102
{ACAD_XDICTIONARY
360
1AA
102
}
330
2A
100
AcDbVisualStyle
  2
ColorChange
 70
    16
 71
     2
 72
     2
 73
     3
 90
        0
 40
-0.6
 41
-30.0
 62
     5
 63
     8
 74
     1
 91
        4
 64
     7
 65
   257
 75
     1
175
     1
 42
1.0
 92
        8
 66
     8
 43
1.0
 76
     1
 77
     6
 78
     2
 67
     7
 79
     5
170
     0
171
     0
290
     0
174
     0
 93
        1
 44
0.0
173
     0
291
     1
 45
0.0
1001
ACAD
1000
AcDbSavedByObjectVersion
1070
     0
  0
VISUALSTYLE
  5
34
102
{ACAD_REACTORS
330
2A
102
}
102
{ACAD_XDICTIONARY
360
19E
102
}
330
2A
100
AcDbVisualStyle
  2
Conceptual
 70
     9
 71
     3
 72
     2
 73
     0
 90
        0
 40
-0.6
 41
-30.0
 62
     5
 63
     7
 74
     2
 91
        2
 64
     7
 65
   257
 75
     1
175
     1
 42
40.0
 92
        8
 66
     7
 43
1.0
 76
     1
 77
     6
 78
     2
 67
     7
 79
     3
170
     0
171
     0
290
     0
174
     0
 93
        1
 44
0.0
173
     0
291
     0
 45
0.0
1001
ACAD
1000
AcDbSavedByObjectVersion
1070
     0
  0
VISUALSTYLE
  5
35
102
{ACAD_REACTORS
330
2A
102
}
102
{ACAD_XDICTIONARY
360
1A0
102
}
330
2A
100
AcDbVisualStyle
  2
Dim
 70
    11
 71
     2
 72
     2
 73
     0
 90
        0
 40
-0.6
 41
-30.0
 62
     5
 63
     7
 74
     1
 91
        4
 64
     7
 65
   257
 75
     1
175
     1
 42
1.0
 92
        8
 66
     7
 43
1.0
 76
     1
 77
     6
 78
     2
 67
     7
 79
     5
170
     0
171
     0
290
     0
174
     0
 93
        1
 44
-50.0
173
     0
291
     1
 45
0.0
1001
ACAD
1000
AcDbSavedByObjectVersion
1070
     0
  0
VISUALSTYLE
  5
39
102
{ACAD_REACTORS
330
2A
102
}
102
{ACAD_XDICTIONARY
360
1A8
102
}
330
2A
100
AcDbVisualStyle
  2
Facepattern
 70
    15
 71
     2
 72
     2
 73
     0
 90
        0
 40
-0.6
 41
-30.0
 62
     5
 63
     7
 74
     1
 91
        4
 64
     7
 65
   257
 75
     1
175
     1
 42
1.0
 92
        8
 66
     7
 43
1.0
 76
     1
 77
     6
 78
     2
 67
     7
 79
     5
170
     0
171
     0
290
     0
174
     0
 93
        1
 44
0.0
173
     0
291
     1
 45
0.0
1001
ACAD
1000
AcDbSavedByObjectVersion
1070
     0
  0
VISUALSTYLE
  5
2B
102
{ACAD_REACTORS
330
2A
102
}
102
{ACAD_XDICTIONARY
360
18C
102
}
330
2A
100
AcDbVisualStyle
  2
Flat
 70
     0
 71
     2
 72
     1
 73
     1
 90
        2
 40
-0.6
 41
30.0
 62
     5
 63
     7
 74
     0
 91
        4
 64
     7
 65
   257
 75
     1
175
     1
 42
1.0
 92
        8
 66
     7
 43
1.0
 76
     1
 77
     6
 78
     2
 67
     7
 79
     5
170
     0
171
     0
290
     0
174
     0
 93
       13
 44
0.0
173
     0
291
     1
 45
0.0
1001
ACAD
1000
AcDbSavedByObjectVersion
1070
     0
  0
VISUALSTYLE
  5
2C
102
{ACAD_REACTORS
330
2A
102
}
102
{ACAD_XDICTIONARY
360
18E
102
}
330
2A
100
AcDbVisualStyle
  2
FlatWithEdges
 70
     1
 71
     2
 72
     1
 73
     1
 90
        2
 40
-0.6
 41
30.0
 62
     5
 63
     7
 74
     1
 91
        4
 64
     7
 65
   257
 75
     1
175
     1
 42
1.0
 92
        0
 66
   257
 43
1.0
 76
     1
 77
     6
 78
     2
 67
     7
 79
     5
170
     0
171
     0
290
     0
174
     0
 93
       13
 44
0.0
173
     0
291
     1
 45
0.0
1001
ACAD
1000
AcDbSavedByObjectVersion
1070
     0
  0
VISUALSTYLE
  5
2D
102
{ACAD_REACTORS
330
2A
102
}
102
{ACAD_XDICTIONARY
360
190
102
}
330
2A
100
AcDbVisualStyle
  2
Gouraud
 70
     2
 71
     2
 72
     2
 73
     1
 90
        2
 40
-0.6
 41
30.0
 62
     5
 63
     7
 74
     0
 91
        4
 64
     7
 65
   257
 75
     1
175
     1
 42
1.0
 92
        0
 66
     7
 43
1.0
 76
     1
 77
     6
 78
     2
 67
     7
 79
     5
170
     0
171
     0
290
     0
174
     0
 93
       13
 44
0.0
173
     0
291
     1
 45
0.0
1001
ACAD
1000
AcDbSavedByObjectVersion
1070
     0
  0
VISUALSTYLE
  5
2E
102
{ACAD_REACTORS
330
2A
102
}
102
{ACAD_XDICTIONARY
360
192
102
}
330
2A
100
AcDbVisualStyle
  2
GouraudWithEdges
 70
     3
 71
     2
 72
     2
 73
     1
 90
        2
 40
-0.6
 41
30.0
 62
     5
 63
     7
 74
     1
 91
        4
 64
     7
 65
   257
 75
     1
175
     1
 42
1.0
 92
        0
 66
   257
 43
1.0
 76
     1
 77
     6
 78
     2
 67
     7
 79
     5
170
     0
171
     0
290
     0
174
     0
 93
       13
 44
0.0
173
     0
291
     1
 45
0.0
1001
ACAD
1000
AcDbSavedByObjectVersion
1070
     0
  0
VISUALSTYLE
  5
38
102
{ACAD_REACTORS
330
2A
102
}
102
{ACAD_XDICTIONARY
360
1A6
102
}
330
2A
100
AcDbVisualStyle
  2
Linepattern
 70
    14
 71
     2
 72
     2
 73
     0
 90
        0
 40
-0.6
 41
-30.0
 62
     5
 63
     7
 74
     1
 91
        4
 64
     7
 65
   257
 75
     7
175
     7
 42
1.0
 92
        8
 66
     7
 43
1.0
 76
     1
 77
     6
 78
     2
 67
     7
 79
     5
170
     0
171
     0
290
     0
174
     0
 93
        1
 44
0.0
173
     0
291
     1
 45
0.0
1001
ACAD
1000
AcDbSavedByObjectVersion
1070
     0
  0
VISUALSTYLE
  5
33
102
{ACAD_REACTORS
330
2A
102
}
102
{ACAD_XDICTIONARY
360
19C
102
}
330
2A
100
AcDbVisualStyle
  2
Realistic
 70
     8
 71
     2
 72
     2
 73
     0
 90
        0
 40
-0.6
 41
-30.0
 62
     5
 63
     7
 74
     1
 91
        0
 64
     7
 65
   257
 75
     1
175
     1
 42
1.0
 92
        8
 66
     8
 43
1.0
 76
     1
 77
     6
 78
     2
 67
     7
 79
     5
170
     0
171
     0
290
     0
174
     0
 93
       13
 44
0.0
173
     0
291
     0
 45
0.0
1001
ACAD
1000
AcDbSavedByObjectVersion
1070
     0
  0
VISUALSTYLE
  5
37
102
{ACAD_REACTORS
330
2A
102
}
102
{ACAD_XDICTIONARY
360
1A4
102
}
330
2A
100
AcDbVisualStyle
  2
Thicken
 70
    13
 71
     2
 72
     2
 73
     0
 90
        0
 40
-0.6
 41
-30.0
 62
     5
 63
     7
 74
     1
 91
        4
 64
     7
 65
   257
 75
     1
175
     1
 42
1.0
 92
       12
 66
     7
 43
1.0
 76
     1
 77
     6
 78
     2
 67
     7
 79
     5
170
     0
171
     0
290
     0
174
     0
 93
        1
 44
0.0
173
     0
291
     1
 45
0.0
1001
ACAD
1000
AcDbSavedByObjectVersion
1070
     0
  0
DICTIONARYVAR
  5
18A
102
{ACAD_REACTORS
330
185
102
}
330
185
100
DictionaryVariables
280
     0
  1
2
  0
DICTIONARYVAR
  5
18B
102
{ACAD_REACTORS
330
185
102
}
330
185
100
DictionaryVariables
280
     0
  1
1
  0
DICTIONARYVAR
  5
189
102
{ACAD_REACTORS
330
185
102
}
330
185
100
DictionaryVariables
280
     0
  1
80.000000
  0
DICTIONARYVAR
  5
188
102
{ACAD_REACTORS
330
185
102
}
330
185
100
DictionaryVariables
280
     0
  1
5.000000
  0
DICTIONARY
  5
1AE
330
3D
100
AcDbDictionary
280
     1
281
     1
  3
ACAD_XREC_ROUNDTRIP
360
1AF
  0
DICTIONARY
  5
1AC
330
3C
100
AcDbDictionary
280
     1
281
     1
  3
ACAD_XREC_ROUNDTRIP
360
1AD
  0
DICTIONARY
  5
1B0
330
3E
100
AcDbDictionary
280
     1
281
     1
  3
ACAD_XREC_ROUNDTRIP
360
1B1
  0
DICTIONARY
  5
194
330
2F
100
AcDbDictionary
280
     1
281
     1
  3
ACAD_XREC_ROUNDTRIP
360
195
  0
DICTIONARY
  5
198
330
31
100
AcDbDictionary
280
     1
281
     1
  3
ACAD_XREC_ROUNDTRIP
360
199
  0
DICTIONARY
  5
196
330
30
100
AcDbDictionary
280
     1
281
     1
  3
ACAD_XREC_ROUNDTRIP
360
197
  0
DICTIONARY
  5
19A
330
32
100
AcDbDictionary
280
     1
281
     1
  3
ACAD_XREC_ROUNDTRIP
360
19B
  0
DICTIONARY
  5
1A2
330
36
100
AcDbDictionary
280
     1
281
     1
  3
ACAD_XREC_ROUNDTRIP
360
1A3
  0
DICTIONARY
  5
1AA
330
3A
100
AcDbDictionary
280
     1
281
     1
  3
ACAD_XREC_ROUNDTRIP
360
1AB
  0
DICTIONARY
  5
19E
330
34
100
AcDbDictionary
280
     1
281
     1
  3
ACAD_XREC_ROUNDTRIP
360
19F
  0
DICTIONARY
  5
1A0
330
35
100
AcDbDictionary
280
     1
281
     1
  3
ACAD_XREC_ROUNDTRIP
360
1A1
  0
DICTIONARY
  5
1A8
330
39
100
AcDbDictionary
280
     1
281
     1
  3
ACAD_XREC_ROUNDTRIP
360
1A9
  0
DICTIONARY
  5
18C
330
2B
100
AcDbDictionary
280
     1
281
     1
  3
ACAD_XREC_ROUNDTRIP
360
18D
  0
DICTIONARY
  5
18E
330
2C
100
AcDbDictionary
280
     1
281
     1
  3
ACAD_XREC_ROUNDTRIP
360
18F
  0
DICTIONARY
  5
190
330
2D
100
AcDbDictionary
280
     1
281
     1
  3
ACAD_XREC_ROUNDTRIP
360
191
  0
DICTIONARY
  5
192
330
2E
100
AcDbDictionary
280
     1
281
     1
  3
ACAD_XREC_ROUNDTRIP
360
193
  0
DICTIONARY
  5
1A6
330
38
100
AcDbDictionary
280
     1
281
     1
  3
ACAD_XREC_ROUNDTRIP
360
1A7
  0
DICTIONARY
  5
19C
330
33
100
AcDbDictionary
280
     1
281
     1
  3
ACAD_XREC_ROUNDTRIP
360
19D
  0
DICTIONARY
  5
1A4
330
37
100
AcDbDictionary
280
     1
281
     1
  3
ACAD_XREC_ROUNDTRIP
360
1A5
  0
XRECORD
  5
1AF
102
{ACAD_REACTORS
330
1AE
102
}
330
1AE
100
AcDbXrecord
280
     1
102
MATERIAL
148
0.0
149
0.0
149
0.0
 93
        0
 94
      127
282
     0
 72
     1
 77
     1
171
     1
175
     1
179
     1
273
     0
  0
XRECORD
  5
1AD
102
{ACAD_REACTORS
330
1AC
102
}
330
1AC
100
AcDbXrecord
280
     1
102
MATERIAL
148
0.0
149
0.0
149
0.0
 93
        0
 94
      127
282
     0
 72
     1
 77
     1
171
     1
175
     1
179
     1
273
     0
  0
XRECORD
  5
1B1
102
{ACAD_REACTORS
330
1B0
102
}
330
1B0
100
AcDbXrecord
280
     1
102
MATERIAL
148
0.0
149
0.0
149
0.0
 93
        0
 94
      127
282
     0
 72
     1
 77
     1
171
     1
175
     1
179
     1
273
     0
  0
XRECORD
  5
195
102
{ACAD_REACTORS
330
194
102
}
330
194
100
AcDbXrecord
280
     1
102
RTVSPropertyOp0
 70
     1
102
RTVSPropertyOp1
 70
     1
102
RTVSPropertyOp2
 70
     1
102
RTVSPropertyOp3
 70
     1
102
RTVSPropertyOp4
 70
     1
102
RTVSPropertyOp5
 70
     1
102
RTVSPropertyOp6
 70
     1
102
RTVSPropertyOp7
 70
     1
102
RTVSPropertyOp8
 70
     1
102
RTVSPropertyOp9
 70
     1
102
RTVSPropertyOp10
 70
     1
102
RTVSPropertyOp11
 70
     1
102
RTVSPropertyOp12
 70
     1
102
RTVSPropertyOp13
 70
     1
102
RTVSPropertyOp14
 70
     1
102
RTVSPropertyOp15
 70
     1
102
RTVSPropertyOp16
 70
     1
102
RTVSPropertyOp17
 70
     1
102
RTVSPropertyOp18
 70
     1
102
RTVSPropertyOp19
 70
     1
102
RTVSPropertyOp20
 70
     1
102
RTVSPropertyOp21
 70
     1
102
RTVSPropertyOp22
 70
     1
102
RTVSPropertyOp23
 70
     1
102
RTVSPropertyOp24
 70
     1
102
RTVSPropertyOp25
 70
     1
102
RTVSPropertyOp26
 70
     1
102
RTVSPropertyOp27
 70
     1
102
RTVSPropertyOp28
 70
     1
102
RTVSPropertyOp29
 70
     1
102
RTVSPropertyOp30
 70
     1
102
RTVSPropertyOp31
 70
     1
102
RTVSPropertyOp32
 70
     1
  0
XRECORD
  5
199
102
{ACAD_REACTORS
330
198
102
}
330
198
100
AcDbXrecord
280
     1
102
RTVSPropertyOp0
 70
     1
102
RTVSPropertyOp1
 70
     1
102
RTVSPropertyOp2
 70
     1
102
RTVSPropertyOp3
 70
     1
102
RTVSPropertyOp4
 70
     1
102
RTVSPropertyOp5
 70
     1
102
RTVSPropertyOp6
 70
     1
102
RTVSPropertyOp7
 70
     1
102
RTVSPropertyOp8
 70
     1
102
RTVSPropertyOp9
 70
     1
102
RTVSPropertyOp10
 70
     1
102
RTVSPropertyOp11
 70
     1
102
RTVSPropertyOp12
 70
     1
102
RTVSPropertyOp13
 70
     1
102
RTVSPropertyOp14
 70
     1
102
RTVSPropertyOp15
 70
     1
102
RTVSPropertyOp16
 70
     1
102
RTVSPropertyOp17
 70
     1
102
RTVSPropertyOp18
 70
     1
102
RTVSPropertyOp19
 70
     1
102
RTVSPropertyOp20
 70
     1
102
RTVSPropertyOp21
 70
     1
102
RTVSPropertyOp22
 70
     1
102
RTVSPropertyOp23
 70
     1
102
RTVSPropertyOp24
 70
     1
102
RTVSPropertyOp25
 70
     1
102
RTVSPropertyOp26
 70
     1
102
RTVSPropertyOp27
 70
     1
102
RTVSPropertyOp28
 70
     1
102
RTVSPropertyOp29
 70
     1
102
RTVSPropertyOp30
 70
     1
102
RTVSPropertyOp31
 70
     1
102
RTVSPropertyOp32
 70
     1
  0
XRECORD
  5
197
102
{ACAD_REACTORS
330
196
102
}
330
196
100
AcDbXrecord
280
     1
102
RTVSPropertyOp0
 70
     1
102
RTVSPropertyOp1
 70
     1
102
RTVSPropertyOp2
 70
     1
102
RTVSPropertyOp3
 70
     1
102
RTVSPropertyOp4
 70
     1
102
RTVSPropertyOp5
 70
     1
102
RTVSPropertyOp6
 70
     1
102
RTVSPropertyOp7
 70
     1
102
RTVSPropertyOp8
 70
     1
102
RTVSPropertyOp9
 70
     1
102
RTVSPropertyOp10
 70
     1
102
RTVSPropertyOp11
 70
     1
102
RTVSPropertyOp12
 70
     1
102
RTVSPropertyOp13
 70
     1
102
RTVSPropertyOp14
 70
     1
102
RTVSPropertyOp15
 70
     1
102
RTVSPropertyOp16
 70
     1
102
RTVSPropertyOp17
 70
     1
102
RTVSPropertyOp18
 70
     1
102
RTVSPropertyOp19
 70
     1
102
RTVSPropertyOp20
 70
     1
102
RTVSPropertyOp21
 70
     1
102
RTVSPropertyOp22
 70
     1
102
RTVSPropertyOp23
 70
     1
102
RTVSPropertyOp24
 70
     1
102
RTVSPropertyOp25
 70
     1
102
RTVSPropertyOp26
 70
     1
102
RTVSPropertyOp27
 70
     1
102
RTVSPropertyOp28
 70
     1
102
RTVSPropertyOp29
 70
     1
102
RTVSPropertyOp30
 70
     1
102
RTVSPropertyOp31
 70
     1
102
RTVSPropertyOp32
 70
     1
  0
XRECORD
  5
19B
102
{ACAD_REACTORS
330
19A
102
}
330
19A
100
AcDbXrecord
280
     1
102
RTVSPropertyOp0
 70
     1
102
RTVSPropertyOp1
 70
     1
102
RTVSPropertyOp2
 70
     1
102
RTVSPropertyOp3
 70
     1
102
RTVSPropertyOp4
 70
     1
102
RTVSPropertyOp5
 70
     1
102
RTVSPropertyOp6
 70
     1
102
RTVSPropertyOp7
 70
     1
102
RTVSPropertyOp8
 70
     1
102
RTVSPropertyOp9
 70
     1
102
RTVSPropertyOp10
 70
     1
102
RTVSPropertyOp11
 70
     1
102
RTVSPropertyOp12
 70
     1
102
RTVSPropertyOp13
 70
     1
102
RTVSPropertyOp14
 70
     1
102
RTVSPropertyOp15
 70
     1
102
RTVSPropertyOp16
 70
     1
102
RTVSPropertyOp17
 70
     1
102
RTVSPropertyOp18
 70
     1
102
RTVSPropertyOp19
 70
     1
102
RTVSPropertyOp20
 70
     1
102
RTVSPropertyOp21
 70
     1
102
RTVSPropertyOp22
 70
     1
102
RTVSPropertyOp23
 70
     1
102
RTVSPropertyOp24
 70
     1
102
RTVSPropertyOp25
 70
     1
102
RTVSPropertyOp26
 70
     1
102
RTVSPropertyOp27
 70
     1
102
RTVSPropertyOp28
 70
     1
102
RTVSPropertyOp29
 70
     1
102
RTVSPropertyOp30
 70
     1
102
RTVSPropertyOp31
 70
     1
102
RTVSPropertyOp32
 70
     1
  0
XRECORD
  5
1A3
102
{ACAD_REACTORS
330
1A2
102
}
330
1A2
100
AcDbXrecord
280
     1
102
RTVSPropertyOp0
 70
     1
102
RTVSPropertyOp1
 70
     1
102
RTVSPropertyOp2
 70
     1
102
RTVSPropertyOp3
 70
     1
102
RTVSPropertyOp4
 70
     1
102
RTVSPropertyOp5
 70
     1
102
RTVSPropertyOp6
 70
     1
102
RTVSPropertyOp7
 70
     1
102
RTVSPropertyOp8
 70
     1
102
RTVSPropertyOp9
 70
     1
102
RTVSPropertyOp10
 70
     1
102
RTVSPropertyOp11
 70
     1
102
RTVSPropertyOp12
 70
     1
102
RTVSPropertyOp13
 70
     1
102
RTVSPropertyOp14
 70
     1
102
RTVSPropertyOp15
 70
     1
102
RTVSPropertyOp16
 70
     1
102
RTVSPropertyOp17
 70
     1
102
RTVSPropertyOp18
 70
     1
102
RTVSPropertyOp19
 70
     1
102
RTVSPropertyOp20
 70
     1
102
RTVSPropertyOp21
 70
     1
102
RTVSPropertyOp22
 70
     1
102
RTVSPropertyOp23
 70
     1
102
RTVSPropertyOp24
 70
     1
102
RTVSPropertyOp25
 70
     1
102
RTVSPropertyOp26
 70
     1
102
RTVSPropertyOp27
 70
     1
102
RTVSPropertyOp28
 70
     1
102
RTVSPropertyOp29
 70
     1
102
RTVSPropertyOp30
 70
     1
102
RTVSPropertyOp31
 70
     1
102
RTVSPropertyOp32
 70
     1
  0
XRECORD
  5
1AB
102
{ACAD_REACTORS
330
1AA
102
}
330
1AA
100
AcDbXrecord
280
     1
102
RTVSPropertyOp0
 70
     1
102
RTVSPropertyOp1
 70
     1
102
RTVSPropertyOp2
 70
     1
102
RTVSPropertyOp3
 70
     1
102
RTVSPropertyOp4
 70
     1
102
RTVSPropertyOp5
 70
     1
102
RTVSPropertyOp6
 70
     1
102
RTVSPropertyOp7
 70
     1
102
RTVSPropertyOp8
 70
     1
102
RTVSPropertyOp9
 70
     1
102
RTVSPropertyOp10
 70
     1
102
RTVSPropertyOp11
 70
     1
102
RTVSPropertyOp12
 70
     1
102
RTVSPropertyOp13
 70
     1
102
RTVSPropertyOp14
 70
     1
102
RTVSPropertyOp15
 70
     1
102
RTVSPropertyOp16
 70
     1
102
RTVSPropertyOp17
 70
     1
102
RTVSPropertyOp18
 70
     1
102
RTVSPropertyOp19
 70
     1
102
RTVSPropertyOp20
 70
     1
102
RTVSPropertyOp21
 70
     1
102
RTVSPropertyOp22
 70
     1
102
RTVSPropertyOp23
 70
     1
102
RTVSPropertyOp24
 70
     1
102
RTVSPropertyOp25
 70
     1
102
RTVSPropertyOp26
 70
     1
102
RTVSPropertyOp27
 70
     1
102
RTVSPropertyOp28
 70
     1
102
RTVSPropertyOp29
 70
     1
102
RTVSPropertyOp30
 70
     1
102
RTVSPropertyOp31
 70
     1
102
RTVSPropertyOp32
 70
     1
  0
XRECORD
  5
19F
102
{ACAD_REACTORS
330
19E
102
}
330
19E
100
AcDbXrecord
280
     1
102
RTVSPropertyOp0
 70
     1
102
RTVSPropertyOp1
 70
     1
102
RTVSPropertyOp2
 70
     1
102
RTVSPropertyOp3
 70
     1
102
RTVSPropertyOp4
 70
     1
102
RTVSPropertyOp5
 70
     1
102
RTVSPropertyOp6
 70
     1
102
RTVSPropertyOp7
 70
     1
102
RTVSPropertyOp8
 70
     1
102
RTVSPropertyOp9
 70
     1
102
RTVSPropertyOp10
 70
     1
102
RTVSPropertyOp11
 70
     1
102
RTVSPropertyOp12
 70
     1
102
RTVSPropertyOp13
 70
     1
102
RTVSPropertyOp14
 70
     1
102
RTVSPropertyOp15
 70
     1
102
RTVSPropertyOp16
 70
     1
102
RTVSPropertyOp17
 70
     1
102
RTVSPropertyOp18
 70
     1
102
RTVSPropertyOp19
 70
     1
102
RTVSPropertyOp20
 70
     1
102
RTVSPropertyOp21
 70
     1
102
RTVSPropertyOp22
 70
     1
102
RTVSPropertyOp23
 70
     1
102
RTVSPropertyOp24
 70
     1
102
RTVSPropertyOp25
 70
     1
102
RTVSPropertyOp26
 70
     1
102
RTVSPropertyOp27
 70
     1
102
RTVSPropertyOp28
 70
     1
102
RTVSPropertyOp29
 70
     1
102
RTVSPropertyOp30
 70
     1
102
RTVSPropertyOp31
 70
     1
102
RTVSPropertyOp32
 70
     1
  0
XRECORD
  5
1A1
102
{ACAD_REACTORS
330
1A0
102
}
330
1A0
100
AcDbXrecord
280
     1
102
RTVSPropertyOp0
 70
     1
102
RTVSPropertyOp1
 70
     1
102
RTVSPropertyOp2
 70
     1
102
RTVSPropertyOp3
 70
     1
102
RTVSPropertyOp4
 70
     1
102
RTVSPropertyOp5
 70
     1
102
RTVSPropertyOp6
 70
     1
102
RTVSPropertyOp7
 70
     1
102
RTVSPropertyOp8
 70
     1
102
RTVSPropertyOp9
 70
     1
102
RTVSPropertyOp10
 70
     1
102
RTVSPropertyOp11
 70
     1
102
RTVSPropertyOp12
 70
     1
102
RTVSPropertyOp13
 70
     1
102
RTVSPropertyOp14
 70
     1
102
RTVSPropertyOp15
 70
     1
102
RTVSPropertyOp16
 70
     1
102
RTVSPropertyOp17
 70
     1
102
RTVSPropertyOp18
 70
     1
102
RTVSPropertyOp19
 70
     1
102
RTVSPropertyOp20
 70
     1
102
RTVSPropertyOp21
 70
     1
102
RTVSPropertyOp22
 70
     1
102
RTVSPropertyOp23
 70
     1
102
RTVSPropertyOp24
 70
     1
102
RTVSPropertyOp25
 70
     1
102
RTVSPropertyOp26
 70
     1
102
RTVSPropertyOp27
 70
     1
102
RTVSPropertyOp28
 70
     1
102
RTVSPropertyOp29
 70
     1
102
RTVSPropertyOp30
 70
     1
102
RTVSPropertyOp31
 70
     1
102
RTVSPropertyOp32
 70
     1
  0
XRECORD
  5
1A9
102
{ACAD_REACTORS
330
1A8
102
}
330
1A8
100
AcDbXrecord
280
     1
102
RTVSPropertyOp0
 70
     1
102
RTVSPropertyOp1
 70
     1
102
RTVSPropertyOp2
 70
     1
102
RTVSPropertyOp3
 70
     1
102
RTVSPropertyOp4
 70
     1
102
RTVSPropertyOp5
 70
     1
102
RTVSPropertyOp6
 70
     1
102
RTVSPropertyOp7
 70
     1
102
RTVSPropertyOp8
 70
     1
102
RTVSPropertyOp9
 70
     1
102
RTVSPropertyOp10
 70
     1
102
RTVSPropertyOp11
 70
     1
102
RTVSPropertyOp12
 70
     1
102
RTVSPropertyOp13
 70
     1
102
RTVSPropertyOp14
 70
     1
102
RTVSPropertyOp15
 70
     1
102
RTVSPropertyOp16
 70
     1
102
RTVSPropertyOp17
 70
     1
102
RTVSPropertyOp18
 70
     1
102
RTVSPropertyOp19
 70
     1
102
RTVSPropertyOp20
 70
     1
102
RTVSPropertyOp21
 70
     1
102
RTVSPropertyOp22
 70
     1
102
RTVSPropertyOp23
 70
     1
102
RTVSPropertyOp24
 70
     1
102
RTVSPropertyOp25
 70
     1
102
RTVSPropertyOp26
 70
     1
102
RTVSPropertyOp27
 70
     1
102
RTVSPropertyOp28
 70
     1
102
RTVSPropertyOp29
 70
     1
102
RTVSPropertyOp30
 70
     1
102
RTVSPropertyOp31
 70
     1
102
RTVSPropertyOp32
 70
     1
  0
XRECORD
  5
18D
102
{ACAD_REACTORS
330
18C
102
}
330
18C
100
AcDbXrecord
280
     1
102
RTVSPropertyOp0
 70
     1
102
RTVSPropertyOp1
 70
     1
102
RTVSPropertyOp2
 70
     1
102
RTVSPropertyOp3
 70
     1
102
RTVSPropertyOp4
 70
     1
102
RTVSPropertyOp5
 70
     1
102
RTVSPropertyOp6
 70
     1
102
RTVSPropertyOp7
 70
     1
102
RTVSPropertyOp8
 70
     1
102
RTVSPropertyOp9
 70
     1
102
RTVSPropertyOp10
 70
     1
102
RTVSPropertyOp11
 70
     1
102
RTVSPropertyOp12
 70
     1
102
RTVSPropertyOp13
 70
     1
102
RTVSPropertyOp14
 70
     1
102
RTVSPropertyOp15
 70
     1
102
RTVSPropertyOp16
 70
     1
102
RTVSPropertyOp17
 70
     1
102
RTVSPropertyOp18
 70
     1
102
RTVSPropertyOp19
 70
     1
102
RTVSPropertyOp20
 70
     1
102
RTVSPropertyOp21
 70
     1
102
RTVSPropertyOp22
 70
     1
102
RTVSPropertyOp23
 70
     1
102
RTVSPropertyOp24
 70
     1
102
RTVSPropertyOp25
 70
     1
102
RTVSPropertyOp26
 70
     1
102
RTVSPropertyOp27
 70
     1
102
RTVSPropertyOp28
 70
     1
102
RTVSPropertyOp29
 70
     1
102
RTVSPropertyOp30
 70
     1
102
RTVSPropertyOp31
 70
     1
102
RTVSPropertyOp32
 70
     1
  0
XRECORD
  5
18F
102
{ACAD_REACTORS
330
18E
102
}
330
18E
100
AcDbXrecord
280
     1
102
RTVSPropertyOp0
 70
     1
102
RTVSPropertyOp1
 70
     1
102
RTVSPropertyOp2
 70
     1
102
RTVSPropertyOp3
 70
     1
102
RTVSPropertyOp4
 70
     1
102
RTVSPropertyOp5
 70
     1
102
RTVSPropertyOp6
 70
     1
102
RTVSPropertyOp7
 70
     1
102
RTVSPropertyOp8
 70
     1
102
RTVSPropertyOp9
 70
     1
102
RTVSPropertyOp10
 70
     1
102
RTVSPropertyOp11
 70
     1
102
RTVSPropertyOp12
 70
     1
102
RTVSPropertyOp13
 70
     1
102
RTVSPropertyOp14
 70
     1
102
RTVSPropertyOp15
 70
     1
102
RTVSPropertyOp16
 70
     1
102
RTVSPropertyOp17
 70
     1
102
RTVSPropertyOp18
 70
     1
102
RTVSPropertyOp19
 70
     1
102
RTVSPropertyOp20
 70
     1
102
RTVSPropertyOp21
 70
     1
102
RTVSPropertyOp22
 70
     1
102
RTVSPropertyOp23
 70
     1
102
RTVSPropertyOp24
 70
     1
102
RTVSPropertyOp25
 70
     1
102
RTVSPropertyOp26
 70
     1
102
RTVSPropertyOp27
 70
     1
102
RTVSPropertyOp28
 70
     1
102
RTVSPropertyOp29
 70
     1
102
RTVSPropertyOp30
 70
     1
102
RTVSPropertyOp31
 70
     1
102
RTVSPropertyOp32
 70
     1
  0
XRECORD
  5
191
102
{ACAD_REACTORS
330
190
102
}
330
190
100
AcDbXrecord
280
     1
102
RTVSPropertyOp0
 70
     1
102
RTVSPropertyOp1
 70
     1
102
RTVSPropertyOp2
 70
     1
102
RTVSPropertyOp3
 70
     1
102
RTVSPropertyOp4
 70
     1
102
RTVSPropertyOp5
 70
     1
102
RTVSPropertyOp6
 70
     1
102
RTVSPropertyOp7
 70
     1
102
RTVSPropertyOp8
 70
     1
102
RTVSPropertyOp9
 70
     1
102
RTVSPropertyOp10
 70
     1
102
RTVSPropertyOp11
 70
     1
102
RTVSPropertyOp12
 70
     1
102
RTVSPropertyOp13
 70
     1
102
RTVSPropertyOp14
 70
     1
102
RTVSPropertyOp15
 70
     1
102
RTVSPropertyOp16
 70
     1
102
RTVSPropertyOp17
 70
     1
102
RTVSPropertyOp18
 70
     1
102
RTVSPropertyOp19
 70
     1
102
RTVSPropertyOp20
 70
     1
102
RTVSPropertyOp21
 70
     1
102
RTVSPropertyOp22
 70
     1
102
RTVSPropertyOp23
 70
     1
102
RTVSPropertyOp24
 70
     1
102
RTVSPropertyOp25
 70
     1
102
RTVSPropertyOp26
 70
     1
102
RTVSPropertyOp27
 70
     1
102
RTVSPropertyOp28
 70
     1
102
RTVSPropertyOp29
 70
     1
102
RTVSPropertyOp30
 70
     1
102
RTVSPropertyOp31
 70
     1
102
RTVSPropertyOp32
 70
     1
  0
XRECORD
  5
193
102
{ACAD_REACTORS
330
192
102
}
330
192
100
AcDbXrecord
280
     1
102
RTVSPropertyOp0
 70
     1
102
RTVSPropertyOp1
 70
     1
102
RTVSPropertyOp2
 70
     1
102
RTVSPropertyOp3
 70
     1
102
RTVSPropertyOp4
 70
     1
102
RTVSPropertyOp5
 70
     1
102
RTVSPropertyOp6
 70
     1
102
RTVSPropertyOp7
 70
     1
102
RTVSPropertyOp8
 70
     1
102
RTVSPropertyOp9
 70
     1
102
RTVSPropertyOp10
 70
     1
102
RTVSPropertyOp11
 70
     1
102
RTVSPropertyOp12
 70
     1
102
RTVSPropertyOp13
 70
     1
102
RTVSPropertyOp14
 70
     1
102
RTVSPropertyOp15
 70
     1
102
RTVSPropertyOp16
 70
     1
102
RTVSPropertyOp17
 70
     1
102
RTVSPropertyOp18
 70
     1
102
RTVSPropertyOp19
 70
     1
102
RTVSPropertyOp20
 70
     1
102
RTVSPropertyOp21
 70
     1
102
RTVSPropertyOp22
 70
     1
102
RTVSPropertyOp23
 70
     1
102
RTVSPropertyOp24
 70
     1
102
RTVSPropertyOp25
 70
     1
102
RTVSPropertyOp26
 70
     1
102
RTVSPropertyOp27
 70
     1
102
RTVSPropertyOp28
 70
     1
102
RTVSPropertyOp29
 70
     1
102
RTVSPropertyOp30
 70
     1
102
RTVSPropertyOp31
 70
     1
102
RTVSPropertyOp32
 70
     1
  0
XRECORD
  5
1A7
102
{ACAD_REACTORS
330
1A6
102
}
330
1A6
100
AcDbXrecord
280
     1
102
RTVSPropertyOp0
 70
     1
102
RTVSPropertyOp1
 70
     1
102
RTVSPropertyOp2
 70
     1
102
RTVSPropertyOp3
 70
     1
102
RTVSPropertyOp4
 70
     1
102
RTVSPropertyOp5
 70
     1
102
RTVSPropertyOp6
 70
     1
102
RTVSPropertyOp7
 70
     1
102
RTVSPropertyOp8
 70
     1
102
RTVSPropertyOp9
 70
     1
102
RTVSPropertyOp10
 70
     1
102
RTVSPropertyOp11
 70
     1
102
RTVSPropertyOp12
 70
     1
102
RTVSPropertyOp13
 70
     1
102
RTVSPropertyOp14
 70
     1
102
RTVSPropertyOp15
 70
     1
102
RTVSPropertyOp16
 70
     1
102
RTVSPropertyOp17
 70
     1
102
RTVSPropertyOp18
 70
     1
102
RTVSPropertyOp19
 70
     1
102
RTVSPropertyOp20
 70
     1
102
RTVSPropertyOp21
 70
     1
102
RTVSPropertyOp22
 70
     1
102
RTVSPropertyOp23
 70
     1
102
RTVSPropertyOp24
 70
     1
102
RTVSPropertyOp25
 70
     1
102
RTVSPropertyOp26
 70
     1
102
RTVSPropertyOp27
 70
     1
102
RTVSPropertyOp28
 70
     1
102
RTVSPropertyOp29
 70
     1
102
RTVSPropertyOp30
 70
     1
102
RTVSPropertyOp31
 70
     1
102
RTVSPropertyOp32
 70
     1
  0
XRECORD
  5
19D
102
{ACAD_REACTORS
330
19C
102
}
330
19C
100
AcDbXrecord
280
     1
102
RTVSPropertyOp0
 70
     1
102
RTVSPropertyOp1
 70
     1
102
RTVSPropertyOp2
 70
     1
102
RTVSPropertyOp3
 70
     1
102
RTVSPropertyOp4
 70
     1
102
RTVSPropertyOp5
 70
     1
102
RTVSPropertyOp6
 70
     1
102
RTVSPropertyOp7
 70
     1
102
RTVSPropertyOp8
 70
     1
102
RTVSPropertyOp9
 70
     1
102
RTVSPropertyOp10
 70
     1
102
RTVSPropertyOp11
 70
     1
102
RTVSPropertyOp12
 70
     1
102
RTVSPropertyOp13
 70
     1
102
RTVSPropertyOp14
 70
     1
102
RTVSPropertyOp15
 70
     1
102
RTVSPropertyOp16
 70
     1
102
RTVSPropertyOp17
 70
     1
102
RTVSPropertyOp18
 70
     1
102
RTVSPropertyOp19
 70
     1
102
RTVSPropertyOp20
 70
     1
102
RTVSPropertyOp21
 70
     1
102
RTVSPropertyOp22
 70
     1
102
RTVSPropertyOp23
 70
     1
102
RTVSPropertyOp24
 70
     1
102
RTVSPropertyOp25
 70
     1
102
RTVSPropertyOp26
 70
     1
102
RTVSPropertyOp27
 70
     1
102
RTVSPropertyOp28
 70
     1
102
RTVSPropertyOp29
 70
     1
102
RTVSPropertyOp30
 70
     1
102
RTVSPropertyOp31
 70
     1
102
RTVSPropertyOp32
 70
     1
  0
XRECORD
  5
1A5
102
{ACAD_REACTORS
330
1A4
102
}
330
1A4
100
AcDbXrecord
280
     1
102
RTVSPropertyOp0
 70
     1
102
RTVSPropertyOp1
 70
     1
102
RTVSPropertyOp2
 70
     1
102
RTVSPropertyOp3
 70
     1
102
RTVSPropertyOp4
 70
     1
102
RTVSPropertyOp5
 70
     1
102
RTVSPropertyOp6
 70
     1
102
RTVSPropertyOp7
 70
     1
102
RTVSPropertyOp8
 70
     1
102
RTVSPropertyOp9
 70
     1
102
RTVSPropertyOp10
 70
     1
102
RTVSPropertyOp11
 70
     1
102
RTVSPropertyOp12
 70
     1
102
RTVSPropertyOp13
 70
     1
102
RTVSPropertyOp14
 70
     1
102
RTVSPropertyOp15
 70
     1
102
RTVSPropertyOp16
 70
     1
102
RTVSPropertyOp17
 70
     1
102
RTVSPropertyOp18
 70
     1
102
RTVSPropertyOp19
 70
     1
102
RTVSPropertyOp20
 70
     1
102
RTVSPropertyOp21
 70
     1
102
RTVSPropertyOp22
 70
     1
102
RTVSPropertyOp23
 70
     1
102
RTVSPropertyOp24
 70
     1
102
RTVSPropertyOp25
 70
     1
102
RTVSPropertyOp26
 70
     1
102
RTVSPropertyOp27
 70
     1
102
RTVSPropertyOp28
 70
     1
102
RTVSPropertyOp29
 70
     1
102
RTVSPropertyOp30
 70
     1
102
RTVSPropertyOp31
 70
     1
102
RTVSPropertyOp32
 70
     1
  0
ENDSEC
  0
EOF
