  0
SECTION
  2
HEADER
  9
$ACADVER
  1
AC1015
  9
$ACADMAINTVER
 70
     6
  9
$DWGCODEPAGE
  3
ANSI_1252
  9
$INSBASE
 10
0.0
 20
0.0
 30
0.0
  9
$EXTMIN
 10
0.0
 20
0.0
 30
0.0
  9
$EXTMAX
 10
210.0
 20
297.0
 30
0.0
  9
$LIMMIN
 10
0.0
 20
0.0
  9
$LIMMAX
 10
210.0
 20
297.0
  9
$ORTHOMODE
 70
     0
  9
$REGENMODE
 70
     1
  9
$FILLMODE
 70
     1
  9
$QTEXTMODE
 70
     0
  9
$MIRRTEXT
 70
     1
  9
$LTSCALE
 40
1.0
  9
$ATTMODE
 70
     1
  9
$TEXTSIZE
 40
2.5
  9
$TRACEWID
 40
1.0
  9
$TEXTSTYLE
  7
Standard
  9
$CLAYER
  8
0
  9
$CELTYPE
  6
ByLayer
  9
$CECOLOR
 62
   256
  9
$CELTSCALE
 40
1.0
  9
$DISPSILH
 70
     0
  9
$DIMSCALE
 40
1.0
  9
$DIMASZ
 40
2.5
  9
$DIMEXO
 40
0.625
  9
$DIMDLI
 40
3.75
  9
$DIMRND
 40
0.0
  9
$DIMDLE
 40
0.0
  9
$DIMEXE
 40
1.25
  9
$DIMTP
 40
0.0
  9
$DIMTM
 40
0.0
  9
$DIMTXT
 40
2.5
  9
$DIMCEN
 40
2.5
  9
$DIMTSZ
 40
0.0
  9
$DIMTOL
 70
     0
  9
$DIMLIM
 70
     0
  9
$DIMTIH
 70
     0
  9
$DIMTOH
 70
     0
  9
$DIMSE1
 70
     0
  9
$DIMSE2
 70
     0
  9
$DIMTAD
 70
     1
  9
$DIMZIN
 70
     8
  9
$DIMBLK
  1

  9
$DIMASO
 70
     1
  9
$DIMSHO
 70
     1
  9
$DIMPOST
  1

  9
$DIMAPOST
  1

  9
$DIMALT
 70
     0
  9
$DIMALTD
 70
     3
  9
$DIMALTF
 40
0.0393700787
  9
$DIMLFAC
 40
1.0
  9
$DIMTOFL
 70
     1
  9
$DIMTVP
 40
0.0
  9
$DIMTIX
 70
     0
  9
$DIMSOXD
 70
     0
  9
$DIMSAH
 70
     0
  9
$DIMBLK1
  1

  9
$DIMBLK2
  1

  9
$DIMSTYLE
  2
ISO-25
  9
$DIMCLRD
 70
     0
  9
$DIMCLRE
 70
     0
  9
$DIMCLRT
 70
     0
  9
$DIMTFAC
 40
1.0
  9
$DIMGAP
 40
0.625
  9
$DIMJUST
 70
     0
  9
$DIMSD1
 70
     0
  9
$DIMSD2
 70
     0
  9
$DIMTOLJ
 70
     0
  9
$DIMTZIN
 70
     8
  9
$DIMALTZ
 70
     0
  9
$DIMALTTZ
 70
     0
  9
$DIMUPT
 70
     0
  9
$DIMDEC
 70
     2
  9
$DIMTDEC
 70
     2
  9
$DIMALTU
 70
     2
  9
$DIMALTTD
 70
     3
  9
$DIMTXSTY
  7
Standard
  9
$DIMAUNIT
 70
     0
  9
$DIMADEC
 70
     0
  9
$DIMALTRND
 40
0.0
  9
$DIMAZIN
 70
     0
  9
$DIMDSEP
 70
    44
  9
$DIMATFIT
 70
     3
  9
$DIMFRAC
 70
     0
  9
$DIMLDRBLK
  1

  9
$DIMLUNIT
 70
     2
  9
$DIMLWD
 70
    -2
  9
$DIMLWE
 70
    -2
  9
$DIMTMOVE
 70
     0
  9
$LUNITS
 70
     2
  9
$LUPREC
 70
     4
  9
$SKETCHINC
 40
1.0
  9
$FILLETRAD
 40
10.0
  9
$AUNITS
 70
     0
  9
$AUPREC
 70
     0
  9
$MENU
  1
.
  9
$ELEVATION
 40
0.0
  9
$PELEVATION
 40
0.0
  9
$THICKNESS
 40
0.0
  9
$LIMCHECK
 70
     0
  9
$CHAMFERA
 40
10.0
  9
$CHAMFERB
 40
10.0
  9
$CHAMFERC
 40
20.0
  9
$CHAMFERD
 40
0.0
  9
$SKPOLY
 70
     0
  9
$TDCREATE
 40
2457567.293449849
  9
$TDUCREATE
 40
2457567.210116516
  9
$TDUPDATE
 40
2457567.293452083
  9
$TDUUPDATE
 40
2457567.21011875
  9
$TDINDWG
 40
0.0000000116
  9
$TDUSRTIMER
 40
0.0000000116
  9
$USRTIMER
 70
     1
  9
$ANGBASE
 50
0.0
  9
$ANGDIR
 70
     0
  9
$PDMODE
 70
     0
  9
$PDSIZE
 40
0.0
  9
$PLINEWID
 40
0.0
  9
$SPLFRAME
 70
     0
  9
$SPLINETYPE
 70
     6
  9
$SPLINESEGS
 70
     8
  9
$HANDSEED
  5
1AD
  9
$SURFTAB1
 70
     6
  9
$SURFTAB2
 70
     6
  9
$SURFTYPE
 70
     6
  9
$SURFU
 70
     6
  9
$SURFV
 70
     6
  9
$UCSBASE
  2

  9
$UCSNAME
  2

  9
$UCSORG
 10
0.0
 20
0.0
 30
0.0
  9
$UCSXDIR
 10
1.0
 20
0.0
 30
0.0
  9
$UCSYDIR
 10
0.0
 20
1.0
 30
0.0
  9
$UCSORTHOREF
  2

  9
$UCSORTHOVIEW
 70
     0
  9
$UCSORGTOP
 10
0.0
 20
0.0
 30
0.0
  9
$UCSORGBOTTOM
 10
0.0
 20
0.0
 30
0.0
  9
$UCSORGLEFT
 10
0.0
 20
0.0
 30
0.0
  9
$UCSORGRIGHT
 10
0.0
 20
0.0
 30
0.0
  9
$UCSORGFRONT
 10
0.0
 20
0.0
 30
0.0
  9
$UCSORGBACK
 10
0.0
 20
0.0
 30
0.0
  9
$PUCSBASE
  2

  9
$PUCSNAME
  2

  9
$PUCSORG
 10
0.0
 20
0.0
 30
0.0
  9
$PUCSXDIR
 10
1.0
 20
0.0
 30
0.0
  9
$PUCSYDIR
 10
0.0
 20
1.0
 30
0.0
  9
$PUCSORTHOREF
  2

  9
$PUCSORTHOVIEW
 70
     0
  9
$PUCSORGTOP
 10
0.0
 20
0.0
 30
0.0
  9
$PUCSORGBOTTOM
 10
0.0
 20
0.0
 30
0.0
  9
$PUCSORGLEFT
 10
0.0
 20
0.0
 30
0.0
  9
$PUCSORGRIGHT
 10
0.0
 20
0.0
 30
0.0
  9
$PUCSORGFRONT
 10
0.0
 20
0.0
 30
0.0
  9
$PUCSORGBACK
 10
0.0
 20
0.0
 30
0.0
  9
$USERI1
 70
     0
  9
$USERI2
 70
     0
  9
$USERI3
 70
     0
  9
$USERI4
 70
     0
  9
$USERI5
 70
     0
  9
$USERR1
 40
0.0
  9
$USERR2
 40
0.0
  9
$USERR3
 40
0.0
  9
$USERR4
 40
0.0
  9
$USERR5
 40
0.0
  9
$WORLDVIEW
 70
     1
  9
$SHADEDGE
 70
     3
  9
$SHADEDIF
 70
    70
  9
$TILEMODE
 70
     1
  9
$MAXACTVP
 70
    64
  9
$PINSBASE
 10
0.0
 20
0.0
 30
0.0
  9
$PLIMCHECK
 70
     0
  9
$PEXTMIN
 10
0.0
 20
0.0
 30
0.0
  9
$PEXTMAX
 10
210.0
 20
297.0
 30
0.0
  9
$PLIMMIN
 10
0.0
 20
0.0
  9
$PLIMMAX
 10
210.0
 20
297.0
  9
$UNITMODE
 70
     0
  9
$VISRETAIN
 70
     1
  9
$PLINEGEN
 70
     0
  9
$PSLTSCALE
 70
     1
  9
$TREEDEPTH
 70
  3020
  9
$CMLSTYLE
  2
Standard
  9
$CMLJUST
 70
     0
  9
$CMLSCALE
 40
20.0
  9
$PROXYGRAPHICS
 70
     1
  9
$MEASUREMENT
 70
     1
  9
$CELWEIGHT
370
    -1
  9
$ENDCAPS
280
     0
  9
$JOINSTYLE
280
     0
  9
$LWDISPLAY
290
     0
  9
$INSUNITS
 70
     4
  9
$HYPERLINKBASE
  1

  9
$STYLESHEET
  1

  9
$XEDIT
290
     1
  9
$CEPSNTYPE
380
     0
  9
$PSTYLEMODE
290
     1
  9
$FINGERPRINTGUID
  2
{A040ADAB-6170-4044-ACDA-582989BCDA23}
  9
$VERSIONGUID
  2
{FAEB1C32-E019-11D5-929B-00C0DF256EC4}
  9
$EXTNAMES
290
     1
  9
$PSVPSCALE
 40
0.0
  9
$OLESTARTUP
290
     0
  0
ENDSEC
  0
SECTION
  2
CLASSES
  0
CLASS
  1
ACDBDICTIONARYWDFLT
  2
AcDbDictionaryWithDefault
  3
ObjectDBX Classes
 90
        0
280
     0
281
     0
  0
CLASS
  1
VISUALSTYLE
  2
AcDbVisualStyle
  3
ObjectDBX Classes
 90
     4095
280
     0
281
     0
  0
CLASS
  1
MATERIAL
  2
AcDbMaterial
  3
ObjectDBX Classes
 90
     1153
280
     0
281
     0
  0
CLASS
  1
DICTIONARYVAR
  2
AcDbDictionaryVar
  3
ObjectDBX Classes
 90
        0
280
     0
281
     0
  0
CLASS
  1
ACDBPLACEHOLDER
  2
AcDbPlaceHolder
  3
ObjectDBX Classes
 90
        0
280
     0
281
     0
  0
CLASS
  1
LAYOUT
  2
AcDbLayout
  3
ObjectDBX Classes
 90
        0
280
     0
281
     0
  0
ENDSEC
  0
SECTION
  2
TABLES
  0
TABLE
  2
VPORT
  5
8
330
0
100
AcDbSymbolTable
 70
     1
  0
VPORT
  5
29
330
8
100
AcDbSymbolTableRecord
100
AcDbViewportTableRecord
  2
*Active
 70
     0
 10
0.0
 20
0.0
 11
1.0
 21
1.0
 12
344.1869158879
 22
148.5
 13
0.0
 23
0.0
 14
10.0
 24
10.0
 15
10.0
 25
10.0
 16
0.0
 26
0.0
 36
1.0
 17
0.0
 27
0.0
 37
0.0
 40
297.0
 41
1.9729729729
 42
50.0
 43
0.0
 44
0.0
 50
0.0
 51
0.0
 71
     0
 72
   100
 73
     1
 74
     3
 75
     0
 76
     0
 77
     0
 78
     0
281
     0
 65
     1
110
0.0
120
0.0
130
0.0
111
1.0
121
0.0
131
0.0
112
0.0
122
1.0
132
0.0
 79
     0
146
0.0
  0
ENDTAB
  0
TABLE
  2
LTYPE
  5
5
330
0
100
AcDbSymbolTable
 70
     2
  0
LTYPE
  5
14
330
5
100
AcDbSymbolTableRecord
100
AcDbLinetypeTableRecord
  2
ByBlock
 70
     0
  3

 72
    65
 73
     0
 40
0.0
  0
LTYPE
  5
15
330
5
100
AcDbSymbolTableRecord
100
AcDbLinetypeTableRecord
  2
ByLayer
 70
     0
  3

 72
    65
 73
     0
 40
0.0
  0
LTYPE
  5
16
330
5
100
AcDbSymbolTableRecord
100
AcDbLinetypeTableRecord
  2
Continuous
 70
     0
  3
Solid line
 72
    65
 73
     0
 40
0.0
  0
LTYPE
  5
40
330
5
100
AcDbSymbolTableRecord
100
AcDbLinetypeTableRecord
  2
HIDDEN2
 70
     0
  3
Hidden (.5x) _ _ _ _ _ _ _ _ _ _ _ _ _ _ _ _ _ 
 72
    65
 73
     2
 40
4.7625
 49
3.175
 74
     4
 75
     0
340
0
 46
0.0
 50
0.0
 44
0.0
 45
0.0
 49
-1.5875
 74
     4
 75
     0
340
0
 46
0.0
 50
0.0
 44
0.0
 45
0.0
  0
ENDTAB
  0
TABLE
  2
LAYER
  5
2
330
0
100
AcDbSymbolTable
 70
     5
  0
LAYER
  5
10
330
2
100
AcDbSymbolTableRecord
100
AcDbLayerTableRecord
  2
0
 70
     0
 62
     7
  6
Continuous
370
    -3
390
F
  0
LAYER
  5
3F
330
2
100
AcDbSymbolTableRecord
100
AcDbLayerTableRecord
  2
SK3
 70
     0
 62
     1
  6
HIDDEN2
370
    15
390
F
  0
LAYER
  5
42
330
2
100
AcDbSymbolTableRecord
100
AcDbLayerTableRecord
  2
SK1
 70
     0
 62
     4
  6
Continuous
370
    18
390
F
  0
LAYER
  5
129
330
2
100
AcDbSymbolTableRecord
100
AcDbLayerTableRecord
  2
SK4
 70
     0
 62
     2
  6
Continuous
370
    13
390
F
  0
LAYER
  5
12B
330
2
100
AcDbSymbolTableRecord
100
AcDbLayerTableRecord
  2
SK2
 70
     0
 62
     7
  6
Continuous
370
    15
390
F
  0
ENDTAB
  0
TABLE
  2
STYLE
  5
3
330
0
100
AcDbSymbolTable
 70
     2
  0
STYLE
  5
11
330
3
100
AcDbSymbolTableRecord
100
AcDbTextStyleTableRecord
  2
Standard
 70
     0
 40
0.0
 41
1.0
 50
0.0
 71
     0
 42
2.5
  3
txt
  4

  0
STYLE
  5
13E
330
3
100
AcDbSymbolTableRecord
100
AcDbTextStyleTableRecord
  2
SEACAD_Solid_Edge_ISO
 70
     0
 40
0.0
 41
1.0
 50
0.0
 71
     0
 42
0.2
  3
seiso.ttf
  4

1001
ACAD
1000
Solid Edge ISO
1071
        0
  0
ENDTAB
  0
TABLE
  2
VIEW
  5
6
330
0
100
AcDbSymbolTable
 70
     0
  0
ENDTAB
  0
TABLE
  2
UCS
  5
7
330
0
100
AcDbSymbolTable
 70
     0
  0
ENDTAB
  0
TABLE
  2
APPID
  5
9
330
0
100
AcDbSymbolTable
 70
     1
  0
APPID
  5
12
330
9
100
AcDbSymbolTableRecord
100
AcDbRegAppTableRecord
  2
ACAD
 70
     0
  0
ENDTAB
  0
TABLE
  2
DIMSTYLE
  5
A
330
0
100
AcDbSymbolTable
 70
     3
100
AcDbDimStyleTable
  0
DIMSTYLE
105
27
330
A
100
AcDbSymbolTableRecord
100
AcDbDimStyleTableRecord
  2
ISO-25
 70
     0
 41
2.5
 42
0.625
 43
3.75
 44
1.25
 73
     0
 74
     0
 77
     1
 78
     8
140
2.5
141
2.5
143
0.0393700787
147
0.625
171
     3
172
     1
178
     0
271
     2
272
     2
274
     3
278
    44
283
     0
284
     8
340
11
  0
DIMSTYLE
105
12C
330
A
100
AcDbSymbolTableRecord
100
AcDbDimStyleTableRecord
  2
Standard
 70
     0
178
     0
340
11
  0
DIMSTYLE
105
13F
102
{ACAD_REACTORS
330
140
330
14A
330
155
330
15F
102
}
330
A
100
AcDbSymbolTableRecord
100
AcDbDimStyleTableRecord
  2
DIN
 70
     0
 41
3.5
 42
0.0
 44
1.75
 73
     0
 74
     0
 77
     1
 78
     8
140
3.5
141
1.75
147
1.75
172
     1
173
     1
178
     0
179
     3
271
     2
272
     2
278
    44
284
     8
340
13E
343
139
344
139
  0
ENDTAB
  0
TABLE
  2
BLOCK_RECORD
  5
1
330
0
100
AcDbSymbolTable
 70
    10
  0
BLOCK_RECORD
  5
1F
330
1
100
AcDbSymbolTableRecord
100
AcDbBlockTableRecord
  2
*Model_Space
340
22
  0
BLOCK_RECORD
  5
1B
330
1
100
AcDbSymbolTableRecord
100
AcDbBlockTableRecord
  2
*Paper_Space
340
1E
  0
BLOCK_RECORD
  5
12D
330
1
100
AcDbSymbolTableRecord
100
AcDbBlockTableRecord
  2
_OBLIQUE
340
0
  0
BLOCK_RECORD
  5
131
330
1
100
AcDbSymbolTableRecord
100
AcDbBlockTableRecord
  2
_DOT
340
0
  0
BLOCK_RECORD
  5
139
330
1
100
AcDbSymbolTableRecord
100
AcDbBlockTableRecord
  2
_SE_FILLED
340
0
  0
BLOCK_RECORD
  5
141
330
1
100
AcDbSymbolTableRecord
100
AcDbBlockTableRecord
  2
DMBLK1
340
0
  0
BLOCK_RECORD
  5
14B
330
1
100
AcDbSymbolTableRecord
100
AcDbBlockTableRecord
  2
DMBLK2
340
0
  0
BLOCK_RECORD
  5
156
330
1
100
AcDbSymbolTableRecord
100
AcDbBlockTableRecord
  2
DMBLK3
340
0
  0
BLOCK_RECORD
  5
160
330
1
100
AcDbSymbolTableRecord
100
AcDbBlockTableRecord
  2
DMBLK4
340
0
  0
BLOCK_RECORD
  5
16A
330
1
100
AcDbSymbolTableRecord
100
AcDbBlockTableRecord
  2
Nullpunkt
340
0
102
{BLKREFS
331
174
102
}
  0
BLOCK_RECORD
  5
175
330
1
100
AcDbSymbolTableRecord
100
AcDbBlockTableRecord
  2
Einfügepunkt
340
0
102
{BLKREFS
331
17F
102
}
  0
ENDTAB
  0
ENDSEC
  0
SECTION
  2
BLOCKS
  0
BLOCK
  5
20
330
1F
100
AcDbEntity
  8
0
100
AcDbBlockBegin
  2
*Model_Space
 70
     0
 10
0.0
 20
0.0
 30
0.0
  3
*Model_Space
  1

  0
ENDBLK
  5
21
330
1F
100
AcDbEntity
  8
0
100
AcDbBlockEnd
  0
BLOCK
  5
1C
330
1B
100
AcDbEntity
 67
     1
  8
0
100
AcDbBlockBegin
  2
*Paper_Space
 70
     0
 10
0.0
 20
0.0
 30
0.0
  3
*Paper_Space
  1

  0
ENDBLK
  5
1D
330
1B
100
AcDbEntity
 67
     1
  8
0
100
AcDbBlockEnd
  0
BLOCK
  5
12E
330
12D
100
AcDbEntity
  8
0
100
AcDbBlockBegin
  2
_OBLIQUE
 70
     0
 10
0.0
 20
0.0
 30
0.0
  3
_OBLIQUE
  1

  0
LINE
  5
130
330
12D
100
AcDbEntity
  8
0
  6
ByBlock
 62
     0
370
    -2
100
AcDbLine
 10
-0.5
 20
-0.5
 30
0.0
 11
0.5
 21
0.5
 31
0.0
  0
ENDBLK
  5
12F
330
12D
100
AcDbEntity
  8
0
100
AcDbBlockEnd
  0
BLOCK
  5
132
330
131
100
AcDbEntity
  8
0
100
AcDbBlockBegin
  2
_DOT
 70
     0
 10
0.0
 20
0.0
 30
0.0
  3
_DOT
  1

  0
POLYLINE
  5
134
330
131
100
AcDbEntity
  8
0
  6
ByBlock
 62
     0
100
AcDb2dPolyline
 66
     1
 10
0.0
 20
0.0
 30
0.0
 70
     1
 40
0.5
 41
0.5
  0
VERTEX
  5
136
330
134
100
AcDbEntity
  8
0
  6
ByBlock
 62
     0
100
AcDbVertex
100
AcDb2dVertex
 10
-0.25
 20
0.0
 30
0.0
 42
1.0
  0
VERTEX
  5
137
330
134
100
AcDbEntity
  8
0
  6
ByBlock
 62
     0
100
AcDbVertex
100
AcDb2dVertex
 10
0.25
 20
0.0
 30
0.0
 42
1.0
  0
SEQEND
  5
138
330
134
100
AcDbEntity
  8
0
  6
ByBlock
 62
     0
  0
LINE
  5
135
330
131
100
AcDbEntity
  8
0
  6
ByBlock
 62
     0
370
    -2
100
AcDbLine
 10
-0.5
 20
0.0
 30
0.0
 11
-1.0
 21
0.0
 31
0.0
  0
ENDBLK
  5
133
330
131
100
AcDbEntity
  8
0
100
AcDbBlockEnd
  0
BLOCK
  5
13C
330
139
100
AcDbEntity
  8
0
100
AcDbBlockBegin
  2
_SE_FILLED
 70
     0
 10
0.0
 20
0.0
 30
0.0
  3
_SE_FILLED
  1

  0
SOLID
  5
13A
330
139
100
AcDbEntity
  8
0
 62
     0
100
AcDbTrace
 10
0.0
 20
0.0
 30
0.0
 11
-1.0
 21
-0.1665
 31
0.0
 12
-1.0
 22
0.1665
 32
0.0
 13
0.0
 23
0.0
 33
0.0
  0
LINE
  5
13B
330
139
100
AcDbEntity
  8
0
 62
     0
100
AcDbLine
 10
0.0
 20
0.0
 30
0.0
 11
-1.0
 21
0.0
 31
0.0
  0
ENDBLK
  5
13D
330
139
100
AcDbEntity
  8
0
100
AcDbBlockEnd
  0
BLOCK
  5
148
330
141
100
AcDbEntity
  8
0
100
AcDbBlockBegin
  2
DMBLK1
 70
     0
 10
0.0
 20
0.0
 30
0.0
  3
DMBLK1
  1

  0
HATCH
  5
142
330
141
100
AcDbEntity
  8
SK2
  6
Continuous
 62
   136
100
AcDbHatch
 10
0.0
 20
0.0
 30
0.0
210
0.0
220
0.0
230
1.0
  2
SOLID
 70
     1
 71
     0
 91
        1
 92
        1
 93
        3
 72
     1
 10
-18.83999989196672
 20
22.96499395380578
 11
-22.34000000000014
 21
22.38166060246688
 72
     1
 10
-22.34000000000014
 20
22.38166060246688
 11
-18.83999989196672
 21
21.79832725112798
 72
     1
 10
-18.83999989196672
 20
21.79832725112798
 11
-18.83999989196672
 21
22.96499395380578
 97
        0
 75
     0
 76
     1
 98
        0
  0
HATCH
  5
143
330
141
100
AcDbEntity
  8
SK2
  6
Continuous
 62
   136
100
AcDbHatch
 10
0.0
 20
0.0
 30
0.0
210
0.0
220
0.0
230
1.0
  2
SOLID
 70
     1
 71
     0
 91
        1
 92
        1
 93
        3
 72
     1
 10
8.160001739710431
 20
22.96499395380578
 11
8.160001739710431
 21
21.79832725112798
 72
     1
 10
8.160001739710431
 20
21.79832725112798
 11
11.66000184774385
 21
22.38166060246688
 72
     1
 10
11.66000184774385
 20
22.38166060246688
 11
8.160001739710431
 21
22.96499395380578
 97
        0
 75
     0
 76
     1
 98
        0
  0
LINE
  5
144
330
141
100
AcDbEntity
  8
SK2
  6
Continuous
 62
   136
100
AcDbLine
 10
-22.34
 20
9.0904101538
 30
0.0
 11
-22.34
 21
24.1316606565
 31
0.0
  0
LINE
  5
145
330
141
100
AcDbEntity
  8
SK2
  6
Continuous
 62
   136
100
AcDbLine
 10
11.66
 20
9.8066661335
 30
0.0
 11
11.66
 21
24.1316606565
 31
0.0
  0
LINE
  5
146
330
141
100
AcDbEntity
  8
SK2
  6
Continuous
 62
   136
100
AcDbLine
 10
-22.34
 20
22.3816606025
 30
0.0
 11
11.6600018477
 21
22.3816606025
 31
0.0
  0
TEXT
  5
147
330
141
100
AcDbEntity
  8
SK2
  6
Continuous
 62
   136
100
AcDbText
 10
-7.2888627125
 20
23.2566606025
 30
0.0
 40
3.5
  1
34
  7
SEACAD_Solid_Edge_ISO
 11
-7.2888627125
 21
26.7566606025
 31
0.0
100
AcDbText
 73
     3
  0
ENDBLK
  5
149
330
141
100
AcDbEntity
  8
0
100
AcDbBlockEnd
  0
BLOCK
  5
153
330
14B
100
AcDbEntity
  8
0
100
AcDbBlockBegin
  2
DMBLK2
 70
     0
 10
0.0
 20
0.0
 30
0.0
  3
DMBLK2
  1

  0
HATCH
  5
14C
330
14B
100
AcDbEntity
  8
SK2
  6
Continuous
 62
   136
100
AcDbHatch
 10
0.0
 20
0.0
 30
0.0
210
0.0
220
0.0
230
1.0
  2
SOLID
 70
     1
 71
     0
 91
        1
 92
        1
 93
        3
 72
     1
 10
22.46074784072737
 20
-7.470000108033427
 11
21.87741448938846
 21
-3.970000000000009
 72
     1
 10
21.87741448938846
 20
-3.970000000000008
 11
21.29408113804956
 21
-7.470000108033426
 72
     1
 10
21.29408113804956
 20
-7.470000108033427
 11
22.46074784072737
 21
-7.470000108033427
 97
        0
 75
     0
 76
     1
 98
        0
  0
HATCH
  5
14D
330
14B
100
AcDbEntity
  8
SK2
  6
Continuous
 62
   136
100
AcDbHatch
 10
0.0
 20
0.0
 30
0.0
210
0.0
220
0.0
230
1.0
  2
SOLID
 70
     1
 71
     0
 91
        1
 92
        1
 93
        3
 72
     1
 10
22.46074784072737
 20
7.470000108033422
 11
21.29408113804956
 21
7.470000108033422
 72
     1
 10
21.29408113804956
 20
7.470000108033422
 11
21.87741448938846
 21
3.970000000000003
 72
     1
 10
21.87741448938846
 20
3.970000000000003
 11
22.46074784072737
 21
7.470000108033421
 97
        0
 75
     0
 76
     1
 98
        0
  0
LINE
  5
14E
330
14B
100
AcDbEntity
  8
SK2
  6
Continuous
 62
   136
100
AcDbLine
 10
11.26
 20
-3.97
 30
0.0
 11
23.6274145434
 21
-3.97
 31
0.0
  0
LINE
  5
14F
330
14B
100
AcDbEntity
  8
SK2
  6
Continuous
 62
   136
100
AcDbLine
 10
11.26
 20
3.97
 30
0.0
 11
23.6274145434
 21
3.97
 31
0.0
  0
LINE
  5
150
330
14B
100
AcDbEntity
  8
SK2
  6
Continuous
 62
   136
100
AcDbLine
 10
21.8774144894
 20
-10.9700002161
 30
0.0
 11
21.8774144894
 21
21.6179890174
 31
0.0
  0
TEXT
  5
151
330
14B
100
AcDbEntity
  8
SK2
  6
Continuous
 62
   136
100
AcDbText
 10
21.0024144894
 20
13.3134436827
 30
0.0
 40
3.5
  1
7,94
 50
90.0
  7
SEACAD_Solid_Edge_ISO
 11
17.5024144894
 21
13.3134436827
 31
0.0
100
AcDbText
 73
     3
  0
TEXT
  5
152
330
14B
100
AcDbEntity
  8
SK2
  6
Continuous
 62
   136
100
AcDbText
 10
21.0024144894
 20
9.24071641
 30
0.0
 40
3.5
  1
ø
 50
90.0
  7
SEACAD_Solid_Edge_ISO
 11
17.5024144894
 21
9.24071641
 31
0.0
100
AcDbText
 73
     3
  0
ENDBLK
  5
154
330
14B
100
AcDbEntity
  8
0
100
AcDbBlockEnd
  0
BLOCK
  5
15D
330
156
100
AcDbEntity
  8
0
100
AcDbBlockBegin
  2
DMBLK3
 70
     0
 10
0.0
 20
0.0
 30
0.0
  3
DMBLK3
  1

  0
HATCH
  5
157
330
156
100
AcDbEntity
  8
SK2
  6
Continuous
 62
   136
100
AcDbHatch
 10
0.0
 20
0.0
 30
0.0
210
0.0
220
0.0
230
1.0
  2
SOLID
 70
     1
 71
     0
 91
        1
 92
        1
 93
        3
 72
     1
 10
-3.500000108033418
 20
-20.58333330940015
 11
0.0000000000000009
 21
-19.99999995806125
 72
     1
 10
0.0000000000000009
 20
-19.99999995806125
 11
-3.500000108033418
 21
-19.41666660672234
 72
     1
 10
-3.500000108033418
 20
-19.41666660672234
 11
-3.500000108033418
 21
-20.58333330940015
 97
        0
 75
     0
 76
     1
 98
        0
  0
HATCH
  5
158
330
156
100
AcDbEntity
  8
SK2
  6
Continuous
 62
   136
100
AcDbHatch
 10
0.0
 20
0.0
 30
0.0
210
0.0
220
0.0
230
1.0
  2
SOLID
 70
     1
 71
     0
 91
        1
 92
        1
 93
        3
 72
     1
 10
15.16000010803342
 20
-20.58333330940015
 11
15.16000010803342
 21
-19.41666660672234
 72
     1
 10
15.16000010803342
 20
-19.41666660672234
 11
11.66
 21
-19.99999995806125
 72
     1
 10
11.66
 20
-19.99999995806125
 11
15.16000010803342
 21
-20.58333330940015
 97
        0
 75
     0
 76
     1
 98
        0
  0
LINE
  5
159
330
156
100
AcDbEntity
  8
SK2
  6
Continuous
 62
   136
100
AcDbLine
 10
0.0
 20
-12.4996746285
 30
0.0
 11
0.0
 21
-21.7500000121
 31
0.0
  0
LINE
  5
15A
330
156
100
AcDbEntity
  8
SK2
  6
Continuous
 62
   136
100
AcDbLine
 10
11.66
 20
-9.1882744343
 30
0.0
 11
11.66
 21
-21.7500000121
 31
0.0
  0
LINE
  5
15B
330
156
100
AcDbEntity
  8
SK2
  6
Continuous
 62
   136
100
AcDbLine
 10
-7.0000002161
 20
-19.9999999581
 30
0.0
 11
18.6599995941
 21
-19.9999999581
 31
0.0
  0
TEXT
  5
15C
330
156
100
AcDbEntity
  8
SK2
  6
Continuous
 62
   136
100
AcDbText
 10
1.9322728819
 20
-19.1249999581
 30
0.0
 40
3.5
  1
11,66
  7
SEACAD_Solid_Edge_ISO
 11
1.9322728819
 21
-15.6249999581
 31
0.0
100
AcDbText
 73
     3
  0
ENDBLK
  5
15E
330
156
100
AcDbEntity
  8
0
100
AcDbBlockEnd
  0
BLOCK
  5
168
330
160
100
AcDbEntity
  8
0
100
AcDbBlockBegin
  2
DMBLK4
 70
     0
 10
0.0
 20
0.0
 30
0.0
  3
DMBLK4
  1

  0
HATCH
  5
161
330
160
100
AcDbEntity
  8
SK2
  6
Continuous
 62
   136
100
AcDbHatch
 10
0.0
 20
0.0
 30
0.0
210
0.0
220
0.0
230
1.0
  2
SOLID
 70
     1
 71
     0
 91
        1
 92
        1
 93
        3
 72
     1
 10
-29.43727878543238
 20
8.999674520426053
 11
-28.27061208275457
 21
8.999674520426053
 72
     1
 10
-28.27061208275457
 20
8.999674520426053
 11
-28.85394543409348
 21
12.49967462845947
 72
     1
 10
-28.85394543409348
 20
12.49967462845947
 11
-29.43727878543238
 21
8.999674520426053
 97
        0
 75
     0
 76
     1
 98
        0
  0
HATCH
  5
162
330
160
100
AcDbEntity
  8
SK2
  6
Continuous
 62
   136
100
AcDbHatch
 10
0.0
 20
0.0
 30
0.0
210
0.0
220
0.0
230
1.0
  2
SOLID
 70
     1
 71
     0
 91
        1
 92
        1
 93
        3
 72
     1
 10
-29.43727878543238
 20
-8.999673710233909
 11
-28.85394543409348
 21
-12.49967381826733
 72
     1
 10
-28.85394543409348
 20
-12.49967381826733
 11
-28.27061208275457
 21
-8.999673710233909
 72
     1
 10
-28.27061208275457
 20
-8.999673710233909
 11
-29.43727878543238
 21
-8.999673710233909
 97
        0
 75
     0
 76
     1
 98
        0
  0
LINE
  5
163
330
160
100
AcDbEntity
  8
SK2
  6
Continuous
 62
   136
100
AcDbLine
 10
0.0
 20
12.4996746285
 30
0.0
 11
-30.6039454881
 21
12.4996746285
 31
0.0
  0
LINE
  5
164
330
160
100
AcDbEntity
  8
SK2
  6
Continuous
 62
   136
100
AcDbLine
 10
0.0
 20
-12.4996746285
 30
0.0
 11
-30.6039454881
 21
-12.4996746285
 31
0.0
  0
LINE
  5
165
330
160
100
AcDbEntity
  8
SK2
  6
Continuous
 62
   136
100
AcDbLine
 10
-28.8539454341
 20
12.4996746285
 30
0.0
 11
-28.8539454341
 21
-12.4996738183
 31
0.0
  0
TEXT
  5
166
330
160
100
AcDbEntity
  8
SK2
  6
Continuous
 62
   136
100
AcDbText
 10
-29.7289454341
 20
-0.0318177767
 30
0.0
 40
3.5
  1
25
 50
90.0
  7
SEACAD_Solid_Edge_ISO
 11
-33.2289454341
 21
-0.0318177767
 31
0.0
100
AcDbText
 73
     3
  0
TEXT
  5
167
330
160
100
AcDbEntity
  8
SK2
  6
Continuous
 62
   136
100
AcDbText
 10
-29.7289454341
 20
-4.1045450494
 30
0.0
 40
3.5
  1
ø
 50
90.0
  7
SEACAD_Solid_Edge_ISO
 11
-33.2289454341
 21
-4.1045450494
 31
0.0
100
AcDbText
 73
     3
  0
ENDBLK
  5
169
330
160
100
AcDbEntity
  8
0
100
AcDbBlockEnd
  0
BLOCK
  5
172
330
16A
100
AcDbEntity
  8
0
100
AcDbBlockBegin
  2
Nullpunkt
 70
     0
 10
0.0
 20
0.0
 30
0.0
  3
Nullpunkt
  1

  0
HATCH
  5
16B
330
16A
100
AcDbEntity
  8
SK2
  6
Continuous
 62
     7
100
AcDbHatch
 10
0.0
 20
0.0
 30
0.0
210
0.0
220
0.0
230
1.0
  2
SOLID
 70
     1
 71
     0
 91
        1
 92
        1
 93
        3
 72
     1
 10
-1.0
 20
0.0
 11
0.0000000000000009
 21
0.0
 72
     1
 10
0.0
 20
0.0
 11
0.0
 21
1.000000000000001
 72
     2
 10
0.0
 20
0.0
 40
1.0
 50
90.0
 51
180.0
 73
     1
 97
        0
 75
     0
 76
     1
 98
        0
  0
HATCH
  5
16C
330
16A
100
AcDbEntity
  8
SK2
  6
Continuous
 62
     7
100
AcDbHatch
 10
0.0
 20
0.0
 30
0.0
210
0.0
220
0.0
230
1.0
  2
SOLID
 70
     1
 71
     0
 91
        1
 92
        1
 93
        3
 72
     2
 10
0.0
 20
0.0
 40
1.0
 50
270.0
 51
360.0
 73
     1
 72
     1
 10
1.0
 20
0.0
 11
-0.0000000000000009
 21
0.0
 72
     1
 10
0.0
 20
0.0
 11
0.0
 21
-1.000000000000001
 97
        0
 75
     0
 76
     1
 98
        0
  0
CIRCLE
  5
16D
330
16A
100
AcDbEntity
  8
SK2
  6
Continuous
 62
     7
100
AcDbCircle
 10
0.0
 20
0.0
 30
0.0
 40
1.0
  0
LINE
  5
16E
330
16A
100
AcDbEntity
  8
SK1
  6
Continuous
100
AcDbLine
 10
-1.0
 20
0.0
 30
0.0
 11
1.0
 21
0.0
 31
0.0
  0
LINE
  5
16F
330
16A
100
AcDbEntity
  8
SK1
  6
Continuous
100
AcDbLine
 10
0.0
 20
1.0
 30
0.0
 11
0.0
 21
-1.0
 31
0.0
  0
POINT
  5
170
330
16A
100
AcDbEntity
  8
SK1
  6
Continuous
100
AcDbPoint
 10
0.0
 20
0.0
 30
0.0
  0
POINT
  5
171
330
16A
100
AcDbEntity
  8
SK1
  6
Continuous
100
AcDbPoint
 10
0.0
 20
0.0
 30
0.0
  0
ENDBLK
  5
173
330
16A
100
AcDbEntity
  8
0
100
AcDbBlockEnd
  0
BLOCK
  5
17D
330
175
100
AcDbEntity
  8
0
100
AcDbBlockBegin
  2
Einfügepunkt
 70
     0
 10
0.0
 20
0.0
 30
0.0
  3
Einfügepunkt
  1

  0
HATCH
  5
176
330
175
100
AcDbEntity
  8
SK2
  6
Continuous
 62
     7
100
AcDbHatch
 10
0.0
 20
0.0
 30
0.0
210
0.0
220
0.0
230
1.0
  2
SOLID
 70
     1
 71
     0
 91
        1
 92
        1
 93
        3
 72
     1
 10
-0.4502381196756744
 20
-0.0000000000000018
 11
0.0000000000000033
 21
-0.0000000000000018
 72
     1
 10
0.0
 20
-0.0000000000000018
 11
0.0
 21
0.4502381196756812
 72
     2
 10
0.0
 20
-0.0000000000000018
 40
0.4502381196756812
 50
90.0
 51
180.0
 73
     1
 97
        0
 75
     0
 76
     1
 98
        0
  0
HATCH
  5
177
330
175
100
AcDbEntity
  8
SK2
  6
Continuous
 62
     7
100
AcDbHatch
 10
0.0
 20
0.0
 30
0.0
210
0.0
220
0.0
230
1.0
  2
SOLID
 70
     1
 71
     0
 91
        1
 92
        1
 93
        3
 72
     2
 10
0.0
 20
-0.0000000000000018
 40
0.4502381196756812
 50
270.0
 51
360.0
 73
     1
 72
     1
 10
0.4502381196756815
 20
-0.0000000000000018
 11
0.0000000000000038
 21
-0.0000000000000018
 72
     1
 10
0.0
 20
-0.0000000000000018
 11
0.0
 21
-0.4502381196756812
 97
        0
 75
     0
 76
     1
 98
        0
  0
CIRCLE
  5
178
330
175
100
AcDbEntity
  8
SK2
  6
Continuous
 62
     7
100
AcDbCircle
 10
0.0
 20
0.0
 30
0.0
 40
0.4502381196756812
  0
LINE
  5
179
330
175
100
AcDbEntity
  8
SK1
  6
Continuous
100
AcDbLine
 10
-0.4502381197
 20
0.0
 30
0.0
 11
0.4502381197
 21
0.0
 31
0.0
  0
LINE
  5
17A
330
175
100
AcDbEntity
  8
SK1
  6
Continuous
100
AcDbLine
 10
0.0
 20
0.4502381197
 30
0.0
 11
0.0
 21
-0.4502381197
 31
0.0
  0
POINT
  5
17B
330
175
100
AcDbEntity
  8
SK2
  6
Continuous
 62
     7
100
AcDbPoint
 10
0.0
 20
0.0
 30
0.0
  0
POINT
  5
17C
330
175
100
AcDbEntity
  8
SK2
  6
Continuous
 62
     7
100
AcDbPoint
 10
0.0
 20
0.0
 30
0.0
  0
ENDBLK
  5
17E
330
175
100
AcDbEntity
  8
0
100
AcDbBlockEnd
  0
ENDSEC
  0
SECTION
  2
ENTITIES
  0
LINE
  5
41
330
1F
100
AcDbEntity
  8
SK3
100
AcDbLine
 10
-21.1890003701
 20
-3.075771283
 30
0.0
 11
-21.1890003701
 21
-3.9497974632
 31
0.0
  0
LINE
  5
43
330
1F
100
AcDbEntity
  8
SK1
  6
Continuous
100
AcDbLine
 10
6.9198076211
 20
-4.6029772751
 30
0.0
 11
6.9198076211
 21
4.6029772751
 31
0.0
  0
LINE
  5
44
330
1F
100
AcDbEntity
  8
SK1
  6
Continuous
100
AcDbLine
 10
6.66
 20
-4.6029772751
 30
0.0
 11
6.66
 21
4.6029772751
 31
0.0
  0
LINE
  5
45
330
1F
100
AcDbEntity
  8
SK1
  6
Continuous
100
AcDbLine
 10
6.66
 20
-5.3420809011
 30
0.0
 11
6.9198076211
 21
-5.3420809011
 31
0.0
  0
LINE
  5
46
330
1F
100
AcDbEntity
  8
SK1
  6
Continuous
100
AcDbLine
 10
6.66
 20
-4.6029772751
 30
0.0
 11
6.9198076211
 21
-4.6029772751
 31
0.0
  0
LINE
  5
47
330
1F
100
AcDbEntity
  8
SK1
  6
Continuous
100
AcDbLine
 10
3.2182480697
 20
-4.5845882118
 30
0.0
 11
3.2182480697
 21
4.5845882118
 31
0.0
  0
LINE
  5
48
330
1F
100
AcDbEntity
  8
SK1
  6
Continuous
100
AcDbLine
 10
3.56
 20
-4.4708449267
 30
0.0
 11
3.56
 21
4.4708449267
 31
0.0
  0
LINE
  5
49
330
1F
100
AcDbEntity
  8
SK1
  6
Continuous
100
AcDbLine
 10
11.66
 20
-3.4997611396
 30
0.0
 11
11.66
 21
3.4997611396
 31
0.0
  0
LINE
  5
4A
330
1F
100
AcDbEntity
  8
SK1
  6
Continuous
100
AcDbLine
 10
11.535
 20
-3.5826779839
 30
0.0
 11
11.535
 21
3.5826779839
 31
0.0
  0
LINE
  5
4B
330
1F
100
AcDbEntity
  8
SK1
  6
Continuous
100
AcDbLine
 10
3.76
 20
-3.8371818701
 30
0.0
 11
3.76
 21
3.8371818701
 31
0.0
  0
LINE
  5
4C
330
1F
100
AcDbEntity
  8
SK1
  6
Continuous
100
AcDbLine
 10
6.46
 20
-3.8371818701
 30
0.0
 11
6.46
 21
3.8371818701
 31
0.0
  0
SPLINE
  5
4D
330
1F
100
AcDbEntity
  8
SK1
  6
Continuous
100
AcDbSpline
210
0.0
220
0.0
230
1.0
 70
     8
 71
     3
 72
     8
 73
     4
 74
     0
 42
0.0000000021156732
 43
0.0000000001
 12
1.0
 22
0.0
 32
0.0
 13
1.0
 23
0.0
 33
0.0
 40
0.0
 40
0.0
 40
0.0
 40
0.0
 40
1.0
 40
1.0
 40
1.0
 40
1.0
 10
6.919807621135324
 20
-4.602977275118721
 30
0.0
 10
8.458252117700761
 20
-4.262908665067299
 30
0.0
 10
9.996661747832876
 20
-3.922816934205701
 30
0.0
 10
11.535
 20
-3.582677983937343
 30
0.0
  0
SPLINE
  5
4E
330
1F
100
AcDbEntity
  8
SK1
  6
Continuous
100
AcDbSpline
210
0.0
220
0.0
230
1.0
 70
     8
 71
     3
 72
    10
 73
     6
 74
     0
 42
0.0000000616132438
 43
0.0000000001
 12
1.0
 22
0.0
 32
0.0
 13
1.0
 23
0.0
 33
0.0
 40
0.0
 40
0.0
 40
0.0
 40
0.0
 40
0.5
 40
0.5
 40
1.0
 40
1.0
 40
1.0
 40
1.0
 10
11.535
 20
-3.582677983937343
 30
0.0
 10
11.57259151117949
 20
-3.57436619871483
 30
0.0
 10
11.60494850261215
 20
-3.561964136799319
 30
0.0
 10
11.64829447702993
 20
-3.533150008862118
 30
0.0
 10
11.66
 20
-3.516554190841959
 30
0.0
 10
11.66
 20
-3.499761139610465
 30
0.0
  0
SPLINE
  5
4F
330
1F
100
AcDbEntity
  8
SK3
100
AcDbSpline
210
0.0
220
0.0
230
1.0
 70
     8
 71
     3
 72
    10
 73
     6
 74
     0
 42
0.0000000213799821
 43
0.0000000001
 12
1.0
 22
0.0
 32
0.0
 13
1.0
 23
0.0
 33
0.0
 40
0.0
 40
0.0
 40
0.0
 40
0.0
 40
0.5
 40
0.5
 40
1.0
 40
1.0
 40
1.0
 40
1.0
 10
11.66
 20
-1.295754404384423
 30
0.0
 10
11.66
 20
-1.255805986444243
 30
0.0
 10
11.61682545908313
 20
-1.215481591460005
 30
0.0
 10
11.46891928500633
 20
-1.15859539550921
 30
0.0
 10
11.36439915894158
 20
-1.141970237345207
 30
0.0
 10
11.26
 20
-1.141970237345202
 30
0.0
  0
SPLINE
  5
50
330
1F
100
AcDbEntity
  8
SK1
  6
Continuous
100
AcDbSpline
210
0.0
220
0.0
230
1.0
 70
     8
 71
     3
 72
    10
 73
     6
 74
     0
 42
0.0000000253845494
 43
0.0000000001
 12
1.0
 22
0.0
 32
0.0
 13
1.0
 23
0.0
 33
0.0
 40
0.0
 40
0.0
 40
0.0
 40
0.0
 40
0.5
 40
0.5
 40
1.0
 40
1.0
 40
1.0
 40
1.0
 10
3.56
 20
-5.209948552723167
 30
0.0
 10
3.560000000000013
 20
-5.242516148093739
 30
0.0
 10
3.521600558429439
 20
-5.275053735258344
 30
0.0
 10
3.392249740846039
 20
-5.318145836471674
 30
0.0
 10
3.30352126220441
 20
-5.32828024464273
 30
0.0
 10
3.218248069711986
 20
-5.323691837772873
 30
0.0
  0
LINE
  5
51
330
1F
100
AcDbEntity
  8
SK1
  6
Continuous
100
AcDbLine
 10
3.2182480697
 20
-5.3236918378
 30
0.0
 11
-16.926410275
 21
-4.2395969187
 31
0.0
  0
LINE
  5
52
330
1F
100
AcDbEntity
  8
SK1
  6
Continuous
100
AcDbLine
 10
6.66
 20
-5.3420809011
 30
0.0
 11
6.66
 21
-4.6528719302
 31
0.0
  0
SPLINE
  5
53
330
1F
100
AcDbEntity
  8
SK1
  6
Continuous
100
AcDbSpline
210
0.0
220
0.0
230
1.0
 70
     8
 71
     3
 72
    10
 73
     6
 74
     0
 42
0.000000042790812
 43
0.0000000001
 12
1.0
 22
0.0
 32
0.0
 13
1.0
 23
0.0
 33
0.0
 40
0.0
 40
0.0
 40
0.0
 40
0.0
 40
0.5
 40
0.5
 40
1.0
 40
1.0
 40
1.0
 40
1.0
 10
6.660000000000006
 20
-4.652871930212039
 30
0.0
 10
6.66000000000001
 20
-4.632921433508734
 30
0.0
 10
6.638212026177222
 20
-4.612780417520995
 30
0.0
 10
6.564376700676173
 20
-4.584557069685552
 30
0.0
 10
6.512157774181685
 20
-4.576285496125943
 30
0.0
 10
6.459999999999646
 20
-4.576285496124835
 30
0.0
  0
LINE
  5
54
330
1F
100
AcDbEntity
  8
SK1
  6
Continuous
100
AcDbLine
 10
6.46
 20
-4.5762854961
 30
0.0
 11
3.76
 21
-4.5762854961
 31
0.0
  0
SPLINE
  5
55
330
1F
100
AcDbEntity
  8
SK1
  6
Continuous
100
AcDbSpline
210
0.0
220
0.0
230
1.0
 70
     8
 71
     3
 72
    10
 73
     6
 74
     0
 42
0.0000000427691831
 43
0.0000000001
 12
1.0
 22
0.0
 32
0.0
 13
1.0
 23
0.0
 33
0.0
 40
0.0
 40
0.0
 40
0.0
 40
0.0
 40
0.5
 40
0.5
 40
1.0
 40
1.0
 40
1.0
 40
1.0
 10
3.760000000000006
 20
-4.576285496125996
 30
0.0
 10
3.707252529531883
 20
-4.576285496125998
 30
0.0
 10
3.655686903106357
 20
-4.584501971167275
 30
0.0
 10
3.581417235304668
 20
-4.612953044945292
 30
0.0
 10
3.560000000000006
 20
-4.632657928223085
 30
0.0
 10
3.560000000000008
 20
-4.652871930212039
 30
0.0
  0
LINE
  5
56
330
1F
100
AcDbEntity
  8
SK1
  6
Continuous
100
AcDbLine
 10
3.56
 20
-4.6528719302
 30
0.0
 11
3.56
 21
-5.2099485527
 31
0.0
  0
SPLINE
  5
57
330
1F
100
AcDbEntity
  8
SK1
  6
Continuous
100
AcDbSpline
210
0.0
220
0.0
230
1.0
 70
     8
 71
     3
 72
    10
 73
     6
 74
     0
 42
0.0000000253845494
 43
0.0000000001
 12
1.0
 22
0.0
 32
0.0
 13
1.0
 23
0.0
 33
0.0
 40
0.0
 40
0.0
 40
0.0
 40
0.0
 40
0.5
 40
0.5
 40
1.0
 40
1.0
 40
1.0
 40
1.0
 10
3.56
 20
-4.47084492671414
 30
0.0
 10
3.560000000000013
 20
-4.503412522084711
 30
0.0
 10
3.521600558429439
 20
-4.535950109249315
 30
0.0
 10
3.392249740846039
 20
-4.579042210462644
 30
0.0
 10
3.30352126220441
 20
-4.589176618633698
 30
0.0
 10
3.218248069711986
 20
-4.584588211763847
 30
0.0
  0
LINE
  5
58
330
1F
100
AcDbEntity
  8
SK1
  6
Continuous
100
AcDbLine
 10
3.2182480697
 20
-4.5845882118
 30
0.0
 11
-16.926410275
 21
-3.5004932927
 31
0.0
  0
SPLINE
  5
59
330
1F
100
AcDbEntity
  8
SK1
  6
Continuous
100
AcDbSpline
210
0.0
220
0.0
230
1.0
 70
     8
 71
     3
 72
    10
 73
     6
 74
     0
 42
0.000000042790812
 43
0.0000000001
 12
1.0
 22
0.0
 32
0.0
 13
1.0
 23
0.0
 33
0.0
 40
0.0
 40
0.0
 40
0.0
 40
0.0
 40
0.5
 40
0.5
 40
1.0
 40
1.0
 40
1.0
 40
1.0
 10
6.660000000000006
 20
-3.913768304203011
 30
0.0
 10
6.66000000000001
 20
-3.893817807499705
 30
0.0
 10
6.638212026177222
 20
-3.873676791511965
 30
0.0
 10
6.564376700676173
 20
-3.845453443676523
 30
0.0
 10
6.512157774181685
 20
-3.837181870116913
 30
0.0
 10
6.459999999999646
 20
-3.837181870115804
 30
0.0
  0
LINE
  5
5A
330
1F
100
AcDbEntity
  8
SK1
  6
Continuous
100
AcDbLine
 10
6.46
 20
-3.8371818701
 30
0.0
 11
3.76
 21
-3.8371818701
 31
0.0
  0
SPLINE
  5
5B
330
1F
100
AcDbEntity
  8
SK1
  6
Continuous
100
AcDbSpline
210
0.0
220
0.0
230
1.0
 70
     8
 71
     3
 72
    10
 73
     6
 74
     0
 42
0.0000000427691831
 43
0.0000000001
 12
1.0
 22
0.0
 32
0.0
 13
1.0
 23
0.0
 33
0.0
 40
0.0
 40
0.0
 40
0.0
 40
0.0
 40
0.5
 40
0.5
 40
1.0
 40
1.0
 40
1.0
 40
1.0
 10
3.760000000000006
 20
-3.837181870116966
 30
0.0
 10
3.707252529531883
 20
-3.837181870116967
 30
0.0
 10
3.655686903106357
 20
-3.845398345158245
 30
0.0
 10
3.581417235304668
 20
-3.873849418936262
 30
0.0
 10
3.560000000000006
 20
-3.893554302214056
 30
0.0
 10
3.560000000000008
 20
-3.91376830420301
 30
0.0
  0
SPLINE
  5
5C
330
1F
100
AcDbEntity
  8
SK1
  6
Continuous
100
AcDbSpline
210
0.0
220
0.0
230
1.0
 70
     8
 71
     3
 72
     8
 73
     4
 74
     0
 42
0.0000000021156732
 43
0.0000000001
 12
1.0
 22
0.0
 32
0.0
 13
1.0
 23
0.0
 33
0.0
 40
0.0
 40
0.0
 40
0.0
 40
0.0
 40
1.0
 40
1.0
 40
1.0
 40
1.0
 10
6.919807621135324
 20
-5.342080901127749
 30
0.0
 10
8.458252117700761
 20
-5.002012291076328
 30
0.0
 10
9.996661747832876
 20
-4.661920560214732
 30
0.0
 10
11.535
 20
-4.321781609946373
 30
0.0
  0
SPLINE
  5
5D
330
1F
100
AcDbEntity
  8
SK1
  6
Continuous
100
AcDbSpline
210
0.0
220
0.0
230
1.0
 70
     8
 71
     3
 72
    10
 73
     6
 74
     0
 42
0.0000000616132438
 43
0.0000000001
 12
1.0
 22
0.0
 32
0.0
 13
1.0
 23
0.0
 33
0.0
 40
0.0
 40
0.0
 40
0.0
 40
0.0
 40
0.5
 40
0.5
 40
1.0
 40
1.0
 40
1.0
 40
1.0
 10
11.535
 20
-4.321781609946373
 30
0.0
 10
11.57259151117949
 20
-4.31346982472386
 30
0.0
 10
11.60494850261215
 20
-4.301067762808348
 30
0.0
 10
11.64829447702993
 20
-4.272253634871147
 30
0.0
 10
11.66
 20
-4.255657816850987
 30
0.0
 10
11.66
 20
-4.238864765619494
 30
0.0
  0
LINE
  5
5E
330
1F
100
AcDbEntity
  8
SK1
  6
Continuous
100
AcDbLine
 10
11.66
 20
-4.2388647656
 30
0.0
 11
11.66
 21
-3.4997611396
 31
0.0
  0
SPLINE
  5
5F
330
1F
100
AcDbEntity
  8
SK3
100
AcDbSpline
210
0.0
220
0.0
230
1.0
 70
     8
 71
     3
 72
    10
 73
     6
 74
     0
 42
0.0000000213799821
 43
0.0000000001
 12
1.0
 22
0.0
 32
0.0
 13
1.0
 23
0.0
 33
0.0
 40
0.0
 40
0.0
 40
0.0
 40
0.0
 40
0.5
 40
0.5
 40
1.0
 40
1.0
 40
1.0
 40
1.0
 10
11.66
 20
-2.034858030393452
 30
0.0
 10
11.66
 20
-1.994909612453272
 30
0.0
 10
11.61682545908313
 20
-1.954585217469035
 30
0.0
 10
11.46891928500633
 20
-1.89769902151824
 30
0.0
 10
11.36439915894158
 20
-1.881073863354236
 30
0.0
 10
11.26
 20
-1.881073863354231
 30
0.0
  0
LINE
  5
60
330
1F
100
AcDbEntity
  8
SK1
  6
Continuous
100
AcDbLine
 10
-22.34
 20
-6.1450479361
 30
0.0
 11
-22.34
 21
-0.4
 31
0.0
  0
LINE
  5
61
330
1F
100
AcDbEntity
  8
SK1
  6
Continuous
100
AcDbLine
 10
-22.0817519303
 20
-6.3553123498
 30
0.0
 11
-22.0817519303
 21
-0.4
 31
0.0
  0
SPLINE
  5
62
330
1F
100
AcDbEntity
  8
SK1
  6
Continuous
100
AcDbSpline
210
0.0
220
0.0
230
1.0
 70
     8
 71
     3
 72
    10
 73
     6
 74
     0
 42
0.0000000269084072
 43
0.0000000001
 12
1.0
 22
0.0
 32
0.0
 13
1.0
 23
0.0
 33
0.0
 40
0.0
 40
0.0
 40
0.0
 40
0.0
 40
0.5
 40
0.5
 40
1.0
 40
1.0
 40
1.0
 40
1.0
 10
-22.08175193028802
 20
-6.920997774731322
 30
0.0
 10
-22.15330684542487
 20
-6.913880382922667
 30
0.0
 10
-22.21940242541914
 20
-6.888335995334578
 30
0.0
 10
-22.31354727266464
 20
-6.811635673201019
 30
0.0
 10
-22.34000000000001
 20
-6.761293609469148
 30
0.0
 10
-22.34000000000001
 20
-6.710733361022313
 30
0.0
  0
SPLINE
  5
63
330
1F
100
AcDbEntity
  8
SK1
  6
Continuous
100
AcDbSpline
210
0.0
220
0.0
230
1.0
 70
     8
 71
     3
 72
    10
 73
     6
 74
     0
 42
0.0000000269084072
 43
0.0000000001
 12
1.0
 22
0.0
 32
0.0
 13
1.0
 23
0.0
 33
0.0
 40
0.0
 40
0.0
 40
0.0
 40
0.0
 40
0.5
 40
0.5
 40
1.0
 40
1.0
 40
1.0
 40
1.0
 10
-22.08175193028802
 20
-6.355312349782086
 30
0.0
 10
-22.15330684542467
 20
-6.348194957973448
 30
0.0
 10
-22.21940242541923
 20
-6.322650570385273
 30
0.0
 10
-22.31354727266455
 20
-6.245950248251865
 30
0.0
 10
-22.33999999999999
 20
-6.19560818451986
 30
0.0
 10
-22.34000000000014
 20
-6.145047936073081
 30
0.0
  0
LINE
  5
64
330
1F
100
AcDbEntity
  8
SK1
  6
Continuous
100
AcDbLine
 10
-22.34
 20
-6.710733361
 30
0.0
 11
-22.34
 21
-6.1450479361
 31
0.0
  0
LINE
  5
65
330
1F
100
AcDbEntity
  8
SK3
100
AcDbLine
 10
-22.34
 20
-3.5477215634
 30
0.0
 11
-21.1890003701
 21
-3.075771283
 31
0.0
  0
LINE
  5
66
330
1F
100
AcDbEntity
  8
SK3
100
AcDbLine
 10
-21.1890003701
 20
-3.075771283
 30
0.0
 11
-2.6969918269
 21
-3.075771283
 31
0.0
  0
LINE
  5
67
330
1F
100
AcDbEntity
  8
SK3
100
AcDbLine
 10
-22.34
 20
-2.9820361384
 30
0.0
 11
-21.1890003701
 21
-2.510085858
 31
0.0
  0
LINE
  5
68
330
1F
100
AcDbEntity
  8
SK3
100
AcDbLine
 10
-21.1890003701
 20
-2.510085858
 30
0.0
 11
-2.6969918269
 21
-2.510085858
 31
0.0
  0
LINE
  5
69
330
1F
100
AcDbEntity
  8
SK1
  6
Continuous
100
AcDbLine
 10
6.66
 20
-11.8516737909
 30
0.0
 11
6.66
 21
-5.3420809011
 31
0.0
  0
LINE
  5
6A
330
1F
100
AcDbEntity
  8
SK1
  6
Continuous
100
AcDbLine
 10
6.9198076211
 20
-11.8516737909
 30
0.0
 11
6.9198076211
 21
-5.3420809011
 31
0.0
  0
LINE
  5
6B
330
1F
100
AcDbEntity
  8
SK1
  6
Continuous
100
AcDbLine
 10
6.66
 20
-12.1578205368
 30
0.0
 11
6.9198076211
 21
-12.1578205368
 31
0.0
  0
LINE
  5
6C
330
1F
100
AcDbEntity
  8
SK1
  6
Continuous
100
AcDbLine
 10
6.66
 20
-11.8516737909
 30
0.0
 11
6.9198076211
 21
-11.8516737909
 31
0.0
  0
LINE
  5
6D
330
1F
100
AcDbEntity
  8
SK1
  6
Continuous
100
AcDbLine
 10
3.56
 20
-11.5326780833
 30
0.0
 11
3.56
 21
-5.2099485527
 31
0.0
  0
LINE
  5
6E
330
1F
100
AcDbEntity
  8
SK1
  6
Continuous
100
AcDbLine
 10
3.2182480697
 20
-11.8072786647
 30
0.0
 11
3.2182480697
 21
-5.3236918378
 31
0.0
  0
LINE
  5
6F
330
1F
100
AcDbEntity
  8
SK1
  6
Continuous
100
AcDbLine
 10
11.535
 20
-9.3884534044
 30
0.0
 11
11.535
 21
-4.3217816099
 31
0.0
  0
LINE
  5
70
330
1F
100
AcDbEntity
  8
SK1
  6
Continuous
100
AcDbLine
 10
11.66
 20
-9.1882744343
 30
0.0
 11
11.66
 21
-4.2388647656
 31
0.0
  0
LINE
  5
71
330
1F
100
AcDbEntity
  8
SK1
  6
Continuous
100
AcDbLine
 10
3.76
 20
-10.0028801381
 30
0.0
 11
3.76
 21
-4.5762854961
 31
0.0
  0
LINE
  5
72
330
1F
100
AcDbEntity
  8
SK1
  6
Continuous
100
AcDbLine
 10
6.46
 20
-10.0028801381
 30
0.0
 11
6.46
 21
-4.5762854961
 31
0.0
  0
LINE
  5
73
330
1F
100
AcDbEntity
  8
SK1
  6
Continuous
100
AcDbLine
 10
6.9198076211
 20
-11.8516737909
 30
0.0
 11
11.535
 21
-9.3884534044
 31
0.0
  0
ARC
  5
74
330
1F
100
AcDbEntity
  8
SK1
  6
Continuous
100
AcDbCircle
 10
11.4286092649
 20
-9.182901583
 30
0.0
 40
0.2314531049789563
100
AcDbArc
 50
297.3654490732
 51
358.6698413103
  0
ARC
  5
75
330
1F
100
AcDbEntity
  8
SK3
100
AcDbCircle
 10
11.2738205282
 20
-3.8822853533
 30
0.0
 40
0.3864688897085863
100
AcDbArc
 50
2.217533269
 51
92.0493934471
  0
ARC
  5
76
330
1F
100
AcDbEntity
  8
SK1
  6
Continuous
100
AcDbCircle
 10
3.2674163507
 20
-11.824654807
 30
0.0
 40
0.2929265801809861
100
AcDbArc
 50
260.3370530069
 51
357.227293464
  0
LINE
  5
77
330
1F
100
AcDbEntity
  8
SK1
  6
Continuous
100
AcDbLine
 10
3.2182480697
 20
-12.1134254106
 30
0.0
 11
-16.926410275
 21
-9.4961887542
 31
0.0
  0
LINE
  5
78
330
1F
100
AcDbEntity
  8
SK1
  6
Continuous
100
AcDbLine
 10
6.66
 20
-12.1578205368
 30
0.0
 11
6.66
 21
-11.8516737909
 31
0.0
  0
ARC
  5
79
330
1F
100
AcDbEntity
  8
SK1
  6
Continuous
100
AcDbCircle
 10
6.4672716847
 20
-10.5017780977
 30
0.0
 40
0.192888329786198
100
AcDbArc
 50
2.3339651308
 51
92.1605018627
  0
LINE
  5
7A
330
1F
100
AcDbEntity
  8
SK1
  6
Continuous
100
AcDbLine
 10
6.46
 20
-10.309026884
 30
0.0
 11
3.76
 21
-10.309026884
 31
0.0
  0
ARC
  5
7B
330
1F
100
AcDbEntity
  8
SK1
  6
Continuous
100
AcDbCircle
 10
3.7527286759
 20
-10.5017784878
 30
0.0
 40
0.1928887059728785
100
AcDbArc
 50
87.8396095414
 51
177.6659234645
  0
LINE
  5
7C
330
1F
100
AcDbEntity
  8
SK1
  6
Continuous
100
AcDbLine
 10
3.56
 20
-11.5326780833
 30
0.0
 11
3.56
 21
-11.8388248292
 31
0.0
  0
ARC
  5
7D
330
1F
100
AcDbEntity
  8
SK1
  6
Continuous
100
AcDbCircle
 10
6.4672716847
 20
-10.1956313518
 30
0.0
 40
0.1928883297862046
100
AcDbArc
 50
2.3339651308
 51
92.1605018627
  0
LINE
  5
7E
330
1F
100
AcDbEntity
  8
SK1
  6
Continuous
100
AcDbLine
 10
6.46
 20
-10.0028801381
 30
0.0
 11
3.76
 21
-10.0028801381
 31
0.0
  0
ARC
  5
7F
330
1F
100
AcDbEntity
  8
SK1
  6
Continuous
100
AcDbCircle
 10
3.7527286759
 20
-10.1956317419
 30
0.0
 40
0.192888705972885
100
AcDbArc
 50
87.8396095414
 51
177.6659234645
  0
ARC
  5
80
330
1F
100
AcDbEntity
  8
SK1
  6
Continuous
100
AcDbCircle
 10
3.2674163507
 20
-11.5185080611
 30
0.0
 40
0.2929265801809849
100
AcDbArc
 50
260.3370530069
 51
357.227293464
  0
LINE
  5
81
330
1F
100
AcDbEntity
  8
SK1
  6
Continuous
100
AcDbLine
 10
3.2182480697
 20
-11.8072786647
 30
0.0
 11
-16.926410275
 21
-9.1900420083
 31
0.0
  0
LINE
  5
82
330
1F
100
AcDbEntity
  8
SK1
  6
Continuous
100
AcDbLine
 10
6.9198076211
 20
-12.1578205368
 30
0.0
 11
11.535
 21
-9.6946001503
 31
0.0
  0
ARC
  5
83
330
1F
100
AcDbEntity
  8
SK1
  6
Continuous
100
AcDbCircle
 10
11.4286092649
 20
-9.4890483289
 30
0.0
 40
0.2314531049803309
100
AcDbArc
 50
297.3654490734
 51
358.6698413101
  0
LINE
  5
84
330
1F
100
AcDbEntity
  8
SK1
  6
Continuous
100
AcDbLine
 10
11.66
 20
-9.4944211802
 30
0.0
 11
11.66
 21
-9.1882744343
 31
0.0
  0
ARC
  5
85
330
1F
100
AcDbEntity
  8
SK3
100
AcDbCircle
 10
11.2738205282
 20
-4.1884320992
 30
0.0
 40
0.3864688897085845
100
AcDbArc
 50
2.217533269
 51
92.0493934471
  0
LINE
  5
86
330
1F
100
AcDbEntity
  8
SK1
  6
Continuous
100
AcDbLine
 10
-22.34
 20
-9.0904101326
 30
0.0
 11
-22.34
 21
-6.710733361
 31
0.0
  0
LINE
  5
87
330
1F
100
AcDbEntity
  8
SK1
  6
Continuous
100
AcDbLine
 10
-22.0817519303
 20
-9.3877689182
 30
0.0
 11
-22.0817519303
 21
-6.9209977747
 31
0.0
  0
SPLINE
  5
88
330
1F
100
AcDbEntity
  8
SK1
  6
Continuous
100
AcDbSpline
210
0.0
220
0.0
230
1.0
 70
     8
 71
     3
 72
    10
 73
     6
 74
     0
 42
0.0000000227964674
 43
0.0000000001
 12
1.0
 22
0.0
 32
0.0
 13
1.0
 23
0.0
 33
0.0
 40
0.0
 40
0.0
 40
0.0
 40
0.0
 40
0.4999999999999996
 40
0.4999999999999996
 40
1.0
 40
1.0
 40
1.0
 40
1.0
 10
-22.08175193028802
 20
-9.387768918179047
 30
0.0
 10
-22.15330684542485
 20
-9.377703406154529
 30
0.0
 10
-22.21940242541913
 20
-9.341578186784924
 30
0.0
 10
-22.31354727266462
 20
-9.233107550985295
 30
0.0
 10
-22.33999999999999
 20
-9.161913121697813
 30
0.0
 10
-22.34000000000014
 20
-9.090410132627346
 30
0.0
  0
LINE
  5
89
330
1F
100
AcDbEntity
  8
SK3
100
AcDbLine
 10
-21.1890003701
 20
3.9497974632
 30
0.0
 11
-21.1890003701
 21
3.075771283
 31
0.0
  0
SPLINE
  5
8A
330
1F
100
AcDbEntity
  8
SK1
  6
Continuous
100
AcDbSpline
210
0.0
220
0.0
230
1.0
 70
     8
 71
     3
 72
    10
 73
     6
 74
     0
 42
0.0000000228000739
 43
0.0000000001
 12
1.0
 22
0.0
 32
0.0
 13
1.0
 23
0.0
 33
0.0
 40
0.0
 40
0.0
 40
0.0
 40
0.0
 40
0.5
 40
0.5
 40
1.0
 40
1.0
 40
1.0
 40
1.0
 10
-22.34000000000014
 20
9.090410132627316
 30
0.0
 10
-22.34000000000001
 20
9.161884936856623
 30
0.0
 10
-22.31326416133239
 20
9.233386588430832
 30
0.0
 10
-22.21985596458168
 20
9.341102701992272
 30
0.0
 10
-22.15328300875938
 20
9.377706759222022
 30
0.0
 10
-22.08175193028802
 20
9.38776891817904
 30
0.0
  0
SPLINE
  5
8B
330
1F
100
AcDbEntity
  8
SK1
  6
Continuous
100
AcDbSpline
210
0.0
220
0.0
230
1.0
 70
     8
 71
     3
 72
    11
 73
     7
 74
     0
 42
0.0000000005397559
 43
0.0000000001
 12
1.0
 22
0.0
 32
0.0
 13
1.0
 23
0.0
 33
0.0
 40
0.0
 40
0.0
 40
0.0
 40
0.0
 40
0.8904043968419015
 40
0.8904043968419015
 40
0.8904043968419015
 40
1.0
 40
1.0
 40
1.0
 40
1.0
 10
-22.08175193028802
 20
9.38776891817904
 30
0.0
 10
-16.63655230217699
 20
10.15373617881873
 30
0.0
 10
-11.19133014604001
 20
10.9195432925418
 30
0.0
 10
-5.74609657231322
 20
11.68526919775262
 30
0.0
 10
-5.075868909377588
 20
11.77951872386569
 30
0.0
 10
-4.405641062509899
 20
11.87376694200826
 30
0.0
 10
-3.735413044452093
 20
11.9680139427404
 30
0.0
  0
LINE
  5
8C
330
1F
100
AcDbEntity
  8
SK3
100
AcDbLine
 10
-22.34
 20
-4.6172359504
 30
0.0
 11
-21.1890003701
 21
-3.9497974632
 31
0.0
  0
LINE
  5
8D
330
1F
100
AcDbEntity
  8
SK3
100
AcDbLine
 10
-21.1890003701
 20
-3.9497974632
 30
0.0
 11
-2.6969918269
 21
-3.9497974632
 31
0.0
  0
LINE
  5
8E
330
1F
100
AcDbEntity
  8
SK3
100
AcDbLine
 10
-21.1890003701
 20
3.9497974632
 30
0.0
 11
-22.34
 21
4.6172359504
 31
0.0
  0
LINE
  5
8F
330
1F
100
AcDbEntity
  8
SK1
  6
Continuous
100
AcDbLine
 10
6.66
 20
-13.0
 30
0.0
 11
6.66
 21
-12.1578205368
 31
0.0
  0
LINE
  5
90
330
1F
100
AcDbEntity
  8
SK1
  6
Continuous
100
AcDbLine
 10
6.9198076211
 20
-13.0
 30
0.0
 11
6.9198076211
 21
-12.1578205368
 31
0.0
  0
LINE
  5
91
330
1F
100
AcDbEntity
  8
SK1
  6
Continuous
100
AcDbLine
 10
3.56
 20
-11.8388248292
 30
0.0
 11
3.56
 21
-12.6548894778
 31
0.0
  0
LINE
  5
92
330
1F
100
AcDbEntity
  8
SK1
  6
Continuous
100
AcDbLine
 10
3.2182480697
 20
-12.1134254106
 30
0.0
 11
3.2182480697
 21
-12.9519698985
 31
0.0
  0
LINE
  5
93
330
1F
100
AcDbEntity
  8
SK1
  6
Continuous
100
AcDbLine
 10
11.535
 20
-10.3354174377
 30
0.0
 11
11.535
 21
-9.6946001503
 31
0.0
  0
LINE
  5
94
330
1F
100
AcDbEntity
  8
SK1
  6
Continuous
100
AcDbLine
 10
11.66
 20
-10.1189110868
 30
0.0
 11
11.66
 21
-9.4944211802
 31
0.0
  0
LINE
  5
95
330
1F
100
AcDbEntity
  8
SK1
  6
Continuous
100
AcDbLine
 10
3.76
 20
-10.309026884
 30
0.0
 11
3.76
 21
-11.0
 31
0.0
  0
LINE
  5
96
330
1F
100
AcDbEntity
  8
SK1
  6
Continuous
100
AcDbLine
 10
6.46
 20
-11.0
 30
0.0
 11
6.46
 21
-10.309026884
 31
0.0
  0
LINE
  5
97
330
1F
100
AcDbEntity
  8
SK1
  6
Continuous
100
AcDbLine
 10
6.9198076211
 20
12.1578205368
 30
0.0
 11
6.9198076211
 21
13.0
 31
0.0
  0
LINE
  5
98
330
1F
100
AcDbEntity
  8
SK1
  6
Continuous
100
AcDbLine
 10
6.66
 20
12.1578205368
 30
0.0
 11
6.66
 21
13.0
 31
0.0
  0
LINE
  5
99
330
1F
100
AcDbEntity
  8
SK1
  6
Continuous
100
AcDbLine
 10
3.2182480697
 20
12.1134254106
 30
0.0
 11
3.2182480697
 21
12.9519698985
 31
0.0
  0
LINE
  5
9A
330
1F
100
AcDbEntity
  8
SK1
  6
Continuous
100
AcDbLine
 10
3.56
 20
11.8388248292
 30
0.0
 11
3.56
 21
12.6548894778
 31
0.0
  0
LINE
  5
9B
330
1F
100
AcDbEntity
  8
SK1
  6
Continuous
100
AcDbLine
 10
11.66
 20
9.4944211802
 30
0.0
 11
11.66
 21
10.1189110868
 31
0.0
  0
LINE
  5
9C
330
1F
100
AcDbEntity
  8
SK1
  6
Continuous
100
AcDbLine
 10
11.535
 20
10.3354174377
 30
0.0
 11
11.535
 21
9.6946001503
 31
0.0
  0
LINE
  5
9D
330
1F
100
AcDbEntity
  8
SK1
  6
Continuous
100
AcDbLine
 10
3.76
 20
10.309026884
 30
0.0
 11
3.76
 21
11.0
 31
0.0
  0
LINE
  5
9E
330
1F
100
AcDbEntity
  8
SK1
  6
Continuous
100
AcDbLine
 10
6.46
 20
10.309026884
 30
0.0
 11
6.46
 21
11.0
 31
0.0
  0
ARC
  5
9F
330
1F
100
AcDbEntity
  8
SK3
100
AcDbCircle
 10
11.2738302561
 20
3.8822748725
 30
0.0
 40
0.3864587636556236
100
AcDbArc
 50
267.9491096596
 51
357.7839636243
  0
ARC
  5
A0
330
1F
100
AcDbEntity
  8
SK1
  6
Continuous
100
AcDbCircle
 10
11.4314734589
 20
9.1846901038
 30
0.0
 40
0.2285546486553126
100
AcDbArc
 50
0.8985834844
 51
63.066126132
  0
LINE
  5
A1
330
1F
100
AcDbEntity
  8
SK1
  6
Continuous
100
AcDbLine
 10
11.535
 20
9.3884534044
 30
0.0
 11
6.9198076211
 21
11.8516737909
 31
0.0
  0
LINE
  5
A2
330
1F
100
AcDbEntity
  8
SK1
  6
Continuous
100
AcDbLine
 10
6.9198076211
 20
11.8516737909
 30
0.0
 11
6.66
 21
11.8516737909
 31
0.0
  0
ARC
  5
A3
330
1F
100
AcDbEntity
  8
SK1
  6
Continuous
100
AcDbCircle
 10
3.2674011629
 20
11.8246359052
 30
0.0
 40
0.2929426650656591
100
AcDbArc
 50
2.7762554562
 51
99.6593980728
  0
LINE
  5
A4
330
1F
100
AcDbEntity
  8
SK1
  6
Continuous
100
AcDbLine
 10
3.56
 20
11.8388248292
 30
0.0
 11
3.56
 21
11.5326780833
 31
0.0
  0
ARC
  5
A5
330
1F
100
AcDbEntity
  8
SK1
  6
Continuous
100
AcDbCircle
 10
3.7527241638
 20
10.5017736071
 30
0.0
 40
0.1928839989105152
100
AcDbArc
 50
182.332682528
 51
272.1617844655
  0
LINE
  5
A6
330
1F
100
AcDbEntity
  8
SK1
  6
Continuous
100
AcDbLine
 10
3.76
 20
10.309026884
 30
0.0
 11
6.46
 21
10.309026884
 31
0.0
  0
ARC
  5
A7
330
1F
100
AcDbEntity
  8
SK1
  6
Continuous
100
AcDbCircle
 10
6.4672770835
 20
10.5017722579
 30
0.0
 40
0.1928826977831465
100
AcDbArc
 50
267.8378301847
 51
357.6677028219
  0
LINE
  5
A8
330
1F
100
AcDbEntity
  8
SK1
  6
Continuous
100
AcDbLine
 10
6.66
 20
11.8516737909
 30
0.0
 11
6.66
 21
12.1578205368
 31
0.0
  0
LINE
  5
A9
330
1F
100
AcDbEntity
  8
SK3
100
AcDbLine
 10
11.26
 20
3.8022104067
 30
0.0
 11
-17.6296432668
 21
3.8022104067
 31
0.0
  0
ARC
  5
AA
330
1F
100
AcDbEntity
  8
SK1
  6
Continuous
100
AcDbCircle
 10
3.2674011629
 20
11.5184891593
 30
0.0
 40
0.2929426650656585
100
AcDbArc
 50
2.7762554562
 51
99.6593980728
  0
ARC
  5
AB
330
1F
100
AcDbEntity
  8
SK1
  6
Continuous
100
AcDbCircle
 10
3.7527241638
 20
10.1956268612
 30
0.0
 40
0.1928839989105148
100
AcDbArc
 50
182.332682528
 51
272.1617844655
  0
LINE
  5
AC
330
1F
100
AcDbEntity
  8
SK1
  6
Continuous
100
AcDbLine
 10
3.76
 20
10.0028801381
 30
0.0
 11
6.46
 21
10.0028801381
 31
0.0
  0
ARC
  5
AD
330
1F
100
AcDbEntity
  8
SK1
  6
Continuous
100
AcDbCircle
 10
6.4672770835
 20
10.195625512
 30
0.0
 40
0.1928826977831551
100
AcDbArc
 50
267.8378301847
 51
357.6677028219
  0
LINE
  5
AE
330
1F
100
AcDbEntity
  8
SK3
100
AcDbLine
 10
11.26
 20
3.4960636608
 30
0.0
 11
-17.6296432668
 21
3.4960636608
 31
0.0
  0
ARC
  5
AF
330
1F
100
AcDbEntity
  8
SK3
100
AcDbCircle
 10
11.2738302561
 20
4.1884216184
 30
0.0
 40
0.3864587636556271
100
AcDbArc
 50
267.9491096596
 51
357.7839636243
  0
LINE
  5
B0
330
1F
100
AcDbEntity
  8
SK1
  6
Continuous
100
AcDbLine
 10
11.66
 20
9.1882744343
 30
0.0
 11
11.66
 21
9.4944211802
 31
0.0
  0
ARC
  5
B1
330
1F
100
AcDbEntity
  8
SK1
  6
Continuous
100
AcDbCircle
 10
11.4314734589
 20
9.4908368497
 30
0.0
 40
0.2285546486553128
100
AcDbArc
 50
0.8985834844
 51
63.066126132
  0
LINE
  5
B2
330
1F
100
AcDbEntity
  8
SK1
  6
Continuous
100
AcDbLine
 10
11.535
 20
9.6946001503
 30
0.0
 11
6.9198076211
 21
12.1578205368
 31
0.0
  0
LINE
  5
B3
330
1F
100
AcDbEntity
  8
SK1
  6
Continuous
100
AcDbLine
 10
6.9198076211
 20
12.1578205368
 30
0.0
 11
6.66
 21
12.1578205368
 31
0.0
  0
LINE
  5
B4
330
1F
100
AcDbEntity
  8
SK1
  6
Continuous
100
AcDbLine
 10
-22.34
 20
6.710733361
 30
0.0
 11
-22.34
 21
9.0904101326
 31
0.0
  0
LINE
  5
B5
330
1F
100
AcDbEntity
  8
SK1
  6
Continuous
100
AcDbLine
 10
-22.0817519303
 20
6.9209977747
 30
0.0
 11
-22.0817519303
 21
9.3877689182
 31
0.0
  0
LINE
  5
B6
330
1F
100
AcDbEntity
  8
SK3
100
AcDbLine
 10
-21.1890003701
 20
2.510085858
 30
0.0
 11
-21.1890003701
 21
0.4
 31
0.0
  0
SPLINE
  5
B7
330
1F
100
AcDbEntity
  8
SK1
  6
Continuous
100
AcDbSpline
210
0.0
220
0.0
230
1.0
 70
     8
 71
     3
 72
    10
 73
     6
 74
     0
 42
0.0000000269127736
 43
0.0000000001
 12
1.0
 22
0.0
 32
0.0
 13
1.0
 23
0.0
 33
0.0
 40
0.0
 40
0.0
 40
0.0
 40
0.0
 40
0.5
 40
0.5
 40
1.0
 40
1.0
 40
1.0
 40
1.0
 10
-22.34000000000014
 20
6.710733361022293
 30
0.0
 10
-22.34000000000001
 20
6.761273679776796
 30
0.0
 10
-22.31326416133238
 20
6.811832982470978
 30
0.0
 10
-22.2198559645817
 20
6.887999776813319
 30
0.0
 10
-22.15328300875939
 20
6.91388275389943
 30
0.0
 10
-22.08175193028802
 20
6.920997774731312
 30
0.0
  0
SPLINE
  5
B8
330
1F
100
AcDbEntity
  8
SK1
  6
Continuous
100
AcDbSpline
210
0.0
220
0.0
230
1.0
 70
     8
 71
     3
 72
    11
 73
     7
 74
     0
 42
0.0000000005423924
 43
0.0000000001
 12
1.0
 22
0.0
 32
0.0
 13
1.0
 23
0.0
 33
0.0
 40
0.0
 40
0.0
 40
0.0
 40
0.0
 40
0.8904043968419018
 40
0.8904043968419018
 40
0.8904043968419018
 40
1.0
 40
1.0
 40
1.0
 40
1.0
 10
-22.08175193028802
 20
6.920997774731312
 30
0.0
 10
-16.63655230217699
 20
7.462618418896523
 30
0.0
 10
-11.19133014604001
 20
8.004125822091005
 30
0.0
 10
-5.746096572313224
 20
8.54557580219578
 30
0.0
 10
-5.075868909377592
 20
8.612220281233949
 30
0.0
 10
-4.405641062509902
 20
8.678863835397307
 30
0.0
 10
-3.735413044452098
 20
8.745506528721497
 30
0.0
  0
LINE
  5
B9
330
1F
100
AcDbEntity
  8
SK3
100
AcDbLine
 10
-21.1890003701
 20
3.075771283
 30
0.0
 11
-22.34
 21
3.5477215634
 31
0.0
  0
LINE
  5
BA
330
1F
100
AcDbEntity
  8
SK1
  6
Continuous
100
AcDbLine
 10
-22.34
 20
6.1450479361
 30
0.0
 11
-22.34
 21
6.710733361
 31
0.0
  0
SPLINE
  5
BB
330
1F
100
AcDbEntity
  8
SK1
  6
Continuous
100
AcDbSpline
210
0.0
220
0.0
230
1.0
 70
     8
 71
     3
 72
    10
 73
     6
 74
     0
 42
0.0000000269127736
 43
0.0000000001
 12
1.0
 22
0.0
 32
0.0
 13
1.0
 23
0.0
 33
0.0
 40
0.0
 40
0.0
 40
0.0
 40
0.0
 40
0.5
 40
0.5
 40
1.0
 40
1.0
 40
1.0
 40
1.0
 10
-22.34000000000014
 20
6.145047936073056
 30
0.0
 10
-22.33999999999999
 20
6.195588254827508
 30
0.0
 10
-22.31326416133238
 20
6.246147557521753
 30
0.0
 10
-22.21985596458174
 20
6.322314351864056
 30
0.0
 10
-22.15328300875938
 20
6.348197328950191
 30
0.0
 10
-22.08175193028802
 20
6.355312349782075
 30
0.0
  0
SPLINE
  5
BC
330
1F
100
AcDbEntity
  8
SK1
  6
Continuous
100
AcDbSpline
210
0.0
220
0.0
230
1.0
 70
     8
 71
     3
 72
    11
 73
     7
 74
     0
 42
0.0000000005423924
 43
0.0000000001
 12
1.0
 22
0.0
 32
0.0
 13
1.0
 23
0.0
 33
0.0
 40
0.0
 40
0.0
 40
0.0
 40
0.0
 40
0.8904043968419018
 40
0.8904043968419018
 40
0.8904043968419018
 40
1.0
 40
1.0
 40
1.0
 40
1.0
 10
-22.08175193028802
 20
6.355312349782075
 30
0.0
 10
-16.63655230217699
 20
6.896932993947283
 30
0.0
 10
-11.19133014604001
 20
7.438440397141767
 30
0.0
 10
-5.74609657231322
 20
7.979890377246543
 30
0.0
 10
-5.075868909377588
 20
8.04653485628471
 30
0.0
 10
-4.405641062509899
 20
8.113178410448066
 30
0.0
 10
-3.735413044452095
 20
8.179821103772262
 30
0.0
  0
LINE
  5
BD
330
1F
100
AcDbEntity
  8
SK3
100
AcDbLine
 10
-21.1890003701
 20
2.510085858
 30
0.0
 11
-22.34
 21
2.9820361384
 31
0.0
  0
LINE
  5
BE
330
1F
100
AcDbEntity
  8
SK1
  6
Continuous
100
AcDbLine
 10
6.9198076211
 20
5.3420809011
 30
0.0
 11
6.9198076211
 21
11.8516737909
 31
0.0
  0
LINE
  5
BF
330
1F
100
AcDbEntity
  8
SK1
  6
Continuous
100
AcDbLine
 10
6.66
 20
5.3420809011
 30
0.0
 11
6.66
 21
11.8516737909
 31
0.0
  0
LINE
  5
C0
330
1F
100
AcDbEntity
  8
SK1
  6
Continuous
100
AcDbLine
 10
3.2182480697
 20
5.3236918378
 30
0.0
 11
3.2182480697
 21
11.8072786647
 31
0.0
  0
LINE
  5
C1
330
1F
100
AcDbEntity
  8
SK1
  6
Continuous
100
AcDbLine
 10
3.56
 20
5.2099485527
 30
0.0
 11
3.56
 21
11.5326780833
 31
0.0
  0
LINE
  5
C2
330
1F
100
AcDbEntity
  8
SK1
  6
Continuous
100
AcDbLine
 10
11.66
 20
4.2388647656
 30
0.0
 11
11.66
 21
9.1882744343
 31
0.0
  0
LINE
  5
C3
330
1F
100
AcDbEntity
  8
SK1
  6
Continuous
100
AcDbLine
 10
11.535
 20
4.3217816099
 30
0.0
 11
11.535
 21
9.3884534044
 31
0.0
  0
LINE
  5
C4
330
1F
100
AcDbEntity
  8
SK1
  6
Continuous
100
AcDbLine
 10
3.76
 20
4.5762854961
 30
0.0
 11
3.76
 21
10.0028801381
 31
0.0
  0
LINE
  5
C5
330
1F
100
AcDbEntity
  8
SK1
  6
Continuous
100
AcDbLine
 10
6.46
 20
4.5762854961
 30
0.0
 11
6.46
 21
10.0028801381
 31
0.0
  0
SPLINE
  5
C6
330
1F
100
AcDbEntity
  8
SK3
100
AcDbSpline
210
0.0
220
0.0
230
1.0
 70
     8
 71
     3
 72
    10
 73
     6
 74
     0
 42
0.0000000213783247
 43
0.0000000001
 12
1.0
 22
0.0
 32
0.0
 13
1.0
 23
0.0
 33
0.0
 40
0.0
 40
0.0
 40
0.0
 40
0.0
 40
0.5
 40
0.5
 40
1.0
 40
1.0
 40
1.0
 40
1.0
 10
11.26
 20
1.141970237345193
 30
0.0
 10
11.3659764927613
 20
1.141970237345194
 30
0.0
 10
11.46955202916885
 20
1.158762802365701
 30
0.0
 10
11.61695119920017
 20
1.215606296835657
 30
0.0
 10
11.66000000000001
 20
1.255710011389927
 30
0.0
 10
11.66
 20
1.295754404384415
 30
0.0
  0
SPLINE
  5
C7
330
1F
100
AcDbEntity
  8
SK1
  6
Continuous
100
AcDbSpline
210
0.0
220
0.0
230
1.0
 70
     8
 71
     3
 72
     8
 73
     4
 74
     0
 42
0.0000000587427727
 43
0.0000000001
 12
1.0
 22
0.0
 32
0.0
 13
1.0
 23
0.0
 33
0.0
 40
0.0
 40
0.0
 40
0.0
 40
0.0
 40
1.0
 40
1.0
 40
1.0
 40
1.0
 10
11.66
 20
3.499761139610457
 30
0.0
 10
11.66
 20
3.533298806959791
 30
0.0
 10
11.61129689683813
 20
3.565808126893488
 30
0.0
 10
11.535
 20
3.582677983937335
 30
0.0
  0
LINE
  5
C8
330
1F
100
AcDbEntity
  8
SK1
  6
Continuous
100
AcDbLine
 10
11.535
 20
3.5826779839
 30
0.0
 11
6.9198076211
 21
4.6029772751
 31
0.0
  0
LINE
  5
C9
330
1F
100
AcDbEntity
  8
SK1
  6
Continuous
100
AcDbLine
 10
6.9198076211
 20
4.6029772751
 30
0.0
 11
6.66
 21
4.6029772751
 31
0.0
  0
SPLINE
  5
CA
330
1F
100
AcDbEntity
  8
SK1
  6
Continuous
100
AcDbSpline
210
0.0
220
0.0
230
1.0
 70
     8
 71
     3
 72
    10
 73
     6
 74
     0
 42
0.0000000253792307
 43
0.0000000001
 12
1.0
 22
0.0
 32
0.0
 13
1.0
 23
0.0
 33
0.0
 40
0.0
 40
0.0
 40
0.0
 40
0.0
 40
0.5
 40
0.5
 40
1.0
 40
1.0
 40
1.0
 40
1.0
 10
3.218248069711986
 20
5.323691837772867
 30
0.0
 10
3.303749195478798
 20
5.328292509348331
 30
0.0
 10
3.392574993682196
 20
5.318016255956048
 30
0.0
 10
3.521053046577927
 20
5.275257322739528
 30
0.0
 10
3.560000000000006
 20
5.242864836499534
 30
0.0
 10
3.56
 20
5.209948552723159
 30
0.0
  0
LINE
  5
CB
330
1F
100
AcDbEntity
  8
SK1
  6
Continuous
100
AcDbLine
 10
3.56
 20
5.2099485527
 30
0.0
 11
3.56
 21
4.6528719302
 31
0.0
  0
SPLINE
  5
CC
330
1F
100
AcDbEntity
  8
SK1
  6
Continuous
100
AcDbSpline
210
0.0
220
0.0
230
1.0
 70
     8
 71
     3
 72
    10
 73
     6
 74
     0
 42
0.0000000427802756
 43
0.0000000001
 12
1.0
 22
0.0
 32
0.0
 13
1.0
 23
0.0
 33
0.0
 40
0.0
 40
0.0
 40
0.0
 40
0.0
 40
0.5
 40
0.5
 40
1.0
 40
1.0
 40
1.0
 40
1.0
 10
3.559999999997673
 20
4.652871930211929
 30
0.0
 10
3.560000000000108
 20
4.632908142912189
 30
0.0
 10
3.581200329542136
 20
4.613046364442455
 30
0.0
 10
3.655802726150724
 20
4.58444738807901
 30
0.0
 10
3.707160895659192
 20
4.57628549612568
 30
0.0
 10
3.760000000000006
 20
4.576285496125989
 30
0.0
  0
LINE
  5
CD
330
1F
100
AcDbEntity
  8
SK1
  6
Continuous
100
AcDbLine
 10
3.76
 20
4.5762854961
 30
0.0
 11
6.46
 21
4.5762854961
 31
0.0
  0
SPLINE
  5
CE
330
1F
100
AcDbEntity
  8
SK1
  6
Continuous
100
AcDbSpline
210
0.0
220
0.0
230
1.0
 70
     8
 71
     3
 72
    10
 73
     6
 74
     0
 42
0.0000000427867299
 43
0.0000000001
 12
1.0
 22
0.0
 32
0.0
 13
1.0
 23
0.0
 33
0.0
 40
0.0
 40
0.0
 40
0.0
 40
0.0
 40
0.5
 40
0.5
 40
1.0
 40
1.0
 40
1.0
 40
1.0
 10
6.460000000000007
 20
4.576285496125989
 30
0.0
 10
6.51287861641325
 20
4.576285496125989
 30
0.0
 10
6.564599852953434
 20
4.584602710151129
 30
0.0
 10
6.638387171863578
 20
4.612887239847582
 30
0.0
 10
6.66000000000001
 20
4.632890888076781
 30
0.0
 10
6.660000000000006
 20
4.65287193021203
 30
0.0
  0
LINE
  5
CF
330
1F
100
AcDbEntity
  8
SK1
  6
Continuous
100
AcDbLine
 10
6.66
 20
4.6528719302
 30
0.0
 11
6.66
 21
5.3420809011
 31
0.0
  0
LINE
  5
D0
330
1F
100
AcDbEntity
  8
SK3
100
AcDbLine
 10
11.26
 20
1.8810738634
 30
0.0
 11
-17.6296432668
 21
1.8810738634
 31
0.0
  0
SPLINE
  5
D1
330
1F
100
AcDbEntity
  8
SK1
  6
Continuous
100
AcDbSpline
210
0.0
220
0.0
230
1.0
 70
     8
 71
     3
 72
    10
 73
     6
 74
     0
 42
0.0000000253792307
 43
0.0000000001
 12
1.0
 22
0.0
 32
0.0
 13
1.0
 23
0.0
 33
0.0
 40
0.0
 40
0.0
 40
0.0
 40
0.0
 40
0.5
 40
0.5
 40
1.0
 40
1.0
 40
1.0
 40
1.0
 10
3.218248069711986
 20
4.584588211763838
 30
0.0
 10
3.303749195478798
 20
4.589188883339297
 30
0.0
 10
3.392574993682196
 20
4.578912629947019
 30
0.0
 10
3.521053046577927
 20
4.536153696730497
 30
0.0
 10
3.560000000000006
 20
4.503761210490504
 30
0.0
 10
3.56
 20
4.470844926714133
 30
0.0
  0
SPLINE
  5
D2
330
1F
100
AcDbEntity
  8
SK1
  6
Continuous
100
AcDbSpline
210
0.0
220
0.0
230
1.0
 70
     8
 71
     3
 72
    10
 73
     6
 74
     0
 42
0.0000000427802756
 43
0.0000000001
 12
1.0
 22
0.0
 32
0.0
 13
1.0
 23
0.0
 33
0.0
 40
0.0
 40
0.0
 40
0.0
 40
0.0
 40
0.5
 40
0.5
 40
1.0
 40
1.0
 40
1.0
 40
1.0
 10
3.559999999997673
 20
3.913768304202899
 30
0.0
 10
3.560000000000108
 20
3.893804516903161
 30
0.0
 10
3.58120032954214
 20
3.873942738433423
 30
0.0
 10
3.655802726150726
 20
3.845343762069978
 30
0.0
 10
3.707160895659195
 20
3.837181870116655
 30
0.0
 10
3.760000000000006
 20
3.837181870116958
 30
0.0
  0
LINE
  5
D3
330
1F
100
AcDbEntity
  8
SK1
  6
Continuous
100
AcDbLine
 10
3.76
 20
3.8371818701
 30
0.0
 11
6.46
 21
3.8371818701
 31
0.0
  0
SPLINE
  5
D4
330
1F
100
AcDbEntity
  8
SK1
  6
Continuous
100
AcDbSpline
210
0.0
220
0.0
230
1.0
 70
     8
 71
     3
 72
    10
 73
     6
 74
     0
 42
0.0000000427867299
 43
0.0000000001
 12
1.0
 22
0.0
 32
0.0
 13
1.0
 23
0.0
 33
0.0
 40
0.0
 40
0.0
 40
0.0
 40
0.0
 40
0.5
 40
0.5
 40
1.0
 40
1.0
 40
1.0
 40
1.0
 10
6.460000000000007
 20
3.837181870116959
 30
0.0
 10
6.51287861641325
 20
3.837181870116959
 30
0.0
 10
6.564599852953438
 20
3.845499084142099
 30
0.0
 10
6.638387171863578
 20
3.873783613838551
 30
0.0
 10
6.66000000000001
 20
3.893787262067749
 30
0.0
 10
6.660000000000006
 20
3.913768304203003
 30
0.0
  0
LINE
  5
D5
330
1F
100
AcDbEntity
  8
SK3
100
AcDbLine
 10
11.26
 20
1.1419702373
 30
0.0
 11
-17.6296432668
 21
1.1419702373
 31
0.0
  0
SPLINE
  5
D6
330
1F
100
AcDbEntity
  8
SK3
100
AcDbSpline
210
0.0
220
0.0
230
1.0
 70
     8
 71
     3
 72
    10
 73
     6
 74
     0
 42
0.0000000213783247
 43
0.0000000001
 12
1.0
 22
0.0
 32
0.0
 13
1.0
 23
0.0
 33
0.0
 40
0.0
 40
0.0
 40
0.0
 40
0.0
 40
0.4999999999999999
 40
0.4999999999999999
 40
1.0
 40
1.0
 40
1.0
 40
1.0
 10
11.26
 20
1.881073863354223
 30
0.0
 10
11.3659764927613
 20
1.881073863354223
 30
0.0
 10
11.46955202916885
 20
1.89786642837473
 30
0.0
 10
11.61695119920017
 20
1.954709922844686
 30
0.0
 10
11.66000000000001
 20
1.994813637398958
 30
0.0
 10
11.66
 20
2.034858030393444
 30
0.0
  0
LINE
  5
D7
330
1F
100
AcDbEntity
  8
SK1
  6
Continuous
100
AcDbLine
 10
11.66
 20
3.4997611396
 30
0.0
 11
11.66
 21
4.2388647656
 31
0.0
  0
SPLINE
  5
D8
330
1F
100
AcDbEntity
  8
SK1
  6
Continuous
100
AcDbSpline
210
0.0
220
0.0
230
1.0
 70
     8
 71
     3
 72
     8
 73
     4
 74
     0
 42
0.0000000587427727
 43
0.0000000001
 12
1.0
 22
0.0
 32
0.0
 13
1.0
 23
0.0
 33
0.0
 40
0.0
 40
0.0
 40
0.0
 40
0.0
 40
1.0
 40
1.0
 40
1.0
 40
1.0
 10
11.66
 20
4.238864765619486
 30
0.0
 10
11.66
 20
4.272402432968755
 30
0.0
 10
11.61129689683813
 20
4.304911752902516
 30
0.0
 10
11.535
 20
4.321781609946364
 30
0.0
  0
LINE
  5
D9
330
1F
100
AcDbEntity
  8
SK1
  6
Continuous
100
AcDbLine
 10
11.535
 20
4.3217816099
 30
0.0
 11
6.9198076211
 21
5.3420809011
 31
0.0
  0
LINE
  5
DA
330
1F
100
AcDbEntity
  8
SK1
  6
Continuous
100
AcDbLine
 10
6.9198076211
 20
5.3420809011
 30
0.0
 11
6.66
 21
5.3420809011
 31
0.0
  0
LINE
  5
DB
330
1F
100
AcDbEntity
  8
SK1
  6
Continuous
100
AcDbLine
 10
-22.34
 20
0.4
 30
0.0
 11
-22.34
 21
6.1450479361
 31
0.0
  0
LINE
  5
DC
330
1F
100
AcDbEntity
  8
SK1
  6
Continuous
100
AcDbLine
 10
-22.0817519303
 20
0.4
 30
0.0
 11
-22.0817519303
 21
6.3553123498
 31
0.0
  0
LINE
  5
DD
330
1F
100
AcDbEntity
  8
SK3
100
AcDbLine
 10
-21.1890003701
 20
-0.4
 30
0.0
 11
-21.1890003701
 21
-2.510085858
 31
0.0
  0
LINE
  5
DE
330
1F
100
AcDbEntity
  8
SK1
  6
Continuous
100
AcDbLine
 10
-22.34
 20
0.4
 30
0.0
 11
-22.0817519303
 21
0.4
 31
0.0
  0
LINE
  5
DF
330
1F
100
AcDbEntity
  8
SK1
  6
Continuous
100
AcDbLine
 10
-22.0817519303
 20
0.4
 30
0.0
 11
-3.7354130445
 21
0.4
 31
0.0
  0
LINE
  5
E0
330
1F
100
AcDbEntity
  8
SK1
  6
Continuous
100
AcDbLine
 10
-22.34
 20
-0.4
 30
0.0
 11
-22.0817519303
 21
-0.4
 31
0.0
  0
LINE
  5
E1
330
1F
100
AcDbEntity
  8
SK1
  6
Continuous
100
AcDbLine
 10
-22.0817519303
 20
-0.4
 30
0.0
 11
-3.7354130445
 21
-0.4
 31
0.0
  0
LINE
  5
E2
330
1F
100
AcDbEntity
  8
SK3
100
AcDbLine
 10
-17.6296432668
 20
-1.1419702373
 30
0.0
 11
11.26
 21
-1.1419702373
 31
0.0
  0
SPLINE
  5
E3
330
1F
100
AcDbEntity
  8
SK1
  6
Continuous
100
AcDbSpline
210
0.0
220
0.0
230
1.0
 70
     8
 71
     3
 72
    35
 73
    31
 74
     0
 42
0.0000000080816639
 43
0.0000000001
 12
1.0
 22
0.0
 32
0.0
 13
1.0
 23
0.0
 33
0.0
 40
0.0
 40
0.0
 40
0.0
 40
0.0
 40
0.1134251203605287
 40
0.1134251203605287
 40
0.1134251203605287
 40
0.2270448956076113
 40
0.2270448956076113
 40
0.2270448956076113
 40
0.3375525299923994
 40
0.3375525299923994
 40
0.3375525299923994
 40
0.4436123154059478
 40
0.4436123154059478
 40
0.4436123154059478
 40
0.5001943358043288
 40
0.5001943358043288
 40
0.5001943358043288
 40
0.6025718788280243
 40
0.6025718788280243
 40
0.6025718788280243
 40
0.7048622826146601
 40
0.7048622826146601
 40
0.7048622826146601
 40
0.8085177663571332
 40
0.8085177663571332
 40
0.8085177663571332
 40
0.9156387561634702
 40
0.9156387561634702
 40
0.9156387561634702
 40
1.0
 40
1.0
 40
1.0
 40
1.0
 10
-16.92641027504489
 20
-4.239596918716485
 30
0.0
 10
-16.97418338792762
 20
-4.237025545092667
 30
0.0
 10
-17.02266979657091
 20
-4.227006356904933
 30
0.0
 10
-17.06786828878674
 20
-4.210154945025272
 30
0.0
 10
-17.11311117396345
 20
-4.193286982061017
 30
0.0
 10
-17.15633486494087
 20
-4.169060323510559
 30
0.0
 10
-17.19357317105913
 20
-4.139285345794778
 30
0.0
 10
-17.22979207083587
 20
-4.110325464259941
 30
0.0
 10
-17.26138521019838
 20
-4.075251825705292
 30
0.0
 10
-17.28527580782684
 20
-4.03698641085605
 30
0.0
 10
-17.30821952727531
 20
-4.000237604629682
 30
0.0
 10
-17.32471136232711
 20
-3.959481679113386
 30
0.0
 10
-17.33314397584146
 20
-3.918219431729708
 30
0.0
 10
-17.33769177696157
 20
-3.895966248354182
 30
0.0
 10
-17.33999999999999
 20
-3.873302295204457
 30
0.0
 10
-17.33999999999999
 20
-3.850827256408605
 30
0.0
 10
-17.33999999999999
 20
-3.810566507189561
 30
0.0
 10
-17.33244045748356
 20
-3.770043184192145
 30
0.0
 10
-17.31802614799303
 20
-3.732647902880422
 30
0.0
 10
-17.30361865999355
 20
-3.695270318675679
 30
0.0
 10
-17.28198757287048
 20
-3.66000164148151
 30
0.0
 10
-17.25505043752
 20
-3.629630989714005
 30
0.0
 10
-17.22774723689759
 20
-3.598847612511772
 30
0.0
 10
-17.19428968317309
 20
-3.572273860377516
 30
0.0
 10
-17.15746020563424
 20
-3.551829644960567
 30
0.0
 10
-17.11940649113452
 20
-3.530705849874775
 30
0.0
 10
-17.07676917987024
 20
-3.515560361867677
 30
0.0
 10
-17.03293478755094
 20
-3.507361565306205
 30
0.0
 10
-16.99823368926005
 20
-3.500871062523042
 30
0.0
 10
-16.96217039816761
 20
-3.498568514692508
 30
0.0
 10
-16.92641027504489
 20
-3.500493292707455
 30
0.0
  0
SPLINE
  5
E4
330
1F
100
AcDbEntity
  8
SK3
100
AcDbSpline
210
0.0
220
0.0
230
1.0
 70
     8
 71
     3
 72
    35
 73
    31
 74
     0
 42
0.0000000082366331
 43
0.0000000001
 12
1.0
 22
0.0
 32
0.0
 13
1.0
 23
0.0
 33
0.0
 40
0.0
 40
0.0
 40
0.0
 40
0.0
 40
0.10707389138989
 40
0.10707389138989
 40
0.10707389138989
 40
0.2141506868559224
 40
0.2141506868559224
 40
0.2141506868559224
 40
0.3212262293590581
 40
0.3212262293590581
 40
0.3212262293590581
 40
0.428593051925924
 40
0.428593051925924
 40
0.428593051925924
 40
0.4999928379379771
 40
0.4999928379379771
 40
0.4999928379379771
 40
0.6074096316026876
 40
0.6074096316026876
 40
0.6074096316026876
 40
0.7148228337616017
 40
0.7148228337616017
 40
0.7148228337616017
 40
0.8222793306397115
 40
0.8222793306397115
 40
0.8222793306397115
 40
0.9295794165327202
 40
0.9295794165327202
 40
0.9295794165327202
 40
1.0
 40
1.0
 40
1.0
 40
1.0
 10
-17.62964326683029
 20
-1.141970237345202
 30
0.0
 10
-17.67426147957942
 20
-1.141970237345202
 30
0.0
 10
-17.71949673273283
 20
-1.149341400345985
 30
0.0
 10
-17.76160074198618
 20
-1.163459155434436
 30
0.0
 10
-17.8037059531223
 20
-1.1775773135222
 30
0.0
 10
-17.84383765932566
 20
-1.198826241928521
 30
0.0
 10
-17.87868526390808
 20
-1.225332218394815
 30
0.0
 10
-17.91353430265035
 20
-1.251839285719659
 30
0.0
 10
-17.94406027602594
 20
-1.284324073001191
 30
0.0
 10
-17.96777465672587
 20
-1.319971691057306
 30
0.0
 10
-17.99155200440756
 20
-1.355713961507876
 30
0.0
 10
-18.00913742542431
 20
-1.395615207652993
 30
0.0
 10
-18.01909353715481
 20
-1.436278581263341
 30
0.0
 10
-18.02576699349496
 20
-1.463534728620607
 30
0.0
 10
-18.02916703272589
 20
-1.491547440931408
 30
0.0
 10
-18.02916703272589
 20
-1.519253226489411
 30
0.0
 10
-18.02916703272589
 20
-1.560605592625614
 30
0.0
 10
-18.02147595639408
 20
-1.602222523048999
 30
0.0
 10
-18.00672430532216
 20
-1.6407035727249
 30
0.0
 10
-17.99197294965634
 20
-1.679183851806633
 30
0.0
 10
-17.96975439188315
 20
-1.715594433006293
 30
0.0
 10
-17.94188556816355
 20
-1.747044577567854
 30
0.0
 10
-17.91400664003335
 20
-1.778506125020951
 30
0.0
 10
-17.87969990543268
 20
-1.805879228397406
 30
0.0
 10
-17.84179066686096
 20
-1.827032103411506
 30
0.0
 10
-17.80393692363952
 20
-1.848154012722978
 30
0.0
 10
-17.7614428710619
 20
-1.863662235767107
 30
0.0
 10
-17.71784004756197
 20
-1.872378735000297
 30
0.0
 10
-17.68898979245271
 20
-1.878146096064371
 30
0.0
 10
-17.65922560998265
 20
-1.881073863354231
 30
0.0
 10
-17.62964326683029
 20
-1.881073863354231
 30
0.0
  0
LINE
  5
E5
330
1F
100
AcDbEntity
  8
SK1
  6
Continuous
100
AcDbLine
 10
-3.7354130445
 20
-8.1798211038
 30
0.0
 11
-22.0817519303
 21
-6.3553123498
 31
0.0
  0
SPLINE
  5
E6
330
1F
100
AcDbEntity
  8
SK3
100
AcDbSpline
210
0.0
220
0.0
230
1.0
 70
     8
 71
     3
 72
    35
 73
    31
 74
     0
 42
0.0000000092181948
 43
0.0000000001
 12
1.0
 22
0.0
 32
0.0
 13
1.0
 23
0.0
 33
0.0
 40
0.0
 40
0.0
 40
0.0
 40
0.0
 40
0.107073891389889
 40
0.107073891389889
 40
0.107073891389889
 40
0.2141506868559174
 40
0.2141506868559174
 40
0.2141506868559174
 40
0.3212262293590545
 40
0.3212262293590545
 40
0.3212262293590545
 40
0.428593051925922
 40
0.428593051925922
 40
0.428593051925922
 40
0.4999928379379727
 40
0.4999928379379727
 40
0.4999928379379727
 40
0.6074096316026804
 40
0.6074096316026804
 40
0.6074096316026804
 40
0.7148228337615926
 40
0.7148228337615926
 40
0.7148228337615926
 40
0.8222793306397025
 40
0.8222793306397025
 40
0.8222793306397025
 40
0.9295794165327113
 40
0.9295794165327113
 40
0.9295794165327113
 40
1.0
 40
1.0
 40
1.0
 40
1.0
 10
-2.696991826915914
 20
-3.075771282989813
 30
0.0
 10
-2.652373614166766
 20
-3.075771282989813
 30
0.0
 10
-2.607138361013355
 20
-3.07092440432107
 30
0.0
 10
-2.565034351760011
 20
-3.061523786213889
 30
0.0
 10
-2.522929140623884
 20
-3.052122899760742
 30
0.0
 10
-2.482797434420524
 20
-3.037901601900115
 30
0.0
 10
-2.447949829838111
 20
-3.019811967969788
 30
0.0
 10
-2.41310079109584
 20
-3.001721589557103
 30
0.0
 10
-2.382574817720244
 20
-2.979254287189519
 30
0.0
 10
-2.358860437020317
 20
-2.954001830490101
 30
0.0
 10
-2.33508308933862
 20
-2.928682322873322
 30
0.0
 10
-2.317497668321872
 20
-2.8998536096319
 30
0.0
 10
-2.307541556591377
 20
-2.869713374697394
 30
0.0
 10
-2.30086810025123
 20
-2.84951075470257
 30
0.0
 10
-2.297468061020313
 20
-2.828419011538015
 30
0.0
 10
-2.297468061020313
 20
-2.807213921310602
 30
0.0
 10
-2.297468061020313
 20
-2.775564190491762
 30
0.0
 10
-2.305159137352108
 20
-2.742913565186542
 30
0.0
 10
-2.319910788424022
 20
-2.712052417055051
 30
0.0
 10
-2.334662144089851
 20
-2.681191886926994
 30
0.0
 10
-2.356880701863037
 20
-2.651276877040559
 30
0.0
 10
-2.384749525582633
 20
-2.625002056546027
 30
0.0
 10
-2.412628453712831
 20
-2.598717709579282
 30
0.0
 10
-2.446935188313508
 20
-2.575362351399381
 30
0.0
 10
-2.484844426885228
 20
-2.557137244735284
 30
0.0
 10
-2.522698170106664
 20
-2.538938817812496
 30
0.0
 10
-2.565192222684292
 20
-2.52536564142711
 30
0.0
 10
-2.608795046184222
 20
-2.517722804272878
 30
0.0
 10
-2.637645301293477
 20
-2.512665842728668
 30
0.0
 10
-2.667409483763535
 20
-2.510085858040574
 30
0.0
 10
-2.696991826915914
 20
-2.510085858040574
 30
0.0
  0
SPLINE
  5
E7
330
1F
100
AcDbEntity
  8
SK1
  6
Continuous
100
AcDbSpline
210
0.0
220
0.0
230
1.0
 70
     8
 71
     3
 72
    35
 73
    31
 74
     0
 42
0.0000000092524145
 43
0.0000000001
 12
1.0
 22
0.0
 32
0.0
 13
1.0
 23
0.0
 33
0.0
 40
0.0
 40
0.0
 40
0.0
 40
0.0
 40
0.1075456917067818
 40
0.1075456917067818
 40
0.1075456917067818
 40
0.2150989301385756
 40
0.2150989301385756
 40
0.2150989301385756
 40
0.322548403391312
 40
0.322548403391312
 40
0.322548403391312
 40
0.4299452396167556
 40
0.4299452396167556
 40
0.4299452396167556
 40
0.5000022276408209
 40
0.5000022276408209
 40
0.5000022276408209
 40
0.6074000166486768
 40
0.6074000166486768
 40
0.6074000166486768
 40
0.714798073743761
 40
0.714798073743761
 40
0.714798073743761
 40
0.8221915703467344
 40
0.8221915703467344
 40
0.8221915703467344
 40
0.9295934992251633
 40
0.9295934992251633
 40
0.9295934992251633
 40
1.0
 40
1.0
 40
1.0
 40
1.0
 10
-3.735413044452088
 20
-8.179821103772273
 30
0.0
 10
-3.691029899622519
 20
-8.184234247105508
 30
0.0
 10
-3.646070591160167
 20
-8.19435379621311
 30
0.0
 10
-3.604251747311368
 20
-8.209323061784339
 30
0.0
 10
-3.562431094453564
 20
-8.224292974899443
 30
0.0
 10
-3.522597455293369
 20
-8.244524280435815
 30
0.0
 10
-3.488043905251077
 20
-8.268271189928203
 30
0.0
 10
-3.453523039496958
 20
-8.291995637160358
 30
0.0
 10
-3.423318615637255
 20
-8.319879670680796
 30
0.0
 10
-3.399916600976036
 20
-8.349529297561865
 30
0.0
 10
-3.376525725949498
 20
-8.379164810871234
 30
0.0
 10
-3.359284309190155
 20
-8.411377977928222
 30
0.0
 10
-3.349605836744445
 20
-8.443442218482145
 30
0.0
 10
-3.343240640716422
 20
-8.464529758665813
 30
0.0
 10
-3.339999999999971
 20
-8.485869992403478
 30
0.0
 10
-3.339999999999971
 20
-8.50668425238853
 30
0.0
 10
-3.339999999999971
 20
-8.53833325831765
 30
0.0
 10
-3.347611532466511
 20
-8.569476024987997
 30
0.0
 10
-3.362211311005158
 20
-8.597561293583817
 30
0.0
 10
-3.376811110372902
 20
-8.625646602248109
 30
0.0
 10
-3.398802687503859
 20
-8.651451454699753
 30
0.0
 10
-3.426381423985211
 20
-8.672910160414501
 30
0.0
 10
-3.453959068452833
 20
-8.694368016445607
 30
0.0
 10
-3.487884880964154
 20
-8.712075572973623
 30
0.0
 10
-3.52536638434088
 20
-8.72465332608522
 30
0.0
 10
-3.562851255052247
 20
-8.737232209180938
 30
0.0
 10
-3.604925578052374
 20
-8.745030883577574
 30
0.0
 10
-3.648119116986679
 20
-8.747472025020954
 30
0.0
 10
-3.67666450453448
 20
-8.749085306319031
 30
0.0
 10
-3.706120119277527
 20
-8.74841920825203
 30
0.0
 10
-3.735413044452088
 20
-8.74550652872151
 30
0.0
  0
LINE
  5
E8
330
1F
100
AcDbEntity
  8
SK1
  6
Continuous
100
AcDbLine
 10
-3.7354130445
 20
-8.7455065287
 30
0.0
 11
-22.0817519303
 21
-6.9209977747
 31
0.0
  0
ELLIPSE
  5
E9
330
1F
100
AcDbEntity
  8
SK1
  6
Continuous
100
AcDbEllipse
 10
-64.6712534199
 20
-0.2828427125
 30
0.0
 11
62.09999999996545
 21
3.514874228631454E-12
 31
0.0
210
0.0
220
0.0
230
1.0
 40
0.7071067812
 41
-0.1939350326986551
 42
-0.1815526427966052
  0
LINE
  5
EA
330
1F
100
AcDbEntity
  8
SK3
100
AcDbLine
 10
-17.6296432668
 20
-1.8810738634
 30
0.0
 11
11.26
 21
-1.8810738634
 31
0.0
  0
ELLIPSE
  5
EB
330
1F
100
AcDbEntity
  8
SK1
  6
Continuous
100
AcDbEllipse
 10
44.3446183293
 20
-0.3695518129
 30
0.0
 11
-62.10000000311702
 21
-1.610175840786527E-10
 31
0.0
210
0.0
220
0.0
230
1.0
 40
0.3826834324
 41
0.1350553263842197
 42
0.1635773895995568
  0
LINE
  5
EC
330
1F
100
AcDbEntity
  8
SK3
100
AcDbLine
 10
-17.6296432668
 20
-3.4960636608
 30
0.0
 11
11.26
 21
-3.4960636608
 31
0.0
  0
SPLINE
  5
ED
330
1F
100
AcDbEntity
  8
SK1
  6
Continuous
100
AcDbSpline
210
0.0
220
0.0
230
1.0
 70
     8
 71
     3
 72
    35
 73
    31
 74
     0
 42
0.0000000105687091
 43
0.0000000001
 12
1.0
 22
0.0
 32
0.0
 13
1.0
 23
0.0
 33
0.0
 40
0.0
 40
0.0
 40
0.0
 40
0.0
 40
0.1134251203605403
 40
0.1134251203605403
 40
0.1134251203605403
 40
0.227044895607639
 40
0.227044895607639
 40
0.227044895607639
 40
0.3375525299924254
 40
0.3375525299924254
 40
0.3375525299924254
 40
0.4436123154059774
 40
0.4436123154059774
 40
0.4436123154059774
 40
0.5001943358043479
 40
0.5001943358043479
 40
0.5001943358043479
 40
0.6025718788280409
 40
0.6025718788280409
 40
0.6025718788280409
 40
0.7048622826146739
 40
0.7048622826146739
 40
0.7048622826146739
 40
0.8085177663571457
 40
0.8085177663571457
 40
0.8085177663571457
 40
0.9156387561634821
 40
0.9156387561634821
 40
0.9156387561634821
 40
1.0
 40
1.0
 40
1.0
 40
1.0
 10
-16.92641027504484
 20
-9.496188754151493
 30
0.0
 10
-16.9741833879276
 20
-9.48998090907505
 30
0.0
 10
-17.02266979657088
 20
-9.480865285319599
 30
0.0
 10
-17.06786828878672
 20
-9.469471953437424
 30
0.0
 10
-17.11311117396344
 20
-9.458067431276286
 30
0.0
 10
-17.15633486494086
 20
-9.444041480486623
 30
0.0
 10
-17.19357317105913
 20
-9.428407401164286
 30
0.0
 10
-17.22979207083587
 20
-9.413201308001
 30
0.0
 10
-17.26138521019839
 20
-9.396017979255657
 30
0.0
 10
-17.28527580782685
 20
-9.37820851751563
 30
0.0
 10
-17.30821952727532
 20
-9.361104914665411
 30
0.0
 10
-17.32471136232711
 20
-9.342924537670706
 30
0.0
 10
-17.33314397584146
 20
-9.32517088229814
 30
0.0
 10
-17.33769177696157
 20
-9.31559614089063
 30
0.0
 10
-17.34
 20
-9.306028854661728
 30
0.0
 10
-17.34
 20
-9.296719388777625
 30
0.0
 10
-17.34
 20
-9.280042840419794
 30
0.0
 10
-17.33244045748357
 20
-9.263841983060189
 30
0.0
 10
-17.31802614799303
 20
-9.249500265920688
 30
0.0
 10
-17.30361865999356
 20
-9.235165335918317
 30
0.0
 10
-17.28198757287048
 20
-9.22230012364756
 30
0.0
 10
-17.25505043752
 20
-9.211988441546616
 30
0.0
 10
-17.22774723689759
 20
-9.201536627666131
 30
0.0
 10
-17.19428968317309
 20
-9.193431341179274
 30
0.0
 10
-17.15746020563424
 20
-9.188323297914886
 30
0.0
 10
-17.11940649113452
 20
-9.183045459807346
 30
0.0
 10
-17.07676917987023
 20
-9.180826901698412
 30
0.0
 10
-17.03293478755093
 20
-9.181819762747486
 30
0.0
 10
-16.99823368926005
 20
-9.18260575217337
 30
0.0
 10
-16.96217039816762
 20
-9.185395183071174
 30
0.0
 10
-16.92641027504489
 20
-9.190042008259416
 30
0.0
  0
SPLINE
  5
EE
330
1F
100
AcDbEntity
  8
SK3
100
AcDbSpline
210
0.0
220
0.0
230
1.0
 70
     8
 71
     3
 72
    35
 73
    31
 74
     0
 42
0.0000000109124712
 43
0.0000000001
 12
1.0
 22
0.0
 32
0.0
 13
1.0
 23
0.0
 33
0.0
 40
0.0
 40
0.0
 40
0.0
 40
0.0
 40
0.1070738913898886
 40
0.1070738913898886
 40
0.1070738913898886
 40
0.214150686855914
 40
0.214150686855914
 40
0.214150686855914
 40
0.3212262293590612
 40
0.3212262293590612
 40
0.3212262293590612
 40
0.4285930519259286
 40
0.4285930519259286
 40
0.4285930519259286
 40
0.4999928379379806
 40
0.4999928379379806
 40
0.4999928379379806
 40
0.6074096316026878
 40
0.6074096316026878
 40
0.6074096316026878
 40
0.7148228337615992
 40
0.7148228337615992
 40
0.7148228337615992
 40
0.8222793306397089
 40
0.8222793306397089
 40
0.8222793306397089
 40
0.9295794165327204
 40
0.9295794165327204
 40
0.9295794165327204
 40
1.0
 40
1.0
 40
1.0
 40
1.0
 10
-17.62964326683029
 20
-3.496063660834233
 30
0.0
 10
-17.67426147957942
 20
-3.496063660834233
 30
0.0
 10
-17.71949673273283
 20
-3.499725183504594
 30
0.0
 10
-17.76160074198617
 20
-3.506648016985827
 30
0.0
 10
-17.8037059531223
 20
-3.513571048083261
 30
0.0
 10
-17.84383765932566
 20
-3.523935466333594
 30
0.0
 10
-17.87868526390807
 20
-3.536596236394515
 30
0.0
 10
-17.91353430265034
 20
-3.549257527511861
 30
0.0
 10
-17.94406027602595
 20
-3.56454658602137
 30
0.0
 10
-17.96777465672588
 20
-3.58086681046672
 30
0.0
 10
-17.99155200440757
 20
-3.597230368756124
 30
0.0
 10
-18.00913742542431
 20
-3.615067073033452
 30
0.0
 10
-18.01909353715481
 20
-3.632662109529749
 30
0.0
 10
-18.02576699349496
 20
-3.64445584096224
 30
0.0
 10
-18.02916703272589
 20
-3.656325631935491
 30
0.0
 10
-18.02916703272589
 20
-3.667801744069817
 30
0.0
 10
-18.02916703272589
 20
-3.68493045495965
 30
0.0
 10
-18.02147595639408
 20
-3.701557678661699
 30
0.0
 10
-18.00672430532217
 20
-3.716418628150228
 30
0.0
 10
-17.99197294965634
 20
-3.731279280043937
 30
0.0
 10
-17.96975439188316
 20
-3.744793903918444
 30
0.0
 10
-17.94188556816356
 20
-3.756134171496757
 30
0.0
 10
-17.91400664003336
 20
-3.767478550720436
 30
0.0
 10
-17.87969990543268
 20
-3.776976236832089
 30
0.0
 10
-17.84179066686096
 20
-3.784180219099317
 30
0.0
 10
-17.80393692363953
 20
-3.791373655453874
 30
0.0
 10
-17.7614428710619
 20
-3.796493419043489
 30
0.0
 10
-17.71784004756197
 20
-3.799360343966302
 30
0.0
 10
-17.68898979245271
 20
-3.801257274228222
 30
0.0
 10
-17.65922560998265
 20
-3.802210406726305
 30
0.0
 10
-17.62964326683029
 20
-3.802210406726305
 30
0.0
  0
SPLINE
  5
EF
330
1F
100
AcDbEntity
  8
SK1
  6
Continuous
100
AcDbSpline
210
0.0
220
0.0
230
1.0
 70
     8
 71
     3
 72
    20
 73
    16
 74
     0
 42
0.0000000249810842
 43
0.0000000001
 12
1.0
 22
0.0
 32
0.0
 13
1.0
 23
0.0
 33
0.0
 40
0.0
 40
0.0
 40
0.0
 40
0.0
 40
0.2147965349947696
 40
0.2147965349947696
 40
0.2147965349947696
 40
0.4295936061663828
 40
0.4295936061663828
 40
0.4295936061663828
 40
0.6443815563131251
 40
0.6443815563131251
 40
0.6443815563131251
 40
0.859186371085941
 40
0.859186371085941
 40
0.859186371085941
 40
1.0
 40
1.0
 40
1.0
 40
1.0
 10
-3.339999999999963
 20
12.03026824055348
 30
0.0
 10
-3.339999999999963
 20
12.03026824055348
 30
0.0
 10
-3.347611532466505
 20
12.0289350554236
 30
0.0
 10
-3.362211311005153
 20
12.02641819902512
 30
0.0
 10
-3.376811110372897
 20
12.02390133903592
 30
0.0
 10
-3.398802687503856
 20
12.02013487285227
 30
0.0
 10
-3.426381423985207
 20
12.01553143563079
 30
0.0
 10
-3.453959068452828
 20
12.01092818068804
 30
0.0
 10
-3.487884880964149
 20
12.00536663551151
 30
0.0
 10
-3.525366384340874
 20
11.99942631279395
 30
0.0
 10
-3.562851255052242
 20
11.99348545639838
 30
0.0
 10
-3.60492557805237
 20
11.98700732767445
 30
0.0
 10
-3.648119116986677
 20
11.98061297070364
 30
0.0
 10
-3.676664504534478
 20
11.97638712113553
 30
0.0
 10
-3.706120119277525
 20
11.9721330936353
 30
0.0
 10
-3.735413044452093
 20
11.9680139427404
 30
0.0
  0
ARC
  5
F0
330
1F
100
AcDbEntity
  8
SK3
100
AcDbCircle
 10
-2.6971258807
 20
7.9130249201
 30
0.0
 40
3.963227459182244
100
AcDbArc
 50
270.0019379959
 51
275.7876300965
  0
LINE
  5
F1
330
1F
100
AcDbEntity
  8
SK3
100
AcDbLine
 10
-2.6969918269
 20
3.9497974632
 30
0.0
 11
-21.1890003701
 21
3.9497974632
 31
0.0
  0
SPLINE
  5
F2
330
1F
100
AcDbEntity
  8
SK3
100
AcDbSpline
210
0.0
220
0.0
230
1.0
 70
     8
 71
     3
 72
    11
 73
     7
 74
     0
 42
0.0000003114787627
 43
0.0000000001
 12
1.0
 22
0.0
 32
0.0
 13
1.0
 23
0.0
 33
0.0
 40
0.0
 40
0.0
 40
0.0
 40
0.0
 40
0.3817591750042741
 40
0.3817591750042741
 40
0.3817591750042741
 40
0.9999999999999999
 40
0.9999999999999999
 40
0.9999999999999999
 40
0.9999999999999999
 10
-17.32680780842886
 20
9.336356019826493
 30
0.0
 10
-17.32926280361032
 20
9.332618141634079
 30
0.0
 10
-17.33137976566936
 20
9.328885173169756
 30
0.0
 10
-17.33314397584146
 20
9.325170882298139
 30
0.0
 10
-17.33603219456878
 20
9.31909015301556
 30
0.0
 10
-17.33801713112308
 20
9.313012430607353
 30
0.0
 10
-17.33908120244341
 20
9.30700184485358
 30
0.0
  0
LINE
  5
F3
330
1F
100
AcDbEntity
  8
SK1
  6
Continuous
100
AcDbLine
 10
-3.7354130445
 20
-11.9680139427
 30
0.0
 11
-22.0817519303
 21
-9.3877689182
 31
0.0
  0
ARC
  5
F4
330
1F
100
AcDbEntity
  8
SK3
100
AcDbCircle
 10
-2.6971258807
 20
-7.9130249201
 30
0.0
 40
3.963227459182186
100
AcDbArc
 50
84.2123699035
 51
89.9980620041
  0
SPLINE
  5
F5
330
1F
100
AcDbEntity
  8
SK1
  6
Continuous
100
AcDbSpline
210
0.0
220
0.0
230
1.0
 70
     8
 71
     3
 72
    23
 73
    19
 74
     0
 42
0.0000000245603334
 43
0.0000000001
 12
1.0
 22
0.0
 32
0.0
 13
1.0
 23
0.0
 33
0.0
 40
0.0
 40
0.0
 40
0.0
 40
0.0
 40
0.1924373913264833
 40
0.1924373913264833
 40
0.1924373913264833
 40
0.3848882864210099
 40
0.3848882864210099
 40
0.3848882864210099
 40
0.5771535088023613
 40
0.5771535088023613
 40
0.5771535088023613
 40
0.7693245448703586
 40
0.7693245448703586
 40
0.7693245448703586
 40
0.8946813472265033
 40
0.8946813472265033
 40
0.8946813472265033
 40
1.0
 40
1.0
 40
1.0
 40
1.0
 10
-3.735413044452088
 20
-11.9680139427404
 30
0.0
 10
-3.691029899622519
 20
-11.97425506989496
 30
0.0
 10
-3.646070591160167
 20
-11.98084201834442
 30
0.0
 10
-3.604251747311368
 20
-11.98718892809335
 30
0.0
 10
-3.562431094453564
 20
-11.99353611239833
 30
0.0
 10
-3.522597455293369
 20
-11.99981462838287
 30
0.0
 10
-3.488043905251077
 20
-12.00540075095954
 30
0.0
 10
-3.45352303949696
 20
-12.0109815896091
 30
0.0
 10
-3.423318615637253
 20
-12.01601973808532
 30
0.0
 10
-3.399916600976036
 20
-12.01997878666216
 30
0.0
 10
-3.376525725949498
 20
-12.02393595068523
 30
0.0
 10
-3.35928430919015
 20
-12.02691915660881
 30
0.0
 10
-3.349605836744439
 20
-12.02859803143456
 30
0.0
 10
-3.343240640716417
 20
-12.02970216924476
 30
0.0
 10
-3.339999999999964
 20
-12.03026824055349
 30
0.0
 10
-3.339999999999964
 20
-12.03026824055349
 30
0.0
 10
-3.339999999999964
 20
-12.03026824055349
 30
0.0
 10
-3.342286120537931
 20
-12.02986781896694
 30
0.0
 10
-3.346755766145475
 20
-12.02909158638179
 30
0.0
  0
LINE
  5
F6
330
1F
100
AcDbEntity
  8
SK3
100
AcDbLine
 10
-17.6296432668
 20
-3.8022104067
 30
0.0
 11
11.26
 21
-3.8022104067
 31
0.0
  0
ELLIPSE
  5
F7
330
1F
100
AcDbEntity
  8
SK1
  6
Continuous
100
AcDbEllipse
 10
44.3446183289
 20
-0.1530733727
 30
0.0
 11
-62.10000000269252
 21
-1.998529474821924E-9
 31
0.0
210
0.0
220
0.0
230
1.0
 40
0.9238795325
 41
0.1581044719098587
 42
0.1635773895713746
  0
SPLINE
  5
F8
330
1F
100
AcDbEntity
  8
SK3
100
AcDbSpline
210
0.0
220
0.0
230
1.0
 70
     8
 71
     3
 72
     8
 73
     4
 74
     0
 42
0.0000009745175501
 43
0.0000000001
 12
1.0
 22
0.0
 32
0.0
 13
1.0
 23
0.0
 33
0.0
 40
0.0
 40
0.0
 40
0.0
 40
0.0
 40
0.9999999999999999
 40
0.9999999999999999
 40
0.9999999999999999
 40
0.9999999999999999
 10
-17.34
 20
-9.296719388777625
 30
0.0
 10
-17.34
 20
-9.30008321573439
 30
0.0
 10
-17.33969242539654
 20
-9.303485097279289
 30
0.0
 10
-17.33908306025592
 20
-9.306913263620483
 30
0.0
  0
LINE
  5
F9
330
1F
100
AcDbEntity
  8
SK3
100
AcDbLine
 10
-2.6969918269
 20
3.075771283
 30
0.0
 11
-21.1890003701
 21
3.075771283
 31
0.0
  0
ELLIPSE
  5
FA
330
1F
100
AcDbEntity
  8
SK1
  6
Continuous
100
AcDbEllipse
 10
-64.6712534199
 20
0.2828427125
 30
0.0
 11
62.09999999997388
 21
-6.750203448939241E-12
 31
0.0
210
0.0
220
0.0
230
1.0
 40
0.7071067812
 41
0.1816528013368351
 42
0.1939350326986741
  0
SPLINE
  5
FB
330
1F
100
AcDbEntity
  8
SK1
  6
Continuous
100
AcDbSpline
210
0.0
220
0.0
230
1.0
 70
     8
 71
     3
 72
    35
 73
    31
 74
     0
 42
0.0000000092527961
 43
0.0000000001
 12
1.0
 22
0.0
 32
0.0
 13
1.0
 23
0.0
 33
0.0
 40
0.0
 40
0.0
 40
0.0
 40
0.0
 40
0.1075456917067825
 40
0.1075456917067825
 40
0.1075456917067825
 40
0.2150989301385789
 40
0.2150989301385789
 40
0.2150989301385789
 40
0.3225484033913152
 40
0.3225484033913152
 40
0.3225484033913152
 40
0.4299452396167516
 40
0.4299452396167516
 40
0.4299452396167516
 40
0.5000022276408203
 40
0.5000022276408203
 40
0.5000022276408203
 40
0.6074000166486742
 40
0.6074000166486742
 40
0.6074000166486742
 40
0.7147980737437564
 40
0.7147980737437564
 40
0.7147980737437564
 40
0.8221915703467255
 40
0.8221915703467255
 40
0.8221915703467255
 40
0.929593499225159
 40
0.929593499225159
 40
0.929593499225159
 40
1.0
 40
1.0
 40
1.0
 40
1.0
 10
-3.735413044452098
 20
8.745506528721497
 30
0.0
 10
-3.691029899622528
 20
8.749919672054737
 30
0.0
 10
-3.646070591160176
 20
8.749115474779007
 30
0.0
 10
-3.604251747311375
 20
8.74312209505387
 30
0.0
 10
-3.56243109445357
 20
8.737128456065758
 30
0.0
 10
-3.522597455293375
 20
8.725776312986286
 30
0.0
 10
-3.488043905251081
 20
8.709929373802911
 30
0.0
 10
-3.45352303949696
 20
8.694097424278377
 30
0.0
 10
-3.423318615637251
 20
8.673338408662262
 30
0.0
 10
-3.399916600976032
 20
8.649287721972648
 30
0.0
 10
-3.376525725949497
 20
8.625248483693245
 30
0.0
 10
-3.359284309190151
 20
8.597254206912744
 30
0.0
 10
-3.349605836744441
 20
8.567564253906912
 30
0.0
 10
-3.343240640716417
 20
8.548038200389168
 30
0.0
 10
-3.339999999999964
 20
8.527498512373572
 30
0.0
 10
-3.339999999999964
 20
8.506684252388519
 30
0.0
 10
-3.339999999999964
 20
8.4750352464594
 30
0.0
 10
-3.347611532466505
 20
8.442007071297217
 30
0.0
 10
-3.362211311005153
 20
8.410362430248126
 30
0.0
 10
-3.376811110372897
 20
8.378717744052507
 30
0.0
 10
-3.398802687503856
 20
8.347586304041725
 30
0.0
 10
-3.426381423985207
 20
8.319617354974838
 30
0.0
 10
-3.453959068452828
 20
8.291649513372624
 30
0.0
 10
-3.487884880964149
 20
8.26607674422821
 30
0.0
 10
-3.525366384340876
 20
8.245098106164576
 30
0.0
 10
-3.562851255052244
 20
8.224117583382125
 30
0.0
 10
-3.604925578052372
 20
8.207157451485301
 30
0.0
 10
-3.648119116986679
 20
8.195673323691146
 30
0.0
 10
-3.67666450453448
 20
8.1880837886213
 30
0.0
 10
-3.706120119277527
 20
8.18273378330278
 30
0.0
 10
-3.735413044452095
 20
8.179821103772262
 30
0.0
  0
SPLINE
  5
FC
330
1F
100
AcDbEntity
  8
SK3
100
AcDbSpline
210
0.0
220
0.0
230
1.0
 70
     8
 71
     3
 72
    35
 73
    31
 74
     0
 42
0.0000000092176378
 43
0.0000000001
 12
1.0
 22
0.0
 32
0.0
 13
1.0
 23
0.0
 33
0.0
 40
0.0
 40
0.0
 40
0.0
 40
0.0
 40
0.1070738913898903
 40
0.1070738913898903
 40
0.1070738913898903
 40
0.2141506868559199
 40
0.2141506868559199
 40
0.2141506868559199
 40
0.3212262293590526
 40
0.3212262293590526
 40
0.3212262293590526
 40
0.4285930519259244
 40
0.4285930519259244
 40
0.4285930519259244
 40
0.4999928379379728
 40
0.4999928379379728
 40
0.4999928379379728
 40
0.6074096316026811
 40
0.6074096316026811
 40
0.6074096316026811
 40
0.7148228337615943
 40
0.7148228337615943
 40
0.7148228337615943
 40
0.8222793306397014
 40
0.8222793306397014
 40
0.8222793306397014
 40
0.9295794165327114
 40
0.9295794165327114
 40
0.9295794165327114
 40
1.0
 40
1.0
 40
1.0
 40
1.0
 10
-2.696991826915914
 20
2.510085858040565
 30
0.0
 10
-2.652373614166764
 20
2.510085858040565
 30
0.0
 10
-2.607138361013353
 20
2.516056704499928
 30
0.0
 10
-2.565034351760009
 20
2.527443788978621
 30
0.0
 10
-2.522929140623882
 20
2.538831198508089
 30
0.0
 10
-2.482797434420521
 20
2.555940218431239
 30
0.0
 10
-2.447949829838107
 20
2.577137108907183
 30
0.0
 10
-2.413100791095838
 20
2.598334871745224
 30
0.0
 10
-2.382574817720242
 20
2.624189890776319
 30
0.0
 10
-2.358860437020317
 20
2.652314684471123
 30
0.0
 10
-2.335083089338618
 20
2.680514155780084
 30
0.0
 10
-2.317497668321873
 20
2.711761709379149
 30
0.0
 10
-2.307541556591379
 20
2.743290933729586
 30
0.0
 10
-2.300868100251232
 20
2.764424575841781
 30
0.0
 10
-2.297468061020307
 20
2.786008831083179
 30
0.0
 10
-2.297468061020307
 20
2.807213921310593
 30
0.0
 10
-2.297468061020307
 20
2.838863652129433
 30
0.0
 10
-2.30515913735211
 20
2.870385161198433
 30
0.0
 10
-2.319910788424024
 20
2.899253643120223
 30
0.0
 10
-2.334662144089852
 20
2.9281215469423
 30
0.0
 10
-2.35688070186304
 20
2.955140873227437
 30
0.0
 10
-2.384749525582637
 20
2.978298877401185
 30
0.0
 10
-2.412628453712835
 20
3.0014652779818
 30
0.0
 10
-2.44693518831351
 20
3.021419605462076
 30
0.0
 10
-2.484844426885228
 20
3.036766226035132
 30
0.0
 10
-2.522698170106664
 20
3.05209038068388
 30
0.0
 10
-2.565192222684292
 20
3.063254166603931
 30
0.0
 10
-2.608795046184222
 20
3.069523070583498
 30
0.0
 10
-2.637645301293477
 20
3.073670955159511
 30
0.0
 10
-2.667409483763535
 20
3.075771282989804
 30
0.0
 10
-2.696991826915914
 20
3.075771282989804
 30
0.0
  0
LINE
  5
FD
330
1F
100
AcDbEntity
  8
SK3
100
AcDbLine
 10
-2.6969918269
 20
2.510085858
 30
0.0
 11
-21.1890003701
 21
2.510085858
 31
0.0
  0
SPLINE
  5
FE
330
1F
100
AcDbEntity
  8
SK1
  6
Continuous
100
AcDbSpline
210
0.0
220
0.0
230
1.0
 70
     8
 71
     3
 72
    14
 73
    10
 74
     0
 42
0.0000000004922722
 43
0.0000000001
 12
1.0
 22
0.0
 32
0.0
 13
1.0
 23
0.0
 33
0.0
 40
0.0
 40
0.0
 40
0.0
 40
0.0
 40
0.0674978826419864
 40
0.0674978826419864
 40
0.0674978826419864
 40
0.9574517239467035
 40
0.9574517239467035
 40
0.9574517239467035
 40
1.0
 40
1.0
 40
1.0
 40
1.0
 10
-16.92641027504489
 20
9.496188754151481
 30
0.0
 10
-16.47317118278356
 20
9.555084603670457
 30
0.0
 10
-16.01993196070587
 20
9.61397960048223
 30
0.0
 10
-15.56669261591317
 20
9.672873791197727
 30
0.0
 10
-9.590770408268883
 20
10.44938868612363
 30
0.0
 10
-3.614827684382492
 20
11.22576881612326
 30
0.0
 10
2.361125440140416
 20
12.00208059726192
 30
0.0
 10
2.646832958275159
 20
12.03919569968428
 30
0.0
 10
2.932540501699043
 20
12.07631063594345
 30
0.0
 10
3.218248069711964
 20
12.11342541063727
 30
0.0
  0
ELLIPSE
  5
FF
330
1F
100
AcDbEntity
  8
SK1
  6
Continuous
100
AcDbEllipse
 10
44.3446183292
 20
0.1530733726
 30
0.0
 11
-62.10000000305475
 21
2.149821733985769E-9
 31
0.0
210
0.0
220
0.0
230
1.0
 40
0.9238795325
 41
-0.1635773895686405
 42
-0.1581362635003964
  0
SPLINE
  5
100
330
1F
100
AcDbEntity
  8
SK3
100
AcDbSpline
210
0.0
220
0.0
230
1.0
 70
     8
 71
     3
 72
    35
 73
    31
 74
     0
 42
0.0000000109138163
 43
0.0000000001
 12
1.0
 22
0.0
 32
0.0
 13
1.0
 23
0.0
 33
0.0
 40
0.0
 40
0.0
 40
0.0
 40
0.0
 40
0.10707389138989
 40
0.10707389138989
 40
0.10707389138989
 40
0.2141506868559223
 40
0.2141506868559223
 40
0.2141506868559223
 40
0.3212262293590579
 40
0.3212262293590579
 40
0.3212262293590579
 40
0.4285930519259237
 40
0.4285930519259237
 40
0.4285930519259237
 40
0.4999928379379767
 40
0.4999928379379767
 40
0.4999928379379767
 40
0.6074096316026871
 40
0.6074096316026871
 40
0.6074096316026871
 40
0.714822833761601
 40
0.714822833761601
 40
0.714822833761601
 40
0.8222793306397133
 40
0.8222793306397133
 40
0.8222793306397133
 40
0.9295794165327199
 40
0.9295794165327199
 40
0.9295794165327199
 40
1.0
 40
1.0
 40
1.0
 40
1.0
 10
-17.62964326683029
 20
3.802210406726299
 30
0.0
 10
-17.67426147957942
 20
3.802210406726299
 30
0.0
 10
-17.71949673273283
 20
3.800017418744876
 30
0.0
 10
-17.76160074198618
 20
3.795690028655635
 30
0.0
 10
-17.8037059531223
 20
3.791362515038592
 30
0.0
 10
-17.84383765932566
 20
3.784771087488006
 30
0.0
 10
-17.87868526390808
 20
3.776170143751956
 30
0.0
 10
-17.91353430265035
 20
3.767568846042414
 30
0.0
 10
-17.94406027602594
 20
3.756706052660946
 30
0.0
 10
-17.96777465672587
 20
3.744138717356415
 30
0.0
 10
-17.99155200440756
 20
3.731538012967402
 30
0.0
 10
-18.00913742542431
 20
3.716861675919318
 30
0.0
 10
-18.01909353715481
 20
3.70108144155248
 30
0.0
 10
-18.02576699349496
 20
3.690504149138029
 30
0.0
 10
-18.02916703272589
 20
3.679277856204135
 30
0.0
 10
-18.02916703272589
 20
3.66780174406981
 30
0.0
 10
-18.02916703272589
 20
3.650673033179977
 30
0.0
 10
-18.02147595639408
 20
3.632570548020642
 30
0.0
 10
-18.00672430532216
 20
3.61510605466116
 30
0.0
 10
-17.99197294965634
 20
3.597641911033217
 30
0.0
 10
-17.96975439188315
 20
3.580343894207256
 30
0.0
 10
-17.94188556816355
 20
3.564931309855884
 30
0.0
 10
-17.91400664003335
 20
3.549513137357617
 30
0.0
 10
-17.87969990543268
 20
3.535571790491425
 30
0.0
 10
-17.84179066686096
 20
3.524606884902734
 30
0.0
 10
-17.80393692363952
 20
3.513658030843944
 30
0.0
 10
-17.7614428710619
 20
3.505390246904394
 30
0.0
 10
-17.71784004756197
 20
3.50072819177935
 30
0.0
 10
-17.68898979245271
 20
3.49764349521856
 30
0.0
 10
-17.65922560998265
 20
3.496063660834226
 30
0.0
 10
-17.62964326683029
 20
3.496063660834226
 30
0.0
  0
SPLINE
  5
101
330
1F
100
AcDbEntity
  8
SK1
  6
Continuous
100
AcDbSpline
210
0.0
220
0.0
230
1.0
 70
     8
 71
     3
 72
    35
 73
    31
 74
     0
 42
0.0000000105690596
 43
0.0000000001
 12
1.0
 22
0.0
 32
0.0
 13
1.0
 23
0.0
 33
0.0
 40
0.0
 40
0.0
 40
0.0
 40
0.0
 40
0.1134251203605257
 40
0.1134251203605257
 40
0.1134251203605257
 40
0.2270448956076044
 40
0.2270448956076044
 40
0.2270448956076044
 40
0.3375525299923959
 40
0.3375525299923959
 40
0.3375525299923959
 40
0.4436123154059448
 40
0.4436123154059448
 40
0.4436123154059448
 40
0.5001943358043293
 40
0.5001943358043293
 40
0.5001943358043293
 40
0.6025718788280229
 40
0.6025718788280229
 40
0.6025718788280229
 40
0.704862282614656
 40
0.704862282614656
 40
0.704862282614656
 40
0.8085177663571345
 40
0.8085177663571345
 40
0.8085177663571345
 40
0.9156387561634705
 40
0.9156387561634705
 40
0.9156387561634705
 40
1.0
 40
1.0
 40
1.0
 40
1.0
 10
-16.92641027504489
 20
9.190042008259407
 30
0.0
 10
-16.97418338792762
 20
9.183834163182858
 30
0.0
 10
-17.0226697965709
 20
9.180961912626293
 30
0.0
 10
-17.06786828878673
 20
9.181700720037561
 30
0.0
 10
-17.11311117396344
 20
9.182440253089156
 30
0.0
 10
-17.15633486494086
 20
9.186831221807694
 30
0.0
 10
-17.19357317105912
 20
9.194496272510612
 30
0.0
 10
-17.22979207083587
 20
9.201951490863221
 30
0.0
 10
-17.26138521019838
 20
9.212724232859493
 30
0.0
 10
-17.28527580782684
 20
9.225803265377422
 30
0.0
 10
-17.30821952727531
 20
9.238363924487572
 30
0.0
 10
-17.32471136232711
 20
9.253408914288903
 30
0.0
 10
-17.33314397584146
 20
9.269563701463003
 30
0.0
 10
-17.33769177696157
 20
9.278276155683809
 30
0.0
 10
-17.34
 20
9.287409922893515
 30
0.0
 10
-17.34
 20
9.296719388777618
 30
0.0
 10
-17.34
 20
9.313395937135446
 30
0.0
 10
-17.33244045748357
 20
9.331007787932842
 30
0.0
 10
-17.31802614799303
 20
9.348120818358158
 30
0.0
 10
-17.30361865999356
 20
9.365225750137881
 30
0.0
 10
-17.28198757287048
 20
9.382300269655937
 30
0.0
 10
-17.25505043752
 20
9.398088000745403
 30
0.0
 10
-17.22774723689759
 20
9.414090281006455
 30
0.0
 10
-17.19428968317309
 20
9.429201427064083
 30
0.0
 10
-17.15746020563424
 20
9.442421778419346
 30
0.0
 10
-17.11940649113452
 20
9.456081583273447
 30
0.0
 10
-17.07676917987023
 20
9.468089556313972
 30
0.0
 10
-17.03293478755093
 20
9.477692470436597
 30
0.0
 10
-16.99823368926005
 20
9.485294530125728
 30
0.0
 10
-16.96217039816761
 20
9.491541928963237
 30
0.0
 10
-16.92641027504489
 20
9.496188754151481
 30
0.0
  0
SPLINE
  5
102
330
1F
100
AcDbEntity
  8
SK1
  6
Continuous
100
AcDbSpline
210
0.0
220
0.0
230
1.0
 70
     8
 71
     3
 72
    14
 73
    10
 74
     0
 42
0.0000000004922722
 43
0.0000000001
 12
1.0
 22
0.0
 32
0.0
 13
1.0
 23
0.0
 33
0.0
 40
0.0
 40
0.0
 40
0.0
 40
0.0
 40
0.0674978826419864
 40
0.0674978826419864
 40
0.0674978826419864
 40
0.9574517239467035
 40
0.9574517239467035
 40
0.9574517239467035
 40
1.0
 40
1.0
 40
1.0
 40
1.0
 10
-16.92641027504489
 20
9.190042008259407
 30
0.0
 10
-16.47317118278356
 20
9.248937857778385
 30
0.0
 10
-16.01993196070587
 20
9.307832854590158
 30
0.0
 10
-15.56669261591317
 20
9.366727045305657
 30
0.0
 10
-9.590770408268883
 20
10.14324194023156
 30
0.0
 10
-3.614827684382492
 20
10.91962207023118
 30
0.0
 10
2.361125440140416
 20
11.69593385136985
 30
0.0
 10
2.646832958275159
 20
11.73304895379221
 30
0.0
 10
2.932540501699043
 20
11.77016389005138
 30
0.0
 10
3.218248069711964
 20
11.8072786647452
 30
0.0
  0
LINE
  5
103
330
1F
100
AcDbEntity
  8
SK3
100
AcDbLine
 10
-2.6969918269
 20
0.4
 30
0.0
 11
-3.7354130445
 21
0.4
 31
0.0
  0
ARC
  5
104
330
1F
100
AcDbEntity
  8
SK1
  6
Continuous
100
AcDbCircle
 10
-3.7399950541
 20
0.0
 30
0.0
 40
0.4000262426542516
100
AcDbArc
 50
270.6562958262
 51
89.3437041738
  0
ARC
  5
105
330
1F
100
AcDbEntity
  8
SK3
100
AcDbCircle
 10
-2.6974168722
 20
0.0
 30
0.0
 40
0.4000002258292727
100
AcDbArc
 50
270.0608832252
 51
89.9391167748
  0
LINE
  5
106
330
1F
100
AcDbEntity
  8
SK3
100
AcDbLine
 10
-3.7354130445
 20
-0.4
 30
0.0
 11
-2.6969918269
 21
-0.4
 31
0.0
  0
LINE
  5
107
330
1F
100
AcDbEntity
  8
SK1
  6
Continuous
100
AcDbLine
 10
-16.926410275
 20
4.2395969187
 30
0.0
 11
3.2182480697
 21
5.3236918378
 31
0.0
  0
ELLIPSE
  5
108
330
1F
100
AcDbEntity
  8
SK1
  6
Continuous
100
AcDbEllipse
 10
44.3446183294
 20
0.3695518129
 30
0.0
 11
-62.10000000318995
 21
1.599377216368276E-10
 31
0.0
210
0.0
220
0.0
230
1.0
 40
0.3826834324
 41
-0.1635773895994728
 42
-0.1350059766826615
  0
SPLINE
  5
109
330
1F
100
AcDbEntity
  8
SK3
100
AcDbSpline
210
0.0
220
0.0
230
1.0
 70
     8
 71
     3
 72
    35
 73
    31
 74
     0
 42
0.0000000082368918
 43
0.0000000001
 12
1.0
 22
0.0
 32
0.0
 13
1.0
 23
0.0
 33
0.0
 40
0.0
 40
0.0
 40
0.0
 40
0.0
 40
0.1070738913898887
 40
0.1070738913898887
 40
0.1070738913898887
 40
0.2141506868559139
 40
0.2141506868559139
 40
0.2141506868559139
 40
0.3212262293590609
 40
0.3212262293590609
 40
0.3212262293590609
 40
0.4285930519259287
 40
0.4285930519259287
 40
0.4285930519259287
 40
0.4999928379379788
 40
0.4999928379379788
 40
0.4999928379379788
 40
0.6074096316026879
 40
0.6074096316026879
 40
0.6074096316026879
 40
0.7148228337615993
 40
0.7148228337615993
 40
0.7148228337615993
 40
0.8222793306397089
 40
0.8222793306397089
 40
0.8222793306397089
 40
0.9295794165327204
 40
0.9295794165327204
 40
0.9295794165327204
 40
1.0
 40
1.0
 40
1.0
 40
1.0
 10
-17.62964326683029
 20
1.881073863354222
 30
0.0
 10
-17.67426147957942
 20
1.881073863354222
 30
0.0
 10
-17.71949673273283
 20
1.874310987338413
 30
0.0
 10
-17.76160074198617
 20
1.861268300103295
 30
0.0
 10
-17.8037059531223
 20
1.848225240557286
 30
0.0
 10
-17.84383765932566
 20
1.828539136069518
 30
0.0
 10
-17.87868526390807
 20
1.803714794727868
 30
0.0
 10
-17.91353430265034
 20
1.778889431735679
 30
0.0
 10
-17.94406027602595
 20
1.748238063500842
 30
0.0
 10
-17.96777465672588
 20
1.714144943024932
 30
0.0
 10
-17.99155200440757
 20
1.679961297693131
 30
0.0
 10
-18.00913742542431
 20
1.641369118516441
 30
0.0
 10
-18.01909353715481
 20
1.601457460561136
 30
0.0
 10
-18.02576699349496
 20
1.574705178742943
 30
0.0
 10
-18.02916703272589
 20
1.546959012047405
 30
0.0
 10
-18.02916703272589
 20
1.519253226489404
 30
0.0
 10
-18.02916703272589
 20
1.477900860353201
 30
0.0
 10
-18.02147595639408
 20
1.435672856626162
 30
0.0
 10
-18.00672430532217
 20
1.396113383768678
 30
0.0
 10
-17.99197294965634
 20
1.3565547031011
 30
0.0
 10
-17.96975439188316
 20
1.318576989229162
 30
0.0
 10
-17.94188556816356
 20
1.28544003582992
 30
0.0
 10
-17.91400664003336
 20
1.252291067952184
 30
0.0
 10
-17.87969990543268
 20
1.223077340024618
 30
0.0
 10
-17.84179066686096
 20
1.200366639563721
 30
0.0
 10
-17.80393692363953
 20
1.177689185306779
 30
0.0
 10
-17.7614428710619
 20
1.16087700953908
 30
0.0
 10
-17.71784004756197
 20
1.1514169430299
 30
0.0
 10
-17.68898979245271
 20
1.145157593055905
 30
0.0
 10
-17.65922560998265
 20
1.141970237345193
 30
0.0
 10
-17.62964326683029
 20
1.141970237345193
 30
0.0
  0
SPLINE
  5
10A
330
1F
100
AcDbEntity
  8
SK1
  6
Continuous
100
AcDbSpline
210
0.0
220
0.0
230
1.0
 70
     8
 71
     3
 72
    35
 73
    31
 74
     0
 42
0.0000000080813779
 43
0.0000000001
 12
1.0
 22
0.0
 32
0.0
 13
1.0
 23
0.0
 33
0.0
 40
0.0
 40
0.0
 40
0.0
 40
0.0
 40
0.1134251203605125
 40
0.1134251203605125
 40
0.1134251203605125
 40
0.2270448956075928
 40
0.2270448956075928
 40
0.2270448956075928
 40
0.3375525299923796
 40
0.3375525299923796
 40
0.3375525299923796
 40
0.4436123154059351
 40
0.4436123154059351
 40
0.4436123154059351
 40
0.500194335804321
 40
0.500194335804321
 40
0.500194335804321
 40
0.6025718788280218
 40
0.6025718788280218
 40
0.6025718788280218
 40
0.704862282614664
 40
0.704862282614664
 40
0.704862282614664
 40
0.808517766357143
 40
0.808517766357143
 40
0.808517766357143
 40
0.9156387561634892
 40
0.9156387561634892
 40
0.9156387561634892
 40
1.0
 40
1.0
 40
1.0
 40
1.0
 10
-16.92641027504489
 20
3.500493292707448
 30
0.0
 10
-16.97418338792763
 20
3.497921919083631
 30
0.0
 10
-17.02266979657091
 20
3.502975567147349
 30
0.0
 10
-17.06786828878674
 20
3.515413730490522
 30
0.0
 10
-17.11311117396345
 20
3.527864110323044
 30
0.0
 10
-17.15633486494087
 20
3.54809982862642
 30
0.0
 10
-17.19357317105912
 20
3.574573926609101
 30
0.0
 10
-17.22979207083587
 20
3.600323290677096
 30
0.0
 10
-17.26138521019838
 20
3.632741577257507
 30
0.0
 10
-17.28527580782684
 20
3.669047584167109
 30
0.0
 10
-17.30821952727531
 20
3.703914641483244
 30
0.0
 10
-17.32471136232711
 20
3.743371847100755
 30
0.0
 10
-17.33314397584146
 20
3.783971821592184
 30
0.0
 10
-17.33769177696157
 20
3.805867833920314
 30
0.0
 10
-17.33999999999999
 20
3.828352217612741
 30
0.0
 10
-17.33999999999999
 20
3.850827256408595
 30
0.0
 10
-17.33999999999999
 20
3.891088005627639
 30
0.0
 10
-17.33244045748357
 20
3.932195781243413
 30
0.0
 10
-17.31802614799303
 20
3.970738978103705
 30
0.0
 10
-17.30361865999356
 20
4.009263934612428
 30
0.0
 10
-17.28198757287048
 20
4.046276163956619
 30
0.0
 10
-17.25505043751999
 20
4.07891506948339
 30
0.0
 10
-17.22774723689758
 20
4.11199752513795
 30
0.0
 10
-17.19428968317308
 20
4.141473199322501
 30
0.0
 10
-17.15746020563423
 20
4.165277642772839
 30
0.0
 10
-17.11940649113451
 20
4.18987336216442
 30
0.0
 10
-17.07676917987022
 20
4.209073758603877
 30
0.0
 10
-17.03293478755092
 20
4.221661468945324
 30
0.0
 10
-16.99823368926004
 20
4.231626415433775
 30
0.0
 10
-16.96217039816761
 20
4.23767214070153
 30
0.0
 10
-16.9264102750449
 20
4.239596918716476
 30
0.0
  0
LINE
  5
10B
330
1F
100
AcDbEntity
  8
SK1
  6
Continuous
100
AcDbLine
 10
-16.926410275
 20
3.5004932927
 30
0.0
 11
3.2182480697
 21
4.5845882118
 31
0.0
  0
LINE
  5
10C
330
1F
100
AcDbEntity
  8
SK1
  6
Continuous
100
AcDbLine
 10
3.2182480697
 20
12.9519698985
 30
0.0
 11
-3.34
 21
12.0302682406
 31
0.0
  0
LINE
  5
10D
330
1F
100
AcDbEntity
  8
SK1
  6
Continuous
100
AcDbLine
 10
-3.34
 20
-12.0302682406
 30
0.0
 11
3.2182480697
 21
-12.9519698985
 31
0.0
  0
LINE
  5
10E
330
1F
100
AcDbEntity
  8
SK3
100
AcDbLine
 10
-2.297468061
 20
-3.97
 30
0.0
 11
11.26
 21
-3.97
 31
0.0
  0
LINE
  5
10F
330
1F
100
AcDbEntity
  8
SK3
100
AcDbLine
 10
11.26
 20
3.97
 30
0.0
 11
-2.297468061
 21
3.97
 31
0.0
  0
LINE
  5
110
330
1F
100
AcDbEntity
  8
SK1
  6
Continuous
100
AcDbLine
 10
6.9198076211
 20
13.0
 30
0.0
 11
6.66
 21
13.0
 31
0.0
  0
ARC
  5
111
330
1F
100
AcDbEntity
  8
SK3
100
AcDbCircle
 10
11.26
 20
4.37
 30
0.0
 40
0.400000000000001
100
AcDbArc
 50
270.0
 51
0.0
  0
ARC
  5
112
330
1F
100
AcDbEntity
  8
SK1
  6
Continuous
100
AcDbCircle
 10
3.26
 20
12.6548894778
 30
0.0
 40
0.2999999999999982
100
AcDbArc
 50
0.0
 51
98.0
  0
ARC
  5
113
330
1F
100
AcDbEntity
  8
SK1
  6
Continuous
100
AcDbCircle
 10
11.41
 20
10.1189110868
 30
0.0
 40
0.2500000000000016
100
AcDbArc
 50
0.0
 51
60.0
  0
ARC
  5
114
330
1F
100
AcDbEntity
  8
SK1
  6
Continuous
100
AcDbCircle
 10
3.76
 20
11.2
 30
0.0
 40
0.1999999999999997
100
AcDbArc
 50
180.0
 51
270.0
  0
LINE
  5
115
330
1F
100
AcDbEntity
  8
SK1
  6
Continuous
100
AcDbLine
 10
6.46
 20
11.0
 30
0.0
 11
3.76
 21
11.0
 31
0.0
  0
ARC
  5
116
330
1F
100
AcDbEntity
  8
SK1
  6
Continuous
100
AcDbCircle
 10
6.46
 20
11.2
 30
0.0
 40
0.2000000000000005
100
AcDbArc
 50
270.0
 51
0.0
  0
LINE
  5
117
330
1F
100
AcDbEntity
  8
SK1
  6
Continuous
100
AcDbLine
 10
11.535
 20
10.3354174377
 30
0.0
 11
6.9198076211
 21
13.0
 31
0.0
  0
LINE
  5
118
330
1F
100
AcDbEntity
  8
SK1
  6
Continuous
100
AcDbLine
 10
6.66
 20
-13.0
 30
0.0
 11
6.9198076211
 21
-13.0
 31
0.0
  0
ARC
  5
119
330
1F
100
AcDbEntity
  8
SK3
100
AcDbCircle
 10
11.26
 20
-4.37
 30
0.0
 40
0.3999999999999998
100
AcDbArc
 50
0.0
 51
90.0
  0
ARC
  5
11A
330
1F
100
AcDbEntity
  8
SK1
  6
Continuous
100
AcDbCircle
 10
3.26
 20
-12.6548894778
 30
0.0
 40
0.3000000000000007
100
AcDbArc
 50
262.0
 51
0.0
  0
ARC
  5
11B
330
1F
100
AcDbEntity
  8
SK1
  6
Continuous
100
AcDbCircle
 10
11.41
 20
-10.1189110868
 30
0.0
 40
0.2499999999999997
100
AcDbArc
 50
300.0
 51
0.0
  0
ARC
  5
11C
330
1F
100
AcDbEntity
  8
SK1
  6
Continuous
100
AcDbCircle
 10
3.76
 20
-11.2
 30
0.0
 40
0.2000000000000005
100
AcDbArc
 50
90.0
 51
180.0
  0
LINE
  5
11D
330
1F
100
AcDbEntity
  8
SK1
  6
Continuous
100
AcDbLine
 10
3.76
 20
-11.0
 30
0.0
 11
6.46
 21
-11.0
 31
0.0
  0
ARC
  5
11E
330
1F
100
AcDbEntity
  8
SK1
  6
Continuous
100
AcDbCircle
 10
6.46
 20
-11.2
 30
0.0
 40
0.1999999999999997
100
AcDbArc
 50
0.0
 51
90.0
  0
LINE
  5
11F
330
1F
100
AcDbEntity
  8
SK1
  6
Continuous
100
AcDbLine
 10
6.9198076211
 20
-13.0
 30
0.0
 11
11.535
 21
-10.3354174377
 31
0.0
  0
ARC
  5
120
330
1F
100
AcDbEntity
  8
SK3
100
AcDbCircle
 10
-7.6852411112
 20
0.1726229832
 30
0.0
 40
10.48579510075622
100
AcDbArc
 50
189.5941246992
 51
203.3679836983
  0
ARC
  5
121
330
1F
100
AcDbEntity
  8
SK3
100
AcDbCircle
 10
-34.3796991247
 20
0.0810902298
 30
0.0
 40
32.21270867949623
100
AcDbArc
 50
344.4410708402
 51
354.8239292029
  0
ARC
  5
122
330
1F
100
AcDbEntity
  8
SK3
100
AcDbCircle
 10
35.1285717651
 20
-0.0185118035
 30
0.0
 40
53.28279291576744
100
AcDbArc
 50
183.9314741292
 51
190.0396306096
  0
ARC
  5
123
330
1F
100
AcDbEntity
  8
SK3
100
AcDbCircle
 10
-64.6712534199
 20
0.0
 30
0.0
 40
62.5
100
AcDbArc
 50
3.6418417118
 51
11.0977819747
  0
ARC
  5
124
330
1F
100
AcDbEntity
  8
SK3
100
AcDbCircle
 10
-64.6712534199
 20
0.0
 30
0.0
 40
62.49999999999999
100
AcDbArc
 50
348.9021909341
 51
356.3580981955
  0
ARC
  5
125
330
1F
100
AcDbEntity
  8
SK3
100
AcDbCircle
 10
-34.3856754967
 20
-0.0801226689
 30
0.0
 40
32.21840733758969
100
AcDbArc
 50
5.1733694435
 51
15.5542716732
  0
ARC
  5
126
330
1F
100
AcDbEntity
  8
SK3
100
AcDbCircle
 10
35.1591167654
 20
0.0158588049
 30
0.0
 40
53.3134242048511
100
AcDbArc
 50
169.9627793309
 51
176.067916016
  0
ARC
  5
127
330
1F
100
AcDbEntity
  8
SK3
100
AcDbCircle
 10
-7.6796434194
 20
-0.1734271196
 30
0.0
 40
10.49140667060695
100
AcDbArc
 50
156.6423439748
 51
170.4064077276
  0
LINE
  5
128
330
1F
100
AcDbEntity
  8
SK1
  6
Continuous
100
AcDbLine
 10
0.0
 20
12.4996746285
 30
0.0
 11
0.0
 21
-12.4996746285
 31
0.0
  0
LINE
  5
12A
330
1F
100
AcDbEntity
  8
SK4
  6
Continuous
100
AcDbLine
 10
11.66
 20
0.0
 30
0.0
 11
-22.34
 21
0.0
 31
0.0
  0
DIMENSION
  5
140
330
1F
100
AcDbEntity
  8
SK2
  6
Continuous
 62
   136
100
AcDbDimension
  2
DMBLK1
 10
11.66
 20
22.3816606025
 30
0.0
 11
-5.3399990761
 21
22.3816606025
 31
0.0
 70
   160
  1
\A1;<>
 71
     5
 42
-1.0
  3
DIN
100
AcDbAlignedDimension
 13
-22.34
 23
6.710733361
 33
0.0
 14
11.66
 24
9.8066661335
 34
0.0
100
AcDbRotatedDimension
  0
DIMENSION
  5
14A
330
1F
100
AcDbEntity
  8
SK2
  6
Continuous
 62
   136
100
AcDbDimension
  2
DMBLK2
 10
21.8774144894
 20
-3.97
 30
0.0
 11
21.8774144894
 21
8.01571641
 31
0.0
 70
   161
  1
\A1;ø <>
 71
     5
 42
-1.0
  3
DIN
100
AcDbAlignedDimension
 13
11.26
 23
-3.97
 33
0.0
 14
11.26
 24
3.97
 34
0.0
  0
DIMENSION
  5
155
330
1F
100
AcDbEntity
  8
SK2
  6
Continuous
 62
   136
100
AcDbDimension
  2
DMBLK3
 10
11.66
 20
-19.9999999581
 30
0.0
 11
5.8300001547
 21
-19.9999999581
 31
0.0
 70
   160
  1
\A1;<>
 71
     5
 42
-1.0
  3
DIN
100
AcDbAlignedDimension
 13
0.0
 23
-12.4996746285
 33
0.0
 14
11.66
 24
-9.1882744343
 34
0.0
100
AcDbRotatedDimension
  0
DIMENSION
  5
15F
330
1F
100
AcDbEntity
  8
SK2
  6
Continuous
 62
   136
100
AcDbDimension
  2
DMBLK4
 10
-28.8539454341
 20
12.4996746285
 30
0.0
 11
-28.8539454341
 21
0.0000004051
 31
0.0
 70
   161
  1
\A1;ø <>
 71
     5
 42
-1.0
  3
DIN
100
AcDbAlignedDimension
 13
0.0
 23
12.4996746285
 33
0.0
 14
0.0
 24
-12.4996746285
 34
0.0
  0
INSERT
  5
174
330
1F
100
AcDbEntity
  8
SK2
 62
     7
100
AcDbBlockReference
  2
Nullpunkt
 10
0.0
 20
0.0000000998
 30
0.0
  0
INSERT
  5
17F
330
1F
100
AcDbEntity
  8
SK2
 62
     7
100
AcDbBlockReference
  2
Einfügepunkt
 10
11.66
 20
0.0
 30
0.0
  0
ENDSEC
  0
SECTION
  2
OBJECTS
  0
DICTIONARY
  5
C
330
0
100
AcDbDictionary
281
     1
  3
ACAD_GROUP
350
D
  3
ACAD_LAYOUT
350
1A
  3
ACAD_MATERIAL
350
3B
  3
ACAD_MLEADERSTYLE
350
182
  3
ACAD_MLINESTYLE
350
17
  3
ACAD_PLOTSETTINGS
350
19
  3
ACAD_PLOTSTYLENAME
350
E
  3
ACAD_VISUALSTYLE
350
2A
  3
AcDbVariableDictionary
350
180
  0
DICTIONARY
  5
D
102
{ACAD_REACTORS
330
C
102
}
330
C
100
AcDbDictionary
281
     1
  0
DICTIONARY
  5
1A
102
{ACAD_REACTORS
330
C
102
}
330
C
100
AcDbDictionary
281
     1
  3
Layout1
350
1E
  3
Model
350
22
  0
DICTIONARY
  5
3B
102
{ACAD_REACTORS
330
C
102
}
330
C
100
AcDbDictionary
281
     1
  3
ByBlock
350
3D
  3
ByLayer
350
3C
  3
Global
350
3E
  0
DICTIONARY
  5
182
102
{ACAD_REACTORS
330
C
102
}
330
C
100
AcDbDictionary
281
     1
  0
DICTIONARY
  5
17
102
{ACAD_REACTORS
330
C
102
}
330
C
100
AcDbDictionary
281
     1
  3
Standard
350
18
  0
DICTIONARY
  5
19
102
{ACAD_REACTORS
330
C
102
}
330
C
100
AcDbDictionary
281
     1
  0
ACDBDICTIONARYWDFLT
  5
E
102
{ACAD_REACTORS
330
C
102
}
330
C
100
AcDbDictionary
281
     1
  3
Normal
350
F
100
AcDbDictionaryWithDefault
340
F
  0
DICTIONARY
  5
2A
102
{ACAD_REACTORS
330
C
102
}
330
C
100
AcDbDictionary
281
     1
  3
2dWireframe
350
2F
  3
3D Hidden
350
31
  3
3dWireframe
350
30
  3
Basic
350
32
  3
Brighten
350
36
  3
ColorChange
350
3A
  3
Conceptual
350
34
  3
Dim
350
35
  3
Facepattern
350
39
  3
Flat
350
2B
  3
FlatWithEdges
350
2C
  3
Gouraud
350
2D
  3
GouraudWithEdges
350
2E
  3
Linepattern
350
38
  3
Realistic
350
33
  3
Thicken
350
37
  0
DICTIONARY
  5
180
102
{ACAD_REACTORS
330
C
102
}
330
C
100
AcDbDictionary
281
     1
  3
DIMASSOC
350
185
  3
HIDETEXT
350
186
  3
PSOLHEIGHT
350
184
  3
PSOLWIDTH
350
183
  0
LAYOUT
  5
1E
102
{ACAD_REACTORS
330
1A
102
}
330
1A
100
AcDbPlotSettings
  1

  2
none_device
  4

  6

 40
0.0
 41
0.0
 42
0.0
 43
0.0
 44
0.0
 45
0.0
 46
0.0
 47
0.0
 48
0.0
 49
0.0
140
0.0
141
0.0
142
1.0
143
1.0
 70
   688
 72
     0
 73
     0
 74
     5
  7

 75
    16
147
1.0
148
0.0
149
0.0
100
AcDbLayout
  1
Layout1
 70
     1
 71
     1
 10
0.0
 20
0.0
 11
210.0
 21
297.0
 12
0.0
 22
0.0
 32
0.0
 14
0.0
 24
0.0
 34
0.0
 15
210.0
 25
297.0
 35
0.0
146
0.0
 13
0.0
 23
0.0
 33
0.0
 16
1.0
 26
0.0
 36
0.0
 17
0.0
 27
1.0
 37
0.0
 76
     0
330
1B
  0
LAYOUT
  5
22
102
{ACAD_REACTORS
330
1A
102
}
330
1A
100
AcDbPlotSettings
  1

  2
none_device
  4

  6

 40
0.0
 41
0.0
 42
0.0
 43
0.0
 44
0.0
 45
0.0
 46
0.0
 47
0.0
 48
0.0
 49
0.0
140
0.0
141
0.0
142
1.0
143
1.0
 70
  1712
 72
     0
 73
     0
 74
     0
  7

 75
     0
147
1.0
148
0.0
149
0.0
100
AcDbLayout
  1
Model
 70
     1
 71
     0
 10
0.0
 20
0.0
 11
210.0
 21
297.0
 12
0.0
 22
0.0
 32
0.0
 14
0.0
 24
0.0
 34
0.0
 15
210.0
 25
297.0
 35
0.0
146
0.0
 13
0.0
 23
0.0
 33
0.0
 16
1.0
 26
0.0
 36
0.0
 17
0.0
 27
1.0
 37
0.0
 76
     0
330
1F
331
29
  0
MATERIAL
  5
3D
102
{ACAD_REACTORS
330
3B
102
}
102
{ACAD_XDICTIONARY
360
1A9
102
}
330
3B
100
AcDbMaterial
  1
ByBlock
  0
MATERIAL
  5
3C
102
{ACAD_REACTORS
330
3B
102
}
102
{ACAD_XDICTIONARY
360
1A7
102
}
330
3B
100
AcDbMaterial
  1
ByLayer
  0
MATERIAL
  5
3E
102
{ACAD_REACTORS
330
3B
102
}
102
{ACAD_XDICTIONARY
360
1AB
102
}
330
3B
100
AcDbMaterial
  1
Global
  0
MLINESTYLE
  5
18
102
{ACAD_REACTORS
330
17
102
}
330
17
100
AcDbMlineStyle
  2
Standard
 70
     0
  3

 62
   256
 51
90.0
 52
90.0
 71
     2
 49
0.5
 62
   256
  6
BYLAYER
 49
-0.5
 62
   256
  6
BYLAYER
  0
ACDBPLACEHOLDER
  5
F
102
{ACAD_REACTORS
330
E
102
}
330
E
  0
VISUALSTYLE
  5
2F
102
{ACAD_REACTORS
330
2A
102
}
102
{ACAD_XDICTIONARY
360
18F
102
}
330
2A
100
AcDbVisualStyle
  2
2dWireframe
 70
     4
 71
     0
 72
     2
 73
     0
 90
        0
 40
-0.6
 41
-30.0
 62
     5
 63
     7
 74
     1
 91
        4
 64
     7
 65
   257
 75
     1
175
     1
 42
1.0
 92
        0
 66
   257
 43
1.0
 76
     1
 77
     6
 78
     2
 67
     7
 79
     5
170
     0
171
     0
290
     0
174
     0
 93
        1
 44
0.0
173
     0
291
     0
 45
0.0
1001
ACAD
1000
AcDbSavedByObjectVersion
1070
     0
  0
VISUALSTYLE
  5
31
102
{ACAD_REACTORS
330
2A
102
}
102
{ACAD_XDICTIONARY
360
193
102
}
330
2A
100
AcDbVisualStyle
  2
3D Hidden
 70
     6
 71
     1
 72
     2
 73
     2
 90
        0
 40
-0.6
 41
-30.0
 62
     5
 63
     7
 74
     2
 91
        2
 64
     7
 65
   257
 75
     2
175
     1
 42
40.0
 92
        0
 66
   257
 43
1.0
 76
     1
 77
     6
 78
     2
 67
     7
 79
     3
170
     0
171
     0
290
     0
174
     0
 93
        1
 44
0.0
173
     0
291
     0
 45
0.0
1001
ACAD
1000
AcDbSavedByObjectVersion
1070
     0
  0
VISUALSTYLE
  5
30
102
{ACAD_REACTORS
330
2A
102
}
102
{ACAD_XDICTIONARY
360
191
102
}
330
2A
100
AcDbVisualStyle
  2
3dWireframe
 70
     5
 71
     0
 72
     2
 73
     0
 90
        0
 40
-0.6
 41
-30.0
 62
     5
 63
     7
 74
     1
 91
        4
 64
     7
 65
   257
 75
     1
175
     1
 42
1.0
 92
        0
 66
   257
 43
1.0
 76
     1
 77
     6
 78
     2
 67
     7
 79
     5
170
     0
171
     0
290
     0
174
     0
 93
        1
 44
0.0
173
     0
291
     0
 45
0.0
1001
ACAD
1000
AcDbSavedByObjectVersion
1070
     0
  0
VISUALSTYLE
  5
32
102
{ACAD_REACTORS
330
2A
102
}
102
{ACAD_XDICTIONARY
360
195
102
}
330
2A
100
AcDbVisualStyle
  2
Basic
 70
     7
 71
     1
 72
     0
 73
     1
 90
        0
 40
-0.6
 41
-30.0
 62
     5
 63
     7
 74
     0
 91
        4
 64
     7
 65
   257
 75
     1
175
     1
 42
1.0
 92
        8
 66
     7
 43
1.0
 76
     1
 77
     6
 78
     2
 67
     7
 79
     5
170
     0
171
     0
290
     0
174
     0
 93
        1
 44
0.0
173
     0
291
     1
 45
0.0
1001
ACAD
1000
AcDbSavedByObjectVersion
1070
     0
  0
VISUALSTYLE
  5
36
102
{ACAD_REACTORS
330
2A
102
}
102
{ACAD_XDICTIONARY
360
19D
102
}
330
2A
100
AcDbVisualStyle
  2
Brighten
 70
    12
 71
     2
 72
     2
 73
     0
 90
        0
 40
-0.6
 41
-30.0
 62
     5
 63
     7
 74
     1
 91
        4
 64
     7
 65
   257
 75
     1
175
     1
 42
1.0
 92
        8
 66
     7
 43
1.0
 76
     1
 77
     6
 78
     2
 67
     7
 79
     5
170
     0
171
     0
290
     0
174
     0
 93
        1
 44
50.0
173
     0
291
     1
 45
0.0
1001
ACAD
1000
AcDbSavedByObjectVersion
1070
     0
  0
VISUALSTYLE
  5
3A
102
{ACAD_REACTORS
330
2A
102
}
102
{ACAD_XDICTIONARY
360
1A5
102
}
330
2A
100
AcDbVisualStyle
  2
ColorChange
 70
    16
 71
     2
 72
     2
 73
     3
 90
        0
 40
-0.6
 41
-30.0
 62
     5
 63
     8
 74
     1
 91
        4
 64
     7
 65
   257
 75
     1
175
     1
 42
1.0
 92
        8
 66
     8
 43
1.0
 76
     1
 77
     6
 78
     2
 67
     7
 79
     5
170
     0
171
     0
290
     0
174
     0
 93
        1
 44
0.0
173
     0
291
     1
 45
0.0
1001
ACAD
1000
AcDbSavedByObjectVersion
1070
     0
  0
VISUALSTYLE
  5
34
102
{ACAD_REACTORS
330
2A
102
}
102
{ACAD_XDICTIONARY
360
199
102
}
330
2A
100
AcDbVisualStyle
  2
Conceptual
 70
     9
 71
     3
 72
     2
 73
     0
 90
        0
 40
-0.6
 41
-30.0
 62
     5
 63
     7
 74
     2
 91
        2
 64
     7
 65
   257
 75
     1
175
     1
 42
40.0
 92
        8
 66
     7
 43
1.0
 76
     1
 77
     6
 78
     2
 67
     7
 79
     3
170
     0
171
     0
290
     0
174
     0
 93
        1
 44
0.0
173
     0
291
     0
 45
0.0
1001
ACAD
1000
AcDbSavedByObjectVersion
1070
     0
  0
VISUALSTYLE
  5
35
102
{ACAD_REACTORS
330
2A
102
}
102
{ACAD_XDICTIONARY
360
19B
102
}
330
2A
100
AcDbVisualStyle
  2
Dim
 70
    11
 71
     2
 72
     2
 73
     0
 90
        0
 40
-0.6
 41
-30.0
 62
     5
 63
     7
 74
     1
 91
        4
 64
     7
 65
   257
 75
     1
175
     1
 42
1.0
 92
        8
 66
     7
 43
1.0
 76
     1
 77
     6
 78
     2
 67
     7
 79
     5
170
     0
171
     0
290
     0
174
     0
 93
        1
 44
-50.0
173
     0
291
     1
 45
0.0
1001
ACAD
1000
AcDbSavedByObjectVersion
1070
     0
  0
VISUALSTYLE
  5
39
102
{ACAD_REACTORS
330
2A
102
}
102
{ACAD_XDICTIONARY
360
1A3
102
}
330
2A
100
AcDbVisualStyle
  2
Facepattern
 70
    15
 71
     2
 72
     2
 73
     0
 90
        0
 40
-0.6
 41
-30.0
 62
     5
 63
     7
 74
     1
 91
        4
 64
     7
 65
   257
 75
     1
175
     1
 42
1.0
 92
        8
 66
     7
 43
1.0
 76
     1
 77
     6
 78
     2
 67
     7
 79
     5
170
     0
171
     0
290
     0
174
     0
 93
        1
 44
0.0
173
     0
291
     1
 45
0.0
1001
ACAD
1000
AcDbSavedByObjectVersion
1070
     0
  0
VISUALSTYLE
  5
2B
102
{ACAD_REACTORS
330
2A
102
}
102
{ACAD_XDICTIONARY
360
187
102
}
330
2A
100
AcDbVisualStyle
  2
Flat
 70
     0
 71
     2
 72
     1
 73
     1
 90
        2
 40
-0.6
 41
30.0
 62
     5
 63
     7
 74
     0
 91
        4
 64
     7
 65
   257
 75
     1
175
     1
 42
1.0
 92
        8
 66
     7
 43
1.0
 76
     1
 77
     6
 78
     2
 67
     7
 79
     5
170
     0
171
     0
290
     0
174
     0
 93
       13
 44
0.0
173
     0
291
     1
 45
0.0
1001
ACAD
1000
AcDbSavedByObjectVersion
1070
     0
  0
VISUALSTYLE
  5
2C
102
{ACAD_REACTORS
330
2A
102
}
102
{ACAD_XDICTIONARY
360
189
102
}
330
2A
100
AcDbVisualStyle
  2
FlatWithEdges
 70
     1
 71
     2
 72
     1
 73
     1
 90
        2
 40
-0.6
 41
30.0
 62
     5
 63
     7
 74
     1
 91
        4
 64
     7
 65
   257
 75
     1
175
     1
 42
1.0
 92
        0
 66
   257
 43
1.0
 76
     1
 77
     6
 78
     2
 67
     7
 79
     5
170
     0
171
     0
290
     0
174
     0
 93
       13
 44
0.0
173
     0
291
     1
 45
0.0
1001
ACAD
1000
AcDbSavedByObjectVersion
1070
     0
  0
VISUALSTYLE
  5
2D
102
{ACAD_REACTORS
330
2A
102
}
102
{ACAD_XDICTIONARY
360
18B
102
}
330
2A
100
AcDbVisualStyle
  2
Gouraud
 70
     2
 71
     2
 72
     2
 73
     1
 90
        2
 40
-0.6
 41
30.0
 62
     5
 63
     7
 74
     0
 91
        4
 64
     7
 65
   257
 75
     1
175
     1
 42
1.0
 92
        0
 66
     7
 43
1.0
 76
     1
 77
     6
 78
     2
 67
     7
 79
     5
170
     0
171
     0
290
     0
174
     0
 93
       13
 44
0.0
173
     0
291
     1
 45
0.0
1001
ACAD
1000
AcDbSavedByObjectVersion
1070
     0
  0
VISUALSTYLE
  5
2E
102
{ACAD_REACTORS
330
2A
102
}
102
{ACAD_XDICTIONARY
360
18D
102
}
330
2A
100
AcDbVisualStyle
  2
GouraudWithEdges
 70
     3
 71
     2
 72
     2
 73
     1
 90
        2
 40
-0.6
 41
30.0
 62
     5
 63
     7
 74
     1
 91
        4
 64
     7
 65
   257
 75
     1
175
     1
 42
1.0
 92
        0
 66
   257
 43
1.0
 76
     1
 77
     6
 78
     2
 67
     7
 79
     5
170
     0
171
     0
290
     0
174
     0
 93
       13
 44
0.0
173
     0
291
     1
 45
0.0
1001
ACAD
1000
AcDbSavedByObjectVersion
1070
     0
  0
VISUALSTYLE
  5
38
102
{ACAD_REACTORS
330
2A
102
}
102
{ACAD_XDICTIONARY
360
1A1
102
}
330
2A
100
AcDbVisualStyle
  2
Linepattern
 70
    14
 71
     2
 72
     2
 73
     0
 90
        0
 40
-0.6
 41
-30.0
 62
     5
 63
     7
 74
     1
 91
        4
 64
     7
 65
   257
 75
     7
175
     7
 42
1.0
 92
        8
 66
     7
 43
1.0
 76
     1
 77
     6
 78
     2
 67
     7
 79
     5
170
     0
171
     0
290
     0
174
     0
 93
        1
 44
0.0
173
     0
291
     1
 45
0.0
1001
ACAD
1000
AcDbSavedByObjectVersion
1070
     0
  0
VISUALSTYLE
  5
33
102
{ACAD_REACTORS
330
2A
102
}
102
{ACAD_XDICTIONARY
360
197
102
}
330
2A
100
AcDbVisualStyle
  2
Realistic
 70
     8
 71
     2
 72
     2
 73
     0
 90
        0
 40
-0.6
 41
-30.0
 62
     5
 63
     7
 74
     1
 91
        0
 64
     7
 65
   257
 75
     1
175
     1
 42
1.0
 92
        8
 66
     8
 43
1.0
 76
     1
 77
     6
 78
     2
 67
     7
 79
     5
170
     0
171
     0
290
     0
174
     0
 93
       13
 44
0.0
173
     0
291
     0
 45
0.0
1001
ACAD
1000
AcDbSavedByObjectVersion
1070
     0
  0
VISUALSTYLE
  5
37
102
{ACAD_REACTORS
330
2A
102
}
102
{ACAD_XDICTIONARY
360
19F
102
}
330
2A
100
AcDbVisualStyle
  2
Thicken
 70
    13
 71
     2
 72
     2
 73
     0
 90
        0
 40
-0.6
 41
-30.0
 62
     5
 63
     7
 74
     1
 91
        4
 64
     7
 65
   257
 75
     1
175
     1
 42
1.0
 92
       12
 66
     7
 43
1.0
 76
     1
 77
     6
 78
     2
 67
     7
 79
     5
170
     0
171
     0
290
     0
174
     0
 93
        1
 44
0.0
173
     0
291
     1
 45
0.0
1001
ACAD
1000
AcDbSavedByObjectVersion
1070
     0
  0
DICTIONARYVAR
  5
185
102
{ACAD_REACTORS
330
180
102
}
330
180
100
DictionaryVariables
280
     0
  1
2
  0
DICTIONARYVAR
  5
186
102
{ACAD_REACTORS
330
180
102
}
330
180
100
DictionaryVariables
280
     0
  1
1
  0
DICTIONARYVAR
  5
184
102
{ACAD_REACTORS
330
180
102
}
330
180
100
DictionaryVariables
280
     0
  1
80.000000
  0
DICTIONARYVAR
  5
183
102
{ACAD_REACTORS
330
180
102
}
330
180
100
DictionaryVariables
280
     0
  1
5.000000
  0
DICTIONARY
  5
1A9
330
3D
100
AcDbDictionary
280
     1
281
     1
  3
ACAD_XREC_ROUNDTRIP
360
1AA
  0
DICTIONARY
  5
1A7
330
3C
100
AcDbDictionary
280
     1
281
     1
  3
ACAD_XREC_ROUNDTRIP
360
1A8
  0
DICTIONARY
  5
1AB
330
3E
100
AcDbDictionary
280
     1
281
     1
  3
ACAD_XREC_ROUNDTRIP
360
1AC
  0
DICTIONARY
  5
18F
330
2F
100
AcDbDictionary
280
     1
281
     1
  3
ACAD_XREC_ROUNDTRIP
360
190
  0
DICTIONARY
  5
193
330
31
100
AcDbDictionary
280
     1
281
     1
  3
ACAD_XREC_ROUNDTRIP
360
194
  0
DICTIONARY
  5
191
330
30
100
AcDbDictionary
280
     1
281
     1
  3
ACAD_XREC_ROUNDTRIP
360
192
  0
DICTIONARY
  5
195
330
32
100
AcDbDictionary
280
     1
281
     1
  3
ACAD_XREC_ROUNDTRIP
360
196
  0
DICTIONARY
  5
19D
330
36
100
AcDbDictionary
280
     1
281
     1
  3
ACAD_XREC_ROUNDTRIP
360
19E
  0
DICTIONARY
  5
1A5
330
3A
100
AcDbDictionary
280
     1
281
     1
  3
ACAD_XREC_ROUNDTRIP
360
1A6
  0
DICTIONARY
  5
199
330
34
100
AcDbDictionary
280
     1
281
     1
  3
ACAD_XREC_ROUNDTRIP
360
19A
  0
DICTIONARY
  5
19B
330
35
100
AcDbDictionary
280
     1
281
     1
  3
ACAD_XREC_ROUNDTRIP
360
19C
  0
DICTIONARY
  5
1A3
330
39
100
AcDbDictionary
280
     1
281
     1
  3
ACAD_XREC_ROUNDTRIP
360
1A4
  0
DICTIONARY
  5
187
330
2B
100
AcDbDictionary
280
     1
281
     1
  3
ACAD_XREC_ROUNDTRIP
360
188
  0
DICTIONARY
  5
189
330
2C
100
AcDbDictionary
280
     1
281
     1
  3
ACAD_XREC_ROUNDTRIP
360
18A
  0
DICTIONARY
  5
18B
330
2D
100
AcDbDictionary
280
     1
281
     1
  3
ACAD_XREC_ROUNDTRIP
360
18C
  0
DICTIONARY
  5
18D
330
2E
100
AcDbDictionary
280
     1
281
     1
  3
ACAD_XREC_ROUNDTRIP
360
18E
  0
DICTIONARY
  5
1A1
330
38
100
AcDbDictionary
280
     1
281
     1
  3
ACAD_XREC_ROUNDTRIP
360
1A2
  0
DICTIONARY
  5
197
330
33
100
AcDbDictionary
280
     1
281
     1
  3
ACAD_XREC_ROUNDTRIP
360
198
  0
DICTIONARY
  5
19F
330
37
100
AcDbDictionary
280
     1
281
     1
  3
ACAD_XREC_ROUNDTRIP
360
1A0
  0
XRECORD
  5
1AA
102
{ACAD_REACTORS
330
1A9
102
}
330
1A9
100
AcDbXrecord
280
     1
102
MATERIAL
148
0.0
149
0.0
149
0.0
 93
        0
 94
      127
282
     0
 72
     1
 77
     1
171
     1
175
     1
179
     1
273
     0
  0
XRECORD
  5
1A8
102
{ACAD_REACTORS
330
1A7
102
}
330
1A7
100
AcDbXrecord
280
     1
102
MATERIAL
148
0.0
149
0.0
149
0.0
 93
        0
 94
      127
282
     0
 72
     1
 77
     1
171
     1
175
     1
179
     1
273
     0
  0
XRECORD
  5
1AC
102
{ACAD_REACTORS
330
1AB
102
}
330
1AB
100
AcDbXrecord
280
     1
102
MATERIAL
148
0.0
149
0.0
149
0.0
 93
        0
 94
      127
282
     0
 72
     1
 77
     1
171
     1
175
     1
179
     1
273
     0
  0
XRECORD
  5
190
102
{ACAD_REACTORS
330
18F
102
}
330
18F
100
AcDbXrecord
280
     1
102
RTVSPropertyOp0
 70
     1
102
RTVSPropertyOp1
 70
     1
102
RTVSPropertyOp2
 70
     1
102
RTVSPropertyOp3
 70
     1
102
RTVSPropertyOp4
 70
     1
102
RTVSPropertyOp5
 70
     1
102
RTVSPropertyOp6
 70
     1
102
RTVSPropertyOp7
 70
     1
102
RTVSPropertyOp8
 70
     1
102
RTVSPropertyOp9
 70
     1
102
RTVSPropertyOp10
 70
     1
102
RTVSPropertyOp11
 70
     1
102
RTVSPropertyOp12
 70
     1
102
RTVSPropertyOp13
 70
     1
102
RTVSPropertyOp14
 70
     1
102
RTVSPropertyOp15
 70
     1
102
RTVSPropertyOp16
 70
     1
102
RTVSPropertyOp17
 70
     1
102
RTVSPropertyOp18
 70
     1
102
RTVSPropertyOp19
 70
     1
102
RTVSPropertyOp20
 70
     1
102
RTVSPropertyOp21
 70
     1
102
RTVSPropertyOp22
 70
     1
102
RTVSPropertyOp23
 70
     1
102
RTVSPropertyOp24
 70
     1
102
RTVSPropertyOp25
 70
     1
102
RTVSPropertyOp26
 70
     1
102
RTVSPropertyOp27
 70
     1
102
RTVSPropertyOp28
 70
     1
102
RTVSPropertyOp29
 70
     1
102
RTVSPropertyOp30
 70
     1
102
RTVSPropertyOp31
 70
     1
102
RTVSPropertyOp32
 70
     1
  0
XRECORD
  5
194
102
{ACAD_REACTORS
330
193
102
}
330
193
100
AcDbXrecord
280
     1
102
RTVSPropertyOp0
 70
     1
102
RTVSPropertyOp1
 70
     1
102
RTVSPropertyOp2
 70
     1
102
RTVSPropertyOp3
 70
     1
102
RTVSPropertyOp4
 70
     1
102
RTVSPropertyOp5
 70
     1
102
RTVSPropertyOp6
 70
     1
102
RTVSPropertyOp7
 70
     1
102
RTVSPropertyOp8
 70
     1
102
RTVSPropertyOp9
 70
     1
102
RTVSPropertyOp10
 70
     1
102
RTVSPropertyOp11
 70
     1
102
RTVSPropertyOp12
 70
     1
102
RTVSPropertyOp13
 70
     1
102
RTVSPropertyOp14
 70
     1
102
RTVSPropertyOp15
 70
     1
102
RTVSPropertyOp16
 70
     1
102
RTVSPropertyOp17
 70
     1
102
RTVSPropertyOp18
 70
     1
102
RTVSPropertyOp19
 70
     1
102
RTVSPropertyOp20
 70
     1
102
RTVSPropertyOp21
 70
     1
102
RTVSPropertyOp22
 70
     1
102
RTVSPropertyOp23
 70
     1
102
RTVSPropertyOp24
 70
     1
102
RTVSPropertyOp25
 70
     1
102
RTVSPropertyOp26
 70
     1
102
RTVSPropertyOp27
 70
     1
102
RTVSPropertyOp28
 70
     1
102
RTVSPropertyOp29
 70
     1
102
RTVSPropertyOp30
 70
     1
102
RTVSPropertyOp31
 70
     1
102
RTVSPropertyOp32
 70
     1
  0
XRECORD
  5
192
102
{ACAD_REACTORS
330
191
102
}
330
191
100
AcDbXrecord
280
     1
102
RTVSPropertyOp0
 70
     1
102
RTVSPropertyOp1
 70
     1
102
RTVSPropertyOp2
 70
     1
102
RTVSPropertyOp3
 70
     1
102
RTVSPropertyOp4
 70
     1
102
RTVSPropertyOp5
 70
     1
102
RTVSPropertyOp6
 70
     1
102
RTVSPropertyOp7
 70
     1
102
RTVSPropertyOp8
 70
     1
102
RTVSPropertyOp9
 70
     1
102
RTVSPropertyOp10
 70
     1
102
RTVSPropertyOp11
 70
     1
102
RTVSPropertyOp12
 70
     1
102
RTVSPropertyOp13
 70
     1
102
RTVSPropertyOp14
 70
     1
102
RTVSPropertyOp15
 70
     1
102
RTVSPropertyOp16
 70
     1
102
RTVSPropertyOp17
 70
     1
102
RTVSPropertyOp18
 70
     1
102
RTVSPropertyOp19
 70
     1
102
RTVSPropertyOp20
 70
     1
102
RTVSPropertyOp21
 70
     1
102
RTVSPropertyOp22
 70
     1
102
RTVSPropertyOp23
 70
     1
102
RTVSPropertyOp24
 70
     1
102
RTVSPropertyOp25
 70
     1
102
RTVSPropertyOp26
 70
     1
102
RTVSPropertyOp27
 70
     1
102
RTVSPropertyOp28
 70
     1
102
RTVSPropertyOp29
 70
     1
102
RTVSPropertyOp30
 70
     1
102
RTVSPropertyOp31
 70
     1
102
RTVSPropertyOp32
 70
     1
  0
XRECORD
  5
196
102
{ACAD_REACTORS
330
195
102
}
330
195
100
AcDbXrecord
280
     1
102
RTVSPropertyOp0
 70
     1
102
RTVSPropertyOp1
 70
     1
102
RTVSPropertyOp2
 70
     1
102
RTVSPropertyOp3
 70
     1
102
RTVSPropertyOp4
 70
     1
102
RTVSPropertyOp5
 70
     1
102
RTVSPropertyOp6
 70
     1
102
RTVSPropertyOp7
 70
     1
102
RTVSPropertyOp8
 70
     1
102
RTVSPropertyOp9
 70
     1
102
RTVSPropertyOp10
 70
     1
102
RTVSPropertyOp11
 70
     1
102
RTVSPropertyOp12
 70
     1
102
RTVSPropertyOp13
 70
     1
102
RTVSPropertyOp14
 70
     1
102
RTVSPropertyOp15
 70
     1
102
RTVSPropertyOp16
 70
     1
102
RTVSPropertyOp17
 70
     1
102
RTVSPropertyOp18
 70
     1
102
RTVSPropertyOp19
 70
     1
102
RTVSPropertyOp20
 70
     1
102
RTVSPropertyOp21
 70
     1
102
RTVSPropertyOp22
 70
     1
102
RTVSPropertyOp23
 70
     1
102
RTVSPropertyOp24
 70
     1
102
RTVSPropertyOp25
 70
     1
102
RTVSPropertyOp26
 70
     1
102
RTVSPropertyOp27
 70
     1
102
RTVSPropertyOp28
 70
     1
102
RTVSPropertyOp29
 70
     1
102
RTVSPropertyOp30
 70
     1
102
RTVSPropertyOp31
 70
     1
102
RTVSPropertyOp32
 70
     1
  0
XRECORD
  5
19E
102
{ACAD_REACTORS
330
19D
102
}
330
19D
100
AcDbXrecord
280
     1
102
RTVSPropertyOp0
 70
     1
102
RTVSPropertyOp1
 70
     1
102
RTVSPropertyOp2
 70
     1
102
RTVSPropertyOp3
 70
     1
102
RTVSPropertyOp4
 70
     1
102
RTVSPropertyOp5
 70
     1
102
RTVSPropertyOp6
 70
     1
102
RTVSPropertyOp7
 70
     1
102
RTVSPropertyOp8
 70
     1
102
RTVSPropertyOp9
 70
     1
102
RTVSPropertyOp10
 70
     1
102
RTVSPropertyOp11
 70
     1
102
RTVSPropertyOp12
 70
     1
102
RTVSPropertyOp13
 70
     1
102
RTVSPropertyOp14
 70
     1
102
RTVSPropertyOp15
 70
     1
102
RTVSPropertyOp16
 70
     1
102
RTVSPropertyOp17
 70
     1
102
RTVSPropertyOp18
 70
     1
102
RTVSPropertyOp19
 70
     1
102
RTVSPropertyOp20
 70
     1
102
RTVSPropertyOp21
 70
     1
102
RTVSPropertyOp22
 70
     1
102
RTVSPropertyOp23
 70
     1
102
RTVSPropertyOp24
 70
     1
102
RTVSPropertyOp25
 70
     1
102
RTVSPropertyOp26
 70
     1
102
RTVSPropertyOp27
 70
     1
102
RTVSPropertyOp28
 70
     1
102
RTVSPropertyOp29
 70
     1
102
RTVSPropertyOp30
 70
     1
102
RTVSPropertyOp31
 70
     1
102
RTVSPropertyOp32
 70
     1
  0
XRECORD
  5
1A6
102
{ACAD_REACTORS
330
1A5
102
}
330
1A5
100
AcDbXrecord
280
     1
102
RTVSPropertyOp0
 70
     1
102
RTVSPropertyOp1
 70
     1
102
RTVSPropertyOp2
 70
     1
102
RTVSPropertyOp3
 70
     1
102
RTVSPropertyOp4
 70
     1
102
RTVSPropertyOp5
 70
     1
102
RTVSPropertyOp6
 70
     1
102
RTVSPropertyOp7
 70
     1
102
RTVSPropertyOp8
 70
     1
102
RTVSPropertyOp9
 70
     1
102
RTVSPropertyOp10
 70
     1
102
RTVSPropertyOp11
 70
     1
102
RTVSPropertyOp12
 70
     1
102
RTVSPropertyOp13
 70
     1
102
RTVSPropertyOp14
 70
     1
102
RTVSPropertyOp15
 70
     1
102
RTVSPropertyOp16
 70
     1
102
RTVSPropertyOp17
 70
     1
102
RTVSPropertyOp18
 70
     1
102
RTVSPropertyOp19
 70
     1
102
RTVSPropertyOp20
 70
     1
102
RTVSPropertyOp21
 70
     1
102
RTVSPropertyOp22
 70
     1
102
RTVSPropertyOp23
 70
     1
102
RTVSPropertyOp24
 70
     1
102
RTVSPropertyOp25
 70
     1
102
RTVSPropertyOp26
 70
     1
102
RTVSPropertyOp27
 70
     1
102
RTVSPropertyOp28
 70
     1
102
RTVSPropertyOp29
 70
     1
102
RTVSPropertyOp30
 70
     1
102
RTVSPropertyOp31
 70
     1
102
RTVSPropertyOp32
 70
     1
  0
XRECORD
  5
19A
102
{ACAD_REACTORS
330
199
102
}
330
199
100
AcDbXrecord
280
     1
102
RTVSPropertyOp0
 70
     1
102
RTVSPropertyOp1
 70
     1
102
RTVSPropertyOp2
 70
     1
102
RTVSPropertyOp3
 70
     1
102
RTVSPropertyOp4
 70
     1
102
RTVSPropertyOp5
 70
     1
102
RTVSPropertyOp6
 70
     1
102
RTVSPropertyOp7
 70
     1
102
RTVSPropertyOp8
 70
     1
102
RTVSPropertyOp9
 70
     1
102
RTVSPropertyOp10
 70
     1
102
RTVSPropertyOp11
 70
     1
102
RTVSPropertyOp12
 70
     1
102
RTVSPropertyOp13
 70
     1
102
RTVSPropertyOp14
 70
     1
102
RTVSPropertyOp15
 70
     1
102
RTVSPropertyOp16
 70
     1
102
RTVSPropertyOp17
 70
     1
102
RTVSPropertyOp18
 70
     1
102
RTVSPropertyOp19
 70
     1
102
RTVSPropertyOp20
 70
     1
102
RTVSPropertyOp21
 70
     1
102
RTVSPropertyOp22
 70
     1
102
RTVSPropertyOp23
 70
     1
102
RTVSPropertyOp24
 70
     1
102
RTVSPropertyOp25
 70
     1
102
RTVSPropertyOp26
 70
     1
102
RTVSPropertyOp27
 70
     1
102
RTVSPropertyOp28
 70
     1
102
RTVSPropertyOp29
 70
     1
102
RTVSPropertyOp30
 70
     1
102
RTVSPropertyOp31
 70
     1
102
RTVSPropertyOp32
 70
     1
  0
XRECORD
  5
19C
102
{ACAD_REACTORS
330
19B
102
}
330
19B
100
AcDbXrecord
280
     1
102
RTVSPropertyOp0
 70
     1
102
RTVSPropertyOp1
 70
     1
102
RTVSPropertyOp2
 70
     1
102
RTVSPropertyOp3
 70
     1
102
RTVSPropertyOp4
 70
     1
102
RTVSPropertyOp5
 70
     1
102
RTVSPropertyOp6
 70
     1
102
RTVSPropertyOp7
 70
     1
102
RTVSPropertyOp8
 70
     1
102
RTVSPropertyOp9
 70
     1
102
RTVSPropertyOp10
 70
     1
102
RTVSPropertyOp11
 70
     1
102
RTVSPropertyOp12
 70
     1
102
RTVSPropertyOp13
 70
     1
102
RTVSPropertyOp14
 70
     1
102
RTVSPropertyOp15
 70
     1
102
RTVSPropertyOp16
 70
     1
102
RTVSPropertyOp17
 70
     1
102
RTVSPropertyOp18
 70
     1
102
RTVSPropertyOp19
 70
     1
102
RTVSPropertyOp20
 70
     1
102
RTVSPropertyOp21
 70
     1
102
RTVSPropertyOp22
 70
     1
102
RTVSPropertyOp23
 70
     1
102
RTVSPropertyOp24
 70
     1
102
RTVSPropertyOp25
 70
     1
102
RTVSPropertyOp26
 70
     1
102
RTVSPropertyOp27
 70
     1
102
RTVSPropertyOp28
 70
     1
102
RTVSPropertyOp29
 70
     1
102
RTVSPropertyOp30
 70
     1
102
RTVSPropertyOp31
 70
     1
102
RTVSPropertyOp32
 70
     1
  0
XRECORD
  5
1A4
102
{ACAD_REACTORS
330
1A3
102
}
330
1A3
100
AcDbXrecord
280
     1
102
RTVSPropertyOp0
 70
     1
102
RTVSPropertyOp1
 70
     1
102
RTVSPropertyOp2
 70
     1
102
RTVSPropertyOp3
 70
     1
102
RTVSPropertyOp4
 70
     1
102
RTVSPropertyOp5
 70
     1
102
RTVSPropertyOp6
 70
     1
102
RTVSPropertyOp7
 70
     1
102
RTVSPropertyOp8
 70
     1
102
RTVSPropertyOp9
 70
     1
102
RTVSPropertyOp10
 70
     1
102
RTVSPropertyOp11
 70
     1
102
RTVSPropertyOp12
 70
     1
102
RTVSPropertyOp13
 70
     1
102
RTVSPropertyOp14
 70
     1
102
RTVSPropertyOp15
 70
     1
102
RTVSPropertyOp16
 70
     1
102
RTVSPropertyOp17
 70
     1
102
RTVSPropertyOp18
 70
     1
102
RTVSPropertyOp19
 70
     1
102
RTVSPropertyOp20
 70
     1
102
RTVSPropertyOp21
 70
     1
102
RTVSPropertyOp22
 70
     1
102
RTVSPropertyOp23
 70
     1
102
RTVSPropertyOp24
 70
     1
102
RTVSPropertyOp25
 70
     1
102
RTVSPropertyOp26
 70
     1
102
RTVSPropertyOp27
 70
     1
102
RTVSPropertyOp28
 70
     1
102
RTVSPropertyOp29
 70
     1
102
RTVSPropertyOp30
 70
     1
102
RTVSPropertyOp31
 70
     1
102
RTVSPropertyOp32
 70
     1
  0
XRECORD
  5
188
102
{ACAD_REACTORS
330
187
102
}
330
187
100
AcDbXrecord
280
     1
102
RTVSPropertyOp0
 70
     1
102
RTVSPropertyOp1
 70
     1
102
RTVSPropertyOp2
 70
     1
102
RTVSPropertyOp3
 70
     1
102
RTVSPropertyOp4
 70
     1
102
RTVSPropertyOp5
 70
     1
102
RTVSPropertyOp6
 70
     1
102
RTVSPropertyOp7
 70
     1
102
RTVSPropertyOp8
 70
     1
102
RTVSPropertyOp9
 70
     1
102
RTVSPropertyOp10
 70
     1
102
RTVSPropertyOp11
 70
     1
102
RTVSPropertyOp12
 70
     1
102
RTVSPropertyOp13
 70
     1
102
RTVSPropertyOp14
 70
     1
102
RTVSPropertyOp15
 70
     1
102
RTVSPropertyOp16
 70
     1
102
RTVSPropertyOp17
 70
     1
102
RTVSPropertyOp18
 70
     1
102
RTVSPropertyOp19
 70
     1
102
RTVSPropertyOp20
 70
     1
102
RTVSPropertyOp21
 70
     1
102
RTVSPropertyOp22
 70
     1
102
RTVSPropertyOp23
 70
     1
102
RTVSPropertyOp24
 70
     1
102
RTVSPropertyOp25
 70
     1
102
RTVSPropertyOp26
 70
     1
102
RTVSPropertyOp27
 70
     1
102
RTVSPropertyOp28
 70
     1
102
RTVSPropertyOp29
 70
     1
102
RTVSPropertyOp30
 70
     1
102
RTVSPropertyOp31
 70
     1
102
RTVSPropertyOp32
 70
     1
  0
XRECORD
  5
18A
102
{ACAD_REACTORS
330
189
102
}
330
189
100
AcDbXrecord
280
     1
102
RTVSPropertyOp0
 70
     1
102
RTVSPropertyOp1
 70
     1
102
RTVSPropertyOp2
 70
     1
102
RTVSPropertyOp3
 70
     1
102
RTVSPropertyOp4
 70
     1
102
RTVSPropertyOp5
 70
     1
102
RTVSPropertyOp6
 70
     1
102
RTVSPropertyOp7
 70
     1
102
RTVSPropertyOp8
 70
     1
102
RTVSPropertyOp9
 70
     1
102
RTVSPropertyOp10
 70
     1
102
RTVSPropertyOp11
 70
     1
102
RTVSPropertyOp12
 70
     1
102
RTVSPropertyOp13
 70
     1
102
RTVSPropertyOp14
 70
     1
102
RTVSPropertyOp15
 70
     1
102
RTVSPropertyOp16
 70
     1
102
RTVSPropertyOp17
 70
     1
102
RTVSPropertyOp18
 70
     1
102
RTVSPropertyOp19
 70
     1
102
RTVSPropertyOp20
 70
     1
102
RTVSPropertyOp21
 70
     1
102
RTVSPropertyOp22
 70
     1
102
RTVSPropertyOp23
 70
     1
102
RTVSPropertyOp24
 70
     1
102
RTVSPropertyOp25
 70
     1
102
RTVSPropertyOp26
 70
     1
102
RTVSPropertyOp27
 70
     1
102
RTVSPropertyOp28
 70
     1
102
RTVSPropertyOp29
 70
     1
102
RTVSPropertyOp30
 70
     1
102
RTVSPropertyOp31
 70
     1
102
RTVSPropertyOp32
 70
     1
  0
XRECORD
  5
18C
102
{ACAD_REACTORS
330
18B
102
}
330
18B
100
AcDbXrecord
280
     1
102
RTVSPropertyOp0
 70
     1
102
RTVSPropertyOp1
 70
     1
102
RTVSPropertyOp2
 70
     1
102
RTVSPropertyOp3
 70
     1
102
RTVSPropertyOp4
 70
     1
102
RTVSPropertyOp5
 70
     1
102
RTVSPropertyOp6
 70
     1
102
RTVSPropertyOp7
 70
     1
102
RTVSPropertyOp8
 70
     1
102
RTVSPropertyOp9
 70
     1
102
RTVSPropertyOp10
 70
     1
102
RTVSPropertyOp11
 70
     1
102
RTVSPropertyOp12
 70
     1
102
RTVSPropertyOp13
 70
     1
102
RTVSPropertyOp14
 70
     1
102
RTVSPropertyOp15
 70
     1
102
RTVSPropertyOp16
 70
     1
102
RTVSPropertyOp17
 70
     1
102
RTVSPropertyOp18
 70
     1
102
RTVSPropertyOp19
 70
     1
102
RTVSPropertyOp20
 70
     1
102
RTVSPropertyOp21
 70
     1
102
RTVSPropertyOp22
 70
     1
102
RTVSPropertyOp23
 70
     1
102
RTVSPropertyOp24
 70
     1
102
RTVSPropertyOp25
 70
     1
102
RTVSPropertyOp26
 70
     1
102
RTVSPropertyOp27
 70
     1
102
RTVSPropertyOp28
 70
     1
102
RTVSPropertyOp29
 70
     1
102
RTVSPropertyOp30
 70
     1
102
RTVSPropertyOp31
 70
     1
102
RTVSPropertyOp32
 70
     1
  0
XRECORD
  5
18E
102
{ACAD_REACTORS
330
18D
102
}
330
18D
100
AcDbXrecord
280
     1
102
RTVSPropertyOp0
 70
     1
102
RTVSPropertyOp1
 70
     1
102
RTVSPropertyOp2
 70
     1
102
RTVSPropertyOp3
 70
     1
102
RTVSPropertyOp4
 70
     1
102
RTVSPropertyOp5
 70
     1
102
RTVSPropertyOp6
 70
     1
102
RTVSPropertyOp7
 70
     1
102
RTVSPropertyOp8
 70
     1
102
RTVSPropertyOp9
 70
     1
102
RTVSPropertyOp10
 70
     1
102
RTVSPropertyOp11
 70
     1
102
RTVSPropertyOp12
 70
     1
102
RTVSPropertyOp13
 70
     1
102
RTVSPropertyOp14
 70
     1
102
RTVSPropertyOp15
 70
     1
102
RTVSPropertyOp16
 70
     1
102
RTVSPropertyOp17
 70
     1
102
RTVSPropertyOp18
 70
     1
102
RTVSPropertyOp19
 70
     1
102
RTVSPropertyOp20
 70
     1
102
RTVSPropertyOp21
 70
     1
102
RTVSPropertyOp22
 70
     1
102
RTVSPropertyOp23
 70
     1
102
RTVSPropertyOp24
 70
     1
102
RTVSPropertyOp25
 70
     1
102
RTVSPropertyOp26
 70
     1
102
RTVSPropertyOp27
 70
     1
102
RTVSPropertyOp28
 70
     1
102
RTVSPropertyOp29
 70
     1
102
RTVSPropertyOp30
 70
     1
102
RTVSPropertyOp31
 70
     1
102
RTVSPropertyOp32
 70
     1
  0
XRECORD
  5
1A2
102
{ACAD_REACTORS
330
1A1
102
}
330
1A1
100
AcDbXrecord
280
     1
102
RTVSPropertyOp0
 70
     1
102
RTVSPropertyOp1
 70
     1
102
RTVSPropertyOp2
 70
     1
102
RTVSPropertyOp3
 70
     1
102
RTVSPropertyOp4
 70
     1
102
RTVSPropertyOp5
 70
     1
102
RTVSPropertyOp6
 70
     1
102
RTVSPropertyOp7
 70
     1
102
RTVSPropertyOp8
 70
     1
102
RTVSPropertyOp9
 70
     1
102
RTVSPropertyOp10
 70
     1
102
RTVSPropertyOp11
 70
     1
102
RTVSPropertyOp12
 70
     1
102
RTVSPropertyOp13
 70
     1
102
RTVSPropertyOp14
 70
     1
102
RTVSPropertyOp15
 70
     1
102
RTVSPropertyOp16
 70
     1
102
RTVSPropertyOp17
 70
     1
102
RTVSPropertyOp18
 70
     1
102
RTVSPropertyOp19
 70
     1
102
RTVSPropertyOp20
 70
     1
102
RTVSPropertyOp21
 70
     1
102
RTVSPropertyOp22
 70
     1
102
RTVSPropertyOp23
 70
     1
102
RTVSPropertyOp24
 70
     1
102
RTVSPropertyOp25
 70
     1
102
RTVSPropertyOp26
 70
     1
102
RTVSPropertyOp27
 70
     1
102
RTVSPropertyOp28
 70
     1
102
RTVSPropertyOp29
 70
     1
102
RTVSPropertyOp30
 70
     1
102
RTVSPropertyOp31
 70
     1
102
RTVSPropertyOp32
 70
     1
  0
XRECORD
  5
198
102
{ACAD_REACTORS
330
197
102
}
330
197
100
AcDbXrecord
280
     1
102
RTVSPropertyOp0
 70
     1
102
RTVSPropertyOp1
 70
     1
102
RTVSPropertyOp2
 70
     1
102
RTVSPropertyOp3
 70
     1
102
RTVSPropertyOp4
 70
     1
102
RTVSPropertyOp5
 70
     1
102
RTVSPropertyOp6
 70
     1
102
RTVSPropertyOp7
 70
     1
102
RTVSPropertyOp8
 70
     1
102
RTVSPropertyOp9
 70
     1
102
RTVSPropertyOp10
 70
     1
102
RTVSPropertyOp11
 70
     1
102
RTVSPropertyOp12
 70
     1
102
RTVSPropertyOp13
 70
     1
102
RTVSPropertyOp14
 70
     1
102
RTVSPropertyOp15
 70
     1
102
RTVSPropertyOp16
 70
     1
102
RTVSPropertyOp17
 70
     1
102
RTVSPropertyOp18
 70
     1
102
RTVSPropertyOp19
 70
     1
102
RTVSPropertyOp20
 70
     1
102
RTVSPropertyOp21
 70
     1
102
RTVSPropertyOp22
 70
     1
102
RTVSPropertyOp23
 70
     1
102
RTVSPropertyOp24
 70
     1
102
RTVSPropertyOp25
 70
     1
102
RTVSPropertyOp26
 70
     1
102
RTVSPropertyOp27
 70
     1
102
RTVSPropertyOp28
 70
     1
102
RTVSPropertyOp29
 70
     1
102
RTVSPropertyOp30
 70
     1
102
RTVSPropertyOp31
 70
     1
102
RTVSPropertyOp32
 70
     1
  0
XRECORD
  5
1A0
102
{ACAD_REACTORS
330
19F
102
}
330
19F
100
AcDbXrecord
280
     1
102
RTVSPropertyOp0
 70
     1
102
RTVSPropertyOp1
 70
     1
102
RTVSPropertyOp2
 70
     1
102
RTVSPropertyOp3
 70
     1
102
RTVSPropertyOp4
 70
     1
102
RTVSPropertyOp5
 70
     1
102
RTVSPropertyOp6
 70
     1
102
RTVSPropertyOp7
 70
     1
102
RTVSPropertyOp8
 70
     1
102
RTVSPropertyOp9
 70
     1
102
RTVSPropertyOp10
 70
     1
102
RTVSPropertyOp11
 70
     1
102
RTVSPropertyOp12
 70
     1
102
RTVSPropertyOp13
 70
     1
102
RTVSPropertyOp14
 70
     1
102
RTVSPropertyOp15
 70
     1
102
RTVSPropertyOp16
 70
     1
102
RTVSPropertyOp17
 70
     1
102
RTVSPropertyOp18
 70
     1
102
RTVSPropertyOp19
 70
     1
102
RTVSPropertyOp20
 70
     1
102
RTVSPropertyOp21
 70
     1
102
RTVSPropertyOp22
 70
     1
102
RTVSPropertyOp23
 70
     1
102
RTVSPropertyOp24
 70
     1
102
RTVSPropertyOp25
 70
     1
102
RTVSPropertyOp26
 70
     1
102
RTVSPropertyOp27
 70
     1
102
RTVSPropertyOp28
 70
     1
102
RTVSPropertyOp29
 70
     1
102
RTVSPropertyOp30
 70
     1
102
RTVSPropertyOp31
 70
     1
102
RTVSPropertyOp32
 70
     1
  0
ENDSEC
  0
EOF
