  0
SECTION
  2
HEADER
  9
$ACADVER
  1
AC1015
  9
$ACADMAINTVER
 70
     6
  9
$DWGCODEPAGE
  3
ANSI_1252
  9
$INSBASE
 10
0.0
 20
0.0
 30
0.0
  9
$EXTMIN
 10
0.0
 20
0.0
 30
0.0
  9
$EXTMAX
 10
210.0
 20
297.0
 30
0.0
  9
$LIMMIN
 10
0.0
 20
0.0
  9
$LIMMAX
 10
210.0
 20
297.0
  9
$ORTHOMODE
 70
     0
  9
$REGENMODE
 70
     1
  9
$FILLMODE
 70
     1
  9
$QTEXTMODE
 70
     0
  9
$MIRRTEXT
 70
     1
  9
$LTSCALE
 40
1.0
  9
$ATTMODE
 70
     1
  9
$TEXTSIZE
 40
2.5
  9
$TRACEWID
 40
1.0
  9
$TEXTSTYLE
  7
Standard
  9
$CLAYER
  8
0
  9
$CELTYPE
  6
ByLayer
  9
$CECOLOR
 62
   256
  9
$CELTSCALE
 40
1.0
  9
$DISPSILH
 70
     0
  9
$DIMSCALE
 40
1.0
  9
$DIMASZ
 40
2.5
  9
$DIMEXO
 40
0.625
  9
$DIMDLI
 40
3.75
  9
$DIMRND
 40
0.0
  9
$DIMDLE
 40
0.0
  9
$DIMEXE
 40
1.25
  9
$DIMTP
 40
0.0
  9
$DIMTM
 40
0.0
  9
$DIMTXT
 40
2.5
  9
$DIMCEN
 40
2.5
  9
$DIMTSZ
 40
0.0
  9
$DIMTOL
 70
     0
  9
$DIMLIM
 70
     0
  9
$DIMTIH
 70
     0
  9
$DIMTOH
 70
     0
  9
$DIMSE1
 70
     0
  9
$DIMSE2
 70
     0
  9
$DIMTAD
 70
     1
  9
$DIMZIN
 70
     8
  9
$DIMBLK
  1

  9
$DIMASO
 70
     1
  9
$DIMSHO
 70
     1
  9
$DIMPOST
  1

  9
$DIMAPOST
  1

  9
$DIMALT
 70
     0
  9
$DIMALTD
 70
     3
  9
$DIMALTF
 40
0.0393700787
  9
$DIMLFAC
 40
1.0
  9
$DIMTOFL
 70
     1
  9
$DIMTVP
 40
0.0
  9
$DIMTIX
 70
     0
  9
$DIMSOXD
 70
     0
  9
$DIMSAH
 70
     0
  9
$DIMBLK1
  1

  9
$DIMBLK2
  1

  9
$DIMSTYLE
  2
ISO-25
  9
$DIMCLRD
 70
     0
  9
$DIMCLRE
 70
     0
  9
$DIMCLRT
 70
     0
  9
$DIMTFAC
 40
1.0
  9
$DIMGAP
 40
0.625
  9
$DIMJUST
 70
     0
  9
$DIMSD1
 70
     0
  9
$DIMSD2
 70
     0
  9
$DIMTOLJ
 70
     0
  9
$DIMTZIN
 70
     8
  9
$DIMALTZ
 70
     0
  9
$DIMALTTZ
 70
     0
  9
$DIMUPT
 70
     0
  9
$DIMDEC
 70
     2
  9
$DIMTDEC
 70
     2
  9
$DIMALTU
 70
     2
  9
$DIMALTTD
 70
     3
  9
$DIMTXSTY
  7
Standard
  9
$DIMAUNIT
 70
     0
  9
$DIMADEC
 70
     0
  9
$DIMALTRND
 40
0.0
  9
$DIMAZIN
 70
     0
  9
$DIMDSEP
 70
    44
  9
$DIMATFIT
 70
     3
  9
$DIMFRAC
 70
     0
  9
$DIMLDRBLK
  1

  9
$DIMLUNIT
 70
     2
  9
$DIMLWD
 70
    -2
  9
$DIMLWE
 70
    -2
  9
$DIMTMOVE
 70
     0
  9
$LUNITS
 70
     2
  9
$LUPREC
 70
     4
  9
$SKETCHINC
 40
1.0
  9
$FILLETRAD
 40
10.0
  9
$AUNITS
 70
     0
  9
$AUPREC
 70
     0
  9
$MENU
  1
.
  9
$ELEVATION
 40
0.0
  9
$PELEVATION
 40
0.0
  9
$THICKNESS
 40
0.0
  9
$LIMCHECK
 70
     0
  9
$CHAMFERA
 40
10.0
  9
$CHAMFERB
 40
10.0
  9
$CHAMFERC
 40
20.0
  9
$CHAMFERD
 40
0.0
  9
$SKPOLY
 70
     0
  9
$TDCREATE
 40
2457567.301130683
  9
$TDUCREATE
 40
2457567.21779735
  9
$TDUPDATE
 40
2457567.301133206
  9
$TDUUPDATE
 40
2457567.217799873
  9
$TDINDWG
 40
0.0000000116
  9
$TDUSRTIMER
 40
0.0000000116
  9
$USRTIMER
 70
     1
  9
$ANGBASE
 50
0.0
  9
$ANGDIR
 70
     0
  9
$PDMODE
 70
     0
  9
$PDSIZE
 40
0.0
  9
$PLINEWID
 40
0.0
  9
$SPLFRAME
 70
     0
  9
$SPLINETYPE
 70
     6
  9
$SPLINESEGS
 70
     8
  9
$HANDSEED
  5
1AE
  9
$SURFTAB1
 70
     6
  9
$SURFTAB2
 70
     6
  9
$SURFTYPE
 70
     6
  9
$SURFU
 70
     6
  9
$SURFV
 70
     6
  9
$UCSBASE
  2

  9
$UCSNAME
  2

  9
$UCSORG
 10
0.0
 20
0.0
 30
0.0
  9
$UCSXDIR
 10
1.0
 20
0.0
 30
0.0
  9
$UCSYDIR
 10
0.0
 20
1.0
 30
0.0
  9
$UCSORTHOREF
  2

  9
$UCSORTHOVIEW
 70
     0
  9
$UCSORGTOP
 10
0.0
 20
0.0
 30
0.0
  9
$UCSORGBOTTOM
 10
0.0
 20
0.0
 30
0.0
  9
$UCSORGLEFT
 10
0.0
 20
0.0
 30
0.0
  9
$UCSORGRIGHT
 10
0.0
 20
0.0
 30
0.0
  9
$UCSORGFRONT
 10
0.0
 20
0.0
 30
0.0
  9
$UCSORGBACK
 10
0.0
 20
0.0
 30
0.0
  9
$PUCSBASE
  2

  9
$PUCSNAME
  2

  9
$PUCSORG
 10
0.0
 20
0.0
 30
0.0
  9
$PUCSXDIR
 10
1.0
 20
0.0
 30
0.0
  9
$PUCSYDIR
 10
0.0
 20
1.0
 30
0.0
  9
$PUCSORTHOREF
  2

  9
$PUCSORTHOVIEW
 70
     0
  9
$PUCSORGTOP
 10
0.0
 20
0.0
 30
0.0
  9
$PUCSORGBOTTOM
 10
0.0
 20
0.0
 30
0.0
  9
$PUCSORGLEFT
 10
0.0
 20
0.0
 30
0.0
  9
$PUCSORGRIGHT
 10
0.0
 20
0.0
 30
0.0
  9
$PUCSORGFRONT
 10
0.0
 20
0.0
 30
0.0
  9
$PUCSORGBACK
 10
0.0
 20
0.0
 30
0.0
  9
$USERI1
 70
     0
  9
$USERI2
 70
     0
  9
$USERI3
 70
     0
  9
$USERI4
 70
     0
  9
$USERI5
 70
     0
  9
$USERR1
 40
0.0
  9
$USERR2
 40
0.0
  9
$USERR3
 40
0.0
  9
$USERR4
 40
0.0
  9
$USERR5
 40
0.0
  9
$WORLDVIEW
 70
     1
  9
$SHADEDGE
 70
     3
  9
$SHADEDIF
 70
    70
  9
$TILEMODE
 70
     1
  9
$MAXACTVP
 70
    64
  9
$PINSBASE
 10
0.0
 20
0.0
 30
0.0
  9
$PLIMCHECK
 70
     0
  9
$PEXTMIN
 10
0.0
 20
0.0
 30
0.0
  9
$PEXTMAX
 10
210.0
 20
297.0
 30
0.0
  9
$PLIMMIN
 10
0.0
 20
0.0
  9
$PLIMMAX
 10
210.0
 20
297.0
  9
$UNITMODE
 70
     0
  9
$VISRETAIN
 70
     1
  9
$PLINEGEN
 70
     0
  9
$PSLTSCALE
 70
     1
  9
$TREEDEPTH
 70
  3020
  9
$CMLSTYLE
  2
Standard
  9
$CMLJUST
 70
     0
  9
$CMLSCALE
 40
20.0
  9
$PROXYGRAPHICS
 70
     1
  9
$MEASUREMENT
 70
     1
  9
$CELWEIGHT
370
    -1
  9
$ENDCAPS
280
     0
  9
$JOINSTYLE
280
     0
  9
$LWDISPLAY
290
     0
  9
$INSUNITS
 70
     4
  9
$HYPERLINKBASE
  1

  9
$STYLESHEET
  1

  9
$XEDIT
290
     1
  9
$CEPSNTYPE
380
     0
  9
$PSTYLEMODE
290
     1
  9
$FINGERPRINTGUID
  2
{9263FFC5-F456-4958-AA82-1EFF84781560}
  9
$VERSIONGUID
  2
{FAEB1C32-E019-11D5-929B-00C0DF256EC4}
  9
$EXTNAMES
290
     1
  9
$PSVPSCALE
 40
0.0
  9
$OLESTARTUP
290
     0
  0
ENDSEC
  0
SECTION
  2
CLASSES
  0
CLASS
  1
ACDBDICTIONARYWDFLT
  2
AcDbDictionaryWithDefault
  3
ObjectDBX Classes
 90
        0
280
     0
281
     0
  0
CLASS
  1
VISUALSTYLE
  2
AcDbVisualStyle
  3
ObjectDBX Classes
 90
     4095
280
     0
281
     0
  0
CLASS
  1
MATERIAL
  2
AcDbMaterial
  3
ObjectDBX Classes
 90
     1153
280
     0
281
     0
  0
CLASS
  1
DICTIONARYVAR
  2
AcDbDictionaryVar
  3
ObjectDBX Classes
 90
        0
280
     0
281
     0
  0
CLASS
  1
ACDBPLACEHOLDER
  2
AcDbPlaceHolder
  3
ObjectDBX Classes
 90
        0
280
     0
281
     0
  0
CLASS
  1
LAYOUT
  2
AcDbLayout
  3
ObjectDBX Classes
 90
        0
280
     0
281
     0
  0
ENDSEC
  0
SECTION
  2
TABLES
  0
TABLE
  2
VPORT
  5
8
330
0
100
AcDbSymbolTable
 70
     1
  0
VPORT
  5
29
330
8
100
AcDbSymbolTableRecord
100
AcDbViewportTableRecord
  2
*Active
 70
     0
 10
0.0
 20
0.0
 11
1.0
 21
1.0
 12
344.1869158879
 22
148.5
 13
0.0
 23
0.0
 14
10.0
 24
10.0
 15
10.0
 25
10.0
 16
0.0
 26
0.0
 36
1.0
 17
0.0
 27
0.0
 37
0.0
 40
297.0
 41
1.9729729729
 42
50.0
 43
0.0
 44
0.0
 50
0.0
 51
0.0
 71
     0
 72
   100
 73
     1
 74
     3
 75
     0
 76
     0
 77
     0
 78
     0
281
     0
 65
     1
110
0.0
120
0.0
130
0.0
111
1.0
121
0.0
131
0.0
112
0.0
122
1.0
132
0.0
 79
     0
146
0.0
  0
ENDTAB
  0
TABLE
  2
LTYPE
  5
5
330
0
100
AcDbSymbolTable
 70
     2
  0
LTYPE
  5
14
330
5
100
AcDbSymbolTableRecord
100
AcDbLinetypeTableRecord
  2
ByBlock
 70
     0
  3

 72
    65
 73
     0
 40
0.0
  0
LTYPE
  5
15
330
5
100
AcDbSymbolTableRecord
100
AcDbLinetypeTableRecord
  2
ByLayer
 70
     0
  3

 72
    65
 73
     0
 40
0.0
  0
LTYPE
  5
16
330
5
100
AcDbSymbolTableRecord
100
AcDbLinetypeTableRecord
  2
Continuous
 70
     0
  3
Solid line
 72
    65
 73
     0
 40
0.0
  0
LTYPE
  5
40
330
5
100
AcDbSymbolTableRecord
100
AcDbLinetypeTableRecord
  2
HIDDEN2
 70
     0
  3
Hidden (.5x) _ _ _ _ _ _ _ _ _ _ _ _ _ _ _ _ _ 
 72
    65
 73
     2
 40
4.7625
 49
3.175
 74
     4
 75
     0
340
0
 46
0.0
 50
0.0
 44
0.0
 45
0.0
 49
-1.5875
 74
     4
 75
     0
340
0
 46
0.0
 50
0.0
 44
0.0
 45
0.0
  0
ENDTAB
  0
TABLE
  2
LAYER
  5
2
330
0
100
AcDbSymbolTable
 70
     5
  0
LAYER
  5
10
330
2
100
AcDbSymbolTableRecord
100
AcDbLayerTableRecord
  2
0
 70
     0
 62
     7
  6
Continuous
370
    -3
390
F
  0
LAYER
  5
3F
330
2
100
AcDbSymbolTableRecord
100
AcDbLayerTableRecord
  2
SK3
 70
     0
 62
     1
  6
HIDDEN2
370
    15
390
F
  0
LAYER
  5
42
330
2
100
AcDbSymbolTableRecord
100
AcDbLayerTableRecord
  2
SK1
 70
     0
 62
     4
  6
Continuous
370
    18
390
F
  0
LAYER
  5
12A
330
2
100
AcDbSymbolTableRecord
100
AcDbLayerTableRecord
  2
SK4
 70
     0
 62
     2
  6
Continuous
370
    13
390
F
  0
LAYER
  5
12C
330
2
100
AcDbSymbolTableRecord
100
AcDbLayerTableRecord
  2
SK2
 70
     0
 62
     7
  6
Continuous
370
    15
390
F
  0
ENDTAB
  0
TABLE
  2
STYLE
  5
3
330
0
100
AcDbSymbolTable
 70
     2
  0
STYLE
  5
11
330
3
100
AcDbSymbolTableRecord
100
AcDbTextStyleTableRecord
  2
Standard
 70
     0
 40
0.0
 41
1.0
 50
0.0
 71
     0
 42
2.5
  3
txt
  4

  0
STYLE
  5
13F
330
3
100
AcDbSymbolTableRecord
100
AcDbTextStyleTableRecord
  2
SEACAD_Solid_Edge_ISO
 70
     0
 40
0.0
 41
1.0
 50
0.0
 71
     0
 42
0.2
  3
seiso.ttf
  4

1001
ACAD
1000
Solid Edge ISO
1071
        0
  0
ENDTAB
  0
TABLE
  2
VIEW
  5
6
330
0
100
AcDbSymbolTable
 70
     0
  0
ENDTAB
  0
TABLE
  2
UCS
  5
7
330
0
100
AcDbSymbolTable
 70
     0
  0
ENDTAB
  0
TABLE
  2
APPID
  5
9
330
0
100
AcDbSymbolTable
 70
     1
  0
APPID
  5
12
330
9
100
AcDbSymbolTableRecord
100
AcDbRegAppTableRecord
  2
ACAD
 70
     0
  0
ENDTAB
  0
TABLE
  2
DIMSTYLE
  5
A
330
0
100
AcDbSymbolTable
 70
     3
100
AcDbDimStyleTable
  0
DIMSTYLE
105
27
330
A
100
AcDbSymbolTableRecord
100
AcDbDimStyleTableRecord
  2
ISO-25
 70
     0
 41
2.5
 42
0.625
 43
3.75
 44
1.25
 73
     0
 74
     0
 77
     1
 78
     8
140
2.5
141
2.5
143
0.0393700787
147
0.625
171
     3
172
     1
178
     0
271
     2
272
     2
274
     3
278
    44
283
     0
284
     8
340
11
  0
DIMSTYLE
105
12D
330
A
100
AcDbSymbolTableRecord
100
AcDbDimStyleTableRecord
  2
Standard
 70
     0
178
     0
340
11
  0
DIMSTYLE
105
140
102
{ACAD_REACTORS
330
141
330
14B
330
156
330
160
102
}
330
A
100
AcDbSymbolTableRecord
100
AcDbDimStyleTableRecord
  2
DIN
 70
     0
 41
3.5
 42
0.0
 44
1.75
 73
     0
 74
     0
 77
     1
 78
     8
140
3.5
141
1.75
147
1.75
172
     1
173
     1
178
     0
179
     3
271
     2
272
     2
278
    44
284
     8
340
13F
343
13A
344
13A
  0
ENDTAB
  0
TABLE
  2
BLOCK_RECORD
  5
1
330
0
100
AcDbSymbolTable
 70
    10
  0
BLOCK_RECORD
  5
1F
330
1
100
AcDbSymbolTableRecord
100
AcDbBlockTableRecord
  2
*Model_Space
340
22
  0
BLOCK_RECORD
  5
1B
330
1
100
AcDbSymbolTableRecord
100
AcDbBlockTableRecord
  2
*Paper_Space
340
1E
  0
BLOCK_RECORD
  5
12E
330
1
100
AcDbSymbolTableRecord
100
AcDbBlockTableRecord
  2
_OBLIQUE
340
0
  0
BLOCK_RECORD
  5
132
330
1
100
AcDbSymbolTableRecord
100
AcDbBlockTableRecord
  2
_DOT
340
0
  0
BLOCK_RECORD
  5
13A
330
1
100
AcDbSymbolTableRecord
100
AcDbBlockTableRecord
  2
_SE_FILLED
340
0
  0
BLOCK_RECORD
  5
142
330
1
100
AcDbSymbolTableRecord
100
AcDbBlockTableRecord
  2
DMBLK9
340
0
  0
BLOCK_RECORD
  5
14C
330
1
100
AcDbSymbolTableRecord
100
AcDbBlockTableRecord
  2
DMBLK10
340
0
  0
BLOCK_RECORD
  5
157
330
1
100
AcDbSymbolTableRecord
100
AcDbBlockTableRecord
  2
DMBLK11
340
0
  0
BLOCK_RECORD
  5
161
330
1
100
AcDbSymbolTableRecord
100
AcDbBlockTableRecord
  2
DMBLK12
340
0
  0
BLOCK_RECORD
  5
16B
330
1
100
AcDbSymbolTableRecord
100
AcDbBlockTableRecord
  2
Nullpunkt
340
0
102
{BLKREFS
331
175
102
}
  0
BLOCK_RECORD
  5
176
330
1
100
AcDbSymbolTableRecord
100
AcDbBlockTableRecord
  2
Einfügepunkt
340
0
102
{BLKREFS
331
180
102
}
  0
ENDTAB
  0
ENDSEC
  0
SECTION
  2
BLOCKS
  0
BLOCK
  5
20
330
1F
100
AcDbEntity
  8
0
100
AcDbBlockBegin
  2
*Model_Space
 70
     0
 10
0.0
 20
0.0
 30
0.0
  3
*Model_Space
  1

  0
ENDBLK
  5
21
330
1F
100
AcDbEntity
  8
0
100
AcDbBlockEnd
  0
BLOCK
  5
1C
330
1B
100
AcDbEntity
 67
     1
  8
0
100
AcDbBlockBegin
  2
*Paper_Space
 70
     0
 10
0.0
 20
0.0
 30
0.0
  3
*Paper_Space
  1

  0
ENDBLK
  5
1D
330
1B
100
AcDbEntity
 67
     1
  8
0
100
AcDbBlockEnd
  0
BLOCK
  5
12F
330
12E
100
AcDbEntity
  8
0
100
AcDbBlockBegin
  2
_OBLIQUE
 70
     0
 10
0.0
 20
0.0
 30
0.0
  3
_OBLIQUE
  1

  0
LINE
  5
131
330
12E
100
AcDbEntity
  8
0
  6
ByBlock
 62
     0
370
    -2
100
AcDbLine
 10
-0.5
 20
-0.5
 30
0.0
 11
0.5
 21
0.5
 31
0.0
  0
ENDBLK
  5
130
330
12E
100
AcDbEntity
  8
0
100
AcDbBlockEnd
  0
BLOCK
  5
133
330
132
100
AcDbEntity
  8
0
100
AcDbBlockBegin
  2
_DOT
 70
     0
 10
0.0
 20
0.0
 30
0.0
  3
_DOT
  1

  0
POLYLINE
  5
135
330
132
100
AcDbEntity
  8
0
  6
ByBlock
 62
     0
100
AcDb2dPolyline
 66
     1
 10
0.0
 20
0.0
 30
0.0
 70
     1
 40
0.5
 41
0.5
  0
VERTEX
  5
137
330
135
100
AcDbEntity
  8
0
  6
ByBlock
 62
     0
100
AcDbVertex
100
AcDb2dVertex
 10
-0.25
 20
0.0
 30
0.0
 42
1.0
  0
VERTEX
  5
138
330
135
100
AcDbEntity
  8
0
  6
ByBlock
 62
     0
100
AcDbVertex
100
AcDb2dVertex
 10
0.25
 20
0.0
 30
0.0
 42
1.0
  0
SEQEND
  5
139
330
135
100
AcDbEntity
  8
0
  6
ByBlock
 62
     0
  0
LINE
  5
136
330
132
100
AcDbEntity
  8
0
  6
ByBlock
 62
     0
370
    -2
100
AcDbLine
 10
-0.5
 20
0.0
 30
0.0
 11
-1.0
 21
0.0
 31
0.0
  0
ENDBLK
  5
134
330
132
100
AcDbEntity
  8
0
100
AcDbBlockEnd
  0
BLOCK
  5
13D
330
13A
100
AcDbEntity
  8
0
100
AcDbBlockBegin
  2
_SE_FILLED
 70
     0
 10
0.0
 20
0.0
 30
0.0
  3
_SE_FILLED
  1

  0
SOLID
  5
13B
330
13A
100
AcDbEntity
  8
0
 62
     0
100
AcDbTrace
 10
0.0
 20
0.0
 30
0.0
 11
-1.0
 21
-0.1665
 31
0.0
 12
-1.0
 22
0.1665
 32
0.0
 13
0.0
 23
0.0
 33
0.0
  0
LINE
  5
13C
330
13A
100
AcDbEntity
  8
0
 62
     0
100
AcDbLine
 10
0.0
 20
0.0
 30
0.0
 11
-1.0
 21
0.0
 31
0.0
  0
ENDBLK
  5
13E
330
13A
100
AcDbEntity
  8
0
100
AcDbBlockEnd
  0
BLOCK
  5
149
330
142
100
AcDbEntity
  8
0
100
AcDbBlockBegin
  2
DMBLK9
 70
     0
 10
0.0
 20
0.0
 30
0.0
  3
DMBLK9
  1

  0
HATCH
  5
143
330
142
100
AcDbEntity
  8
SK2
  6
Continuous
 62
   136
100
AcDbHatch
 10
0.0
 20
0.0
 30
0.0
210
0.0
220
0.0
230
1.0
  2
SOLID
 70
     1
 71
     0
 91
        1
 92
        1
 93
        3
 72
     1
 10
-18.83999989196669
 20
20.58333342278563
 11
-22.34000000000011
 21
20.00000007144673
 72
     1
 10
-22.34000000000011
 20
20.00000007144673
 11
-18.83999989196669
 21
19.41666672010782
 72
     1
 10
-18.83999989196669
 20
19.41666672010782
 11
-18.83999989196669
 21
20.58333342278563
 97
        0
 75
     0
 76
     1
 98
        0
  0
HATCH
  5
144
330
142
100
AcDbEntity
  8
SK2
  6
Continuous
 62
   136
100
AcDbHatch
 10
0.0
 20
0.0
 30
0.0
210
0.0
220
0.0
230
1.0
  2
SOLID
 70
     1
 71
     0
 91
        1
 92
        1
 93
        3
 72
     1
 10
8.16000173971046
 20
20.58333342278563
 11
8.16000173971046
 21
19.41666672010782
 72
     1
 10
8.16000173971046
 20
19.41666672010782
 11
11.66000184774388
 21
20.00000007144673
 72
     1
 10
11.66000184774388
 20
20.00000007144673
 11
8.16000173971046
 21
20.58333342278563
 97
        0
 75
     0
 76
     1
 98
        0
  0
LINE
  5
145
330
142
100
AcDbEntity
  8
SK2
  6
Continuous
 62
   136
100
AcDbLine
 10
-22.34
 20
9.0904101326
 30
0.0
 11
-22.34
 21
21.7500001255
 31
0.0
  0
LINE
  5
146
330
142
100
AcDbEntity
  8
SK2
  6
Continuous
 62
   136
100
AcDbLine
 10
11.66
 20
9.1882744343
 30
0.0
 11
11.66
 21
21.7500001255
 31
0.0
  0
LINE
  5
147
330
142
100
AcDbEntity
  8
SK2
  6
Continuous
 62
   136
100
AcDbLine
 10
-22.34
 20
20.0000000714
 30
0.0
 11
11.6600018477
 21
20.0000000714
 31
0.0
  0
TEXT
  5
148
330
142
100
AcDbEntity
  8
SK2
  6
Continuous
 62
   136
100
AcDbText
 10
-7.2888627125
 20
20.8750000714
 30
0.0
 40
3.5
  1
34
  7
SEACAD_Solid_Edge_ISO
 11
-7.2888627125
 21
24.3750000714
 31
0.0
100
AcDbText
 73
     3
  0
ENDBLK
  5
14A
330
142
100
AcDbEntity
  8
0
100
AcDbBlockEnd
  0
BLOCK
  5
154
330
14C
100
AcDbEntity
  8
0
100
AcDbBlockBegin
  2
DMBLK10
 70
     0
 10
0.0
 20
0.0
 30
0.0
  3
DMBLK10
  1

  0
HATCH
  5
14D
330
14C
100
AcDbEntity
  8
SK2
  6
Continuous
 62
   136
100
AcDbHatch
 10
0.0
 20
0.0
 30
0.0
210
0.0
220
0.0
230
1.0
  2
SOLID
 70
     1
 71
     0
 91
        1
 92
        1
 93
        3
 72
     1
 10
23.08463152023653
 20
-8.265000108033425
 11
22.50129816889763
 21
-4.765000000000006
 72
     1
 10
22.50129816889763
 20
-4.765000000000005
 11
21.91796481755872
 21
-8.265000108033423
 72
     1
 10
21.91796481755872
 20
-8.265000108033425
 11
23.08463152023653
 21
-8.265000108033425
 97
        0
 75
     0
 76
     1
 98
        0
  0
HATCH
  5
14E
330
14C
100
AcDbEntity
  8
SK2
  6
Continuous
 62
   136
100
AcDbHatch
 10
0.0
 20
0.0
 30
0.0
210
0.0
220
0.0
230
1.0
  2
SOLID
 70
     1
 71
     0
 91
        1
 92
        1
 93
        3
 72
     1
 10
23.08463152023653
 20
8.265000108033423
 11
21.91796481755872
 21
8.265000108033423
 72
     1
 10
21.91796481755872
 20
8.265000108033423
 11
22.50129816889763
 21
4.765000000000004
 72
     1
 10
22.50129816889763
 20
4.765000000000003
 11
23.08463152023653
 21
8.265000108033423
 97
        0
 75
     0
 76
     1
 98
        0
  0
LINE
  5
14F
330
14C
100
AcDbEntity
  8
SK2
  6
Continuous
 62
   136
100
AcDbLine
 10
11.26
 20
-4.765
 30
0.0
 11
24.2512982229
 21
-4.765
 31
0.0
  0
LINE
  5
150
330
14C
100
AcDbEntity
  8
SK2
  6
Continuous
 62
   136
100
AcDbLine
 10
11.26
 20
4.765
 30
0.0
 11
24.2512982229
 21
4.765
 31
0.0
  0
LINE
  5
151
330
14C
100
AcDbEntity
  8
SK2
  6
Continuous
 62
   136
100
AcDbLine
 10
22.5012981689
 20
-11.7650002161
 30
0.0
 11
22.5012981689
 21
23.1250004923
 31
0.0
  0
TEXT
  5
152
330
14C
100
AcDbEntity
  8
SK2
  6
Continuous
 62
   136
100
AcDbText
 10
21.6262981689
 20
15.2977272435
 30
0.0
 40
3.5
  1
9,53
 50
90.0
  7
SEACAD_Solid_Edge_ISO
 11
18.1262981689
 21
15.2977272435
 31
0.0
100
AcDbText
 73
     3
  0
TEXT
  5
153
330
14C
100
AcDbEntity
  8
SK2
  6
Continuous
 62
   136
100
AcDbText
 10
21.6262981689
 20
11.2249999708
 30
0.0
 40
3.5
  1
ø
 50
90.0
  7
SEACAD_Solid_Edge_ISO
 11
18.1262981689
 21
11.2249999708
 31
0.0
100
AcDbText
 73
     3
  0
ENDBLK
  5
155
330
14C
100
AcDbEntity
  8
0
100
AcDbBlockEnd
  0
BLOCK
  5
15E
330
157
100
AcDbEntity
  8
0
100
AcDbBlockBegin
  2
DMBLK11
 70
     0
 10
0.0
 20
0.0
 30
0.0
  3
DMBLK11
  1

  0
HATCH
  5
158
330
157
100
AcDbEntity
  8
SK2
  6
Continuous
 62
   136
100
AcDbHatch
 10
0.0
 20
0.0
 30
0.0
210
0.0
220
0.0
230
1.0
  2
SOLID
 70
     1
 71
     0
 91
        1
 92
        1
 93
        3
 72
     1
 10
15.16000010803342
 20
-20.58333301221482
 11
15.16000010803342
 21
-19.41666630953701
 72
     1
 10
15.16000010803342
 20
-19.41666630953701
 11
11.66
 21
-19.99999966087591
 72
     1
 10
11.66
 20
-19.99999966087591
 11
15.16000010803342
 21
-20.58333301221482
 97
        0
 75
     0
 76
     1
 98
        0
  0
HATCH
  5
159
330
157
100
AcDbEntity
  8
SK2
  6
Continuous
 62
   136
100
AcDbHatch
 10
0.0
 20
0.0
 30
0.0
210
0.0
220
0.0
230
1.0
  2
SOLID
 70
     1
 71
     0
 91
        1
 92
        1
 93
        3
 72
     1
 10
-3.500000108033419
 20
-20.58333301221482
 11
0.0
 21
-19.99999966087591
 72
     1
 10
0.0
 20
-19.99999966087591
 11
-3.500000108033419
 21
-19.41666630953701
 72
     1
 10
-3.500000108033419
 20
-19.41666630953701
 11
-3.500000108033419
 21
-20.58333301221482
 97
        0
 75
     0
 76
     1
 98
        0
  0
LINE
  5
15A
330
157
100
AcDbEntity
  8
SK2
  6
Continuous
 62
   136
100
AcDbLine
 10
11.66
 20
-10.1189110925
 30
0.0
 11
11.66
 21
-21.7499997149
 31
0.0
  0
LINE
  5
15B
330
157
100
AcDbEntity
  8
SK2
  6
Continuous
 62
   136
100
AcDbLine
 10
0.0
 20
-12.4996746285
 30
0.0
 11
0.0
 21
-21.7499997149
 31
0.0
  0
LINE
  5
15C
330
157
100
AcDbEntity
  8
SK2
  6
Continuous
 62
   136
100
AcDbLine
 10
18.6600002161
 20
-19.9999996609
 30
0.0
 11
-6.9999995941
 21
-19.9999996609
 31
0.0
  0
TEXT
  5
15D
330
157
100
AcDbEntity
  8
SK2
  6
Continuous
 62
   136
100
AcDbText
 10
1.9322725726
 20
-19.1249996609
 30
0.0
 40
3.5
  1
11,66
  7
SEACAD_Solid_Edge_ISO
 11
1.9322725726
 21
-15.6249996609
 31
0.0
100
AcDbText
 73
     3
  0
ENDBLK
  5
15F
330
157
100
AcDbEntity
  8
0
100
AcDbBlockEnd
  0
BLOCK
  5
169
330
161
100
AcDbEntity
  8
0
100
AcDbBlockBegin
  2
DMBLK12
 70
     0
 10
0.0
 20
0.0
 30
0.0
  3
DMBLK12
  1

  0
HATCH
  5
162
330
161
100
AcDbEntity
  8
SK2
  6
Continuous
 62
   136
100
AcDbHatch
 10
0.0
 20
0.0
 30
0.0
210
0.0
220
0.0
230
1.0
  2
SOLID
 70
     1
 71
     0
 91
        1
 92
        1
 93
        3
 72
     1
 10
-30.58333268078665
 20
8.999674520426055
 11
-29.41666597810885
 21
8.999674520426055
 72
     1
 10
-29.41666597810885
 20
8.999674520426055
 11
-29.99999932944775
 21
12.49967462845947
 72
     1
 10
-29.99999932944775
 20
12.49967462845947
 11
-30.58333268078665
 21
8.999674520426055
 97
        0
 75
     0
 76
     1
 98
        0
  0
HATCH
  5
163
330
161
100
AcDbEntity
  8
SK2
  6
Continuous
 62
   136
100
AcDbHatch
 10
0.0
 20
0.0
 30
0.0
210
0.0
220
0.0
230
1.0
  2
SOLID
 70
     1
 71
     0
 91
        1
 92
        1
 93
        3
 72
     1
 10
-30.58333268078665
 20
-8.999673710233907
 11
-29.99999932944775
 21
-12.49967381826733
 72
     1
 10
-29.99999932944775
 20
-12.49967381826733
 11
-29.41666597810885
 21
-8.999673710233907
 72
     1
 10
-29.41666597810885
 20
-8.999673710233907
 11
-30.58333268078665
 21
-8.999673710233907
 97
        0
 75
     0
 76
     1
 98
        0
  0
LINE
  5
164
330
161
100
AcDbEntity
  8
SK2
  6
Continuous
 62
   136
100
AcDbLine
 10
0.0
 20
12.4996746285
 30
0.0
 11
-31.7499993835
 21
12.4996746285
 31
0.0
  0
LINE
  5
165
330
161
100
AcDbEntity
  8
SK2
  6
Continuous
 62
   136
100
AcDbLine
 10
0.0
 20
-12.4996746285
 30
0.0
 11
-31.7499993835
 21
-12.4996746285
 31
0.0
  0
LINE
  5
166
330
161
100
AcDbEntity
  8
SK2
  6
Continuous
 62
   136
100
AcDbLine
 10
-29.9999993294
 20
12.4996746285
 30
0.0
 11
-29.9999993294
 21
-12.4996738183
 31
0.0
  0
TEXT
  5
167
330
161
100
AcDbEntity
  8
SK2
  6
Continuous
 62
   136
100
AcDbText
 10
-30.8749993294
 20
-0.0318177767
 30
0.0
 40
3.5
  1
25
 50
90.0
  7
SEACAD_Solid_Edge_ISO
 11
-34.3749993294
 21
-0.0318177767
 31
0.0
100
AcDbText
 73
     3
  0
TEXT
  5
168
330
161
100
AcDbEntity
  8
SK2
  6
Continuous
 62
   136
100
AcDbText
 10
-30.8749993294
 20
-4.1045450494
 30
0.0
 40
3.5
  1
ø
 50
90.0
  7
SEACAD_Solid_Edge_ISO
 11
-34.3749993294
 21
-4.1045450494
 31
0.0
100
AcDbText
 73
     3
  0
ENDBLK
  5
16A
330
161
100
AcDbEntity
  8
0
100
AcDbBlockEnd
  0
BLOCK
  5
173
330
16B
100
AcDbEntity
  8
0
100
AcDbBlockBegin
  2
Nullpunkt
 70
     0
 10
0.0
 20
0.0
 30
0.0
  3
Nullpunkt
  1

  0
HATCH
  5
16C
330
16B
100
AcDbEntity
  8
SK2
  6
Continuous
 62
     7
100
AcDbHatch
 10
0.0
 20
0.0
 30
0.0
210
0.0
220
0.0
230
1.0
  2
SOLID
 70
     1
 71
     0
 91
        1
 92
        1
 93
        3
 72
     1
 10
-1.0
 20
0.0
 11
0.0000000000000009
 21
0.0
 72
     1
 10
0.0
 20
0.0
 11
0.0
 21
1.000000000000001
 72
     2
 10
0.0
 20
0.0
 40
1.0
 50
90.0
 51
180.0
 73
     1
 97
        0
 75
     0
 76
     1
 98
        0
  0
HATCH
  5
16D
330
16B
100
AcDbEntity
  8
SK2
  6
Continuous
 62
     7
100
AcDbHatch
 10
0.0
 20
0.0
 30
0.0
210
0.0
220
0.0
230
1.0
  2
SOLID
 70
     1
 71
     0
 91
        1
 92
        1
 93
        3
 72
     2
 10
0.0
 20
0.0
 40
1.0
 50
270.0
 51
360.0
 73
     1
 72
     1
 10
1.0
 20
0.0
 11
-0.0000000000000009
 21
0.0
 72
     1
 10
0.0
 20
0.0
 11
0.0
 21
-1.000000000000001
 97
        0
 75
     0
 76
     1
 98
        0
  0
CIRCLE
  5
16E
330
16B
100
AcDbEntity
  8
SK2
  6
Continuous
 62
     7
100
AcDbCircle
 10
0.0
 20
0.0
 30
0.0
 40
1.0
  0
LINE
  5
16F
330
16B
100
AcDbEntity
  8
SK1
  6
Continuous
100
AcDbLine
 10
-1.0
 20
0.0
 30
0.0
 11
1.0
 21
0.0
 31
0.0
  0
LINE
  5
170
330
16B
100
AcDbEntity
  8
SK1
  6
Continuous
100
AcDbLine
 10
0.0
 20
1.0
 30
0.0
 11
0.0
 21
-1.0
 31
0.0
  0
POINT
  5
171
330
16B
100
AcDbEntity
  8
SK1
  6
Continuous
100
AcDbPoint
 10
0.0
 20
0.0
 30
0.0
  0
POINT
  5
172
330
16B
100
AcDbEntity
  8
SK1
  6
Continuous
100
AcDbPoint
 10
0.0
 20
0.0
 30
0.0
  0
ENDBLK
  5
174
330
16B
100
AcDbEntity
  8
0
100
AcDbBlockEnd
  0
BLOCK
  5
17E
330
176
100
AcDbEntity
  8
0
100
AcDbBlockBegin
  2
Einfügepunkt
 70
     0
 10
0.0
 20
0.0
 30
0.0
  3
Einfügepunkt
  1

  0
HATCH
  5
177
330
176
100
AcDbEntity
  8
SK2
  6
Continuous
 62
     7
100
AcDbHatch
 10
0.0
 20
0.0
 30
0.0
210
0.0
220
0.0
230
1.0
  2
SOLID
 70
     1
 71
     0
 91
        1
 92
        1
 93
        3
 72
     1
 10
-0.4502381196756744
 20
-0.0000000000000018
 11
0.0000000000000033
 21
-0.0000000000000018
 72
     1
 10
0.0
 20
-0.0000000000000018
 11
0.0
 21
0.4502381196756812
 72
     2
 10
0.0
 20
-0.0000000000000018
 40
0.4502381196756812
 50
90.0
 51
180.0
 73
     1
 97
        0
 75
     0
 76
     1
 98
        0
  0
HATCH
  5
178
330
176
100
AcDbEntity
  8
SK2
  6
Continuous
 62
     7
100
AcDbHatch
 10
0.0
 20
0.0
 30
0.0
210
0.0
220
0.0
230
1.0
  2
SOLID
 70
     1
 71
     0
 91
        1
 92
        1
 93
        3
 72
     2
 10
0.0
 20
-0.0000000000000018
 40
0.4502381196756812
 50
270.0
 51
360.0
 73
     1
 72
     1
 10
0.4502381196756815
 20
-0.0000000000000018
 11
0.0000000000000038
 21
-0.0000000000000018
 72
     1
 10
0.0
 20
-0.0000000000000018
 11
0.0
 21
-0.4502381196756812
 97
        0
 75
     0
 76
     1
 98
        0
  0
CIRCLE
  5
179
330
176
100
AcDbEntity
  8
SK2
  6
Continuous
 62
     7
100
AcDbCircle
 10
0.0
 20
0.0
 30
0.0
 40
0.4502381196756812
  0
LINE
  5
17A
330
176
100
AcDbEntity
  8
SK1
  6
Continuous
100
AcDbLine
 10
-0.4502381197
 20
0.0
 30
0.0
 11
0.4502381197
 21
0.0
 31
0.0
  0
LINE
  5
17B
330
176
100
AcDbEntity
  8
SK1
  6
Continuous
100
AcDbLine
 10
0.0
 20
0.4502381197
 30
0.0
 11
0.0
 21
-0.4502381197
 31
0.0
  0
POINT
  5
17C
330
176
100
AcDbEntity
  8
SK2
  6
Continuous
 62
     7
100
AcDbPoint
 10
0.0
 20
0.0
 30
0.0
  0
POINT
  5
17D
330
176
100
AcDbEntity
  8
SK2
  6
Continuous
 62
     7
100
AcDbPoint
 10
0.0
 20
0.0
 30
0.0
  0
ENDBLK
  5
17F
330
176
100
AcDbEntity
  8
0
100
AcDbBlockEnd
  0
ENDSEC
  0
SECTION
  2
ENTITIES
  0
LINE
  5
41
330
1F
100
AcDbEntity
  8
SK3
100
AcDbLine
 10
-21.8731604391
 20
-3.640313859
 30
0.0
 11
-21.8731604391
 21
-4.7481812307
 31
0.0
  0
LINE
  5
43
330
1F
100
AcDbEntity
  8
SK1
  6
Continuous
100
AcDbLine
 10
6.9198076211
 20
-4.6029772751
 30
0.0
 11
6.9198076211
 21
4.6029772751
 31
0.0
  0
LINE
  5
44
330
1F
100
AcDbEntity
  8
SK1
  6
Continuous
100
AcDbLine
 10
6.66
 20
-4.6029772751
 30
0.0
 11
6.66
 21
4.6029772751
 31
0.0
  0
LINE
  5
45
330
1F
100
AcDbEntity
  8
SK1
  6
Continuous
100
AcDbLine
 10
6.66
 20
-5.3420809011
 30
0.0
 11
6.9198076211
 21
-5.3420809011
 31
0.0
  0
LINE
  5
46
330
1F
100
AcDbEntity
  8
SK1
  6
Continuous
100
AcDbLine
 10
6.66
 20
-4.6029772751
 30
0.0
 11
6.9198076211
 21
-4.6029772751
 31
0.0
  0
LINE
  5
47
330
1F
100
AcDbEntity
  8
SK1
  6
Continuous
100
AcDbLine
 10
3.2182480697
 20
-4.5845882118
 30
0.0
 11
3.2182480697
 21
4.5845882118
 31
0.0
  0
LINE
  5
48
330
1F
100
AcDbEntity
  8
SK1
  6
Continuous
100
AcDbLine
 10
3.56
 20
-4.4708449267
 30
0.0
 11
3.56
 21
4.4708449267
 31
0.0
  0
LINE
  5
49
330
1F
100
AcDbEntity
  8
SK1
  6
Continuous
100
AcDbLine
 10
11.66
 20
-3.4997611396
 30
0.0
 11
11.66
 21
3.4997611396
 31
0.0
  0
LINE
  5
4A
330
1F
100
AcDbEntity
  8
SK1
  6
Continuous
100
AcDbLine
 10
11.535
 20
-3.5826779839
 30
0.0
 11
11.535
 21
3.5826779839
 31
0.0
  0
LINE
  5
4B
330
1F
100
AcDbEntity
  8
SK1
  6
Continuous
100
AcDbLine
 10
3.76
 20
-3.8371818701
 30
0.0
 11
3.76
 21
3.8371818701
 31
0.0
  0
LINE
  5
4C
330
1F
100
AcDbEntity
  8
SK1
  6
Continuous
100
AcDbLine
 10
6.46
 20
-3.8371818701
 30
0.0
 11
6.46
 21
3.8371818701
 31
0.0
  0
SPLINE
  5
4D
330
1F
100
AcDbEntity
  8
SK1
  6
Continuous
100
AcDbSpline
210
0.0
220
0.0
230
1.0
 70
     8
 71
     3
 72
     8
 73
     4
 74
     0
 42
0.0000000021156732
 43
0.0000000001
 12
1.0
 22
0.0
 32
0.0
 13
1.0
 23
0.0
 33
0.0
 40
0.0
 40
0.0
 40
0.0
 40
0.0
 40
1.0
 40
1.0
 40
1.0
 40
1.0
 10
6.919807621135324
 20
-4.602977275118719
 30
0.0
 10
8.458252117700761
 20
-4.262908665067298
 30
0.0
 10
9.996661747832876
 20
-3.9228169342057
 30
0.0
 10
11.535
 20
-3.582677983937341
 30
0.0
  0
SPLINE
  5
4E
330
1F
100
AcDbEntity
  8
SK1
  6
Continuous
100
AcDbSpline
210
0.0
220
0.0
230
1.0
 70
     8
 71
     3
 72
    10
 73
     6
 74
     0
 42
0.0000000616132438
 43
0.0000000001
 12
1.0
 22
0.0
 32
0.0
 13
1.0
 23
0.0
 33
0.0
 40
0.0
 40
0.0
 40
0.0
 40
0.0
 40
0.5
 40
0.5
 40
1.0
 40
1.0
 40
1.0
 40
1.0
 10
11.535
 20
-3.582677983937341
 30
0.0
 10
11.57259151117949
 20
-3.574366198714829
 30
0.0
 10
11.60494850261215
 20
-3.561964136799317
 30
0.0
 10
11.64829447702993
 20
-3.533150008862116
 30
0.0
 10
11.66
 20
-3.516554190841957
 30
0.0
 10
11.66
 20
-3.499761139610463
 30
0.0
  0
SPLINE
  5
4F
330
1F
100
AcDbEntity
  8
SK3
100
AcDbSpline
210
0.0
220
0.0
230
1.0
 70
     8
 71
     3
 72
    10
 73
     6
 74
     0
 42
0.0000000213804413
 43
0.0000000001
 12
1.0
 22
0.0
 32
0.0
 13
1.0
 23
0.0
 33
0.0
 40
0.0
 40
0.0
 40
0.0
 40
0.0
 40
0.5000000000000001
 40
0.5000000000000001
 40
1.0
 40
1.0
 40
1.0
 40
1.0
 10
11.66
 20
-1.601071867997338
 30
0.0
 10
11.66000000000001
 20
-1.561057354338644
 30
0.0
 10
11.61758917308485
 20
-1.521214478169422
 30
0.0
 10
11.46835400344333
 20
-1.463859755925259
 30
0.0
 10
11.36451298274908
 20
-1.447498477868556
 30
0.0
 10
11.26000000000025
 20
-1.447498477867571
 30
0.0
  0
SPLINE
  5
50
330
1F
100
AcDbEntity
  8
SK1
  6
Continuous
100
AcDbSpline
210
0.0
220
0.0
230
1.0
 70
     8
 71
     3
 72
    10
 73
     6
 74
     0
 42
0.0000000253845494
 43
0.0000000001
 12
1.0
 22
0.0
 32
0.0
 13
1.0
 23
0.0
 33
0.0
 40
0.0
 40
0.0
 40
0.0
 40
0.0
 40
0.5
 40
0.5
 40
1.0
 40
1.0
 40
1.0
 40
1.0
 10
3.56
 20
-5.209948552723165
 30
0.0
 10
3.560000000000013
 20
-5.242516148093737
 30
0.0
 10
3.521600558429439
 20
-5.275053735258342
 30
0.0
 10
3.392249740846039
 20
-5.318145836471673
 30
0.0
 10
3.30352126220441
 20
-5.328280244642728
 30
0.0
 10
3.218248069711986
 20
-5.323691837772872
 30
0.0
  0
LINE
  5
51
330
1F
100
AcDbEntity
  8
SK1
  6
Continuous
100
AcDbLine
 10
3.2182480697
 20
-5.3236918378
 30
0.0
 11
-16.926410275
 21
-4.2395969187
 31
0.0
  0
LINE
  5
52
330
1F
100
AcDbEntity
  8
SK1
  6
Continuous
100
AcDbLine
 10
6.66
 20
-5.3420809011
 30
0.0
 11
6.66
 21
-4.6528719302
 31
0.0
  0
SPLINE
  5
53
330
1F
100
AcDbEntity
  8
SK1
  6
Continuous
100
AcDbSpline
210
0.0
220
0.0
230
1.0
 70
     8
 71
     3
 72
    10
 73
     6
 74
     0
 42
0.000000042790812
 43
0.0000000001
 12
1.0
 22
0.0
 32
0.0
 13
1.0
 23
0.0
 33
0.0
 40
0.0
 40
0.0
 40
0.0
 40
0.0
 40
0.5
 40
0.5
 40
1.0
 40
1.0
 40
1.0
 40
1.0
 10
6.660000000000006
 20
-4.652871930212037
 30
0.0
 10
6.66000000000001
 20
-4.632921433508733
 30
0.0
 10
6.638212026177222
 20
-4.612780417520994
 30
0.0
 10
6.564376700676173
 20
-4.58455706968555
 30
0.0
 10
6.512157774181685
 20
-4.576285496125942
 30
0.0
 10
6.459999999999646
 20
-4.576285496124833
 30
0.0
  0
LINE
  5
54
330
1F
100
AcDbEntity
  8
SK1
  6
Continuous
100
AcDbLine
 10
6.46
 20
-4.5762854961
 30
0.0
 11
3.76
 21
-4.5762854961
 31
0.0
  0
SPLINE
  5
55
330
1F
100
AcDbEntity
  8
SK1
  6
Continuous
100
AcDbSpline
210
0.0
220
0.0
230
1.0
 70
     8
 71
     3
 72
    10
 73
     6
 74
     0
 42
0.0000000427691831
 43
0.0000000001
 12
1.0
 22
0.0
 32
0.0
 13
1.0
 23
0.0
 33
0.0
 40
0.0
 40
0.0
 40
0.0
 40
0.0
 40
0.5
 40
0.5
 40
1.0
 40
1.0
 40
1.0
 40
1.0
 10
3.760000000000006
 20
-4.576285496125994
 30
0.0
 10
3.707252529531883
 20
-4.576285496125996
 30
0.0
 10
3.655686903106357
 20
-4.584501971167273
 30
0.0
 10
3.581417235304668
 20
-4.61295304494529
 30
0.0
 10
3.560000000000006
 20
-4.632657928223083
 30
0.0
 10
3.560000000000008
 20
-4.652871930212037
 30
0.0
  0
LINE
  5
56
330
1F
100
AcDbEntity
  8
SK1
  6
Continuous
100
AcDbLine
 10
3.56
 20
-4.6528719302
 30
0.0
 11
3.56
 21
-5.2099485527
 31
0.0
  0
SPLINE
  5
57
330
1F
100
AcDbEntity
  8
SK1
  6
Continuous
100
AcDbSpline
210
0.0
220
0.0
230
1.0
 70
     8
 71
     3
 72
    10
 73
     6
 74
     0
 42
0.0000000253845494
 43
0.0000000001
 12
1.0
 22
0.0
 32
0.0
 13
1.0
 23
0.0
 33
0.0
 40
0.0
 40
0.0
 40
0.0
 40
0.0
 40
0.5
 40
0.5
 40
1.0
 40
1.0
 40
1.0
 40
1.0
 10
3.56
 20
-4.470844926714138
 30
0.0
 10
3.560000000000013
 20
-4.503412522084709
 30
0.0
 10
3.521600558429439
 20
-4.535950109249313
 30
0.0
 10
3.392249740846039
 20
-4.579042210462642
 30
0.0
 10
3.30352126220441
 20
-4.589176618633696
 30
0.0
 10
3.218248069711986
 20
-4.584588211763845
 30
0.0
  0
LINE
  5
58
330
1F
100
AcDbEntity
  8
SK1
  6
Continuous
100
AcDbLine
 10
3.2182480697
 20
-4.5845882118
 30
0.0
 11
-16.926410275
 21
-3.5004932927
 31
0.0
  0
SPLINE
  5
59
330
1F
100
AcDbEntity
  8
SK1
  6
Continuous
100
AcDbSpline
210
0.0
220
0.0
230
1.0
 70
     8
 71
     3
 72
    10
 73
     6
 74
     0
 42
0.000000042790812
 43
0.0000000001
 12
1.0
 22
0.0
 32
0.0
 13
1.0
 23
0.0
 33
0.0
 40
0.0
 40
0.0
 40
0.0
 40
0.0
 40
0.5
 40
0.5
 40
1.0
 40
1.0
 40
1.0
 40
1.0
 10
6.660000000000006
 20
-3.91376830420301
 30
0.0
 10
6.66000000000001
 20
-3.893817807499703
 30
0.0
 10
6.638212026177222
 20
-3.873676791511964
 30
0.0
 10
6.564376700676173
 20
-3.845453443676521
 30
0.0
 10
6.512157774181685
 20
-3.837181870116912
 30
0.0
 10
6.459999999999646
 20
-3.837181870115803
 30
0.0
  0
LINE
  5
5A
330
1F
100
AcDbEntity
  8
SK1
  6
Continuous
100
AcDbLine
 10
6.46
 20
-3.8371818701
 30
0.0
 11
3.76
 21
-3.8371818701
 31
0.0
  0
SPLINE
  5
5B
330
1F
100
AcDbEntity
  8
SK1
  6
Continuous
100
AcDbSpline
210
0.0
220
0.0
230
1.0
 70
     8
 71
     3
 72
    10
 73
     6
 74
     0
 42
0.0000000427691831
 43
0.0000000001
 12
1.0
 22
0.0
 32
0.0
 13
1.0
 23
0.0
 33
0.0
 40
0.0
 40
0.0
 40
0.0
 40
0.0
 40
0.5
 40
0.5
 40
1.0
 40
1.0
 40
1.0
 40
1.0
 10
3.760000000000006
 20
-3.837181870116964
 30
0.0
 10
3.707252529531883
 20
-3.837181870116965
 30
0.0
 10
3.655686903106357
 20
-3.845398345158244
 30
0.0
 10
3.581417235304668
 20
-3.87384941893626
 30
0.0
 10
3.560000000000006
 20
-3.893554302214054
 30
0.0
 10
3.560000000000008
 20
-3.913768304203008
 30
0.0
  0
SPLINE
  5
5C
330
1F
100
AcDbEntity
  8
SK1
  6
Continuous
100
AcDbSpline
210
0.0
220
0.0
230
1.0
 70
     8
 71
     3
 72
     8
 73
     4
 74
     0
 42
0.0000000021156732
 43
0.0000000001
 12
1.0
 22
0.0
 32
0.0
 13
1.0
 23
0.0
 33
0.0
 40
0.0
 40
0.0
 40
0.0
 40
0.0
 40
1.0
 40
1.0
 40
1.0
 40
1.0
 10
6.919807621135324
 20
-5.342080901127748
 30
0.0
 10
8.458252117700761
 20
-5.002012291076326
 30
0.0
 10
9.996661747832876
 20
-4.661920560214731
 30
0.0
 10
11.535
 20
-4.321781609946371
 30
0.0
  0
SPLINE
  5
5D
330
1F
100
AcDbEntity
  8
SK1
  6
Continuous
100
AcDbSpline
210
0.0
220
0.0
230
1.0
 70
     8
 71
     3
 72
    10
 73
     6
 74
     0
 42
0.0000000616132438
 43
0.0000000001
 12
1.0
 22
0.0
 32
0.0
 13
1.0
 23
0.0
 33
0.0
 40
0.0
 40
0.0
 40
0.0
 40
0.0
 40
0.5
 40
0.5
 40
1.0
 40
1.0
 40
1.0
 40
1.0
 10
11.535
 20
-4.321781609946371
 30
0.0
 10
11.57259151117949
 20
-4.313469824723859
 30
0.0
 10
11.60494850261215
 20
-4.301067762808346
 30
0.0
 10
11.64829447702993
 20
-4.272253634871145
 30
0.0
 10
11.66
 20
-4.255657816850985
 30
0.0
 10
11.66
 20
-4.238864765619492
 30
0.0
  0
LINE
  5
5E
330
1F
100
AcDbEntity
  8
SK1
  6
Continuous
100
AcDbLine
 10
11.66
 20
-4.2388647656
 30
0.0
 11
11.66
 21
-3.4997611396
 31
0.0
  0
SPLINE
  5
5F
330
1F
100
AcDbEntity
  8
SK3
100
AcDbSpline
210
0.0
220
0.0
230
1.0
 70
     8
 71
     3
 72
    10
 73
     6
 74
     0
 42
0.0000000213804413
 43
0.0000000001
 12
1.0
 22
0.0
 32
0.0
 13
1.0
 23
0.0
 33
0.0
 40
0.0
 40
0.0
 40
0.0
 40
0.0
 40
0.5000000000000001
 40
0.5000000000000001
 40
1.0
 40
1.0
 40
1.0
 40
1.0
 10
11.66
 20
-2.340175494006367
 30
0.0
 10
11.66000000000001
 20
-2.300160980347674
 30
0.0
 10
11.61758917308485
 20
-2.260318104178451
 30
0.0
 10
11.46835400344333
 20
-2.202963381934288
 30
0.0
 10
11.36451298274908
 20
-2.186602103877585
 30
0.0
 10
11.26000000000025
 20
-2.186602103876601
 30
0.0
  0
LINE
  5
60
330
1F
100
AcDbEntity
  8
SK1
  6
Continuous
100
AcDbLine
 10
-22.34
 20
-6.1450479361
 30
0.0
 11
-22.34
 21
-0.4
 31
0.0
  0
LINE
  5
61
330
1F
100
AcDbEntity
  8
SK1
  6
Continuous
100
AcDbLine
 10
-22.0817519303
 20
-6.3553123498
 30
0.0
 11
-22.0817519303
 21
-0.4
 31
0.0
  0
SPLINE
  5
62
330
1F
100
AcDbEntity
  8
SK1
  6
Continuous
100
AcDbSpline
210
0.0
220
0.0
230
1.0
 70
     8
 71
     3
 72
    10
 73
     6
 74
     0
 42
0.0000000269084072
 43
0.0000000001
 12
1.0
 22
0.0
 32
0.0
 13
1.0
 23
0.0
 33
0.0
 40
0.0
 40
0.0
 40
0.0
 40
0.0
 40
0.5
 40
0.5
 40
1.0
 40
1.0
 40
1.0
 40
1.0
 10
-22.08175193028802
 20
-6.920997774731321
 30
0.0
 10
-22.15330684542487
 20
-6.913880382922665
 30
0.0
 10
-22.21940242541914
 20
-6.888335995334576
 30
0.0
 10
-22.31354727266464
 20
-6.811635673201017
 30
0.0
 10
-22.34000000000001
 20
-6.761293609469146
 30
0.0
 10
-22.34000000000001
 20
-6.710733361022311
 30
0.0
  0
SPLINE
  5
63
330
1F
100
AcDbEntity
  8
SK1
  6
Continuous
100
AcDbSpline
210
0.0
220
0.0
230
1.0
 70
     8
 71
     3
 72
    10
 73
     6
 74
     0
 42
0.0000000269084072
 43
0.0000000001
 12
1.0
 22
0.0
 32
0.0
 13
1.0
 23
0.0
 33
0.0
 40
0.0
 40
0.0
 40
0.0
 40
0.0
 40
0.5
 40
0.5
 40
1.0
 40
1.0
 40
1.0
 40
1.0
 10
-22.08175193028802
 20
-6.355312349782084
 30
0.0
 10
-22.15330684542467
 20
-6.348194957973447
 30
0.0
 10
-22.21940242541923
 20
-6.322650570385271
 30
0.0
 10
-22.31354727266455
 20
-6.245950248251864
 30
0.0
 10
-22.33999999999999
 20
-6.195608184519858
 30
0.0
 10
-22.34000000000014
 20
-6.145047936073079
 30
0.0
  0
LINE
  5
64
330
1F
100
AcDbEntity
  8
SK1
  6
Continuous
100
AcDbLine
 10
-22.34
 20
-6.710733361
 30
0.0
 11
-22.34
 21
-6.1450479361
 31
0.0
  0
LINE
  5
65
330
1F
100
AcDbEntity
  8
SK3
100
AcDbLine
 10
-22.34
 20
-3.8315390773
 30
0.0
 11
-21.8731604391
 21
-3.640313859
 31
0.0
  0
LINE
  5
66
330
1F
100
AcDbEntity
  8
SK3
100
AcDbLine
 10
-21.8731604391
 20
-3.640313859
 30
0.0
 11
-2.7530430534
 21
-3.640313859
 31
0.0
  0
LINE
  5
67
330
1F
100
AcDbEntity
  8
SK3
100
AcDbLine
 10
-22.34
 20
-3.2658536523
 30
0.0
 11
-21.8731604391
 21
-3.0746284341
 31
0.0
  0
LINE
  5
68
330
1F
100
AcDbEntity
  8
SK3
100
AcDbLine
 10
-21.8731604391
 20
-3.0746284341
 30
0.0
 11
-2.7530430534
 21
-3.0746284341
 31
0.0
  0
LINE
  5
69
330
1F
100
AcDbEntity
  8
SK1
  6
Continuous
100
AcDbLine
 10
6.66
 20
-11.8516737909
 30
0.0
 11
6.66
 21
-5.3420809011
 31
0.0
  0
LINE
  5
6A
330
1F
100
AcDbEntity
  8
SK1
  6
Continuous
100
AcDbLine
 10
6.9198076211
 20
-11.8516737909
 30
0.0
 11
6.9198076211
 21
-5.3420809011
 31
0.0
  0
LINE
  5
6B
330
1F
100
AcDbEntity
  8
SK1
  6
Continuous
100
AcDbLine
 10
6.66
 20
-12.1578205368
 30
0.0
 11
6.9198076211
 21
-12.1578205368
 31
0.0
  0
LINE
  5
6C
330
1F
100
AcDbEntity
  8
SK1
  6
Continuous
100
AcDbLine
 10
6.66
 20
-11.8516737909
 30
0.0
 11
6.9198076211
 21
-11.8516737909
 31
0.0
  0
LINE
  5
6D
330
1F
100
AcDbEntity
  8
SK1
  6
Continuous
100
AcDbLine
 10
3.56
 20
-11.5326780833
 30
0.0
 11
3.56
 21
-5.2099485527
 31
0.0
  0
LINE
  5
6E
330
1F
100
AcDbEntity
  8
SK1
  6
Continuous
100
AcDbLine
 10
3.2182480697
 20
-11.8072786647
 30
0.0
 11
3.2182480697
 21
-5.3236918378
 31
0.0
  0
LINE
  5
6F
330
1F
100
AcDbEntity
  8
SK1
  6
Continuous
100
AcDbLine
 10
11.535
 20
-9.3884534044
 30
0.0
 11
11.535
 21
-4.3217816099
 31
0.0
  0
LINE
  5
70
330
1F
100
AcDbEntity
  8
SK1
  6
Continuous
100
AcDbLine
 10
11.66
 20
-9.1882744343
 30
0.0
 11
11.66
 21
-4.2388647656
 31
0.0
  0
LINE
  5
71
330
1F
100
AcDbEntity
  8
SK1
  6
Continuous
100
AcDbLine
 10
3.76
 20
-10.0028801381
 30
0.0
 11
3.76
 21
-4.5762854961
 31
0.0
  0
LINE
  5
72
330
1F
100
AcDbEntity
  8
SK1
  6
Continuous
100
AcDbLine
 10
6.46
 20
-10.0028801381
 30
0.0
 11
6.46
 21
-4.5762854961
 31
0.0
  0
LINE
  5
73
330
1F
100
AcDbEntity
  8
SK1
  6
Continuous
100
AcDbLine
 10
6.9198076211
 20
-11.8516737909
 30
0.0
 11
11.535
 21
-9.3884534044
 31
0.0
  0
ARC
  5
74
330
1F
100
AcDbEntity
  8
SK1
  6
Continuous
100
AcDbCircle
 10
11.4286092649
 20
-9.182901583
 30
0.0
 40
0.2314531049789563
100
AcDbArc
 50
297.3654490732
 51
358.6698413103
  0
ARC
  5
75
330
1F
100
AcDbEntity
  8
SK3
100
AcDbCircle
 10
11.2740749305
 20
-4.6196421818
 30
0.0
 40
0.3862246459701194
100
AcDbArc
 50
2.2568336603
 51
92.0884548032
  0
ARC
  5
76
330
1F
100
AcDbEntity
  8
SK1
  6
Continuous
100
AcDbCircle
 10
3.2674163507
 20
-11.824654807
 30
0.0
 40
0.2929265801809861
100
AcDbArc
 50
260.3370530069
 51
357.227293464
  0
LINE
  5
77
330
1F
100
AcDbEntity
  8
SK1
  6
Continuous
100
AcDbLine
 10
3.2182480697
 20
-12.1134254106
 30
0.0
 11
-16.926410275
 21
-9.4961887542
 31
0.0
  0
LINE
  5
78
330
1F
100
AcDbEntity
  8
SK1
  6
Continuous
100
AcDbLine
 10
6.66
 20
-12.1578205368
 30
0.0
 11
6.66
 21
-11.8516737909
 31
0.0
  0
ARC
  5
79
330
1F
100
AcDbEntity
  8
SK1
  6
Continuous
100
AcDbCircle
 10
6.4672716847
 20
-10.5017780977
 30
0.0
 40
0.192888329786198
100
AcDbArc
 50
2.3339651308
 51
92.1605018627
  0
LINE
  5
7A
330
1F
100
AcDbEntity
  8
SK1
  6
Continuous
100
AcDbLine
 10
6.46
 20
-10.309026884
 30
0.0
 11
3.76
 21
-10.309026884
 31
0.0
  0
ARC
  5
7B
330
1F
100
AcDbEntity
  8
SK1
  6
Continuous
100
AcDbCircle
 10
3.7527286759
 20
-10.5017784878
 30
0.0
 40
0.1928887059728785
100
AcDbArc
 50
87.8396095414
 51
177.6659234645
  0
LINE
  5
7C
330
1F
100
AcDbEntity
  8
SK1
  6
Continuous
100
AcDbLine
 10
3.56
 20
-11.5326780833
 30
0.0
 11
3.56
 21
-11.8388248292
 31
0.0
  0
ARC
  5
7D
330
1F
100
AcDbEntity
  8
SK1
  6
Continuous
100
AcDbCircle
 10
6.4672716847
 20
-10.1956313518
 30
0.0
 40
0.1928883297862046
100
AcDbArc
 50
2.3339651308
 51
92.1605018627
  0
LINE
  5
7E
330
1F
100
AcDbEntity
  8
SK1
  6
Continuous
100
AcDbLine
 10
6.46
 20
-10.0028801381
 30
0.0
 11
3.76
 21
-10.0028801381
 31
0.0
  0
ARC
  5
7F
330
1F
100
AcDbEntity
  8
SK1
  6
Continuous
100
AcDbCircle
 10
3.7527286759
 20
-10.1956317419
 30
0.0
 40
0.192888705972885
100
AcDbArc
 50
87.8396095414
 51
177.6659234645
  0
ARC
  5
80
330
1F
100
AcDbEntity
  8
SK1
  6
Continuous
100
AcDbCircle
 10
3.2674163507
 20
-11.5185080611
 30
0.0
 40
0.2929265801809849
100
AcDbArc
 50
260.3370530069
 51
357.227293464
  0
LINE
  5
81
330
1F
100
AcDbEntity
  8
SK1
  6
Continuous
100
AcDbLine
 10
3.2182480697
 20
-11.8072786647
 30
0.0
 11
-16.926410275
 21
-9.1900420083
 31
0.0
  0
LINE
  5
82
330
1F
100
AcDbEntity
  8
SK1
  6
Continuous
100
AcDbLine
 10
6.9198076211
 20
-12.1578205368
 30
0.0
 11
11.535
 21
-9.6946001503
 31
0.0
  0
ARC
  5
83
330
1F
100
AcDbEntity
  8
SK1
  6
Continuous
100
AcDbCircle
 10
11.4286092649
 20
-9.4890483289
 30
0.0
 40
0.2314531049803309
100
AcDbArc
 50
297.3654490734
 51
358.6698413101
  0
LINE
  5
84
330
1F
100
AcDbEntity
  8
SK1
  6
Continuous
100
AcDbLine
 10
11.66
 20
-9.4944211802
 30
0.0
 11
11.66
 21
-9.1882744343
 31
0.0
  0
ARC
  5
85
330
1F
100
AcDbEntity
  8
SK3
100
AcDbCircle
 10
11.2740749305
 20
-4.9257889277
 30
0.0
 40
0.386224645970121
100
AcDbArc
 50
2.2568336603
 51
92.0884548032
  0
LINE
  5
86
330
1F
100
AcDbEntity
  8
SK1
  6
Continuous
100
AcDbLine
 10
-22.34
 20
-9.0904101326
 30
0.0
 11
-22.34
 21
-6.710733361
 31
0.0
  0
LINE
  5
87
330
1F
100
AcDbEntity
  8
SK1
  6
Continuous
100
AcDbLine
 10
-22.0817519303
 20
-9.3877689182
 30
0.0
 11
-22.0817519303
 21
-6.9209977747
 31
0.0
  0
SPLINE
  5
88
330
1F
100
AcDbEntity
  8
SK1
  6
Continuous
100
AcDbSpline
210
0.0
220
0.0
230
1.0
 70
     8
 71
     3
 72
    10
 73
     6
 74
     0
 42
0.0000000227964674
 43
0.0000000001
 12
1.0
 22
0.0
 32
0.0
 13
1.0
 23
0.0
 33
0.0
 40
0.0
 40
0.0
 40
0.0
 40
0.0
 40
0.4999999999999996
 40
0.4999999999999996
 40
1.0
 40
1.0
 40
1.0
 40
1.0
 10
-22.08175193028802
 20
-9.387768918179045
 30
0.0
 10
-22.15330684542485
 20
-9.377703406154527
 30
0.0
 10
-22.21940242541913
 20
-9.341578186784922
 30
0.0
 10
-22.31354727266462
 20
-9.233107550985293
 30
0.0
 10
-22.33999999999999
 20
-9.161913121697811
 30
0.0
 10
-22.34000000000014
 20
-9.090410132627344
 30
0.0
  0
LINE
  5
89
330
1F
100
AcDbEntity
  8
SK3
100
AcDbLine
 10
-21.8731604391
 20
4.7481812307
 30
0.0
 11
-21.8731604391
 21
3.640313859
 31
0.0
  0
SPLINE
  5
8A
330
1F
100
AcDbEntity
  8
SK1
  6
Continuous
100
AcDbSpline
210
0.0
220
0.0
230
1.0
 70
     8
 71
     3
 72
    10
 73
     6
 74
     0
 42
0.0000000228000739
 43
0.0000000001
 12
1.0
 22
0.0
 32
0.0
 13
1.0
 23
0.0
 33
0.0
 40
0.0
 40
0.0
 40
0.0
 40
0.0
 40
0.5
 40
0.5
 40
1.0
 40
1.0
 40
1.0
 40
1.0
 10
-22.34000000000014
 20
9.090410132627317
 30
0.0
 10
-22.34000000000001
 20
9.161884936856625
 30
0.0
 10
-22.31326416133239
 20
9.233386588430832
 30
0.0
 10
-22.21985596458168
 20
9.341102701992273
 30
0.0
 10
-22.15328300875938
 20
9.377706759222024
 30
0.0
 10
-22.08175193028802
 20
9.387768918179042
 30
0.0
  0
SPLINE
  5
8B
330
1F
100
AcDbEntity
  8
SK1
  6
Continuous
100
AcDbSpline
210
0.0
220
0.0
230
1.0
 70
     8
 71
     3
 72
    11
 73
     7
 74
     0
 42
0.0000000005397559
 43
0.0000000001
 12
1.0
 22
0.0
 32
0.0
 13
1.0
 23
0.0
 33
0.0
 40
0.0
 40
0.0
 40
0.0
 40
0.0
 40
0.8904043968419015
 40
0.8904043968419015
 40
0.8904043968419015
 40
1.0
 40
1.0
 40
1.0
 40
1.0
 10
-22.08175193028802
 20
9.387768918179042
 30
0.0
 10
-16.63655230217699
 20
10.15373617881873
 30
0.0
 10
-11.19133014604001
 20
10.91954329254181
 30
0.0
 10
-5.74609657231322
 20
11.68526919775262
 30
0.0
 10
-5.075868909377588
 20
11.77951872386569
 30
0.0
 10
-4.405641062509899
 20
11.87376694200826
 30
0.0
 10
-3.735413044452093
 20
11.9680139427404
 30
0.0
  0
LINE
  5
8C
330
1F
100
AcDbEntity
  8
SK3
100
AcDbLine
 10
-22.34
 20
-5.0186145278
 30
0.0
 11
-21.8731604391
 21
-4.7481812307
 31
0.0
  0
LINE
  5
8D
330
1F
100
AcDbEntity
  8
SK3
100
AcDbLine
 10
-21.8731604391
 20
-4.7481812307
 30
0.0
 11
-2.7530430534
 21
-4.7481812307
 31
0.0
  0
LINE
  5
8E
330
1F
100
AcDbEntity
  8
SK3
100
AcDbLine
 10
-21.8731604391
 20
4.7481812307
 30
0.0
 11
-22.34
 21
5.0186145278
 31
0.0
  0
LINE
  5
8F
330
1F
100
AcDbEntity
  8
SK1
  6
Continuous
100
AcDbLine
 10
6.66
 20
-13.0
 30
0.0
 11
6.66
 21
-12.1578205368
 31
0.0
  0
LINE
  5
90
330
1F
100
AcDbEntity
  8
SK1
  6
Continuous
100
AcDbLine
 10
6.9198076211
 20
-13.0
 30
0.0
 11
6.9198076211
 21
-12.1578205368
 31
0.0
  0
LINE
  5
91
330
1F
100
AcDbEntity
  8
SK1
  6
Continuous
100
AcDbLine
 10
3.56
 20
-11.8388248292
 30
0.0
 11
3.56
 21
-12.6548894778
 31
0.0
  0
LINE
  5
92
330
1F
100
AcDbEntity
  8
SK1
  6
Continuous
100
AcDbLine
 10
3.2182480697
 20
-12.1134254106
 30
0.0
 11
3.2182480697
 21
-12.9519698985
 31
0.0
  0
LINE
  5
93
330
1F
100
AcDbEntity
  8
SK1
  6
Continuous
100
AcDbLine
 10
11.535
 20
-10.3354174377
 30
0.0
 11
11.535
 21
-9.6946001503
 31
0.0
  0
LINE
  5
94
330
1F
100
AcDbEntity
  8
SK1
  6
Continuous
100
AcDbLine
 10
11.66
 20
-10.1189110868
 30
0.0
 11
11.66
 21
-9.4944211802
 31
0.0
  0
LINE
  5
95
330
1F
100
AcDbEntity
  8
SK1
  6
Continuous
100
AcDbLine
 10
3.76
 20
-10.309026884
 30
0.0
 11
3.76
 21
-11.0
 31
0.0
  0
LINE
  5
96
330
1F
100
AcDbEntity
  8
SK1
  6
Continuous
100
AcDbLine
 10
6.46
 20
-11.0
 30
0.0
 11
6.46
 21
-10.309026884
 31
0.0
  0
LINE
  5
97
330
1F
100
AcDbEntity
  8
SK1
  6
Continuous
100
AcDbLine
 10
6.9198076211
 20
12.1578205368
 30
0.0
 11
6.9198076211
 21
13.0
 31
0.0
  0
LINE
  5
98
330
1F
100
AcDbEntity
  8
SK1
  6
Continuous
100
AcDbLine
 10
6.66
 20
12.1578205368
 30
0.0
 11
6.66
 21
13.0
 31
0.0
  0
LINE
  5
99
330
1F
100
AcDbEntity
  8
SK1
  6
Continuous
100
AcDbLine
 10
3.2182480697
 20
12.1134254106
 30
0.0
 11
3.2182480697
 21
12.9519698985
 31
0.0
  0
LINE
  5
9A
330
1F
100
AcDbEntity
  8
SK1
  6
Continuous
100
AcDbLine
 10
3.56
 20
11.8388248292
 30
0.0
 11
3.56
 21
12.6548894778
 31
0.0
  0
LINE
  5
9B
330
1F
100
AcDbEntity
  8
SK1
  6
Continuous
100
AcDbLine
 10
11.66
 20
9.4944211802
 30
0.0
 11
11.66
 21
10.1189110868
 31
0.0
  0
LINE
  5
9C
330
1F
100
AcDbEntity
  8
SK1
  6
Continuous
100
AcDbLine
 10
11.535
 20
10.3354174377
 30
0.0
 11
11.535
 21
9.6946001503
 31
0.0
  0
LINE
  5
9D
330
1F
100
AcDbEntity
  8
SK1
  6
Continuous
100
AcDbLine
 10
3.76
 20
10.309026884
 30
0.0
 11
3.76
 21
11.0
 31
0.0
  0
LINE
  5
9E
330
1F
100
AcDbEntity
  8
SK1
  6
Continuous
100
AcDbLine
 10
6.46
 20
10.309026884
 30
0.0
 11
6.46
 21
11.0
 31
0.0
  0
ARC
  5
9F
330
1F
100
AcDbEntity
  8
SK3
100
AcDbCircle
 10
11.2740769419
 20
4.6196400118
 30
0.0
 40
0.3862225506484107
100
AcDbArc
 50
267.9112352689
 51
357.7434762675
  0
ARC
  5
A0
330
1F
100
AcDbEntity
  8
SK1
  6
Continuous
100
AcDbCircle
 10
11.4314734589
 20
9.1846901038
 30
0.0
 40
0.2285546486553126
100
AcDbArc
 50
0.8985834844
 51
63.066126132
  0
LINE
  5
A1
330
1F
100
AcDbEntity
  8
SK1
  6
Continuous
100
AcDbLine
 10
11.535
 20
9.3884534044
 30
0.0
 11
6.9198076211
 21
11.8516737909
 31
0.0
  0
LINE
  5
A2
330
1F
100
AcDbEntity
  8
SK1
  6
Continuous
100
AcDbLine
 10
6.9198076211
 20
11.8516737909
 30
0.0
 11
6.66
 21
11.8516737909
 31
0.0
  0
ARC
  5
A3
330
1F
100
AcDbEntity
  8
SK1
  6
Continuous
100
AcDbCircle
 10
3.2674011629
 20
11.8246359052
 30
0.0
 40
0.2929426650656591
100
AcDbArc
 50
2.7762554562
 51
99.6593980728
  0
LINE
  5
A4
330
1F
100
AcDbEntity
  8
SK1
  6
Continuous
100
AcDbLine
 10
3.56
 20
11.8388248292
 30
0.0
 11
3.56
 21
11.5326780833
 31
0.0
  0
ARC
  5
A5
330
1F
100
AcDbEntity
  8
SK1
  6
Continuous
100
AcDbCircle
 10
3.7527241638
 20
10.5017736071
 30
0.0
 40
0.1928839989105152
100
AcDbArc
 50
182.332682528
 51
272.1617844655
  0
LINE
  5
A6
330
1F
100
AcDbEntity
  8
SK1
  6
Continuous
100
AcDbLine
 10
3.76
 20
10.309026884
 30
0.0
 11
6.46
 21
10.309026884
 31
0.0
  0
ARC
  5
A7
330
1F
100
AcDbEntity
  8
SK1
  6
Continuous
100
AcDbCircle
 10
6.4672770835
 20
10.5017722579
 30
0.0
 40
0.1928826977831465
100
AcDbArc
 50
267.8378301847
 51
357.6677028219
  0
LINE
  5
A8
330
1F
100
AcDbEntity
  8
SK1
  6
Continuous
100
AcDbLine
 10
6.66
 20
11.8516737909
 30
0.0
 11
6.66
 21
12.1578205368
 31
0.0
  0
LINE
  5
A9
330
1F
100
AcDbEntity
  8
SK3
100
AcDbLine
 10
11.26
 20
4.5398208287
 30
0.0
 11
-17.5735920404
 21
4.5398208287
 31
0.0
  0
ARC
  5
AA
330
1F
100
AcDbEntity
  8
SK1
  6
Continuous
100
AcDbCircle
 10
3.2674011629
 20
11.5184891593
 30
0.0
 40
0.2929426650656585
100
AcDbArc
 50
2.7762554562
 51
99.6593980728
  0
ARC
  5
AB
330
1F
100
AcDbEntity
  8
SK1
  6
Continuous
100
AcDbCircle
 10
3.7527241638
 20
10.1956268612
 30
0.0
 40
0.1928839989105148
100
AcDbArc
 50
182.332682528
 51
272.1617844655
  0
LINE
  5
AC
330
1F
100
AcDbEntity
  8
SK1
  6
Continuous
100
AcDbLine
 10
3.76
 20
10.0028801381
 30
0.0
 11
6.46
 21
10.0028801381
 31
0.0
  0
ARC
  5
AD
330
1F
100
AcDbEntity
  8
SK1
  6
Continuous
100
AcDbCircle
 10
6.4672770835
 20
10.195625512
 30
0.0
 40
0.1928826977831551
100
AcDbArc
 50
267.8378301847
 51
357.6677028219
  0
LINE
  5
AE
330
1F
100
AcDbEntity
  8
SK3
100
AcDbLine
 10
11.26
 20
4.2336740828
 30
0.0
 11
-17.5735920404
 21
4.2336740828
 31
0.0
  0
ARC
  5
AF
330
1F
100
AcDbEntity
  8
SK3
100
AcDbCircle
 10
11.2740769419
 20
4.9257867577
 30
0.0
 40
0.3862225506484114
100
AcDbArc
 50
267.9112352689
 51
357.7434762675
  0
LINE
  5
B0
330
1F
100
AcDbEntity
  8
SK1
  6
Continuous
100
AcDbLine
 10
11.66
 20
9.1882744343
 30
0.0
 11
11.66
 21
9.4944211802
 31
0.0
  0
ARC
  5
B1
330
1F
100
AcDbEntity
  8
SK1
  6
Continuous
100
AcDbCircle
 10
11.4314734589
 20
9.4908368497
 30
0.0
 40
0.2285546486553128
100
AcDbArc
 50
0.8985834844
 51
63.066126132
  0
LINE
  5
B2
330
1F
100
AcDbEntity
  8
SK1
  6
Continuous
100
AcDbLine
 10
11.535
 20
9.6946001503
 30
0.0
 11
6.9198076211
 21
12.1578205368
 31
0.0
  0
LINE
  5
B3
330
1F
100
AcDbEntity
  8
SK1
  6
Continuous
100
AcDbLine
 10
6.9198076211
 20
12.1578205368
 30
0.0
 11
6.66
 21
12.1578205368
 31
0.0
  0
LINE
  5
B4
330
1F
100
AcDbEntity
  8
SK1
  6
Continuous
100
AcDbLine
 10
-22.34
 20
6.710733361
 30
0.0
 11
-22.34
 21
9.0904101326
 31
0.0
  0
LINE
  5
B5
330
1F
100
AcDbEntity
  8
SK1
  6
Continuous
100
AcDbLine
 10
-22.0817519303
 20
6.9209977747
 30
0.0
 11
-22.0817519303
 21
9.3877689182
 31
0.0
  0
LINE
  5
B6
330
1F
100
AcDbEntity
  8
SK3
100
AcDbLine
 10
-21.8731604391
 20
3.0746284341
 30
0.0
 11
-21.8731604391
 21
0.4
 31
0.0
  0
SPLINE
  5
B7
330
1F
100
AcDbEntity
  8
SK1
  6
Continuous
100
AcDbSpline
210
0.0
220
0.0
230
1.0
 70
     8
 71
     3
 72
    10
 73
     6
 74
     0
 42
0.0000000269127736
 43
0.0000000001
 12
1.0
 22
0.0
 32
0.0
 13
1.0
 23
0.0
 33
0.0
 40
0.0
 40
0.0
 40
0.0
 40
0.0
 40
0.5
 40
0.5
 40
1.0
 40
1.0
 40
1.0
 40
1.0
 10
-22.34000000000014
 20
6.710733361022295
 30
0.0
 10
-22.34000000000001
 20
6.761273679776798
 30
0.0
 10
-22.31326416133238
 20
6.81183298247098
 30
0.0
 10
-22.2198559645817
 20
6.887999776813321
 30
0.0
 10
-22.15328300875939
 20
6.913882753899432
 30
0.0
 10
-22.08175193028802
 20
6.920997774731314
 30
0.0
  0
SPLINE
  5
B8
330
1F
100
AcDbEntity
  8
SK1
  6
Continuous
100
AcDbSpline
210
0.0
220
0.0
230
1.0
 70
     8
 71
     3
 72
    11
 73
     7
 74
     0
 42
0.0000000005423924
 43
0.0000000001
 12
1.0
 22
0.0
 32
0.0
 13
1.0
 23
0.0
 33
0.0
 40
0.0
 40
0.0
 40
0.0
 40
0.0
 40
0.8904043968419018
 40
0.8904043968419018
 40
0.8904043968419018
 40
1.0
 40
1.0
 40
1.0
 40
1.0
 10
-22.08175193028802
 20
6.920997774731314
 30
0.0
 10
-16.63655230217699
 20
7.462618418896524
 30
0.0
 10
-11.19133014604001
 20
8.004125822091007
 30
0.0
 10
-5.746096572313224
 20
8.545575802195781
 30
0.0
 10
-5.075868909377592
 20
8.61222028123395
 30
0.0
 10
-4.405641062509902
 20
8.678863835397308
 30
0.0
 10
-3.735413044452098
 20
8.7455065287215
 30
0.0
  0
LINE
  5
B9
330
1F
100
AcDbEntity
  8
SK3
100
AcDbLine
 10
-21.8731604391
 20
3.640313859
 30
0.0
 11
-22.34
 21
3.8315390773
 31
0.0
  0
LINE
  5
BA
330
1F
100
AcDbEntity
  8
SK1
  6
Continuous
100
AcDbLine
 10
-22.34
 20
6.1450479361
 30
0.0
 11
-22.34
 21
6.710733361
 31
0.0
  0
SPLINE
  5
BB
330
1F
100
AcDbEntity
  8
SK1
  6
Continuous
100
AcDbSpline
210
0.0
220
0.0
230
1.0
 70
     8
 71
     3
 72
    10
 73
     6
 74
     0
 42
0.0000000269127736
 43
0.0000000001
 12
1.0
 22
0.0
 32
0.0
 13
1.0
 23
0.0
 33
0.0
 40
0.0
 40
0.0
 40
0.0
 40
0.0
 40
0.5
 40
0.5
 40
1.0
 40
1.0
 40
1.0
 40
1.0
 10
-22.34000000000014
 20
6.145047936073058
 30
0.0
 10
-22.33999999999999
 20
6.19558825482751
 30
0.0
 10
-22.31326416133238
 20
6.246147557521755
 30
0.0
 10
-22.21985596458174
 20
6.322314351864057
 30
0.0
 10
-22.15328300875938
 20
6.348197328950193
 30
0.0
 10
-22.08175193028802
 20
6.355312349782077
 30
0.0
  0
SPLINE
  5
BC
330
1F
100
AcDbEntity
  8
SK1
  6
Continuous
100
AcDbSpline
210
0.0
220
0.0
230
1.0
 70
     8
 71
     3
 72
    11
 73
     7
 74
     0
 42
0.0000000005423924
 43
0.0000000001
 12
1.0
 22
0.0
 32
0.0
 13
1.0
 23
0.0
 33
0.0
 40
0.0
 40
0.0
 40
0.0
 40
0.0
 40
0.8904043968419018
 40
0.8904043968419018
 40
0.8904043968419018
 40
1.0
 40
1.0
 40
1.0
 40
1.0
 10
-22.08175193028802
 20
6.355312349782077
 30
0.0
 10
-16.63655230217699
 20
6.896932993947285
 30
0.0
 10
-11.19133014604001
 20
7.438440397141768
 30
0.0
 10
-5.74609657231322
 20
7.979890377246544
 30
0.0
 10
-5.075868909377588
 20
8.046534856284712
 30
0.0
 10
-4.405641062509899
 20
8.113178410448068
 30
0.0
 10
-3.735413044452095
 20
8.179821103772264
 30
0.0
  0
LINE
  5
BD
330
1F
100
AcDbEntity
  8
SK3
100
AcDbLine
 10
-21.8731604391
 20
3.0746284341
 30
0.0
 11
-22.34
 21
3.2658536523
 31
0.0
  0
LINE
  5
BE
330
1F
100
AcDbEntity
  8
SK1
  6
Continuous
100
AcDbLine
 10
6.9198076211
 20
5.3420809011
 30
0.0
 11
6.9198076211
 21
11.8516737909
 31
0.0
  0
LINE
  5
BF
330
1F
100
AcDbEntity
  8
SK1
  6
Continuous
100
AcDbLine
 10
6.66
 20
5.3420809011
 30
0.0
 11
6.66
 21
11.8516737909
 31
0.0
  0
LINE
  5
C0
330
1F
100
AcDbEntity
  8
SK1
  6
Continuous
100
AcDbLine
 10
3.2182480697
 20
5.3236918378
 30
0.0
 11
3.2182480697
 21
11.8072786647
 31
0.0
  0
LINE
  5
C1
330
1F
100
AcDbEntity
  8
SK1
  6
Continuous
100
AcDbLine
 10
3.56
 20
5.2099485527
 30
0.0
 11
3.56
 21
11.5326780833
 31
0.0
  0
LINE
  5
C2
330
1F
100
AcDbEntity
  8
SK1
  6
Continuous
100
AcDbLine
 10
11.66
 20
4.2388647656
 30
0.0
 11
11.66
 21
9.1882744343
 31
0.0
  0
LINE
  5
C3
330
1F
100
AcDbEntity
  8
SK1
  6
Continuous
100
AcDbLine
 10
11.535
 20
4.3217816099
 30
0.0
 11
11.535
 21
9.3884534044
 31
0.0
  0
LINE
  5
C4
330
1F
100
AcDbEntity
  8
SK1
  6
Continuous
100
AcDbLine
 10
3.76
 20
4.5762854961
 30
0.0
 11
3.76
 21
10.0028801381
 31
0.0
  0
LINE
  5
C5
330
1F
100
AcDbEntity
  8
SK1
  6
Continuous
100
AcDbLine
 10
6.46
 20
4.5762854961
 30
0.0
 11
6.46
 21
10.0028801381
 31
0.0
  0
SPLINE
  5
C6
330
1F
100
AcDbEntity
  8
SK3
100
AcDbSpline
210
0.0
220
0.0
230
1.0
 70
     8
 71
     3
 72
    10
 73
     6
 74
     0
 42
0.0000000213834814
 43
0.0000000001
 12
1.0
 22
0.0
 32
0.0
 13
1.0
 23
0.0
 33
0.0
 40
0.0
 40
0.0
 40
0.0
 40
0.0
 40
0.5
 40
0.5
 40
1.0
 40
1.0
 40
1.0
 40
1.0
 10
11.26
 20
1.447498477868512
 30
0.0
 10
11.36590404725524
 20
1.447498477868513
 30
0.0
 10
11.46943174070028
 20
1.46423574556314
 30
0.0
 10
11.61689285092132
 20
1.520985174601145
 30
0.0
 10
11.66000000000001
 20
1.561056188211873
 30
0.0
 10
11.66
 20
1.601071867997333
 30
0.0
  0
SPLINE
  5
C7
330
1F
100
AcDbEntity
  8
SK1
  6
Continuous
100
AcDbSpline
210
0.0
220
0.0
230
1.0
 70
     8
 71
     3
 72
     8
 73
     4
 74
     0
 42
0.0000000587427727
 43
0.0000000001
 12
1.0
 22
0.0
 32
0.0
 13
1.0
 23
0.0
 33
0.0
 40
0.0
 40
0.0
 40
0.0
 40
0.0
 40
1.0
 40
1.0
 40
1.0
 40
1.0
 10
11.66
 20
3.499761139610459
 30
0.0
 10
11.66
 20
3.533298806959793
 30
0.0
 10
11.61129689683813
 20
3.56580812689349
 30
0.0
 10
11.535
 20
3.582677983937337
 30
0.0
  0
LINE
  5
C8
330
1F
100
AcDbEntity
  8
SK1
  6
Continuous
100
AcDbLine
 10
11.535
 20
3.5826779839
 30
0.0
 11
6.9198076211
 21
4.6029772751
 31
0.0
  0
LINE
  5
C9
330
1F
100
AcDbEntity
  8
SK1
  6
Continuous
100
AcDbLine
 10
6.9198076211
 20
4.6029772751
 30
0.0
 11
6.66
 21
4.6029772751
 31
0.0
  0
SPLINE
  5
CA
330
1F
100
AcDbEntity
  8
SK1
  6
Continuous
100
AcDbSpline
210
0.0
220
0.0
230
1.0
 70
     8
 71
     3
 72
    10
 73
     6
 74
     0
 42
0.0000000253792307
 43
0.0000000001
 12
1.0
 22
0.0
 32
0.0
 13
1.0
 23
0.0
 33
0.0
 40
0.0
 40
0.0
 40
0.0
 40
0.0
 40
0.5
 40
0.5
 40
1.0
 40
1.0
 40
1.0
 40
1.0
 10
3.218248069711986
 20
5.323691837772869
 30
0.0
 10
3.303749195478798
 20
5.328292509348333
 30
0.0
 10
3.392574993682196
 20
5.31801625595605
 30
0.0
 10
3.521053046577927
 20
5.27525732273953
 30
0.0
 10
3.560000000000006
 20
5.242864836499536
 30
0.0
 10
3.56
 20
5.209948552723161
 30
0.0
  0
LINE
  5
CB
330
1F
100
AcDbEntity
  8
SK1
  6
Continuous
100
AcDbLine
 10
3.56
 20
5.2099485527
 30
0.0
 11
3.56
 21
4.6528719302
 31
0.0
  0
SPLINE
  5
CC
330
1F
100
AcDbEntity
  8
SK1
  6
Continuous
100
AcDbSpline
210
0.0
220
0.0
230
1.0
 70
     8
 71
     3
 72
    10
 73
     6
 74
     0
 42
0.0000000427802756
 43
0.0000000001
 12
1.0
 22
0.0
 32
0.0
 13
1.0
 23
0.0
 33
0.0
 40
0.0
 40
0.0
 40
0.0
 40
0.0
 40
0.5
 40
0.5
 40
1.0
 40
1.0
 40
1.0
 40
1.0
 10
3.559999999997673
 20
4.652871930211931
 30
0.0
 10
3.560000000000108
 20
4.632908142912191
 30
0.0
 10
3.581200329542136
 20
4.613046364442456
 30
0.0
 10
3.655802726150724
 20
4.584447388079012
 30
0.0
 10
3.707160895659192
 20
4.576285496125681
 30
0.0
 10
3.760000000000006
 20
4.57628549612599
 30
0.0
  0
LINE
  5
CD
330
1F
100
AcDbEntity
  8
SK1
  6
Continuous
100
AcDbLine
 10
3.76
 20
4.5762854961
 30
0.0
 11
6.46
 21
4.5762854961
 31
0.0
  0
SPLINE
  5
CE
330
1F
100
AcDbEntity
  8
SK1
  6
Continuous
100
AcDbSpline
210
0.0
220
0.0
230
1.0
 70
     8
 71
     3
 72
    10
 73
     6
 74
     0
 42
0.0000000427867299
 43
0.0000000001
 12
1.0
 22
0.0
 32
0.0
 13
1.0
 23
0.0
 33
0.0
 40
0.0
 40
0.0
 40
0.0
 40
0.0
 40
0.5
 40
0.5
 40
1.0
 40
1.0
 40
1.0
 40
1.0
 10
6.460000000000007
 20
4.57628549612599
 30
0.0
 10
6.51287861641325
 20
4.57628549612599
 30
0.0
 10
6.564599852953434
 20
4.584602710151131
 30
0.0
 10
6.638387171863578
 20
4.612887239847584
 30
0.0
 10
6.66000000000001
 20
4.632890888076783
 30
0.0
 10
6.660000000000006
 20
4.652871930212032
 30
0.0
  0
LINE
  5
CF
330
1F
100
AcDbEntity
  8
SK1
  6
Continuous
100
AcDbLine
 10
6.66
 20
4.6528719302
 30
0.0
 11
6.66
 21
5.3420809011
 31
0.0
  0
LINE
  5
D0
330
1F
100
AcDbEntity
  8
SK3
100
AcDbLine
 10
11.26
 20
2.1866021039
 30
0.0
 11
-17.5735920404
 21
2.1866021039
 31
0.0
  0
SPLINE
  5
D1
330
1F
100
AcDbEntity
  8
SK1
  6
Continuous
100
AcDbSpline
210
0.0
220
0.0
230
1.0
 70
     8
 71
     3
 72
    10
 73
     6
 74
     0
 42
0.0000000253792307
 43
0.0000000001
 12
1.0
 22
0.0
 32
0.0
 13
1.0
 23
0.0
 33
0.0
 40
0.0
 40
0.0
 40
0.0
 40
0.0
 40
0.5
 40
0.5
 40
1.0
 40
1.0
 40
1.0
 40
1.0
 10
3.218248069711986
 20
4.584588211763839
 30
0.0
 10
3.303749195478798
 20
4.589188883339299
 30
0.0
 10
3.392574993682196
 20
4.578912629947021
 30
0.0
 10
3.521053046577927
 20
4.536153696730499
 30
0.0
 10
3.560000000000006
 20
4.503761210490506
 30
0.0
 10
3.56
 20
4.470844926714134
 30
0.0
  0
SPLINE
  5
D2
330
1F
100
AcDbEntity
  8
SK1
  6
Continuous
100
AcDbSpline
210
0.0
220
0.0
230
1.0
 70
     8
 71
     3
 72
    10
 73
     6
 74
     0
 42
0.0000000427802756
 43
0.0000000001
 12
1.0
 22
0.0
 32
0.0
 13
1.0
 23
0.0
 33
0.0
 40
0.0
 40
0.0
 40
0.0
 40
0.0
 40
0.5
 40
0.5
 40
1.0
 40
1.0
 40
1.0
 40
1.0
 10
3.559999999997673
 20
3.9137683042029
 30
0.0
 10
3.560000000000108
 20
3.893804516903162
 30
0.0
 10
3.58120032954214
 20
3.873942738433425
 30
0.0
 10
3.655802726150726
 20
3.84534376206998
 30
0.0
 10
3.707160895659195
 20
3.837181870116657
 30
0.0
 10
3.760000000000006
 20
3.83718187011696
 30
0.0
  0
LINE
  5
D3
330
1F
100
AcDbEntity
  8
SK1
  6
Continuous
100
AcDbLine
 10
3.76
 20
3.8371818701
 30
0.0
 11
6.46
 21
3.8371818701
 31
0.0
  0
SPLINE
  5
D4
330
1F
100
AcDbEntity
  8
SK1
  6
Continuous
100
AcDbSpline
210
0.0
220
0.0
230
1.0
 70
     8
 71
     3
 72
    10
 73
     6
 74
     0
 42
0.0000000427867299
 43
0.0000000001
 12
1.0
 22
0.0
 32
0.0
 13
1.0
 23
0.0
 33
0.0
 40
0.0
 40
0.0
 40
0.0
 40
0.0
 40
0.5
 40
0.5
 40
1.0
 40
1.0
 40
1.0
 40
1.0
 10
6.460000000000007
 20
3.837181870116961
 30
0.0
 10
6.51287861641325
 20
3.837181870116961
 30
0.0
 10
6.564599852953438
 20
3.845499084142101
 30
0.0
 10
6.638387171863578
 20
3.873783613838553
 30
0.0
 10
6.66000000000001
 20
3.893787262067751
 30
0.0
 10
6.660000000000006
 20
3.913768304203005
 30
0.0
  0
LINE
  5
D5
330
1F
100
AcDbEntity
  8
SK3
100
AcDbLine
 10
11.26
 20
1.4474984779
 30
0.0
 11
-17.5735920404
 21
1.4474984779
 31
0.0
  0
SPLINE
  5
D6
330
1F
100
AcDbEntity
  8
SK3
100
AcDbSpline
210
0.0
220
0.0
230
1.0
 70
     8
 71
     3
 72
    10
 73
     6
 74
     0
 42
0.0000000213834814
 43
0.0000000001
 12
1.0
 22
0.0
 32
0.0
 13
1.0
 23
0.0
 33
0.0
 40
0.0
 40
0.0
 40
0.0
 40
0.0
 40
0.5
 40
0.5
 40
1.0
 40
1.0
 40
1.0
 40
1.0
 10
11.26
 20
2.186602103877542
 30
0.0
 10
11.36590404725524
 20
2.186602103877542
 30
0.0
 10
11.46943174070028
 20
2.203339371572169
 30
0.0
 10
11.61689285092132
 20
2.260088800610173
 30
0.0
 10
11.66000000000001
 20
2.300159814220902
 30
0.0
 10
11.66
 20
2.340175494006362
 30
0.0
  0
LINE
  5
D7
330
1F
100
AcDbEntity
  8
SK1
  6
Continuous
100
AcDbLine
 10
11.66
 20
3.4997611396
 30
0.0
 11
11.66
 21
4.2388647656
 31
0.0
  0
SPLINE
  5
D8
330
1F
100
AcDbEntity
  8
SK1
  6
Continuous
100
AcDbSpline
210
0.0
220
0.0
230
1.0
 70
     8
 71
     3
 72
     8
 73
     4
 74
     0
 42
0.0000000587427727
 43
0.0000000001
 12
1.0
 22
0.0
 32
0.0
 13
1.0
 23
0.0
 33
0.0
 40
0.0
 40
0.0
 40
0.0
 40
0.0
 40
1.0
 40
1.0
 40
1.0
 40
1.0
 10
11.66
 20
4.238864765619488
 30
0.0
 10
11.66
 20
4.272402432968756
 30
0.0
 10
11.61129689683813
 20
4.304911752902518
 30
0.0
 10
11.535
 20
4.321781609946366
 30
0.0
  0
LINE
  5
D9
330
1F
100
AcDbEntity
  8
SK1
  6
Continuous
100
AcDbLine
 10
11.535
 20
4.3217816099
 30
0.0
 11
6.9198076211
 21
5.3420809011
 31
0.0
  0
LINE
  5
DA
330
1F
100
AcDbEntity
  8
SK1
  6
Continuous
100
AcDbLine
 10
6.9198076211
 20
5.3420809011
 30
0.0
 11
6.66
 21
5.3420809011
 31
0.0
  0
LINE
  5
DB
330
1F
100
AcDbEntity
  8
SK1
  6
Continuous
100
AcDbLine
 10
-22.34
 20
0.4
 30
0.0
 11
-22.34
 21
6.1450479361
 31
0.0
  0
LINE
  5
DC
330
1F
100
AcDbEntity
  8
SK1
  6
Continuous
100
AcDbLine
 10
-22.0817519303
 20
0.4
 30
0.0
 11
-22.0817519303
 21
6.3553123498
 31
0.0
  0
LINE
  5
DD
330
1F
100
AcDbEntity
  8
SK3
100
AcDbLine
 10
-21.8731604391
 20
-0.4
 30
0.0
 11
-21.8731604391
 21
-3.0746284341
 31
0.0
  0
LINE
  5
DE
330
1F
100
AcDbEntity
  8
SK1
  6
Continuous
100
AcDbLine
 10
-22.34
 20
0.4
 30
0.0
 11
-22.0817519303
 21
0.4
 31
0.0
  0
LINE
  5
DF
330
1F
100
AcDbEntity
  8
SK1
  6
Continuous
100
AcDbLine
 10
-22.0817519303
 20
0.4
 30
0.0
 11
-3.7354130445
 21
0.4
 31
0.0
  0
LINE
  5
E0
330
1F
100
AcDbEntity
  8
SK1
  6
Continuous
100
AcDbLine
 10
-22.34
 20
-0.4
 30
0.0
 11
-22.0817519303
 21
-0.4
 31
0.0
  0
LINE
  5
E1
330
1F
100
AcDbEntity
  8
SK1
  6
Continuous
100
AcDbLine
 10
-22.0817519303
 20
-0.4
 30
0.0
 11
-3.7354130445
 21
-0.4
 31
0.0
  0
LINE
  5
E2
330
1F
100
AcDbEntity
  8
SK3
100
AcDbLine
 10
-17.5735920404
 20
-1.4474984779
 30
0.0
 11
11.26
 21
-1.4474984779
 31
0.0
  0
SPLINE
  5
E3
330
1F
100
AcDbEntity
  8
SK1
  6
Continuous
100
AcDbSpline
210
0.0
220
0.0
230
1.0
 70
     8
 71
     3
 72
    35
 73
    31
 74
     0
 42
0.0000000080816639
 43
0.0000000001
 12
1.0
 22
0.0
 32
0.0
 13
1.0
 23
0.0
 33
0.0
 40
0.0
 40
0.0
 40
0.0
 40
0.0
 40
0.1134251203605287
 40
0.1134251203605287
 40
0.1134251203605287
 40
0.2270448956076113
 40
0.2270448956076113
 40
0.2270448956076113
 40
0.3375525299923994
 40
0.3375525299923994
 40
0.3375525299923994
 40
0.4436123154059478
 40
0.4436123154059478
 40
0.4436123154059478
 40
0.5001943358043288
 40
0.5001943358043288
 40
0.5001943358043288
 40
0.6025718788280243
 40
0.6025718788280243
 40
0.6025718788280243
 40
0.7048622826146601
 40
0.7048622826146601
 40
0.7048622826146601
 40
0.8085177663571332
 40
0.8085177663571332
 40
0.8085177663571332
 40
0.9156387561634702
 40
0.9156387561634702
 40
0.9156387561634702
 40
1.0
 40
1.0
 40
1.0
 40
1.0
 10
-16.92641027504489
 20
-4.239596918716483
 30
0.0
 10
-16.97418338792762
 20
-4.237025545092665
 30
0.0
 10
-17.02266979657091
 20
-4.227006356904931
 30
0.0
 10
-17.06786828878674
 20
-4.210154945025271
 30
0.0
 10
-17.11311117396345
 20
-4.193286982061015
 30
0.0
 10
-17.15633486494087
 20
-4.169060323510557
 30
0.0
 10
-17.19357317105913
 20
-4.139285345794776
 30
0.0
 10
-17.22979207083587
 20
-4.110325464259939
 30
0.0
 10
-17.26138521019838
 20
-4.075251825705291
 30
0.0
 10
-17.28527580782684
 20
-4.036986410856048
 30
0.0
 10
-17.30821952727531
 20
-4.00023760462968
 30
0.0
 10
-17.32471136232711
 20
-3.959481679113384
 30
0.0
 10
-17.33314397584146
 20
-3.918219431729706
 30
0.0
 10
-17.33769177696157
 20
-3.89596624835418
 30
0.0
 10
-17.33999999999999
 20
-3.873302295204455
 30
0.0
 10
-17.33999999999999
 20
-3.850827256408603
 30
0.0
 10
-17.33999999999999
 20
-3.810566507189559
 30
0.0
 10
-17.33244045748356
 20
-3.770043184192144
 30
0.0
 10
-17.31802614799303
 20
-3.73264790288042
 30
0.0
 10
-17.30361865999355
 20
-3.695270318675678
 30
0.0
 10
-17.28198757287048
 20
-3.660001641481509
 30
0.0
 10
-17.25505043752
 20
-3.629630989714003
 30
0.0
 10
-17.22774723689759
 20
-3.59884761251177
 30
0.0
 10
-17.19428968317309
 20
-3.572273860377515
 30
0.0
 10
-17.15746020563424
 20
-3.551829644960565
 30
0.0
 10
-17.11940649113452
 20
-3.530705849874773
 30
0.0
 10
-17.07676917987024
 20
-3.515560361867675
 30
0.0
 10
-17.03293478755094
 20
-3.507361565306203
 30
0.0
 10
-16.99823368926005
 20
-3.50087106252304
 30
0.0
 10
-16.96217039816761
 20
-3.498568514692506
 30
0.0
 10
-16.92641027504489
 20
-3.500493292707453
 30
0.0
  0
SPLINE
  5
E4
330
1F
100
AcDbEntity
  8
SK3
100
AcDbSpline
210
0.0
220
0.0
230
1.0
 70
     8
 71
     3
 72
    35
 73
    31
 74
     0
 42
0.0000000082328461
 43
0.0000000001
 12
1.0
 22
0.0
 32
0.0
 13
1.0
 23
0.0
 33
0.0
 40
0.0
 40
0.0
 40
0.0
 40
0.0
 40
0.1073090111240763
 40
0.1073090111240763
 40
0.1073090111240763
 40
0.2146308337112179
 40
0.2146308337112179
 40
0.2146308337112179
 40
0.3218011037020559
 40
0.3218011037020559
 40
0.3218011037020559
 40
0.4290974947239911
 40
0.4290974947239911
 40
0.4290974947239911
 40
0.4999972307564134
 40
0.4999972307564134
 40
0.4999972307564134
 40
0.6074078733196426
 40
0.6074078733196426
 40
0.6074078733196426
 40
0.7148193611725152
 40
0.7148193611725152
 40
0.7148193611725152
 40
0.8222098361963146
 40
0.8222098361963146
 40
0.8222098361963146
 40
0.929461788272261
 40
0.929461788272261
 40
0.929461788272261
 40
1.0
 40
1.0
 40
1.0
 40
1.0
 10
-17.57359204039043
 20
-1.447498477868518
 30
0.0
 10
-17.61831922832086
 20
-1.447498477868518
 30
0.0
 10
-17.66366516319225
 20
-1.454840060186532
 30
0.0
 10
-17.70587452246723
 20
-1.468914497141858
 30
0.0
 10
-17.74808728822712
 20
-1.482990069967474
 30
0.0
 10
-17.7883246996419
 20
-1.504185386148916
 30
0.0
 10
-17.82324948865451
 20
-1.530652407444068
 30
0.0
 10
-17.85812720653582
 20
-1.557083756866326
 30
0.0
 10
-17.88866950020318
 20
-1.589493360723869
 30
0.0
 10
-17.91237167243585
 20
-1.625087016754198
 30
0.0
 10
-17.93610137640573
 20
-1.660722017315081
 30
0.0
 10
-17.95363036887541
 20
-1.700524853450798
 30
0.0
 10
-17.96352635438886
 20
-1.741122802061541
 30
0.0
 10
-17.97011789776215
 20
-1.768164387638909
 30
0.0
 10
-17.97347515395515
 20
-1.795965283915291
 30
0.0
 10
-17.97347515395515
 20
-1.823486555219656
 30
0.0
 10
-17.97347515395515
 20
-1.864847437277807
 30
0.0
 10
-17.96577425224456
 20
-1.906523981418473
 30
0.0
 10
-17.95100237311604
 20
-1.945103994162905
 30
0.0
 10
-17.93623043892668
 20
-1.983684150710802
 30
0.0
 10
-17.91397884557015
 20
-2.020235845224236
 30
0.0
 10
-17.88607182297207
 20
-2.051830561271644
 30
0.0
 10
-17.85817080092825
 20
-2.083418483838772
 30
0.0
 10
-17.82384378259983
 20
-2.110928839667231
 30
0.0
 10
-17.78592570070611
 20
-2.13219751643485
 30
0.0
 10
-17.74805562441011
 20
-2.153439266325099
 30
0.0
 10
-17.70555856372193
 20
-2.169045647171353
 30
0.0
 10
-17.66195948578373
 20
-2.177825497466489
 30
0.0
 10
-17.63305204915129
 20
-2.183646789522452
 30
0.0
 10
-17.60323112390786
 20
-2.186602103877547
 30
0.0
 10
-17.57359204039043
 20
-2.186602103877547
 30
0.0
  0
LINE
  5
E5
330
1F
100
AcDbEntity
  8
SK1
  6
Continuous
100
AcDbLine
 10
-3.7354130445
 20
-8.1798211038
 30
0.0
 11
-22.0817519303
 21
-6.3553123498
 31
0.0
  0
SPLINE
  5
E6
330
1F
100
AcDbEntity
  8
SK3
100
AcDbSpline
210
0.0
220
0.0
230
1.0
 70
     8
 71
     3
 72
    35
 73
    31
 74
     0
 42
0.0000000092137036
 43
0.0000000001
 12
1.0
 22
0.0
 32
0.0
 13
1.0
 23
0.0
 33
0.0
 40
0.0
 40
0.0
 40
0.0
 40
0.0
 40
0.107309011124075
 40
0.107309011124075
 40
0.107309011124075
 40
0.2146308337112158
 40
0.2146308337112158
 40
0.2146308337112158
 40
0.3218011037020567
 40
0.3218011037020567
 40
0.3218011037020567
 40
0.4290974947239894
 40
0.4290974947239894
 40
0.4290974947239894
 40
0.4999972307564139
 40
0.4999972307564139
 40
0.4999972307564139
 40
0.6074078733196422
 40
0.6074078733196422
 40
0.6074078733196422
 40
0.7148193611725144
 40
0.7148193611725144
 40
0.7148193611725144
 40
0.8222098361963138
 40
0.8222098361963138
 40
0.8222098361963138
 40
0.9294617882722646
 40
0.9294617882722646
 40
0.9294617882722646
 40
1.0
 40
1.0
 40
1.0
 40
1.0
 10
-2.753043053355754
 20
-3.640313859037168
 30
0.0
 10
-2.708315865425328
 20
-3.640313859037168
 30
0.0
 10
-2.662969930553936
 20
-3.635357955420912
 30
0.0
 10
-2.620760571278963
 20
-3.625758205211053
 30
0.0
 10
-2.578547805519075
 20
-3.616157680258225
 30
0.0
 10
-2.538310394104286
 20
-3.601640350010574
 30
0.0
 10
-2.503385605091675
 20
-3.583217491934616
 30
0.0
 10
-2.468507887210364
 20
-3.564819463923375
 30
0.0
 10
-2.437965593543008
 20
-3.542010602622214
 30
0.0
 10
-2.414263421310334
 20
-3.516459172451066
 30
0.0
 10
-2.390533717340453
 20
-3.490878062499777
 30
0.0
 10
-2.373004724870783
 20
-3.461834141345856
 30
0.0
 10
-2.363108739357328
 20
-3.431574662952808
 30
0.0
 10
-2.356517195984034
 20
-3.411419352093686
 30
0.0
 10
-2.353159939791043
 20
-3.390427681485515
 30
0.0
 10
-2.353159939791043
 20
-3.369363812353904
 30
0.0
 10
-2.353159939791043
 20
-3.337707563730582
 30
0.0
 10
-2.360860841501623
 20
-3.305144209984442
 30
0.0
 10
-2.37563272063015
 20
-3.274442074822043
 30
0.0
 10
-2.390404654819503
 20
-3.243739825220247
 30
0.0
 10
-2.412656248176043
 20
-3.214058031231191
 30
0.0
 10
-2.440563270774115
 20
-3.18804076950787
 30
0.0
 10
-2.468464292817935
 20
-3.16202910200335
 30
0.0
 10
-2.502791311146352
 20
-3.138972733301058
 30
0.0
 10
-2.54070939304008
 20
-3.121001655684601
 30
0.0
 10
-2.578579469336076
 20
-3.103053330071404
 30
0.0
 10
-2.621076530024259
 20
-3.089692406313993
 30
0.0
 10
-2.664675607962463
 20
-3.082164341462466
 30
0.0
 10
-2.6935830445949
 20
-3.077173018986131
 30
0.0
 10
-2.72340396983833
 20
-3.074628434087928
 30
0.0
 10
-2.753043053355754
 20
-3.074628434087929
 30
0.0
  0
SPLINE
  5
E7
330
1F
100
AcDbEntity
  8
SK1
  6
Continuous
100
AcDbSpline
210
0.0
220
0.0
230
1.0
 70
     8
 71
     3
 72
    35
 73
    31
 74
     0
 42
0.0000000092524145
 43
0.0000000001
 12
1.0
 22
0.0
 32
0.0
 13
1.0
 23
0.0
 33
0.0
 40
0.0
 40
0.0
 40
0.0
 40
0.0
 40
0.1075456917067818
 40
0.1075456917067818
 40
0.1075456917067818
 40
0.2150989301385756
 40
0.2150989301385756
 40
0.2150989301385756
 40
0.322548403391312
 40
0.322548403391312
 40
0.322548403391312
 40
0.4299452396167556
 40
0.4299452396167556
 40
0.4299452396167556
 40
0.5000022276408209
 40
0.5000022276408209
 40
0.5000022276408209
 40
0.6074000166486768
 40
0.6074000166486768
 40
0.6074000166486768
 40
0.714798073743761
 40
0.714798073743761
 40
0.714798073743761
 40
0.8221915703467344
 40
0.8221915703467344
 40
0.8221915703467344
 40
0.9295934992251633
 40
0.9295934992251633
 40
0.9295934992251633
 40
1.0
 40
1.0
 40
1.0
 40
1.0
 10
-3.735413044452088
 20
-8.179821103772271
 30
0.0
 10
-3.691029899622519
 20
-8.184234247105506
 30
0.0
 10
-3.646070591160167
 20
-8.194353796213107
 30
0.0
 10
-3.604251747311368
 20
-8.209323061784337
 30
0.0
 10
-3.562431094453564
 20
-8.224292974899441
 30
0.0
 10
-3.522597455293369
 20
-8.244524280435813
 30
0.0
 10
-3.488043905251077
 20
-8.268271189928202
 30
0.0
 10
-3.453523039496958
 20
-8.291995637160358
 30
0.0
 10
-3.423318615637255
 20
-8.319879670680795
 30
0.0
 10
-3.399916600976036
 20
-8.349529297561864
 30
0.0
 10
-3.376525725949498
 20
-8.379164810871233
 30
0.0
 10
-3.359284309190155
 20
-8.41137797792822
 30
0.0
 10
-3.349605836744445
 20
-8.443442218482144
 30
0.0
 10
-3.343240640716422
 20
-8.464529758665813
 30
0.0
 10
-3.339999999999971
 20
-8.485869992403476
 30
0.0
 10
-3.339999999999971
 20
-8.506684252388528
 30
0.0
 10
-3.339999999999971
 20
-8.538333258317648
 30
0.0
 10
-3.347611532466511
 20
-8.569476024987996
 30
0.0
 10
-3.362211311005158
 20
-8.597561293583816
 30
0.0
 10
-3.376811110372902
 20
-8.625646602248109
 30
0.0
 10
-3.398802687503859
 20
-8.651451454699751
 30
0.0
 10
-3.426381423985211
 20
-8.6729101604145
 30
0.0
 10
-3.453959068452833
 20
-8.694368016445605
 30
0.0
 10
-3.487884880964154
 20
-8.712075572973621
 30
0.0
 10
-3.52536638434088
 20
-8.724653326085217
 30
0.0
 10
-3.562851255052247
 20
-8.737232209180936
 30
0.0
 10
-3.604925578052374
 20
-8.745030883577572
 30
0.0
 10
-3.648119116986679
 20
-8.747472025020953
 30
0.0
 10
-3.67666450453448
 20
-8.74908530631903
 30
0.0
 10
-3.706120119277527
 20
-8.748419208252027
 30
0.0
 10
-3.735413044452088
 20
-8.745506528721508
 30
0.0
  0
LINE
  5
E8
330
1F
100
AcDbEntity
  8
SK1
  6
Continuous
100
AcDbLine
 10
-3.7354130445
 20
-8.7455065287
 30
0.0
 11
-22.0817519303
 21
-6.9209977747
 31
0.0
  0
ELLIPSE
  5
E9
330
1F
100
AcDbEntity
  8
SK1
  6
Continuous
100
AcDbEllipse
 10
-64.6712534202
 20
-0.2828427125
 30
0.0
 11
62.10000000021545
 21
-4.426224690183832E-11
 31
0.0
210
0.0
220
0.0
230
1.0
 40
0.7071067812
 41
-0.1939350326977154
 42
-0.1815526427956327
  0
LINE
  5
EA
330
1F
100
AcDbEntity
  8
SK3
100
AcDbLine
 10
-17.5735920404
 20
-2.1866021039
 30
0.0
 11
11.26
 21
-2.1866021039
 31
0.0
  0
ELLIPSE
  5
EB
330
1F
100
AcDbEntity
  8
SK1
  6
Continuous
100
AcDbEllipse
 10
44.3446183201
 20
-0.3695518133
 30
0.0
 11
-62.09999999393109
 21
3.349996968303333E-10
 31
0.0
210
0.0
220
0.0
230
1.0
 40
0.3826834324
 41
0.1350138053374516
 42
0.163577389614723
  0
LINE
  5
EC
330
1F
100
AcDbEntity
  8
SK3
100
AcDbLine
 10
-17.5735920404
 20
-4.2336740828
 30
0.0
 11
11.26
 21
-4.2336740828
 31
0.0
  0
SPLINE
  5
ED
330
1F
100
AcDbEntity
  8
SK1
  6
Continuous
100
AcDbSpline
210
0.0
220
0.0
230
1.0
 70
     8
 71
     3
 72
    35
 73
    31
 74
     0
 42
0.0000000105687091
 43
0.0000000001
 12
1.0
 22
0.0
 32
0.0
 13
1.0
 23
0.0
 33
0.0
 40
0.0
 40
0.0
 40
0.0
 40
0.0
 40
0.1134251203605403
 40
0.1134251203605403
 40
0.1134251203605403
 40
0.227044895607639
 40
0.227044895607639
 40
0.227044895607639
 40
0.3375525299924254
 40
0.3375525299924254
 40
0.3375525299924254
 40
0.4436123154059774
 40
0.4436123154059774
 40
0.4436123154059774
 40
0.5001943358043479
 40
0.5001943358043479
 40
0.5001943358043479
 40
0.6025718788280409
 40
0.6025718788280409
 40
0.6025718788280409
 40
0.7048622826146739
 40
0.7048622826146739
 40
0.7048622826146739
 40
0.8085177663571457
 40
0.8085177663571457
 40
0.8085177663571457
 40
0.9156387561634821
 40
0.9156387561634821
 40
0.9156387561634821
 40
1.0
 40
1.0
 40
1.0
 40
1.0
 10
-16.92641027504484
 20
-9.496188754151492
 30
0.0
 10
-16.9741833879276
 20
-9.489980909075049
 30
0.0
 10
-17.02266979657088
 20
-9.480865285319597
 30
0.0
 10
-17.06786828878672
 20
-9.469471953437422
 30
0.0
 10
-17.11311117396344
 20
-9.458067431276284
 30
0.0
 10
-17.15633486494086
 20
-9.444041480486622
 30
0.0
 10
-17.19357317105913
 20
-9.428407401164284
 30
0.0
 10
-17.22979207083587
 20
-9.413201308000998
 30
0.0
 10
-17.26138521019839
 20
-9.396017979255655
 30
0.0
 10
-17.28527580782685
 20
-9.378208517515628
 30
0.0
 10
-17.30821952727532
 20
-9.36110491466541
 30
0.0
 10
-17.32471136232711
 20
-9.342924537670704
 30
0.0
 10
-17.33314397584146
 20
-9.325170882298139
 30
0.0
 10
-17.33769177696157
 20
-9.315596140890628
 30
0.0
 10
-17.34
 20
-9.306028854661726
 30
0.0
 10
-17.34
 20
-9.296719388777623
 30
0.0
 10
-17.34
 20
-9.280042840419792
 30
0.0
 10
-17.33244045748357
 20
-9.263841983060187
 30
0.0
 10
-17.31802614799303
 20
-9.249500265920686
 30
0.0
 10
-17.30361865999356
 20
-9.235165335918316
 30
0.0
 10
-17.28198757287048
 20
-9.222300123647559
 30
0.0
 10
-17.25505043752
 20
-9.211988441546614
 30
0.0
 10
-17.22774723689759
 20
-9.20153662766613
 30
0.0
 10
-17.19428968317309
 20
-9.193431341179272
 30
0.0
 10
-17.15746020563424
 20
-9.188323297914884
 30
0.0
 10
-17.11940649113452
 20
-9.183045459807344
 30
0.0
 10
-17.07676917987023
 20
-9.18082690169841
 30
0.0
 10
-17.03293478755093
 20
-9.181819762747484
 30
0.0
 10
-16.99823368926005
 20
-9.182605752173368
 30
0.0
 10
-16.96217039816762
 20
-9.185395183071172
 30
0.0
 10
-16.92641027504489
 20
-9.190042008259415
 30
0.0
  0
SPLINE
  5
EE
330
1F
100
AcDbEntity
  8
SK3
100
AcDbSpline
210
0.0
220
0.0
230
1.0
 70
     8
 71
     3
 72
    35
 73
    31
 74
     0
 42
0.0000000109074563
 43
0.0000000001
 12
1.0
 22
0.0
 32
0.0
 13
1.0
 23
0.0
 33
0.0
 40
0.0
 40
0.0
 40
0.0
 40
0.0
 40
0.1073090111240757
 40
0.1073090111240757
 40
0.1073090111240757
 40
0.2146308337112141
 40
0.2146308337112141
 40
0.2146308337112141
 40
0.3218011037020543
 40
0.3218011037020543
 40
0.3218011037020543
 40
0.4290974947239906
 40
0.4290974947239906
 40
0.4290974947239906
 40
0.4999972307564159
 40
0.4999972307564159
 40
0.4999972307564159
 40
0.607407873319643
 40
0.607407873319643
 40
0.607407873319643
 40
0.7148193611725157
 40
0.7148193611725157
 40
0.7148193611725157
 40
0.822209836196315
 40
0.822209836196315
 40
0.822209836196315
 40
0.9294617882722612
 40
0.9294617882722612
 40
0.9294617882722612
 40
1.0
 40
1.0
 40
1.0
 40
1.0
 10
-17.57359204039043
 20
-4.233674082793613
 30
0.0
 10
-17.61831922832086
 20
-4.233674082793613
 30
0.0
 10
-17.66366516319225
 20
-4.237222580698949
 30
0.0
 10
-17.70587452246723
 20
-4.243949686933963
 30
0.0
 10
-17.74808728822712
 20
-4.250677336076669
 30
0.0
 10
-17.7883246996419
 20
-4.26076156872221
 30
0.0
 10
-17.82324948865451
 20
-4.273128344892397
 30
0.0
 10
-17.85812720653583
 20
-4.285478453298474
 30
0.0
 10
-17.88866950020318
 20
-4.300430910493882
 30
0.0
 10
-17.91237167243585
 20
-4.316468348524747
 30
0.0
 10
-17.93610137640573
 20
-4.332524415165896
 30
0.0
 10
-17.95363036887541
 20
-4.350097996428567
 30
0.0
 10
-17.96352635438886
 20
-4.367536342933251
 30
0.0
 10
-17.97011789776216
 20
-4.379151721430712
 30
0.0
 10
-17.97347515395514
 20
-4.39088628858827
 30
0.0
 10
-17.97347515395514
 20
-4.402285972416289
 30
0.0
 10
-17.97347515395514
 20
-4.419418210716487
 30
0.0
 10
-17.96577425224456
 20
-4.436171842895372
 30
0.0
 10
-17.95100237311604
 20
-4.451253458710036
 30
0.0
 10
-17.93623043892668
 20
-4.466335130740042
 30
0.0
 10
-17.91397884557015
 20
-4.480169363648502
 30
0.0
 10
-17.88607182297207
 20
-4.491851329661869
 30
0.0
 10
-17.85817080092825
 20
-4.503530783824658
 30
0.0
 10
-17.82384378259983
 20
-4.513394559027384
 30
0.0
 10
-17.78592570070611
 20
-4.520908768463872
 30
0.0
 10
-17.74805562441011
 20
-4.528413464652392
 30
0.0
 10
-17.70555856372193
 20
-4.533793837172539
 30
0.0
 10
-17.66195948578373
 20
-4.536811956074775
 30
0.0
 10
-17.63305204915129
 20
-4.538813055296166
 30
0.0
 10
-17.60323112390786
 20
-4.539820828685686
 30
0.0
 10
-17.57359204039043
 20
-4.539820828685686
 30
0.0
  0
SPLINE
  5
EF
330
1F
100
AcDbEntity
  8
SK1
  6
Continuous
100
AcDbSpline
210
0.0
220
0.0
230
1.0
 70
     8
 71
     3
 72
    20
 73
    16
 74
     0
 42
0.0000000249810842
 43
0.0000000001
 12
1.0
 22
0.0
 32
0.0
 13
1.0
 23
0.0
 33
0.0
 40
0.0
 40
0.0
 40
0.0
 40
0.0
 40
0.2147965349947706
 40
0.2147965349947706
 40
0.2147965349947706
 40
0.4295936061663836
 40
0.4295936061663836
 40
0.4295936061663836
 40
0.644381556313126
 40
0.644381556313126
 40
0.644381556313126
 40
0.8591863710859414
 40
0.8591863710859414
 40
0.8591863710859414
 40
1.0
 40
1.0
 40
1.0
 40
1.0
 10
-3.339999999999964
 20
12.03026824055349
 30
0.0
 10
-3.339999999999964
 20
12.03026824055348
 30
0.0
 10
-3.347611532466505
 20
12.0289350554236
 30
0.0
 10
-3.362211311005153
 20
12.02641819902512
 30
0.0
 10
-3.376811110372897
 20
12.02390133903592
 30
0.0
 10
-3.398802687503856
 20
12.02013487285227
 30
0.0
 10
-3.426381423985207
 20
12.01553143563079
 30
0.0
 10
-3.453959068452828
 20
12.01092818068804
 30
0.0
 10
-3.487884880964149
 20
12.00536663551151
 30
0.0
 10
-3.525366384340874
 20
11.99942631279396
 30
0.0
 10
-3.562851255052242
 20
11.99348545639838
 30
0.0
 10
-3.60492557805237
 20
11.98700732767445
 30
0.0
 10
-3.648119116986677
 20
11.98061297070364
 30
0.0
 10
-3.676664504534478
 20
11.97638712113553
 30
0.0
 10
-3.706120119277525
 20
11.97213309363531
 30
0.0
 10
-3.735413044452093
 20
11.9680139427404
 30
0.0
  0
ARC
  5
F0
330
1F
100
AcDbEntity
  8
SK3
100
AcDbCircle
 10
-2.7529415147
 20
9.5079875499
 30
0.0
 40
4.759806320192225
100
AcDbArc
 50
269.9987777372
 51
274.8180141842
  0
LINE
  5
F1
330
1F
100
AcDbEntity
  8
SK3
100
AcDbLine
 10
-2.7530430534
 20
4.7481812307
 30
0.0
 11
-21.8731604391
 21
4.7481812307
 31
0.0
  0
SPLINE
  5
F2
330
1F
100
AcDbEntity
  8
SK3
100
AcDbSpline
210
0.0
220
0.0
230
1.0
 70
     8
 71
     3
 72
    11
 73
     7
 74
     0
 42
0.0000003114740157
 43
0.0000000001
 12
1.0
 22
0.0
 32
0.0
 13
1.0
 23
0.0
 33
0.0
 40
0.0
 40
0.0
 40
0.0
 40
0.0
 40
0.3817529303377174
 40
0.3817529303377174
 40
0.3817529303377174
 40
0.9999999999999999
 40
0.9999999999999999
 40
0.9999999999999999
 40
0.9999999999999999
 10
-17.32680780842886
 20
9.336356019826495
 30
0.0
 10
-17.32926280361032
 20
9.33261814163408
 30
0.0
 10
-17.33137976566936
 20
9.328885173169757
 30
0.0
 10
-17.33314397584146
 20
9.32517088229814
 30
0.0
 10
-17.33603227098741
 20
9.319089992127115
 30
0.0
 10
-17.3380172361603
 20
9.313012108989575
 30
0.0
 10
-17.33908128690344
 20
9.307001367756108
 30
0.0
  0
LINE
  5
F3
330
1F
100
AcDbEntity
  8
SK1
  6
Continuous
100
AcDbLine
 10
-3.7354130445
 20
-11.9680139427
 30
0.0
 11
-22.0817519303
 21
-9.3877689182
 31
0.0
  0
ARC
  5
F4
330
1F
100
AcDbEntity
  8
SK3
100
AcDbCircle
 10
-2.7529415147
 20
-9.5079875499
 30
0.0
 40
4.75980632019307
100
AcDbArc
 50
85.1819858158
 51
90.0012222628
  0
SPLINE
  5
F5
330
1F
100
AcDbEntity
  8
SK1
  6
Continuous
100
AcDbSpline
210
0.0
220
0.0
230
1.0
 70
     8
 71
     3
 72
    20
 73
    16
 74
     0
 42
0.0000000249810691
 43
0.0000000001
 12
1.0
 22
0.0
 32
0.0
 13
1.0
 23
0.0
 33
0.0
 40
0.0
 40
0.0
 40
0.0
 40
0.0
 40
0.2150904251251421
 40
0.2150904251251421
 40
0.2150904251251421
 40
0.4301959436330682
 40
0.4301959436330682
 40
0.4301959436330682
 40
0.6450939327074693
 40
0.6450939327074693
 40
0.6450939327074693
 40
0.8598866481963129
 40
0.8598866481963129
 40
0.8598866481963129
 40
1.0
 40
1.0
 40
1.0
 40
1.0
 10
-3.735413044452088
 20
-11.9680139427404
 30
0.0
 10
-3.691029899622519
 20
-11.97425506989496
 30
0.0
 10
-3.646070591160167
 20
-11.98084201834442
 30
0.0
 10
-3.604251747311368
 20
-11.98718892809335
 30
0.0
 10
-3.562431094453564
 20
-11.99353611239833
 30
0.0
 10
-3.522597455293369
 20
-11.99981462838286
 30
0.0
 10
-3.488043905251077
 20
-12.00540075095954
 30
0.0
 10
-3.45352303949696
 20
-12.0109815896091
 30
0.0
 10
-3.423318615637253
 20
-12.01601973808532
 30
0.0
 10
-3.399916600976036
 20
-12.01997878666216
 30
0.0
 10
-3.376525725949498
 20
-12.02393595068522
 30
0.0
 10
-3.35928430919015
 20
-12.02691915660881
 30
0.0
 10
-3.349605836744439
 20
-12.02859803143455
 30
0.0
 10
-3.343240640716417
 20
-12.02970216924476
 30
0.0
 10
-3.339999999999964
 20
-12.03026824055349
 30
0.0
 10
-3.339999999999964
 20
-12.03026824055349
 30
0.0
  0
LINE
  5
F6
330
1F
100
AcDbEntity
  8
SK3
100
AcDbLine
 10
-17.5735920404
 20
-4.5398208287
 30
0.0
 11
11.26
 21
-4.5398208287
 31
0.0
  0
ELLIPSE
  5
F7
330
1F
100
AcDbEntity
  8
SK1
  6
Continuous
100
AcDbEllipse
 10
44.3446183195
 20
-0.1530733737
 30
0.0
 11
-62.09999999328083
 21
5.155236222385472E-9
 31
0.0
210
0.0
220
0.0
230
1.0
 40
0.9238795326
 41
0.1581069421540667
 42
0.1635773896902092
  0
SPLINE
  5
F8
330
1F
100
AcDbEntity
  8
SK3
100
AcDbSpline
210
0.0
220
0.0
230
1.0
 70
     8
 71
     3
 72
     8
 73
     4
 74
     0
 42
0.0000009715111883
 43
0.0000000001
 12
1.0
 22
0.0
 32
0.0
 13
1.0
 23
0.0
 33
0.0
 40
0.0
 40
0.0
 40
0.0
 40
0.0
 40
1.0
 40
1.0
 40
1.0
 40
1.0
 10
-17.34
 20
-9.296719388777623
 30
0.0
 10
-17.34
 20
-9.3000934029736
 30
0.0
 10
-17.33969055961645
 20
-9.30350570260087
 30
0.0
 10
-17.33907751562555
 20
-9.30694441061014
 30
0.0
  0
SPLINE
  5
F9
330
1F
100
AcDbEntity
  8
SK3
100
AcDbSpline
210
0.0
220
0.0
230
1.0
 70
     8
 71
     3
 72
    11
 73
     7
 74
     0
 42
0.0000002471914901
 43
0.0000000001
 12
1.0
 22
0.0
 32
0.0
 13
1.0
 23
0.0
 33
0.0
 40
0.0
 40
0.0
 40
0.0
 40
0.0
 40
0.2296124241225966
 40
0.2296124241225966
 40
0.2296124241225966
 40
1.0
 40
1.0
 40
1.0
 40
1.0
 10
-17.95785031500296
 20
-4.443511183448039
 30
0.0
 10
-17.95995650748308
 20
-4.440874524535156
 30
0.0
 10
-17.96185083790137
 20
-4.438204564346422
 30
0.0
 10
-17.96352635438886
 20
-4.435506328272054
 30
0.0
 10
-17.96919306653031
 20
-4.426380708060406
 30
0.0
 10
-17.97246940027737
 20
-4.416818477899011
 30
0.0
 10
-17.9732772238355
 20
-4.407071743610787
 30
0.0
  0
LINE
  5
FA
330
1F
100
AcDbEntity
  8
SK3
100
AcDbLine
 10
-2.7530430534
 20
3.640313859
 30
0.0
 11
-21.8731604391
 21
3.640313859
 31
0.0
  0
ELLIPSE
  5
FB
330
1F
100
AcDbEntity
  8
SK1
  6
Continuous
100
AcDbEllipse
 10
-64.6712534201
 20
0.2828427125
 30
0.0
 11
62.10000000013169
 21
2.240173263223002E-11
 31
0.0
210
0.0
220
0.0
230
1.0
 40
0.7071067812
 41
0.1816524070462336
 42
0.1939350326981003
  0
SPLINE
  5
FC
330
1F
100
AcDbEntity
  8
SK1
  6
Continuous
100
AcDbSpline
210
0.0
220
0.0
230
1.0
 70
     8
 71
     3
 72
    35
 73
    31
 74
     0
 42
0.0000000092527961
 43
0.0000000001
 12
1.0
 22
0.0
 32
0.0
 13
1.0
 23
0.0
 33
0.0
 40
0.0
 40
0.0
 40
0.0
 40
0.0
 40
0.1075456917067825
 40
0.1075456917067825
 40
0.1075456917067825
 40
0.2150989301385789
 40
0.2150989301385789
 40
0.2150989301385789
 40
0.3225484033913152
 40
0.3225484033913152
 40
0.3225484033913152
 40
0.4299452396167516
 40
0.4299452396167516
 40
0.4299452396167516
 40
0.5000022276408203
 40
0.5000022276408203
 40
0.5000022276408203
 40
0.6074000166486742
 40
0.6074000166486742
 40
0.6074000166486742
 40
0.7147980737437564
 40
0.7147980737437564
 40
0.7147980737437564
 40
0.8221915703467255
 40
0.8221915703467255
 40
0.8221915703467255
 40
0.929593499225159
 40
0.929593499225159
 40
0.929593499225159
 40
1.0
 40
1.0
 40
1.0
 40
1.0
 10
-3.735413044452098
 20
8.7455065287215
 30
0.0
 10
-3.691029899622528
 20
8.74991967205474
 30
0.0
 10
-3.646070591160176
 20
8.749115474779009
 30
0.0
 10
-3.604251747311375
 20
8.743122095053872
 30
0.0
 10
-3.56243109445357
 20
8.73712845606576
 30
0.0
 10
-3.522597455293375
 20
8.725776312986287
 30
0.0
 10
-3.488043905251081
 20
8.709929373802913
 30
0.0
 10
-3.45352303949696
 20
8.694097424278379
 30
0.0
 10
-3.423318615637251
 20
8.673338408662264
 30
0.0
 10
-3.399916600976032
 20
8.64928772197265
 30
0.0
 10
-3.376525725949497
 20
8.625248483693245
 30
0.0
 10
-3.359284309190151
 20
8.597254206912746
 30
0.0
 10
-3.349605836744441
 20
8.567564253906914
 30
0.0
 10
-3.343240640716417
 20
8.54803820038917
 30
0.0
 10
-3.339999999999964
 20
8.527498512373574
 30
0.0
 10
-3.339999999999964
 20
8.50668425238852
 30
0.0
 10
-3.339999999999964
 20
8.475035246459402
 30
0.0
 10
-3.347611532466505
 20
8.442007071297219
 30
0.0
 10
-3.362211311005153
 20
8.410362430248128
 30
0.0
 10
-3.376811110372897
 20
8.378717744052508
 30
0.0
 10
-3.398802687503856
 20
8.347586304041727
 30
0.0
 10
-3.426381423985207
 20
8.31961735497484
 30
0.0
 10
-3.453959068452828
 20
8.291649513372626
 30
0.0
 10
-3.487884880964149
 20
8.266076744228211
 30
0.0
 10
-3.525366384340876
 20
8.245098106164578
 30
0.0
 10
-3.562851255052244
 20
8.224117583382126
 30
0.0
 10
-3.604925578052372
 20
8.207157451485303
 30
0.0
 10
-3.648119116986679
 20
8.195673323691148
 30
0.0
 10
-3.67666450453448
 20
8.188083788621302
 30
0.0
 10
-3.706120119277527
 20
8.182733783302782
 30
0.0
 10
-3.735413044452095
 20
8.179821103772264
 30
0.0
  0
SPLINE
  5
FD
330
1F
100
AcDbEntity
  8
SK3
100
AcDbSpline
210
0.0
220
0.0
230
1.0
 70
     8
 71
     3
 72
    35
 73
    31
 74
     0
 42
0.0000000092132342
 43
0.0000000001
 12
1.0
 22
0.0
 32
0.0
 13
1.0
 23
0.0
 33
0.0
 40
0.0
 40
0.0
 40
0.0
 40
0.0
 40
0.1073090111240755
 40
0.1073090111240755
 40
0.1073090111240755
 40
0.2146308337112152
 40
0.2146308337112152
 40
0.2146308337112152
 40
0.3218011037020568
 40
0.3218011037020568
 40
0.3218011037020568
 40
0.4290974947239905
 40
0.4290974947239905
 40
0.4290974947239905
 40
0.4999972307564152
 40
0.4999972307564152
 40
0.4999972307564152
 40
0.6074078733196439
 40
0.6074078733196439
 40
0.6074078733196439
 40
0.7148193611725165
 40
0.7148193611725165
 40
0.7148193611725165
 40
0.822209836196312
 40
0.822209836196312
 40
0.822209836196312
 40
0.9294617882722647
 40
0.9294617882722647
 40
0.9294617882722647
 40
1.0
 40
1.0
 40
1.0
 40
1.0
 10
-2.753043053355754
 20
3.074628434087924
 30
0.0
 10
-2.708315865425328
 20
3.074628434087924
 30
0.0
 10
-2.662969930553936
 20
3.080522103035082
 30
0.0
 10
-2.620760571278963
 20
3.091779817086715
 30
0.0
 10
-2.578547805519075
 20
3.103038439686447
 30
0.0
 10
-2.538310394104287
 20
3.11996680952594
 30
0.0
 10
-2.503385605091677
 20
3.140983509268048
 30
0.0
 10
-2.468507887210366
 20
3.161971883002728
 30
0.0
 10
-2.43796559354301
 20
3.187604045739473
 30
0.0
 10
-2.414263421310336
 20
3.215546592491673
 30
0.0
 10
-2.390533717340455
 20
3.243521596473806
 30
0.0
 10
-2.373004724870783
 20
3.274573489810175
 30
0.0
 10
-2.363108739357328
 20
3.305982506393577
 30
0.0
 10
-2.356517195984034
 20
3.326903504594367
 30
0.0
 10
-2.353159939791043
 20
3.34829994322229
 30
0.0
 10
-2.353159939791043
 20
3.3693638123539
 30
0.0
 10
-2.353159939791043
 20
3.401020060977221
 30
0.0
 10
-2.360860841501623
 20
3.432642244532217
 30
0.0
 10
-2.37563272063015
 20
3.461683708635893
 30
0.0
 10
-2.390404654819503
 20
3.490725280988968
 30
0.0
 10
-2.412656248176045
 20
3.517993948411946
 30
0.0
 10
-2.440563270774116
 20
3.541415119970504
 30
0.0
 10
-2.468464292817937
 20
3.56483125552029
 30
0.0
 10
-2.502791311146351
 20
3.585057989480723
 30
0.0
 10
-2.540709393040077
 20
3.600635175245336
 30
0.0
 10
-2.578579469336073
 20
3.616192639756231
 30
0.0
 10
-2.621076530024259
 20
3.627550588832856
 30
0.0
 10
-2.664675607962463
 20
3.633935603752118
 30
0.0
 10
-2.6935830445949
 20
3.63816905140524
 30
0.0
 10
-2.72340396983833
 20
3.640313859037163
 30
0.0
 10
-2.753043053355754
 20
3.640313859037163
 30
0.0
  0
LINE
  5
FE
330
1F
100
AcDbEntity
  8
SK3
100
AcDbLine
 10
-2.7530430534
 20
3.0746284341
 30
0.0
 11
-21.8731604391
 21
3.0746284341
 31
0.0
  0
SPLINE
  5
FF
330
1F
100
AcDbEntity
  8
SK1
  6
Continuous
100
AcDbSpline
210
0.0
220
0.0
230
1.0
 70
     8
 71
     3
 72
    14
 73
    10
 74
     0
 42
0.0000000004922722
 43
0.0000000001
 12
1.0
 22
0.0
 32
0.0
 13
1.0
 23
0.0
 33
0.0
 40
0.0
 40
0.0
 40
0.0
 40
0.0
 40
0.0674978826419864
 40
0.0674978826419864
 40
0.0674978826419864
 40
0.9574517239467035
 40
0.9574517239467035
 40
0.9574517239467035
 40
1.0
 40
1.0
 40
1.0
 40
1.0
 10
-16.92641027504489
 20
9.496188754151483
 30
0.0
 10
-16.47317118278356
 20
9.555084603670458
 30
0.0
 10
-16.01993196070587
 20
9.613979600482232
 30
0.0
 10
-15.56669261591317
 20
9.672873791197729
 30
0.0
 10
-9.590770408268883
 20
10.44938868612363
 30
0.0
 10
-3.614827684382492
 20
11.22576881612326
 30
0.0
 10
2.361125440140416
 20
12.00208059726193
 30
0.0
 10
2.646832958275159
 20
12.03919569968429
 30
0.0
 10
2.932540501699043
 20
12.07631063594345
 30
0.0
 10
3.218248069711964
 20
12.11342541063727
 30
0.0
  0
ELLIPSE
  5
100
330
1F
100
AcDbEntity
  8
SK1
  6
Continuous
100
AcDbEllipse
 10
44.3446183199
 20
0.1530733736
 30
0.0
 11
-62.09999999375664
 21
-4.614533147311281E-9
 31
0.0
210
0.0
220
0.0
230
1.0
 40
0.9238795326
 41
-0.1635773896815431
 42
-0.158136263613299
  0
SPLINE
  5
101
330
1F
100
AcDbEntity
  8
SK3
100
AcDbSpline
210
0.0
220
0.0
230
1.0
 70
     8
 71
     3
 72
    35
 73
    31
 74
     0
 42
0.0000000109085874
 43
0.0000000001
 12
1.0
 22
0.0
 32
0.0
 13
1.0
 23
0.0
 33
0.0
 40
0.0
 40
0.0
 40
0.0
 40
0.0
 40
0.1073090111240764
 40
0.1073090111240764
 40
0.1073090111240764
 40
0.2146308337112181
 40
0.2146308337112181
 40
0.2146308337112181
 40
0.3218011037020562
 40
0.3218011037020562
 40
0.3218011037020562
 40
0.4290974947239917
 40
0.4290974947239917
 40
0.4290974947239917
 40
0.4999972307564136
 40
0.4999972307564136
 40
0.4999972307564136
 40
0.6074078733196426
 40
0.6074078733196426
 40
0.6074078733196426
 40
0.7148193611725148
 40
0.7148193611725148
 40
0.7148193611725148
 40
0.8222098361963128
 40
0.8222098361963128
 40
0.8222098361963128
 40
0.9294617882722586
 40
0.9294617882722586
 40
0.9294617882722586
 40
1.0
 40
1.0
 40
1.0
 40
1.0
 10
-17.57359204039043
 20
4.539820828685682
 30
0.0
 10
-17.61831922832086
 20
4.539820828685682
 30
0.0
 10
-17.66366516319225
 20
4.537497580231448
 30
0.0
 10
-17.70587452246723
 20
4.5329367081492
 30
0.0
 10
-17.74808728822712
 20
4.528375467984087
 30
0.0
 10
-17.7883246996419
 20
4.521441410376099
 30
0.0
 10
-17.82324948865451
 20
4.512463651663658
 30
0.0
 10
-17.85812720653582
 20
4.50349799304605
 30
0.0
 10
-17.88866950020318
 20
4.492234356945056
 30
0.0
 10
-17.91237167243585
 20
4.479321063283695
 30
0.0
 10
-17.93610137640573
 20
4.466392769925089
 30
0.0
 10
-17.95363036887541
 20
4.451442730750506
 30
0.0
 10
-17.96352635438886
 20
4.435506328272051
 30
0.0
 10
-17.97011789776215
 20
4.424891368497889
 30
0.0
 10
-17.97347515395515
 20
4.413685656244303
 30
0.0
 10
-17.97347515395515
 20
4.402285972416285
 30
0.0
 10
-17.97347515395515
 20
4.385153734116085
 30
0.0
 10
-17.96577425224456
 20
4.367170403821804
 30
0.0
 10
-17.95100237311604
 20
4.349919016704971
 30
0.0
 10
-17.93623043892669
 20
4.332667565285173
 30
0.0
 10
-17.91397884557015
 20
4.315680430575912
 30
0.0
 10
-17.88607182297208
 20
4.300606509299788
 30
0.0
 10
-17.85817080092826
 20
4.285535829210792
 30
0.0
 10
-17.82384378259983
 20
4.271974958050225
 30
0.0
 10
-17.78592570070611
 20
4.261332978178199
 30
0.0
 10
-17.74805562441011
 20
4.250704471419245
 30
0.0
 10
-17.70555856372193
 20
4.242707086361605
 30
0.0
 10
-17.66195948578373
 20
4.238195500750867
 30
0.0
 10
-17.6330520491513
 20
4.235204190353449
 30
0.0
 10
-17.60323112390786
 20
4.23367408279361
 30
0.0
 10
-17.57359204039043
 20
4.23367408279361
 30
0.0
  0
SPLINE
  5
102
330
1F
100
AcDbEntity
  8
SK1
  6
Continuous
100
AcDbSpline
210
0.0
220
0.0
230
1.0
 70
     8
 71
     3
 72
    35
 73
    31
 74
     0
 42
0.0000000105690596
 43
0.0000000001
 12
1.0
 22
0.0
 32
0.0
 13
1.0
 23
0.0
 33
0.0
 40
0.0
 40
0.0
 40
0.0
 40
0.0
 40
0.1134251203605257
 40
0.1134251203605257
 40
0.1134251203605257
 40
0.2270448956076044
 40
0.2270448956076044
 40
0.2270448956076044
 40
0.3375525299923959
 40
0.3375525299923959
 40
0.3375525299923959
 40
0.4436123154059448
 40
0.4436123154059448
 40
0.4436123154059448
 40
0.5001943358043293
 40
0.5001943358043293
 40
0.5001943358043293
 40
0.6025718788280229
 40
0.6025718788280229
 40
0.6025718788280229
 40
0.704862282614656
 40
0.704862282614656
 40
0.704862282614656
 40
0.8085177663571345
 40
0.8085177663571345
 40
0.8085177663571345
 40
0.9156387561634705
 40
0.9156387561634705
 40
0.9156387561634705
 40
1.0
 40
1.0
 40
1.0
 40
1.0
 10
-16.92641027504489
 20
9.19004200825941
 30
0.0
 10
-16.97418338792762
 20
9.18383416318286
 30
0.0
 10
-17.0226697965709
 20
9.180961912626294
 30
0.0
 10
-17.06786828878673
 20
9.181700720037563
 30
0.0
 10
-17.11311117396344
 20
9.182440253089158
 30
0.0
 10
-17.15633486494086
 20
9.186831221807696
 30
0.0
 10
-17.19357317105912
 20
9.194496272510614
 30
0.0
 10
-17.22979207083587
 20
9.201951490863223
 30
0.0
 10
-17.26138521019838
 20
9.212724232859495
 30
0.0
 10
-17.28527580782684
 20
9.225803265377424
 30
0.0
 10
-17.30821952727531
 20
9.238363924487574
 30
0.0
 10
-17.32471136232711
 20
9.253408914288904
 30
0.0
 10
-17.33314397584146
 20
9.269563701463005
 30
0.0
 10
-17.33769177696157
 20
9.27827615568381
 30
0.0
 10
-17.34
 20
9.287409922893517
 30
0.0
 10
-17.34
 20
9.29671938877762
 30
0.0
 10
-17.34
 20
9.313395937135448
 30
0.0
 10
-17.33244045748357
 20
9.331007787932844
 30
0.0
 10
-17.31802614799303
 20
9.34812081835816
 30
0.0
 10
-17.30361865999356
 20
9.365225750137883
 30
0.0
 10
-17.28198757287048
 20
9.38230026965594
 30
0.0
 10
-17.25505043752
 20
9.398088000745405
 30
0.0
 10
-17.22774723689759
 20
9.414090281006457
 30
0.0
 10
-17.19428968317309
 20
9.429201427064084
 30
0.0
 10
-17.15746020563424
 20
9.442421778419348
 30
0.0
 10
-17.11940649113452
 20
9.456081583273448
 30
0.0
 10
-17.07676917987023
 20
9.468089556313974
 30
0.0
 10
-17.03293478755093
 20
9.4776924704366
 30
0.0
 10
-16.99823368926005
 20
9.48529453012573
 30
0.0
 10
-16.96217039816761
 20
9.491541928963239
 30
0.0
 10
-16.92641027504489
 20
9.496188754151483
 30
0.0
  0
SPLINE
  5
103
330
1F
100
AcDbEntity
  8
SK1
  6
Continuous
100
AcDbSpline
210
0.0
220
0.0
230
1.0
 70
     8
 71
     3
 72
    14
 73
    10
 74
     0
 42
0.0000000004922722
 43
0.0000000001
 12
1.0
 22
0.0
 32
0.0
 13
1.0
 23
0.0
 33
0.0
 40
0.0
 40
0.0
 40
0.0
 40
0.0
 40
0.0674978826419864
 40
0.0674978826419864
 40
0.0674978826419864
 40
0.9574517239467035
 40
0.9574517239467035
 40
0.9574517239467035
 40
1.0
 40
1.0
 40
1.0
 40
1.0
 10
-16.92641027504489
 20
9.19004200825941
 30
0.0
 10
-16.47317118278356
 20
9.248937857778387
 30
0.0
 10
-16.01993196070587
 20
9.30783285459016
 30
0.0
 10
-15.56669261591317
 20
9.366727045305659
 30
0.0
 10
-9.590770408268883
 20
10.14324194023156
 30
0.0
 10
-3.614827684382492
 20
10.91962207023118
 30
0.0
 10
2.361125440140416
 20
11.69593385136985
 30
0.0
 10
2.646832958275159
 20
11.73304895379221
 30
0.0
 10
2.932540501699043
 20
11.77016389005138
 30
0.0
 10
3.218248069711964
 20
11.8072786647452
 30
0.0
  0
LINE
  5
104
330
1F
100
AcDbEntity
  8
SK3
100
AcDbLine
 10
-2.7530430534
 20
0.4
 30
0.0
 11
-3.7354130445
 21
0.4
 31
0.0
  0
ARC
  5
105
330
1F
100
AcDbEntity
  8
SK1
  6
Continuous
100
AcDbCircle
 10
-3.7399950541
 20
0.0
 30
0.0
 40
0.4000262426542516
100
AcDbArc
 50
270.6562958262
 51
89.3437041738
  0
ARC
  5
106
330
1F
100
AcDbEntity
  8
SK3
100
AcDbCircle
 10
-2.7531070355
 20
0.0
 30
0.0
 40
0.4000000051171427
100
AcDbArc
 50
270.0091647664
 51
89.9908352336
  0
LINE
  5
107
330
1F
100
AcDbEntity
  8
SK3
100
AcDbLine
 10
-3.7354130445
 20
-0.4
 30
0.0
 11
-2.7530430534
 21
-0.4
 31
0.0
  0
LINE
  5
108
330
1F
100
AcDbEntity
  8
SK1
  6
Continuous
100
AcDbLine
 10
-16.926410275
 20
4.2395969187
 30
0.0
 11
3.2182480697
 21
5.3236918378
 31
0.0
  0
ELLIPSE
  5
109
330
1F
100
AcDbEntity
  8
SK1
  6
Continuous
100
AcDbEllipse
 10
44.3446183202
 20
0.3695518133
 30
0.0
 11
-62.09999999405202
 21
-3.108688657130975E-10
 31
0.0
210
0.0
220
0.0
230
1.0
 40
0.3826834324
 41
-0.1635773896144164
 42
-0.1350059766954832
  0
SPLINE
  5
10A
330
1F
100
AcDbEntity
  8
SK3
100
AcDbSpline
210
0.0
220
0.0
230
1.0
 70
     8
 71
     3
 72
    35
 73
    31
 74
     0
 42
0.0000000082330638
 43
0.0000000001
 12
1.0
 22
0.0
 32
0.0
 13
1.0
 23
0.0
 33
0.0
 40
0.0
 40
0.0
 40
0.0
 40
0.0
 40
0.107309011124076
 40
0.107309011124076
 40
0.107309011124076
 40
0.2146308337112145
 40
0.2146308337112145
 40
0.2146308337112145
 40
0.3218011037020578
 40
0.3218011037020578
 40
0.3218011037020578
 40
0.4290974947239913
 40
0.4290974947239913
 40
0.4290974947239913
 40
0.4999972307564128
 40
0.4999972307564128
 40
0.4999972307564128
 40
0.6074078733196434
 40
0.6074078733196434
 40
0.6074078733196434
 40
0.7148193611725155
 40
0.7148193611725155
 40
0.7148193611725155
 40
0.8222098361963138
 40
0.8222098361963138
 40
0.8222098361963138
 40
0.9294617882722593
 40
0.9294617882722593
 40
0.9294617882722593
 40
1.0
 40
1.0
 40
1.0
 40
1.0
 10
-17.57359204039043
 20
2.186602103877542
 30
0.0
 10
-17.61831922832086
 20
2.186602103877542
 30
0.0
 10
-17.66366516319225
 20
2.179768036499466
 30
0.0
 10
-17.70587452246723
 20
2.166590883109492
 30
0.0
 10
-17.74808728822712
 20
2.153412666264042
 30
0.0
 10
-17.7883246996419
 20
2.133522195307008
 30
0.0
 10
-17.82324948865451
 20
2.108458951005974
 30
0.0
 10
-17.85812720653583
 20
2.08342948658727
 30
0.0
 10
-17.88866950020318
 20
2.052547842456197
 30
0.0
 10
-17.91237167243585
 20
2.018248249394527
 30
0.0
 10
-17.93610137640573
 20
1.983908814947301
 30
0.0
 10
-17.95363036887541
 20
1.945192685525928
 30
0.0
 10
-17.96352635438886
 20
1.905216862500773
 30
0.0
 10
-17.97011789776216
 20
1.878589663926648
 30
0.0
 10
-17.97347515395515
 20
1.851007826524018
 30
0.0
 10
-17.97347515395515
 20
1.823486555219654
 30
0.0
 10
-17.97347515395515
 20
1.782125673161501
 30
0.0
 10
-17.96577425224456
 20
1.739939771383813
 30
0.0
 10
-17.95100237311604
 20
1.700461009938774
 30
0.0
 10
-17.93623043892669
 20
1.660982101340268
 30
0.0
 10
-17.91397884557015
 20
1.623124432140113
 30
0.0
 10
-17.88607182297208
 20
1.590124722219907
 30
0.0
 10
-17.85817080092826
 20
1.557132107881073
 30
0.0
 10
-17.82384378259984
 20
1.528090364765481
 30
0.0
 10
-17.78592570070611
 20
1.505526123063473
 30
0.0
 10
-17.74805562441011
 20
1.482990448468666
 30
0.0
 10
-17.70555856372193
 20
1.466300065536481
 30
0.0
 10
-17.66195948578373
 20
1.456901601075731
 30
0.0
 10
-17.63305204915129
 20
1.450670150121047
 30
0.0
 10
-17.60323112390786
 20
1.447498477868512
 30
0.0
 10
-17.57359204039043
 20
1.447498477868512
 30
0.0
  0
SPLINE
  5
10B
330
1F
100
AcDbEntity
  8
SK1
  6
Continuous
100
AcDbSpline
210
0.0
220
0.0
230
1.0
 70
     8
 71
     3
 72
    35
 73
    31
 74
     0
 42
0.0000000080813779
 43
0.0000000001
 12
1.0
 22
0.0
 32
0.0
 13
1.0
 23
0.0
 33
0.0
 40
0.0
 40
0.0
 40
0.0
 40
0.0
 40
0.1134251203605125
 40
0.1134251203605125
 40
0.1134251203605125
 40
0.2270448956075928
 40
0.2270448956075928
 40
0.2270448956075928
 40
0.3375525299923796
 40
0.3375525299923796
 40
0.3375525299923796
 40
0.4436123154059351
 40
0.4436123154059351
 40
0.4436123154059351
 40
0.500194335804321
 40
0.500194335804321
 40
0.500194335804321
 40
0.6025718788280218
 40
0.6025718788280218
 40
0.6025718788280218
 40
0.704862282614664
 40
0.704862282614664
 40
0.704862282614664
 40
0.808517766357143
 40
0.808517766357143
 40
0.808517766357143
 40
0.9156387561634892
 40
0.9156387561634892
 40
0.9156387561634892
 40
1.0
 40
1.0
 40
1.0
 40
1.0
 10
-16.92641027504489
 20
3.50049329270745
 30
0.0
 10
-16.97418338792763
 20
3.497921919083633
 30
0.0
 10
-17.02266979657091
 20
3.502975567147351
 30
0.0
 10
-17.06786828878674
 20
3.515413730490524
 30
0.0
 10
-17.11311117396345
 20
3.527864110323046
 30
0.0
 10
-17.15633486494087
 20
3.548099828626421
 30
0.0
 10
-17.19357317105912
 20
3.574573926609102
 30
0.0
 10
-17.22979207083587
 20
3.600323290677097
 30
0.0
 10
-17.26138521019838
 20
3.632741577257509
 30
0.0
 10
-17.28527580782684
 20
3.669047584167111
 30
0.0
 10
-17.30821952727531
 20
3.703914641483246
 30
0.0
 10
-17.32471136232711
 20
3.743371847100756
 30
0.0
 10
-17.33314397584146
 20
3.783971821592186
 30
0.0
 10
-17.33769177696157
 20
3.805867833920316
 30
0.0
 10
-17.33999999999999
 20
3.828352217612743
 30
0.0
 10
-17.33999999999999
 20
3.850827256408597
 30
0.0
 10
-17.33999999999999
 20
3.89108800562764
 30
0.0
 10
-17.33244045748357
 20
3.932195781243415
 30
0.0
 10
-17.31802614799303
 20
3.970738978103707
 30
0.0
 10
-17.30361865999356
 20
4.00926393461243
 30
0.0
 10
-17.28198757287048
 20
4.04627616395662
 30
0.0
 10
-17.25505043751999
 20
4.078915069483392
 30
0.0
 10
-17.22774723689758
 20
4.111997525137951
 30
0.0
 10
-17.19428968317308
 20
4.141473199322503
 30
0.0
 10
-17.15746020563423
 20
4.16527764277284
 30
0.0
 10
-17.11940649113451
 20
4.189873362164422
 30
0.0
 10
-17.07676917987022
 20
4.209073758603878
 30
0.0
 10
-17.03293478755092
 20
4.221661468945325
 30
0.0
 10
-16.99823368926004
 20
4.231626415433777
 30
0.0
 10
-16.96217039816761
 20
4.237672140701532
 30
0.0
 10
-16.9264102750449
 20
4.239596918716478
 30
0.0
  0
LINE
  5
10C
330
1F
100
AcDbEntity
  8
SK1
  6
Continuous
100
AcDbLine
 10
-16.926410275
 20
3.5004932927
 30
0.0
 11
3.2182480697
 21
4.5845882118
 31
0.0
  0
LINE
  5
10D
330
1F
100
AcDbEntity
  8
SK1
  6
Continuous
100
AcDbLine
 10
3.2182480697
 20
12.9519698985
 30
0.0
 11
-3.34
 21
12.0302682406
 31
0.0
  0
LINE
  5
10E
330
1F
100
AcDbEntity
  8
SK1
  6
Continuous
100
AcDbLine
 10
-3.34
 20
-12.0302682406
 30
0.0
 11
3.2182480697
 21
-12.9519698985
 31
0.0
  0
LINE
  5
10F
330
1F
100
AcDbEntity
  8
SK3
100
AcDbLine
 10
-2.3531599398
 20
-4.765
 30
0.0
 11
11.26
 21
-4.765
 31
0.0
  0
LINE
  5
110
330
1F
100
AcDbEntity
  8
SK3
100
AcDbLine
 10
11.26
 20
4.765
 30
0.0
 11
-2.3531599398
 21
4.765
 31
0.0
  0
LINE
  5
111
330
1F
100
AcDbEntity
  8
SK1
  6
Continuous
100
AcDbLine
 10
6.9198076211
 20
13.0
 30
0.0
 11
6.66
 21
13.0
 31
0.0
  0
ARC
  5
112
330
1F
100
AcDbEntity
  8
SK3
100
AcDbCircle
 10
11.26
 20
5.165
 30
0.0
 40
0.400000000000001
100
AcDbArc
 50
270.0
 51
0.0
  0
ARC
  5
113
330
1F
100
AcDbEntity
  8
SK1
  6
Continuous
100
AcDbCircle
 10
3.26
 20
12.6548894778
 30
0.0
 40
0.2999999999999982
100
AcDbArc
 50
0.0
 51
98.0
  0
ARC
  5
114
330
1F
100
AcDbEntity
  8
SK1
  6
Continuous
100
AcDbCircle
 10
11.41
 20
10.1189110868
 30
0.0
 40
0.2500000000000016
100
AcDbArc
 50
0.0
 51
60.0
  0
ARC
  5
115
330
1F
100
AcDbEntity
  8
SK1
  6
Continuous
100
AcDbCircle
 10
3.76
 20
11.2
 30
0.0
 40
0.1999999999999997
100
AcDbArc
 50
180.0
 51
270.0
  0
LINE
  5
116
330
1F
100
AcDbEntity
  8
SK1
  6
Continuous
100
AcDbLine
 10
6.46
 20
11.0
 30
0.0
 11
3.76
 21
11.0
 31
0.0
  0
ARC
  5
117
330
1F
100
AcDbEntity
  8
SK1
  6
Continuous
100
AcDbCircle
 10
6.46
 20
11.2
 30
0.0
 40
0.2000000000000005
100
AcDbArc
 50
270.0
 51
0.0
  0
LINE
  5
118
330
1F
100
AcDbEntity
  8
SK1
  6
Continuous
100
AcDbLine
 10
11.535
 20
10.3354174377
 30
0.0
 11
6.9198076211
 21
13.0
 31
0.0
  0
LINE
  5
119
330
1F
100
AcDbEntity
  8
SK1
  6
Continuous
100
AcDbLine
 10
6.66
 20
-13.0
 30
0.0
 11
6.9198076211
 21
-13.0
 31
0.0
  0
ARC
  5
11A
330
1F
100
AcDbEntity
  8
SK3
100
AcDbCircle
 10
11.26
 20
-5.165
 30
0.0
 40
0.3999999999999999
100
AcDbArc
 50
0.0
 51
90.0
  0
ARC
  5
11B
330
1F
100
AcDbEntity
  8
SK1
  6
Continuous
100
AcDbCircle
 10
3.26
 20
-12.6548894778
 30
0.0
 40
0.3000000000000007
100
AcDbArc
 50
262.0
 51
0.0
  0
ARC
  5
11C
330
1F
100
AcDbEntity
  8
SK1
  6
Continuous
100
AcDbCircle
 10
11.41
 20
-10.1189110868
 30
0.0
 40
0.2499999999999997
100
AcDbArc
 50
300.0
 51
0.0
  0
ARC
  5
11D
330
1F
100
AcDbEntity
  8
SK1
  6
Continuous
100
AcDbCircle
 10
3.76
 20
-11.2
 30
0.0
 40
0.2000000000000005
100
AcDbArc
 50
90.0
 51
180.0
  0
LINE
  5
11E
330
1F
100
AcDbEntity
  8
SK1
  6
Continuous
100
AcDbLine
 10
3.76
 20
-11.0
 30
0.0
 11
6.46
 21
-11.0
 31
0.0
  0
ARC
  5
11F
330
1F
100
AcDbEntity
  8
SK1
  6
Continuous
100
AcDbCircle
 10
6.46
 20
-11.2
 30
0.0
 40
0.1999999999999997
100
AcDbArc
 50
0.0
 51
90.0
  0
LINE
  5
120
330
1F
100
AcDbEntity
  8
SK1
  6
Continuous
100
AcDbLine
 10
6.9198076211
 20
-13.0
 30
0.0
 11
11.535
 21
-10.3354174377
 31
0.0
  0
ARC
  5
121
330
1F
100
AcDbEntity
  8
SK3
100
AcDbCircle
 10
-7.6401535814
 20
0.191729613
 30
0.0
 40
10.53433878446625
100
AcDbArc
 50
191.3983732977
 51
203.3668703425
  0
ARC
  5
122
330
1F
100
AcDbEntity
  8
SK3
100
AcDbCircle
 10
-34.4265982105
 20
0.0907180193
 30
0.0
 40
32.2604918961505
100
AcDbArc
 50
344.4469454949
 51
353.8046679321
  0
ARC
  5
123
330
1F
100
AcDbEntity
  8
SK3
100
AcDbCircle
 10
34.7309473919
 20
-0.0654589658
 30
0.0
 40
52.88258491227202
100
AcDbArc
 50
184.7092507312
 51
190.0646619108
  0
ARC
  5
124
330
1F
100
AcDbEntity
  8
SK3
100
AcDbCircle
 10
-64.6712534199
 20
0.0
 30
0.0
 40
62.5
100
AcDbArc
 50
4.3724716874
 51
11.0977819747
  0
ARC
  5
125
330
1F
100
AcDbEntity
  8
SK3
100
AcDbCircle
 10
-64.6712534199
 20
0.0
 30
0.0
 40
62.49999999999999
100
AcDbArc
 50
348.9021909341
 51
355.6275567111
  0
ARC
  5
126
330
1F
100
AcDbEntity
  8
SK3
100
AcDbCircle
 10
-34.4266934827
 20
-0.0905378223
 30
0.0
 40
32.2605529908553
100
AcDbArc
 50
6.1949994151
 51
15.5525919695
  0
ARC
  5
127
330
1F
100
AcDbEntity
  8
SK3
100
AcDbCircle
 10
35.0356803836
 20
0.0338762831
 30
0.0
 40
53.18875044228207
100
AcDbArc
 50
169.9587170634
 51
175.2837892442
  0
ARC
  5
128
330
1F
100
AcDbEntity
  8
SK3
100
AcDbCircle
 10
-7.6071848852
 20
-0.1983424373
 30
0.0
 40
10.56782029334668
100
AcDbArc
 50
156.6741096745
 51
168.6016969654
  0
LINE
  5
129
330
1F
100
AcDbEntity
  8
SK1
  6
Continuous
100
AcDbLine
 10
0.0
 20
12.4996746285
 30
0.0
 11
0.0
 21
-12.4996746285
 31
0.0
  0
LINE
  5
12B
330
1F
100
AcDbEntity
  8
SK4
  6
Continuous
100
AcDbLine
 10
11.66
 20
0.0
 30
0.0
 11
-22.34
 21
0.0
 31
0.0
  0
DIMENSION
  5
141
330
1F
100
AcDbEntity
  8
SK2
  6
Continuous
 62
   136
100
AcDbDimension
  2
DMBLK9
 10
-22.34
 20
20.0000000714
 30
0.0
 11
-5.3399990761
 21
20.0000000714
 31
0.0
 70
   161
  1
\A1;<>
 71
     5
 42
-1.0
  3
DIN
100
AcDbAlignedDimension
 13
-22.34
 23
9.0904101326
 33
0.0
 14
11.66
 24
9.1882744343
 34
0.0
  0
DIMENSION
  5
14B
330
1F
100
AcDbEntity
  8
SK2
  6
Continuous
 62
   136
100
AcDbDimension
  2
DMBLK10
 10
22.5012981689
 20
-4.765
 30
0.0
 11
22.5012981689
 21
9.9999999708
 31
0.0
 70
   161
  1
\A1;ø <>
 71
     5
 42
-1.0
  3
DIN
100
AcDbAlignedDimension
 13
11.26
 23
-4.765
 33
0.0
 14
11.26
 24
4.765
 34
0.0
  0
DIMENSION
  5
156
330
1F
100
AcDbEntity
  8
SK2
  6
Continuous
 62
   136
100
AcDbDimension
  2
DMBLK11
 10
0.0
 20
-19.9999996609
 30
0.0
 11
5.8299998453
 21
-19.9999996609
 31
0.0
 70
   160
  1
\A1;<>
 71
     5
 42
-1.0
  3
DIN
100
AcDbAlignedDimension
 13
11.66
 23
-9.4944211802
 33
0.0
 14
0.0
 24
-12.4996746285
 34
0.0
100
AcDbRotatedDimension
  0
DIMENSION
  5
160
330
1F
100
AcDbEntity
  8
SK2
  6
Continuous
 62
   136
100
AcDbDimension
  2
DMBLK12
 10
-29.9999993294
 20
12.4996746285
 30
0.0
 11
-29.9999993294
 21
0.0000004051
 31
0.0
 70
   161
  1
\A1;ø <>
 71
     5
 42
-1.0
  3
DIN
100
AcDbAlignedDimension
 13
0.0
 23
12.4996746285
 33
0.0
 14
0.0
 24
-12.4996746285
 34
0.0
  0
INSERT
  5
175
330
1F
100
AcDbEntity
  8
SK2
 62
     7
100
AcDbBlockReference
  2
Nullpunkt
 10
0.0
 20
0.0000000998
 30
0.0
  0
INSERT
  5
180
330
1F
100
AcDbEntity
  8
SK2
 62
     7
100
AcDbBlockReference
  2
Einfügepunkt
 10
11.66
 20
0.0
 30
0.0
  0
ENDSEC
  0
SECTION
  2
OBJECTS
  0
DICTIONARY
  5
C
330
0
100
AcDbDictionary
281
     1
  3
ACAD_GROUP
350
D
  3
ACAD_LAYOUT
350
1A
  3
ACAD_MATERIAL
350
3B
  3
ACAD_MLEADERSTYLE
350
183
  3
ACAD_MLINESTYLE
350
17
  3
ACAD_PLOTSETTINGS
350
19
  3
ACAD_PLOTSTYLENAME
350
E
  3
ACAD_VISUALSTYLE
350
2A
  3
AcDbVariableDictionary
350
181
  0
DICTIONARY
  5
D
102
{ACAD_REACTORS
330
C
102
}
330
C
100
AcDbDictionary
281
     1
  0
DICTIONARY
  5
1A
102
{ACAD_REACTORS
330
C
102
}
330
C
100
AcDbDictionary
281
     1
  3
Layout1
350
1E
  3
Model
350
22
  0
DICTIONARY
  5
3B
102
{ACAD_REACTORS
330
C
102
}
330
C
100
AcDbDictionary
281
     1
  3
ByBlock
350
3D
  3
ByLayer
350
3C
  3
Global
350
3E
  0
DICTIONARY
  5
183
102
{ACAD_REACTORS
330
C
102
}
330
C
100
AcDbDictionary
281
     1
  0
DICTIONARY
  5
17
102
{ACAD_REACTORS
330
C
102
}
330
C
100
AcDbDictionary
281
     1
  3
Standard
350
18
  0
DICTIONARY
  5
19
102
{ACAD_REACTORS
330
C
102
}
330
C
100
AcDbDictionary
281
     1
  0
ACDBDICTIONARYWDFLT
  5
E
102
{ACAD_REACTORS
330
C
102
}
330
C
100
AcDbDictionary
281
     1
  3
Normal
350
F
100
AcDbDictionaryWithDefault
340
F
  0
DICTIONARY
  5
2A
102
{ACAD_REACTORS
330
C
102
}
330
C
100
AcDbDictionary
281
     1
  3
2dWireframe
350
2F
  3
3D Hidden
350
31
  3
3dWireframe
350
30
  3
Basic
350
32
  3
Brighten
350
36
  3
ColorChange
350
3A
  3
Conceptual
350
34
  3
Dim
350
35
  3
Facepattern
350
39
  3
Flat
350
2B
  3
FlatWithEdges
350
2C
  3
Gouraud
350
2D
  3
GouraudWithEdges
350
2E
  3
Linepattern
350
38
  3
Realistic
350
33
  3
Thicken
350
37
  0
DICTIONARY
  5
181
102
{ACAD_REACTORS
330
C
102
}
330
C
100
AcDbDictionary
281
     1
  3
DIMASSOC
350
186
  3
HIDETEXT
350
187
  3
PSOLHEIGHT
350
185
  3
PSOLWIDTH
350
184
  0
LAYOUT
  5
1E
102
{ACAD_REACTORS
330
1A
102
}
330
1A
100
AcDbPlotSettings
  1

  2
none_device
  4

  6

 40
0.0
 41
0.0
 42
0.0
 43
0.0
 44
0.0
 45
0.0
 46
0.0
 47
0.0
 48
0.0
 49
0.0
140
0.0
141
0.0
142
1.0
143
1.0
 70
   688
 72
     0
 73
     0
 74
     5
  7

 75
    16
147
1.0
148
0.0
149
0.0
100
AcDbLayout
  1
Layout1
 70
     1
 71
     1
 10
0.0
 20
0.0
 11
210.0
 21
297.0
 12
0.0
 22
0.0
 32
0.0
 14
0.0
 24
0.0
 34
0.0
 15
210.0
 25
297.0
 35
0.0
146
0.0
 13
0.0
 23
0.0
 33
0.0
 16
1.0
 26
0.0
 36
0.0
 17
0.0
 27
1.0
 37
0.0
 76
     0
330
1B
  0
LAYOUT
  5
22
102
{ACAD_REACTORS
330
1A
102
}
330
1A
100
AcDbPlotSettings
  1

  2
none_device
  4

  6

 40
0.0
 41
0.0
 42
0.0
 43
0.0
 44
0.0
 45
0.0
 46
0.0
 47
0.0
 48
0.0
 49
0.0
140
0.0
141
0.0
142
1.0
143
1.0
 70
  1712
 72
     0
 73
     0
 74
     0
  7

 75
     0
147
1.0
148
0.0
149
0.0
100
AcDbLayout
  1
Model
 70
     1
 71
     0
 10
0.0
 20
0.0
 11
210.0
 21
297.0
 12
0.0
 22
0.0
 32
0.0
 14
0.0
 24
0.0
 34
0.0
 15
210.0
 25
297.0
 35
0.0
146
0.0
 13
0.0
 23
0.0
 33
0.0
 16
1.0
 26
0.0
 36
0.0
 17
0.0
 27
1.0
 37
0.0
 76
     0
330
1F
331
29
  0
MATERIAL
  5
3D
102
{ACAD_REACTORS
330
3B
102
}
102
{ACAD_XDICTIONARY
360
1AA
102
}
330
3B
100
AcDbMaterial
  1
ByBlock
  0
MATERIAL
  5
3C
102
{ACAD_REACTORS
330
3B
102
}
102
{ACAD_XDICTIONARY
360
1A8
102
}
330
3B
100
AcDbMaterial
  1
ByLayer
  0
MATERIAL
  5
3E
102
{ACAD_REACTORS
330
3B
102
}
102
{ACAD_XDICTIONARY
360
1AC
102
}
330
3B
100
AcDbMaterial
  1
Global
  0
MLINESTYLE
  5
18
102
{ACAD_REACTORS
330
17
102
}
330
17
100
AcDbMlineStyle
  2
Standard
 70
     0
  3

 62
   256
 51
90.0
 52
90.0
 71
     2
 49
0.5
 62
   256
  6
BYLAYER
 49
-0.5
 62
   256
  6
BYLAYER
  0
ACDBPLACEHOLDER
  5
F
102
{ACAD_REACTORS
330
E
102
}
330
E
  0
VISUALSTYLE
  5
2F
102
{ACAD_REACTORS
330
2A
102
}
102
{ACAD_XDICTIONARY
360
190
102
}
330
2A
100
AcDbVisualStyle
  2
2dWireframe
 70
     4
 71
     0
 72
     2
 73
     0
 90
        0
 40
-0.6
 41
-30.0
 62
     5
 63
     7
 74
     1
 91
        4
 64
     7
 65
   257
 75
     1
175
     1
 42
1.0
 92
        0
 66
   257
 43
1.0
 76
     1
 77
     6
 78
     2
 67
     7
 79
     5
170
     0
171
     0
290
     0
174
     0
 93
        1
 44
0.0
173
     0
291
     0
 45
0.0
1001
ACAD
1000
AcDbSavedByObjectVersion
1070
     0
  0
VISUALSTYLE
  5
31
102
{ACAD_REACTORS
330
2A
102
}
102
{ACAD_XDICTIONARY
360
194
102
}
330
2A
100
AcDbVisualStyle
  2
3D Hidden
 70
     6
 71
     1
 72
     2
 73
     2
 90
        0
 40
-0.6
 41
-30.0
 62
     5
 63
     7
 74
     2
 91
        2
 64
     7
 65
   257
 75
     2
175
     1
 42
40.0
 92
        0
 66
   257
 43
1.0
 76
     1
 77
     6
 78
     2
 67
     7
 79
     3
170
     0
171
     0
290
     0
174
     0
 93
        1
 44
0.0
173
     0
291
     0
 45
0.0
1001
ACAD
1000
AcDbSavedByObjectVersion
1070
     0
  0
VISUALSTYLE
  5
30
102
{ACAD_REACTORS
330
2A
102
}
102
{ACAD_XDICTIONARY
360
192
102
}
330
2A
100
AcDbVisualStyle
  2
3dWireframe
 70
     5
 71
     0
 72
     2
 73
     0
 90
        0
 40
-0.6
 41
-30.0
 62
     5
 63
     7
 74
     1
 91
        4
 64
     7
 65
   257
 75
     1
175
     1
 42
1.0
 92
        0
 66
   257
 43
1.0
 76
     1
 77
     6
 78
     2
 67
     7
 79
     5
170
     0
171
     0
290
     0
174
     0
 93
        1
 44
0.0
173
     0
291
     0
 45
0.0
1001
ACAD
1000
AcDbSavedByObjectVersion
1070
     0
  0
VISUALSTYLE
  5
32
102
{ACAD_REACTORS
330
2A
102
}
102
{ACAD_XDICTIONARY
360
196
102
}
330
2A
100
AcDbVisualStyle
  2
Basic
 70
     7
 71
     1
 72
     0
 73
     1
 90
        0
 40
-0.6
 41
-30.0
 62
     5
 63
     7
 74
     0
 91
        4
 64
     7
 65
   257
 75
     1
175
     1
 42
1.0
 92
        8
 66
     7
 43
1.0
 76
     1
 77
     6
 78
     2
 67
     7
 79
     5
170
     0
171
     0
290
     0
174
     0
 93
        1
 44
0.0
173
     0
291
     1
 45
0.0
1001
ACAD
1000
AcDbSavedByObjectVersion
1070
     0
  0
VISUALSTYLE
  5
36
102
{ACAD_REACTORS
330
2A
102
}
102
{ACAD_XDICTIONARY
360
19E
102
}
330
2A
100
AcDbVisualStyle
  2
Brighten
 70
    12
 71
     2
 72
     2
 73
     0
 90
        0
 40
-0.6
 41
-30.0
 62
     5
 63
     7
 74
     1
 91
        4
 64
     7
 65
   257
 75
     1
175
     1
 42
1.0
 92
        8
 66
     7
 43
1.0
 76
     1
 77
     6
 78
     2
 67
     7
 79
     5
170
     0
171
     0
290
     0
174
     0
 93
        1
 44
50.0
173
     0
291
     1
 45
0.0
1001
ACAD
1000
AcDbSavedByObjectVersion
1070
     0
  0
VISUALSTYLE
  5
3A
102
{ACAD_REACTORS
330
2A
102
}
102
{ACAD_XDICTIONARY
360
1A6
102
}
330
2A
100
AcDbVisualStyle
  2
ColorChange
 70
    16
 71
     2
 72
     2
 73
     3
 90
        0
 40
-0.6
 41
-30.0
 62
     5
 63
     8
 74
     1
 91
        4
 64
     7
 65
   257
 75
     1
175
     1
 42
1.0
 92
        8
 66
     8
 43
1.0
 76
     1
 77
     6
 78
     2
 67
     7
 79
     5
170
     0
171
     0
290
     0
174
     0
 93
        1
 44
0.0
173
     0
291
     1
 45
0.0
1001
ACAD
1000
AcDbSavedByObjectVersion
1070
     0
  0
VISUALSTYLE
  5
34
102
{ACAD_REACTORS
330
2A
102
}
102
{ACAD_XDICTIONARY
360
19A
102
}
330
2A
100
AcDbVisualStyle
  2
Conceptual
 70
     9
 71
     3
 72
     2
 73
     0
 90
        0
 40
-0.6
 41
-30.0
 62
     5
 63
     7
 74
     2
 91
        2
 64
     7
 65
   257
 75
     1
175
     1
 42
40.0
 92
        8
 66
     7
 43
1.0
 76
     1
 77
     6
 78
     2
 67
     7
 79
     3
170
     0
171
     0
290
     0
174
     0
 93
        1
 44
0.0
173
     0
291
     0
 45
0.0
1001
ACAD
1000
AcDbSavedByObjectVersion
1070
     0
  0
VISUALSTYLE
  5
35
102
{ACAD_REACTORS
330
2A
102
}
102
{ACAD_XDICTIONARY
360
19C
102
}
330
2A
100
AcDbVisualStyle
  2
Dim
 70
    11
 71
     2
 72
     2
 73
     0
 90
        0
 40
-0.6
 41
-30.0
 62
     5
 63
     7
 74
     1
 91
        4
 64
     7
 65
   257
 75
     1
175
     1
 42
1.0
 92
        8
 66
     7
 43
1.0
 76
     1
 77
     6
 78
     2
 67
     7
 79
     5
170
     0
171
     0
290
     0
174
     0
 93
        1
 44
-50.0
173
     0
291
     1
 45
0.0
1001
ACAD
1000
AcDbSavedByObjectVersion
1070
     0
  0
VISUALSTYLE
  5
39
102
{ACAD_REACTORS
330
2A
102
}
102
{ACAD_XDICTIONARY
360
1A4
102
}
330
2A
100
AcDbVisualStyle
  2
Facepattern
 70
    15
 71
     2
 72
     2
 73
     0
 90
        0
 40
-0.6
 41
-30.0
 62
     5
 63
     7
 74
     1
 91
        4
 64
     7
 65
   257
 75
     1
175
     1
 42
1.0
 92
        8
 66
     7
 43
1.0
 76
     1
 77
     6
 78
     2
 67
     7
 79
     5
170
     0
171
     0
290
     0
174
     0
 93
        1
 44
0.0
173
     0
291
     1
 45
0.0
1001
ACAD
1000
AcDbSavedByObjectVersion
1070
     0
  0
VISUALSTYLE
  5
2B
102
{ACAD_REACTORS
330
2A
102
}
102
{ACAD_XDICTIONARY
360
188
102
}
330
2A
100
AcDbVisualStyle
  2
Flat
 70
     0
 71
     2
 72
     1
 73
     1
 90
        2
 40
-0.6
 41
30.0
 62
     5
 63
     7
 74
     0
 91
        4
 64
     7
 65
   257
 75
     1
175
     1
 42
1.0
 92
        8
 66
     7
 43
1.0
 76
     1
 77
     6
 78
     2
 67
     7
 79
     5
170
     0
171
     0
290
     0
174
     0
 93
       13
 44
0.0
173
     0
291
     1
 45
0.0
1001
ACAD
1000
AcDbSavedByObjectVersion
1070
     0
  0
VISUALSTYLE
  5
2C
102
{ACAD_REACTORS
330
2A
102
}
102
{ACAD_XDICTIONARY
360
18A
102
}
330
2A
100
AcDbVisualStyle
  2
FlatWithEdges
 70
     1
 71
     2
 72
     1
 73
     1
 90
        2
 40
-0.6
 41
30.0
 62
     5
 63
     7
 74
     1
 91
        4
 64
     7
 65
   257
 75
     1
175
     1
 42
1.0
 92
        0
 66
   257
 43
1.0
 76
     1
 77
     6
 78
     2
 67
     7
 79
     5
170
     0
171
     0
290
     0
174
     0
 93
       13
 44
0.0
173
     0
291
     1
 45
0.0
1001
ACAD
1000
AcDbSavedByObjectVersion
1070
     0
  0
VISUALSTYLE
  5
2D
102
{ACAD_REACTORS
330
2A
102
}
102
{ACAD_XDICTIONARY
360
18C
102
}
330
2A
100
AcDbVisualStyle
  2
Gouraud
 70
     2
 71
     2
 72
     2
 73
     1
 90
        2
 40
-0.6
 41
30.0
 62
     5
 63
     7
 74
     0
 91
        4
 64
     7
 65
   257
 75
     1
175
     1
 42
1.0
 92
        0
 66
     7
 43
1.0
 76
     1
 77
     6
 78
     2
 67
     7
 79
     5
170
     0
171
     0
290
     0
174
     0
 93
       13
 44
0.0
173
     0
291
     1
 45
0.0
1001
ACAD
1000
AcDbSavedByObjectVersion
1070
     0
  0
VISUALSTYLE
  5
2E
102
{ACAD_REACTORS
330
2A
102
}
102
{ACAD_XDICTIONARY
360
18E
102
}
330
2A
100
AcDbVisualStyle
  2
GouraudWithEdges
 70
     3
 71
     2
 72
     2
 73
     1
 90
        2
 40
-0.6
 41
30.0
 62
     5
 63
     7
 74
     1
 91
        4
 64
     7
 65
   257
 75
     1
175
     1
 42
1.0
 92
        0
 66
   257
 43
1.0
 76
     1
 77
     6
 78
     2
 67
     7
 79
     5
170
     0
171
     0
290
     0
174
     0
 93
       13
 44
0.0
173
     0
291
     1
 45
0.0
1001
ACAD
1000
AcDbSavedByObjectVersion
1070
     0
  0
VISUALSTYLE
  5
38
102
{ACAD_REACTORS
330
2A
102
}
102
{ACAD_XDICTIONARY
360
1A2
102
}
330
2A
100
AcDbVisualStyle
  2
Linepattern
 70
    14
 71
     2
 72
     2
 73
     0
 90
        0
 40
-0.6
 41
-30.0
 62
     5
 63
     7
 74
     1
 91
        4
 64
     7
 65
   257
 75
     7
175
     7
 42
1.0
 92
        8
 66
     7
 43
1.0
 76
     1
 77
     6
 78
     2
 67
     7
 79
     5
170
     0
171
     0
290
     0
174
     0
 93
        1
 44
0.0
173
     0
291
     1
 45
0.0
1001
ACAD
1000
AcDbSavedByObjectVersion
1070
     0
  0
VISUALSTYLE
  5
33
102
{ACAD_REACTORS
330
2A
102
}
102
{ACAD_XDICTIONARY
360
198
102
}
330
2A
100
AcDbVisualStyle
  2
Realistic
 70
     8
 71
     2
 72
     2
 73
     0
 90
        0
 40
-0.6
 41
-30.0
 62
     5
 63
     7
 74
     1
 91
        0
 64
     7
 65
   257
 75
     1
175
     1
 42
1.0
 92
        8
 66
     8
 43
1.0
 76
     1
 77
     6
 78
     2
 67
     7
 79
     5
170
     0
171
     0
290
     0
174
     0
 93
       13
 44
0.0
173
     0
291
     0
 45
0.0
1001
ACAD
1000
AcDbSavedByObjectVersion
1070
     0
  0
VISUALSTYLE
  5
37
102
{ACAD_REACTORS
330
2A
102
}
102
{ACAD_XDICTIONARY
360
1A0
102
}
330
2A
100
AcDbVisualStyle
  2
Thicken
 70
    13
 71
     2
 72
     2
 73
     0
 90
        0
 40
-0.6
 41
-30.0
 62
     5
 63
     7
 74
     1
 91
        4
 64
     7
 65
   257
 75
     1
175
     1
 42
1.0
 92
       12
 66
     7
 43
1.0
 76
     1
 77
     6
 78
     2
 67
     7
 79
     5
170
     0
171
     0
290
     0
174
     0
 93
        1
 44
0.0
173
     0
291
     1
 45
0.0
1001
ACAD
1000
AcDbSavedByObjectVersion
1070
     0
  0
DICTIONARYVAR
  5
186
102
{ACAD_REACTORS
330
181
102
}
330
181
100
DictionaryVariables
280
     0
  1
2
  0
DICTIONARYVAR
  5
187
102
{ACAD_REACTORS
330
181
102
}
330
181
100
DictionaryVariables
280
     0
  1
1
  0
DICTIONARYVAR
  5
185
102
{ACAD_REACTORS
330
181
102
}
330
181
100
DictionaryVariables
280
     0
  1
80.000000
  0
DICTIONARYVAR
  5
184
102
{ACAD_REACTORS
330
181
102
}
330
181
100
DictionaryVariables
280
     0
  1
5.000000
  0
DICTIONARY
  5
1AA
330
3D
100
AcDbDictionary
280
     1
281
     1
  3
ACAD_XREC_ROUNDTRIP
360
1AB
  0
DICTIONARY
  5
1A8
330
3C
100
AcDbDictionary
280
     1
281
     1
  3
ACAD_XREC_ROUNDTRIP
360
1A9
  0
DICTIONARY
  5
1AC
330
3E
100
AcDbDictionary
280
     1
281
     1
  3
ACAD_XREC_ROUNDTRIP
360
1AD
  0
DICTIONARY
  5
190
330
2F
100
AcDbDictionary
280
     1
281
     1
  3
ACAD_XREC_ROUNDTRIP
360
191
  0
DICTIONARY
  5
194
330
31
100
AcDbDictionary
280
     1
281
     1
  3
ACAD_XREC_ROUNDTRIP
360
195
  0
DICTIONARY
  5
192
330
30
100
AcDbDictionary
280
     1
281
     1
  3
ACAD_XREC_ROUNDTRIP
360
193
  0
DICTIONARY
  5
196
330
32
100
AcDbDictionary
280
     1
281
     1
  3
ACAD_XREC_ROUNDTRIP
360
197
  0
DICTIONARY
  5
19E
330
36
100
AcDbDictionary
280
     1
281
     1
  3
ACAD_XREC_ROUNDTRIP
360
19F
  0
DICTIONARY
  5
1A6
330
3A
100
AcDbDictionary
280
     1
281
     1
  3
ACAD_XREC_ROUNDTRIP
360
1A7
  0
DICTIONARY
  5
19A
330
34
100
AcDbDictionary
280
     1
281
     1
  3
ACAD_XREC_ROUNDTRIP
360
19B
  0
DICTIONARY
  5
19C
330
35
100
AcDbDictionary
280
     1
281
     1
  3
ACAD_XREC_ROUNDTRIP
360
19D
  0
DICTIONARY
  5
1A4
330
39
100
AcDbDictionary
280
     1
281
     1
  3
ACAD_XREC_ROUNDTRIP
360
1A5
  0
DICTIONARY
  5
188
330
2B
100
AcDbDictionary
280
     1
281
     1
  3
ACAD_XREC_ROUNDTRIP
360
189
  0
DICTIONARY
  5
18A
330
2C
100
AcDbDictionary
280
     1
281
     1
  3
ACAD_XREC_ROUNDTRIP
360
18B
  0
DICTIONARY
  5
18C
330
2D
100
AcDbDictionary
280
     1
281
     1
  3
ACAD_XREC_ROUNDTRIP
360
18D
  0
DICTIONARY
  5
18E
330
2E
100
AcDbDictionary
280
     1
281
     1
  3
ACAD_XREC_ROUNDTRIP
360
18F
  0
DICTIONARY
  5
1A2
330
38
100
AcDbDictionary
280
     1
281
     1
  3
ACAD_XREC_ROUNDTRIP
360
1A3
  0
DICTIONARY
  5
198
330
33
100
AcDbDictionary
280
     1
281
     1
  3
ACAD_XREC_ROUNDTRIP
360
199
  0
DICTIONARY
  5
1A0
330
37
100
AcDbDictionary
280
     1
281
     1
  3
ACAD_XREC_ROUNDTRIP
360
1A1
  0
XRECORD
  5
1AB
102
{ACAD_REACTORS
330
1AA
102
}
330
1AA
100
AcDbXrecord
280
     1
102
MATERIAL
148
0.0
149
0.0
149
0.0
 93
        0
 94
      127
282
     0
 72
     1
 77
     1
171
     1
175
     1
179
     1
273
     0
  0
XRECORD
  5
1A9
102
{ACAD_REACTORS
330
1A8
102
}
330
1A8
100
AcDbXrecord
280
     1
102
MATERIAL
148
0.0
149
0.0
149
0.0
 93
        0
 94
      127
282
     0
 72
     1
 77
     1
171
     1
175
     1
179
     1
273
     0
  0
XRECORD
  5
1AD
102
{ACAD_REACTORS
330
1AC
102
}
330
1AC
100
AcDbXrecord
280
     1
102
MATERIAL
148
0.0
149
0.0
149
0.0
 93
        0
 94
      127
282
     0
 72
     1
 77
     1
171
     1
175
     1
179
     1
273
     0
  0
XRECORD
  5
191
102
{ACAD_REACTORS
330
190
102
}
330
190
100
AcDbXrecord
280
     1
102
RTVSPropertyOp0
 70
     1
102
RTVSPropertyOp1
 70
     1
102
RTVSPropertyOp2
 70
     1
102
RTVSPropertyOp3
 70
     1
102
RTVSPropertyOp4
 70
     1
102
RTVSPropertyOp5
 70
     1
102
RTVSPropertyOp6
 70
     1
102
RTVSPropertyOp7
 70
     1
102
RTVSPropertyOp8
 70
     1
102
RTVSPropertyOp9
 70
     1
102
RTVSPropertyOp10
 70
     1
102
RTVSPropertyOp11
 70
     1
102
RTVSPropertyOp12
 70
     1
102
RTVSPropertyOp13
 70
     1
102
RTVSPropertyOp14
 70
     1
102
RTVSPropertyOp15
 70
     1
102
RTVSPropertyOp16
 70
     1
102
RTVSPropertyOp17
 70
     1
102
RTVSPropertyOp18
 70
     1
102
RTVSPropertyOp19
 70
     1
102
RTVSPropertyOp20
 70
     1
102
RTVSPropertyOp21
 70
     1
102
RTVSPropertyOp22
 70
     1
102
RTVSPropertyOp23
 70
     1
102
RTVSPropertyOp24
 70
     1
102
RTVSPropertyOp25
 70
     1
102
RTVSPropertyOp26
 70
     1
102
RTVSPropertyOp27
 70
     1
102
RTVSPropertyOp28
 70
     1
102
RTVSPropertyOp29
 70
     1
102
RTVSPropertyOp30
 70
     1
102
RTVSPropertyOp31
 70
     1
102
RTVSPropertyOp32
 70
     1
  0
XRECORD
  5
195
102
{ACAD_REACTORS
330
194
102
}
330
194
100
AcDbXrecord
280
     1
102
RTVSPropertyOp0
 70
     1
102
RTVSPropertyOp1
 70
     1
102
RTVSPropertyOp2
 70
     1
102
RTVSPropertyOp3
 70
     1
102
RTVSPropertyOp4
 70
     1
102
RTVSPropertyOp5
 70
     1
102
RTVSPropertyOp6
 70
     1
102
RTVSPropertyOp7
 70
     1
102
RTVSPropertyOp8
 70
     1
102
RTVSPropertyOp9
 70
     1
102
RTVSPropertyOp10
 70
     1
102
RTVSPropertyOp11
 70
     1
102
RTVSPropertyOp12
 70
     1
102
RTVSPropertyOp13
 70
     1
102
RTVSPropertyOp14
 70
     1
102
RTVSPropertyOp15
 70
     1
102
RTVSPropertyOp16
 70
     1
102
RTVSPropertyOp17
 70
     1
102
RTVSPropertyOp18
 70
     1
102
RTVSPropertyOp19
 70
     1
102
RTVSPropertyOp20
 70
     1
102
RTVSPropertyOp21
 70
     1
102
RTVSPropertyOp22
 70
     1
102
RTVSPropertyOp23
 70
     1
102
RTVSPropertyOp24
 70
     1
102
RTVSPropertyOp25
 70
     1
102
RTVSPropertyOp26
 70
     1
102
RTVSPropertyOp27
 70
     1
102
RTVSPropertyOp28
 70
     1
102
RTVSPropertyOp29
 70
     1
102
RTVSPropertyOp30
 70
     1
102
RTVSPropertyOp31
 70
     1
102
RTVSPropertyOp32
 70
     1
  0
XRECORD
  5
193
102
{ACAD_REACTORS
330
192
102
}
330
192
100
AcDbXrecord
280
     1
102
RTVSPropertyOp0
 70
     1
102
RTVSPropertyOp1
 70
     1
102
RTVSPropertyOp2
 70
     1
102
RTVSPropertyOp3
 70
     1
102
RTVSPropertyOp4
 70
     1
102
RTVSPropertyOp5
 70
     1
102
RTVSPropertyOp6
 70
     1
102
RTVSPropertyOp7
 70
     1
102
RTVSPropertyOp8
 70
     1
102
RTVSPropertyOp9
 70
     1
102
RTVSPropertyOp10
 70
     1
102
RTVSPropertyOp11
 70
     1
102
RTVSPropertyOp12
 70
     1
102
RTVSPropertyOp13
 70
     1
102
RTVSPropertyOp14
 70
     1
102
RTVSPropertyOp15
 70
     1
102
RTVSPropertyOp16
 70
     1
102
RTVSPropertyOp17
 70
     1
102
RTVSPropertyOp18
 70
     1
102
RTVSPropertyOp19
 70
     1
102
RTVSPropertyOp20
 70
     1
102
RTVSPropertyOp21
 70
     1
102
RTVSPropertyOp22
 70
     1
102
RTVSPropertyOp23
 70
     1
102
RTVSPropertyOp24
 70
     1
102
RTVSPropertyOp25
 70
     1
102
RTVSPropertyOp26
 70
     1
102
RTVSPropertyOp27
 70
     1
102
RTVSPropertyOp28
 70
     1
102
RTVSPropertyOp29
 70
     1
102
RTVSPropertyOp30
 70
     1
102
RTVSPropertyOp31
 70
     1
102
RTVSPropertyOp32
 70
     1
  0
XRECORD
  5
197
102
{ACAD_REACTORS
330
196
102
}
330
196
100
AcDbXrecord
280
     1
102
RTVSPropertyOp0
 70
     1
102
RTVSPropertyOp1
 70
     1
102
RTVSPropertyOp2
 70
     1
102
RTVSPropertyOp3
 70
     1
102
RTVSPropertyOp4
 70
     1
102
RTVSPropertyOp5
 70
     1
102
RTVSPropertyOp6
 70
     1
102
RTVSPropertyOp7
 70
     1
102
RTVSPropertyOp8
 70
     1
102
RTVSPropertyOp9
 70
     1
102
RTVSPropertyOp10
 70
     1
102
RTVSPropertyOp11
 70
     1
102
RTVSPropertyOp12
 70
     1
102
RTVSPropertyOp13
 70
     1
102
RTVSPropertyOp14
 70
     1
102
RTVSPropertyOp15
 70
     1
102
RTVSPropertyOp16
 70
     1
102
RTVSPropertyOp17
 70
     1
102
RTVSPropertyOp18
 70
     1
102
RTVSPropertyOp19
 70
     1
102
RTVSPropertyOp20
 70
     1
102
RTVSPropertyOp21
 70
     1
102
RTVSPropertyOp22
 70
     1
102
RTVSPropertyOp23
 70
     1
102
RTVSPropertyOp24
 70
     1
102
RTVSPropertyOp25
 70
     1
102
RTVSPropertyOp26
 70
     1
102
RTVSPropertyOp27
 70
     1
102
RTVSPropertyOp28
 70
     1
102
RTVSPropertyOp29
 70
     1
102
RTVSPropertyOp30
 70
     1
102
RTVSPropertyOp31
 70
     1
102
RTVSPropertyOp32
 70
     1
  0
XRECORD
  5
19F
102
{ACAD_REACTORS
330
19E
102
}
330
19E
100
AcDbXrecord
280
     1
102
RTVSPropertyOp0
 70
     1
102
RTVSPropertyOp1
 70
     1
102
RTVSPropertyOp2
 70
     1
102
RTVSPropertyOp3
 70
     1
102
RTVSPropertyOp4
 70
     1
102
RTVSPropertyOp5
 70
     1
102
RTVSPropertyOp6
 70
     1
102
RTVSPropertyOp7
 70
     1
102
RTVSPropertyOp8
 70
     1
102
RTVSPropertyOp9
 70
     1
102
RTVSPropertyOp10
 70
     1
102
RTVSPropertyOp11
 70
     1
102
RTVSPropertyOp12
 70
     1
102
RTVSPropertyOp13
 70
     1
102
RTVSPropertyOp14
 70
     1
102
RTVSPropertyOp15
 70
     1
102
RTVSPropertyOp16
 70
     1
102
RTVSPropertyOp17
 70
     1
102
RTVSPropertyOp18
 70
     1
102
RTVSPropertyOp19
 70
     1
102
RTVSPropertyOp20
 70
     1
102
RTVSPropertyOp21
 70
     1
102
RTVSPropertyOp22
 70
     1
102
RTVSPropertyOp23
 70
     1
102
RTVSPropertyOp24
 70
     1
102
RTVSPropertyOp25
 70
     1
102
RTVSPropertyOp26
 70
     1
102
RTVSPropertyOp27
 70
     1
102
RTVSPropertyOp28
 70
     1
102
RTVSPropertyOp29
 70
     1
102
RTVSPropertyOp30
 70
     1
102
RTVSPropertyOp31
 70
     1
102
RTVSPropertyOp32
 70
     1
  0
XRECORD
  5
1A7
102
{ACAD_REACTORS
330
1A6
102
}
330
1A6
100
AcDbXrecord
280
     1
102
RTVSPropertyOp0
 70
     1
102
RTVSPropertyOp1
 70
     1
102
RTVSPropertyOp2
 70
     1
102
RTVSPropertyOp3
 70
     1
102
RTVSPropertyOp4
 70
     1
102
RTVSPropertyOp5
 70
     1
102
RTVSPropertyOp6
 70
     1
102
RTVSPropertyOp7
 70
     1
102
RTVSPropertyOp8
 70
     1
102
RTVSPropertyOp9
 70
     1
102
RTVSPropertyOp10
 70
     1
102
RTVSPropertyOp11
 70
     1
102
RTVSPropertyOp12
 70
     1
102
RTVSPropertyOp13
 70
     1
102
RTVSPropertyOp14
 70
     1
102
RTVSPropertyOp15
 70
     1
102
RTVSPropertyOp16
 70
     1
102
RTVSPropertyOp17
 70
     1
102
RTVSPropertyOp18
 70
     1
102
RTVSPropertyOp19
 70
     1
102
RTVSPropertyOp20
 70
     1
102
RTVSPropertyOp21
 70
     1
102
RTVSPropertyOp22
 70
     1
102
RTVSPropertyOp23
 70
     1
102
RTVSPropertyOp24
 70
     1
102
RTVSPropertyOp25
 70
     1
102
RTVSPropertyOp26
 70
     1
102
RTVSPropertyOp27
 70
     1
102
RTVSPropertyOp28
 70
     1
102
RTVSPropertyOp29
 70
     1
102
RTVSPropertyOp30
 70
     1
102
RTVSPropertyOp31
 70
     1
102
RTVSPropertyOp32
 70
     1
  0
XRECORD
  5
19B
102
{ACAD_REACTORS
330
19A
102
}
330
19A
100
AcDbXrecord
280
     1
102
RTVSPropertyOp0
 70
     1
102
RTVSPropertyOp1
 70
     1
102
RTVSPropertyOp2
 70
     1
102
RTVSPropertyOp3
 70
     1
102
RTVSPropertyOp4
 70
     1
102
RTVSPropertyOp5
 70
     1
102
RTVSPropertyOp6
 70
     1
102
RTVSPropertyOp7
 70
     1
102
RTVSPropertyOp8
 70
     1
102
RTVSPropertyOp9
 70
     1
102
RTVSPropertyOp10
 70
     1
102
RTVSPropertyOp11
 70
     1
102
RTVSPropertyOp12
 70
     1
102
RTVSPropertyOp13
 70
     1
102
RTVSPropertyOp14
 70
     1
102
RTVSPropertyOp15
 70
     1
102
RTVSPropertyOp16
 70
     1
102
RTVSPropertyOp17
 70
     1
102
RTVSPropertyOp18
 70
     1
102
RTVSPropertyOp19
 70
     1
102
RTVSPropertyOp20
 70
     1
102
RTVSPropertyOp21
 70
     1
102
RTVSPropertyOp22
 70
     1
102
RTVSPropertyOp23
 70
     1
102
RTVSPropertyOp24
 70
     1
102
RTVSPropertyOp25
 70
     1
102
RTVSPropertyOp26
 70
     1
102
RTVSPropertyOp27
 70
     1
102
RTVSPropertyOp28
 70
     1
102
RTVSPropertyOp29
 70
     1
102
RTVSPropertyOp30
 70
     1
102
RTVSPropertyOp31
 70
     1
102
RTVSPropertyOp32
 70
     1
  0
XRECORD
  5
19D
102
{ACAD_REACTORS
330
19C
102
}
330
19C
100
AcDbXrecord
280
     1
102
RTVSPropertyOp0
 70
     1
102
RTVSPropertyOp1
 70
     1
102
RTVSPropertyOp2
 70
     1
102
RTVSPropertyOp3
 70
     1
102
RTVSPropertyOp4
 70
     1
102
RTVSPropertyOp5
 70
     1
102
RTVSPropertyOp6
 70
     1
102
RTVSPropertyOp7
 70
     1
102
RTVSPropertyOp8
 70
     1
102
RTVSPropertyOp9
 70
     1
102
RTVSPropertyOp10
 70
     1
102
RTVSPropertyOp11
 70
     1
102
RTVSPropertyOp12
 70
     1
102
RTVSPropertyOp13
 70
     1
102
RTVSPropertyOp14
 70
     1
102
RTVSPropertyOp15
 70
     1
102
RTVSPropertyOp16
 70
     1
102
RTVSPropertyOp17
 70
     1
102
RTVSPropertyOp18
 70
     1
102
RTVSPropertyOp19
 70
     1
102
RTVSPropertyOp20
 70
     1
102
RTVSPropertyOp21
 70
     1
102
RTVSPropertyOp22
 70
     1
102
RTVSPropertyOp23
 70
     1
102
RTVSPropertyOp24
 70
     1
102
RTVSPropertyOp25
 70
     1
102
RTVSPropertyOp26
 70
     1
102
RTVSPropertyOp27
 70
     1
102
RTVSPropertyOp28
 70
     1
102
RTVSPropertyOp29
 70
     1
102
RTVSPropertyOp30
 70
     1
102
RTVSPropertyOp31
 70
     1
102
RTVSPropertyOp32
 70
     1
  0
XRECORD
  5
1A5
102
{ACAD_REACTORS
330
1A4
102
}
330
1A4
100
AcDbXrecord
280
     1
102
RTVSPropertyOp0
 70
     1
102
RTVSPropertyOp1
 70
     1
102
RTVSPropertyOp2
 70
     1
102
RTVSPropertyOp3
 70
     1
102
RTVSPropertyOp4
 70
     1
102
RTVSPropertyOp5
 70
     1
102
RTVSPropertyOp6
 70
     1
102
RTVSPropertyOp7
 70
     1
102
RTVSPropertyOp8
 70
     1
102
RTVSPropertyOp9
 70
     1
102
RTVSPropertyOp10
 70
     1
102
RTVSPropertyOp11
 70
     1
102
RTVSPropertyOp12
 70
     1
102
RTVSPropertyOp13
 70
     1
102
RTVSPropertyOp14
 70
     1
102
RTVSPropertyOp15
 70
     1
102
RTVSPropertyOp16
 70
     1
102
RTVSPropertyOp17
 70
     1
102
RTVSPropertyOp18
 70
     1
102
RTVSPropertyOp19
 70
     1
102
RTVSPropertyOp20
 70
     1
102
RTVSPropertyOp21
 70
     1
102
RTVSPropertyOp22
 70
     1
102
RTVSPropertyOp23
 70
     1
102
RTVSPropertyOp24
 70
     1
102
RTVSPropertyOp25
 70
     1
102
RTVSPropertyOp26
 70
     1
102
RTVSPropertyOp27
 70
     1
102
RTVSPropertyOp28
 70
     1
102
RTVSPropertyOp29
 70
     1
102
RTVSPropertyOp30
 70
     1
102
RTVSPropertyOp31
 70
     1
102
RTVSPropertyOp32
 70
     1
  0
XRECORD
  5
189
102
{ACAD_REACTORS
330
188
102
}
330
188
100
AcDbXrecord
280
     1
102
RTVSPropertyOp0
 70
     1
102
RTVSPropertyOp1
 70
     1
102
RTVSPropertyOp2
 70
     1
102
RTVSPropertyOp3
 70
     1
102
RTVSPropertyOp4
 70
     1
102
RTVSPropertyOp5
 70
     1
102
RTVSPropertyOp6
 70
     1
102
RTVSPropertyOp7
 70
     1
102
RTVSPropertyOp8
 70
     1
102
RTVSPropertyOp9
 70
     1
102
RTVSPropertyOp10
 70
     1
102
RTVSPropertyOp11
 70
     1
102
RTVSPropertyOp12
 70
     1
102
RTVSPropertyOp13
 70
     1
102
RTVSPropertyOp14
 70
     1
102
RTVSPropertyOp15
 70
     1
102
RTVSPropertyOp16
 70
     1
102
RTVSPropertyOp17
 70
     1
102
RTVSPropertyOp18
 70
     1
102
RTVSPropertyOp19
 70
     1
102
RTVSPropertyOp20
 70
     1
102
RTVSPropertyOp21
 70
     1
102
RTVSPropertyOp22
 70
     1
102
RTVSPropertyOp23
 70
     1
102
RTVSPropertyOp24
 70
     1
102
RTVSPropertyOp25
 70
     1
102
RTVSPropertyOp26
 70
     1
102
RTVSPropertyOp27
 70
     1
102
RTVSPropertyOp28
 70
     1
102
RTVSPropertyOp29
 70
     1
102
RTVSPropertyOp30
 70
     1
102
RTVSPropertyOp31
 70
     1
102
RTVSPropertyOp32
 70
     1
  0
XRECORD
  5
18B
102
{ACAD_REACTORS
330
18A
102
}
330
18A
100
AcDbXrecord
280
     1
102
RTVSPropertyOp0
 70
     1
102
RTVSPropertyOp1
 70
     1
102
RTVSPropertyOp2
 70
     1
102
RTVSPropertyOp3
 70
     1
102
RTVSPropertyOp4
 70
     1
102
RTVSPropertyOp5
 70
     1
102
RTVSPropertyOp6
 70
     1
102
RTVSPropertyOp7
 70
     1
102
RTVSPropertyOp8
 70
     1
102
RTVSPropertyOp9
 70
     1
102
RTVSPropertyOp10
 70
     1
102
RTVSPropertyOp11
 70
     1
102
RTVSPropertyOp12
 70
     1
102
RTVSPropertyOp13
 70
     1
102
RTVSPropertyOp14
 70
     1
102
RTVSPropertyOp15
 70
     1
102
RTVSPropertyOp16
 70
     1
102
RTVSPropertyOp17
 70
     1
102
RTVSPropertyOp18
 70
     1
102
RTVSPropertyOp19
 70
     1
102
RTVSPropertyOp20
 70
     1
102
RTVSPropertyOp21
 70
     1
102
RTVSPropertyOp22
 70
     1
102
RTVSPropertyOp23
 70
     1
102
RTVSPropertyOp24
 70
     1
102
RTVSPropertyOp25
 70
     1
102
RTVSPropertyOp26
 70
     1
102
RTVSPropertyOp27
 70
     1
102
RTVSPropertyOp28
 70
     1
102
RTVSPropertyOp29
 70
     1
102
RTVSPropertyOp30
 70
     1
102
RTVSPropertyOp31
 70
     1
102
RTVSPropertyOp32
 70
     1
  0
XRECORD
  5
18D
102
{ACAD_REACTORS
330
18C
102
}
330
18C
100
AcDbXrecord
280
     1
102
RTVSPropertyOp0
 70
     1
102
RTVSPropertyOp1
 70
     1
102
RTVSPropertyOp2
 70
     1
102
RTVSPropertyOp3
 70
     1
102
RTVSPropertyOp4
 70
     1
102
RTVSPropertyOp5
 70
     1
102
RTVSPropertyOp6
 70
     1
102
RTVSPropertyOp7
 70
     1
102
RTVSPropertyOp8
 70
     1
102
RTVSPropertyOp9
 70
     1
102
RTVSPropertyOp10
 70
     1
102
RTVSPropertyOp11
 70
     1
102
RTVSPropertyOp12
 70
     1
102
RTVSPropertyOp13
 70
     1
102
RTVSPropertyOp14
 70
     1
102
RTVSPropertyOp15
 70
     1
102
RTVSPropertyOp16
 70
     1
102
RTVSPropertyOp17
 70
     1
102
RTVSPropertyOp18
 70
     1
102
RTVSPropertyOp19
 70
     1
102
RTVSPropertyOp20
 70
     1
102
RTVSPropertyOp21
 70
     1
102
RTVSPropertyOp22
 70
     1
102
RTVSPropertyOp23
 70
     1
102
RTVSPropertyOp24
 70
     1
102
RTVSPropertyOp25
 70
     1
102
RTVSPropertyOp26
 70
     1
102
RTVSPropertyOp27
 70
     1
102
RTVSPropertyOp28
 70
     1
102
RTVSPropertyOp29
 70
     1
102
RTVSPropertyOp30
 70
     1
102
RTVSPropertyOp31
 70
     1
102
RTVSPropertyOp32
 70
     1
  0
XRECORD
  5
18F
102
{ACAD_REACTORS
330
18E
102
}
330
18E
100
AcDbXrecord
280
     1
102
RTVSPropertyOp0
 70
     1
102
RTVSPropertyOp1
 70
     1
102
RTVSPropertyOp2
 70
     1
102
RTVSPropertyOp3
 70
     1
102
RTVSPropertyOp4
 70
     1
102
RTVSPropertyOp5
 70
     1
102
RTVSPropertyOp6
 70
     1
102
RTVSPropertyOp7
 70
     1
102
RTVSPropertyOp8
 70
     1
102
RTVSPropertyOp9
 70
     1
102
RTVSPropertyOp10
 70
     1
102
RTVSPropertyOp11
 70
     1
102
RTVSPropertyOp12
 70
     1
102
RTVSPropertyOp13
 70
     1
102
RTVSPropertyOp14
 70
     1
102
RTVSPropertyOp15
 70
     1
102
RTVSPropertyOp16
 70
     1
102
RTVSPropertyOp17
 70
     1
102
RTVSPropertyOp18
 70
     1
102
RTVSPropertyOp19
 70
     1
102
RTVSPropertyOp20
 70
     1
102
RTVSPropertyOp21
 70
     1
102
RTVSPropertyOp22
 70
     1
102
RTVSPropertyOp23
 70
     1
102
RTVSPropertyOp24
 70
     1
102
RTVSPropertyOp25
 70
     1
102
RTVSPropertyOp26
 70
     1
102
RTVSPropertyOp27
 70
     1
102
RTVSPropertyOp28
 70
     1
102
RTVSPropertyOp29
 70
     1
102
RTVSPropertyOp30
 70
     1
102
RTVSPropertyOp31
 70
     1
102
RTVSPropertyOp32
 70
     1
  0
XRECORD
  5
1A3
102
{ACAD_REACTORS
330
1A2
102
}
330
1A2
100
AcDbXrecord
280
     1
102
RTVSPropertyOp0
 70
     1
102
RTVSPropertyOp1
 70
     1
102
RTVSPropertyOp2
 70
     1
102
RTVSPropertyOp3
 70
     1
102
RTVSPropertyOp4
 70
     1
102
RTVSPropertyOp5
 70
     1
102
RTVSPropertyOp6
 70
     1
102
RTVSPropertyOp7
 70
     1
102
RTVSPropertyOp8
 70
     1
102
RTVSPropertyOp9
 70
     1
102
RTVSPropertyOp10
 70
     1
102
RTVSPropertyOp11
 70
     1
102
RTVSPropertyOp12
 70
     1
102
RTVSPropertyOp13
 70
     1
102
RTVSPropertyOp14
 70
     1
102
RTVSPropertyOp15
 70
     1
102
RTVSPropertyOp16
 70
     1
102
RTVSPropertyOp17
 70
     1
102
RTVSPropertyOp18
 70
     1
102
RTVSPropertyOp19
 70
     1
102
RTVSPropertyOp20
 70
     1
102
RTVSPropertyOp21
 70
     1
102
RTVSPropertyOp22
 70
     1
102
RTVSPropertyOp23
 70
     1
102
RTVSPropertyOp24
 70
     1
102
RTVSPropertyOp25
 70
     1
102
RTVSPropertyOp26
 70
     1
102
RTVSPropertyOp27
 70
     1
102
RTVSPropertyOp28
 70
     1
102
RTVSPropertyOp29
 70
     1
102
RTVSPropertyOp30
 70
     1
102
RTVSPropertyOp31
 70
     1
102
RTVSPropertyOp32
 70
     1
  0
XRECORD
  5
199
102
{ACAD_REACTORS
330
198
102
}
330
198
100
AcDbXrecord
280
     1
102
RTVSPropertyOp0
 70
     1
102
RTVSPropertyOp1
 70
     1
102
RTVSPropertyOp2
 70
     1
102
RTVSPropertyOp3
 70
     1
102
RTVSPropertyOp4
 70
     1
102
RTVSPropertyOp5
 70
     1
102
RTVSPropertyOp6
 70
     1
102
RTVSPropertyOp7
 70
     1
102
RTVSPropertyOp8
 70
     1
102
RTVSPropertyOp9
 70
     1
102
RTVSPropertyOp10
 70
     1
102
RTVSPropertyOp11
 70
     1
102
RTVSPropertyOp12
 70
     1
102
RTVSPropertyOp13
 70
     1
102
RTVSPropertyOp14
 70
     1
102
RTVSPropertyOp15
 70
     1
102
RTVSPropertyOp16
 70
     1
102
RTVSPropertyOp17
 70
     1
102
RTVSPropertyOp18
 70
     1
102
RTVSPropertyOp19
 70
     1
102
RTVSPropertyOp20
 70
     1
102
RTVSPropertyOp21
 70
     1
102
RTVSPropertyOp22
 70
     1
102
RTVSPropertyOp23
 70
     1
102
RTVSPropertyOp24
 70
     1
102
RTVSPropertyOp25
 70
     1
102
RTVSPropertyOp26
 70
     1
102
RTVSPropertyOp27
 70
     1
102
RTVSPropertyOp28
 70
     1
102
RTVSPropertyOp29
 70
     1
102
RTVSPropertyOp30
 70
     1
102
RTVSPropertyOp31
 70
     1
102
RTVSPropertyOp32
 70
     1
  0
XRECORD
  5
1A1
102
{ACAD_REACTORS
330
1A0
102
}
330
1A0
100
AcDbXrecord
280
     1
102
RTVSPropertyOp0
 70
     1
102
RTVSPropertyOp1
 70
     1
102
RTVSPropertyOp2
 70
     1
102
RTVSPropertyOp3
 70
     1
102
RTVSPropertyOp4
 70
     1
102
RTVSPropertyOp5
 70
     1
102
RTVSPropertyOp6
 70
     1
102
RTVSPropertyOp7
 70
     1
102
RTVSPropertyOp8
 70
     1
102
RTVSPropertyOp9
 70
     1
102
RTVSPropertyOp10
 70
     1
102
RTVSPropertyOp11
 70
     1
102
RTVSPropertyOp12
 70
     1
102
RTVSPropertyOp13
 70
     1
102
RTVSPropertyOp14
 70
     1
102
RTVSPropertyOp15
 70
     1
102
RTVSPropertyOp16
 70
     1
102
RTVSPropertyOp17
 70
     1
102
RTVSPropertyOp18
 70
     1
102
RTVSPropertyOp19
 70
     1
102
RTVSPropertyOp20
 70
     1
102
RTVSPropertyOp21
 70
     1
102
RTVSPropertyOp22
 70
     1
102
RTVSPropertyOp23
 70
     1
102
RTVSPropertyOp24
 70
     1
102
RTVSPropertyOp25
 70
     1
102
RTVSPropertyOp26
 70
     1
102
RTVSPropertyOp27
 70
     1
102
RTVSPropertyOp28
 70
     1
102
RTVSPropertyOp29
 70
     1
102
RTVSPropertyOp30
 70
     1
102
RTVSPropertyOp31
 70
     1
102
RTVSPropertyOp32
 70
     1
  0
ENDSEC
  0
EOF
