  0
SECTION
  2
HEADER
  9
$ACADVER
  1
AC1015
  9
$ACADMAINTVER
 70
     6
  9
$DWGCODEPAGE
  3
ANSI_1252
  9
$INSBASE
 10
0.0
 20
0.0
 30
0.0
  9
$EXTMIN
 10
0.0
 20
0.0
 30
0.0
  9
$EXTMAX
 10
210.0
 20
297.0
 30
0.0
  9
$LIMMIN
 10
0.0
 20
0.0
  9
$LIMMAX
 10
210.0
 20
297.0
  9
$ORTHOMODE
 70
     0
  9
$REGENMODE
 70
     1
  9
$FILLMODE
 70
     1
  9
$QTEXTMODE
 70
     0
  9
$MIRRTEXT
 70
     1
  9
$LTSCALE
 40
1.0
  9
$ATTMODE
 70
     1
  9
$TEXTSIZE
 40
2.5
  9
$TRACEWID
 40
1.0
  9
$TEXTSTYLE
  7
Standard
  9
$CLAYER
  8
0
  9
$CELTYPE
  6
ByLayer
  9
$CECOLOR
 62
   256
  9
$CELTSCALE
 40
1.0
  9
$DISPSILH
 70
     0
  9
$DIMSCALE
 40
1.0
  9
$DIMASZ
 40
2.5
  9
$DIMEXO
 40
0.625
  9
$DIMDLI
 40
3.75
  9
$DIMRND
 40
0.0
  9
$DIMDLE
 40
0.0
  9
$DIMEXE
 40
1.25
  9
$DIMTP
 40
0.0
  9
$DIMTM
 40
0.0
  9
$DIMTXT
 40
2.5
  9
$DIMCEN
 40
2.5
  9
$DIMTSZ
 40
0.0
  9
$DIMTOL
 70
     0
  9
$DIMLIM
 70
     0
  9
$DIMTIH
 70
     0
  9
$DIMTOH
 70
     0
  9
$DIMSE1
 70
     0
  9
$DIMSE2
 70
     0
  9
$DIMTAD
 70
     1
  9
$DIMZIN
 70
     8
  9
$DIMBLK
  1

  9
$DIMASO
 70
     1
  9
$DIMSHO
 70
     1
  9
$DIMPOST
  1

  9
$DIMAPOST
  1

  9
$DIMALT
 70
     0
  9
$DIMALTD
 70
     3
  9
$DIMALTF
 40
0.0393700787
  9
$DIMLFAC
 40
1.0
  9
$DIMTOFL
 70
     1
  9
$DIMTVP
 40
0.0
  9
$DIMTIX
 70
     0
  9
$DIMSOXD
 70
     0
  9
$DIMSAH
 70
     0
  9
$DIMBLK1
  1

  9
$DIMBLK2
  1

  9
$DIMSTYLE
  2
ISO-25
  9
$DIMCLRD
 70
     0
  9
$DIMCLRE
 70
     0
  9
$DIMCLRT
 70
     0
  9
$DIMTFAC
 40
1.0
  9
$DIMGAP
 40
0.625
  9
$DIMJUST
 70
     0
  9
$DIMSD1
 70
     0
  9
$DIMSD2
 70
     0
  9
$DIMTOLJ
 70
     0
  9
$DIMTZIN
 70
     8
  9
$DIMALTZ
 70
     0
  9
$DIMALTTZ
 70
     0
  9
$DIMUPT
 70
     0
  9
$DIMDEC
 70
     2
  9
$DIMTDEC
 70
     2
  9
$DIMALTU
 70
     2
  9
$DIMALTTD
 70
     3
  9
$DIMTXSTY
  7
Standard
  9
$DIMAUNIT
 70
     0
  9
$DIMADEC
 70
     0
  9
$DIMALTRND
 40
0.0
  9
$DIMAZIN
 70
     0
  9
$DIMDSEP
 70
    44
  9
$DIMATFIT
 70
     3
  9
$DIMFRAC
 70
     0
  9
$DIMLDRBLK
  1

  9
$DIMLUNIT
 70
     2
  9
$DIMLWD
 70
    -2
  9
$DIMLWE
 70
    -2
  9
$DIMTMOVE
 70
     0
  9
$LUNITS
 70
     2
  9
$LUPREC
 70
     4
  9
$SKETCHINC
 40
1.0
  9
$FILLETRAD
 40
10.0
  9
$AUNITS
 70
     0
  9
$AUPREC
 70
     0
  9
$MENU
  1
.
  9
$ELEVATION
 40
0.0
  9
$PELEVATION
 40
0.0
  9
$THICKNESS
 40
0.0
  9
$LIMCHECK
 70
     0
  9
$CHAMFERA
 40
10.0
  9
$CHAMFERB
 40
10.0
  9
$CHAMFERC
 40
20.0
  9
$CHAMFERD
 40
0.0
  9
$SKPOLY
 70
     0
  9
$TDCREATE
 40
2457564.592208229
  9
$TDUCREATE
 40
2457564.508874896
  9
$TDUPDATE
 40
2457564.592209676
  9
$TDUUPDATE
 40
2457564.508876343
  9
$TDINDWG
 40
0.0000000116
  9
$TDUSRTIMER
 40
0.0000000116
  9
$USRTIMER
 70
     1
  9
$ANGBASE
 50
0.0
  9
$ANGDIR
 70
     0
  9
$PDMODE
 70
     0
  9
$PDSIZE
 40
0.0
  9
$PLINEWID
 40
0.0
  9
$SPLFRAME
 70
     0
  9
$SPLINETYPE
 70
     6
  9
$SPLINESEGS
 70
     8
  9
$HANDSEED
  5
1AE
  9
$SURFTAB1
 70
     6
  9
$SURFTAB2
 70
     6
  9
$SURFTYPE
 70
     6
  9
$SURFU
 70
     6
  9
$SURFV
 70
     6
  9
$UCSBASE
  2

  9
$UCSNAME
  2

  9
$UCSORG
 10
0.0
 20
0.0
 30
0.0
  9
$UCSXDIR
 10
1.0
 20
0.0
 30
0.0
  9
$UCSYDIR
 10
0.0
 20
1.0
 30
0.0
  9
$UCSORTHOREF
  2

  9
$UCSORTHOVIEW
 70
     0
  9
$UCSORGTOP
 10
0.0
 20
0.0
 30
0.0
  9
$UCSORGBOTTOM
 10
0.0
 20
0.0
 30
0.0
  9
$UCSORGLEFT
 10
0.0
 20
0.0
 30
0.0
  9
$UCSORGRIGHT
 10
0.0
 20
0.0
 30
0.0
  9
$UCSORGFRONT
 10
0.0
 20
0.0
 30
0.0
  9
$UCSORGBACK
 10
0.0
 20
0.0
 30
0.0
  9
$PUCSBASE
  2

  9
$PUCSNAME
  2

  9
$PUCSORG
 10
0.0
 20
0.0
 30
0.0
  9
$PUCSXDIR
 10
1.0
 20
0.0
 30
0.0
  9
$PUCSYDIR
 10
0.0
 20
1.0
 30
0.0
  9
$PUCSORTHOREF
  2

  9
$PUCSORTHOVIEW
 70
     0
  9
$PUCSORGTOP
 10
0.0
 20
0.0
 30
0.0
  9
$PUCSORGBOTTOM
 10
0.0
 20
0.0
 30
0.0
  9
$PUCSORGLEFT
 10
0.0
 20
0.0
 30
0.0
  9
$PUCSORGRIGHT
 10
0.0
 20
0.0
 30
0.0
  9
$PUCSORGFRONT
 10
0.0
 20
0.0
 30
0.0
  9
$PUCSORGBACK
 10
0.0
 20
0.0
 30
0.0
  9
$USERI1
 70
     0
  9
$USERI2
 70
     0
  9
$USERI3
 70
     0
  9
$USERI4
 70
     0
  9
$USERI5
 70
     0
  9
$USERR1
 40
0.0
  9
$USERR2
 40
0.0
  9
$USERR3
 40
0.0
  9
$USERR4
 40
0.0
  9
$USERR5
 40
0.0
  9
$WORLDVIEW
 70
     1
  9
$SHADEDGE
 70
     3
  9
$SHADEDIF
 70
    70
  9
$TILEMODE
 70
     1
  9
$MAXACTVP
 70
    64
  9
$PINSBASE
 10
0.0
 20
0.0
 30
0.0
  9
$PLIMCHECK
 70
     0
  9
$PEXTMIN
 10
0.0
 20
0.0
 30
0.0
  9
$PEXTMAX
 10
210.0
 20
297.0
 30
0.0
  9
$PLIMMIN
 10
0.0
 20
0.0
  9
$PLIMMAX
 10
210.0
 20
297.0
  9
$UNITMODE
 70
     0
  9
$VISRETAIN
 70
     1
  9
$PLINEGEN
 70
     0
  9
$PSLTSCALE
 70
     1
  9
$TREEDEPTH
 70
  3020
  9
$CMLSTYLE
  2
Standard
  9
$CMLJUST
 70
     0
  9
$CMLSCALE
 40
20.0
  9
$PROXYGRAPHICS
 70
     1
  9
$MEASUREMENT
 70
     1
  9
$CELWEIGHT
370
    -1
  9
$ENDCAPS
280
     0
  9
$JOINSTYLE
280
     0
  9
$LWDISPLAY
290
     0
  9
$INSUNITS
 70
     4
  9
$HYPERLINKBASE
  1

  9
$STYLESHEET
  1

  9
$XEDIT
290
     1
  9
$CEPSNTYPE
380
     0
  9
$PSTYLEMODE
290
     1
  9
$FINGERPRINTGUID
  2
{186E1307-AECB-44DA-A9D6-471EADFD887A}
  9
$VERSIONGUID
  2
{FAEB1C32-E019-11D5-929B-00C0DF256EC4}
  9
$EXTNAMES
290
     1
  9
$PSVPSCALE
 40
0.0
  9
$OLESTARTUP
290
     0
  0
ENDSEC
  0
SECTION
  2
CLASSES
  0
CLASS
  1
ACDBDICTIONARYWDFLT
  2
AcDbDictionaryWithDefault
  3
ObjectDBX Classes
 90
        0
280
     0
281
     0
  0
CLASS
  1
VISUALSTYLE
  2
AcDbVisualStyle
  3
ObjectDBX Classes
 90
     4095
280
     0
281
     0
  0
CLASS
  1
MATERIAL
  2
AcDbMaterial
  3
ObjectDBX Classes
 90
     1153
280
     0
281
     0
  0
CLASS
  1
DICTIONARYVAR
  2
AcDbDictionaryVar
  3
ObjectDBX Classes
 90
        0
280
     0
281
     0
  0
CLASS
  1
ACDBPLACEHOLDER
  2
AcDbPlaceHolder
  3
ObjectDBX Classes
 90
        0
280
     0
281
     0
  0
CLASS
  1
LAYOUT
  2
AcDbLayout
  3
ObjectDBX Classes
 90
        0
280
     0
281
     0
  0
ENDSEC
  0
SECTION
  2
TABLES
  0
TABLE
  2
VPORT
  5
8
330
0
100
AcDbSymbolTable
 70
     1
  0
VPORT
  5
29
330
8
100
AcDbSymbolTableRecord
100
AcDbViewportTableRecord
  2
*Active
 70
     0
 10
0.0
 20
0.0
 11
1.0
 21
1.0
 12
344.1869158879
 22
148.5
 13
0.0
 23
0.0
 14
10.0
 24
10.0
 15
10.0
 25
10.0
 16
0.0
 26
0.0
 36
1.0
 17
0.0
 27
0.0
 37
0.0
 40
297.0
 41
1.9729729729
 42
50.0
 43
0.0
 44
0.0
 50
0.0
 51
0.0
 71
     0
 72
   100
 73
     1
 74
     3
 75
     0
 76
     0
 77
     0
 78
     0
281
     0
 65
     1
110
0.0
120
0.0
130
0.0
111
1.0
121
0.0
131
0.0
112
0.0
122
1.0
132
0.0
 79
     0
146
0.0
  0
ENDTAB
  0
TABLE
  2
LTYPE
  5
5
330
0
100
AcDbSymbolTable
 70
     2
  0
LTYPE
  5
14
330
5
100
AcDbSymbolTableRecord
100
AcDbLinetypeTableRecord
  2
ByBlock
 70
     0
  3

 72
    65
 73
     0
 40
0.0
  0
LTYPE
  5
15
330
5
100
AcDbSymbolTableRecord
100
AcDbLinetypeTableRecord
  2
ByLayer
 70
     0
  3

 72
    65
 73
     0
 40
0.0
  0
LTYPE
  5
16
330
5
100
AcDbSymbolTableRecord
100
AcDbLinetypeTableRecord
  2
Continuous
 70
     0
  3
Solid line
 72
    65
 73
     0
 40
0.0
  0
LTYPE
  5
43
330
5
100
AcDbSymbolTableRecord
100
AcDbLinetypeTableRecord
  2
HIDDEN2
 70
     0
  3
Hidden (.5x) _ _ _ _ _ _ _ _ _ _ _ _ _ _ _ _ _ 
 72
    65
 73
     2
 40
4.7625
 49
3.175
 74
     4
 75
     0
340
0
 46
0.0
 50
0.0
 44
0.0
 45
0.0
 49
-1.5875
 74
     4
 75
     0
340
0
 46
0.0
 50
0.0
 44
0.0
 45
0.0
  0
ENDTAB
  0
TABLE
  2
LAYER
  5
2
330
0
100
AcDbSymbolTable
 70
     5
  0
LAYER
  5
10
330
2
100
AcDbSymbolTableRecord
100
AcDbLayerTableRecord
  2
0
 70
     0
 62
     7
  6
Continuous
370
    -3
390
F
  0
LAYER
  5
3F
330
2
100
AcDbSymbolTableRecord
100
AcDbLayerTableRecord
  2
SK1
 70
     0
 62
     4
  6
Continuous
370
    18
390
F
  0
LAYER
  5
42
330
2
100
AcDbSymbolTableRecord
100
AcDbLayerTableRecord
  2
SK3
 70
     0
 62
     1
  6
HIDDEN2
370
    15
390
F
  0
LAYER
  5
12A
330
2
100
AcDbSymbolTableRecord
100
AcDbLayerTableRecord
  2
SK4
 70
     0
 62
     2
  6
Continuous
370
    13
390
F
  0
LAYER
  5
12C
330
2
100
AcDbSymbolTableRecord
100
AcDbLayerTableRecord
  2
SK2
 70
     0
 62
     7
  6
Continuous
370
    15
390
F
  0
ENDTAB
  0
TABLE
  2
STYLE
  5
3
330
0
100
AcDbSymbolTable
 70
     2
  0
STYLE
  5
11
330
3
100
AcDbSymbolTableRecord
100
AcDbTextStyleTableRecord
  2
Standard
 70
     0
 40
0.0
 41
1.0
 50
0.0
 71
     0
 42
2.5
  3
txt
  4

  0
STYLE
  5
13F
330
3
100
AcDbSymbolTableRecord
100
AcDbTextStyleTableRecord
  2
SEACAD_Solid_Edge_ISO
 70
     0
 40
0.0
 41
1.0
 50
0.0
 71
     0
 42
0.2
  3
seiso.ttf
  4

1001
ACAD
1000
Solid Edge ISO
1071
        0
  0
ENDTAB
  0
TABLE
  2
VIEW
  5
6
330
0
100
AcDbSymbolTable
 70
     0
  0
ENDTAB
  0
TABLE
  2
UCS
  5
7
330
0
100
AcDbSymbolTable
 70
     0
  0
ENDTAB
  0
TABLE
  2
APPID
  5
9
330
0
100
AcDbSymbolTable
 70
     1
  0
APPID
  5
12
330
9
100
AcDbSymbolTableRecord
100
AcDbRegAppTableRecord
  2
ACAD
 70
     0
  0
ENDTAB
  0
TABLE
  2
DIMSTYLE
  5
A
330
0
100
AcDbSymbolTable
 70
     3
100
AcDbDimStyleTable
  0
DIMSTYLE
105
27
330
A
100
AcDbSymbolTableRecord
100
AcDbDimStyleTableRecord
  2
ISO-25
 70
     0
 41
2.5
 42
0.625
 43
3.75
 44
1.25
 73
     0
 74
     0
 77
     1
 78
     8
140
2.5
141
2.5
143
0.0393700787
147
0.625
171
     3
172
     1
178
     0
271
     2
272
     2
274
     3
278
    44
283
     0
284
     8
340
11
  0
DIMSTYLE
105
12D
330
A
100
AcDbSymbolTableRecord
100
AcDbDimStyleTableRecord
  2
Standard
 70
     0
178
     0
340
11
  0
DIMSTYLE
105
140
102
{ACAD_REACTORS
330
141
330
14B
330
156
330
160
102
}
330
A
100
AcDbSymbolTableRecord
100
AcDbDimStyleTableRecord
  2
DIN
 70
     0
 41
3.5
 42
0.0
 44
1.75
 73
     0
 74
     0
 77
     1
 78
     8
140
3.5
141
1.75
147
1.75
172
     1
173
     1
178
     0
179
     3
271
     2
272
     2
278
    44
284
     8
340
13F
343
13A
344
13A
  0
ENDTAB
  0
TABLE
  2
BLOCK_RECORD
  5
1
330
0
100
AcDbSymbolTable
 70
    10
  0
BLOCK_RECORD
  5
1F
330
1
100
AcDbSymbolTableRecord
100
AcDbBlockTableRecord
  2
*Model_Space
340
22
  0
BLOCK_RECORD
  5
1B
330
1
100
AcDbSymbolTableRecord
100
AcDbBlockTableRecord
  2
*Paper_Space
340
1E
  0
BLOCK_RECORD
  5
12E
330
1
100
AcDbSymbolTableRecord
100
AcDbBlockTableRecord
  2
_OBLIQUE
340
0
  0
BLOCK_RECORD
  5
132
330
1
100
AcDbSymbolTableRecord
100
AcDbBlockTableRecord
  2
_DOT
340
0
  0
BLOCK_RECORD
  5
13A
330
1
100
AcDbSymbolTableRecord
100
AcDbBlockTableRecord
  2
_SE_FILLED
340
0
  0
BLOCK_RECORD
  5
142
330
1
100
AcDbSymbolTableRecord
100
AcDbBlockTableRecord
  2
DMBLK171
340
0
  0
BLOCK_RECORD
  5
14C
330
1
100
AcDbSymbolTableRecord
100
AcDbBlockTableRecord
  2
DMBLK172
340
0
  0
BLOCK_RECORD
  5
157
330
1
100
AcDbSymbolTableRecord
100
AcDbBlockTableRecord
  2
DMBLK173
340
0
  0
BLOCK_RECORD
  5
161
330
1
100
AcDbSymbolTableRecord
100
AcDbBlockTableRecord
  2
DMBLK174
340
0
  0
BLOCK_RECORD
  5
16B
330
1
100
AcDbSymbolTableRecord
100
AcDbBlockTableRecord
  2
Nullpunkt
340
0
102
{BLKREFS
331
175
102
}
  0
BLOCK_RECORD
  5
176
330
1
100
AcDbSymbolTableRecord
100
AcDbBlockTableRecord
  2
Einfügepunkt
340
0
102
{BLKREFS
331
180
102
}
  0
ENDTAB
  0
ENDSEC
  0
SECTION
  2
BLOCKS
  0
BLOCK
  5
20
330
1F
100
AcDbEntity
  8
0
100
AcDbBlockBegin
  2
*Model_Space
 70
     0
 10
0.0
 20
0.0
 30
0.0
  3
*Model_Space
  1

  0
ENDBLK
  5
21
330
1F
100
AcDbEntity
  8
0
100
AcDbBlockEnd
  0
BLOCK
  5
1C
330
1B
100
AcDbEntity
 67
     1
  8
0
100
AcDbBlockBegin
  2
*Paper_Space
 70
     0
 10
0.0
 20
0.0
 30
0.0
  3
*Paper_Space
  1

  0
ENDBLK
  5
1D
330
1B
100
AcDbEntity
 67
     1
  8
0
100
AcDbBlockEnd
  0
BLOCK
  5
12F
330
12E
100
AcDbEntity
  8
0
100
AcDbBlockBegin
  2
_OBLIQUE
 70
     0
 10
0.0
 20
0.0
 30
0.0
  3
_OBLIQUE
  1

  0
LINE
  5
131
330
12E
100
AcDbEntity
  8
0
  6
ByBlock
 62
     0
370
    -2
100
AcDbLine
 10
-0.5
 20
-0.5
 30
0.0
 11
0.5
 21
0.5
 31
0.0
  0
ENDBLK
  5
130
330
12E
100
AcDbEntity
  8
0
100
AcDbBlockEnd
  0
BLOCK
  5
133
330
132
100
AcDbEntity
  8
0
100
AcDbBlockBegin
  2
_DOT
 70
     0
 10
0.0
 20
0.0
 30
0.0
  3
_DOT
  1

  0
POLYLINE
  5
135
330
132
100
AcDbEntity
  8
0
  6
ByBlock
 62
     0
100
AcDb2dPolyline
 66
     1
 10
0.0
 20
0.0
 30
0.0
 70
     1
 40
0.5
 41
0.5
  0
VERTEX
  5
137
330
135
100
AcDbEntity
  8
0
  6
ByBlock
 62
     0
100
AcDbVertex
100
AcDb2dVertex
 10
-0.25
 20
0.0
 30
0.0
 42
1.0
  0
VERTEX
  5
138
330
135
100
AcDbEntity
  8
0
  6
ByBlock
 62
     0
100
AcDbVertex
100
AcDb2dVertex
 10
0.25
 20
0.0
 30
0.0
 42
1.0
  0
SEQEND
  5
139
330
135
100
AcDbEntity
  8
0
  6
ByBlock
 62
     0
  0
LINE
  5
136
330
132
100
AcDbEntity
  8
0
  6
ByBlock
 62
     0
370
    -2
100
AcDbLine
 10
-0.5
 20
0.0
 30
0.0
 11
-1.0
 21
0.0
 31
0.0
  0
ENDBLK
  5
134
330
132
100
AcDbEntity
  8
0
100
AcDbBlockEnd
  0
BLOCK
  5
13D
330
13A
100
AcDbEntity
  8
0
100
AcDbBlockBegin
  2
_SE_FILLED
 70
     0
 10
0.0
 20
0.0
 30
0.0
  3
_SE_FILLED
  1

  0
SOLID
  5
13B
330
13A
100
AcDbEntity
  8
0
 62
     0
100
AcDbTrace
 10
0.0
 20
0.0
 30
0.0
 11
-1.0
 21
-0.1665
 31
0.0
 12
-1.0
 22
0.1665
 32
0.0
 13
0.0
 23
0.0
 33
0.0
  0
LINE
  5
13C
330
13A
100
AcDbEntity
  8
0
 62
     0
100
AcDbLine
 10
0.0
 20
0.0
 30
0.0
 11
-1.0
 21
0.0
 31
0.0
  0
ENDBLK
  5
13E
330
13A
100
AcDbEntity
  8
0
100
AcDbBlockEnd
  0
BLOCK
  5
149
330
142
100
AcDbEntity
  8
0
100
AcDbBlockBegin
  2
DMBLK171
 70
     0
 10
0.0
 20
0.0
 30
0.0
  3
DMBLK171
  1

  0
HATCH
  5
143
330
142
100
AcDbEntity
  8
SK2
  6
Continuous
 62
   136
100
AcDbHatch
 10
0.0
 20
0.0
 30
0.0
210
0.0
220
0.0
230
1.0
  2
SOLID
 70
     1
 71
     0
 91
        1
 92
        1
 93
        3
 72
     1
 10
-16.83999989199153
 20
18.55912931926691
 11
-20.34000000002495
 21
17.975795967928
 72
     1
 10
-20.34000000002495
 20
17.975795967928
 11
-16.83999989199153
 21
17.3924626165891
 72
     1
 10
-16.83999989199153
 20
17.3924626165891
 11
-16.83999989199153
 21
18.55912931926691
 97
        0
 75
     0
 76
     1
 98
        0
  0
HATCH
  5
144
330
142
100
AcDbEntity
  8
SK2
  6
Continuous
 62
   136
100
AcDbHatch
 10
0.0
 20
0.0
 30
0.0
210
0.0
220
0.0
230
1.0
  2
SOLID
 70
     1
 71
     0
 91
        1
 92
        1
 93
        3
 72
     1
 10
7.660000398581116
 20
18.55912931926691
 11
7.660000398581116
 21
17.3924626165891
 72
     1
 10
7.660000398581116
 20
17.3924626165891
 11
11.16000050661453
 21
17.975795967928
 72
     1
 10
11.16000050661454
 20
17.975795967928
 11
7.660000398581117
 21
18.55912931926691
 97
        0
 75
     0
 76
     1
 98
        0
  0
LINE
  5
145
330
142
100
AcDbEntity
  8
SK2
  6
Continuous
 62
   136
100
AcDbLine
 10
-20.34
 20
6.8737444938
 30
0.0
 11
-20.34
 21
19.7257960219
 31
0.0
  0
LINE
  5
146
330
142
100
AcDbEntity
  8
SK2
  6
Continuous
 62
   136
100
AcDbLine
 10
11.16
 20
7.4947226423
 30
0.0
 11
11.16
 21
19.7257960219
 31
0.0
  0
LINE
  5
147
330
142
100
AcDbEntity
  8
SK2
  6
Continuous
 62
   136
100
AcDbLine
 10
-20.34
 20
17.9757959679
 30
0.0
 11
11.1600005066
 21
17.9757959679
 31
0.0
  0
TEXT
  5
148
330
142
100
AcDbEntity
  8
SK2
  6
Continuous
 62
   136
100
AcDbText
 10
-7.5331815649
 20
18.8507959679
 30
0.0
 40
3.5
  1
31,5
  7
SEACAD_Solid_Edge_ISO
 11
-7.5331815649
 21
22.3507959679
 31
0.0
100
AcDbText
 73
     3
  0
ENDBLK
  5
14A
330
142
100
AcDbEntity
  8
0
100
AcDbBlockEnd
  0
BLOCK
  5
154
330
14C
100
AcDbEntity
  8
0
100
AcDbBlockBegin
  2
DMBLK172
 70
     0
 10
0.0
 20
0.0
 30
0.0
  3
DMBLK172
  1

  0
HATCH
  5
14D
330
14C
100
AcDbEntity
  8
SK2
  6
Continuous
 62
   136
100
AcDbHatch
 10
0.0
 20
0.0
 30
0.0
210
0.0
220
0.0
230
1.0
  2
SOLID
 70
     1
 71
     0
 91
        1
 92
        1
 93
        3
 72
     1
 10
23.09350617498159
 20
7.470000108033496
 11
21.92683947230378
 21
7.470000108033496
 72
     1
 10
21.92683947230378
 20
7.470000108033496
 11
22.51017282364269
 21
3.970000000000077
 72
     1
 10
22.51017282364269
 20
3.970000000000077
 11
23.09350617498159
 21
7.470000108033496
 97
        0
 75
     0
 76
     1
 98
        0
  0
HATCH
  5
14E
330
14C
100
AcDbEntity
  8
SK2
  6
Continuous
 62
   136
100
AcDbHatch
 10
0.0
 20
0.0
 30
0.0
210
0.0
220
0.0
230
1.0
  2
SOLID
 70
     1
 71
     0
 91
        1
 92
        1
 93
        3
 72
     1
 10
23.09350617498159
 20
-7.47000010803335
 11
22.51017282364269
 21
-3.969999999999931
 72
     1
 10
22.51017282364269
 20
-3.969999999999931
 11
21.92683947230378
 21
-7.47000010803335
 72
     1
 10
21.92683947230378
 20
-7.47000010803335
 11
23.09350617498159
 21
-7.47000010803335
 97
        0
 75
     0
 76
     1
 98
        0
  0
LINE
  5
14F
330
14C
100
AcDbEntity
  8
SK2
  6
Continuous
 62
   136
100
AcDbLine
 10
10.76
 20
3.97
 30
0.0
 11
24.2601728777
 21
3.97
 31
0.0
  0
LINE
  5
150
330
14C
100
AcDbEntity
  8
SK2
  6
Continuous
 62
   136
100
AcDbLine
 10
10.76
 20
-3.97
 30
0.0
 11
24.2601728777
 21
-3.97
 31
0.0
  0
LINE
  5
151
330
14C
100
AcDbEntity
  8
SK2
  6
Continuous
 62
   136
100
AcDbLine
 10
22.5101728236
 20
23.6022724223
 30
0.0
 11
22.5101728236
 21
-10.9700001392
 31
0.0
  0
TEXT
  5
152
330
14C
100
AcDbEntity
  8
SK2
  6
Continuous
 62
   136
100
AcDbText
 10
21.6351728236
 20
15.2977270877
 30
0.0
 40
3.5
  1
7,94
 50
90.0
  7
SEACAD_Solid_Edge_ISO
 11
18.1351728236
 21
15.2977270877
 31
0.0
100
AcDbText
 73
     3
  0
TEXT
  5
153
330
14C
100
AcDbEntity
  8
SK2
  6
Continuous
 62
   136
100
AcDbText
 10
21.6351728236
 20
11.2249998149
 30
0.0
 40
3.5
  1
ø
 50
90.0
  7
SEACAD_Solid_Edge_ISO
 11
18.1351728236
 21
11.2249998149
 31
0.0
100
AcDbText
 73
     3
  0
ENDBLK
  5
155
330
14C
100
AcDbEntity
  8
0
100
AcDbBlockEnd
  0
BLOCK
  5
15E
330
157
100
AcDbEntity
  8
0
100
AcDbBlockBegin
  2
DMBLK173
 70
     0
 10
0.0
 20
0.0
 30
0.0
  3
DMBLK173
  1

  0
HATCH
  5
158
330
157
100
AcDbEntity
  8
SK2
  6
Continuous
 62
   136
100
AcDbHatch
 10
0.0
 20
0.0
 30
0.0
210
0.0
220
0.0
230
1.0
  2
SOLID
 70
     1
 71
     0
 91
        1
 92
        1
 93
        3
 72
     1
 10
-3.500000108033418
 20
-18.61497880112282
 11
0.0000000000000009
 21
-18.03164544978391
 72
     1
 10
0.0000000000000009
 20
-18.03164544978391
 11
-3.500000108033418
 21
-17.44831209844501
 72
     1
 10
-3.500000108033418
 20
-17.44831209844501
 11
-3.500000108033418
 21
-18.61497880112282
 97
        0
 75
     0
 76
     1
 98
        0
  0
HATCH
  5
159
330
157
100
AcDbEntity
  8
SK2
  6
Continuous
 62
   136
100
AcDbHatch
 10
0.0
 20
0.0
 30
0.0
210
0.0
220
0.0
230
1.0
  2
SOLID
 70
     1
 71
     0
 91
        1
 92
        1
 93
        3
 72
     1
 10
14.66000010803003
 20
-18.61497880112282
 11
14.66000010803003
 21
-17.44831209844501
 72
     1
 10
14.66000010803003
 20
-17.44831209844501
 11
11.15999999999661
 21
-18.03164544978391
 72
     1
 10
11.15999999999661
 20
-18.03164544978391
 11
14.66000010803003
 21
-18.61497880112282
 97
        0
 75
     0
 76
     1
 98
        0
  0
LINE
  5
15A
330
157
100
AcDbEntity
  8
SK2
  6
Continuous
 62
   136
100
AcDbLine
 10
0.0
 20
-9.9996746285
 30
0.0
 11
0.0
 21
-19.7816455038
 31
0.0
  0
LINE
  5
15B
330
157
100
AcDbEntity
  8
SK2
  6
Continuous
 62
   136
100
AcDbLine
 10
11.16
 20
-7.0254540846
 30
0.0
 11
11.16
 21
-19.7816455038
 31
0.0
  0
LINE
  5
15C
330
157
100
AcDbEntity
  8
SK2
  6
Continuous
 62
   136
100
AcDbLine
 10
-7.0000002161
 20
-18.0316454498
 30
0.0
 11
18.1600004435
 21
-18.0316454498
 31
0.0
  0
TEXT
  5
15D
330
157
100
AcDbEntity
  8
SK2
  6
Continuous
 62
   136
100
AcDbText
 10
2.0402273864
 20
-17.1566454498
 30
0.0
 40
3.5
  1
11,16
  7
SEACAD_Solid_Edge_ISO
 11
2.0402273864
 21
-13.6566454498
 31
0.0
100
AcDbText
 73
     3
  0
ENDBLK
  5
15F
330
157
100
AcDbEntity
  8
0
100
AcDbBlockEnd
  0
BLOCK
  5
169
330
161
100
AcDbEntity
  8
0
100
AcDbBlockBegin
  2
DMBLK174
 70
     0
 10
0.0
 20
0.0
 30
0.0
  3
DMBLK174
  1

  0
HATCH
  5
162
330
161
100
AcDbEntity
  8
SK2
  6
Continuous
 62
   136
100
AcDbHatch
 10
0.0
 20
0.0
 30
0.0
210
0.0
220
0.0
230
1.0
  2
SOLID
 70
     1
 71
     0
 91
        1
 92
        1
 93
        3
 72
     1
 10
-26.54834037336211
 20
6.499674520429631
 11
-25.3816736706843
 21
6.499674520429631
 72
     1
 10
-25.3816736706843
 20
6.499674520429631
 11
-25.9650070220232
 21
9.99967462846305
 72
     1
 10
-25.9650070220232
 20
9.99967462846305
 11
-26.54834037336211
 21
6.499674520429631
 97
        0
 75
     0
 76
     1
 98
        0
  0
HATCH
  5
163
330
161
100
AcDbEntity
  8
SK2
  6
Continuous
 62
   136
100
AcDbHatch
 10
0.0
 20
0.0
 30
0.0
210
0.0
220
0.0
230
1.0
  2
SOLID
 70
     1
 71
     0
 91
        1
 92
        1
 93
        3
 72
     1
 10
-26.54834037336211
 20
-6.499674753311615
 11
-25.9650070220232
 21
-9.999674861345033
 72
     1
 10
-25.9650070220232
 20
-9.999674861345033
 11
-25.3816736706843
 21
-6.499674753311615
 72
     1
 10
-25.3816736706843
 20
-6.499674753311615
 11
-26.54834037336211
 21
-6.499674753311615
 97
        0
 75
     0
 76
     1
 98
        0
  0
LINE
  5
164
330
161
100
AcDbEntity
  8
SK2
  6
Continuous
 62
   136
100
AcDbLine
 10
0.0
 20
9.9996746285
 30
0.0
 11
-27.715007076
 21
9.9996746285
 31
0.0
  0
LINE
  5
165
330
161
100
AcDbEntity
  8
SK2
  6
Continuous
 62
   136
100
AcDbLine
 10
0.0
 20
-9.9996746285
 30
0.0
 11
-27.715007076
 21
-9.9996746285
 31
0.0
  0
LINE
  5
166
330
161
100
AcDbEntity
  8
SK2
  6
Continuous
 62
   136
100
AcDbLine
 10
-25.965007022
 20
9.9996746285
 30
0.0
 11
-25.965007022
 21
-9.9996748613
 31
0.0
  0
TEXT
  5
167
330
161
100
AcDbEntity
  8
SK2
  6
Continuous
 62
   136
100
AcDbText
 10
-26.840007022
 20
-0.0715910255
 30
0.0
 40
3.5
  1
20
 50
90.0
  7
SEACAD_Solid_Edge_ISO
 11
-30.340007022
 21
-0.0715910255
 31
0.0
100
AcDbText
 73
     3
  0
TEXT
  5
168
330
161
100
AcDbEntity
  8
SK2
  6
Continuous
 62
   136
100
AcDbText
 10
-26.840007022
 20
-4.1443182983
 30
0.0
 40
3.5
  1
ø
 50
90.0
  7
SEACAD_Solid_Edge_ISO
 11
-30.340007022
 21
-4.1443182983
 31
0.0
100
AcDbText
 73
     3
  0
ENDBLK
  5
16A
330
161
100
AcDbEntity
  8
0
100
AcDbBlockEnd
  0
BLOCK
  5
173
330
16B
100
AcDbEntity
  8
0
100
AcDbBlockBegin
  2
Nullpunkt
 70
     0
 10
0.0
 20
0.0
 30
0.0
  3
Nullpunkt
  1

  0
HATCH
  5
16C
330
16B
100
AcDbEntity
  8
SK2
  6
Continuous
 62
     7
100
AcDbHatch
 10
0.0
 20
0.0
 30
0.0
210
0.0
220
0.0
230
1.0
  2
SOLID
 70
     1
 71
     0
 91
        1
 92
        1
 93
        3
 72
     1
 10
-1.0
 20
0.0
 11
0.0000000000000009
 21
0.0
 72
     1
 10
0.0
 20
0.0
 11
0.0
 21
1.000000000000001
 72
     2
 10
0.0
 20
0.0
 40
1.0
 50
90.0
 51
180.0
 73
     1
 97
        0
 75
     0
 76
     1
 98
        0
  0
HATCH
  5
16D
330
16B
100
AcDbEntity
  8
SK2
  6
Continuous
 62
     7
100
AcDbHatch
 10
0.0
 20
0.0
 30
0.0
210
0.0
220
0.0
230
1.0
  2
SOLID
 70
     1
 71
     0
 91
        1
 92
        1
 93
        3
 72
     2
 10
0.0
 20
0.0
 40
1.0
 50
270.0
 51
360.0
 73
     1
 72
     1
 10
1.0
 20
0.0
 11
-0.0000000000000009
 21
0.0
 72
     1
 10
0.0
 20
0.0
 11
0.0
 21
-1.000000000000001
 97
        0
 75
     0
 76
     1
 98
        0
  0
CIRCLE
  5
16E
330
16B
100
AcDbEntity
  8
SK2
  6
Continuous
 62
     7
100
AcDbCircle
 10
0.0
 20
0.0
 30
0.0
 40
1.0
  0
LINE
  5
16F
330
16B
100
AcDbEntity
  8
SK1
  6
Continuous
100
AcDbLine
 10
-1.0
 20
0.0
 30
0.0
 11
1.0
 21
0.0
 31
0.0
  0
LINE
  5
170
330
16B
100
AcDbEntity
  8
SK1
  6
Continuous
100
AcDbLine
 10
0.0
 20
1.0
 30
0.0
 11
0.0
 21
-1.0
 31
0.0
  0
POINT
  5
171
330
16B
100
AcDbEntity
  8
SK1
  6
Continuous
100
AcDbPoint
 10
0.0
 20
0.0
 30
0.0
  0
POINT
  5
172
330
16B
100
AcDbEntity
  8
SK1
  6
Continuous
100
AcDbPoint
 10
0.0
 20
0.0
 30
0.0
  0
ENDBLK
  5
174
330
16B
100
AcDbEntity
  8
0
100
AcDbBlockEnd
  0
BLOCK
  5
17E
330
176
100
AcDbEntity
  8
0
100
AcDbBlockBegin
  2
Einfügepunkt
 70
     0
 10
0.0
 20
0.0
 30
0.0
  3
Einfügepunkt
  1

  0
HATCH
  5
177
330
176
100
AcDbEntity
  8
SK2
  6
Continuous
 62
     7
100
AcDbHatch
 10
0.0
 20
0.0
 30
0.0
210
0.0
220
0.0
230
1.0
  2
SOLID
 70
     1
 71
     0
 91
        1
 92
        1
 93
        3
 72
     1
 10
-0.4502381196756744
 20
-0.0000000000000018
 11
0.0000000000000033
 21
-0.0000000000000018
 72
     1
 10
0.0
 20
-0.0000000000000018
 11
0.0
 21
0.4502381196756812
 72
     2
 10
0.0
 20
-0.0000000000000018
 40
0.4502381196756812
 50
90.0
 51
180.0
 73
     1
 97
        0
 75
     0
 76
     1
 98
        0
  0
HATCH
  5
178
330
176
100
AcDbEntity
  8
SK2
  6
Continuous
 62
     7
100
AcDbHatch
 10
0.0
 20
0.0
 30
0.0
210
0.0
220
0.0
230
1.0
  2
SOLID
 70
     1
 71
     0
 91
        1
 92
        1
 93
        3
 72
     2
 10
0.0
 20
-0.0000000000000018
 40
0.4502381196756812
 50
270.0
 51
360.0
 73
     1
 72
     1
 10
0.4502381196756815
 20
-0.0000000000000018
 11
0.0000000000000038
 21
-0.0000000000000018
 72
     1
 10
0.0
 20
-0.0000000000000018
 11
0.0
 21
-0.4502381196756812
 97
        0
 75
     0
 76
     1
 98
        0
  0
CIRCLE
  5
179
330
176
100
AcDbEntity
  8
SK2
  6
Continuous
 62
     7
100
AcDbCircle
 10
0.0
 20
0.0
 30
0.0
 40
0.4502381196756812
  0
LINE
  5
17A
330
176
100
AcDbEntity
  8
SK1
  6
Continuous
100
AcDbLine
 10
-0.4502381197
 20
0.0
 30
0.0
 11
0.4502381197
 21
0.0
 31
0.0
  0
LINE
  5
17B
330
176
100
AcDbEntity
  8
SK1
  6
Continuous
100
AcDbLine
 10
0.0
 20
0.4502381197
 30
0.0
 11
0.0
 21
-0.4502381197
 31
0.0
  0
POINT
  5
17C
330
176
100
AcDbEntity
  8
SK2
  6
Continuous
 62
     7
100
AcDbPoint
 10
0.0
 20
0.0
 30
0.0
  0
POINT
  5
17D
330
176
100
AcDbEntity
  8
SK2
  6
Continuous
 62
     7
100
AcDbPoint
 10
0.0
 20
0.0
 30
0.0
  0
ENDBLK
  5
17F
330
176
100
AcDbEntity
  8
0
100
AcDbBlockEnd
  0
ENDSEC
  0
SECTION
  2
ENTITIES
  0
LINE
  5
40
330
1F
100
AcDbEntity
  8
SK1
  6
Continuous
100
AcDbLine
 10
-20.34
 20
0.3
 30
0.0
 11
-20.34
 21
4.6483393093
 31
0.0
  0
LINE
  5
41
330
1F
100
AcDbEntity
  8
SK1
  6
Continuous
100
AcDbLine
 10
-20.0817519303
 20
0.3
 30
0.0
 11
-20.0817519303
 21
4.858598577
 31
0.0
  0
LINE
  5
44
330
1F
100
AcDbEntity
  8
SK3
100
AcDbLine
 10
-19.1890003701
 20
0.3
 30
0.0
 11
-19.1890003701
 21
2.5870553477
 31
0.0
  0
LINE
  5
45
330
1F
100
AcDbEntity
  8
SK1
  6
Continuous
100
AcDbLine
 10
-20.34
 20
-0.3
 30
0.0
 11
-20.0817519303
 21
-0.3
 31
0.0
  0
LINE
  5
46
330
1F
100
AcDbEntity
  8
SK1
  6
Continuous
100
AcDbLine
 10
-20.0817519303
 20
-0.3
 30
0.0
 11
-3.1363957032
 21
-0.3
 31
0.0
  0
LINE
  5
47
330
1F
100
AcDbEntity
  8
SK1
  6
Continuous
100
AcDbLine
 10
-20.34
 20
0.3
 30
0.0
 11
-20.0817519303
 21
0.3
 31
0.0
  0
LINE
  5
48
330
1F
100
AcDbEntity
  8
SK1
  6
Continuous
100
AcDbLine
 10
-20.0817519303
 20
0.3
 30
0.0
 11
-3.1363957032
 21
0.3
 31
0.0
  0
LINE
  5
49
330
1F
100
AcDbEntity
  8
SK3
100
AcDbLine
 10
-3.1363957032
 20
-0.3
 30
0.0
 11
-2.5243352313
 21
-0.3
 31
0.0
  0
ARC
  5
4A
330
1F
100
AcDbEntity
  8
SK1
  6
Continuous
100
AcDbCircle
 10
-3.1400087408
 20
0.0
 30
0.0
 40
0.3000217559456841
100
AcDbArc
 50
270.6900059939
 51
89.3099940061
  0
ARC
  5
4B
330
1F
100
AcDbEntity
  8
SK3
100
AcDbCircle
 10
-2.5244207146
 20
0.0
 30
0.0
 40
0.3000000121789852
100
AcDbArc
 50
270.0163261036
 51
89.9836738964
  0
SPLINE
  5
4C
330
1F
100
AcDbEntity
  8
SK3
100
AcDbSpline
210
0.0
220
0.0
230
1.0
 70
     8
 71
     3
 72
     8
 73
     4
 74
     0
 42
0.0000002498106204
 43
0.0000000001
 12
1.0
 22
0.0
 32
0.0
 13
1.0
 23
0.0
 33
0.0
 40
0.0
 40
0.0
 40
0.0
 40
0.0
 40
1.0
 40
1.0
 40
1.0
 40
1.0
 10
-15.31151467035696
 20
3.119470690332105
 30
0.0
 10
-15.31752080938486
 20
3.107492656846303
 30
0.0
 10
-15.3226494007463
 20
3.095126716824742
 30
0.0
 10
-15.32681700287482
 20
3.082556016957168
 30
0.0
  0
LINE
  5
4D
330
1F
100
AcDbEntity
  8
SK3
100
AcDbLine
 10
-2.5243352313
 20
0.3
 30
0.0
 11
-3.1363957032
 21
0.3
 31
0.0
  0
LINE
  5
4E
330
1F
100
AcDbEntity
  8
SK1
  6
Continuous
100
AcDbLine
 10
11.16
 20
7.255064144
 30
0.0
 11
11.16
 21
7.7343811406
 31
0.0
  0
LINE
  5
4F
330
1F
100
AcDbEntity
  8
SK3
100
AcDbLine
 10
-19.1890003701
 20
-2.5870553477
 30
0.0
 11
-19.1890003701
 21
-0.3
 31
0.0
  0
LINE
  5
50
330
1F
100
AcDbEntity
  8
SK1
  6
Continuous
100
AcDbLine
 10
-20.0817519303
 20
-4.858598577
 30
0.0
 11
-20.0817519303
 21
-0.3
 31
0.0
  0
LINE
  5
51
330
1F
100
AcDbEntity
  8
SK1
  6
Continuous
100
AcDbLine
 10
-20.34
 20
-4.6483393093
 30
0.0
 11
-20.34
 21
-0.3
 31
0.0
  0
LINE
  5
52
330
1F
100
AcDbEntity
  8
SK3
100
AcDbLine
 10
-20.34
 20
-3.0581025002
 30
0.0
 11
-19.1890003701
 21
-2.5870553477
 31
0.0
  0
SPLINE
  5
53
330
1F
100
AcDbEntity
  8
SK1
  6
Continuous
100
AcDbSpline
210
0.0
220
0.0
230
1.0
 70
     8
 71
     3
 72
    10
 73
     6
 74
     0
 42
0.0000000269130255
 43
0.0000000001
 12
1.0
 22
0.0
 32
0.0
 13
1.0
 23
0.0
 33
0.0
 40
0.0
 40
0.0
 40
0.0
 40
0.0
 40
0.5
 40
0.5
 40
1.0
 40
1.0
 40
1.0
 40
1.0
 10
-20.34000000002484
 20
-5.072603378047141
 30
0.0
 10
-20.34000000002484
 20
-5.123143066141724
 30
0.0
 10
-20.31326377621729
 20
-5.173701626581073
 30
0.0
 10
-20.21985489208371
 20
-5.249866329586734
 30
0.0
 10
-20.15328210195917
 20
-5.275747947161899
 30
0.0
 10
-20.08175193031286
 20
-5.282862645692004
 30
0.0
  0
SPLINE
  5
54
330
1F
100
AcDbEntity
  8
SK1
  6
Continuous
100
AcDbSpline
210
0.0
220
0.0
230
1.0
 70
     8
 71
     3
 72
    11
 73
     7
 74
     0
 42
0.0000000005872358
 43
0.0000000001
 12
1.0
 22
0.0
 32
0.0
 13
1.0
 23
0.0
 33
0.0
 40
0.0
 40
0.0
 40
0.0
 40
0.0
 40
0.7363654467307729
 40
0.7363654467307729
 40
0.7363654467307729
 40
1.0
 40
1.0
 40
1.0
 40
1.0
 10
-20.08175193031286
 20
-5.282862645692004
 30
0.0
 10
-15.9224445791693
 20
-5.69656524454366
 30
0.0
 10
-11.76312064060971
 20
-6.11018446113887
 30
0.0
 10
-7.603788294765344
 20
-6.523761393935456
 30
0.0
 10
-6.114658502022613
 20
-6.671830766856301
 30
0.0
 10
-4.625527567712
 20
-6.819894399492111
 30
0.0
 10
-3.136395703209661
 20
-6.96795335422323
 30
0.0
  0
LINE
  5
55
330
1F
100
AcDbEntity
  8
SK1
  6
Continuous
100
AcDbLine
 10
-20.34
 20
-4.6483393093
 30
0.0
 11
-20.34
 21
-5.072603378
 31
0.0
  0
SPLINE
  5
56
330
1F
100
AcDbEntity
  8
SK1
  6
Continuous
100
AcDbSpline
210
0.0
220
0.0
230
1.0
 70
     8
 71
     3
 72
    10
 73
     6
 74
     0
 42
0.0000000269130255
 43
0.0000000001
 12
1.0
 22
0.0
 32
0.0
 13
1.0
 23
0.0
 33
0.0
 40
0.0
 40
0.0
 40
0.0
 40
0.0
 40
0.5
 40
0.5
 40
1.0
 40
1.0
 40
1.0
 40
1.0
 10
-20.34000000002484
 20
-4.648339309335213
 30
0.0
 10
-20.34000000002484
 20
-4.698878997429786
 30
0.0
 10
-20.31326377621729
 20
-4.749437557869147
 30
0.0
 10
-20.21985489208371
 20
-4.825602260874799
 30
0.0
 10
-20.15328210195917
 20
-4.85148387844997
 30
0.0
 10
-20.08175193031286
 20
-4.858598576980076
 30
0.0
  0
SPLINE
  5
57
330
1F
100
AcDbEntity
  8
SK1
  6
Continuous
100
AcDbSpline
210
0.0
220
0.0
230
1.0
 70
     8
 71
     3
 72
    11
 73
     7
 74
     0
 42
0.0000000005872358
 43
0.0000000001
 12
1.0
 22
0.0
 32
0.0
 13
1.0
 23
0.0
 33
0.0
 40
0.0
 40
0.0
 40
0.0
 40
0.0
 40
0.736365446730773
 40
0.736365446730773
 40
0.736365446730773
 40
1.0
 40
1.0
 40
1.0
 40
1.0
 10
-20.08175193031286
 20
-4.858598576980076
 30
0.0
 10
-15.9224445791693
 20
-5.272301175831731
 30
0.0
 10
-11.76312064060971
 20
-5.685920392426941
 30
0.0
 10
-7.603788294765344
 20
-6.099497325223528
 30
0.0
 10
-6.114658502022613
 20
-6.247566698144371
 30
0.0
 10
-4.625527567712
 20
-6.395630330780183
 30
0.0
 10
-3.136395703209662
 20
-6.5436892855113
 30
0.0
  0
LINE
  5
58
330
1F
100
AcDbEntity
  8
SK3
100
AcDbLine
 10
-20.34
 20
-3.4823665689
 30
0.0
 11
-19.1890003701
 21
-3.0113194164
 31
0.0
  0
LINE
  5
59
330
1F
100
AcDbEntity
  8
SK3
100
AcDbLine
 10
-2.5243352313
 20
-3.0113194164
 30
0.0
 11
-19.1890003701
 21
-3.0113194164
 31
0.0
  0
ELLIPSE
  5
5A
330
1F
100
AcDbEntity
  8
SK1
  6
Continuous
100
AcDbEllipse
 10
-64.598235551
 20
-0.2121320338
 30
0.0
 11
62.20000000724249
 21
-1.142906234423084E-9
 31
0.0
210
0.0
220
0.0
230
1.0
 40
0.7071067811
 41
-0.1542146184779973
 42
-0.1448828123590342
  0
SPLINE
  5
5B
330
1F
100
AcDbEntity
  8
SK1
  6
Continuous
100
AcDbSpline
210
0.0
220
0.0
230
1.0
 70
     8
 71
     3
 72
    35
 73
    31
 74
     0
 42
0.0000000123418823
 43
0.0000000001
 12
1.0
 22
0.0
 32
0.0
 13
1.0
 23
0.0
 33
0.0
 40
0.0
 40
0.0
 40
0.0
 40
0.0
 40
0.1074285959530424
 40
0.1074285959530424
 40
0.1074285959530424
 40
0.2148567029690131
 40
0.2148567029690131
 40
0.2148567029690131
 40
0.3222951556111772
 40
0.3222951556111772
 40
0.3222951556111772
 40
0.4297633880495585
 40
0.4297633880495585
 40
0.4297633880495585
 40
0.4999992835871162
 40
0.4999992835871162
 40
0.4999992835871162
 40
0.6074617884167727
 40
0.6074617884167727
 40
0.6074617884167727
 40
0.7149235977191587
 40
0.7149235977191587
 40
0.7149235977191587
 40
0.8223950033241767
 40
0.8223950033241767
 40
0.8223950033241767
 40
0.929857499613002
 40
0.929857499613002
 40
0.929857499613002
 40
1.0
 40
1.0
 40
1.0
 40
1.0
 10
-3.136395703209662
 20
-6.5436892855113
 30
0.0
 10
-3.103157912648631
 20
-6.546993997904708
 30
0.0
 10
-3.069487393884733
 20
-6.554569091893361
 30
0.0
 10
-3.03816861055815
 20
-6.565768015754906
 30
0.0
 10
-3.006849879389586
 20
-6.576966920965862
 30
0.0
 10
-2.977018914274508
 20
-6.592096522736387
 30
0.0
 10
-2.951134325888329
 20
-6.609853372502158
 30
0.0
 10
-2.925247179275222
 20
-6.627611977213792
 30
0.0
 10
-2.902592633809719
 20
-6.648485146132185
 30
0.0
 10
-2.885032287893935
 20
-6.670686386106849
 30
0.0
 10
-2.867467217372117
 20
-6.692893599318765
 30
0.0
 10
-2.854514141950209
 20
-6.717039601619474
 30
0.0
 10
-2.847236641976943
 20
-6.74108337598067
 30
0.0
 10
-2.842441561855528
 20
-6.756925605442253
 30
0.0
 10
-2.840000000024821
 20
-6.772962225902722
 30
0.0
 10
-2.840000000024821
 20
-6.788605988047927
 30
0.0
 10
-2.840000000024821
 20
-6.812347268695226
 30
0.0
 10
-2.845712459777098
 20
-6.835716893183573
 30
0.0
 10
-2.856668421704929
 20
-6.856799137803359
 30
0.0
 10
-2.867624342421124
 20
-6.877881303120771
 30
0.0
 10
-2.884126172472487
 20
-6.897259366623999
 30
0.0
 10
-2.90481878107648
 20
-6.913379466639251
 30
0.0
 10
-2.925513149049539
 20
-6.929500937250442
 30
0.0
 10
-2.950970593371542
 20
-6.942811360330755
 30
0.0
 10
-2.979096063283202
 20
-6.952267550645725
 30
0.0
 10
-3.007219105747958
 20
-6.96172292481789
 30
0.0
 10
-3.038786301056098
 20
-6.967588055795109
 30
0.0
 10
-3.071191070405165
 20
-6.96941964863904
 30
0.0
 10
-3.092515486608938
 20
-6.970624954182154
 30
0.0
 10
-3.114516384743072
 20
-6.970128735129363
 30
0.0
 10
-3.136395703209661
 20
-6.96795335422323
 30
0.0
  0
SPLINE
  5
5C
330
1F
100
AcDbEntity
  8
SK3
100
AcDbSpline
210
0.0
220
0.0
230
1.0
 70
     8
 71
     3
 72
    35
 73
    31
 74
     0
 42
0.0000000122867127
 43
0.0000000001
 12
1.0
 22
0.0
 32
0.0
 13
1.0
 23
0.0
 33
0.0
 40
0.0
 40
0.0
 40
0.0
 40
0.0
 40
0.1073116002791865
 40
0.1073116002791865
 40
0.1073116002791865
 40
0.2146313029660605
 40
0.2146313029660605
 40
0.2146313029660605
 40
0.3218601853836681
 40
0.3218601853836681
 40
0.3218601853836681
 40
0.429210464851205
 40
0.429210464851205
 40
0.429210464851205
 40
0.4999971294855871
 40
0.4999971294855871
 40
0.4999971294855871
 40
0.6074290988594232
 40
0.6074290988594232
 40
0.6074290988594232
 40
0.7148612178939376
 40
0.7148612178939376
 40
0.7148612178939376
 40
0.8222844008015875
 40
0.8222844008015875
 40
0.8222844008015875
 40
0.9295969694225735
 40
0.9295969694225735
 40
0.9295969694225735
 40
1.0
 40
1.0
 40
1.0
 40
1.0
 10
-2.524335231330912
 20
-3.011319416436629
 30
0.0
 10
-2.490795519206602
 20
-3.011319416436629
 30
0.0
 10
-2.456792210977899
 20
-3.007561826812438
 30
0.0
 10
-2.425141491261357
 20
-3.000294712684528
 30
0.0
 10
-2.393489107075066
 20
-2.993027216388637
 30
0.0
 10
-2.36331808394063
 20
-2.98204465806278
 30
0.0
 10
-2.337127765454628
 20
-2.968128565620911
 30
0.0
 10
-2.310958384513206
 20
-2.954223598236803
 30
0.0
 10
-2.288041137330214
 20
-2.93700055572967
 30
0.0
 10
-2.270258170840889
 20
-2.917736558780427
 30
0.0
 10
-2.252455404359598
 20
-2.898451112823504
 30
0.0
 10
-2.239306965642398
 20
-2.876582463680107
 30
0.0
 10
-2.231890659885202
 20
-2.853835227707146
 30
0.0
 10
-2.226960994447854
 20
-2.83871499579622
 30
0.0
 10
-2.224450184864477
 20
-2.822983966772884
 30
0.0
 10
-2.22445018486445
 20
-2.80721392131087
 30
0.0
 10
-2.224450184864408
 20
-2.783471572734065
 30
0.0
 10
-2.230230326163353
 20
-2.759084108056305
 30
0.0
 10
-2.241316274390464
 20
-2.736119626965352
 30
0.0
 10
-2.252402224610525
 20
-2.713155141746011
 30
0.0
 10
-2.269100331029978
 20
-2.69098437476404
 30
0.0
 10
-2.290038767504858
 20
-2.671568461734819
 30
0.0
 10
-2.310975092600644
 20
-2.652154506557268
 30
0.0
 10
-2.336730439647706
 20
-2.634965961286401
 30
0.0
 10
-2.365177106440349
 20
-2.621575281484456
 30
0.0
 10
-2.393594878937718
 20
-2.60819820307416
 30
0.0
 10
-2.425483016362842
 20
-2.59824900166871
 30
0.0
 10
-2.458196778419538
 20
-2.592648396465349
 30
0.0
 10
-2.479833743318179
 20
-2.588944142029976
 30
0.0
 10
-2.502152273439837
 20
-2.5870553477247
 30
0.0
 10
-2.524335231330912
 20
-2.587055347724701
 30
0.0
  0
SPLINE
  5
5D
330
1F
100
AcDbEntity
  8
SK3
100
AcDbSpline
210
0.0
220
0.0
230
1.0
 70
     8
 71
     3
 72
    11
 73
     7
 74
     0
 42
0.0000003739509403
 43
0.0000000001
 12
1.0
 22
0.0
 32
0.0
 13
1.0
 23
0.0
 33
0.0
 40
0.0
 40
0.0
 40
0.0
 40
0.0
 40
0.3278208476846447
 40
0.3278208476846447
 40
0.3278208476846447
 40
1.0
 40
1.0
 40
1.0
 40
1.0
 10
-15.32968533642641
 20
7.277211078547343
 30
0.0
 10
-15.33147438506366
 20
7.2745296124739
 30
0.0
 10
-15.33303343566971
 20
7.271851418502972
 30
0.0
 10
-15.33435301975099
 20
7.269185425863832
 30
0.0
 10
-15.33708645898757
 20
7.263662982097205
 30
0.0
 10
-15.33883823228154
 20
7.25814084883722
 30
0.0
 10
-15.33958501005716
 20
7.252702769388104
 30
0.0
  0
LINE
  5
5E
330
1F
100
AcDbEntity
  8
SK3
100
AcDbLine
 10
-2.5243352313
 20
-2.5870553477
 30
0.0
 11
-19.1890003701
 21
-2.5870553477
 31
0.0
  0
LINE
  5
5F
330
1F
100
AcDbEntity
  8
SK1
  6
Continuous
100
AcDbLine
 10
6.36
 20
9.811579829
 30
0.0
 11
6.36
 21
10.5
 31
0.0
  0
LINE
  5
60
330
1F
100
AcDbEntity
  8
SK1
  6
Continuous
100
AcDbLine
 10
6.6198076211
 20
9.811579829
 30
0.0
 11
6.6198076211
 21
10.5
 31
0.0
  0
LINE
  5
61
330
1F
100
AcDbEntity
  8
SK1
  6
Continuous
100
AcDbLine
 10
6.36
 20
9.811579829
 30
0.0
 11
6.6198076211
 21
9.811579829
 31
0.0
  0
LINE
  5
62
330
1F
100
AcDbEntity
  8
SK1
  6
Continuous
100
AcDbLine
 10
6.36
 20
9.5819697696
 30
0.0
 11
6.6198076211
 21
9.5819697696
 31
0.0
  0
LINE
  5
63
330
1F
100
AcDbEntity
  8
SK1
  6
Continuous
100
AcDbLine
 10
11.035
 20
7.455236463
 30
0.0
 11
11.035
 21
7.9508874915
 31
0.0
  0
LINE
  5
64
330
1F
100
AcDbEntity
  8
SK1
  6
Continuous
100
AcDbLine
 10
11.16
 20
7.0254540846
 30
0.0
 11
11.16
 21
3.2347560238
 31
0.0
  0
LINE
  5
65
330
1F
100
AcDbEntity
  8
SK1
  6
Continuous
100
AcDbLine
 10
3.1043307596
 20
9.7523901463
 30
0.0
 11
3.1043307596
 21
10.4359598646
 31
0.0
  0
LINE
  5
66
330
1F
100
AcDbEntity
  8
SK1
  6
Continuous
100
AcDbLine
 10
3.56
 20
9.3862775107
 30
0.0
 11
3.56
 21
10.0398526371
 31
0.0
  0
LINE
  5
67
330
1F
100
AcDbEntity
  8
SK1
  6
Continuous
100
AcDbLine
 10
3.76
 20
8.1477768539
 30
0.0
 11
3.76
 21
8.7
 31
0.0
  0
LINE
  5
68
330
1F
100
AcDbEntity
  8
SK1
  6
Continuous
100
AcDbLine
 10
6.16
 20
8.7
 30
0.0
 11
6.16
 21
8.1477768539
 31
0.0
  0
ARC
  5
69
330
1F
100
AcDbEntity
  8
SK1
  6
Continuous
100
AcDbCircle
 10
3.1698769151
 20
9.1377371284
 30
0.0
 40
0.3905821020576978
100
AcDbArc
 50
2.7780399913
 51
99.6608950409
  0
SPLINE
  5
6A
330
1F
100
AcDbEntity
  8
SK1
  6
Continuous
100
AcDbSpline
210
0.0
220
0.0
230
1.0
 70
     8
 71
     3
 72
     8
 73
     4
 74
     0
 42
0.0000000019981515
 43
0.0000000001
 12
1.0
 22
0.0
 32
0.0
 13
1.0
 23
0.0
 33
0.0
 40
0.0
 40
0.0
 40
0.0
 40
0.0
 40
1.0
 40
1.0
 40
1.0
 40
1.0
 10
6.619807621110477
 20
9.581969769560406
 30
0.0
 10
8.091586662782872
 20
8.79659911781793
 30
0.0
 10
9.56333296026385
 20
8.011176071764488
 30
0.0
 10
11.03499999997516
 20
7.22562640356201
 30
0.0
  0
ARC
  5
6B
330
1F
100
AcDbEntity
  8
SK1
  6
Continuous
100
AcDbCircle
 10
10.9314792455
 20
7.0218665972
 30
0.0
 40
0.2285489122187468
100
AcDbArc
 50
0.8993975288
 51
63.0670226622
  0
ARC
  5
6C
330
1F
100
AcDbEntity
  8
SK3
100
AcDbCircle
 10
10.7741843561
 20
3.9283696319
 30
0.0
 40
0.386120719422675
100
AcDbArc
 50
267.8947344657
 51
357.7222378422
  0
LINE
  5
6D
330
1F
100
AcDbEntity
  8
SK3
100
AcDbLine
 10
10.76
 20
3.5425095355
 30
0.0
 11
-15.4080526594
 21
3.5425095355
 31
0.0
  0
LINE
  5
6E
330
1F
100
AcDbEntity
  8
SK1
  6
Continuous
100
AcDbLine
 10
6.36
 20
9.811579829
 30
0.0
 11
6.36
 21
9.5819697696
 31
0.0
  0
ARC
  5
6F
330
1F
100
AcDbEntity
  8
SK1
  6
Continuous
100
AcDbCircle
 10
6.1672842399
 20
8.3405150226
 30
0.0
 40
0.1928757677871505
100
AcDbArc
 50
267.8356250557
 51
357.6660087198
  0
LINE
  5
70
330
1F
100
AcDbEntity
  8
SK1
  6
Continuous
100
AcDbLine
 10
6.16
 20
8.1477768539
 30
0.0
 11
3.76
 21
8.1477768539
 31
0.0
  0
ARC
  5
71
330
1F
100
AcDbEntity
  8
SK1
  6
Continuous
100
AcDbCircle
 10
3.7527240376
 20
8.3405239769
 30
0.0
 40
0.1928844032862168
100
AcDbArc
 50
182.3365487929
 51
272.161817433
  0
LINE
  5
72
330
1F
100
AcDbEntity
  8
SK1
  6
Continuous
100
AcDbLine
 10
3.56
 20
9.1566674513
 30
0.0
 11
3.56
 21
9.3862775107
 31
0.0
  0
ARC
  5
73
330
1F
100
AcDbEntity
  8
SK1
  6
Continuous
100
AcDbCircle
 10
6.1672842399
 20
8.1109049632
 30
0.0
 40
0.1928757677871545
100
AcDbArc
 50
267.8356250557
 51
357.6660087198
  0
LINE
  5
74
330
1F
100
AcDbEntity
  8
SK1
  6
Continuous
100
AcDbLine
 10
6.16
 20
7.9181667945
 30
0.0
 11
3.76
 21
7.9181667945
 31
0.0
  0
ARC
  5
75
330
1F
100
AcDbEntity
  8
SK1
  6
Continuous
100
AcDbCircle
 10
3.7527240376
 20
8.1109139175
 30
0.0
 40
0.1928844032862215
100
AcDbArc
 50
182.3365487929
 51
272.161817433
  0
ARC
  5
76
330
1F
100
AcDbEntity
  8
SK1
  6
Continuous
100
AcDbCircle
 10
3.1698769151
 20
9.3673471878
 30
0.0
 40
0.3905821020576984
100
AcDbArc
 50
2.7780399913
 51
99.6608950409
  0
SPLINE
  5
77
330
1F
100
AcDbEntity
  8
SK1
  6
Continuous
100
AcDbSpline
210
0.0
220
0.0
230
1.0
 70
     8
 71
     3
 72
     8
 73
     4
 74
     0
 42
0.0000000019981515
 43
0.0000000001
 12
1.0
 22
0.0
 32
0.0
 13
1.0
 23
0.0
 33
0.0
 40
0.0
 40
0.0
 40
0.0
 40
0.0
 40
1.0
 40
1.0
 40
1.0
 40
1.0
 10
6.619807621110477
 20
9.811579828979463
 30
0.0
 10
8.091586662782872
 20
9.026209177236984
 30
0.0
 10
9.563332960263848
 20
8.240786131183544
 30
0.0
 10
11.03499999997516
 20
7.455236462981063
 30
0.0
  0
ARC
  5
78
330
1F
100
AcDbEntity
  8
SK1
  6
Continuous
100
AcDbCircle
 10
10.9314792455
 20
7.2514766566
 30
0.0
 40
0.2285489122187445
100
AcDbArc
 50
0.8993975288
 51
63.0670226622
  0
LINE
  5
79
330
1F
100
AcDbEntity
  8
SK1
  6
Continuous
100
AcDbLine
 10
11.16
 20
7.255064144
 30
0.0
 11
11.16
 21
7.0254540846
 31
0.0
  0
ARC
  5
7A
330
1F
100
AcDbEntity
  8
SK3
100
AcDbCircle
 10
10.7741843561
 20
4.1579796913
 30
0.0
 40
0.3861207194226742
100
AcDbArc
 50
267.8947344657
 51
357.7222378422
  0
LINE
  5
7B
330
1F
100
AcDbEntity
  8
SK3
100
AcDbLine
 10
10.76
 20
3.7721195949
 30
0.0
 11
-15.4080526594
 21
3.7721195949
 31
0.0
  0
LINE
  5
7C
330
1F
100
AcDbEntity
  8
SK1
  6
Continuous
100
AcDbLine
 10
-20.34
 20
-6.8737444938
 30
0.0
 11
-20.34
 21
-5.072603378
 31
0.0
  0
LINE
  5
7D
330
1F
100
AcDbEntity
  8
SK1
  6
Continuous
100
AcDbLine
 10
-20.0817519303
 20
-7.1710960017
 30
0.0
 11
-20.0817519303
 21
-5.2828626457
 31
0.0
  0
SPLINE
  5
7E
330
1F
100
AcDbEntity
  8
SK1
  6
Continuous
100
AcDbSpline
210
0.0
220
0.0
230
1.0
 70
     8
 71
     3
 72
    10
 73
     6
 74
     0
 42
0.0000000228003628
 43
0.0000000001
 12
1.0
 22
0.0
 32
0.0
 13
1.0
 23
0.0
 33
0.0
 40
0.0
 40
0.0
 40
0.0
 40
0.0
 40
0.5
 40
0.5
 40
1.0
 40
1.0
 40
1.0
 40
1.0
 10
-20.34000000002498
 20
-6.873744493773863
 30
0.0
 10
-20.34000000002484
 20
-6.945218406115321
 30
0.0
 10
-20.31326377621729
 20
-7.016719007982712
 30
0.0
 10
-20.21985489208372
 20
-7.124432163947446
 30
0.0
 10
-20.15328210195917
 20
-7.161034298538404
 30
0.0
 10
-20.08175193031286
 20
-7.171096001691875
 30
0.0
  0
LINE
  5
7F
330
1F
100
AcDbEntity
  8
SK3
100
AcDbLine
 10
-19.1890003701
 20
-3.9586487594
 30
0.0
 11
-19.1890003701
 21
-3.0113194164
 31
0.0
  0
LINE
  5
80
330
1F
100
AcDbEntity
  8
SK3
100
AcDbLine
 10
-20.34
 20
-4.6248100309
 30
0.0
 11
-19.1890003701
 21
-3.9586487594
 31
0.0
  0
SPLINE
  5
81
330
1F
100
AcDbEntity
  8
SK1
  6
Continuous
100
AcDbSpline
210
0.0
220
0.0
230
1.0
 70
     8
 71
     3
 72
    11
 73
     7
 74
     0
 42
0.0000000005843816
 43
0.0000000001
 12
1.0
 22
0.0
 32
0.0
 13
1.0
 23
0.0
 33
0.0
 40
0.0
 40
0.0
 40
0.0
 40
0.0
 40
0.7363654467307729
 40
0.7363654467307729
 40
0.7363654467307729
 40
1.0
 40
1.0
 40
1.0
 40
1.0
 10
-20.08175193031286
 20
-7.171096001691875
 30
0.0
 10
-15.9224445791693
 20
-7.756159827776879
 30
0.0
 10
-11.76312064060971
 20
-8.341105733543962
 30
0.0
 10
-7.603788294765344
 20
-8.925991840989562
 30
0.0
 10
-6.114658502022613
 20
-9.135393556346298
 30
0.0
 10
-4.625527567712
 20
-9.34478715371409
 30
0.0
 10
-3.136395703209661
 20
-9.554174135525619
 30
0.0
  0
SPLINE
  5
82
330
1F
100
AcDbEntity
  8
SK1
  6
Continuous
100
AcDbSpline
210
0.0
220
0.0
230
1.0
 70
     8
 71
     3
 72
    23
 73
    19
 74
     0
 42
0.0000000327670225
 43
0.0000000001
 12
1.0
 22
0.0
 32
0.0
 13
1.0
 23
0.0
 33
0.0
 40
0.0
 40
0.0
 40
0.0
 40
0.0
 40
0.1921625435936616
 40
0.1921625435936616
 40
0.1921625435936616
 40
0.3843242126027567
 40
0.3843242126027567
 40
0.3843242126027567
 40
0.5765043873162998
 40
0.5765043873162998
 40
0.5765043873162998
 40
0.768737830541246
 40
0.768737830541246
 40
0.768737830541246
 40
0.8943720550076588
 40
0.8943720550076588
 40
0.8943720550076588
 40
1.0
 40
1.0
 40
1.0
 40
1.0
 10
-3.136395703209661
 20
-9.554174135525619
 30
0.0
 10
-3.103157912648629
 20
-9.558847704612116
 30
0.0
 10
-3.069487393884733
 20
-9.563768650103068
 30
0.0
 10
-3.03816861055815
 20
-9.568500724630903
 30
0.0
 10
-3.006849879389588
 20
-9.573232791277983
 30
0.0
 10
-2.97701891427451
 20
-9.577903879094748
 30
0.0
 10
-2.951134325888333
 20
-9.58205535765697
 30
0.0
 10
-2.925247179275225
 20
-9.586207246518327
 30
0.0
 10
-2.902592633809722
 20
-9.589949975052471
 30
0.0
 10
-2.885032287893939
 20
-9.592890270044553
 30
0.0
 10
-2.867467217372121
 20
-9.59583135612216
 30
0.0
 10
-2.854514141950213
 20
-9.59804708307178
 30
0.0
 10
-2.847236641976947
 20
-9.599294976507974
 30
0.0
 10
-2.842441561855532
 20
-9.600117202414056
 30
0.0
 10
-2.840000000024816
 20
-9.600538657904615
 30
0.0
 10
-2.840000000024816
 20
-9.600538657904615
 30
0.0
 10
-2.840000000024816
 20
-9.600538657904615
 30
0.0
 10
-2.841724921058171
 20
-9.60024014076654
 30
0.0
 10
-2.845096950036265
 20
-9.599661290307775
 30
0.0
  0
ARC
  5
83
330
1F
100
AcDbEntity
  8
SK3
100
AcDbCircle
 10
-2.5243024663
 20
-7.9247456456
 30
0.0
 40
3.966096886393566
100
AcDbArc
 50
85.664079861
 51
90.0004733358
  0
SPLINE
  5
84
330
1F
100
AcDbEntity
  8
SK1
  6
Continuous
100
AcDbSpline
210
0.0
220
0.0
230
1.0
 70
     8
 71
     3
 72
    14
 73
    10
 74
     0
 42
0.0000000005467597
 43
0.0000000001
 12
1.0
 22
0.0
 32
0.0
 13
1.0
 23
0.0
 33
0.0
 40
0.0
 40
0.0
 40
0.0
 40
0.0
 40
0.0842539479580858
 40
0.0842539479580858
 40
0.0842539479580858
 40
0.8608517021639168
 40
0.8608517021639168
 40
0.8608517021639168
 40
1.0
 40
1.0
 40
1.0
 40
1.0
 10
-15.0328236022129
 20
7.166512551581618
 30
0.0
 10
-14.52344972983641
 20
7.232698980107185
 30
0.0
 10
-14.01407566268372
 20
7.298884129161043
 30
0.0
 10
-13.50470141587453
 20
7.365068097996399
 30
0.0
 10
-8.809622957882464
 20
7.975108610036063
 30
0.0
 10
-4.114529814944629
 20
8.58505265457161
 30
0.0
 10
0.5805707733310301
 20
9.19494776988447
 30
0.0
 10
1.421823856453064
 20
9.30422682290822
 30
0.0
 10
2.26307719356505
 20
9.413504207016876
 30
0.0
 10
3.104330759590554
 20
9.522780086915528
 30
0.0
  0
SPLINE
  5
85
330
1F
100
AcDbEntity
  8
SK3
100
AcDbSpline
210
0.0
220
0.0
230
1.0
 70
     8
 71
     3
 72
    35
 73
    31
 74
     0
 42
0.0000000145479077
 43
0.0000000001
 12
1.0
 22
0.0
 32
0.0
 13
1.0
 23
0.0
 33
0.0
 40
0.0
 40
0.0
 40
0.0
 40
0.0
 40
0.1073116002791834
 40
0.1073116002791834
 40
0.1073116002791834
 40
0.2146313029660589
 40
0.2146313029660589
 40
0.2146313029660589
 40
0.3218601853836613
 40
0.3218601853836613
 40
0.3218601853836613
 40
0.4292104648511884
 40
0.4292104648511884
 40
0.4292104648511884
 40
0.4999971294859826
 40
0.4999971294859826
 40
0.4999971294859826
 40
0.6074290988594232
 40
0.6074290988594232
 40
0.6074290988594232
 40
0.7148612178939394
 40
0.7148612178939394
 40
0.7148612178939394
 40
0.8222844008015806
 40
0.8222844008015806
 40
0.8222844008015806
 40
0.9295969694225691
 40
0.9295969694225691
 40
0.9295969694225691
 40
1.0
 40
1.0
 40
1.0
 40
1.0
 10
-15.40805265944516
 20
3.772119594885551
 30
0.0
 10
-15.44159237156947
 20
3.772119594885551
 30
0.0
 10
-15.47559567979817
 20
3.770328458901268
 30
0.0
 10
-15.50724639951471
 20
3.766823893240498
 30
0.0
 10
-15.53889878370101
 20
3.763319143279224
 30
0.0
 10
-15.56906980683544
 20
3.757998161891047
 30
0.0
 10
-15.59526012532145
 20
3.751136690804288
 30
0.0
 10
-15.62142950626287
 20
3.744280705040546
 30
0.0
 10
-15.64434675344585
 20
3.735689148905328
 30
0.0
 10
-15.66212971993518
 20
3.725881257766861
 30
0.0
 10
-15.67993248641647
 20
3.716062446281338
 30
0.0
 10
-15.69308092513368
 20
3.704745790682231
 30
0.0
 10
-15.70049723089088
 20
3.692731665380339
 30
0.0
 10
-15.70542689632824
 20
3.684745800153107
 30
0.0
 10
-15.70793770591001
 20
3.676336431173082
 30
0.0
 10
-15.70793770591001
 20
3.667801744069885
 30
0.0
 10
-15.70793770591001
 20
3.654952477611886
 30
0.0
 10
-15.70215756461265
 20
3.641510900292952
 30
0.0
 10
-15.6910716163856
 20
3.628653580108986
 30
0.0
 10
-15.67998566616554
 20
3.615796257613542
 30
0.0
 10
-15.6632875597461
 20
3.603174141789508
 30
0.0
 10
-15.64234912327122
 20
3.591995744987299
 30
0.0
 10
-15.62141279817543
 20
3.580818475386415
 30
0.0
 10
-15.59565745112837
 20
3.570785172111676
 30
0.0
 10
-15.56721078433573
 20
3.56291985388262
 30
0.0
 10
-15.53879301183836
 20
3.555062524738152
 30
0.0
 10
-15.50690487441323
 20
3.549160620605539
 30
0.0
 10
-15.47419111235654
 20
3.545834567154689
 30
0.0
 10
-15.4525541474579
 20
3.543634706996682
 30
0.0
 10
-15.43023561733624
 20
3.542509535466497
 30
0.0
 10
-15.40805265944516
 20
3.542509535466497
 30
0.0
  0
SPLINE
  5
86
330
1F
100
AcDbEntity
  8
SK1
  6
Continuous
100
AcDbSpline
210
0.0
220
0.0
230
1.0
 70
     8
 71
     3
 72
    35
 73
    31
 74
     0
 42
0.0000000142051026
 43
0.0000000001
 12
1.0
 22
0.0
 32
0.0
 13
1.0
 23
0.0
 33
0.0
 40
0.0
 40
0.0
 40
0.0
 40
0.0
 40
0.1119615440540013
 40
0.1119615440540013
 40
0.1119615440540013
 40
0.2240715221133872
 40
0.2240715221133872
 40
0.2240715221133872
 40
0.3338400478832877
 40
0.3338400478832877
 40
0.3338400478832877
 40
0.4402527267872416
 40
0.4402527267872416
 40
0.4402527267872416
 40
0.5001438666164724
 40
0.5001438666164724
 40
0.5001438666164724
 40
0.6037319614880876
 40
0.6037319614880876
 40
0.6037319614880876
 40
0.7072541124840058
 40
0.7072541124840058
 40
0.7072541124840058
 40
0.8118158326264298
 40
0.8118158326264298
 40
0.8118158326264298
 40
0.9190214043007972
 40
0.9190214043007972
 40
0.9190214043007972
 40
1.0
 40
1.0
 40
1.0
 40
1.0
 10
-15.0328236022129
 20
7.166512551581618
 30
0.0
 10
-15.06801576680876
 20
7.161939793116767
 30
0.0
 10
-15.1037306270527
 20
7.159825985339653
 30
0.0
 10
-15.13701949238595
 20
7.160362263840091
 30
0.0
 10
-15.17033369705091
 20
7.160898950553264
 30
0.0
 10
-15.20215095488185
 20
7.164111296316029
 30
0.0
 10
-15.22961869937624
 20
7.169707890628383
 30
0.0
 10
-15.25651319456212
 20
7.175187684530709
 30
0.0
 10
-15.2800002905204
 20
7.183111257528139
 30
0.0
 10
-15.29787731996236
 20
7.192734685276378
 30
0.0
 10
-15.3152161108755
 20
7.202068372516537
 30
0.0
 10
-15.32776705692304
 20
7.213263485535382
 30
0.0
 10
-15.33435301975099
 20
7.225306225168326
 30
0.0
 10
-15.33809767951027
 20
7.23215350986656
 30
0.0
 10
-15.34000000002512
 20
7.239357190808627
 30
0.0
 10
-15.34000000002512
 20
7.246706158826629
 30
0.0
 10
-15.34000000002513
 20
7.259296121192516
 30
0.0
 10
-15.33430832756592
 20
7.272596784844871
 30
0.0
 10
-15.32344120388479
 20
7.285527659274304
 30
0.0
 10
-15.31257792274925
 20
7.298453961429046
 30
0.0
 10
-15.29625564585981
 20
7.311365576559182
 30
0.0
 10
-15.27590021727161
 20
7.323300610414897
 30
0.0
 10
-15.25533652544066
 20
7.335357755620042
 30
0.0
 10
-15.2301185606072
 20
7.346745545367772
 30
0.0
 10
-15.20234460362663
 20
7.356685961773048
 30
0.0
 10
-15.17387223542267
 20
7.366876342502364
 30
0.0
 10
-15.14196696933783
 20
7.375821797886593
 30
0.0
 10
-15.10918837922253
 20
7.382935142481163
 30
0.0
 10
-15.08428261789429
 20
7.388339989428353
 30
0.0
 10
-15.0584503847013
 20
7.392792748007121
 30
0.0
 10
-15.0328236022129
 20
7.396122611000675
 30
0.0
  0
SPLINE
  5
87
330
1F
100
AcDbEntity
  8
SK1
  6
Continuous
100
AcDbSpline
210
0.0
220
0.0
230
1.0
 70
     8
 71
     3
 72
    14
 73
    10
 74
     0
 42
0.0000000005467597
 43
0.0000000001
 12
1.0
 22
0.0
 32
0.0
 13
1.0
 23
0.0
 33
0.0
 40
0.0
 40
0.0
 40
0.0
 40
0.0
 40
0.0842539479580858
 40
0.0842539479580858
 40
0.0842539479580858
 40
0.8608517021639168
 40
0.8608517021639168
 40
0.8608517021639168
 40
1.0
 40
1.0
 40
1.0
 40
1.0
 10
-15.0328236022129
 20
7.396122611000675
 30
0.0
 10
-14.52344972983641
 20
7.462309039526239
 30
0.0
 10
-14.01407566268372
 20
7.528494188580098
 30
0.0
 10
-13.50470141587453
 20
7.594678157415453
 30
0.0
 10
-8.809622957882464
 20
8.204718669455119
 30
0.0
 10
-4.114529814944629
 20
8.814662713990662
 30
0.0
 10
0.5805707733310301
 20
9.424557829303524
 30
0.0
 10
1.421823856453064
 20
9.533836882327272
 30
0.0
 10
2.263077193565053
 20
9.64311426643593
 30
0.0
 10
3.104330759590556
 20
9.752390146334582
 30
0.0
  0
ELLIPSE
  5
88
330
1F
100
AcDbEntity
  8
SK1
  6
Continuous
100
AcDbEllipse
 10
46.6658476796
 20
0.1148050274
 30
0.0
 11
-62.20000002657993
 21
1.600767041591323E-8
 31
0.0
210
0.0
220
0.0
230
1.0
 40
0.9238795323
 41
-0.1270495815745241
 42
-0.1230020758589854
  0
LINE
  5
89
330
1F
100
AcDbEntity
  8
SK3
100
AcDbLine
 10
-2.5243352313
 20
-3.9586487594
 30
0.0
 11
-19.1890003701
 21
-3.9586487594
 31
0.0
  0
LINE
  5
8A
330
1F
100
AcDbEntity
  8
SK1
  6
Continuous
100
AcDbLine
 10
6.36
 20
4.2936994929
 30
0.0
 11
6.36
 21
9.5819697696
 31
0.0
  0
LINE
  5
8B
330
1F
100
AcDbEntity
  8
SK1
  6
Continuous
100
AcDbLine
 10
6.6198076211
 20
4.2936994929
 30
0.0
 11
6.6198076211
 21
9.5819697696
 31
0.0
  0
LINE
  5
8C
330
1F
100
AcDbEntity
  8
SK1
  6
Continuous
100
AcDbLine
 10
6.36
 20
4.2936994929
 30
0.0
 11
6.6198076211
 21
4.2936994929
 31
0.0
  0
LINE
  5
8D
330
1F
100
AcDbEntity
  8
SK1
  6
Continuous
100
AcDbLine
 10
6.36
 20
3.7393717734
 30
0.0
 11
6.6198076211
 21
3.7393717734
 31
0.0
  0
LINE
  5
8E
330
1F
100
AcDbEntity
  8
SK1
  6
Continuous
100
AcDbLine
 10
11.035
 20
3.3176701131
 30
0.0
 11
11.035
 21
7.2256264036
 31
0.0
  0
LINE
  5
8F
330
1F
100
AcDbEntity
  8
SK1
  6
Continuous
100
AcDbLine
 10
11.16
 20
2.6804283042
 30
0.0
 11
11.16
 21
-2.6804283042
 31
0.0
  0
LINE
  5
90
330
1F
100
AcDbEntity
  8
SK1
  6
Continuous
100
AcDbLine
 10
3.1043307596
 20
4.2691823236
 30
0.0
 11
3.1043307596
 21
9.5227800869
 31
0.0
  0
LINE
  5
91
330
1F
100
AcDbEntity
  8
SK1
  6
Continuous
100
AcDbLine
 10
3.56
 20
4.1175335046
 30
0.0
 11
3.56
 21
9.1566674513
 31
0.0
  0
LINE
  5
92
330
1F
100
AcDbEntity
  8
SK1
  6
Continuous
100
AcDbLine
 10
3.76
 20
3.6045297355
 30
0.0
 11
3.76
 21
7.9181667945
 31
0.0
  0
LINE
  5
93
330
1F
100
AcDbEntity
  8
SK1
  6
Continuous
100
AcDbLine
 10
6.16
 20
3.6045297355
 30
0.0
 11
6.16
 21
7.9181667945
 31
0.0
  0
SPLINE
  5
94
330
1F
100
AcDbEntity
  8
SK1
  6
Continuous
100
AcDbSpline
210
0.0
220
0.0
230
1.0
 70
     8
 71
     3
 72
    10
 73
     6
 74
     0
 42
0.0000000190345776
 43
0.0000000001
 12
1.0
 22
0.0
 32
0.0
 13
1.0
 23
0.0
 33
0.0
 40
0.0
 40
0.0
 40
0.0
 40
0.0
 40
0.5
 40
0.5
 40
1.0
 40
1.0
 40
1.0
 40
1.0
 10
3.104330759591118
 20
3.714854604076982
 30
0.0
 10
3.218332587580662
 20
3.720988459337681
 30
0.0
 10
3.336761943192155
 20
3.707288459508966
 30
0.0
 10
3.508067280597034
 20
3.650281186405412
 30
0.0
 10
3.559999999975158
 20
3.60709452943514
 30
0.0
 10
3.559999999975156
 20
3.563205785051181
 30
0.0
  0
LINE
  5
95
330
1F
100
AcDbEntity
  8
SK1
  6
Continuous
100
AcDbLine
 10
6.6198076211
 20
3.7393717734
 30
0.0
 11
11.035
 21
2.7633423936
 31
0.0
  0
SPLINE
  5
96
330
1F
100
AcDbEntity
  8
SK1
  6
Continuous
100
AcDbSpline
210
0.0
220
0.0
230
1.0
 70
     8
 71
     3
 72
     8
 73
     4
 74
     0
 42
0.0000000587426104
 43
0.0000000001
 12
1.0
 22
0.0
 32
0.0
 13
1.0
 23
0.0
 33
0.0
 40
0.0
 40
0.0
 40
0.0
 40
0.0
 40
1.0
 40
1.0
 40
1.0
 40
1.0
 10
11.03499999997516
 20
2.763342393577498
 30
0.0
 10
11.11129747162527
 20
2.746473035867423
 30
0.0
 10
11.15999999997516
 20
2.713969899195338
 30
0.0
 10
11.15999999997516
 20
2.680428304248985
 30
0.0
  0
SPLINE
  5
97
330
1F
100
AcDbEntity
  8
SK3
100
AcDbSpline
210
0.0
220
0.0
230
1.0
 70
     8
 71
     3
 72
    10
 73
     6
 74
     0
 42
0.0000000213828057
 43
0.0000000001
 12
1.0
 22
0.0
 32
0.0
 13
1.0
 23
0.0
 33
0.0
 40
0.0
 40
0.0
 40
0.0
 40
0.0
 40
0.5
 40
0.5
 40
1.0
 40
1.0
 40
1.0
 40
1.0
 10
11.15999999997516
 20
1.391217409720992
 30
0.0
 10
11.15999999997517
 20
1.351248653667777
 30
0.0
 10
11.11767943645973
 20
1.311478273441713
 30
0.0
 10
10.96857356019379
 20
1.254148627775044
 30
0.0
 10
10.86578788424732
 20
1.237745435007073
 30
0.0
 10
10.75999999997516
 20
1.23774543500722
 30
0.0
  0
LINE
  5
98
330
1F
100
AcDbEntity
  8
SK3
100
AcDbLine
 10
10.76
 20
1.237745435
 30
0.0
 11
-15.4080526594
 21
1.237745435
 31
0.0
  0
LINE
  5
99
330
1F
100
AcDbEntity
  8
SK1
  6
Continuous
100
AcDbLine
 10
6.36
 20
4.2936994929
 30
0.0
 11
6.36
 21
3.7393717734
 31
0.0
  0
SPLINE
  5
9A
330
1F
100
AcDbEntity
  8
SK1
  6
Continuous
100
AcDbSpline
210
0.0
220
0.0
230
1.0
 70
     8
 71
     3
 72
    10
 73
     6
 74
     0
 42
0.0000000427808113
 43
0.0000000001
 12
1.0
 22
0.0
 32
0.0
 13
1.0
 23
0.0
 33
0.0
 40
0.0
 40
0.0
 40
0.0
 40
0.0
 40
0.5
 40
0.5
 40
1.0
 40
1.0
 40
1.0
 40
1.0
 10
6.359999999975146
 20
3.681110941636511
 30
0.0
 10
6.359999999975162
 20
3.661147913130359
 30
0.0
 10
6.338797885644282
 20
3.6412869412914
 30
0.0
 10
6.264194095974195
 20
3.61269036967694
 30
0.0
 10
6.212837205973042
 20
3.604529735509602
 30
0.0
 10
6.159999999975154
 20
3.604529735509905
 30
0.0
  0
LINE
  5
9B
330
1F
100
AcDbEntity
  8
SK1
  6
Continuous
100
AcDbLine
 10
6.16
 20
3.6045297355
 30
0.0
 11
3.76
 21
3.6045297355
 31
0.0
  0
SPLINE
  5
9C
330
1F
100
AcDbEntity
  8
SK1
  6
Continuous
100
AcDbSpline
210
0.0
220
0.0
230
1.0
 70
     8
 71
     3
 72
    10
 73
     6
 74
     0
 42
0.0000000427872622
 43
0.0000000001
 12
1.0
 22
0.0
 32
0.0
 13
1.0
 23
0.0
 33
0.0
 40
0.0
 40
0.0
 40
0.0
 40
0.0
 40
0.5
 40
0.5
 40
1.0
 40
1.0
 40
1.0
 40
1.0
 10
3.759999999975148
 20
3.604529735509905
 30
0.0
 10
3.707123214840093
 20
3.604529735509906
 30
0.0
 10
3.655403319821882
 20
3.612845671541617
 30
0.0
 10
3.581614556146792
 20
3.641127860983145
 30
0.0
 10
3.559999999975041
 20
3.661130633392037
 30
0.0
 10
3.559999999972804
 20
3.681110941636614
 30
0.0
  0
LINE
  5
9D
330
1F
100
AcDbEntity
  8
SK1
  6
Continuous
100
AcDbLine
 10
3.56
 20
3.6811109416
 30
0.0
 11
3.56
 21
4.1175335046
 31
0.0
  0
SPLINE
  5
9E
330
1F
100
AcDbEntity
  8
SK1
  6
Continuous
100
AcDbSpline
210
0.0
220
0.0
230
1.0
 70
     8
 71
     3
 72
    10
 73
     6
 74
     0
 42
0.0000000427808113
 43
0.0000000001
 12
1.0
 22
0.0
 32
0.0
 13
1.0
 23
0.0
 33
0.0
 40
0.0
 40
0.0
 40
0.0
 40
0.0
 40
0.5
 40
0.5
 40
1.0
 40
1.0
 40
1.0
 40
1.0
 10
6.359999999975146
 20
3.126783222129737
 30
0.0
 10
6.359999999975162
 20
3.106820193623585
 30
0.0
 10
6.338797885644282
 20
3.086959221784627
 30
0.0
 10
6.264194095974195
 20
3.05836265017017
 30
0.0
 10
6.212837205973042
 20
3.050202016002829
 30
0.0
 10
6.159999999975154
 20
3.050202016003133
 30
0.0
  0
LINE
  5
9F
330
1F
100
AcDbEntity
  8
SK1
  6
Continuous
100
AcDbLine
 10
6.16
 20
3.050202016
 30
0.0
 11
3.76
 21
3.050202016
 31
0.0
  0
SPLINE
  5
A0
330
1F
100
AcDbEntity
  8
SK1
  6
Continuous
100
AcDbSpline
210
0.0
220
0.0
230
1.0
 70
     8
 71
     3
 72
    10
 73
     6
 74
     0
 42
0.0000000427872622
 43
0.0000000001
 12
1.0
 22
0.0
 32
0.0
 13
1.0
 23
0.0
 33
0.0
 40
0.0
 40
0.0
 40
0.0
 40
0.0
 40
0.5
 40
0.5
 40
1.0
 40
1.0
 40
1.0
 40
1.0
 10
3.759999999975148
 20
3.050202016003133
 30
0.0
 10
3.70712321484009
 20
3.050202016003133
 30
0.0
 10
3.655403319821884
 20
3.058517952034844
 30
0.0
 10
3.581614556146792
 20
3.086800141476372
 30
0.0
 10
3.559999999975041
 20
3.106802913885267
 30
0.0
 10
3.559999999972804
 20
3.126783222129842
 30
0.0
  0
SPLINE
  5
A1
330
1F
100
AcDbEntity
  8
SK1
  6
Continuous
100
AcDbSpline
210
0.0
220
0.0
230
1.0
 70
     8
 71
     3
 72
    10
 73
     6
 74
     0
 42
0.0000000190345776
 43
0.0000000001
 12
1.0
 22
0.0
 32
0.0
 13
1.0
 23
0.0
 33
0.0
 40
0.0
 40
0.0
 40
0.0
 40
0.0
 40
0.5
 40
0.5
 40
1.0
 40
1.0
 40
1.0
 40
1.0
 10
3.104330759591118
 20
4.269182323583753
 30
0.0
 10
3.218332587580655
 20
4.275316178844452
 30
0.0
 10
3.336761943192152
 20
4.261616179015737
 30
0.0
 10
3.508067280597037
 20
4.204608905912186
 30
0.0
 10
3.559999999975158
 20
4.16142224894191
 30
0.0
 10
3.559999999975156
 20
4.117533504557955
 30
0.0
  0
LINE
  5
A2
330
1F
100
AcDbEntity
  8
SK1
  6
Continuous
100
AcDbLine
 10
6.6198076211
 20
4.2936994929
 30
0.0
 11
11.035
 21
3.3176701131
 31
0.0
  0
SPLINE
  5
A3
330
1F
100
AcDbEntity
  8
SK1
  6
Continuous
100
AcDbSpline
210
0.0
220
0.0
230
1.0
 70
     8
 71
     3
 72
     8
 73
     4
 74
     0
 42
0.0000000587426104
 43
0.0000000001
 12
1.0
 22
0.0
 32
0.0
 13
1.0
 23
0.0
 33
0.0
 40
0.0
 40
0.0
 40
0.0
 40
0.0
 40
1.0
 40
1.0
 40
1.0
 40
1.0
 10
11.03499999997516
 20
3.31767011308427
 30
0.0
 10
11.11129747162532
 20
3.300800755374186
 30
0.0
 10
11.15999999997516
 20
3.268297618702124
 30
0.0
 10
11.15999999997516
 20
3.234756023755756
 30
0.0
  0
LINE
  5
A4
330
1F
100
AcDbEntity
  8
SK1
  6
Continuous
100
AcDbLine
 10
11.16
 20
3.2347560238
 30
0.0
 11
11.16
 21
2.6804283043
 31
0.0
  0
SPLINE
  5
A5
330
1F
100
AcDbEntity
  8
SK3
100
AcDbSpline
210
0.0
220
0.0
230
1.0
 70
     8
 71
     3
 72
    10
 73
     6
 74
     0
 42
0.0000000213828057
 43
0.0000000001
 12
1.0
 22
0.0
 32
0.0
 13
1.0
 23
0.0
 33
0.0
 40
0.0
 40
0.0
 40
0.0
 40
0.0
 40
0.5000000000000001
 40
0.5000000000000001
 40
1.0
 40
1.0
 40
1.0
 40
1.0
 10
11.15999999997516
 20
1.945545129227765
 30
0.0
 10
11.15999999997517
 20
1.905576373174549
 30
0.0
 10
11.11767943645973
 20
1.865805992948485
 30
0.0
 10
10.96857356019379
 20
1.808476347281816
 30
0.0
 10
10.86578788424733
 20
1.792073154513846
 30
0.0
 10
10.75999999997516
 20
1.792073154513993
 30
0.0
  0
LINE
  5
A6
330
1F
100
AcDbEntity
  8
SK3
100
AcDbLine
 10
10.76
 20
1.7920731545
 30
0.0
 11
-15.4080526594
 21
1.7920731545
 31
0.0
  0
LINE
  5
A7
330
1F
100
AcDbEntity
  8
SK1
  6
Continuous
100
AcDbLine
 10
-15.0328236022
 20
2.7388566344
 30
0.0
 11
3.1043307596
 21
3.7148546041
 31
0.0
  0
SPLINE
  5
A8
330
1F
100
AcDbEntity
  8
SK3
100
AcDbSpline
210
0.0
220
0.0
230
1.0
 70
     8
 71
     3
 72
    35
 73
    31
 74
     0
 42
0.0000000109786589
 43
0.0000000001
 12
1.0
 22
0.0
 32
0.0
 13
1.0
 23
0.0
 33
0.0
 40
0.0
 40
0.0
 40
0.0
 40
0.0
 40
0.1073116002791815
 40
0.1073116002791815
 40
0.1073116002791815
 40
0.2146313029660551
 40
0.2146313029660551
 40
0.2146313029660551
 40
0.3218601853836539
 40
0.3218601853836539
 40
0.3218601853836539
 40
0.4292104648511889
 40
0.4292104648511889
 40
0.4292104648511889
 40
0.4999971294859872
 40
0.4999971294859872
 40
0.4999971294859872
 40
0.6074290988594263
 40
0.6074290988594263
 40
0.6074290988594263
 40
0.7148612178939368
 40
0.7148612178939368
 40
0.7148612178939368
 40
0.8222844008015846
 40
0.8222844008015846
 40
0.8222844008015846
 40
0.9295969694225682
 40
0.9295969694225682
 40
0.9295969694225682
 40
1.0
 40
1.0
 40
1.0
 40
1.0
 10
-15.40805265944516
 20
1.792073154513993
 30
0.0
 10
-15.44159237156947
 20
1.792073154513993
 30
0.0
 10
-15.47559567979817
 20
1.786921170207545
 30
0.0
 10
-15.50724639951471
 20
1.776997859861918
 30
0.0
 10
-15.538898783701
 20
1.767074027662441
 30
0.0
 10
-15.56906980683544
 20
1.752101887346876
 30
0.0
 10
-15.59526012532144
 20
1.733249772474481
 30
0.0
 10
-15.62142950626286
 20
1.714412728705396
 30
0.0
 10
-15.64434675344585
 20
1.691180251920792
 30
0.0
 10
-15.66212971993518
 20
1.665392918067734
 30
0.0
 10
-15.67993248641647
 20
1.639576871963351
 30
0.0
 10
-15.69308092513368
 20
1.610485532867954
 30
0.0
 10
-15.70049723089088
 20
1.580468246696603
 30
0.0
 10
-15.70542689632824
 20
1.560515566345092
 30
0.0
 10
-15.70793770591001
 20
1.539857783844627
 30
0.0
 10
-15.70793770591001
 20
1.519253226489476
 30
0.0
 10
-15.70793770591001
 20
1.48823235314003
 30
0.0
 10
-15.70215756461264
 20
1.456611771527815
 30
0.0
 10
-15.6910716163856
 20
1.427036263602702
 30
0.0
 10
-15.67998566616554
 20
1.397460750360534
 30
0.0
 10
-15.6632875597461
 20
1.369116630515121
 30
0.0
 10
-15.64234912327122
 20
1.344419098011898
 30
0.0
 10
-15.62141279817544
 20
1.319724055945524
 30
0.0
 10
-15.59565745112838
 20
1.297997068881463
 30
0.0
 10
-15.56721078433573
 20
1.281119637119665
 30
0.0
 10
-15.53879301183836
 20
1.26425934836799
 30
0.0
 10
-15.50690487441324
 20
1.251777525413948
 30
0.0
 10
-15.47419111235655
 20
1.244755009830676
 30
0.0
 10
-15.4525541474579
 20
1.240110300276571
 30
0.0
 10
-15.43023561733624
 20
1.23774543500722
 30
0.0
 10
-15.40805265944517
 20
1.237745435007221
 30
0.0
  0
SPLINE
  5
A9
330
1F
100
AcDbEntity
  8
SK1
  6
Continuous
100
AcDbSpline
210
0.0
220
0.0
230
1.0
 70
     8
 71
     3
 72
    35
 73
    31
 74
     0
 42
0.0000000108331195
 43
0.0000000001
 12
1.0
 22
0.0
 32
0.0
 13
1.0
 23
0.0
 33
0.0
 40
0.0
 40
0.0
 40
0.0
 40
0.0
 40
0.1119615440540013
 40
0.1119615440540013
 40
0.1119615440540013
 40
0.2240715221133876
 40
0.2240715221133876
 40
0.2240715221133876
 40
0.3338400478832896
 40
0.3338400478832896
 40
0.3338400478832896
 40
0.4402527267872389
 40
0.4402527267872389
 40
0.4402527267872389
 40
0.5001438666164727
 40
0.5001438666164727
 40
0.5001438666164727
 40
0.6037319614880857
 40
0.6037319614880857
 40
0.6037319614880857
 40
0.7072541124840067
 40
0.7072541124840067
 40
0.7072541124840067
 40
0.8118158326264321
 40
0.8118158326264321
 40
0.8118158326264321
 40
0.9190214043008001
 40
0.9190214043008001
 40
0.9190214043008001
 40
1.0
 40
1.0
 40
1.0
 40
1.0
 10
-15.0328236022129
 20
2.738856634363104
 30
0.0
 10
-15.06801576680876
 20
2.736962535789506
 30
0.0
 10
-15.1037306270527
 20
2.740704517482635
 30
0.0
 10
-15.13701949238595
 20
2.749874344458918
 30
0.0
 10
-15.17033369705091
 20
2.759051151465468
 30
0.0
 10
-15.20215095488185
 20
2.773941046573968
 30
0.0
 10
-15.22961869937624
 20
2.793376013906771
 30
0.0
 10
-15.25651319456212
 20
2.812405375253733
 30
0.0
 10
-15.28000029052041
 20
2.836347809673018
 30
0.0
 10
-15.29787731996237
 20
2.863158411887083
 30
0.0
 10
-15.3152161108755
 20
2.889161805099252
 30
0.0
 10
-15.32776705692304
 20
2.918603819385614
 30
0.0
 10
-15.33435301975099
 20
2.948940630068003
 30
0.0
 10
-15.33809767951027
 20
2.966189593834559
 30
0.0
 10
-15.34000000002512
 20
2.983941995260114
 30
0.0
 10
-15.34000000002512
 20
3.00168397351862
 30
0.0
 10
-15.34000000002513
 20
3.032078831412111
 30
0.0
 10
-15.33430832756593
 20
3.063115084870286
 30
0.0
 10
-15.3234412038848
 20
3.092221717971836
 30
0.0
 10
-15.31257792274926
 20
3.12131805915364
 30
0.0
 10
-15.29625564585981
 20
3.149281115349261
 30
0.0
 10
-15.27590021727161
 20
3.173919235537281
 30
0.0
 10
-15.25533652544066
 20
3.198809436627619
 30
0.0
 10
-15.2301185606072
 20
3.220977837613315
 30
0.0
 10
-15.20234460362662
 20
3.238814874833284
 30
0.0
 10
-15.17387223542267
 20
3.257100446880139
 30
0.0
 10
-15.14196696933783
 20
3.271327924702344
 30
0.0
 10
-15.10918837922253
 20
3.280541815828155
 30
0.0
 10
-15.08428261789429
 20
3.287542695746318
 30
0.0
 10
-15.0584503847013
 20
3.291805079457102
 30
0.0
 10
-15.0328236022129
 20
3.293184353869876
 30
0.0
  0
LINE
  5
AA
330
1F
100
AcDbEntity
  8
SK1
  6
Continuous
100
AcDbLine
 10
-15.0328236022
 20
3.2931843539
 30
0.0
 11
3.1043307596
 21
4.2691823236
 31
0.0
  0
ELLIPSE
  5
AB
330
1F
100
AcDbEntity
  8
SK1
  6
Continuous
100
AcDbEllipse
 10
46.6658476795
 20
0.2771638588
 30
0.0
 11
-62.20000002650496
 21
1.134047098877934E-9
 31
0.0
210
0.0
220
0.0
230
1.0
 40
0.3826834323
 41
-0.1270495818053332
 42
-0.1049663499620772
  0
LINE
  5
AC
330
1F
100
AcDbEntity
  8
SK1
  6
Continuous
100
AcDbLine
 10
6.36
 20
-3.7393717734
 30
0.0
 11
6.36
 21
3.7393717734
 31
0.0
  0
LINE
  5
AD
330
1F
100
AcDbEntity
  8
SK1
  6
Continuous
100
AcDbLine
 10
6.6198076211
 20
-3.7393717734
 30
0.0
 11
6.6198076211
 21
3.7393717734
 31
0.0
  0
LINE
  5
AE
330
1F
100
AcDbEntity
  8
SK1
  6
Continuous
100
AcDbLine
 10
6.36
 20
-3.7393717734
 30
0.0
 11
6.6198076211
 21
-3.7393717734
 31
0.0
  0
LINE
  5
AF
330
1F
100
AcDbEntity
  8
SK1
  6
Continuous
100
AcDbLine
 10
6.36
 20
-4.2936994929
 30
0.0
 11
6.6198076211
 21
-4.2936994929
 31
0.0
  0
LINE
  5
B0
330
1F
100
AcDbEntity
  8
SK1
  6
Continuous
100
AcDbLine
 10
11.035
 20
-2.7633423936
 30
0.0
 11
11.035
 21
2.7633423936
 31
0.0
  0
LINE
  5
B1
330
1F
100
AcDbEntity
  8
SK1
  6
Continuous
100
AcDbLine
 10
11.16
 20
-3.2347560238
 30
0.0
 11
11.16
 21
-7.0254540846
 31
0.0
  0
LINE
  5
B2
330
1F
100
AcDbEntity
  8
SK1
  6
Continuous
100
AcDbLine
 10
3.1043307596
 20
-3.7148546041
 30
0.0
 11
3.1043307596
 21
3.7148546041
 31
0.0
  0
LINE
  5
B3
330
1F
100
AcDbEntity
  8
SK1
  6
Continuous
100
AcDbLine
 10
3.56
 20
-3.5632057851
 30
0.0
 11
3.56
 21
3.5632057851
 31
0.0
  0
LINE
  5
B4
330
1F
100
AcDbEntity
  8
SK1
  6
Continuous
100
AcDbLine
 10
3.76
 20
-3.050202016
 30
0.0
 11
3.76
 21
3.050202016
 31
0.0
  0
LINE
  5
B5
330
1F
100
AcDbEntity
  8
SK1
  6
Continuous
100
AcDbLine
 10
6.16
 20
-3.050202016
 30
0.0
 11
6.16
 21
3.050202016
 31
0.0
  0
SPLINE
  5
B6
330
1F
100
AcDbEntity
  8
SK1
  6
Continuous
100
AcDbSpline
210
0.0
220
0.0
230
1.0
 70
     8
 71
     3
 72
    10
 73
     6
 74
     0
 42
0.0000000190350074
 43
0.0000000001
 12
1.0
 22
0.0
 32
0.0
 13
1.0
 23
0.0
 33
0.0
 40
0.0
 40
0.0
 40
0.0
 40
0.0
 40
0.5
 40
0.5
 40
1.0
 40
1.0
 40
1.0
 40
1.0
 10
3.104330759591118
 20
-4.269182323583617
 30
0.0
 10
3.216662709255795
 20
-4.275226331232849
 30
0.0
 10
3.33714625356119
 20
-4.261543354687849
 30
0.0
 10
3.508261414244434
 20
-4.204489048296489
 30
0.0
 10
3.559999999975158
 20
-4.161458325666408
 30
0.0
 10
3.559999999975156
 20
-4.117533504557817
 30
0.0
  0
SPLINE
  5
B7
330
1F
100
AcDbEntity
  8
SK1
  6
Continuous
100
AcDbSpline
210
0.0
220
0.0
230
1.0
 70
     8
 71
     3
 72
     8
 73
     4
 74
     0
 42
0.0000000022115151
 43
0.0000000001
 12
1.0
 22
0.0
 32
0.0
 13
1.0
 23
0.0
 33
0.0
 40
0.0
 40
0.0
 40
0.0
 40
0.0
 40
1.0
 40
1.0
 40
1.0
 40
1.0
 10
6.619807621110477
 20
-4.293699492888539
 30
0.0
 10
8.091586662782872
 20
-3.968388317447007
 30
0.0
 10
9.563332960263848
 20
-3.643055439571284
 30
0.0
 10
11.03499999997516
 20
-3.317670113084132
 30
0.0
  0
SPLINE
  5
B8
330
1F
100
AcDbEntity
  8
SK1
  6
Continuous
100
AcDbSpline
210
0.0
220
0.0
230
1.0
 70
     8
 71
     3
 72
    10
 73
     6
 74
     0
 42
0.0000000616158575
 43
0.0000000001
 12
1.0
 22
0.0
 32
0.0
 13
1.0
 23
0.0
 33
0.0
 40
0.0
 40
0.0
 40
0.0
 40
0.0
 40
0.5
 40
0.5
 40
1.0
 40
1.0
 40
1.0
 40
1.0
 10
11.03499999997516
 20
-3.317670113084132
 30
0.0
 10
11.07299689722856
 20
-3.309269005710876
 30
0.0
 10
11.10465472777435
 20
-3.297134732213097
 30
0.0
 10
11.14845795261302
 20
-3.268052728311455
 30
0.0
 10
11.15999999997433
 20
-3.251364629519989
 30
0.0
 10
11.16000000000339
 20
-3.234756023757201
 30
0.0
  0
LINE
  5
B9
330
1F
100
AcDbEntity
  8
SK1
  6
Continuous
100
AcDbLine
 10
11.16
 20
-3.2347560238
 30
0.0
 11
11.16
 21
-2.6804283042
 31
0.0
  0
SPLINE
  5
BA
330
1F
100
AcDbEntity
  8
SK3
100
AcDbSpline
210
0.0
220
0.0
230
1.0
 70
     8
 71
     3
 72
    10
 73
     6
 74
     0
 42
0.0000000213867748
 43
0.0000000001
 12
1.0
 22
0.0
 32
0.0
 13
1.0
 23
0.0
 33
0.0
 40
0.0
 40
0.0
 40
0.0
 40
0.0
 40
0.5
 40
0.5
 40
1.0
 40
1.0
 40
1.0
 40
1.0
 10
11.15999999997516
 20
-1.945545129227626
 30
0.0
 10
11.15999999997516
 20
-1.905633575377832
 30
0.0
 10
11.11694354720638
 20
-1.865452655946959
 30
0.0
 10
10.96860884818318
 20
-1.808560643923605
 30
0.0
 10
10.86428417438451
 20
-1.792073154513857
 30
0.0
 10
10.75999999997516
 20
-1.792073154513854
 30
0.0
  0
LINE
  5
BB
330
1F
100
AcDbEntity
  8
SK3
100
AcDbLine
 10
10.76
 20
-1.7920731545
 30
0.0
 11
-15.4080526594
 21
-1.7920731545
 31
0.0
  0
SPLINE
  5
BC
330
1F
100
AcDbEntity
  8
SK1
  6
Continuous
100
AcDbSpline
210
0.0
220
0.0
230
1.0
 70
     8
 71
     3
 72
    10
 73
     6
 74
     0
 42
0.0000000427791171
 43
0.0000000001
 12
1.0
 22
0.0
 32
0.0
 13
1.0
 23
0.0
 33
0.0
 40
0.0
 40
0.0
 40
0.0
 40
0.0
 40
0.5
 40
0.5
 40
1.0
 40
1.0
 40
1.0
 40
1.0
 10
6.359999999975146
 20
-3.126783222129601
 30
0.0
 10
6.359999999975156
 20
-3.106640210982467
 30
0.0
 10
6.338233388426771
 20
-3.086716212217781
 30
0.0
 10
6.26449139266307
 20
-3.058503335126724
 30
0.0
 10
6.212718345142027
 20
-3.050202016002996
 30
0.0
 10
6.159999999975154
 20
-3.050202016002996
 30
0.0
  0
LINE
  5
BD
330
1F
100
AcDbEntity
  8
SK1
  6
Continuous
100
AcDbLine
 10
6.16
 20
-3.050202016
 30
0.0
 11
3.76
 21
-3.050202016
 31
0.0
  0
SPLINE
  5
BE
330
1F
100
AcDbEntity
  8
SK1
  6
Continuous
100
AcDbSpline
210
0.0
220
0.0
230
1.0
 70
     8
 71
     3
 72
    10
 73
     6
 74
     0
 42
0.0000000427814578
 43
0.0000000001
 12
1.0
 22
0.0
 32
0.0
 13
1.0
 23
0.0
 33
0.0
 40
0.0
 40
0.0
 40
0.0
 40
0.0
 40
0.5
 40
0.5
 40
1.0
 40
1.0
 40
1.0
 40
1.0
 10
3.759999999975148
 20
-3.050202016002996
 30
0.0
 10
3.707834989232529
 20
-3.050202016002994
 30
0.0
 10
3.655952867542379
 20
-3.058328472208825
 30
0.0
 10
3.581273880816391
 20
-3.086909622574991
 30
0.0
 10
3.559999999975109
 20
-3.106806998502794
 30
0.0
 10
3.559999999974351
 20
-3.126783222129633
 30
0.0
  0
LINE
  5
BF
330
1F
100
AcDbEntity
  8
SK1
  6
Continuous
100
AcDbLine
 10
6.36
 20
-4.2936994929
 30
0.0
 11
6.36
 21
-3.7393717734
 31
0.0
  0
SPLINE
  5
C0
330
1F
100
AcDbEntity
  8
SK1
  6
Continuous
100
AcDbSpline
210
0.0
220
0.0
230
1.0
 70
     8
 71
     3
 72
    10
 73
     6
 74
     0
 42
0.0000000427791171
 43
0.0000000001
 12
1.0
 22
0.0
 32
0.0
 13
1.0
 23
0.0
 33
0.0
 40
0.0
 40
0.0
 40
0.0
 40
0.0
 40
0.5
 40
0.5
 40
1.0
 40
1.0
 40
1.0
 40
1.0
 10
6.359999999975146
 20
-3.681110941636374
 30
0.0
 10
6.359999999975156
 20
-3.66096793048924
 30
0.0
 10
6.338233388426769
 20
-3.641043931724552
 30
0.0
 10
6.26449139266307
 20
-3.612831054633496
 30
0.0
 10
6.212718345142027
 20
-3.604529735509768
 30
0.0
 10
6.159999999975154
 20
-3.604529735509768
 30
0.0
  0
LINE
  5
C1
330
1F
100
AcDbEntity
  8
SK1
  6
Continuous
100
AcDbLine
 10
6.16
 20
-3.6045297355
 30
0.0
 11
3.76
 21
-3.6045297355
 31
0.0
  0
SPLINE
  5
C2
330
1F
100
AcDbEntity
  8
SK1
  6
Continuous
100
AcDbSpline
210
0.0
220
0.0
230
1.0
 70
     8
 71
     3
 72
    10
 73
     6
 74
     0
 42
0.0000000427814578
 43
0.0000000001
 12
1.0
 22
0.0
 32
0.0
 13
1.0
 23
0.0
 33
0.0
 40
0.0
 40
0.0
 40
0.0
 40
0.0
 40
0.5
 40
0.5
 40
1.0
 40
1.0
 40
1.0
 40
1.0
 10
3.759999999975148
 20
-3.604529735509768
 30
0.0
 10
3.707834989232529
 20
-3.604529735509766
 30
0.0
 10
3.655952867542379
 20
-3.612656191715597
 30
0.0
 10
3.581273880816391
 20
-3.641237342081762
 30
0.0
 10
3.559999999975109
 20
-3.661134718009566
 30
0.0
 10
3.559999999974351
 20
-3.681110941636405
 30
0.0
  0
LINE
  5
C3
330
1F
100
AcDbEntity
  8
SK1
  6
Continuous
100
AcDbLine
 10
3.56
 20
-3.6811109416
 30
0.0
 11
3.56
 21
-4.1175335046
 31
0.0
  0
SPLINE
  5
C4
330
1F
100
AcDbEntity
  8
SK1
  6
Continuous
100
AcDbSpline
210
0.0
220
0.0
230
1.0
 70
     8
 71
     3
 72
    10
 73
     6
 74
     0
 42
0.0000000190350074
 43
0.0000000001
 12
1.0
 22
0.0
 32
0.0
 13
1.0
 23
0.0
 33
0.0
 40
0.0
 40
0.0
 40
0.0
 40
0.0
 40
0.5
 40
0.5
 40
1.0
 40
1.0
 40
1.0
 40
1.0
 10
3.104330759591118
 20
-3.714854604076845
 30
0.0
 10
3.216662709255795
 20
-3.720898611726077
 30
0.0
 10
3.33714625356119
 20
-3.707215635181075
 30
0.0
 10
3.508261414244433
 20
-3.650161328789717
 30
0.0
 10
3.559999999975159
 20
-3.607130606159636
 30
0.0
 10
3.559999999975156
 20
-3.563205785051046
 30
0.0
  0
SPLINE
  5
C5
330
1F
100
AcDbEntity
  8
SK1
  6
Continuous
100
AcDbSpline
210
0.0
220
0.0
230
1.0
 70
     8
 71
     3
 72
     8
 73
     4
 74
     0
 42
0.0000000022115151
 43
0.0000000001
 12
1.0
 22
0.0
 32
0.0
 13
1.0
 23
0.0
 33
0.0
 40
0.0
 40
0.0
 40
0.0
 40
0.0
 40
1.0
 40
1.0
 40
1.0
 40
1.0
 10
6.619807621110477
 20
-3.739371773381767
 30
0.0
 10
8.091586662782872
 20
-3.414060597940236
 30
0.0
 10
9.56333296026385
 20
-3.088727720064512
 30
0.0
 10
11.03499999997516
 20
-2.763342393577362
 30
0.0
  0
SPLINE
  5
C6
330
1F
100
AcDbEntity
  8
SK1
  6
Continuous
100
AcDbSpline
210
0.0
220
0.0
230
1.0
 70
     8
 71
     3
 72
    10
 73
     6
 74
     0
 42
0.0000000616158575
 43
0.0000000001
 12
1.0
 22
0.0
 32
0.0
 13
1.0
 23
0.0
 33
0.0
 40
0.0
 40
0.0
 40
0.0
 40
0.0
 40
0.5000000000000001
 40
0.5000000000000001
 40
1.0
 40
1.0
 40
1.0
 40
1.0
 10
11.03499999997516
 20
-2.763342393577362
 30
0.0
 10
11.07299689722856
 20
-2.754941286204103
 30
0.0
 10
11.10465472777435
 20
-2.742807012706326
 30
0.0
 10
11.14845795261302
 20
-2.713725008804683
 30
0.0
 10
11.15999999997433
 20
-2.697036910013216
 30
0.0
 10
11.16000000000339
 20
-2.680428304250428
 30
0.0
  0
SPLINE
  5
C7
330
1F
100
AcDbEntity
  8
SK3
100
AcDbSpline
210
0.0
220
0.0
230
1.0
 70
     8
 71
     3
 72
    10
 73
     6
 74
     0
 42
0.0000000213867748
 43
0.0000000001
 12
1.0
 22
0.0
 32
0.0
 13
1.0
 23
0.0
 33
0.0
 40
0.0
 40
0.0
 40
0.0
 40
0.0
 40
0.5
 40
0.5
 40
1.0
 40
1.0
 40
1.0
 40
1.0
 10
11.15999999997516
 20
-1.391217409720854
 30
0.0
 10
11.15999999997516
 20
-1.35130585587106
 30
0.0
 10
11.11694354720638
 20
-1.311124936440186
 30
0.0
 10
10.96860884818318
 20
-1.254232924416833
 30
0.0
 10
10.86428417438451
 20
-1.237745435007086
 30
0.0
 10
10.75999999997516
 20
-1.237745435007082
 30
0.0
  0
LINE
  5
C8
330
1F
100
AcDbEntity
  8
SK3
100
AcDbLine
 10
10.76
 20
-1.237745435
 30
0.0
 11
-15.4080526594
 21
-1.237745435
 31
0.0
  0
LINE
  5
C9
330
1F
100
AcDbEntity
  8
SK1
  6
Continuous
100
AcDbLine
 10
-15.0328236022
 20
-3.2931843539
 30
0.0
 11
3.1043307596
 21
-4.2691823236
 31
0.0
  0
ELLIPSE
  5
CA
330
1F
100
AcDbEntity
  8
SK1
  6
Continuous
100
AcDbEllipse
 10
46.6658476796
 20
-0.2771638588
 30
0.0
 11
-62.20000002655997
 21
-1.132986686803050E-9
 31
0.0
210
0.0
220
0.0
230
1.0
 40
0.3826834323
 41
0.1049945995523576
 42
0.1270495818052816
  0
SPLINE
  5
CB
330
1F
100
AcDbEntity
  8
SK3
100
AcDbSpline
210
0.0
220
0.0
230
1.0
 70
     8
 71
     3
 72
    35
 73
    31
 74
     0
 42
0.0000000109783977
 43
0.0000000001
 12
1.0
 22
0.0
 32
0.0
 13
1.0
 23
0.0
 33
0.0
 40
0.0
 40
0.0
 40
0.0
 40
0.0
 40
0.1073116002791834
 40
0.1073116002791834
 40
0.1073116002791834
 40
0.2146313029660589
 40
0.2146313029660589
 40
0.2146313029660589
 40
0.3218601853836613
 40
0.3218601853836613
 40
0.3218601853836613
 40
0.4292104648511883
 40
0.4292104648511883
 40
0.4292104648511883
 40
0.4999971294859825
 40
0.4999971294859825
 40
0.4999971294859825
 40
0.6074290988594232
 40
0.6074290988594232
 40
0.6074290988594232
 40
0.7148612178939393
 40
0.7148612178939393
 40
0.7148612178939393
 40
0.8222844008015803
 40
0.8222844008015803
 40
0.8222844008015803
 40
0.9295969694225688
 40
0.9295969694225688
 40
0.9295969694225688
 40
1.0
 40
1.0
 40
1.0
 40
1.0
 10
-15.40805265944516
 20
-1.237745435007082
 30
0.0
 10
-15.44159237156947
 20
-1.237745435007082
 30
0.0
 10
-15.47559567979817
 20
-1.243240305102111
 30
0.0
 10
-15.50724639951471
 20
-1.253769419515764
 30
0.0
 10
-15.53889878370101
 20
-1.264299087641706
 30
0.0
 10
-15.56906980683544
 20
-1.280151910145554
 30
0.0
 10
-15.59526012532145
 20
-1.299951355590753
 30
0.0
 10
-15.62142950626287
 20
-1.319734972600266
 30
0.0
 10
-15.64434675344585
 20
-1.343999100221364
 30
0.0
 10
-15.66212971993518
 20
-1.370660006355336
 30
0.0
 10
-15.67993248641647
 20
-1.39735059739748
 30
0.0
 10
-15.69308092513368
 20
-1.427175308094671
 30
0.0
 10
-15.70049723089088
 20
-1.457612036001935
 30
0.0
 10
-15.70542689632824
 20
-1.477843521933503
 30
0.0
 10
-15.70793770591001
 20
-1.498648669134188
 30
0.0
 10
-15.70793770591001
 20
-1.519253226489338
 30
0.0
 10
-15.70793770591001
 20
-1.550274099838784
 30
0.0
 10
-15.70215756461265
 20
-1.581550777885972
 30
0.0
 10
-15.6910716163856
 20
-1.610519542123773
 30
0.0
 10
-15.67998566616554
 20
-1.639488311569552
 30
0.0
 10
-15.6632875597461
 20
-1.666950834444428
 30
0.0
 10
-15.64234912327122
 20
-1.69070002306543
 30
0.0
 10
-15.62141279817543
 20
-1.714446816878182
 30
0.0
 10
-15.59565745112837
 20
-1.735140113378947
 30
0.0
 10
-15.56721078433573
 20
-1.75114308804545
 30
0.0
 10
-15.53879301183836
 20
-1.767129807919129
 30
0.0
 10
-15.50690487441323
 20
-1.778879867091257
 30
0.0
 10
-15.47419111235654
 20
-1.785485150420246
 30
0.0
 10
-15.4525541474579
 20
-1.789853901506936
 30
0.0
 10
-15.43023561733624
 20
-1.792073154513854
 30
0.0
 10
-15.40805265944516
 20
-1.792073154513854
 30
0.0
  0
SPLINE
  5
CC
330
1F
100
AcDbEntity
  8
SK1
  6
Continuous
100
AcDbSpline
210
0.0
220
0.0
230
1.0
 70
     8
 71
     3
 72
    35
 73
    31
 74
     0
 42
0.0000000108334332
 43
0.0000000001
 12
1.0
 22
0.0
 32
0.0
 13
1.0
 23
0.0
 33
0.0
 40
0.0
 40
0.0
 40
0.0
 40
0.0
 40
0.111961544054001
 40
0.111961544054001
 40
0.111961544054001
 40
0.224071522113387
 40
0.224071522113387
 40
0.224071522113387
 40
0.3338400478832876
 40
0.3338400478832876
 40
0.3338400478832876
 40
0.4402527267872414
 40
0.4402527267872414
 40
0.4402527267872414
 40
0.5001438666164723
 40
0.5001438666164723
 40
0.5001438666164723
 40
0.6037319614880875
 40
0.6037319614880875
 40
0.6037319614880875
 40
0.7072541124840058
 40
0.7072541124840058
 40
0.7072541124840058
 40
0.8118158326264296
 40
0.8118158326264296
 40
0.8118158326264296
 40
0.9190214043007972
 40
0.9190214043007972
 40
0.9190214043007972
 40
1.0
 40
1.0
 40
1.0
 40
1.0
 10
-15.0328236022129
 20
-3.293184353869739
 30
0.0
 10
-15.06801576680876
 20
-3.29129025529614
 30
0.0
 10
-15.1037306270527
 20
-3.283884486258456
 30
0.0
 10
-15.13701949238595
 20
-3.271452671084417
 30
0.0
 10
-15.17033369705091
 20
-3.259011392869649
 30
0.0
 10
-15.20215095488185
 20
-3.241166247027665
 30
0.0
 10
-15.22961869937624
 20
-3.219277646953693
 30
0.0
 10
-15.25651319456212
 20
-3.197845859955844
 30
0.0
 10
-15.2800002905204
 20
-3.171909717481285
 30
0.0
 10
-15.29787731996236
 20
-3.143617227963005
 30
0.0
 10
-15.3152161108755
 20
-3.116176563854792
 30
0.0
 10
-15.32776705692304
 20
-3.085734380966282
 30
0.0
 10
-15.33435301975099
 20
-3.054874391493045
 30
0.0
 10
-15.33809767951027
 20
-3.037327957695733
 30
0.0
 10
-15.34000000002512
 20
-3.01942595177709
 30
0.0
 10
-15.34000000002512
 20
-3.001683973518585
 30
0.0
 10
-15.34000000002513
 20
-2.971289115625093
 30
0.0
 10
-15.33430832756592
 20
-2.940697888711651
 30
0.0
 10
-15.32344120388479
 20
-2.912465767853855
 30
0.0
 10
-15.31257792274925
 20
-2.884243629693857
 30
0.0
 10
-15.29625564585981
 20
-2.857609511506739
 30
0.0
 10
-15.27590021727161
 20
-2.834700981641181
 30
0.0
 10
-15.25533652544066
 20
-2.811558066894177
 30
0.0
 10
-15.2301185606072
 20
-2.791595003311802
 30
0.0
 10
-15.20234460362663
 20
-2.776310039768047
 30
0.0
 10
-15.17387223542267
 20
-2.76064071651295
 30
0.0
 10
-15.14196696933783
 20
-2.74946547980266
 30
0.0
 10
-15.10918837922253
 20
-2.743548414604877
 30
0.0
 10
-15.08428261789429
 20
-2.739052522223256
 30
0.0
 10
-15.0584503847013
 20
-2.737477359950194
 30
0.0
 10
-15.0328236022129
 20
-2.738856634362969
 30
0.0
  0
LINE
  5
CD
330
1F
100
AcDbEntity
  8
SK1
  6
Continuous
100
AcDbLine
 10
-15.0328236022
 20
-2.7388566344
 30
0.0
 11
3.1043307596
 21
-3.7148546041
 31
0.0
  0
LINE
  5
CE
330
1F
100
AcDbEntity
  8
SK1
  6
Continuous
100
AcDbLine
 10
6.36
 20
-9.5819697696
 30
0.0
 11
6.36
 21
-4.2936994929
 31
0.0
  0
LINE
  5
CF
330
1F
100
AcDbEntity
  8
SK1
  6
Continuous
100
AcDbLine
 10
6.6198076211
 20
-9.5819697696
 30
0.0
 11
6.6198076211
 21
-4.2936994929
 31
0.0
  0
LINE
  5
D0
330
1F
100
AcDbEntity
  8
SK1
  6
Continuous
100
AcDbLine
 10
6.36
 20
-9.5819697696
 30
0.0
 11
6.6198076211
 21
-9.5819697696
 31
0.0
  0
LINE
  5
D1
330
1F
100
AcDbEntity
  8
SK1
  6
Continuous
100
AcDbLine
 10
6.36
 20
-9.811579829
 30
0.0
 11
6.6198076211
 21
-9.811579829
 31
0.0
  0
LINE
  5
D2
330
1F
100
AcDbEntity
  8
SK1
  6
Continuous
100
AcDbLine
 10
11.035
 20
-7.2256264036
 30
0.0
 11
11.035
 21
-3.3176701131
 31
0.0
  0
LINE
  5
D3
330
1F
100
AcDbEntity
  8
SK1
  6
Continuous
100
AcDbLine
 10
11.16
 20
-7.7343811406
 30
0.0
 11
11.16
 21
-7.255064144
 31
0.0
  0
LINE
  5
D4
330
1F
100
AcDbEntity
  8
SK1
  6
Continuous
100
AcDbLine
 10
3.1043307596
 20
-9.5227800869
 30
0.0
 11
3.1043307596
 21
-4.2691823236
 31
0.0
  0
LINE
  5
D5
330
1F
100
AcDbEntity
  8
SK1
  6
Continuous
100
AcDbLine
 10
3.56
 20
-9.1566674513
 30
0.0
 11
3.56
 21
-4.1175335046
 31
0.0
  0
LINE
  5
D6
330
1F
100
AcDbEntity
  8
SK1
  6
Continuous
100
AcDbLine
 10
3.76
 20
-7.9181667945
 30
0.0
 11
3.76
 21
-3.6045297355
 31
0.0
  0
LINE
  5
D7
330
1F
100
AcDbEntity
  8
SK1
  6
Continuous
100
AcDbLine
 10
6.16
 20
-7.9181667945
 30
0.0
 11
6.16
 21
-3.6045297355
 31
0.0
  0
ARC
  5
D8
330
1F
100
AcDbEntity
  8
SK1
  6
Continuous
100
AcDbCircle
 10
3.1698834536
 20
-9.3673553257
 30
0.0
 40
0.3905751769059511
100
AcDbArc
 50
260.3379590525
 51
357.2231059151
  0
LINE
  5
D9
330
1F
100
AcDbEntity
  8
SK1
  6
Continuous
100
AcDbLine
 10
6.6198076211
 20
-9.811579829
 30
0.0
 11
11.035
 21
-7.455236463
 31
0.0
  0
ARC
  5
DA
330
1F
100
AcDbEntity
  8
SK1
  6
Continuous
100
AcDbCircle
 10
10.92861756
 20
-7.2496896429
 30
0.0
 40
0.2314448504484454
100
AcDbArc
 50
297.3641944883
 51
358.6693853237
  0
LINE
  5
DB
330
1F
100
AcDbEntity
  8
SK1
  6
Continuous
100
AcDbLine
 10
11.16
 20
-7.255064144
 30
0.0
 11
11.16
 21
-7.0254540846
 31
0.0
  0
ARC
  5
DC
330
1F
100
AcDbEntity
  8
SK3
100
AcDbCircle
 10
10.7741869193
 20
-4.1579769241
 30
0.0
 40
0.3861180482955136
100
AcDbArc
 50
2.2773669814
 51
92.1056607107
  0
LINE
  5
DD
330
1F
100
AcDbEntity
  8
SK3
100
AcDbLine
 10
10.76
 20
-3.7721195949
 30
0.0
 11
-15.4080526594
 21
-3.7721195949
 31
0.0
  0
ARC
  5
DE
330
1F
100
AcDbEntity
  8
SK1
  6
Continuous
100
AcDbCircle
 10
6.1672772448
 20
-8.1109125302
 30
0.0
 40
0.1928830653693318
100
AcDbArc
 50
2.3361525744
 51
92.1622136513
  0
LINE
  5
DF
330
1F
100
AcDbEntity
  8
SK1
  6
Continuous
100
AcDbLine
 10
6.16
 20
-7.9181667945
 30
0.0
 11
3.76
 21
-7.9181667945
 31
0.0
  0
ARC
  5
E0
330
1F
100
AcDbEntity
  8
SK1
  6
Continuous
100
AcDbCircle
 10
3.7527231138
 20
-8.1109129181
 30
0.0
 40
0.1928834395199233
100
AcDbArc
 50
87.837897152
 51
177.6637366217
  0
LINE
  5
E1
330
1F
100
AcDbEntity
  8
SK1
  6
Continuous
100
AcDbLine
 10
6.36
 20
-9.811579829
 30
0.0
 11
6.36
 21
-9.5819697696
 31
0.0
  0
ARC
  5
E2
330
1F
100
AcDbEntity
  8
SK1
  6
Continuous
100
AcDbCircle
 10
6.1672772448
 20
-8.3405225896
 30
0.0
 40
0.1928830653693278
100
AcDbArc
 50
2.3361525744
 51
92.1622136513
  0
LINE
  5
E3
330
1F
100
AcDbEntity
  8
SK1
  6
Continuous
100
AcDbLine
 10
6.16
 20
-8.1477768539
 30
0.0
 11
3.76
 21
-8.1477768539
 31
0.0
  0
ARC
  5
E4
330
1F
100
AcDbEntity
  8
SK1
  6
Continuous
100
AcDbCircle
 10
3.7527231138
 20
-8.3405229776
 30
0.0
 40
0.1928834395199225
100
AcDbArc
 50
87.837897152
 51
177.6637366217
  0
LINE
  5
E5
330
1F
100
AcDbEntity
  8
SK1
  6
Continuous
100
AcDbLine
 10
3.56
 20
-9.1566674513
 30
0.0
 11
3.56
 21
-9.3862775107
 31
0.0
  0
ARC
  5
E6
330
1F
100
AcDbEntity
  8
SK1
  6
Continuous
100
AcDbCircle
 10
3.1698834536
 20
-9.1377452663
 30
0.0
 40
0.3905751769059489
100
AcDbArc
 50
260.3379590525
 51
357.2231059151
  0
LINE
  5
E7
330
1F
100
AcDbEntity
  8
SK1
  6
Continuous
100
AcDbLine
 10
6.6198076211
 20
-9.5819697696
 30
0.0
 11
11.035
 21
-7.2256264036
 31
0.0
  0
ARC
  5
E8
330
1F
100
AcDbEntity
  8
SK1
  6
Continuous
100
AcDbCircle
 10
10.92861756
 20
-7.0200795834
 30
0.0
 40
0.2314448504483809
100
AcDbArc
 50
297.3641944883
 51
358.6693853238
  0
ARC
  5
E9
330
1F
100
AcDbEntity
  8
SK3
100
AcDbCircle
 10
10.7741869193
 20
-3.9283668647
 30
0.0
 40
0.3861180482955141
100
AcDbArc
 50
2.2773669814
 51
92.1056607107
  0
LINE
  5
EA
330
1F
100
AcDbEntity
  8
SK3
100
AcDbLine
 10
10.76
 20
-3.5425095355
 30
0.0
 11
-15.4080526594
 21
-3.5425095355
 31
0.0
  0
SPLINE
  5
EB
330
1F
100
AcDbEntity
  8
SK1
  6
Continuous
100
AcDbSpline
210
0.0
220
0.0
230
1.0
 70
     8
 71
     3
 72
    11
 73
     7
 74
     0
 42
0.0000000005467597
 43
0.0000000001
 12
1.0
 22
0.0
 32
0.0
 13
1.0
 23
0.0
 33
0.0
 40
0.0
 40
0.0
 40
0.0
 40
0.0
 40
0.7010206363227406
 40
0.7010206363227406
 40
0.7010206363227406
 40
1.0
 40
1.0
 40
1.0
 40
1.0
 10
-15.03282360221291
 20
-7.396122611000526
 30
0.0
 10
-10.79466497899661
 20
-7.94681552637679
 30
0.0
 10
-6.55649332373371
 20
-8.497422835830406
 30
0.0
 10
-2.318314740217023
 20
-9.047984616328534
 30
0.0
 10
-0.5107674719252651
 20
-9.282794552426008
 30
0.0
 10
1.296781118067362
 20
-9.517595804280033
 30
0.0
 10
3.104330759591118
 20
-9.752390146332377
 30
0.0
  0
ELLIPSE
  5
EC
330
1F
100
AcDbEntity
  8
SK1
  6
Continuous
100
AcDbEllipse
 10
46.6658476798
 20
-0.1148050273
 30
0.0
 11
-62.20000002677311
 21
-1.605690104948774E-8
 31
0.0
210
0.0
220
0.0
230
1.0
 40
0.9238795323
 41
0.122988017154298
 42
0.1270495815735532
  0
SPLINE
  5
ED
330
1F
100
AcDbEntity
  8
SK3
100
AcDbSpline
210
0.0
220
0.0
230
1.0
 70
     8
 71
     3
 72
    35
 73
    31
 74
     0
 42
0.0000000145465495
 43
0.0000000001
 12
1.0
 22
0.0
 32
0.0
 13
1.0
 23
0.0
 33
0.0
 40
0.0
 40
0.0
 40
0.0
 40
0.0
 40
0.1073116002791877
 40
0.1073116002791877
 40
0.1073116002791877
 40
0.2146313029660658
 40
0.2146313029660658
 40
0.2146313029660658
 40
0.3218601853836673
 40
0.3218601853836673
 40
0.3218601853836673
 40
0.4292104648512041
 40
0.4292104648512041
 40
0.4292104648512041
 40
0.4999971294859833
 40
0.4999971294859833
 40
0.4999971294859833
 40
0.6074290988594233
 40
0.6074290988594233
 40
0.6074290988594233
 40
0.714861217893935
 40
0.714861217893935
 40
0.714861217893935
 40
0.8222844008015837
 40
0.8222844008015837
 40
0.8222844008015837
 40
0.9295969694225642
 40
0.9295969694225642
 40
0.9295969694225642
 40
1.0
 40
1.0
 40
1.0
 40
1.0
 10
-15.40805265944517
 20
-3.542509535466352
 30
0.0
 10
-15.44159237156948
 20
-3.542509535466353
 30
0.0
 10
-15.47559567979818
 20
-3.545128470971776
 30
0.0
 10
-15.50724639951472
 20
-3.550095577029715
 30
0.0
 10
-15.53889878370101
 20
-3.555062944301234
 30
0.0
 10
-15.56906980683545
 20
-3.562510080572503
 30
0.0
 10
-15.59526012532145
 20
-3.571658609976174
 30
0.0
 10
-15.62142950626287
 20
-3.580799825694738
 30
0.0
 10
-15.64434675344586
 20
-3.591882007271031
 30
0.0
 10
-15.66212971993519
 20
-3.603798888457791
 30
0.0
 10
-15.67993248641648
 20
-3.615729038192963
 30
0.0
 10
-15.69308092513368
 20
-3.628816209459398
 30
0.0
 10
-15.70049723089088
 20
-3.641842956688761
 30
0.0
 10
-15.70542689632824
 20
-3.650501918128634
 30
0.0
 10
-15.70793770591001
 20
-3.659267056966544
 30
0.0
 10
-15.70793770591001
 20
-3.667801744069739
 30
0.0
 10
-15.70793770591001
 20
-3.680651010527738
 30
0.0
 10
-15.70215756461264
 20
-3.693262331195832
 30
0.0
 10
-15.6910716163856
 20
-3.704654842541006
 30
0.0
 10
-15.67998566616554
 20
-3.716047355934314
 30
0.0
 10
-15.6632875597461
 20
-3.726541108395535
 30
0.0
 10
-15.64234912327122
 20
-3.735430000535488
 30
0.0
 10
-15.62141279817544
 20
-3.744317996341989
 30
0.0
 10
-15.59565745112838
 20
-3.751855749839514
 30
0.0
 10
-15.56721078433573
 20
-3.757609941889398
 30
0.0
 10
-15.53879301183837
 20
-3.763358289200938
 30
0.0
 10
-15.50690487441324
 20
-3.767493559286811
 30
0.0
 10
-15.47419111235655
 20
-3.769812324970712
 30
0.0
 10
-15.45255414745791
 20
-3.771345962454039
 30
0.0
 10
-15.43023561733624
 20
-3.772119594885406
 30
0.0
 10
-15.40805265944517
 20
-3.772119594885407
 30
0.0
  0
SPLINE
  5
EE
330
1F
100
AcDbEntity
  8
SK1
  6
Continuous
100
AcDbSpline
210
0.0
220
0.0
230
1.0
 70
     8
 71
     3
 72
    35
 73
    31
 74
     0
 42
0.0000000142044397
 43
0.0000000001
 12
1.0
 22
0.0
 32
0.0
 13
1.0
 23
0.0
 33
0.0
 40
0.0
 40
0.0
 40
0.0
 40
0.0
 40
0.1119615440540031
 40
0.1119615440540031
 40
0.1119615440540031
 40
0.2240715221133949
 40
0.2240715221133949
 40
0.2240715221133949
 40
0.3338400478832973
 40
0.3338400478832973
 40
0.3338400478832973
 40
0.4402527267872431
 40
0.4402527267872431
 40
0.4402527267872431
 40
0.5001438666164705
 40
0.5001438666164705
 40
0.5001438666164705
 40
0.6037319614880862
 40
0.6037319614880862
 40
0.6037319614880862
 40
0.7072541124840038
 40
0.7072541124840038
 40
0.7072541124840038
 40
0.8118158326264289
 40
0.8118158326264289
 40
0.8118158326264289
 40
0.9190214043007999
 40
0.9190214043007999
 40
0.9190214043007999
 40
1.0
 40
1.0
 40
1.0
 40
1.0
 10
-15.03282360221291
 20
-7.396122611000526
 30
0.0
 10
-15.06801576680877
 20
-7.391549852535674
 30
0.0
 10
-15.10373062705271
 20
-7.384818495215906
 30
0.0
 10
-15.13701949238596
 20
-7.37640708056815
 30
0.0
 10
-15.17033369705092
 20
-7.367989263190116
 30
0.0
 10
-15.20215095488186
 20
-7.357642311026347
 30
0.0
 10
-15.22961869937625
 20
-7.346122123273179
 30
0.0
 10
-15.25651319456213
 20
-7.334842360781892
 30
0.0
 10
-15.28000029052042
 20
-7.322105550758022
 30
0.0
 10
-15.29787731996237
 20
-7.308904530582035
 30
0.0
 10
-15.31521611087551
 20
-7.296100964451846
 30
0.0
 10
-15.32776705692304
 20
-7.282491230829037
 30
0.0
 10
-15.33435301975099
 20
-7.269185425863684
 30
0.0
 10
-15.33809767951027
 20
-7.261619984982801
 30
0.0
 10
-15.34000000002512
 20
-7.254055126844527
 30
0.0
 10
-15.34000000002512
 20
-7.246706158826524
 30
0.0
 10
-15.34000000002513
 20
-7.234116196460636
 30
0.0
 10
-15.33430832756593
 20
-7.221889921928188
 30
0.0
 10
-15.3234412038848
 20
-7.211070306818087
 30
0.0
 10
-15.31257792274926
 20
-7.200254517454852
 30
0.0
 10
-15.29625564585982
 20
-7.190551242488407
 30
0.0
 10
-15.27590021727162
 20
-7.182791809046524
 30
0.0
 10
-15.25533652544067
 20
-7.174952986228804
 30
0.0
 10
-15.2301185606072
 20
-7.168889351949796
 30
0.0
 10
-15.20234460362663
 20
-7.165110186425808
 30
0.0
 10
-15.17387223542267
 20
-7.161235989012098
 30
0.0
 10
-15.14196696933783
 20
-7.159659295515875
 30
0.0
 10
-15.10918837922253
 20
-7.160505192789536
 30
0.0
 10
-15.08428261789429
 20
-7.16114792072664
 30
0.0
 10
-15.0584503847013
 20
-7.163182688587921
 30
0.0
 10
-15.0328236022129
 20
-7.166512551581473
 30
0.0
  0
SPLINE
  5
EF
330
1F
100
AcDbEntity
  8
SK1
  6
Continuous
100
AcDbSpline
210
0.0
220
0.0
230
1.0
 70
     8
 71
     3
 72
    11
 73
     7
 74
     0
 42
0.0000000005467597
 43
0.0000000001
 12
1.0
 22
0.0
 32
0.0
 13
1.0
 23
0.0
 33
0.0
 40
0.0
 40
0.0
 40
0.0
 40
0.0
 40
0.7010206363227405
 40
0.7010206363227405
 40
0.7010206363227405
 40
1.0
 40
1.0
 40
1.0
 40
1.0
 10
-15.0328236022129
 20
-7.166512551581473
 30
0.0
 10
-10.79466497899661
 20
-7.717205466957738
 30
0.0
 10
-6.55649332373371
 20
-8.267812776411352
 30
0.0
 10
-2.318314740217025
 20
-8.81837455690948
 30
0.0
 10
-0.5107674719252667
 20
-9.053184493006956
 30
0.0
 10
1.29678111806736
 20
-9.28798574486098
 30
0.0
 10
3.104330759591118
 20
-9.522780086913324
 30
0.0
  0
LINE
  5
F0
330
1F
100
AcDbEntity
  8
SK1
  6
Continuous
100
AcDbLine
 10
6.36
 20
-10.5
 30
0.0
 11
6.36
 21
-9.811579829
 31
0.0
  0
LINE
  5
F1
330
1F
100
AcDbEntity
  8
SK1
  6
Continuous
100
AcDbLine
 10
6.6198076211
 20
-10.5
 30
0.0
 11
6.6198076211
 21
-9.811579829
 31
0.0
  0
LINE
  5
F2
330
1F
100
AcDbEntity
  8
SK1
  6
Continuous
100
AcDbLine
 10
11.035
 20
-7.9508874915
 30
0.0
 11
11.035
 21
-7.455236463
 31
0.0
  0
LINE
  5
F3
330
1F
100
AcDbEntity
  8
SK1
  6
Continuous
100
AcDbLine
 10
3.1043307596
 20
-9.7523901463
 30
0.0
 11
3.1043307596
 21
-10.4359598646
 31
0.0
  0
LINE
  5
F4
330
1F
100
AcDbEntity
  8
SK1
  6
Continuous
100
AcDbLine
 10
3.56
 20
-9.3862775107
 30
0.0
 11
3.56
 21
-10.0398526371
 31
0.0
  0
LINE
  5
F5
330
1F
100
AcDbEntity
  8
SK1
  6
Continuous
100
AcDbLine
 10
3.76
 20
-8.1477768539
 30
0.0
 11
3.76
 21
-8.7
 31
0.0
  0
LINE
  5
F6
330
1F
100
AcDbEntity
  8
SK1
  6
Continuous
100
AcDbLine
 10
6.16
 20
-8.1477768539
 30
0.0
 11
6.16
 21
-8.7
 31
0.0
  0
SPLINE
  5
F7
330
1F
100
AcDbEntity
  8
SK1
  6
Continuous
100
AcDbSpline
210
0.0
220
0.0
230
1.0
 70
     8
 71
     3
 72
    10
 73
     6
 74
     0
 42
0.0000000228003628
 43
0.0000000001
 12
1.0
 22
0.0
 32
0.0
 13
1.0
 23
0.0
 33
0.0
 40
0.0
 40
0.0
 40
0.0
 40
0.0
 40
0.5
 40
0.5
 40
1.0
 40
1.0
 40
1.0
 40
1.0
 10
-20.34000000002484
 20
6.873744493774021
 30
0.0
 10
-20.34000000002484
 20
6.945218406115489
 30
0.0
 10
-20.31326377621729
 20
7.016719007982877
 30
0.0
 10
-20.2198548920837
 20
7.124432163947599
 30
0.0
 10
-20.15328210195917
 20
7.161034298538552
 30
0.0
 10
-20.08175193031286
 20
7.17109600169202
 30
0.0
  0
SPLINE
  5
F8
330
1F
100
AcDbEntity
  8
SK1
  6
Continuous
100
AcDbSpline
210
0.0
220
0.0
230
1.0
 70
     8
 71
     3
 72
    11
 73
     7
 74
     0
 42
0.0000000005843816
 43
0.0000000001
 12
1.0
 22
0.0
 32
0.0
 13
1.0
 23
0.0
 33
0.0
 40
0.0
 40
0.0
 40
0.0
 40
0.0
 40
0.7363654467307729
 40
0.7363654467307729
 40
0.7363654467307729
 40
1.0
 40
1.0
 40
1.0
 40
1.0
 10
-20.08175193031286
 20
7.17109600169202
 30
0.0
 10
-15.9224445791693
 20
7.756159827777026
 30
0.0
 10
-11.76312064060971
 20
8.34110573354411
 30
0.0
 10
-7.603788294765344
 20
8.925991840989706
 30
0.0
 10
-6.114658502022613
 20
9.135393556346441
 30
0.0
 10
-4.625527567712
 20
9.344787153714233
 30
0.0
 10
-3.136395703209662
 20
9.554174135525765
 30
0.0
  0
LINE
  5
F9
330
1F
100
AcDbEntity
  8
SK3
100
AcDbLine
 10
-20.34
 20
4.6248100309
 30
0.0
 11
-19.1890003701
 21
3.9586487594
 31
0.0
  0
LINE
  5
FA
330
1F
100
AcDbEntity
  8
SK3
100
AcDbLine
 10
-2.5243352313
 20
3.9586487594
 30
0.0
 11
-19.1890003701
 21
3.9586487594
 31
0.0
  0
SPLINE
  5
FB
330
1F
100
AcDbEntity
  8
SK1
  6
Continuous
100
AcDbSpline
210
0.0
220
0.0
230
1.0
 70
     8
 71
     3
 72
    20
 73
    16
 74
     0
 42
0.0000000333319097
 43
0.0000000001
 12
1.0
 22
0.0
 32
0.0
 13
1.0
 23
0.0
 33
0.0
 40
0.0
 40
0.0
 40
0.0
 40
0.0
 40
0.2149247017096551
 40
0.2149247017096551
 40
0.2149247017096551
 40
0.4298480123667657
 40
0.4298480123667657
 40
0.4298480123667657
 40
0.644790515601643
 40
0.644790515601643
 40
0.644790515601643
 40
0.8597152002296615
 40
0.8597152002296615
 40
0.8597152002296615
 40
1.0
 40
1.0
 40
1.0
 40
1.0
 10
-2.840000000024816
 20
9.600538657904762
 30
0.0
 10
-2.840000000024816
 20
9.600538657904762
 30
0.0
 10
-2.8457124597771
 20
9.599550051989674
 30
0.0
 10
-2.856668421704931
 20
9.59768242890725
 30
0.0
 10
-2.867624342421125
 20
9.595814812850024
 30
0.0
 10
-2.884126172472485
 20
9.593019183818456
 30
0.0
 10
-2.904818781076476
 20
9.589598121904928
 30
0.0
 10
-2.925513149049536
 20
9.58617676911891
 30
0.0
 10
-2.95097059337154
 20
9.582039399919058
 30
0.0
 10
-2.9790960632832
 20
9.577612465985633
 30
0.0
 10
-3.007219105747954
 20
9.57318591413105
 30
0.0
 10
-3.038786301056093
 20
9.568351374715716
 30
0.0
 10
-3.07119107040516
 20
9.563569434238529
 30
0.0
 10
-3.092515486608936
 20
9.560422610760206
 30
0.0
 10
-3.114516384743072
 20
9.5572505887051
 30
0.0
 10
-3.136395703209662
 20
9.554174135525765
 30
0.0
  0
ARC
  5
FC
330
1F
100
AcDbEntity
  8
SK3
100
AcDbCircle
 10
-2.5243024663
 20
7.9247456456
 30
0.0
 40
3.966096886393955
100
AcDbArc
 50
269.9995266642
 51
274.2594917973
  0
SPLINE
  5
FD
330
1F
100
AcDbEntity
  8
SK3
100
AcDbSpline
210
0.0
220
0.0
230
1.0
 70
     8
 71
     3
 72
    11
 73
     7
 74
     0
 42
0.0000003224773797
 43
0.0000000001
 12
1.0
 22
0.0
 32
0.0
 13
1.0
 23
0.0
 33
0.0
 40
0.0
 40
0.0
 40
0.0
 40
0.0
 40
0.2257875381167107
 40
0.2257875381167107
 40
0.2257875381167107
 40
1.0
 40
1.0
 40
1.0
 40
1.0
 10
-15.69622902826674
 20
-3.698787169398853
 30
0.0
 10
-15.69781350076304
 20
-3.696791387822045
 30
0.0
 10
-15.69923799361878
 20
-3.694771580516792
 30
0.0
 10
-15.70049723089088
 20
-3.692731665380193
 30
0.0
 10
-15.70484983641092
 20
-3.685680614652301
 30
0.0
 10
-15.70731673709941
 20
-3.678299406560555
 30
0.0
 10
-15.70783463860982
 20
-3.670793290694606
 30
0.0
  0
LINE
  5
FE
330
1F
100
AcDbEntity
  8
SK1
  6
Continuous
100
AcDbLine
 10
-20.34
 20
5.072603378
 30
0.0
 11
-20.34
 21
6.8737444938
 31
0.0
  0
LINE
  5
FF
330
1F
100
AcDbEntity
  8
SK1
  6
Continuous
100
AcDbLine
 10
-20.0817519303
 20
5.2828626457
 30
0.0
 11
-20.0817519303
 21
7.1710960017
 31
0.0
  0
SPLINE
  5
100
330
1F
100
AcDbEntity
  8
SK1
  6
Continuous
100
AcDbSpline
210
0.0
220
0.0
230
1.0
 70
     8
 71
     3
 72
    10
 73
     6
 74
     0
 42
0.0000000269130255
 43
0.0000000001
 12
1.0
 22
0.0
 32
0.0
 13
1.0
 23
0.0
 33
0.0
 40
0.0
 40
0.0
 40
0.0
 40
0.0
 40
0.5
 40
0.5
 40
1.0
 40
1.0
 40
1.0
 40
1.0
 10
-20.34000000002484
 20
4.648339309335362
 30
0.0
 10
-20.34000000002484
 20
4.698878997429943
 30
0.0
 10
-20.31326377621729
 20
4.749437557869293
 30
0.0
 10
-20.2198548920837
 20
4.825602260874954
 30
0.0
 10
-20.15328210195917
 20
4.851483878450118
 30
0.0
 10
-20.08175193031286
 20
4.858598576980222
 30
0.0
  0
SPLINE
  5
101
330
1F
100
AcDbEntity
  8
SK1
  6
Continuous
100
AcDbSpline
210
0.0
220
0.0
230
1.0
 70
     8
 71
     3
 72
    10
 73
     6
 74
     0
 42
0.0000000269130255
 43
0.0000000001
 12
1.0
 22
0.0
 32
0.0
 13
1.0
 23
0.0
 33
0.0
 40
0.0
 40
0.0
 40
0.0
 40
0.0
 40
0.5
 40
0.5
 40
1.0
 40
1.0
 40
1.0
 40
1.0
 10
-20.34000000002498
 20
5.072603378047281
 30
0.0
 10
-20.34000000002485
 20
5.123143066141859
 30
0.0
 10
-20.3132637762173
 20
5.173701626581212
 30
0.0
 10
-20.21985489208372
 20
5.249866329586879
 30
0.0
 10
-20.15328210195917
 20
5.275747947162045
 30
0.0
 10
-20.08175193031286
 20
5.282862645692152
 30
0.0
  0
LINE
  5
102
330
1F
100
AcDbEntity
  8
SK3
100
AcDbLine
 10
-19.1890003701
 20
3.0113194164
 30
0.0
 11
-19.1890003701
 21
3.9586487594
 31
0.0
  0
LINE
  5
103
330
1F
100
AcDbEntity
  8
SK3
100
AcDbLine
 10
-20.34
 20
3.4823665689
 30
0.0
 11
-19.1890003701
 21
3.0113194164
 31
0.0
  0
SPLINE
  5
104
330
1F
100
AcDbEntity
  8
SK1
  6
Continuous
100
AcDbSpline
210
0.0
220
0.0
230
1.0
 70
     8
 71
     3
 72
    11
 73
     7
 74
     0
 42
0.0000000005872358
 43
0.0000000001
 12
1.0
 22
0.0
 32
0.0
 13
1.0
 23
0.0
 33
0.0
 40
0.0
 40
0.0
 40
0.0
 40
0.0
 40
0.736365446730773
 40
0.736365446730773
 40
0.736365446730773
 40
1.0
 40
1.0
 40
1.0
 40
1.0
 10
-20.08175193031286
 20
4.858598576980222
 30
0.0
 10
-15.9224445791693
 20
5.272301175831879
 30
0.0
 10
-11.76312064060971
 20
5.685920392427088
 30
0.0
 10
-7.603788294765344
 20
6.099497325223676
 30
0.0
 10
-6.114658502022613
 20
6.247566698144519
 30
0.0
 10
-4.625527567712004
 20
6.39563033078033
 30
0.0
 10
-3.136395703209666
 20
6.543689285511448
 30
0.0
  0
SPLINE
  5
105
330
1F
100
AcDbEntity
  8
SK1
  6
Continuous
100
AcDbSpline
210
0.0
220
0.0
230
1.0
 70
     8
 71
     3
 72
    11
 73
     7
 74
     0
 42
0.0000000005872358
 43
0.0000000001
 12
1.0
 22
0.0
 32
0.0
 13
1.0
 23
0.0
 33
0.0
 40
0.0
 40
0.0
 40
0.0
 40
0.0
 40
0.7363654467307728
 40
0.7363654467307728
 40
0.7363654467307728
 40
1.0
 40
1.0
 40
1.0
 40
1.0
 10
-20.08175193031286
 20
5.282862645692152
 30
0.0
 10
-15.9224445791693
 20
5.696565244543808
 30
0.0
 10
-11.76312064060971
 20
6.110184461139019
 30
0.0
 10
-7.603788294765344
 20
6.523761393935605
 30
0.0
 10
-6.114658502022613
 20
6.671830766856448
 30
0.0
 10
-4.625527567712
 20
6.819894399492259
 30
0.0
 10
-3.136395703209659
 20
6.967953354223377
 30
0.0
  0
LINE
  5
106
330
1F
100
AcDbEntity
  8
SK1
  6
Continuous
100
AcDbLine
 10
-20.34
 20
4.6483393093
 30
0.0
 11
-20.34
 21
5.072603378
 31
0.0
  0
LINE
  5
107
330
1F
100
AcDbEntity
  8
SK3
100
AcDbLine
 10
-20.34
 20
3.0581025002
 30
0.0
 11
-19.1890003701
 21
2.5870553477
 31
0.0
  0
LINE
  5
108
330
1F
100
AcDbEntity
  8
SK3
100
AcDbLine
 10
-2.5243352313
 20
2.5870553477
 30
0.0
 11
-19.1890003701
 21
2.5870553477
 31
0.0
  0
SPLINE
  5
109
330
1F
100
AcDbEntity
  8
SK1
  6
Continuous
100
AcDbSpline
210
0.0
220
0.0
230
1.0
 70
     8
 71
     3
 72
    35
 73
    31
 74
     0
 42
0.0000000123423821
 43
0.0000000001
 12
1.0
 22
0.0
 32
0.0
 13
1.0
 23
0.0
 33
0.0
 40
0.0
 40
0.0
 40
0.0
 40
0.0
 40
0.1074285959530351
 40
0.1074285959530351
 40
0.1074285959530351
 40
0.2148567029689949
 40
0.2148567029689949
 40
0.2148567029689949
 40
0.3222951556111677
 40
0.3222951556111677
 40
0.3222951556111677
 40
0.4297633880495463
 40
0.4297633880495463
 40
0.4297633880495463
 40
0.4999992835871162
 40
0.4999992835871162
 40
0.4999992835871162
 40
0.607461788416774
 40
0.607461788416774
 40
0.607461788416774
 40
0.7149235977191608
 40
0.7149235977191608
 40
0.7149235977191608
 40
0.822395003324176
 40
0.822395003324176
 40
0.822395003324176
 40
0.9298574996130002
 40
0.9298574996130002
 40
0.9298574996130002
 40
1.0
 40
1.0
 40
1.0
 40
1.0
 10
-3.136395703209659
 20
6.967953354223377
 30
0.0
 10
-3.103157912648631
 20
6.971258066616785
 30
0.0
 10
-3.069487393884735
 20
6.970642240481132
 30
0.0
 10
-3.038168610558154
 20
6.966135480595014
 30
0.0
 10
-3.006849879389593
 20
6.961628728214412
 30
0.0
 10
-2.977018914274517
 20
6.953105042185391
 30
0.0
 10
-2.95113432588834
 20
6.941219269706218
 30
0.0
 10
-2.925247179275229
 20
6.929332322531783
 30
0.0
 10
-2.902592633809724
 20
6.913752171066655
 30
0.0
 10
-2.885032287893939
 20
6.895709136147169
 30
0.0
 10
-2.867467217372121
 20
6.877661246754312
 30
0.0
 10
-2.854514141950214
 20
6.856648755556273
 30
0.0
 10
-2.847236641976947
 20
6.83436976901694
 30
0.0
 10
-2.84244156185553
 20
6.819690342583073
 30
0.0
 10
-2.840000000024824
 20
6.804249750193285
 30
0.0
 10
-2.840000000024824
 20
6.788605988048078
 30
0.0
 10
-2.840000000024824
 20
6.764864707400779
 30
0.0
 10
-2.845712459777102
 20
6.740096983019471
 30
0.0
 10
-2.856668421704933
 20
6.716373520507119
 30
0.0
 10
-2.867624342421127
 20
6.692650147232276
 30
0.0
 10
-2.884126172472487
 20
6.669318467237237
 30
0.0
 10
-2.90481878107648
 20
6.648360255066156
 30
0.0
 10
-2.925513149049539
 20
6.627400260943321
 30
0.0
 10
-2.95097059337154
 20
6.608238714228032
 30
0.0
 10
-2.9790960632832
 20
6.592521893904679
 30
0.0
 10
-3.007219105747954
 20
6.576806430065217
 30
0.0
 10
-3.038786301056095
 20
6.564104227879002
 30
0.0
 10
-3.071191070405162
 20
6.555509949957773
 30
0.0
 10
-3.092515486608934
 20
6.549854363973222
 30
0.0
 10
-3.11451638474307
 20
6.545864666415535
 30
0.0
 10
-3.136395703209666
 20
6.543689285511448
 30
0.0
  0
SPLINE
  5
10A
330
1F
100
AcDbEntity
  8
SK3
100
AcDbSpline
210
0.0
220
0.0
230
1.0
 70
     8
 71
     3
 72
    35
 73
    31
 74
     0
 42
0.0000000122861496
 43
0.0000000001
 12
1.0
 22
0.0
 32
0.0
 13
1.0
 23
0.0
 33
0.0
 40
0.0
 40
0.0
 40
0.0
 40
0.0
 40
0.1073116002791866
 40
0.1073116002791866
 40
0.1073116002791866
 40
0.2146313029660604
 40
0.2146313029660604
 40
0.2146313029660604
 40
0.3218601853836679
 40
0.3218601853836679
 40
0.3218601853836679
 40
0.4292104648512049
 40
0.4292104648512049
 40
0.4292104648512049
 40
0.4999971294855867
 40
0.4999971294855867
 40
0.4999971294855867
 40
0.6074290988594235
 40
0.6074290988594235
 40
0.6074290988594235
 40
0.7148612178939376
 40
0.7148612178939376
 40
0.7148612178939376
 40
0.8222844008015872
 40
0.8222844008015872
 40
0.8222844008015872
 40
0.9295969694225732
 40
0.9295969694225732
 40
0.9295969694225732
 40
1.0
 40
1.0
 40
1.0
 40
1.0
 10
-2.524335231330912
 20
2.587055347724847
 30
0.0
 10
-2.490795519206602
 20
2.587055347724848
 30
0.0
 10
-2.456792210977899
 20
2.591446507673159
 30
0.0
 10
-2.425141491261357
 20
2.599833001759391
 30
0.0
 10
-2.393489107075066
 20
2.608219936880324
 30
0.0
 10
-2.36331808394063
 20
2.620829783702984
 30
0.0
 10
-2.337127765454628
 20
2.636496314798323
 30
0.0
 10
-2.310958384513206
 20
2.65215032146814
 30
0.0
 10
-2.288041137330214
 20
2.671279606160328
 30
0.0
 10
-2.270258170840889
 20
2.69215775421058
 30
0.0
 10
-2.252455404359598
 20
2.713059148504022
 30
0.0
 10
-2.239306965642398
 20
2.736282891672674
 30
0.0
 10
-2.231890659885202
 20
2.75980515491542
 30
0.0
 10
-2.226960994447854
 20
2.775440552364275
 30
0.0
 10
-2.224450184864477
 20
2.791443875848478
 30
0.0
 10
-2.22445018486445
 20
2.807213921310495
 30
0.0
 10
-2.224450184864408
 20
2.830956269887305
 30
0.0
 10
-2.230230326163353
 20
2.854708283635123
 30
0.0
 10
-2.241316274390464
 20
2.876551648577693
 30
0.0
 10
-2.252402224610525
 20
2.898395017447106
 30
0.0
 10
-2.269100331029978
 20
2.918936805635072
 30
0.0
 10
-2.290038767504858
 20
2.936600407659157
 30
0.0
 10
-2.310975092600644
 20
2.95426222853019
 30
0.0
 10
-2.336730439647706
 20
2.969540762692296
 30
0.0
 10
-2.365177106440349
 20
2.981315656469435
 30
0.0
 10
-2.393594878937718
 20
2.993078590066491
 30
0.0
 10
-2.425483016362842
 20
3.001675668310461
 30
0.0
 10
-2.458196778419538
 20
3.006505328833751
 30
0.0
 10
-2.479833743318179
 20
3.009699678509391
 30
0.0
 10
-2.502152273439837
 20
3.011319416436776
 30
0.0
 10
-2.524335231330912
 20
3.011319416436776
 30
0.0
  0
LINE
  5
10B
330
1F
100
AcDbEntity
  8
SK3
100
AcDbLine
 10
-2.5243352313
 20
3.0113194164
 30
0.0
 11
-19.1890003701
 21
3.0113194164
 31
0.0
  0
ELLIPSE
  5
10C
330
1F
100
AcDbEntity
  8
SK1
  6
Continuous
100
AcDbEllipse
 10
-64.5982355446
 20
0.2121320343
 30
0.0
 11
62.20000000078567
 21
1.440617366702387E-10
 31
0.0
210
0.0
220
0.0
230
1.0
 40
0.7071067812
 41
0.1449132899867
 42
0.1542146184973575
  0
LINE
  5
10D
330
1F
100
AcDbEntity
  8
SK1
  6
Continuous
100
AcDbLine
 10
3.1043307596
 20
10.4359598646
 30
0.0
 11
-2.84
 21
9.6005386579
 31
0.0
  0
LINE
  5
10E
330
1F
100
AcDbEntity
  8
SK1
  6
Continuous
100
AcDbLine
 10
-2.84
 20
-9.6005386579
 30
0.0
 11
3.1043307596
 21
-10.4359598646
 31
0.0
  0
LINE
  5
10F
330
1F
100
AcDbEntity
  8
SK3
100
AcDbLine
 10
-2.2244501849
 20
-3.97
 30
0.0
 11
10.76
 21
-3.97
 31
0.0
  0
LINE
  5
110
330
1F
100
AcDbEntity
  8
SK3
100
AcDbLine
 10
10.76
 20
3.97
 30
0.0
 11
-2.2244501849
 21
3.97
 31
0.0
  0
ARC
  5
111
330
1F
100
AcDbEntity
  8
SK3
100
AcDbCircle
 10
-33.9822825915
 20
0.0411678565
 30
0.0
 40
31.88572991341478
100
AcDbArc
 50
347.5733225592
 51
354.8507076862
  0
LINE
  5
112
330
1F
100
AcDbEntity
  8
SK1
  6
Continuous
100
AcDbLine
 10
6.6198076211
 20
10.5
 30
0.0
 11
6.36
 21
10.5
 31
0.0
  0
ARC
  5
113
330
1F
100
AcDbEntity
  8
SK1
  6
Continuous
100
AcDbCircle
 10
10.91
 20
7.7343811406
 30
0.0
 40
0.2500000000000002
100
AcDbArc
 50
0.0
 51
60.0
  0
ARC
  5
114
330
1F
100
AcDbEntity
  8
SK3
100
AcDbCircle
 10
10.76
 20
4.37
 30
0.0
 40
0.4000000000000015
100
AcDbArc
 50
270.0
 51
0.0
  0
ARC
  5
115
330
1F
100
AcDbEntity
  8
SK1
  6
Continuous
100
AcDbCircle
 10
3.16
 20
10.0398526371
 30
0.0
 40
0.3999999999999993
100
AcDbArc
 50
0.0
 51
98.0
  0
ARC
  5
116
330
1F
100
AcDbEntity
  8
SK1
  6
Continuous
100
AcDbCircle
 10
3.76
 20
8.9
 30
0.0
 40
0.1999999999999997
100
AcDbArc
 50
180.0
 51
270.0
  0
LINE
  5
117
330
1F
100
AcDbEntity
  8
SK1
  6
Continuous
100
AcDbLine
 10
6.16
 20
8.7
 30
0.0
 11
3.76
 21
8.7
 31
0.0
  0
ARC
  5
118
330
1F
100
AcDbEntity
  8
SK1
  6
Continuous
100
AcDbCircle
 10
6.16
 20
8.9
 30
0.0
 40
0.1999999999999953
100
AcDbArc
 50
270.0
 51
0.0
  0
LINE
  5
119
330
1F
100
AcDbEntity
  8
SK1
  6
Continuous
100
AcDbLine
 10
11.035
 20
7.9508874915
 30
0.0
 11
6.6198076211
 21
10.5
 31
0.0
  0
ARC
  5
11A
330
1F
100
AcDbEntity
  8
SK3
100
AcDbCircle
 10
-64.5982355438
 20
0.0
 30
0.0
 40
62.50000000000001
100
AcDbArc
 50
351.1639152495
 51
356.3581000871
  0
ARC
  5
11B
330
1F
100
AcDbEntity
  8
SK3
100
AcDbCircle
 10
37.2948854344
 20
0.0262064519
 30
0.0
 40
53.12785373616671
100
AcDbArc
 50
172.1818960821
 51
176.0663899072
  0
ARC
  5
11C
330
1F
100
AcDbEntity
  8
SK3
100
AcDbCircle
 10
-5.7697066013
 20
-0.0995235676
 30
0.0
 40
10.07258647044869
100
AcDbArc
 50
161.5829575868
 51
170.5102306629
  0
ARC
  5
11D
330
1F
100
AcDbEntity
  8
SK3
100
AcDbCircle
 10
-5.7264503637
 20
0.1077307508
 30
0.0
 40
10.11652508621644
100
AcDbArc
 50
189.4952718161
 51
198.3843241453
  0
ARC
  5
11E
330
1F
100
AcDbEntity
  8
SK3
100
AcDbCircle
 10
37.5555044821
 20
-0.0057946566
 30
0.0
 40
53.38917496266973
100
AcDbArc
 50
183.9362785635
 51
187.8015127619
  0
LINE
  5
11F
330
1F
100
AcDbEntity
  8
SK1
  6
Continuous
100
AcDbLine
 10
6.36
 20
-10.5
 30
0.0
 11
6.6198076211
 21
-10.5
 31
0.0
  0
ARC
  5
120
330
1F
100
AcDbEntity
  8
SK1
  6
Continuous
100
AcDbCircle
 10
10.91
 20
-7.7343811406
 30
0.0
 40
0.2500000000000008
100
AcDbArc
 50
300.0
 51
0.0
  0
ARC
  5
121
330
1F
100
AcDbEntity
  8
SK3
100
AcDbCircle
 10
10.76
 20
-4.37
 30
0.0
 40
0.4000000000000007
100
AcDbArc
 50
0.0
 51
90.0
  0
ARC
  5
122
330
1F
100
AcDbEntity
  8
SK1
  6
Continuous
100
AcDbCircle
 10
3.16
 20
-10.0398526371
 30
0.0
 40
0.3999999999999992
100
AcDbArc
 50
262.0
 51
0.0
  0
ARC
  5
123
330
1F
100
AcDbEntity
  8
SK1
  6
Continuous
100
AcDbCircle
 10
3.76
 20
-8.9
 30
0.0
 40
0.2000000000000005
100
AcDbArc
 50
90.0
 51
180.0
  0
LINE
  5
124
330
1F
100
AcDbEntity
  8
SK1
  6
Continuous
100
AcDbLine
 10
3.76
 20
-8.7
 30
0.0
 11
6.16
 21
-8.7
 31
0.0
  0
ARC
  5
125
330
1F
100
AcDbEntity
  8
SK1
  6
Continuous
100
AcDbCircle
 10
6.16
 20
-8.9
 30
0.0
 40
0.1999999999999997
100
AcDbArc
 50
0.0
 51
90.0
  0
LINE
  5
126
330
1F
100
AcDbEntity
  8
SK1
  6
Continuous
100
AcDbLine
 10
6.6198076211
 20
-10.5
 30
0.0
 11
11.035
 21
-7.9508874915
 31
0.0
  0
ARC
  5
127
330
1F
100
AcDbEntity
  8
SK3
100
AcDbCircle
 10
-64.5982355438
 20
0.0
 30
0.0
 40
62.50000000000001
100
AcDbArc
 50
3.6418894528
 51
8.8361022736
  0
ARC
  5
128
330
1F
100
AcDbEntity
  8
SK3
100
AcDbCircle
 10
-33.9849879565
 20
-0.0421085212
 30
0.0
 40
31.88854188215324
100
AcDbArc
 50
5.1505295452
 51
12.4273498349
  0
LINE
  5
129
330
1F
100
AcDbEntity
  8
SK1
  6
Continuous
100
AcDbLine
 10
0.0
 20
9.9996746285
 30
0.0
 11
0.0
 21
-9.9996746285
 31
0.0
  0
LINE
  5
12B
330
1F
100
AcDbEntity
  8
SK4
  6
Continuous
100
AcDbLine
 10
11.16
 20
0.0
 30
0.0
 11
-20.34
 21
0.0
 31
0.0
  0
DIMENSION
  5
141
330
1F
100
AcDbEntity
  8
SK2
  6
Continuous
 62
   136
100
AcDbDimension
  2
DMBLK171
 10
11.16
 20
17.9757959679
 30
0.0
 11
-4.5899997467
 21
17.9757959679
 31
0.0
 70
   160
  1
\A1;<>
 71
     5
 42
-1.0
  3
DIN
100
AcDbAlignedDimension
 13
-20.34
 23
6.8737444938
 33
0.0
 14
11.16
 24
7.4947226423
 34
0.0
100
AcDbRotatedDimension
  0
DIMENSION
  5
14B
330
1F
100
AcDbEntity
  8
SK2
  6
Continuous
 62
   136
100
AcDbDimension
  2
DMBLK172
 10
22.5101728236
 20
3.97
 30
0.0
 11
22.5101728236
 21
9.9999998149
 31
0.0
 70
   161
  1
\A1;ø <>
 71
     5
 42
-1.0
  3
DIN
100
AcDbAlignedDimension
 13
10.76
 23
3.97
 33
0.0
 14
10.76
 24
-3.97
 34
0.0
  0
DIMENSION
  5
156
330
1F
100
AcDbEntity
  8
SK2
  6
Continuous
 62
   136
100
AcDbDimension
  2
DMBLK173
 10
11.16
 20
-18.0316454498
 30
0.0
 11
5.5800001137
 21
-18.0316454498
 31
0.0
 70
   160
  1
\A1;<>
 71
     5
 42
-1.0
  3
DIN
100
AcDbAlignedDimension
 13
0.0
 23
-9.9996746285
 33
0.0
 14
11.16
 24
-7.0254540846
 34
0.0
100
AcDbRotatedDimension
  0
DIMENSION
  5
160
330
1F
100
AcDbEntity
  8
SK2
  6
Continuous
 62
   136
100
AcDbDimension
  2
DMBLK174
 10
-25.965007022
 20
9.9996746285
 30
0.0
 11
-25.965007022
 21
-0.0000001164
 31
0.0
 70
   161
  1
\A1;ø <>
 71
     5
 42
-1.0
  3
DIN
100
AcDbAlignedDimension
 13
0.0
 23
9.9996746285
 33
0.0
 14
0.0
 24
-9.9996746285
 34
0.0
  0
INSERT
  5
175
330
1F
100
AcDbEntity
  8
SK2
 62
     7
100
AcDbBlockReference
  2
Nullpunkt
 10
0.0
 20
0.0000000998
 30
0.0
  0
INSERT
  5
180
330
1F
100
AcDbEntity
  8
SK2
 62
     7
100
AcDbBlockReference
  2
Einfügepunkt
 10
11.16
 20
0.0
 30
0.0
  0
ENDSEC
  0
SECTION
  2
OBJECTS
  0
DICTIONARY
  5
C
330
0
100
AcDbDictionary
281
     1
  3
ACAD_GROUP
350
D
  3
ACAD_LAYOUT
350
1A
  3
ACAD_MATERIAL
350
3B
  3
ACAD_MLEADERSTYLE
350
183
  3
ACAD_MLINESTYLE
350
17
  3
ACAD_PLOTSETTINGS
350
19
  3
ACAD_PLOTSTYLENAME
350
E
  3
ACAD_VISUALSTYLE
350
2A
  3
AcDbVariableDictionary
350
181
  0
DICTIONARY
  5
D
102
{ACAD_REACTORS
330
C
102
}
330
C
100
AcDbDictionary
281
     1
  0
DICTIONARY
  5
1A
102
{ACAD_REACTORS
330
C
102
}
330
C
100
AcDbDictionary
281
     1
  3
Layout1
350
1E
  3
Model
350
22
  0
DICTIONARY
  5
3B
102
{ACAD_REACTORS
330
C
102
}
330
C
100
AcDbDictionary
281
     1
  3
ByBlock
350
3D
  3
ByLayer
350
3C
  3
Global
350
3E
  0
DICTIONARY
  5
183
102
{ACAD_REACTORS
330
C
102
}
330
C
100
AcDbDictionary
281
     1
  0
DICTIONARY
  5
17
102
{ACAD_REACTORS
330
C
102
}
330
C
100
AcDbDictionary
281
     1
  3
Standard
350
18
  0
DICTIONARY
  5
19
102
{ACAD_REACTORS
330
C
102
}
330
C
100
AcDbDictionary
281
     1
  0
ACDBDICTIONARYWDFLT
  5
E
102
{ACAD_REACTORS
330
C
102
}
330
C
100
AcDbDictionary
281
     1
  3
Normal
350
F
100
AcDbDictionaryWithDefault
340
F
  0
DICTIONARY
  5
2A
102
{ACAD_REACTORS
330
C
102
}
330
C
100
AcDbDictionary
281
     1
  3
2dWireframe
350
2F
  3
3D Hidden
350
31
  3
3dWireframe
350
30
  3
Basic
350
32
  3
Brighten
350
36
  3
ColorChange
350
3A
  3
Conceptual
350
34
  3
Dim
350
35
  3
Facepattern
350
39
  3
Flat
350
2B
  3
FlatWithEdges
350
2C
  3
Gouraud
350
2D
  3
GouraudWithEdges
350
2E
  3
Linepattern
350
38
  3
Realistic
350
33
  3
Thicken
350
37
  0
DICTIONARY
  5
181
102
{ACAD_REACTORS
330
C
102
}
330
C
100
AcDbDictionary
281
     1
  3
DIMASSOC
350
186
  3
HIDETEXT
350
187
  3
PSOLHEIGHT
350
185
  3
PSOLWIDTH
350
184
  0
LAYOUT
  5
1E
102
{ACAD_REACTORS
330
1A
102
}
330
1A
100
AcDbPlotSettings
  1

  2
none_device
  4

  6

 40
0.0
 41
0.0
 42
0.0
 43
0.0
 44
0.0
 45
0.0
 46
0.0
 47
0.0
 48
0.0
 49
0.0
140
0.0
141
0.0
142
1.0
143
1.0
 70
   688
 72
     0
 73
     0
 74
     5
  7

 75
    16
147
1.0
148
0.0
149
0.0
100
AcDbLayout
  1
Layout1
 70
     1
 71
     1
 10
0.0
 20
0.0
 11
210.0
 21
297.0
 12
0.0
 22
0.0
 32
0.0
 14
0.0
 24
0.0
 34
0.0
 15
210.0
 25
297.0
 35
0.0
146
0.0
 13
0.0
 23
0.0
 33
0.0
 16
1.0
 26
0.0
 36
0.0
 17
0.0
 27
1.0
 37
0.0
 76
     0
330
1B
  0
LAYOUT
  5
22
102
{ACAD_REACTORS
330
1A
102
}
330
1A
100
AcDbPlotSettings
  1

  2
none_device
  4

  6

 40
0.0
 41
0.0
 42
0.0
 43
0.0
 44
0.0
 45
0.0
 46
0.0
 47
0.0
 48
0.0
 49
0.0
140
0.0
141
0.0
142
1.0
143
1.0
 70
  1712
 72
     0
 73
     0
 74
     0
  7

 75
     0
147
1.0
148
0.0
149
0.0
100
AcDbLayout
  1
Model
 70
     1
 71
     0
 10
0.0
 20
0.0
 11
210.0
 21
297.0
 12
0.0
 22
0.0
 32
0.0
 14
0.0
 24
0.0
 34
0.0
 15
210.0
 25
297.0
 35
0.0
146
0.0
 13
0.0
 23
0.0
 33
0.0
 16
1.0
 26
0.0
 36
0.0
 17
0.0
 27
1.0
 37
0.0
 76
     0
330
1F
331
29
  0
MATERIAL
  5
3D
102
{ACAD_REACTORS
330
3B
102
}
102
{ACAD_XDICTIONARY
360
1AA
102
}
330
3B
100
AcDbMaterial
  1
ByBlock
  0
MATERIAL
  5
3C
102
{ACAD_REACTORS
330
3B
102
}
102
{ACAD_XDICTIONARY
360
1A8
102
}
330
3B
100
AcDbMaterial
  1
ByLayer
  0
MATERIAL
  5
3E
102
{ACAD_REACTORS
330
3B
102
}
102
{ACAD_XDICTIONARY
360
1AC
102
}
330
3B
100
AcDbMaterial
  1
Global
  0
MLINESTYLE
  5
18
102
{ACAD_REACTORS
330
17
102
}
330
17
100
AcDbMlineStyle
  2
Standard
 70
     0
  3

 62
   256
 51
90.0
 52
90.0
 71
     2
 49
0.5
 62
   256
  6
BYLAYER
 49
-0.5
 62
   256
  6
BYLAYER
  0
ACDBPLACEHOLDER
  5
F
102
{ACAD_REACTORS
330
E
102
}
330
E
  0
VISUALSTYLE
  5
2F
102
{ACAD_REACTORS
330
2A
102
}
102
{ACAD_XDICTIONARY
360
190
102
}
330
2A
100
AcDbVisualStyle
  2
2dWireframe
 70
     4
 71
     0
 72
     2
 73
     0
 90
        0
 40
-0.6
 41
-30.0
 62
     5
 63
     7
 74
     1
 91
        4
 64
     7
 65
   257
 75
     1
175
     1
 42
1.0
 92
        0
 66
   257
 43
1.0
 76
     1
 77
     6
 78
     2
 67
     7
 79
     5
170
     0
171
     0
290
     0
174
     0
 93
        1
 44
0.0
173
     0
291
     0
 45
0.0
1001
ACAD
1000
AcDbSavedByObjectVersion
1070
     0
  0
VISUALSTYLE
  5
31
102
{ACAD_REACTORS
330
2A
102
}
102
{ACAD_XDICTIONARY
360
194
102
}
330
2A
100
AcDbVisualStyle
  2
3D Hidden
 70
     6
 71
     1
 72
     2
 73
     2
 90
        0
 40
-0.6
 41
-30.0
 62
     5
 63
     7
 74
     2
 91
        2
 64
     7
 65
   257
 75
     2
175
     1
 42
40.0
 92
        0
 66
   257
 43
1.0
 76
     1
 77
     6
 78
     2
 67
     7
 79
     3
170
     0
171
     0
290
     0
174
     0
 93
        1
 44
0.0
173
     0
291
     0
 45
0.0
1001
ACAD
1000
AcDbSavedByObjectVersion
1070
     0
  0
VISUALSTYLE
  5
30
102
{ACAD_REACTORS
330
2A
102
}
102
{ACAD_XDICTIONARY
360
192
102
}
330
2A
100
AcDbVisualStyle
  2
3dWireframe
 70
     5
 71
     0
 72
     2
 73
     0
 90
        0
 40
-0.6
 41
-30.0
 62
     5
 63
     7
 74
     1
 91
        4
 64
     7
 65
   257
 75
     1
175
     1
 42
1.0
 92
        0
 66
   257
 43
1.0
 76
     1
 77
     6
 78
     2
 67
     7
 79
     5
170
     0
171
     0
290
     0
174
     0
 93
        1
 44
0.0
173
     0
291
     0
 45
0.0
1001
ACAD
1000
AcDbSavedByObjectVersion
1070
     0
  0
VISUALSTYLE
  5
32
102
{ACAD_REACTORS
330
2A
102
}
102
{ACAD_XDICTIONARY
360
196
102
}
330
2A
100
AcDbVisualStyle
  2
Basic
 70
     7
 71
     1
 72
     0
 73
     1
 90
        0
 40
-0.6
 41
-30.0
 62
     5
 63
     7
 74
     0
 91
        4
 64
     7
 65
   257
 75
     1
175
     1
 42
1.0
 92
        8
 66
     7
 43
1.0
 76
     1
 77
     6
 78
     2
 67
     7
 79
     5
170
     0
171
     0
290
     0
174
     0
 93
        1
 44
0.0
173
     0
291
     1
 45
0.0
1001
ACAD
1000
AcDbSavedByObjectVersion
1070
     0
  0
VISUALSTYLE
  5
36
102
{ACAD_REACTORS
330
2A
102
}
102
{ACAD_XDICTIONARY
360
19E
102
}
330
2A
100
AcDbVisualStyle
  2
Brighten
 70
    12
 71
     2
 72
     2
 73
     0
 90
        0
 40
-0.6
 41
-30.0
 62
     5
 63
     7
 74
     1
 91
        4
 64
     7
 65
   257
 75
     1
175
     1
 42
1.0
 92
        8
 66
     7
 43
1.0
 76
     1
 77
     6
 78
     2
 67
     7
 79
     5
170
     0
171
     0
290
     0
174
     0
 93
        1
 44
50.0
173
     0
291
     1
 45
0.0
1001
ACAD
1000
AcDbSavedByObjectVersion
1070
     0
  0
VISUALSTYLE
  5
3A
102
{ACAD_REACTORS
330
2A
102
}
102
{ACAD_XDICTIONARY
360
1A6
102
}
330
2A
100
AcDbVisualStyle
  2
ColorChange
 70
    16
 71
     2
 72
     2
 73
     3
 90
        0
 40
-0.6
 41
-30.0
 62
     5
 63
     8
 74
     1
 91
        4
 64
     7
 65
   257
 75
     1
175
     1
 42
1.0
 92
        8
 66
     8
 43
1.0
 76
     1
 77
     6
 78
     2
 67
     7
 79
     5
170
     0
171
     0
290
     0
174
     0
 93
        1
 44
0.0
173
     0
291
     1
 45
0.0
1001
ACAD
1000
AcDbSavedByObjectVersion
1070
     0
  0
VISUALSTYLE
  5
34
102
{ACAD_REACTORS
330
2A
102
}
102
{ACAD_XDICTIONARY
360
19A
102
}
330
2A
100
AcDbVisualStyle
  2
Conceptual
 70
     9
 71
     3
 72
     2
 73
     0
 90
        0
 40
-0.6
 41
-30.0
 62
     5
 63
     7
 74
     2
 91
        2
 64
     7
 65
   257
 75
     1
175
     1
 42
40.0
 92
        8
 66
     7
 43
1.0
 76
     1
 77
     6
 78
     2
 67
     7
 79
     3
170
     0
171
     0
290
     0
174
     0
 93
        1
 44
0.0
173
     0
291
     0
 45
0.0
1001
ACAD
1000
AcDbSavedByObjectVersion
1070
     0
  0
VISUALSTYLE
  5
35
102
{ACAD_REACTORS
330
2A
102
}
102
{ACAD_XDICTIONARY
360
19C
102
}
330
2A
100
AcDbVisualStyle
  2
Dim
 70
    11
 71
     2
 72
     2
 73
     0
 90
        0
 40
-0.6
 41
-30.0
 62
     5
 63
     7
 74
     1
 91
        4
 64
     7
 65
   257
 75
     1
175
     1
 42
1.0
 92
        8
 66
     7
 43
1.0
 76
     1
 77
     6
 78
     2
 67
     7
 79
     5
170
     0
171
     0
290
     0
174
     0
 93
        1
 44
-50.0
173
     0
291
     1
 45
0.0
1001
ACAD
1000
AcDbSavedByObjectVersion
1070
     0
  0
VISUALSTYLE
  5
39
102
{ACAD_REACTORS
330
2A
102
}
102
{ACAD_XDICTIONARY
360
1A4
102
}
330
2A
100
AcDbVisualStyle
  2
Facepattern
 70
    15
 71
     2
 72
     2
 73
     0
 90
        0
 40
-0.6
 41
-30.0
 62
     5
 63
     7
 74
     1
 91
        4
 64
     7
 65
   257
 75
     1
175
     1
 42
1.0
 92
        8
 66
     7
 43
1.0
 76
     1
 77
     6
 78
     2
 67
     7
 79
     5
170
     0
171
     0
290
     0
174
     0
 93
        1
 44
0.0
173
     0
291
     1
 45
0.0
1001
ACAD
1000
AcDbSavedByObjectVersion
1070
     0
  0
VISUALSTYLE
  5
2B
102
{ACAD_REACTORS
330
2A
102
}
102
{ACAD_XDICTIONARY
360
188
102
}
330
2A
100
AcDbVisualStyle
  2
Flat
 70
     0
 71
     2
 72
     1
 73
     1
 90
        2
 40
-0.6
 41
30.0
 62
     5
 63
     7
 74
     0
 91
        4
 64
     7
 65
   257
 75
     1
175
     1
 42
1.0
 92
        8
 66
     7
 43
1.0
 76
     1
 77
     6
 78
     2
 67
     7
 79
     5
170
     0
171
     0
290
     0
174
     0
 93
       13
 44
0.0
173
     0
291
     1
 45
0.0
1001
ACAD
1000
AcDbSavedByObjectVersion
1070
     0
  0
VISUALSTYLE
  5
2C
102
{ACAD_REACTORS
330
2A
102
}
102
{ACAD_XDICTIONARY
360
18A
102
}
330
2A
100
AcDbVisualStyle
  2
FlatWithEdges
 70
     1
 71
     2
 72
     1
 73
     1
 90
        2
 40
-0.6
 41
30.0
 62
     5
 63
     7
 74
     1
 91
        4
 64
     7
 65
   257
 75
     1
175
     1
 42
1.0
 92
        0
 66
   257
 43
1.0
 76
     1
 77
     6
 78
     2
 67
     7
 79
     5
170
     0
171
     0
290
     0
174
     0
 93
       13
 44
0.0
173
     0
291
     1
 45
0.0
1001
ACAD
1000
AcDbSavedByObjectVersion
1070
     0
  0
VISUALSTYLE
  5
2D
102
{ACAD_REACTORS
330
2A
102
}
102
{ACAD_XDICTIONARY
360
18C
102
}
330
2A
100
AcDbVisualStyle
  2
Gouraud
 70
     2
 71
     2
 72
     2
 73
     1
 90
        2
 40
-0.6
 41
30.0
 62
     5
 63
     7
 74
     0
 91
        4
 64
     7
 65
   257
 75
     1
175
     1
 42
1.0
 92
        0
 66
     7
 43
1.0
 76
     1
 77
     6
 78
     2
 67
     7
 79
     5
170
     0
171
     0
290
     0
174
     0
 93
       13
 44
0.0
173
     0
291
     1
 45
0.0
1001
ACAD
1000
AcDbSavedByObjectVersion
1070
     0
  0
VISUALSTYLE
  5
2E
102
{ACAD_REACTORS
330
2A
102
}
102
{ACAD_XDICTIONARY
360
18E
102
}
330
2A
100
AcDbVisualStyle
  2
GouraudWithEdges
 70
     3
 71
     2
 72
     2
 73
     1
 90
        2
 40
-0.6
 41
30.0
 62
     5
 63
     7
 74
     1
 91
        4
 64
     7
 65
   257
 75
     1
175
     1
 42
1.0
 92
        0
 66
   257
 43
1.0
 76
     1
 77
     6
 78
     2
 67
     7
 79
     5
170
     0
171
     0
290
     0
174
     0
 93
       13
 44
0.0
173
     0
291
     1
 45
0.0
1001
ACAD
1000
AcDbSavedByObjectVersion
1070
     0
  0
VISUALSTYLE
  5
38
102
{ACAD_REACTORS
330
2A
102
}
102
{ACAD_XDICTIONARY
360
1A2
102
}
330
2A
100
AcDbVisualStyle
  2
Linepattern
 70
    14
 71
     2
 72
     2
 73
     0
 90
        0
 40
-0.6
 41
-30.0
 62
     5
 63
     7
 74
     1
 91
        4
 64
     7
 65
   257
 75
     7
175
     7
 42
1.0
 92
        8
 66
     7
 43
1.0
 76
     1
 77
     6
 78
     2
 67
     7
 79
     5
170
     0
171
     0
290
     0
174
     0
 93
        1
 44
0.0
173
     0
291
     1
 45
0.0
1001
ACAD
1000
AcDbSavedByObjectVersion
1070
     0
  0
VISUALSTYLE
  5
33
102
{ACAD_REACTORS
330
2A
102
}
102
{ACAD_XDICTIONARY
360
198
102
}
330
2A
100
AcDbVisualStyle
  2
Realistic
 70
     8
 71
     2
 72
     2
 73
     0
 90
        0
 40
-0.6
 41
-30.0
 62
     5
 63
     7
 74
     1
 91
        0
 64
     7
 65
   257
 75
     1
175
     1
 42
1.0
 92
        8
 66
     8
 43
1.0
 76
     1
 77
     6
 78
     2
 67
     7
 79
     5
170
     0
171
     0
290
     0
174
     0
 93
       13
 44
0.0
173
     0
291
     0
 45
0.0
1001
ACAD
1000
AcDbSavedByObjectVersion
1070
     0
  0
VISUALSTYLE
  5
37
102
{ACAD_REACTORS
330
2A
102
}
102
{ACAD_XDICTIONARY
360
1A0
102
}
330
2A
100
AcDbVisualStyle
  2
Thicken
 70
    13
 71
     2
 72
     2
 73
     0
 90
        0
 40
-0.6
 41
-30.0
 62
     5
 63
     7
 74
     1
 91
        4
 64
     7
 65
   257
 75
     1
175
     1
 42
1.0
 92
       12
 66
     7
 43
1.0
 76
     1
 77
     6
 78
     2
 67
     7
 79
     5
170
     0
171
     0
290
     0
174
     0
 93
        1
 44
0.0
173
     0
291
     1
 45
0.0
1001
ACAD
1000
AcDbSavedByObjectVersion
1070
     0
  0
DICTIONARYVAR
  5
186
102
{ACAD_REACTORS
330
181
102
}
330
181
100
DictionaryVariables
280
     0
  1
2
  0
DICTIONARYVAR
  5
187
102
{ACAD_REACTORS
330
181
102
}
330
181
100
DictionaryVariables
280
     0
  1
1
  0
DICTIONARYVAR
  5
185
102
{ACAD_REACTORS
330
181
102
}
330
181
100
DictionaryVariables
280
     0
  1
80.000000
  0
DICTIONARYVAR
  5
184
102
{ACAD_REACTORS
330
181
102
}
330
181
100
DictionaryVariables
280
     0
  1
5.000000
  0
DICTIONARY
  5
1AA
330
3D
100
AcDbDictionary
280
     1
281
     1
  3
ACAD_XREC_ROUNDTRIP
360
1AB
  0
DICTIONARY
  5
1A8
330
3C
100
AcDbDictionary
280
     1
281
     1
  3
ACAD_XREC_ROUNDTRIP
360
1A9
  0
DICTIONARY
  5
1AC
330
3E
100
AcDbDictionary
280
     1
281
     1
  3
ACAD_XREC_ROUNDTRIP
360
1AD
  0
DICTIONARY
  5
190
330
2F
100
AcDbDictionary
280
     1
281
     1
  3
ACAD_XREC_ROUNDTRIP
360
191
  0
DICTIONARY
  5
194
330
31
100
AcDbDictionary
280
     1
281
     1
  3
ACAD_XREC_ROUNDTRIP
360
195
  0
DICTIONARY
  5
192
330
30
100
AcDbDictionary
280
     1
281
     1
  3
ACAD_XREC_ROUNDTRIP
360
193
  0
DICTIONARY
  5
196
330
32
100
AcDbDictionary
280
     1
281
     1
  3
ACAD_XREC_ROUNDTRIP
360
197
  0
DICTIONARY
  5
19E
330
36
100
AcDbDictionary
280
     1
281
     1
  3
ACAD_XREC_ROUNDTRIP
360
19F
  0
DICTIONARY
  5
1A6
330
3A
100
AcDbDictionary
280
     1
281
     1
  3
ACAD_XREC_ROUNDTRIP
360
1A7
  0
DICTIONARY
  5
19A
330
34
100
AcDbDictionary
280
     1
281
     1
  3
ACAD_XREC_ROUNDTRIP
360
19B
  0
DICTIONARY
  5
19C
330
35
100
AcDbDictionary
280
     1
281
     1
  3
ACAD_XREC_ROUNDTRIP
360
19D
  0
DICTIONARY
  5
1A4
330
39
100
AcDbDictionary
280
     1
281
     1
  3
ACAD_XREC_ROUNDTRIP
360
1A5
  0
DICTIONARY
  5
188
330
2B
100
AcDbDictionary
280
     1
281
     1
  3
ACAD_XREC_ROUNDTRIP
360
189
  0
DICTIONARY
  5
18A
330
2C
100
AcDbDictionary
280
     1
281
     1
  3
ACAD_XREC_ROUNDTRIP
360
18B
  0
DICTIONARY
  5
18C
330
2D
100
AcDbDictionary
280
     1
281
     1
  3
ACAD_XREC_ROUNDTRIP
360
18D
  0
DICTIONARY
  5
18E
330
2E
100
AcDbDictionary
280
     1
281
     1
  3
ACAD_XREC_ROUNDTRIP
360
18F
  0
DICTIONARY
  5
1A2
330
38
100
AcDbDictionary
280
     1
281
     1
  3
ACAD_XREC_ROUNDTRIP
360
1A3
  0
DICTIONARY
  5
198
330
33
100
AcDbDictionary
280
     1
281
     1
  3
ACAD_XREC_ROUNDTRIP
360
199
  0
DICTIONARY
  5
1A0
330
37
100
AcDbDictionary
280
     1
281
     1
  3
ACAD_XREC_ROUNDTRIP
360
1A1
  0
XRECORD
  5
1AB
102
{ACAD_REACTORS
330
1AA
102
}
330
1AA
100
AcDbXrecord
280
     1
102
MATERIAL
148
0.0
149
0.0
149
0.0
 93
        0
 94
      127
282
     0
 72
     1
 77
     1
171
     1
175
     1
179
     1
273
     0
  0
XRECORD
  5
1A9
102
{ACAD_REACTORS
330
1A8
102
}
330
1A8
100
AcDbXrecord
280
     1
102
MATERIAL
148
0.0
149
0.0
149
0.0
 93
        0
 94
      127
282
     0
 72
     1
 77
     1
171
     1
175
     1
179
     1
273
     0
  0
XRECORD
  5
1AD
102
{ACAD_REACTORS
330
1AC
102
}
330
1AC
100
AcDbXrecord
280
     1
102
MATERIAL
148
0.0
149
0.0
149
0.0
 93
        0
 94
      127
282
     0
 72
     1
 77
     1
171
     1
175
     1
179
     1
273
     0
  0
XRECORD
  5
191
102
{ACAD_REACTORS
330
190
102
}
330
190
100
AcDbXrecord
280
     1
102
RTVSPropertyOp0
 70
     1
102
RTVSPropertyOp1
 70
     1
102
RTVSPropertyOp2
 70
     1
102
RTVSPropertyOp3
 70
     1
102
RTVSPropertyOp4
 70
     1
102
RTVSPropertyOp5
 70
     1
102
RTVSPropertyOp6
 70
     1
102
RTVSPropertyOp7
 70
     1
102
RTVSPropertyOp8
 70
     1
102
RTVSPropertyOp9
 70
     1
102
RTVSPropertyOp10
 70
     1
102
RTVSPropertyOp11
 70
     1
102
RTVSPropertyOp12
 70
     1
102
RTVSPropertyOp13
 70
     1
102
RTVSPropertyOp14
 70
     1
102
RTVSPropertyOp15
 70
     1
102
RTVSPropertyOp16
 70
     1
102
RTVSPropertyOp17
 70
     1
102
RTVSPropertyOp18
 70
     1
102
RTVSPropertyOp19
 70
     1
102
RTVSPropertyOp20
 70
     1
102
RTVSPropertyOp21
 70
     1
102
RTVSPropertyOp22
 70
     1
102
RTVSPropertyOp23
 70
     1
102
RTVSPropertyOp24
 70
     1
102
RTVSPropertyOp25
 70
     1
102
RTVSPropertyOp26
 70
     1
102
RTVSPropertyOp27
 70
     1
102
RTVSPropertyOp28
 70
     1
102
RTVSPropertyOp29
 70
     1
102
RTVSPropertyOp30
 70
     1
102
RTVSPropertyOp31
 70
     1
102
RTVSPropertyOp32
 70
     1
  0
XRECORD
  5
195
102
{ACAD_REACTORS
330
194
102
}
330
194
100
AcDbXrecord
280
     1
102
RTVSPropertyOp0
 70
     1
102
RTVSPropertyOp1
 70
     1
102
RTVSPropertyOp2
 70
     1
102
RTVSPropertyOp3
 70
     1
102
RTVSPropertyOp4
 70
     1
102
RTVSPropertyOp5
 70
     1
102
RTVSPropertyOp6
 70
     1
102
RTVSPropertyOp7
 70
     1
102
RTVSPropertyOp8
 70
     1
102
RTVSPropertyOp9
 70
     1
102
RTVSPropertyOp10
 70
     1
102
RTVSPropertyOp11
 70
     1
102
RTVSPropertyOp12
 70
     1
102
RTVSPropertyOp13
 70
     1
102
RTVSPropertyOp14
 70
     1
102
RTVSPropertyOp15
 70
     1
102
RTVSPropertyOp16
 70
     1
102
RTVSPropertyOp17
 70
     1
102
RTVSPropertyOp18
 70
     1
102
RTVSPropertyOp19
 70
     1
102
RTVSPropertyOp20
 70
     1
102
RTVSPropertyOp21
 70
     1
102
RTVSPropertyOp22
 70
     1
102
RTVSPropertyOp23
 70
     1
102
RTVSPropertyOp24
 70
     1
102
RTVSPropertyOp25
 70
     1
102
RTVSPropertyOp26
 70
     1
102
RTVSPropertyOp27
 70
     1
102
RTVSPropertyOp28
 70
     1
102
RTVSPropertyOp29
 70
     1
102
RTVSPropertyOp30
 70
     1
102
RTVSPropertyOp31
 70
     1
102
RTVSPropertyOp32
 70
     1
  0
XRECORD
  5
193
102
{ACAD_REACTORS
330
192
102
}
330
192
100
AcDbXrecord
280
     1
102
RTVSPropertyOp0
 70
     1
102
RTVSPropertyOp1
 70
     1
102
RTVSPropertyOp2
 70
     1
102
RTVSPropertyOp3
 70
     1
102
RTVSPropertyOp4
 70
     1
102
RTVSPropertyOp5
 70
     1
102
RTVSPropertyOp6
 70
     1
102
RTVSPropertyOp7
 70
     1
102
RTVSPropertyOp8
 70
     1
102
RTVSPropertyOp9
 70
     1
102
RTVSPropertyOp10
 70
     1
102
RTVSPropertyOp11
 70
     1
102
RTVSPropertyOp12
 70
     1
102
RTVSPropertyOp13
 70
     1
102
RTVSPropertyOp14
 70
     1
102
RTVSPropertyOp15
 70
     1
102
RTVSPropertyOp16
 70
     1
102
RTVSPropertyOp17
 70
     1
102
RTVSPropertyOp18
 70
     1
102
RTVSPropertyOp19
 70
     1
102
RTVSPropertyOp20
 70
     1
102
RTVSPropertyOp21
 70
     1
102
RTVSPropertyOp22
 70
     1
102
RTVSPropertyOp23
 70
     1
102
RTVSPropertyOp24
 70
     1
102
RTVSPropertyOp25
 70
     1
102
RTVSPropertyOp26
 70
     1
102
RTVSPropertyOp27
 70
     1
102
RTVSPropertyOp28
 70
     1
102
RTVSPropertyOp29
 70
     1
102
RTVSPropertyOp30
 70
     1
102
RTVSPropertyOp31
 70
     1
102
RTVSPropertyOp32
 70
     1
  0
XRECORD
  5
197
102
{ACAD_REACTORS
330
196
102
}
330
196
100
AcDbXrecord
280
     1
102
RTVSPropertyOp0
 70
     1
102
RTVSPropertyOp1
 70
     1
102
RTVSPropertyOp2
 70
     1
102
RTVSPropertyOp3
 70
     1
102
RTVSPropertyOp4
 70
     1
102
RTVSPropertyOp5
 70
     1
102
RTVSPropertyOp6
 70
     1
102
RTVSPropertyOp7
 70
     1
102
RTVSPropertyOp8
 70
     1
102
RTVSPropertyOp9
 70
     1
102
RTVSPropertyOp10
 70
     1
102
RTVSPropertyOp11
 70
     1
102
RTVSPropertyOp12
 70
     1
102
RTVSPropertyOp13
 70
     1
102
RTVSPropertyOp14
 70
     1
102
RTVSPropertyOp15
 70
     1
102
RTVSPropertyOp16
 70
     1
102
RTVSPropertyOp17
 70
     1
102
RTVSPropertyOp18
 70
     1
102
RTVSPropertyOp19
 70
     1
102
RTVSPropertyOp20
 70
     1
102
RTVSPropertyOp21
 70
     1
102
RTVSPropertyOp22
 70
     1
102
RTVSPropertyOp23
 70
     1
102
RTVSPropertyOp24
 70
     1
102
RTVSPropertyOp25
 70
     1
102
RTVSPropertyOp26
 70
     1
102
RTVSPropertyOp27
 70
     1
102
RTVSPropertyOp28
 70
     1
102
RTVSPropertyOp29
 70
     1
102
RTVSPropertyOp30
 70
     1
102
RTVSPropertyOp31
 70
     1
102
RTVSPropertyOp32
 70
     1
  0
XRECORD
  5
19F
102
{ACAD_REACTORS
330
19E
102
}
330
19E
100
AcDbXrecord
280
     1
102
RTVSPropertyOp0
 70
     1
102
RTVSPropertyOp1
 70
     1
102
RTVSPropertyOp2
 70
     1
102
RTVSPropertyOp3
 70
     1
102
RTVSPropertyOp4
 70
     1
102
RTVSPropertyOp5
 70
     1
102
RTVSPropertyOp6
 70
     1
102
RTVSPropertyOp7
 70
     1
102
RTVSPropertyOp8
 70
     1
102
RTVSPropertyOp9
 70
     1
102
RTVSPropertyOp10
 70
     1
102
RTVSPropertyOp11
 70
     1
102
RTVSPropertyOp12
 70
     1
102
RTVSPropertyOp13
 70
     1
102
RTVSPropertyOp14
 70
     1
102
RTVSPropertyOp15
 70
     1
102
RTVSPropertyOp16
 70
     1
102
RTVSPropertyOp17
 70
     1
102
RTVSPropertyOp18
 70
     1
102
RTVSPropertyOp19
 70
     1
102
RTVSPropertyOp20
 70
     1
102
RTVSPropertyOp21
 70
     1
102
RTVSPropertyOp22
 70
     1
102
RTVSPropertyOp23
 70
     1
102
RTVSPropertyOp24
 70
     1
102
RTVSPropertyOp25
 70
     1
102
RTVSPropertyOp26
 70
     1
102
RTVSPropertyOp27
 70
     1
102
RTVSPropertyOp28
 70
     1
102
RTVSPropertyOp29
 70
     1
102
RTVSPropertyOp30
 70
     1
102
RTVSPropertyOp31
 70
     1
102
RTVSPropertyOp32
 70
     1
  0
XRECORD
  5
1A7
102
{ACAD_REACTORS
330
1A6
102
}
330
1A6
100
AcDbXrecord
280
     1
102
RTVSPropertyOp0
 70
     1
102
RTVSPropertyOp1
 70
     1
102
RTVSPropertyOp2
 70
     1
102
RTVSPropertyOp3
 70
     1
102
RTVSPropertyOp4
 70
     1
102
RTVSPropertyOp5
 70
     1
102
RTVSPropertyOp6
 70
     1
102
RTVSPropertyOp7
 70
     1
102
RTVSPropertyOp8
 70
     1
102
RTVSPropertyOp9
 70
     1
102
RTVSPropertyOp10
 70
     1
102
RTVSPropertyOp11
 70
     1
102
RTVSPropertyOp12
 70
     1
102
RTVSPropertyOp13
 70
     1
102
RTVSPropertyOp14
 70
     1
102
RTVSPropertyOp15
 70
     1
102
RTVSPropertyOp16
 70
     1
102
RTVSPropertyOp17
 70
     1
102
RTVSPropertyOp18
 70
     1
102
RTVSPropertyOp19
 70
     1
102
RTVSPropertyOp20
 70
     1
102
RTVSPropertyOp21
 70
     1
102
RTVSPropertyOp22
 70
     1
102
RTVSPropertyOp23
 70
     1
102
RTVSPropertyOp24
 70
     1
102
RTVSPropertyOp25
 70
     1
102
RTVSPropertyOp26
 70
     1
102
RTVSPropertyOp27
 70
     1
102
RTVSPropertyOp28
 70
     1
102
RTVSPropertyOp29
 70
     1
102
RTVSPropertyOp30
 70
     1
102
RTVSPropertyOp31
 70
     1
102
RTVSPropertyOp32
 70
     1
  0
XRECORD
  5
19B
102
{ACAD_REACTORS
330
19A
102
}
330
19A
100
AcDbXrecord
280
     1
102
RTVSPropertyOp0
 70
     1
102
RTVSPropertyOp1
 70
     1
102
RTVSPropertyOp2
 70
     1
102
RTVSPropertyOp3
 70
     1
102
RTVSPropertyOp4
 70
     1
102
RTVSPropertyOp5
 70
     1
102
RTVSPropertyOp6
 70
     1
102
RTVSPropertyOp7
 70
     1
102
RTVSPropertyOp8
 70
     1
102
RTVSPropertyOp9
 70
     1
102
RTVSPropertyOp10
 70
     1
102
RTVSPropertyOp11
 70
     1
102
RTVSPropertyOp12
 70
     1
102
RTVSPropertyOp13
 70
     1
102
RTVSPropertyOp14
 70
     1
102
RTVSPropertyOp15
 70
     1
102
RTVSPropertyOp16
 70
     1
102
RTVSPropertyOp17
 70
     1
102
RTVSPropertyOp18
 70
     1
102
RTVSPropertyOp19
 70
     1
102
RTVSPropertyOp20
 70
     1
102
RTVSPropertyOp21
 70
     1
102
RTVSPropertyOp22
 70
     1
102
RTVSPropertyOp23
 70
     1
102
RTVSPropertyOp24
 70
     1
102
RTVSPropertyOp25
 70
     1
102
RTVSPropertyOp26
 70
     1
102
RTVSPropertyOp27
 70
     1
102
RTVSPropertyOp28
 70
     1
102
RTVSPropertyOp29
 70
     1
102
RTVSPropertyOp30
 70
     1
102
RTVSPropertyOp31
 70
     1
102
RTVSPropertyOp32
 70
     1
  0
XRECORD
  5
19D
102
{ACAD_REACTORS
330
19C
102
}
330
19C
100
AcDbXrecord
280
     1
102
RTVSPropertyOp0
 70
     1
102
RTVSPropertyOp1
 70
     1
102
RTVSPropertyOp2
 70
     1
102
RTVSPropertyOp3
 70
     1
102
RTVSPropertyOp4
 70
     1
102
RTVSPropertyOp5
 70
     1
102
RTVSPropertyOp6
 70
     1
102
RTVSPropertyOp7
 70
     1
102
RTVSPropertyOp8
 70
     1
102
RTVSPropertyOp9
 70
     1
102
RTVSPropertyOp10
 70
     1
102
RTVSPropertyOp11
 70
     1
102
RTVSPropertyOp12
 70
     1
102
RTVSPropertyOp13
 70
     1
102
RTVSPropertyOp14
 70
     1
102
RTVSPropertyOp15
 70
     1
102
RTVSPropertyOp16
 70
     1
102
RTVSPropertyOp17
 70
     1
102
RTVSPropertyOp18
 70
     1
102
RTVSPropertyOp19
 70
     1
102
RTVSPropertyOp20
 70
     1
102
RTVSPropertyOp21
 70
     1
102
RTVSPropertyOp22
 70
     1
102
RTVSPropertyOp23
 70
     1
102
RTVSPropertyOp24
 70
     1
102
RTVSPropertyOp25
 70
     1
102
RTVSPropertyOp26
 70
     1
102
RTVSPropertyOp27
 70
     1
102
RTVSPropertyOp28
 70
     1
102
RTVSPropertyOp29
 70
     1
102
RTVSPropertyOp30
 70
     1
102
RTVSPropertyOp31
 70
     1
102
RTVSPropertyOp32
 70
     1
  0
XRECORD
  5
1A5
102
{ACAD_REACTORS
330
1A4
102
}
330
1A4
100
AcDbXrecord
280
     1
102
RTVSPropertyOp0
 70
     1
102
RTVSPropertyOp1
 70
     1
102
RTVSPropertyOp2
 70
     1
102
RTVSPropertyOp3
 70
     1
102
RTVSPropertyOp4
 70
     1
102
RTVSPropertyOp5
 70
     1
102
RTVSPropertyOp6
 70
     1
102
RTVSPropertyOp7
 70
     1
102
RTVSPropertyOp8
 70
     1
102
RTVSPropertyOp9
 70
     1
102
RTVSPropertyOp10
 70
     1
102
RTVSPropertyOp11
 70
     1
102
RTVSPropertyOp12
 70
     1
102
RTVSPropertyOp13
 70
     1
102
RTVSPropertyOp14
 70
     1
102
RTVSPropertyOp15
 70
     1
102
RTVSPropertyOp16
 70
     1
102
RTVSPropertyOp17
 70
     1
102
RTVSPropertyOp18
 70
     1
102
RTVSPropertyOp19
 70
     1
102
RTVSPropertyOp20
 70
     1
102
RTVSPropertyOp21
 70
     1
102
RTVSPropertyOp22
 70
     1
102
RTVSPropertyOp23
 70
     1
102
RTVSPropertyOp24
 70
     1
102
RTVSPropertyOp25
 70
     1
102
RTVSPropertyOp26
 70
     1
102
RTVSPropertyOp27
 70
     1
102
RTVSPropertyOp28
 70
     1
102
RTVSPropertyOp29
 70
     1
102
RTVSPropertyOp30
 70
     1
102
RTVSPropertyOp31
 70
     1
102
RTVSPropertyOp32
 70
     1
  0
XRECORD
  5
189
102
{ACAD_REACTORS
330
188
102
}
330
188
100
AcDbXrecord
280
     1
102
RTVSPropertyOp0
 70
     1
102
RTVSPropertyOp1
 70
     1
102
RTVSPropertyOp2
 70
     1
102
RTVSPropertyOp3
 70
     1
102
RTVSPropertyOp4
 70
     1
102
RTVSPropertyOp5
 70
     1
102
RTVSPropertyOp6
 70
     1
102
RTVSPropertyOp7
 70
     1
102
RTVSPropertyOp8
 70
     1
102
RTVSPropertyOp9
 70
     1
102
RTVSPropertyOp10
 70
     1
102
RTVSPropertyOp11
 70
     1
102
RTVSPropertyOp12
 70
     1
102
RTVSPropertyOp13
 70
     1
102
RTVSPropertyOp14
 70
     1
102
RTVSPropertyOp15
 70
     1
102
RTVSPropertyOp16
 70
     1
102
RTVSPropertyOp17
 70
     1
102
RTVSPropertyOp18
 70
     1
102
RTVSPropertyOp19
 70
     1
102
RTVSPropertyOp20
 70
     1
102
RTVSPropertyOp21
 70
     1
102
RTVSPropertyOp22
 70
     1
102
RTVSPropertyOp23
 70
     1
102
RTVSPropertyOp24
 70
     1
102
RTVSPropertyOp25
 70
     1
102
RTVSPropertyOp26
 70
     1
102
RTVSPropertyOp27
 70
     1
102
RTVSPropertyOp28
 70
     1
102
RTVSPropertyOp29
 70
     1
102
RTVSPropertyOp30
 70
     1
102
RTVSPropertyOp31
 70
     1
102
RTVSPropertyOp32
 70
     1
  0
XRECORD
  5
18B
102
{ACAD_REACTORS
330
18A
102
}
330
18A
100
AcDbXrecord
280
     1
102
RTVSPropertyOp0
 70
     1
102
RTVSPropertyOp1
 70
     1
102
RTVSPropertyOp2
 70
     1
102
RTVSPropertyOp3
 70
     1
102
RTVSPropertyOp4
 70
     1
102
RTVSPropertyOp5
 70
     1
102
RTVSPropertyOp6
 70
     1
102
RTVSPropertyOp7
 70
     1
102
RTVSPropertyOp8
 70
     1
102
RTVSPropertyOp9
 70
     1
102
RTVSPropertyOp10
 70
     1
102
RTVSPropertyOp11
 70
     1
102
RTVSPropertyOp12
 70
     1
102
RTVSPropertyOp13
 70
     1
102
RTVSPropertyOp14
 70
     1
102
RTVSPropertyOp15
 70
     1
102
RTVSPropertyOp16
 70
     1
102
RTVSPropertyOp17
 70
     1
102
RTVSPropertyOp18
 70
     1
102
RTVSPropertyOp19
 70
     1
102
RTVSPropertyOp20
 70
     1
102
RTVSPropertyOp21
 70
     1
102
RTVSPropertyOp22
 70
     1
102
RTVSPropertyOp23
 70
     1
102
RTVSPropertyOp24
 70
     1
102
RTVSPropertyOp25
 70
     1
102
RTVSPropertyOp26
 70
     1
102
RTVSPropertyOp27
 70
     1
102
RTVSPropertyOp28
 70
     1
102
RTVSPropertyOp29
 70
     1
102
RTVSPropertyOp30
 70
     1
102
RTVSPropertyOp31
 70
     1
102
RTVSPropertyOp32
 70
     1
  0
XRECORD
  5
18D
102
{ACAD_REACTORS
330
18C
102
}
330
18C
100
AcDbXrecord
280
     1
102
RTVSPropertyOp0
 70
     1
102
RTVSPropertyOp1
 70
     1
102
RTVSPropertyOp2
 70
     1
102
RTVSPropertyOp3
 70
     1
102
RTVSPropertyOp4
 70
     1
102
RTVSPropertyOp5
 70
     1
102
RTVSPropertyOp6
 70
     1
102
RTVSPropertyOp7
 70
     1
102
RTVSPropertyOp8
 70
     1
102
RTVSPropertyOp9
 70
     1
102
RTVSPropertyOp10
 70
     1
102
RTVSPropertyOp11
 70
     1
102
RTVSPropertyOp12
 70
     1
102
RTVSPropertyOp13
 70
     1
102
RTVSPropertyOp14
 70
     1
102
RTVSPropertyOp15
 70
     1
102
RTVSPropertyOp16
 70
     1
102
RTVSPropertyOp17
 70
     1
102
RTVSPropertyOp18
 70
     1
102
RTVSPropertyOp19
 70
     1
102
RTVSPropertyOp20
 70
     1
102
RTVSPropertyOp21
 70
     1
102
RTVSPropertyOp22
 70
     1
102
RTVSPropertyOp23
 70
     1
102
RTVSPropertyOp24
 70
     1
102
RTVSPropertyOp25
 70
     1
102
RTVSPropertyOp26
 70
     1
102
RTVSPropertyOp27
 70
     1
102
RTVSPropertyOp28
 70
     1
102
RTVSPropertyOp29
 70
     1
102
RTVSPropertyOp30
 70
     1
102
RTVSPropertyOp31
 70
     1
102
RTVSPropertyOp32
 70
     1
  0
XRECORD
  5
18F
102
{ACAD_REACTORS
330
18E
102
}
330
18E
100
AcDbXrecord
280
     1
102
RTVSPropertyOp0
 70
     1
102
RTVSPropertyOp1
 70
     1
102
RTVSPropertyOp2
 70
     1
102
RTVSPropertyOp3
 70
     1
102
RTVSPropertyOp4
 70
     1
102
RTVSPropertyOp5
 70
     1
102
RTVSPropertyOp6
 70
     1
102
RTVSPropertyOp7
 70
     1
102
RTVSPropertyOp8
 70
     1
102
RTVSPropertyOp9
 70
     1
102
RTVSPropertyOp10
 70
     1
102
RTVSPropertyOp11
 70
     1
102
RTVSPropertyOp12
 70
     1
102
RTVSPropertyOp13
 70
     1
102
RTVSPropertyOp14
 70
     1
102
RTVSPropertyOp15
 70
     1
102
RTVSPropertyOp16
 70
     1
102
RTVSPropertyOp17
 70
     1
102
RTVSPropertyOp18
 70
     1
102
RTVSPropertyOp19
 70
     1
102
RTVSPropertyOp20
 70
     1
102
RTVSPropertyOp21
 70
     1
102
RTVSPropertyOp22
 70
     1
102
RTVSPropertyOp23
 70
     1
102
RTVSPropertyOp24
 70
     1
102
RTVSPropertyOp25
 70
     1
102
RTVSPropertyOp26
 70
     1
102
RTVSPropertyOp27
 70
     1
102
RTVSPropertyOp28
 70
     1
102
RTVSPropertyOp29
 70
     1
102
RTVSPropertyOp30
 70
     1
102
RTVSPropertyOp31
 70
     1
102
RTVSPropertyOp32
 70
     1
  0
XRECORD
  5
1A3
102
{ACAD_REACTORS
330
1A2
102
}
330
1A2
100
AcDbXrecord
280
     1
102
RTVSPropertyOp0
 70
     1
102
RTVSPropertyOp1
 70
     1
102
RTVSPropertyOp2
 70
     1
102
RTVSPropertyOp3
 70
     1
102
RTVSPropertyOp4
 70
     1
102
RTVSPropertyOp5
 70
     1
102
RTVSPropertyOp6
 70
     1
102
RTVSPropertyOp7
 70
     1
102
RTVSPropertyOp8
 70
     1
102
RTVSPropertyOp9
 70
     1
102
RTVSPropertyOp10
 70
     1
102
RTVSPropertyOp11
 70
     1
102
RTVSPropertyOp12
 70
     1
102
RTVSPropertyOp13
 70
     1
102
RTVSPropertyOp14
 70
     1
102
RTVSPropertyOp15
 70
     1
102
RTVSPropertyOp16
 70
     1
102
RTVSPropertyOp17
 70
     1
102
RTVSPropertyOp18
 70
     1
102
RTVSPropertyOp19
 70
     1
102
RTVSPropertyOp20
 70
     1
102
RTVSPropertyOp21
 70
     1
102
RTVSPropertyOp22
 70
     1
102
RTVSPropertyOp23
 70
     1
102
RTVSPropertyOp24
 70
     1
102
RTVSPropertyOp25
 70
     1
102
RTVSPropertyOp26
 70
     1
102
RTVSPropertyOp27
 70
     1
102
RTVSPropertyOp28
 70
     1
102
RTVSPropertyOp29
 70
     1
102
RTVSPropertyOp30
 70
     1
102
RTVSPropertyOp31
 70
     1
102
RTVSPropertyOp32
 70
     1
  0
XRECORD
  5
199
102
{ACAD_REACTORS
330
198
102
}
330
198
100
AcDbXrecord
280
     1
102
RTVSPropertyOp0
 70
     1
102
RTVSPropertyOp1
 70
     1
102
RTVSPropertyOp2
 70
     1
102
RTVSPropertyOp3
 70
     1
102
RTVSPropertyOp4
 70
     1
102
RTVSPropertyOp5
 70
     1
102
RTVSPropertyOp6
 70
     1
102
RTVSPropertyOp7
 70
     1
102
RTVSPropertyOp8
 70
     1
102
RTVSPropertyOp9
 70
     1
102
RTVSPropertyOp10
 70
     1
102
RTVSPropertyOp11
 70
     1
102
RTVSPropertyOp12
 70
     1
102
RTVSPropertyOp13
 70
     1
102
RTVSPropertyOp14
 70
     1
102
RTVSPropertyOp15
 70
     1
102
RTVSPropertyOp16
 70
     1
102
RTVSPropertyOp17
 70
     1
102
RTVSPropertyOp18
 70
     1
102
RTVSPropertyOp19
 70
     1
102
RTVSPropertyOp20
 70
     1
102
RTVSPropertyOp21
 70
     1
102
RTVSPropertyOp22
 70
     1
102
RTVSPropertyOp23
 70
     1
102
RTVSPropertyOp24
 70
     1
102
RTVSPropertyOp25
 70
     1
102
RTVSPropertyOp26
 70
     1
102
RTVSPropertyOp27
 70
     1
102
RTVSPropertyOp28
 70
     1
102
RTVSPropertyOp29
 70
     1
102
RTVSPropertyOp30
 70
     1
102
RTVSPropertyOp31
 70
     1
102
RTVSPropertyOp32
 70
     1
  0
XRECORD
  5
1A1
102
{ACAD_REACTORS
330
1A0
102
}
330
1A0
100
AcDbXrecord
280
     1
102
RTVSPropertyOp0
 70
     1
102
RTVSPropertyOp1
 70
     1
102
RTVSPropertyOp2
 70
     1
102
RTVSPropertyOp3
 70
     1
102
RTVSPropertyOp4
 70
     1
102
RTVSPropertyOp5
 70
     1
102
RTVSPropertyOp6
 70
     1
102
RTVSPropertyOp7
 70
     1
102
RTVSPropertyOp8
 70
     1
102
RTVSPropertyOp9
 70
     1
102
RTVSPropertyOp10
 70
     1
102
RTVSPropertyOp11
 70
     1
102
RTVSPropertyOp12
 70
     1
102
RTVSPropertyOp13
 70
     1
102
RTVSPropertyOp14
 70
     1
102
RTVSPropertyOp15
 70
     1
102
RTVSPropertyOp16
 70
     1
102
RTVSPropertyOp17
 70
     1
102
RTVSPropertyOp18
 70
     1
102
RTVSPropertyOp19
 70
     1
102
RTVSPropertyOp20
 70
     1
102
RTVSPropertyOp21
 70
     1
102
RTVSPropertyOp22
 70
     1
102
RTVSPropertyOp23
 70
     1
102
RTVSPropertyOp24
 70
     1
102
RTVSPropertyOp25
 70
     1
102
RTVSPropertyOp26
 70
     1
102
RTVSPropertyOp27
 70
     1
102
RTVSPropertyOp28
 70
     1
102
RTVSPropertyOp29
 70
     1
102
RTVSPropertyOp30
 70
     1
102
RTVSPropertyOp31
 70
     1
102
RTVSPropertyOp32
 70
     1
  0
ENDSEC
  0
EOF
