  0
SECTION
  2
HEADER
  9
$ACADVER
  1
AC1015
  9
$ACADMAINTVER
 70
     6
  9
$DWGCODEPAGE
  3
ANSI_1252
  9
$INSBASE
 10
0.0
 20
0.0
 30
0.0
  9
$EXTMIN
 10
0.0
 20
0.0
 30
0.0
  9
$EXTMAX
 10
210.0
 20
297.0
 30
0.0
  9
$LIMMIN
 10
0.0
 20
0.0
  9
$LIMMAX
 10
210.0
 20
297.0
  9
$ORTHOMODE
 70
     0
  9
$REGENMODE
 70
     1
  9
$FILLMODE
 70
     1
  9
$QTEXTMODE
 70
     0
  9
$MIRRTEXT
 70
     1
  9
$LTSCALE
 40
1.0
  9
$ATTMODE
 70
     1
  9
$TEXTSIZE
 40
2.5
  9
$TRACEWID
 40
1.0
  9
$TEXTSTYLE
  7
Standard
  9
$CLAYER
  8
0
  9
$CELTYPE
  6
ByLayer
  9
$CECOLOR
 62
   256
  9
$CELTSCALE
 40
1.0
  9
$DISPSILH
 70
     0
  9
$DIMSCALE
 40
1.0
  9
$DIMASZ
 40
2.5
  9
$DIMEXO
 40
0.625
  9
$DIMDLI
 40
3.75
  9
$DIMRND
 40
0.0
  9
$DIMDLE
 40
0.0
  9
$DIMEXE
 40
1.25
  9
$DIMTP
 40
0.0
  9
$DIMTM
 40
0.0
  9
$DIMTXT
 40
2.5
  9
$DIMCEN
 40
2.5
  9
$DIMTSZ
 40
0.0
  9
$DIMTOL
 70
     0
  9
$DIMLIM
 70
     0
  9
$DIMTIH
 70
     0
  9
$DIMTOH
 70
     0
  9
$DIMSE1
 70
     0
  9
$DIMSE2
 70
     0
  9
$DIMTAD
 70
     1
  9
$DIMZIN
 70
     8
  9
$DIMBLK
  1

  9
$DIMASO
 70
     1
  9
$DIMSHO
 70
     1
  9
$DIMPOST
  1

  9
$DIMAPOST
  1

  9
$DIMALT
 70
     0
  9
$DIMALTD
 70
     3
  9
$DIMALTF
 40
0.0393700787
  9
$DIMLFAC
 40
1.0
  9
$DIMTOFL
 70
     1
  9
$DIMTVP
 40
0.0
  9
$DIMTIX
 70
     0
  9
$DIMSOXD
 70
     0
  9
$DIMSAH
 70
     0
  9
$DIMBLK1
  1

  9
$DIMBLK2
  1

  9
$DIMSTYLE
  2
ISO-25
  9
$DIMCLRD
 70
     0
  9
$DIMCLRE
 70
     0
  9
$DIMCLRT
 70
     0
  9
$DIMTFAC
 40
1.0
  9
$DIMGAP
 40
0.625
  9
$DIMJUST
 70
     0
  9
$DIMSD1
 70
     0
  9
$DIMSD2
 70
     0
  9
$DIMTOLJ
 70
     0
  9
$DIMTZIN
 70
     8
  9
$DIMALTZ
 70
     0
  9
$DIMALTTZ
 70
     0
  9
$DIMUPT
 70
     0
  9
$DIMDEC
 70
     2
  9
$DIMTDEC
 70
     2
  9
$DIMALTU
 70
     2
  9
$DIMALTTD
 70
     3
  9
$DIMTXSTY
  7
Standard
  9
$DIMAUNIT
 70
     0
  9
$DIMADEC
 70
     0
  9
$DIMALTRND
 40
0.0
  9
$DIMAZIN
 70
     0
  9
$DIMDSEP
 70
    44
  9
$DIMATFIT
 70
     3
  9
$DIMFRAC
 70
     0
  9
$DIMLDRBLK
  1

  9
$DIMLUNIT
 70
     2
  9
$DIMLWD
 70
    -2
  9
$DIMLWE
 70
    -2
  9
$DIMTMOVE
 70
     0
  9
$LUNITS
 70
     2
  9
$LUPREC
 70
     4
  9
$SKETCHINC
 40
1.0
  9
$FILLETRAD
 40
10.0
  9
$AUNITS
 70
     0
  9
$AUPREC
 70
     0
  9
$MENU
  1
.
  9
$ELEVATION
 40
0.0
  9
$PELEVATION
 40
0.0
  9
$THICKNESS
 40
0.0
  9
$LIMCHECK
 70
     0
  9
$CHAMFERA
 40
10.0
  9
$CHAMFERB
 40
10.0
  9
$CHAMFERC
 40
20.0
  9
$CHAMFERD
 40
0.0
  9
$SKPOLY
 70
     0
  9
$TDCREATE
 40
2457564.602970648
  9
$TDUCREATE
 40
2457564.519637315
  9
$TDUPDATE
 40
2457564.602972095
  9
$TDUUPDATE
 40
2457564.519638761
  9
$TDINDWG
 40
0.0000000116
  9
$TDUSRTIMER
 40
0.0000000116
  9
$USRTIMER
 70
     1
  9
$ANGBASE
 50
0.0
  9
$ANGDIR
 70
     0
  9
$PDMODE
 70
     0
  9
$PDSIZE
 40
0.0
  9
$PLINEWID
 40
0.0
  9
$SPLFRAME
 70
     0
  9
$SPLINETYPE
 70
     6
  9
$SPLINESEGS
 70
     8
  9
$HANDSEED
  5
1AE
  9
$SURFTAB1
 70
     6
  9
$SURFTAB2
 70
     6
  9
$SURFTYPE
 70
     6
  9
$SURFU
 70
     6
  9
$SURFV
 70
     6
  9
$UCSBASE
  2

  9
$UCSNAME
  2

  9
$UCSORG
 10
0.0
 20
0.0
 30
0.0
  9
$UCSXDIR
 10
1.0
 20
0.0
 30
0.0
  9
$UCSYDIR
 10
0.0
 20
1.0
 30
0.0
  9
$UCSORTHOREF
  2

  9
$UCSORTHOVIEW
 70
     0
  9
$UCSORGTOP
 10
0.0
 20
0.0
 30
0.0
  9
$UCSORGBOTTOM
 10
0.0
 20
0.0
 30
0.0
  9
$UCSORGLEFT
 10
0.0
 20
0.0
 30
0.0
  9
$UCSORGRIGHT
 10
0.0
 20
0.0
 30
0.0
  9
$UCSORGFRONT
 10
0.0
 20
0.0
 30
0.0
  9
$UCSORGBACK
 10
0.0
 20
0.0
 30
0.0
  9
$PUCSBASE
  2

  9
$PUCSNAME
  2

  9
$PUCSORG
 10
0.0
 20
0.0
 30
0.0
  9
$PUCSXDIR
 10
1.0
 20
0.0
 30
0.0
  9
$PUCSYDIR
 10
0.0
 20
1.0
 30
0.0
  9
$PUCSORTHOREF
  2

  9
$PUCSORTHOVIEW
 70
     0
  9
$PUCSORGTOP
 10
0.0
 20
0.0
 30
0.0
  9
$PUCSORGBOTTOM
 10
0.0
 20
0.0
 30
0.0
  9
$PUCSORGLEFT
 10
0.0
 20
0.0
 30
0.0
  9
$PUCSORGRIGHT
 10
0.0
 20
0.0
 30
0.0
  9
$PUCSORGFRONT
 10
0.0
 20
0.0
 30
0.0
  9
$PUCSORGBACK
 10
0.0
 20
0.0
 30
0.0
  9
$USERI1
 70
     0
  9
$USERI2
 70
     0
  9
$USERI3
 70
     0
  9
$USERI4
 70
     0
  9
$USERI5
 70
     0
  9
$USERR1
 40
0.0
  9
$USERR2
 40
0.0
  9
$USERR3
 40
0.0
  9
$USERR4
 40
0.0
  9
$USERR5
 40
0.0
  9
$WORLDVIEW
 70
     1
  9
$SHADEDGE
 70
     3
  9
$SHADEDIF
 70
    70
  9
$TILEMODE
 70
     1
  9
$MAXACTVP
 70
    64
  9
$PINSBASE
 10
0.0
 20
0.0
 30
0.0
  9
$PLIMCHECK
 70
     0
  9
$PEXTMIN
 10
0.0
 20
0.0
 30
0.0
  9
$PEXTMAX
 10
210.0
 20
297.0
 30
0.0
  9
$PLIMMIN
 10
0.0
 20
0.0
  9
$PLIMMAX
 10
210.0
 20
297.0
  9
$UNITMODE
 70
     0
  9
$VISRETAIN
 70
     1
  9
$PLINEGEN
 70
     0
  9
$PSLTSCALE
 70
     1
  9
$TREEDEPTH
 70
  3020
  9
$CMLSTYLE
  2
Standard
  9
$CMLJUST
 70
     0
  9
$CMLSCALE
 40
20.0
  9
$PROXYGRAPHICS
 70
     1
  9
$MEASUREMENT
 70
     1
  9
$CELWEIGHT
370
    -1
  9
$ENDCAPS
280
     0
  9
$JOINSTYLE
280
     0
  9
$LWDISPLAY
290
     0
  9
$INSUNITS
 70
     4
  9
$HYPERLINKBASE
  1

  9
$STYLESHEET
  1

  9
$XEDIT
290
     1
  9
$CEPSNTYPE
380
     0
  9
$PSTYLEMODE
290
     1
  9
$FINGERPRINTGUID
  2
{DDCEF86E-98DC-4065-BA77-A56846D7E4B1}
  9
$VERSIONGUID
  2
{FAEB1C32-E019-11D5-929B-00C0DF256EC4}
  9
$EXTNAMES
290
     1
  9
$PSVPSCALE
 40
0.0
  9
$OLESTARTUP
290
     0
  0
ENDSEC
  0
SECTION
  2
CLASSES
  0
CLASS
  1
ACDBDICTIONARYWDFLT
  2
AcDbDictionaryWithDefault
  3
ObjectDBX Classes
 90
        0
280
     0
281
     0
  0
CLASS
  1
VISUALSTYLE
  2
AcDbVisualStyle
  3
ObjectDBX Classes
 90
     4095
280
     0
281
     0
  0
CLASS
  1
MATERIAL
  2
AcDbMaterial
  3
ObjectDBX Classes
 90
     1153
280
     0
281
     0
  0
CLASS
  1
DICTIONARYVAR
  2
AcDbDictionaryVar
  3
ObjectDBX Classes
 90
        0
280
     0
281
     0
  0
CLASS
  1
ACDBPLACEHOLDER
  2
AcDbPlaceHolder
  3
ObjectDBX Classes
 90
        0
280
     0
281
     0
  0
CLASS
  1
LAYOUT
  2
AcDbLayout
  3
ObjectDBX Classes
 90
        0
280
     0
281
     0
  0
ENDSEC
  0
SECTION
  2
TABLES
  0
TABLE
  2
VPORT
  5
8
330
0
100
AcDbSymbolTable
 70
     1
  0
VPORT
  5
29
330
8
100
AcDbSymbolTableRecord
100
AcDbViewportTableRecord
  2
*Active
 70
     0
 10
0.0
 20
0.0
 11
1.0
 21
1.0
 12
344.1869158879
 22
148.5
 13
0.0
 23
0.0
 14
10.0
 24
10.0
 15
10.0
 25
10.0
 16
0.0
 26
0.0
 36
1.0
 17
0.0
 27
0.0
 37
0.0
 40
297.0
 41
1.9729729729
 42
50.0
 43
0.0
 44
0.0
 50
0.0
 51
0.0
 71
     0
 72
   100
 73
     1
 74
     3
 75
     0
 76
     0
 77
     0
 78
     0
281
     0
 65
     1
110
0.0
120
0.0
130
0.0
111
1.0
121
0.0
131
0.0
112
0.0
122
1.0
132
0.0
 79
     0
146
0.0
  0
ENDTAB
  0
TABLE
  2
LTYPE
  5
5
330
0
100
AcDbSymbolTable
 70
     2
  0
LTYPE
  5
14
330
5
100
AcDbSymbolTableRecord
100
AcDbLinetypeTableRecord
  2
ByBlock
 70
     0
  3

 72
    65
 73
     0
 40
0.0
  0
LTYPE
  5
15
330
5
100
AcDbSymbolTableRecord
100
AcDbLinetypeTableRecord
  2
ByLayer
 70
     0
  3

 72
    65
 73
     0
 40
0.0
  0
LTYPE
  5
16
330
5
100
AcDbSymbolTableRecord
100
AcDbLinetypeTableRecord
  2
Continuous
 70
     0
  3
Solid line
 72
    65
 73
     0
 40
0.0
  0
LTYPE
  5
43
330
5
100
AcDbSymbolTableRecord
100
AcDbLinetypeTableRecord
  2
HIDDEN2
 70
     0
  3
Hidden (.5x) _ _ _ _ _ _ _ _ _ _ _ _ _ _ _ _ _ 
 72
    65
 73
     2
 40
4.7625
 49
3.175
 74
     4
 75
     0
340
0
 46
0.0
 50
0.0
 44
0.0
 45
0.0
 49
-1.5875
 74
     4
 75
     0
340
0
 46
0.0
 50
0.0
 44
0.0
 45
0.0
  0
ENDTAB
  0
TABLE
  2
LAYER
  5
2
330
0
100
AcDbSymbolTable
 70
     5
  0
LAYER
  5
10
330
2
100
AcDbSymbolTableRecord
100
AcDbLayerTableRecord
  2
0
 70
     0
 62
     7
  6
Continuous
370
    -3
390
F
  0
LAYER
  5
3F
330
2
100
AcDbSymbolTableRecord
100
AcDbLayerTableRecord
  2
SK1
 70
     0
 62
     4
  6
Continuous
370
    18
390
F
  0
LAYER
  5
42
330
2
100
AcDbSymbolTableRecord
100
AcDbLayerTableRecord
  2
SK3
 70
     0
 62
     1
  6
HIDDEN2
370
    15
390
F
  0
LAYER
  5
12A
330
2
100
AcDbSymbolTableRecord
100
AcDbLayerTableRecord
  2
SK4
 70
     0
 62
     2
  6
Continuous
370
    13
390
F
  0
LAYER
  5
12C
330
2
100
AcDbSymbolTableRecord
100
AcDbLayerTableRecord
  2
SK2
 70
     0
 62
     7
  6
Continuous
370
    15
390
F
  0
ENDTAB
  0
TABLE
  2
STYLE
  5
3
330
0
100
AcDbSymbolTable
 70
     2
  0
STYLE
  5
11
330
3
100
AcDbSymbolTableRecord
100
AcDbTextStyleTableRecord
  2
Standard
 70
     0
 40
0.0
 41
1.0
 50
0.0
 71
     0
 42
2.5
  3
txt
  4

  0
STYLE
  5
13F
330
3
100
AcDbSymbolTableRecord
100
AcDbTextStyleTableRecord
  2
SEACAD_Solid_Edge_ISO
 70
     0
 40
0.0
 41
1.0
 50
0.0
 71
     0
 42
0.2
  3
seiso.ttf
  4

1001
ACAD
1000
Solid Edge ISO
1071
        0
  0
ENDTAB
  0
TABLE
  2
VIEW
  5
6
330
0
100
AcDbSymbolTable
 70
     0
  0
ENDTAB
  0
TABLE
  2
UCS
  5
7
330
0
100
AcDbSymbolTable
 70
     0
  0
ENDTAB
  0
TABLE
  2
APPID
  5
9
330
0
100
AcDbSymbolTable
 70
     1
  0
APPID
  5
12
330
9
100
AcDbSymbolTableRecord
100
AcDbRegAppTableRecord
  2
ACAD
 70
     0
  0
ENDTAB
  0
TABLE
  2
DIMSTYLE
  5
A
330
0
100
AcDbSymbolTable
 70
     3
100
AcDbDimStyleTable
  0
DIMSTYLE
105
27
330
A
100
AcDbSymbolTableRecord
100
AcDbDimStyleTableRecord
  2
ISO-25
 70
     0
 41
2.5
 42
0.625
 43
3.75
 44
1.25
 73
     0
 74
     0
 77
     1
 78
     8
140
2.5
141
2.5
143
0.0393700787
147
0.625
171
     3
172
     1
178
     0
271
     2
272
     2
274
     3
278
    44
283
     0
284
     8
340
11
  0
DIMSTYLE
105
12D
330
A
100
AcDbSymbolTableRecord
100
AcDbDimStyleTableRecord
  2
Standard
 70
     0
178
     0
340
11
  0
DIMSTYLE
105
140
102
{ACAD_REACTORS
330
141
330
14B
330
156
330
160
102
}
330
A
100
AcDbSymbolTableRecord
100
AcDbDimStyleTableRecord
  2
DIN
 70
     0
 41
3.5
 42
0.0
 44
1.75
 73
     0
 74
     0
 77
     1
 78
     8
140
3.5
141
1.75
147
1.75
172
     1
173
     1
178
     0
179
     3
271
     2
272
     2
278
    44
284
     8
340
13F
343
13A
344
13A
  0
ENDTAB
  0
TABLE
  2
BLOCK_RECORD
  5
1
330
0
100
AcDbSymbolTable
 70
    10
  0
BLOCK_RECORD
  5
1F
330
1
100
AcDbSymbolTableRecord
100
AcDbBlockTableRecord
  2
*Model_Space
340
22
  0
BLOCK_RECORD
  5
1B
330
1
100
AcDbSymbolTableRecord
100
AcDbBlockTableRecord
  2
*Paper_Space
340
1E
  0
BLOCK_RECORD
  5
12E
330
1
100
AcDbSymbolTableRecord
100
AcDbBlockTableRecord
  2
_OBLIQUE
340
0
  0
BLOCK_RECORD
  5
132
330
1
100
AcDbSymbolTableRecord
100
AcDbBlockTableRecord
  2
_DOT
340
0
  0
BLOCK_RECORD
  5
13A
330
1
100
AcDbSymbolTableRecord
100
AcDbBlockTableRecord
  2
_SE_FILLED
340
0
  0
BLOCK_RECORD
  5
142
330
1
100
AcDbSymbolTableRecord
100
AcDbBlockTableRecord
  2
DMBLK179
340
0
  0
BLOCK_RECORD
  5
14C
330
1
100
AcDbSymbolTableRecord
100
AcDbBlockTableRecord
  2
DMBLK180
340
0
  0
BLOCK_RECORD
  5
157
330
1
100
AcDbSymbolTableRecord
100
AcDbBlockTableRecord
  2
DMBLK181
340
0
  0
BLOCK_RECORD
  5
161
330
1
100
AcDbSymbolTableRecord
100
AcDbBlockTableRecord
  2
DMBLK182
340
0
  0
BLOCK_RECORD
  5
16B
330
1
100
AcDbSymbolTableRecord
100
AcDbBlockTableRecord
  2
Nullpunkt
340
0
102
{BLKREFS
331
175
102
}
  0
BLOCK_RECORD
  5
176
330
1
100
AcDbSymbolTableRecord
100
AcDbBlockTableRecord
  2
Einfügepunkt
340
0
102
{BLKREFS
331
180
102
}
  0
ENDTAB
  0
ENDSEC
  0
SECTION
  2
BLOCKS
  0
BLOCK
  5
20
330
1F
100
AcDbEntity
  8
0
100
AcDbBlockBegin
  2
*Model_Space
 70
     0
 10
0.0
 20
0.0
 30
0.0
  3
*Model_Space
  1

  0
ENDBLK
  5
21
330
1F
100
AcDbEntity
  8
0
100
AcDbBlockEnd
  0
BLOCK
  5
1C
330
1B
100
AcDbEntity
 67
     1
  8
0
100
AcDbBlockBegin
  2
*Paper_Space
 70
     0
 10
0.0
 20
0.0
 30
0.0
  3
*Paper_Space
  1

  0
ENDBLK
  5
1D
330
1B
100
AcDbEntity
 67
     1
  8
0
100
AcDbBlockEnd
  0
BLOCK
  5
12F
330
12E
100
AcDbEntity
  8
0
100
AcDbBlockBegin
  2
_OBLIQUE
 70
     0
 10
0.0
 20
0.0
 30
0.0
  3
_OBLIQUE
  1

  0
LINE
  5
131
330
12E
100
AcDbEntity
  8
0
  6
ByBlock
 62
     0
370
    -2
100
AcDbLine
 10
-0.5
 20
-0.5
 30
0.0
 11
0.5
 21
0.5
 31
0.0
  0
ENDBLK
  5
130
330
12E
100
AcDbEntity
  8
0
100
AcDbBlockEnd
  0
BLOCK
  5
133
330
132
100
AcDbEntity
  8
0
100
AcDbBlockBegin
  2
_DOT
 70
     0
 10
0.0
 20
0.0
 30
0.0
  3
_DOT
  1

  0
POLYLINE
  5
135
330
132
100
AcDbEntity
  8
0
  6
ByBlock
 62
     0
100
AcDb2dPolyline
 66
     1
 10
0.0
 20
0.0
 30
0.0
 70
     1
 40
0.5
 41
0.5
  0
VERTEX
  5
137
330
135
100
AcDbEntity
  8
0
  6
ByBlock
 62
     0
100
AcDbVertex
100
AcDb2dVertex
 10
-0.25
 20
0.0
 30
0.0
 42
1.0
  0
VERTEX
  5
138
330
135
100
AcDbEntity
  8
0
  6
ByBlock
 62
     0
100
AcDbVertex
100
AcDb2dVertex
 10
0.25
 20
0.0
 30
0.0
 42
1.0
  0
SEQEND
  5
139
330
135
100
AcDbEntity
  8
0
  6
ByBlock
 62
     0
  0
LINE
  5
136
330
132
100
AcDbEntity
  8
0
  6
ByBlock
 62
     0
370
    -2
100
AcDbLine
 10
-0.5
 20
0.0
 30
0.0
 11
-1.0
 21
0.0
 31
0.0
  0
ENDBLK
  5
134
330
132
100
AcDbEntity
  8
0
100
AcDbBlockEnd
  0
BLOCK
  5
13D
330
13A
100
AcDbEntity
  8
0
100
AcDbBlockBegin
  2
_SE_FILLED
 70
     0
 10
0.0
 20
0.0
 30
0.0
  3
_SE_FILLED
  1

  0
SOLID
  5
13B
330
13A
100
AcDbEntity
  8
0
 62
     0
100
AcDbTrace
 10
0.0
 20
0.0
 30
0.0
 11
-1.0
 21
-0.1665
 31
0.0
 12
-1.0
 22
0.1665
 32
0.0
 13
0.0
 23
0.0
 33
0.0
  0
LINE
  5
13C
330
13A
100
AcDbEntity
  8
0
 62
     0
100
AcDbLine
 10
0.0
 20
0.0
 30
0.0
 11
-1.0
 21
0.0
 31
0.0
  0
ENDBLK
  5
13E
330
13A
100
AcDbEntity
  8
0
100
AcDbBlockEnd
  0
BLOCK
  5
149
330
142
100
AcDbEntity
  8
0
100
AcDbBlockBegin
  2
DMBLK179
 70
     0
 10
0.0
 20
0.0
 30
0.0
  3
DMBLK179
  1

  0
HATCH
  5
143
330
142
100
AcDbEntity
  8
SK2
  6
Continuous
 62
   136
100
AcDbHatch
 10
0.0
 20
0.0
 30
0.0
210
0.0
220
0.0
230
1.0
  2
SOLID
 70
     1
 71
     0
 91
        1
 92
        1
 93
        3
 72
     1
 10
7.659999891953123
 20
18.96272161964803
 11
7.659999891953123
 21
17.79605491697022
 72
     1
 10
7.659999891953123
 20
17.79605491697022
 11
11.15999999998654
 21
18.37938826830912
 72
     1
 10
11.15999999998654
 20
18.37938826830912
 11
7.659999891953124
 21
18.96272161964803
 97
        0
 75
     0
 76
     1
 98
        0
  0
HATCH
  5
144
330
142
100
AcDbEntity
  8
SK2
  6
Continuous
 62
   136
100
AcDbHatch
 10
0.0
 20
0.0
 30
0.0
210
0.0
220
0.0
230
1.0
  2
SOLID
 70
     1
 71
     0
 91
        1
 92
        1
 93
        3
 72
     1
 10
-16.84000039861952
 20
18.96272161964803
 11
-20.34000050665294
 21
18.37938826830912
 72
     1
 10
-20.34000050665294
 20
18.37938826830912
 11
-16.84000039861952
 21
17.79605491697022
 72
     1
 10
-16.84000039861952
 20
17.79605491697022
 11
-16.84000039861952
 21
18.96272161964803
 97
        0
 75
     0
 76
     1
 98
        0
  0
LINE
  5
145
330
142
100
AcDbEntity
  8
SK2
  6
Continuous
 62
   136
100
AcDbLine
 10
11.16
 20
7.0254540846
 30
0.0
 11
11.16
 21
20.1293883223
 31
0.0
  0
LINE
  5
146
330
142
100
AcDbEntity
  8
SK2
  6
Continuous
 62
   136
100
AcDbLine
 10
-20.34
 20
5.9731739359
 30
0.0
 11
-20.34
 21
20.1293883223
 31
0.0
  0
LINE
  5
147
330
142
100
AcDbEntity
  8
SK2
  6
Continuous
 62
   136
100
AcDbLine
 10
11.16
 20
18.3793882683
 30
0.0
 11
-20.3400005067
 21
18.3793882683
 31
0.0
  0
TEXT
  5
148
330
142
100
AcDbEntity
  8
SK2
  6
Continuous
 62
   136
100
AcDbText
 10
-7.5331820715
 20
19.2543882683
 30
0.0
 40
3.5
  1
31,5
  7
SEACAD_Solid_Edge_ISO
 11
-7.5331820715
 21
22.7543882683
 31
0.0
100
AcDbText
 73
     3
  0
ENDBLK
  5
14A
330
142
100
AcDbEntity
  8
0
100
AcDbBlockEnd
  0
BLOCK
  5
154
330
14C
100
AcDbEntity
  8
0
100
AcDbBlockBegin
  2
DMBLK180
 70
     0
 10
0.0
 20
0.0
 30
0.0
  3
DMBLK180
  1

  0
HATCH
  5
14D
330
14C
100
AcDbEntity
  8
SK2
  6
Continuous
 62
   136
100
AcDbHatch
 10
0.0
 20
0.0
 30
0.0
210
0.0
220
0.0
230
1.0
  2
SOLID
 70
     1
 71
     0
 91
        1
 92
        1
 93
        3
 72
     1
 10
20.45831963688474
 20
8.265000108033496
 11
19.29165293420693
 21
8.265000108033496
 72
     1
 10
19.29165293420693
 20
8.265000108033496
 11
19.87498628554583
 21
4.765000000000077
 72
     1
 10
19.87498628554583
 20
4.765000000000076
 11
20.45831963688474
 21
8.265000108033494
 97
        0
 75
     0
 76
     1
 98
        0
  0
HATCH
  5
14E
330
14C
100
AcDbEntity
  8
SK2
  6
Continuous
 62
   136
100
AcDbHatch
 10
0.0
 20
0.0
 30
0.0
210
0.0
220
0.0
230
1.0
  2
SOLID
 70
     1
 71
     0
 91
        1
 92
        1
 93
        3
 72
     1
 10
20.45831963688474
 20
-8.265000108033346
 11
19.87498628554583
 21
-4.764999999999928
 72
     1
 10
19.87498628554583
 20
-4.764999999999927
 11
19.29165293420693
 21
-8.265000108033345
 72
     1
 10
19.29165293420693
 20
-8.265000108033346
 11
20.45831963688474
 21
-8.265000108033346
 97
        0
 75
     0
 76
     1
 98
        0
  0
LINE
  5
14F
330
14C
100
AcDbEntity
  8
SK2
  6
Continuous
 62
   136
100
AcDbLine
 10
10.76
 20
4.765
 30
0.0
 11
21.6249863396
 21
4.765
 31
0.0
  0
LINE
  5
150
330
14C
100
AcDbEntity
  8
SK2
  6
Continuous
 62
   136
100
AcDbLine
 10
10.76
 20
-4.765
 30
0.0
 11
21.6249863396
 21
-4.765
 31
0.0
  0
LINE
  5
151
330
14C
100
AcDbEntity
  8
SK2
  6
Continuous
 62
   136
100
AcDbLine
 10
19.8749862855
 20
23.1250001037
 30
0.0
 11
19.8749862855
 21
-11.7649996734
 31
0.0
  0
TEXT
  5
152
330
14C
100
AcDbEntity
  8
SK2
  6
Continuous
 62
   136
100
AcDbText
 10
18.9999862855
 20
15.2977273206
 30
0.0
 40
3.5
  1
9,53
 50
90.0
  7
SEACAD_Solid_Edge_ISO
 11
15.4999862855
 21
15.2977273206
 31
0.0
100
AcDbText
 73
     3
  0
TEXT
  5
153
330
14C
100
AcDbEntity
  8
SK2
  6
Continuous
 62
   136
100
AcDbText
 10
18.9999862855
 20
11.2250000478
 30
0.0
 40
3.5
  1
ø
 50
90.0
  7
SEACAD_Solid_Edge_ISO
 11
15.4999862855
 21
11.2250000478
 31
0.0
100
AcDbText
 73
     3
  0
ENDBLK
  5
155
330
14C
100
AcDbEntity
  8
0
100
AcDbBlockEnd
  0
BLOCK
  5
15E
330
157
100
AcDbEntity
  8
0
100
AcDbBlockBegin
  2
DMBLK181
 70
     0
 10
0.0
 20
0.0
 30
0.0
  3
DMBLK181
  1

  0
HATCH
  5
158
330
157
100
AcDbEntity
  8
SK2
  6
Continuous
 62
   136
100
AcDbHatch
 10
0.0
 20
0.0
 30
0.0
210
0.0
220
0.0
230
1.0
  2
SOLID
 70
     1
 71
     0
 91
        1
 92
        1
 93
        3
 72
     1
 10
14.66000010803342
 20
-18.16668575619347
 11
14.66000010803342
 21
-17.00001905351566
 72
     1
 10
14.66000010803342
 20
-17.00001905351566
 11
11.16
 21
-17.58335240485457
 72
     1
 10
11.16
 20
-17.58335240485457
 11
14.66000010803342
 21
-18.16668575619347
 97
        0
 75
     0
 76
     1
 98
        0
  0
HATCH
  5
159
330
157
100
AcDbEntity
  8
SK2
  6
Continuous
 62
   136
100
AcDbHatch
 10
0.0
 20
0.0
 30
0.0
210
0.0
220
0.0
230
1.0
  2
SOLID
 70
     1
 71
     0
 91
        1
 92
        1
 93
        3
 72
     1
 10
-3.500000108033419
 20
-18.16668575619347
 11
0.0
 21
-17.58335240485457
 72
     1
 10
0.0
 20
-17.58335240485457
 11
-3.500000108033419
 21
-17.00001905351566
 72
     1
 10
-3.500000108033419
 20
-17.00001905351566
 11
-3.500000108033419
 21
-18.16668575619347
 97
        0
 75
     0
 76
     1
 98
        0
  0
LINE
  5
15A
330
157
100
AcDbEntity
  8
SK2
  6
Continuous
 62
   136
100
AcDbLine
 10
11.16
 20
-7.0254540846
 30
0.0
 11
11.16
 21
-19.3333524589
 31
0.0
  0
LINE
  5
15B
330
157
100
AcDbEntity
  8
SK2
  6
Continuous
 62
   136
100
AcDbLine
 10
0.0
 20
-9.9996746285
 30
0.0
 11
0.0
 21
-19.3333524589
 31
0.0
  0
LINE
  5
15C
330
157
100
AcDbEntity
  8
SK2
  6
Continuous
 62
   136
100
AcDbLine
 10
18.1600002161
 20
-17.5833524049
 30
0.0
 11
-7.0000004435
 21
-17.5833524049
 31
0.0
  0
TEXT
  5
15D
330
157
100
AcDbEntity
  8
SK2
  6
Continuous
 62
   136
100
AcDbText
 10
2.040227159
 20
-16.7083524049
 30
0.0
 40
3.5
  1
11,16
  7
SEACAD_Solid_Edge_ISO
 11
2.040227159
 21
-13.2083524049
 31
0.0
100
AcDbText
 73
     3
  0
ENDBLK
  5
15F
330
157
100
AcDbEntity
  8
0
100
AcDbBlockEnd
  0
BLOCK
  5
169
330
161
100
AcDbEntity
  8
0
100
AcDbBlockBegin
  2
DMBLK182
 70
     0
 10
0.0
 20
0.0
 30
0.0
  3
DMBLK182
  1

  0
HATCH
  5
162
330
161
100
AcDbEntity
  8
SK2
  6
Continuous
 62
   136
100
AcDbHatch
 10
0.0
 20
0.0
 30
0.0
210
0.0
220
0.0
230
1.0
  2
SOLID
 70
     1
 71
     0
 91
        1
 92
        1
 93
        3
 72
     1
 10
-27.40827707263331
 20
6.499674520429152
 11
-26.2416103699555
 21
6.499674520429152
 72
     1
 10
-26.2416103699555
 20
6.499674520429152
 11
-26.8249437212944
 21
9.999674628462571
 72
     1
 10
-26.8249437212944
 20
9.99967462846257
 11
-27.40827707263331
 21
6.499674520429151
 97
        0
 75
     0
 76
     1
 98
        0
  0
HATCH
  5
163
330
161
100
AcDbEntity
  8
SK2
  6
Continuous
 62
   136
100
AcDbHatch
 10
0.0
 20
0.0
 30
0.0
210
0.0
220
0.0
230
1.0
  2
SOLID
 70
     1
 71
     0
 91
        1
 92
        1
 93
        3
 72
     1
 10
-27.40827707263331
 20
-6.499674753312093
 11
-26.8249437212944
 21
-9.999674861345511
 72
     1
 10
-26.8249437212944
 20
-9.999674861345513
 11
-26.2416103699555
 21
-6.499674753312094
 72
     1
 10
-26.2416103699555
 20
-6.499674753312093
 11
-27.40827707263331
 21
-6.499674753312093
 97
        0
 75
     0
 76
     1
 98
        0
  0
LINE
  5
164
330
161
100
AcDbEntity
  8
SK2
  6
Continuous
 62
   136
100
AcDbLine
 10
0.0
 20
9.9996746285
 30
0.0
 11
-28.5749437753
 21
9.9996746285
 31
0.0
  0
LINE
  5
165
330
161
100
AcDbEntity
  8
SK2
  6
Continuous
 62
   136
100
AcDbLine
 10
0.0
 20
-9.9996746285
 30
0.0
 11
-28.5749437753
 21
-9.9996746285
 31
0.0
  0
LINE
  5
166
330
161
100
AcDbEntity
  8
SK2
  6
Continuous
 62
   136
100
AcDbLine
 10
-26.8249437213
 20
9.9996746285
 30
0.0
 11
-26.8249437213
 21
-9.9996748613
 31
0.0
  0
TEXT
  5
167
330
161
100
AcDbEntity
  8
SK2
  6
Continuous
 62
   136
100
AcDbText
 10
-27.6999437213
 20
-0.0715910255
 30
0.0
 40
3.5
  1
20
 50
90.0
  7
SEACAD_Solid_Edge_ISO
 11
-31.1999437213
 21
-0.0715910255
 31
0.0
100
AcDbText
 73
     3
  0
TEXT
  5
168
330
161
100
AcDbEntity
  8
SK2
  6
Continuous
 62
   136
100
AcDbText
 10
-27.6999437213
 20
-4.1443182983
 30
0.0
 40
3.5
  1
ø
 50
90.0
  7
SEACAD_Solid_Edge_ISO
 11
-31.1999437213
 21
-4.1443182983
 31
0.0
100
AcDbText
 73
     3
  0
ENDBLK
  5
16A
330
161
100
AcDbEntity
  8
0
100
AcDbBlockEnd
  0
BLOCK
  5
173
330
16B
100
AcDbEntity
  8
0
100
AcDbBlockBegin
  2
Nullpunkt
 70
     0
 10
0.0
 20
0.0
 30
0.0
  3
Nullpunkt
  1

  0
HATCH
  5
16C
330
16B
100
AcDbEntity
  8
SK2
  6
Continuous
 62
     7
100
AcDbHatch
 10
0.0
 20
0.0
 30
0.0
210
0.0
220
0.0
230
1.0
  2
SOLID
 70
     1
 71
     0
 91
        1
 92
        1
 93
        3
 72
     1
 10
-1.0
 20
0.0
 11
0.0000000000000009
 21
0.0
 72
     1
 10
0.0
 20
0.0
 11
0.0
 21
1.000000000000001
 72
     2
 10
0.0
 20
0.0
 40
1.0
 50
90.0
 51
180.0
 73
     1
 97
        0
 75
     0
 76
     1
 98
        0
  0
HATCH
  5
16D
330
16B
100
AcDbEntity
  8
SK2
  6
Continuous
 62
     7
100
AcDbHatch
 10
0.0
 20
0.0
 30
0.0
210
0.0
220
0.0
230
1.0
  2
SOLID
 70
     1
 71
     0
 91
        1
 92
        1
 93
        3
 72
     2
 10
0.0
 20
0.0
 40
1.0
 50
270.0
 51
360.0
 73
     1
 72
     1
 10
1.0
 20
0.0
 11
-0.0000000000000009
 21
0.0
 72
     1
 10
0.0
 20
0.0
 11
0.0
 21
-1.000000000000001
 97
        0
 75
     0
 76
     1
 98
        0
  0
CIRCLE
  5
16E
330
16B
100
AcDbEntity
  8
SK2
  6
Continuous
 62
     7
100
AcDbCircle
 10
0.0
 20
0.0
 30
0.0
 40
1.0
  0
LINE
  5
16F
330
16B
100
AcDbEntity
  8
SK1
  6
Continuous
100
AcDbLine
 10
-1.0
 20
0.0
 30
0.0
 11
1.0
 21
0.0
 31
0.0
  0
LINE
  5
170
330
16B
100
AcDbEntity
  8
SK1
  6
Continuous
100
AcDbLine
 10
0.0
 20
1.0
 30
0.0
 11
0.0
 21
-1.0
 31
0.0
  0
POINT
  5
171
330
16B
100
AcDbEntity
  8
SK1
  6
Continuous
100
AcDbPoint
 10
0.0
 20
0.0
 30
0.0
  0
POINT
  5
172
330
16B
100
AcDbEntity
  8
SK1
  6
Continuous
100
AcDbPoint
 10
0.0
 20
0.0
 30
0.0
  0
ENDBLK
  5
174
330
16B
100
AcDbEntity
  8
0
100
AcDbBlockEnd
  0
BLOCK
  5
17E
330
176
100
AcDbEntity
  8
0
100
AcDbBlockBegin
  2
Einfügepunkt
 70
     0
 10
0.0
 20
0.0
 30
0.0
  3
Einfügepunkt
  1

  0
HATCH
  5
177
330
176
100
AcDbEntity
  8
SK2
  6
Continuous
 62
     7
100
AcDbHatch
 10
0.0
 20
0.0
 30
0.0
210
0.0
220
0.0
230
1.0
  2
SOLID
 70
     1
 71
     0
 91
        1
 92
        1
 93
        3
 72
     1
 10
-0.4502381196756744
 20
-0.0000000000000018
 11
0.0000000000000033
 21
-0.0000000000000018
 72
     1
 10
0.0
 20
-0.0000000000000018
 11
0.0
 21
0.4502381196756812
 72
     2
 10
0.0
 20
-0.0000000000000018
 40
0.4502381196756812
 50
90.0
 51
180.0
 73
     1
 97
        0
 75
     0
 76
     1
 98
        0
  0
HATCH
  5
178
330
176
100
AcDbEntity
  8
SK2
  6
Continuous
 62
     7
100
AcDbHatch
 10
0.0
 20
0.0
 30
0.0
210
0.0
220
0.0
230
1.0
  2
SOLID
 70
     1
 71
     0
 91
        1
 92
        1
 93
        3
 72
     2
 10
0.0
 20
-0.0000000000000018
 40
0.4502381196756812
 50
270.0
 51
360.0
 73
     1
 72
     1
 10
0.4502381196756815
 20
-0.0000000000000018
 11
0.0000000000000038
 21
-0.0000000000000018
 72
     1
 10
0.0
 20
-0.0000000000000018
 11
0.0
 21
-0.4502381196756812
 97
        0
 75
     0
 76
     1
 98
        0
  0
CIRCLE
  5
179
330
176
100
AcDbEntity
  8
SK2
  6
Continuous
 62
     7
100
AcDbCircle
 10
0.0
 20
0.0
 30
0.0
 40
0.4502381196756812
  0
LINE
  5
17A
330
176
100
AcDbEntity
  8
SK1
  6
Continuous
100
AcDbLine
 10
-0.4502381197
 20
0.0
 30
0.0
 11
0.4502381197
 21
0.0
 31
0.0
  0
LINE
  5
17B
330
176
100
AcDbEntity
  8
SK1
  6
Continuous
100
AcDbLine
 10
0.0
 20
0.4502381197
 30
0.0
 11
0.0
 21
-0.4502381197
 31
0.0
  0
POINT
  5
17C
330
176
100
AcDbEntity
  8
SK2
  6
Continuous
 62
     7
100
AcDbPoint
 10
0.0
 20
0.0
 30
0.0
  0
POINT
  5
17D
330
176
100
AcDbEntity
  8
SK2
  6
Continuous
 62
     7
100
AcDbPoint
 10
0.0
 20
0.0
 30
0.0
  0
ENDBLK
  5
17F
330
176
100
AcDbEntity
  8
0
100
AcDbBlockEnd
  0
ENDSEC
  0
SECTION
  2
ENTITIES
  0
LINE
  5
40
330
1F
100
AcDbEntity
  8
SK1
  6
Continuous
100
AcDbLine
 10
-20.34
 20
0.3
 30
0.0
 11
-20.34
 21
4.6483393093
 31
0.0
  0
LINE
  5
41
330
1F
100
AcDbEntity
  8
SK1
  6
Continuous
100
AcDbLine
 10
-20.0817519303
 20
0.3
 30
0.0
 11
-20.0817519303
 21
4.858598577
 31
0.0
  0
LINE
  5
44
330
1F
100
AcDbEntity
  8
SK3
100
AcDbLine
 10
-19.8731604391
 20
0.3
 30
0.0
 11
-19.8731604391
 21
3.1505473289
 31
0.0
  0
LINE
  5
45
330
1F
100
AcDbEntity
  8
SK1
  6
Continuous
100
AcDbLine
 10
-20.34
 20
-0.3
 30
0.0
 11
-20.0817519303
 21
-0.3
 31
0.0
  0
LINE
  5
46
330
1F
100
AcDbEntity
  8
SK1
  6
Continuous
100
AcDbLine
 10
-20.0817519303
 20
-0.3
 30
0.0
 11
-3.1363957032
 21
-0.3
 31
0.0
  0
LINE
  5
47
330
1F
100
AcDbEntity
  8
SK1
  6
Continuous
100
AcDbLine
 10
-20.34
 20
0.3
 30
0.0
 11
-20.0817519303
 21
0.3
 31
0.0
  0
LINE
  5
48
330
1F
100
AcDbEntity
  8
SK1
  6
Continuous
100
AcDbLine
 10
-20.0817519303
 20
0.3
 30
0.0
 11
-3.1363957032
 21
0.3
 31
0.0
  0
LINE
  5
49
330
1F
100
AcDbEntity
  8
SK3
100
AcDbLine
 10
-3.1363957032
 20
-0.3
 30
0.0
 11
-2.5802964052
 21
-0.3
 31
0.0
  0
ARC
  5
4A
330
1F
100
AcDbEntity
  8
SK1
  6
Continuous
100
AcDbCircle
 10
-3.1400087408
 20
0.0
 30
0.0
 40
0.3000217559456839
100
AcDbArc
 50
270.6900059939
 51
89.3099940061
  0
ARC
  5
4B
330
1F
100
AcDbEntity
  8
SK3
100
AcDbCircle
 10
-2.5801114254
 20
0.0
 30
0.0
 40
0.3000000570291682
100
AcDbArc
 50
269.9646714766
 51
90.0353285234
  0
SPLINE
  5
4C
330
1F
100
AcDbEntity
  8
SK3
100
AcDbSpline
210
0.0
220
0.0
230
1.0
 70
     8
 71
     3
 72
     8
 73
     4
 74
     0
 42
0.0000002497793926
 43
0.0000000001
 12
1.0
 22
0.0
 32
0.0
 13
1.0
 23
0.0
 33
0.0
 40
0.0
 40
0.0
 40
0.0
 40
0.0
 40
1.0
 40
1.0
 40
1.0
 40
1.0
 10
-15.31151467035356
 20
3.119470690332111
 30
0.0
 10
-15.31752156393497
 20
3.10749115204145
 30
0.0
 10
-15.32265068934278
 20
3.095123609743217
 30
0.0
 10
-15.3268185735582
 20
3.082551279162197
 30
0.0
  0
LINE
  5
4D
330
1F
100
AcDbEntity
  8
SK3
100
AcDbLine
 10
-2.5802964052
 20
0.3
 30
0.0
 11
-3.1363957032
 21
0.3
 31
0.0
  0
LINE
  5
4E
330
1F
100
AcDbEntity
  8
SK1
  6
Continuous
100
AcDbLine
 10
11.16
 20
7.255064144
 30
0.0
 11
11.16
 21
7.7343811406
 31
0.0
  0
LINE
  5
4F
330
1F
100
AcDbEntity
  8
SK3
100
AcDbLine
 10
-19.8731604391
 20
-3.1505473289
 30
0.0
 11
-19.8731604391
 21
-0.3
 31
0.0
  0
LINE
  5
50
330
1F
100
AcDbEntity
  8
SK1
  6
Continuous
100
AcDbLine
 10
-20.0817519303
 20
-4.858598577
 30
0.0
 11
-20.0817519303
 21
-0.3
 31
0.0
  0
LINE
  5
51
330
1F
100
AcDbEntity
  8
SK1
  6
Continuous
100
AcDbLine
 10
-20.34
 20
-4.6483393093
 30
0.0
 11
-20.34
 21
-0.3
 31
0.0
  0
LINE
  5
52
330
1F
100
AcDbEntity
  8
SK3
100
AcDbLine
 10
-20.34
 20
-3.3414922971
 30
0.0
 11
-19.8731604391
 21
-3.1505473289
 31
0.0
  0
SPLINE
  5
53
330
1F
100
AcDbEntity
  8
SK1
  6
Continuous
100
AcDbSpline
210
0.0
220
0.0
230
1.0
 70
     8
 71
     3
 72
    10
 73
     6
 74
     0
 42
0.0000000269130255
 43
0.0000000001
 12
1.0
 22
0.0
 32
0.0
 13
1.0
 23
0.0
 33
0.0
 40
0.0
 40
0.0
 40
0.0
 40
0.0
 40
0.5
 40
0.5
 40
1.0
 40
1.0
 40
1.0
 40
1.0
 10
-20.34000000002145
 20
-5.072603378047139
 30
0.0
 10
-20.34000000002145
 20
-5.123143066141722
 30
0.0
 10
-20.3132637762139
 20
-5.173701626581071
 30
0.0
 10
-20.21985489208032
 20
-5.249866329586732
 30
0.0
 10
-20.15328210195578
 20
-5.275747947161896
 30
0.0
 10
-20.08175193030947
 20
-5.282862645692003
 30
0.0
  0
SPLINE
  5
54
330
1F
100
AcDbEntity
  8
SK1
  6
Continuous
100
AcDbSpline
210
0.0
220
0.0
230
1.0
 70
     8
 71
     3
 72
    11
 73
     7
 74
     0
 42
0.0000000005872358
 43
0.0000000001
 12
1.0
 22
0.0
 32
0.0
 13
1.0
 23
0.0
 33
0.0
 40
0.0
 40
0.0
 40
0.0
 40
0.0
 40
0.7363654467307729
 40
0.7363654467307729
 40
0.7363654467307729
 40
1.0
 40
1.0
 40
1.0
 40
1.0
 10
-20.08175193030947
 20
-5.282862645692003
 30
0.0
 10
-15.92244457916591
 20
-5.696565244543657
 30
0.0
 10
-11.76312064060632
 20
-6.110184461138868
 30
0.0
 10
-7.603788294761955
 20
-6.523761393935454
 30
0.0
 10
-6.114658502019223
 20
-6.671830766856298
 30
0.0
 10
-4.62552756770861
 20
-6.819894399492108
 30
0.0
 10
-3.136395703206271
 20
-6.967953354223226
 30
0.0
  0
LINE
  5
55
330
1F
100
AcDbEntity
  8
SK1
  6
Continuous
100
AcDbLine
 10
-20.34
 20
-4.6483393093
 30
0.0
 11
-20.34
 21
-5.072603378
 31
0.0
  0
SPLINE
  5
56
330
1F
100
AcDbEntity
  8
SK1
  6
Continuous
100
AcDbSpline
210
0.0
220
0.0
230
1.0
 70
     8
 71
     3
 72
    10
 73
     6
 74
     0
 42
0.0000000269130255
 43
0.0000000001
 12
1.0
 22
0.0
 32
0.0
 13
1.0
 23
0.0
 33
0.0
 40
0.0
 40
0.0
 40
0.0
 40
0.0
 40
0.5
 40
0.5
 40
1.0
 40
1.0
 40
1.0
 40
1.0
 10
-20.34000000002145
 20
-4.648339309335212
 30
0.0
 10
-20.34000000002145
 20
-4.698878997429783
 30
0.0
 10
-20.3132637762139
 20
-4.749437557869145
 30
0.0
 10
-20.21985489208032
 20
-4.825602260874797
 30
0.0
 10
-20.15328210195578
 20
-4.851483878449968
 30
0.0
 10
-20.08175193030947
 20
-4.858598576980073
 30
0.0
  0
SPLINE
  5
57
330
1F
100
AcDbEntity
  8
SK1
  6
Continuous
100
AcDbSpline
210
0.0
220
0.0
230
1.0
 70
     8
 71
     3
 72
    11
 73
     7
 74
     0
 42
0.0000000005872358
 43
0.0000000001
 12
1.0
 22
0.0
 32
0.0
 13
1.0
 23
0.0
 33
0.0
 40
0.0
 40
0.0
 40
0.0
 40
0.0
 40
0.736365446730773
 40
0.736365446730773
 40
0.736365446730773
 40
1.0
 40
1.0
 40
1.0
 40
1.0
 10
-20.08175193030947
 20
-4.858598576980073
 30
0.0
 10
-15.92244457916591
 20
-5.272301175831728
 30
0.0
 10
-11.76312064060632
 20
-5.685920392426938
 30
0.0
 10
-7.603788294761955
 20
-6.099497325223526
 30
0.0
 10
-6.114658502019223
 20
-6.247566698144368
 30
0.0
 10
-4.62552756770861
 20
-6.395630330780179
 30
0.0
 10
-3.136395703206273
 20
-6.543689285511297
 30
0.0
  0
LINE
  5
58
330
1F
100
AcDbEntity
  8
SK3
100
AcDbLine
 10
-20.34
 20
-3.7657563659
 30
0.0
 11
-19.8731604391
 21
-3.5748113976
 31
0.0
  0
LINE
  5
59
330
1F
100
AcDbEntity
  8
SK3
100
AcDbLine
 10
-2.5802964052
 20
-3.5748113976
 30
0.0
 11
-19.8731604391
 21
-3.5748113976
 31
0.0
  0
ELLIPSE
  5
5A
330
1F
100
AcDbEntity
  8
SK1
  6
Continuous
100
AcDbEllipse
 10
-64.5982355487
 20
-0.2121320339
 30
0.0
 11
62.2000000049139
 21
-8.281376444048818E-10
 31
0.0
210
0.0
220
0.0
230
1.0
 40
0.7071067812
 41
-0.154214618484465
 42
-0.1448828123652692
  0
SPLINE
  5
5B
330
1F
100
AcDbEntity
  8
SK1
  6
Continuous
100
AcDbSpline
210
0.0
220
0.0
230
1.0
 70
     8
 71
     3
 72
    35
 73
    31
 74
     0
 42
0.0000000123418823
 43
0.0000000001
 12
1.0
 22
0.0
 32
0.0
 13
1.0
 23
0.0
 33
0.0
 40
0.0
 40
0.0
 40
0.0
 40
0.0
 40
0.1074285959530424
 40
0.1074285959530424
 40
0.1074285959530424
 40
0.2148567029690131
 40
0.2148567029690131
 40
0.2148567029690131
 40
0.3222951556111772
 40
0.3222951556111772
 40
0.3222951556111772
 40
0.4297633880495585
 40
0.4297633880495585
 40
0.4297633880495585
 40
0.4999992835871162
 40
0.4999992835871162
 40
0.4999992835871162
 40
0.6074617884167727
 40
0.6074617884167727
 40
0.6074617884167727
 40
0.7149235977191587
 40
0.7149235977191587
 40
0.7149235977191587
 40
0.8223950033241767
 40
0.8223950033241767
 40
0.8223950033241767
 40
0.929857499613002
 40
0.929857499613002
 40
0.929857499613002
 40
1.0
 40
1.0
 40
1.0
 40
1.0
 10
-3.136395703206273
 20
-6.543689285511297
 30
0.0
 10
-3.103157912645241
 20
-6.546993997904706
 30
0.0
 10
-3.069487393881344
 20
-6.55456909189336
 30
0.0
 10
-3.03816861055476
 20
-6.565768015754904
 30
0.0
 10
-3.006849879386197
 20
-6.576966920965861
 30
0.0
 10
-2.977018914271119
 20
-6.592096522736385
 30
0.0
 10
-2.95113432588494
 20
-6.609853372502156
 30
0.0
 10
-2.925247179271832
 20
-6.627611977213789
 30
0.0
 10
-2.902592633806329
 20
-6.648485146132184
 30
0.0
 10
-2.885032287890545
 20
-6.670686386106847
 30
0.0
 10
-2.867467217368727
 20
-6.692893599318763
 30
0.0
 10
-2.85451414194682
 20
-6.717039601619472
 30
0.0
 10
-2.847236641973554
 20
-6.741083375980667
 30
0.0
 10
-2.842441561852139
 20
-6.756925605442251
 30
0.0
 10
-2.840000000021431
 20
-6.77296222590272
 30
0.0
 10
-2.840000000021431
 20
-6.788605988047926
 30
0.0
 10
-2.840000000021431
 20
-6.812347268695224
 30
0.0
 10
-2.845712459773709
 20
-6.835716893183569
 30
0.0
 10
-2.85666842170154
 20
-6.856799137803358
 30
0.0
 10
-2.867624342417734
 20
-6.877881303120769
 30
0.0
 10
-2.884126172469097
 20
-6.897259366623996
 30
0.0
 10
-2.90481878107309
 20
-6.913379466639247
 30
0.0
 10
-2.92551314904615
 20
-6.92950093725044
 30
0.0
 10
-2.950970593368152
 20
-6.942811360330752
 30
0.0
 10
-2.979096063279813
 20
-6.952267550645722
 30
0.0
 10
-3.007219105744568
 20
-6.961722924817887
 30
0.0
 10
-3.038786301052709
 20
-6.967588055795108
 30
0.0
 10
-3.071191070401776
 20
-6.969419648639036
 30
0.0
 10
-3.092515486605548
 20
-6.970624954182152
 30
0.0
 10
-3.114516384739682
 20
-6.970128735129363
 30
0.0
 10
-3.136395703206271
 20
-6.967953354223226
 30
0.0
  0
SPLINE
  5
5C
330
1F
100
AcDbEntity
  8
SK3
100
AcDbSpline
210
0.0
220
0.0
230
1.0
 70
     8
 71
     3
 72
    35
 73
    31
 74
     0
 42
0.0000000122803158
 43
0.0000000001
 12
1.0
 22
0.0
 32
0.0
 13
1.0
 23
0.0
 33
0.0
 40
0.0
 40
0.0
 40
0.0
 40
0.0
 40
0.107496925869068
 40
0.107496925869068
 40
0.107496925869068
 40
0.2150087407120611
 40
0.2150087407120611
 40
0.2150087407120611
 40
0.3223256383042608
 40
0.3223256383042608
 40
0.3223256383042608
 40
0.4296307619145729
 40
0.4296307619145729
 40
0.4296307619145729
 40
0.5000013292907246
 40
0.5000013292907246
 40
0.5000013292907246
 40
0.6073770062793284
 40
0.6073770062793284
 40
0.6073770062793284
 40
0.7147541584878755
 40
0.7147541584878755
 40
0.7147541584878755
 40
0.8221048918881443
 40
0.8221048918881443
 40
0.8221048918881443
 40
0.9293958749824789
 40
0.9293958749824789
 40
0.9293958749824789
 40
1.0
 40
1.0
 40
1.0
 40
1.0
 10
-2.580296405170379
 20
-3.574811397601814
 30
0.0
 10
-2.54668762570214
 20
-3.574811397601813
 30
0.0
 10
-2.512614196909353
 20
-3.570992281709863
 30
0.0
 10
-2.480897035714847
 20
-3.563612822878892
 30
0.0
 10
-2.449177080061057
 20
-3.556232713876327
 30
0.0
 10
-2.418939950398659
 20
-3.545083230339408
 30
0.0
 10
-2.39269989399863
 20
-3.530978844719304
 30
0.0
 10
-2.366506064939234
 20
-3.516899306920735
 30
0.0
 10
-2.343571858875678
 20
-3.499481595411914
 30
0.0
 10
-2.325790086593331
 20
-3.480045566465848
 30
0.0
 10
-2.308010026626965
 20
-3.460611409134288
 30
0.0
 10
-2.294890195699319
 20
-3.438618581597714
 30
0.0
 10
-2.287507963599345
 20
-3.415800477618424
 30
0.0
 10
-2.282627386779323
 20
-3.400714862881579
 30
0.0
 10
-2.280142063631942
 20
-3.385047632906507
 30
0.0
 10
-2.280142063631918
 20
-3.369363812354132
 30
0.0
 10
-2.28014206363188
 20
-3.345625644211804
 30
0.0
 10
-2.28592536961004
 20
-3.321295479203189
 30
0.0
 10
-2.297017223746069
 20
-3.298428468505544
 30
0.0
 10
-2.30810916092544
 20
-3.27556128660541
 30
0.0
 10
-2.324816494680221
 20
-3.25353009949528
 30
0.0
 10
-2.345763613521103
 20
-3.23426456805597
 30
0.0
 10
-2.366705505726223
 20
-3.215003843669905
 30
0.0
 10
-2.392463867730481
 20
-3.197982030791528
 30
0.0
 10
-2.420907617370639
 20
-3.184729815143863
 30
0.0
 10
-2.449336326791096
 20
-3.171484606878746
 30
0.0
 10
-2.481230376356296
 20
-3.16164539237829
 30
0.0
 10
-2.513948673477373
 20
-3.156100452549925
 30
0.0
 10
-2.535653574916131
 20
-3.152422010117145
 30
0.0
 10
-2.558043101347137
 20
-3.150547328889885
 30
0.0
 10
-2.580296405170379
 20
-3.150547328889885
 30
0.0
  0
SPLINE
  5
5D
330
1F
100
AcDbEntity
  8
SK3
100
AcDbSpline
210
0.0
220
0.0
230
1.0
 70
     8
 71
     3
 72
    11
 73
     7
 74
     0
 42
0.0000003739429292
 43
0.0000000001
 12
1.0
 22
0.0
 32
0.0
 13
1.0
 23
0.0
 33
0.0
 40
0.0
 40
0.0
 40
0.0
 40
0.0
 40
0.3278132919330126
 40
0.3278132919330126
 40
0.3278132919330126
 40
1.0
 40
1.0
 40
1.0
 40
1.0
 10
-15.32968533642302
 20
7.277211078547342
 30
0.0
 10
-15.33147438506027
 20
7.274529612473899
 30
0.0
 10
-15.33303343566631
 20
7.271851418502971
 30
0.0
 10
-15.3343530197476
 20
7.269185425863832
 30
0.0
 10
-15.3370865527135
 20
7.263662792733223
 30
0.0
 10
-15.33883835241322
 20
7.258140470130552
 30
0.0
 10
-15.33958508687101
 20
7.252702209974985
 30
0.0
  0
LINE
  5
5E
330
1F
100
AcDbEntity
  8
SK3
100
AcDbLine
 10
-2.5802964052
 20
-3.1505473289
 30
0.0
 11
-19.8731604391
 21
-3.1505473289
 31
0.0
  0
LINE
  5
5F
330
1F
100
AcDbEntity
  8
SK1
  6
Continuous
100
AcDbLine
 10
6.36
 20
9.811579829
 30
0.0
 11
6.36
 21
10.5
 31
0.0
  0
LINE
  5
60
330
1F
100
AcDbEntity
  8
SK1
  6
Continuous
100
AcDbLine
 10
6.6198076211
 20
9.811579829
 30
0.0
 11
6.6198076211
 21
10.5
 31
0.0
  0
LINE
  5
61
330
1F
100
AcDbEntity
  8
SK1
  6
Continuous
100
AcDbLine
 10
6.36
 20
9.811579829
 30
0.0
 11
6.6198076211
 21
9.811579829
 31
0.0
  0
LINE
  5
62
330
1F
100
AcDbEntity
  8
SK1
  6
Continuous
100
AcDbLine
 10
6.36
 20
9.5819697696
 30
0.0
 11
6.6198076211
 21
9.5819697696
 31
0.0
  0
LINE
  5
63
330
1F
100
AcDbEntity
  8
SK1
  6
Continuous
100
AcDbLine
 10
11.035
 20
7.9508874915
 30
0.0
 11
11.035
 21
7.455236463
 31
0.0
  0
LINE
  5
64
330
1F
100
AcDbEntity
  8
SK1
  6
Continuous
100
AcDbLine
 10
11.16
 20
7.0254540846
 30
0.0
 11
11.16
 21
3.2347560238
 31
0.0
  0
LINE
  5
65
330
1F
100
AcDbEntity
  8
SK1
  6
Continuous
100
AcDbLine
 10
3.1043307596
 20
9.7523901463
 30
0.0
 11
3.1043307596
 21
10.4359598646
 31
0.0
  0
LINE
  5
66
330
1F
100
AcDbEntity
  8
SK1
  6
Continuous
100
AcDbLine
 10
3.56
 20
9.3862775107
 30
0.0
 11
3.56
 21
10.0398526371
 31
0.0
  0
LINE
  5
67
330
1F
100
AcDbEntity
  8
SK1
  6
Continuous
100
AcDbLine
 10
3.76
 20
8.7
 30
0.0
 11
3.76
 21
8.1477768539
 31
0.0
  0
LINE
  5
68
330
1F
100
AcDbEntity
  8
SK1
  6
Continuous
100
AcDbLine
 10
6.16
 20
8.7
 30
0.0
 11
6.16
 21
8.1477768539
 31
0.0
  0
ARC
  5
69
330
1F
100
AcDbEntity
  8
SK1
  6
Continuous
100
AcDbCircle
 10
3.1698769151
 20
9.1377371284
 30
0.0
 40
0.3905821020576975
100
AcDbArc
 50
2.7780399913
 51
99.6608950409
  0
SPLINE
  5
6A
330
1F
100
AcDbEntity
  8
SK1
  6
Continuous
100
AcDbSpline
210
0.0
220
0.0
230
1.0
 70
     8
 71
     3
 72
     8
 73
     4
 74
     0
 42
0.0000000019981515
 43
0.0000000001
 12
1.0
 22
0.0
 32
0.0
 13
1.0
 23
0.0
 33
0.0
 40
0.0
 40
0.0
 40
0.0
 40
0.0
 40
1.0
 40
1.0
 40
1.0
 40
1.0
 10
6.619807621113867
 20
9.581969769560406
 30
0.0
 10
8.091586662786261
 20
8.796599117817932
 30
0.0
 10
9.563332960267239
 20
8.01117607176449
 30
0.0
 10
11.03499999997855
 20
7.225626403562011
 30
0.0
  0
ARC
  5
6B
330
1F
100
AcDbEntity
  8
SK1
  6
Continuous
100
AcDbCircle
 10
10.9314792455
 20
7.0218665972
 30
0.0
 40
0.2285489122187473
100
AcDbArc
 50
0.8993975288
 51
63.0670226622
  0
ARC
  5
6C
330
1F
100
AcDbEntity
  8
SK3
100
AcDbCircle
 10
10.7743346815
 20
4.6644568844
 30
0.0
 40
0.3859758736889426
100
AcDbArc
 50
267.8716139309
 51
357.7014388878
  0
LINE
  5
6D
330
1F
100
AcDbEntity
  8
SK3
100
AcDbLine
 10
10.76
 20
4.278747289
 30
0.0
 11
-15.3520914856
 21
4.2787472891
 31
0.0
  0
LINE
  5
6E
330
1F
100
AcDbEntity
  8
SK1
  6
Continuous
100
AcDbLine
 10
6.36
 20
9.811579829
 30
0.0
 11
6.36
 21
9.5819697696
 31
0.0
  0
ARC
  5
6F
330
1F
100
AcDbEntity
  8
SK1
  6
Continuous
100
AcDbCircle
 10
6.1672842399
 20
8.3405150226
 30
0.0
 40
0.1928757677871498
100
AcDbArc
 50
267.8356250557
 51
357.6660087198
  0
LINE
  5
70
330
1F
100
AcDbEntity
  8
SK1
  6
Continuous
100
AcDbLine
 10
6.16
 20
8.1477768539
 30
0.0
 11
3.76
 21
8.1477768539
 31
0.0
  0
ARC
  5
71
330
1F
100
AcDbEntity
  8
SK1
  6
Continuous
100
AcDbCircle
 10
3.7527240376
 20
8.3405239769
 30
0.0
 40
0.1928844032862168
100
AcDbArc
 50
182.3365487929
 51
272.161817433
  0
LINE
  5
72
330
1F
100
AcDbEntity
  8
SK1
  6
Continuous
100
AcDbLine
 10
3.56
 20
9.1566674513
 30
0.0
 11
3.56
 21
9.3862775107
 31
0.0
  0
ARC
  5
73
330
1F
100
AcDbEntity
  8
SK1
  6
Continuous
100
AcDbCircle
 10
6.1672842399
 20
8.1109049632
 30
0.0
 40
0.1928757677871534
100
AcDbArc
 50
267.8356250557
 51
357.6660087198
  0
LINE
  5
74
330
1F
100
AcDbEntity
  8
SK1
  6
Continuous
100
AcDbLine
 10
6.16
 20
7.9181667945
 30
0.0
 11
3.76
 21
7.9181667945
 31
0.0
  0
ARC
  5
75
330
1F
100
AcDbEntity
  8
SK1
  6
Continuous
100
AcDbCircle
 10
3.7527240376
 20
8.1109139175
 30
0.0
 40
0.1928844032862215
100
AcDbArc
 50
182.3365487929
 51
272.161817433
  0
ARC
  5
76
330
1F
100
AcDbEntity
  8
SK1
  6
Continuous
100
AcDbCircle
 10
3.1698769151
 20
9.3673471878
 30
0.0
 40
0.3905821020576982
100
AcDbArc
 50
2.7780399913
 51
99.6608950409
  0
SPLINE
  5
77
330
1F
100
AcDbEntity
  8
SK1
  6
Continuous
100
AcDbSpline
210
0.0
220
0.0
230
1.0
 70
     8
 71
     3
 72
     8
 73
     4
 74
     0
 42
0.0000000019981515
 43
0.0000000001
 12
1.0
 22
0.0
 32
0.0
 13
1.0
 23
0.0
 33
0.0
 40
0.0
 40
0.0
 40
0.0
 40
0.0
 40
1.0
 40
1.0
 40
1.0
 40
1.0
 10
6.619807621113867
 20
9.811579828979463
 30
0.0
 10
8.091586662786261
 20
9.026209177236984
 30
0.0
 10
9.563332960267237
 20
8.240786131183544
 30
0.0
 10
11.03499999997855
 20
7.455236462981065
 30
0.0
  0
ARC
  5
78
330
1F
100
AcDbEntity
  8
SK1
  6
Continuous
100
AcDbCircle
 10
10.9314792455
 20
7.2514766566
 30
0.0
 40
0.2285489122187465
100
AcDbArc
 50
0.8993975288
 51
63.0670226622
  0
LINE
  5
79
330
1F
100
AcDbEntity
  8
SK1
  6
Continuous
100
AcDbLine
 10
11.16
 20
7.255064144
 30
0.0
 11
11.16
 21
7.0254540846
 31
0.0
  0
ARC
  5
7A
330
1F
100
AcDbEntity
  8
SK3
100
AcDbCircle
 10
10.7743346815
 20
4.8940669439
 30
0.0
 40
0.3859758736889446
100
AcDbArc
 50
267.8716139309
 51
357.7014388878
  0
LINE
  5
7B
330
1F
100
AcDbEntity
  8
SK3
100
AcDbLine
 10
10.76
 20
4.5083573485
 30
0.0
 11
-15.3520914856
 21
4.5083573485
 31
0.0
  0
LINE
  5
7C
330
1F
100
AcDbEntity
  8
SK1
  6
Continuous
100
AcDbLine
 10
-20.34
 20
-6.8737444938
 30
0.0
 11
-20.34
 21
-5.072603378
 31
0.0
  0
LINE
  5
7D
330
1F
100
AcDbEntity
  8
SK1
  6
Continuous
100
AcDbLine
 10
-20.0817519303
 20
-7.1710960017
 30
0.0
 11
-20.0817519303
 21
-5.2828626457
 31
0.0
  0
SPLINE
  5
7E
330
1F
100
AcDbEntity
  8
SK1
  6
Continuous
100
AcDbSpline
210
0.0
220
0.0
230
1.0
 70
     8
 71
     3
 72
    10
 73
     6
 74
     0
 42
0.0000000228003628
 43
0.0000000001
 12
1.0
 22
0.0
 32
0.0
 13
1.0
 23
0.0
 33
0.0
 40
0.0
 40
0.0
 40
0.0
 40
0.0
 40
0.5
 40
0.5
 40
1.0
 40
1.0
 40
1.0
 40
1.0
 10
-20.34000000002159
 20
-6.873744493773861
 30
0.0
 10
-20.34000000002145
 20
-6.94521840611532
 30
0.0
 10
-20.3132637762139
 20
-7.01671900798271
 30
0.0
 10
-20.21985489208033
 20
-7.124432163947444
 30
0.0
 10
-20.15328210195579
 20
-7.161034298538401
 30
0.0
 10
-20.08175193030947
 20
-7.171096001691871
 30
0.0
  0
LINE
  5
7F
330
1F
100
AcDbEntity
  8
SK3
100
AcDbLine
 10
-19.8731604391
 20
-4.7555467614
 30
0.0
 11
-19.8731604391
 21
-3.5748113976
 31
0.0
  0
LINE
  5
80
330
1F
100
AcDbEntity
  8
SK3
100
AcDbLine
 10
-20.34
 20
-5.0255837252
 30
0.0
 11
-19.8731604391
 21
-4.7555467614
 31
0.0
  0
SPLINE
  5
81
330
1F
100
AcDbEntity
  8
SK1
  6
Continuous
100
AcDbSpline
210
0.0
220
0.0
230
1.0
 70
     8
 71
     3
 72
    11
 73
     7
 74
     0
 42
0.0000000005843816
 43
0.0000000001
 12
1.0
 22
0.0
 32
0.0
 13
1.0
 23
0.0
 33
0.0
 40
0.0
 40
0.0
 40
0.0
 40
0.0
 40
0.7363654467307729
 40
0.7363654467307729
 40
0.7363654467307729
 40
1.0
 40
1.0
 40
1.0
 40
1.0
 10
-20.08175193030947
 20
-7.171096001691871
 30
0.0
 10
-15.92244457916591
 20
-7.756159827776877
 30
0.0
 10
-11.76312064060632
 20
-8.34110573354396
 30
0.0
 10
-7.603788294761955
 20
-8.925991840989559
 30
0.0
 10
-6.114658502019223
 20
-9.135393556346296
 30
0.0
 10
-4.62552756770861
 20
-9.344787153714085
 30
0.0
 10
-3.136395703206271
 20
-9.554174135525617
 30
0.0
  0
SPLINE
  5
82
330
1F
100
AcDbEntity
  8
SK1
  6
Continuous
100
AcDbSpline
210
0.0
220
0.0
230
1.0
 70
     8
 71
     3
 72
    23
 73
    19
 74
     0
 42
0.0000000327670225
 43
0.0000000001
 12
1.0
 22
0.0
 32
0.0
 13
1.0
 23
0.0
 33
0.0
 40
0.0
 40
0.0
 40
0.0
 40
0.0
 40
0.1921625435934582
 40
0.1921625435934582
 40
0.1921625435934582
 40
0.3843242126023498
 40
0.3843242126023498
 40
0.3843242126023498
 40
0.5765043873156895
 40
0.5765043873156895
 40
0.5765043873156895
 40
0.7687378305404322
 40
0.7687378305404322
 40
0.7687378305404322
 40
0.894372055006712
 40
0.894372055006712
 40
0.894372055006712
 40
1.0
 40
1.0
 40
1.0
 40
1.0
 10
-3.136395703206271
 20
-9.554174135525617
 30
0.0
 10
-3.103157912645239
 20
-9.558847704612115
 30
0.0
 10
-3.069487393881344
 20
-9.563768650103066
 30
0.0
 10
-3.03816861055476
 20
-9.5685007246309
 30
0.0
 10
-3.006849879386198
 20
-9.573232791277979
 30
0.0
 10
-2.97701891427112
 20
-9.577903879094746
 30
0.0
 10
-2.951134325884943
 20
-9.582055357656968
 30
0.0
 10
-2.925247179271836
 20
-9.586207246518324
 30
0.0
 10
-2.902592633806333
 20
-9.58994997505247
 30
0.0
 10
-2.885032287890549
 20
-9.59289027004455
 30
0.0
 10
-2.867467217368731
 20
-9.595831356122156
 30
0.0
 10
-2.854514141946823
 20
-9.598047083071776
 30
0.0
 10
-2.847236641973557
 20
-9.59929497650797
 30
0.0
 10
-2.842441561852142
 20
-9.600117202414053
 30
0.0
 10
-2.840000000021426
 20
-9.600538657904613
 30
0.0
 10
-2.840000000021426
 20
-9.600538657904611
 30
0.0
 10
-2.840000000021426
 20
-9.600538657904611
 30
0.0
 10
-2.841724921054816
 20
-9.600240140766529
 30
0.0
 10
-2.845096950032977
 20
-9.599661290307754
 30
0.0
  0
ARC
  5
83
330
1F
100
AcDbEntity
  8
SK3
100
AcDbCircle
 10
-2.5801643639
 20
-9.5212535686
 30
0.0
 40
4.765706808970604
100
AcDbArc
 50
86.3905906724
 51
90.0015874679
  0
SPLINE
  5
84
330
1F
100
AcDbEntity
  8
SK1
  6
Continuous
100
AcDbSpline
210
0.0
220
0.0
230
1.0
 70
     8
 71
     3
 72
    14
 73
    10
 74
     0
 42
0.0000000005467597
 43
0.0000000001
 12
1.0
 22
0.0
 32
0.0
 13
1.0
 23
0.0
 33
0.0
 40
0.0
 40
0.0
 40
0.0
 40
0.0
 40
0.0842539479580858
 40
0.0842539479580858
 40
0.0842539479580858
 40
0.8608517021639168
 40
0.8608517021639168
 40
0.8608517021639168
 40
1.0
 40
1.0
 40
1.0
 40
1.0
 10
-15.03282360220951
 20
7.166512551581619
 30
0.0
 10
-14.52344972983302
 20
7.232698980107186
 30
0.0
 10
-14.01407566268033
 20
7.298884129161043
 30
0.0
 10
-13.50470141587114
 20
7.3650680979964
 30
0.0
 10
-8.809622957879075
 20
7.975108610036065
 30
0.0
 10
-4.11452981494124
 20
8.58505265457161
 30
0.0
 10
0.5805707733344199
 20
9.194947769884468
 30
0.0
 10
1.421823856456454
 20
9.30422682290822
 30
0.0
 10
2.26307719356844
 20
9.413504207016874
 30
0.0
 10
3.104330759593944
 20
9.522780086915528
 30
0.0
  0
SPLINE
  5
85
330
1F
100
AcDbEntity
  8
SK3
100
AcDbSpline
210
0.0
220
0.0
230
1.0
 70
     8
 71
     3
 72
    35
 73
    31
 74
     0
 42
0.0000000145393524
 43
0.0000000001
 12
1.0
 22
0.0
 32
0.0
 13
1.0
 23
0.0
 33
0.0
 40
0.0
 40
0.0
 40
0.0
 40
0.0
 40
0.1074969258690682
 40
0.1074969258690682
 40
0.1074969258690682
 40
0.2150087407120631
 40
0.2150087407120631
 40
0.2150087407120631
 40
0.3223256383042643
 40
0.3223256383042643
 40
0.3223256383042643
 40
0.429630761914574
 40
0.429630761914574
 40
0.429630761914574
 40
0.5000013292910879
 40
0.5000013292910879
 40
0.5000013292910879
 40
0.6073770062793269
 40
0.6073770062793269
 40
0.6073770062793269
 40
0.7147541584878774
 40
0.7147541584878774
 40
0.7147541584878774
 40
0.8221048918881515
 40
0.8221048918881515
 40
0.8221048918881515
 40
0.9293958749824747
 40
0.9293958749824747
 40
0.9293958749824747
 40
1.0
 40
1.0
 40
1.0
 40
1.0
 10
-15.35209148559892
 20
4.508357348480801
 30
0.0
 10
-15.38570026506716
 20
4.508357348480801
 30
0.0
 10
-15.41977369385995
 20
4.506492741412644
 30
0.0
 10
-15.45149085505445
 20
4.502856473278145
 30
0.0
 10
-15.48321081070825
 20
4.499219884768087
 30
0.0
 10
-15.51344794037064
 20
4.493705610551995
 30
0.0
 10
-15.53968799677067
 20
4.486631394154835
 30
0.0
 10
-15.56588182583006
 20
4.479569640467592
 30
0.0
 10
-15.58881603189362
 20
4.470751311270517
 30
0.0
 10
-15.60659780417597
 20
4.460747043241554
 30
0.0
 10
-15.62437786414233
 20
4.450743738584957
 30
0.0
 10
-15.63749769506998
 20
4.439272213073714
 30
0.0
 10
-15.64487992716996
 20
4.42716895361699
 30
0.0
 10
-15.64976050398999
 20
4.419167188466369
 30
0.0
 10
-15.65224582713589
 20
4.410773994934718
 30
0.0
 10
-15.65224582713589
 20
4.402285972416358
 30
0.0
 10
-15.65224582713589
 20
4.389438968393189
 30
0.0
 10
-15.6464625211592
 20
4.376069037982525
 30
0.0
 10
-15.63537066702324
 20
4.363336204533018
 30
0.0
 10
-15.62427872984386
 20
4.350603275754284
 30
0.0
 10
-15.60757139608907
 20
4.338160960887785
 30
0.0
 10
-15.58662427724819
 20
4.327176228349788
 30
0.0
 10
-15.56568238504307
 20
4.316194236675406
 30
0.0
 10
-15.53992402303882
 20
4.306373794152612
 30
0.0
 10
-15.51148027339866
 20
4.29868713206085
 30
0.0
 10
-15.4830515639782
 20
4.291004534450322
 30
0.0
 10
-15.451157514413
 20
4.285248758322829
 30
0.0
 10
-15.41843921729193
 20
4.282001890055679
 30
0.0
 10
-15.39673431585317
 20
4.279847959016349
 30
0.0
 10
-15.37434478942216
 20
4.278747289061746
 30
0.0
 10
-15.35209148559892
 20
4.278747289061746
 30
0.0
  0
SPLINE
  5
86
330
1F
100
AcDbEntity
  8
SK1
  6
Continuous
100
AcDbSpline
210
0.0
220
0.0
230
1.0
 70
     8
 71
     3
 72
    35
 73
    31
 74
     0
 42
0.0000000142051026
 43
0.0000000001
 12
1.0
 22
0.0
 32
0.0
 13
1.0
 23
0.0
 33
0.0
 40
0.0
 40
0.0
 40
0.0
 40
0.0
 40
0.1119615440540013
 40
0.1119615440540013
 40
0.1119615440540013
 40
0.2240715221133872
 40
0.2240715221133872
 40
0.2240715221133872
 40
0.3338400478832877
 40
0.3338400478832877
 40
0.3338400478832877
 40
0.4402527267872416
 40
0.4402527267872416
 40
0.4402527267872416
 40
0.5001438666164724
 40
0.5001438666164724
 40
0.5001438666164724
 40
0.6037319614880876
 40
0.6037319614880876
 40
0.6037319614880876
 40
0.7072541124840058
 40
0.7072541124840058
 40
0.7072541124840058
 40
0.8118158326264298
 40
0.8118158326264298
 40
0.8118158326264298
 40
0.9190214043007972
 40
0.9190214043007972
 40
0.9190214043007972
 40
1.0
 40
1.0
 40
1.0
 40
1.0
 10
-15.03282360220951
 20
7.166512551581619
 30
0.0
 10
-15.06801576680537
 20
7.161939793116767
 30
0.0
 10
-15.10373062704931
 20
7.159825985339653
 30
0.0
 10
-15.13701949238256
 20
7.160362263840092
 30
0.0
 10
-15.17033369704752
 20
7.160898950553265
 30
0.0
 10
-15.20215095487847
 20
7.164111296316028
 30
0.0
 10
-15.22961869937286
 20
7.169707890628384
 30
0.0
 10
-15.25651319455873
 20
7.17518768453071
 30
0.0
 10
-15.28000029051701
 20
7.183111257528139
 30
0.0
 10
-15.29787731995897
 20
7.192734685276378
 30
0.0
 10
-15.31521611087211
 20
7.202068372516537
 30
0.0
 10
-15.32776705691965
 20
7.213263485535384
 30
0.0
 10
-15.3343530197476
 20
7.225306225168327
 30
0.0
 10
-15.33809767950688
 20
7.23215350986656
 30
0.0
 10
-15.34000000002173
 20
7.239357190808628
 30
0.0
 10
-15.34000000002174
 20
7.246706158826629
 30
0.0
 10
-15.34000000002174
 20
7.259296121192516
 30
0.0
 10
-15.33430832756253
 20
7.272596784844871
 30
0.0
 10
-15.3234412038814
 20
7.285527659274305
 30
0.0
 10
-15.31257792274586
 20
7.298453961429046
 30
0.0
 10
-15.29625564585642
 20
7.311365576559183
 30
0.0
 10
-15.27590021726822
 20
7.323300610414897
 30
0.0
 10
-15.25533652543727
 20
7.335357755620043
 30
0.0
 10
-15.23011856060381
 20
7.346745545367772
 30
0.0
 10
-15.20234460362324
 20
7.35668596177305
 30
0.0
 10
-15.17387223541928
 20
7.366876342502365
 30
0.0
 10
-15.14196696933445
 20
7.375821797886593
 30
0.0
 10
-15.10918837921914
 20
7.382935142481163
 30
0.0
 10
-15.0842826178909
 20
7.388339989428355
 30
0.0
 10
-15.05845038469791
 20
7.392792748007122
 30
0.0
 10
-15.03282360220951
 20
7.396122611000675
 30
0.0
  0
SPLINE
  5
87
330
1F
100
AcDbEntity
  8
SK1
  6
Continuous
100
AcDbSpline
210
0.0
220
0.0
230
1.0
 70
     8
 71
     3
 72
    14
 73
    10
 74
     0
 42
0.0000000005467597
 43
0.0000000001
 12
1.0
 22
0.0
 32
0.0
 13
1.0
 23
0.0
 33
0.0
 40
0.0
 40
0.0
 40
0.0
 40
0.0
 40
0.0842539479580858
 40
0.0842539479580858
 40
0.0842539479580858
 40
0.8608517021639168
 40
0.8608517021639168
 40
0.8608517021639168
 40
1.0
 40
1.0
 40
1.0
 40
1.0
 10
-15.03282360220951
 20
7.396122611000675
 30
0.0
 10
-14.52344972983302
 20
7.46230903952624
 30
0.0
 10
-14.01407566268033
 20
7.528494188580098
 30
0.0
 10
-13.50470141587114
 20
7.594678157415453
 30
0.0
 10
-8.809622957879075
 20
8.204718669455119
 30
0.0
 10
-4.11452981494124
 20
8.814662713990664
 30
0.0
 10
0.5805707733344199
 20
9.424557829303522
 30
0.0
 10
1.421823856456454
 20
9.533836882327273
 30
0.0
 10
2.263077193568443
 20
9.643114266435932
 30
0.0
 10
3.104330759593946
 20
9.752390146334582
 30
0.0
  0
ELLIPSE
  5
88
330
1F
100
AcDbEntity
  8
SK1
  6
Continuous
100
AcDbEllipse
 10
46.6658477099
 20
0.1148050243
 30
0.0
 11
-62.20000005687263
 21
3.648462492561572E-8
 31
0.0
210
0.0
220
0.0
230
1.0
 40
0.9238795321
 41
-0.1270495812393433
 42
-0.1230020755201533
  0
LINE
  5
89
330
1F
100
AcDbEntity
  8
SK3
100
AcDbLine
 10
-2.5802964052
 20
-4.7555467614
 30
0.0
 11
-19.8731604391
 21
-4.7555467614
 31
0.0
  0
LINE
  5
8A
330
1F
100
AcDbEntity
  8
SK1
  6
Continuous
100
AcDbLine
 10
6.36
 20
4.2936994929
 30
0.0
 11
6.36
 21
9.5819697696
 31
0.0
  0
LINE
  5
8B
330
1F
100
AcDbEntity
  8
SK1
  6
Continuous
100
AcDbLine
 10
6.6198076211
 20
4.2936994929
 30
0.0
 11
6.6198076211
 21
9.5819697696
 31
0.0
  0
LINE
  5
8C
330
1F
100
AcDbEntity
  8
SK1
  6
Continuous
100
AcDbLine
 10
6.36
 20
4.2936994929
 30
0.0
 11
6.6198076211
 21
4.2936994929
 31
0.0
  0
LINE
  5
8D
330
1F
100
AcDbEntity
  8
SK1
  6
Continuous
100
AcDbLine
 10
6.36
 20
3.7393717734
 30
0.0
 11
6.6198076211
 21
3.7393717734
 31
0.0
  0
LINE
  5
8E
330
1F
100
AcDbEntity
  8
SK1
  6
Continuous
100
AcDbLine
 10
11.035
 20
3.3176701131
 30
0.0
 11
11.035
 21
7.2256264036
 31
0.0
  0
LINE
  5
8F
330
1F
100
AcDbEntity
  8
SK1
  6
Continuous
100
AcDbLine
 10
11.16
 20
2.6804283042
 30
0.0
 11
11.16
 21
-2.6804283042
 31
0.0
  0
LINE
  5
90
330
1F
100
AcDbEntity
  8
SK1
  6
Continuous
100
AcDbLine
 10
3.1043307596
 20
4.2691823236
 30
0.0
 11
3.1043307596
 21
9.5227800869
 31
0.0
  0
LINE
  5
91
330
1F
100
AcDbEntity
  8
SK1
  6
Continuous
100
AcDbLine
 10
3.56
 20
4.1175335046
 30
0.0
 11
3.56
 21
9.1566674513
 31
0.0
  0
LINE
  5
92
330
1F
100
AcDbEntity
  8
SK1
  6
Continuous
100
AcDbLine
 10
3.76
 20
3.6045297355
 30
0.0
 11
3.76
 21
7.9181667945
 31
0.0
  0
LINE
  5
93
330
1F
100
AcDbEntity
  8
SK1
  6
Continuous
100
AcDbLine
 10
6.16
 20
3.6045297355
 30
0.0
 11
6.16
 21
7.9181667945
 31
0.0
  0
SPLINE
  5
94
330
1F
100
AcDbEntity
  8
SK1
  6
Continuous
100
AcDbSpline
210
0.0
220
0.0
230
1.0
 70
     8
 71
     3
 72
    10
 73
     6
 74
     0
 42
0.0000000190345776
 43
0.0000000001
 12
1.0
 22
0.0
 32
0.0
 13
1.0
 23
0.0
 33
0.0
 40
0.0
 40
0.0
 40
0.0
 40
0.0
 40
0.5
 40
0.5
 40
1.0
 40
1.0
 40
1.0
 40
1.0
 10
3.104330759594508
 20
3.714854604076983
 30
0.0
 10
3.218332587584052
 20
3.720988459337681
 30
0.0
 10
3.336761943195545
 20
3.707288459508967
 30
0.0
 10
3.508067280600423
 20
3.650281186405413
 30
0.0
 10
3.559999999978547
 20
3.607094529435141
 30
0.0
 10
3.559999999978546
 20
3.563205785051182
 30
0.0
  0
LINE
  5
95
330
1F
100
AcDbEntity
  8
SK1
  6
Continuous
100
AcDbLine
 10
6.6198076211
 20
3.7393717734
 30
0.0
 11
11.035
 21
2.7633423936
 31
0.0
  0
SPLINE
  5
96
330
1F
100
AcDbEntity
  8
SK1
  6
Continuous
100
AcDbSpline
210
0.0
220
0.0
230
1.0
 70
     8
 71
     3
 72
     8
 73
     4
 74
     0
 42
0.0000000587426104
 43
0.0000000001
 12
1.0
 22
0.0
 32
0.0
 13
1.0
 23
0.0
 33
0.0
 40
0.0
 40
0.0
 40
0.0
 40
0.0
 40
1.0
 40
1.0
 40
1.0
 40
1.0
 10
11.03499999997855
 20
2.763342393577499
 30
0.0
 10
11.11129747162866
 20
2.746473035867424
 30
0.0
 10
11.15999999997856
 20
2.713969899195339
 30
0.0
 10
11.15999999997855
 20
2.680428304248986
 30
0.0
  0
SPLINE
  5
97
330
1F
100
AcDbEntity
  8
SK3
100
AcDbSpline
210
0.0
220
0.0
230
1.0
 70
     8
 71
     3
 72
    10
 73
     6
 74
     0
 42
0.0000000213857047
 43
0.0000000001
 12
1.0
 22
0.0
 32
0.0
 13
1.0
 23
0.0
 33
0.0
 40
0.0
 40
0.0
 40
0.0
 40
0.0
 40
0.5
 40
0.5
 40
1.0
 40
1.0
 40
1.0
 40
1.0
 10
11.15999999997856
 20
1.696059126830752
 30
0.0
 10
11.15999999997856
 20
1.656106971444111
 30
0.0
 10
11.11764633663308
 20
1.616353892085887
 30
0.0
 10
10.96850632945897
 20
1.559077857174175
 30
0.0
 10
10.86574589507285
 20
1.542705097677326
 30
0.0
 10
10.75999999997855
 20
1.542705097677474
 30
0.0
  0
LINE
  5
98
330
1F
100
AcDbEntity
  8
SK3
100
AcDbLine
 10
10.76
 20
1.5427050977
 30
0.0
 11
-15.3520914856
 21
1.5427050977
 31
0.0
  0
LINE
  5
99
330
1F
100
AcDbEntity
  8
SK1
  6
Continuous
100
AcDbLine
 10
6.36
 20
4.2936994929
 30
0.0
 11
6.36
 21
3.7393717734
 31
0.0
  0
SPLINE
  5
9A
330
1F
100
AcDbEntity
  8
SK1
  6
Continuous
100
AcDbSpline
210
0.0
220
0.0
230
1.0
 70
     8
 71
     3
 72
    10
 73
     6
 74
     0
 42
0.0000000427808113
 43
0.0000000001
 12
1.0
 22
0.0
 32
0.0
 13
1.0
 23
0.0
 33
0.0
 40
0.0
 40
0.0
 40
0.0
 40
0.0
 40
0.5
 40
0.5
 40
1.0
 40
1.0
 40
1.0
 40
1.0
 10
6.359999999978536
 20
3.681110941636512
 30
0.0
 10
6.359999999978551
 20
3.661147913130359
 30
0.0
 10
6.338797885647672
 20
3.641286941291401
 30
0.0
 10
6.264194095977584
 20
3.612690369676941
 30
0.0
 10
6.212837205976431
 20
3.604529735509604
 30
0.0
 10
6.159999999978544
 20
3.604529735509906
 30
0.0
  0
LINE
  5
9B
330
1F
100
AcDbEntity
  8
SK1
  6
Continuous
100
AcDbLine
 10
6.16
 20
3.6045297355
 30
0.0
 11
3.76
 21
3.6045297355
 31
0.0
  0
SPLINE
  5
9C
330
1F
100
AcDbEntity
  8
SK1
  6
Continuous
100
AcDbSpline
210
0.0
220
0.0
230
1.0
 70
     8
 71
     3
 72
    10
 73
     6
 74
     0
 42
0.0000000427872622
 43
0.0000000001
 12
1.0
 22
0.0
 32
0.0
 13
1.0
 23
0.0
 33
0.0
 40
0.0
 40
0.0
 40
0.0
 40
0.0
 40
0.5
 40
0.5
 40
1.0
 40
1.0
 40
1.0
 40
1.0
 10
3.759999999978537
 20
3.604529735509906
 30
0.0
 10
3.707123214843483
 20
3.604529735509907
 30
0.0
 10
3.655403319825272
 20
3.612845671541618
 30
0.0
 10
3.581614556150182
 20
3.641127860983146
 30
0.0
 10
3.559999999978431
 20
3.661130633392038
 30
0.0
 10
3.559999999976193
 20
3.681110941636614
 30
0.0
  0
LINE
  5
9D
330
1F
100
AcDbEntity
  8
SK1
  6
Continuous
100
AcDbLine
 10
3.56
 20
3.6811109416
 30
0.0
 11
3.56
 21
4.1175335046
 31
0.0
  0
SPLINE
  5
9E
330
1F
100
AcDbEntity
  8
SK1
  6
Continuous
100
AcDbSpline
210
0.0
220
0.0
230
1.0
 70
     8
 71
     3
 72
    10
 73
     6
 74
     0
 42
0.0000000427808113
 43
0.0000000001
 12
1.0
 22
0.0
 32
0.0
 13
1.0
 23
0.0
 33
0.0
 40
0.0
 40
0.0
 40
0.0
 40
0.0
 40
0.5
 40
0.5
 40
1.0
 40
1.0
 40
1.0
 40
1.0
 10
6.359999999978536
 20
3.126783222129738
 30
0.0
 10
6.359999999978551
 20
3.106820193623586
 30
0.0
 10
6.338797885647672
 20
3.086959221784628
 30
0.0
 10
6.264194095977584
 20
3.058362650170171
 30
0.0
 10
6.212837205976431
 20
3.05020201600283
 30
0.0
 10
6.159999999978544
 20
3.050202016003134
 30
0.0
  0
LINE
  5
9F
330
1F
100
AcDbEntity
  8
SK1
  6
Continuous
100
AcDbLine
 10
6.16
 20
3.050202016
 30
0.0
 11
3.76
 21
3.050202016
 31
0.0
  0
SPLINE
  5
A0
330
1F
100
AcDbEntity
  8
SK1
  6
Continuous
100
AcDbSpline
210
0.0
220
0.0
230
1.0
 70
     8
 71
     3
 72
    10
 73
     6
 74
     0
 42
0.0000000427872622
 43
0.0000000001
 12
1.0
 22
0.0
 32
0.0
 13
1.0
 23
0.0
 33
0.0
 40
0.0
 40
0.0
 40
0.0
 40
0.0
 40
0.5
 40
0.5
 40
1.0
 40
1.0
 40
1.0
 40
1.0
 10
3.759999999978537
 20
3.050202016003134
 30
0.0
 10
3.70712321484348
 20
3.050202016003134
 30
0.0
 10
3.655403319825274
 20
3.058517952034845
 30
0.0
 10
3.581614556150182
 20
3.086800141476372
 30
0.0
 10
3.559999999978431
 20
3.106802913885268
 30
0.0
 10
3.559999999976193
 20
3.126783222129843
 30
0.0
  0
SPLINE
  5
A1
330
1F
100
AcDbEntity
  8
SK1
  6
Continuous
100
AcDbSpline
210
0.0
220
0.0
230
1.0
 70
     8
 71
     3
 72
    10
 73
     6
 74
     0
 42
0.0000000190345776
 43
0.0000000001
 12
1.0
 22
0.0
 32
0.0
 13
1.0
 23
0.0
 33
0.0
 40
0.0
 40
0.0
 40
0.0
 40
0.0
 40
0.5
 40
0.5
 40
1.0
 40
1.0
 40
1.0
 40
1.0
 10
3.104330759594508
 20
4.269182323583755
 30
0.0
 10
3.218332587584045
 20
4.275316178844452
 30
0.0
 10
3.336761943195541
 20
4.261616179015739
 30
0.0
 10
3.508067280600426
 20
4.204608905912187
 30
0.0
 10
3.559999999978547
 20
4.161422248941911
 30
0.0
 10
3.559999999978546
 20
4.117533504557956
 30
0.0
  0
LINE
  5
A2
330
1F
100
AcDbEntity
  8
SK1
  6
Continuous
100
AcDbLine
 10
6.6198076211
 20
4.2936994929
 30
0.0
 11
11.035
 21
3.3176701131
 31
0.0
  0
SPLINE
  5
A3
330
1F
100
AcDbEntity
  8
SK1
  6
Continuous
100
AcDbSpline
210
0.0
220
0.0
230
1.0
 70
     8
 71
     3
 72
     8
 73
     4
 74
     0
 42
0.0000000587426104
 43
0.0000000001
 12
1.0
 22
0.0
 32
0.0
 13
1.0
 23
0.0
 33
0.0
 40
0.0
 40
0.0
 40
0.0
 40
0.0
 40
1.0
 40
1.0
 40
1.0
 40
1.0
 10
11.03499999997855
 20
3.317670113084271
 30
0.0
 10
11.11129747162871
 20
3.300800755374187
 30
0.0
 10
11.15999999997856
 20
3.268297618702125
 30
0.0
 10
11.15999999997855
 20
3.234756023755757
 30
0.0
  0
LINE
  5
A4
330
1F
100
AcDbEntity
  8
SK1
  6
Continuous
100
AcDbLine
 10
11.16
 20
3.2347560238
 30
0.0
 11
11.16
 21
2.6804283043
 31
0.0
  0
SPLINE
  5
A5
330
1F
100
AcDbEntity
  8
SK3
100
AcDbSpline
210
0.0
220
0.0
230
1.0
 70
     8
 71
     3
 72
    10
 73
     6
 74
     0
 42
0.0000000213857047
 43
0.0000000001
 12
1.0
 22
0.0
 32
0.0
 13
1.0
 23
0.0
 33
0.0
 40
0.0
 40
0.0
 40
0.0
 40
0.0
 40
0.5
 40
0.5
 40
1.0
 40
1.0
 40
1.0
 40
1.0
 10
11.15999999997856
 20
2.250386846337524
 30
0.0
 10
11.15999999997856
 20
2.210434690950883
 30
0.0
 10
11.11764633663308
 20
2.170681611592659
 30
0.0
 10
10.96850632945897
 20
2.113405576680948
 30
0.0
 10
10.86574589507285
 20
2.097032817184099
 30
0.0
 10
10.75999999997855
 20
2.097032817184246
 30
0.0
  0
LINE
  5
A6
330
1F
100
AcDbEntity
  8
SK3
100
AcDbLine
 10
10.76
 20
2.0970328172
 30
0.0
 11
-15.3520914856
 21
2.0970328172
 31
0.0
  0
LINE
  5
A7
330
1F
100
AcDbEntity
  8
SK1
  6
Continuous
100
AcDbLine
 10
-15.0328236022
 20
2.7388566344
 30
0.0
 11
3.1043307596
 21
3.7148546041
 31
0.0
  0
SPLINE
  5
A8
330
1F
100
AcDbEntity
  8
SK3
100
AcDbSpline
210
0.0
220
0.0
230
1.0
 70
     8
 71
     3
 72
    35
 73
    31
 74
     0
 42
0.000000010973503
 43
0.0000000001
 12
1.0
 22
0.0
 32
0.0
 13
1.0
 23
0.0
 33
0.0
 40
0.0
 40
0.0
 40
0.0
 40
0.0
 40
0.1074969258690724
 40
0.1074969258690724
 40
0.1074969258690724
 40
0.2150087407120724
 40
0.2150087407120724
 40
0.2150087407120724
 40
0.3223256383042707
 40
0.3223256383042707
 40
0.3223256383042707
 40
0.4296307619145813
 40
0.4296307619145813
 40
0.4296307619145813
 40
0.5000013292910886
 40
0.5000013292910886
 40
0.5000013292910886
 40
0.6073770062793314
 40
0.6073770062793314
 40
0.6073770062793314
 40
0.7147541584878851
 40
0.7147541584878851
 40
0.7147541584878851
 40
0.8221048918881524
 40
0.8221048918881524
 40
0.8221048918881524
 40
0.9293958749824827
 40
0.9293958749824827
 40
0.9293958749824827
 40
1.0
 40
1.0
 40
1.0
 40
1.0
 10
-15.35209148559892
 20
2.097032817184247
 30
0.0
 10
-15.38570026506716
 20
2.097032817184247
 30
0.0
 10
-15.41977369385995
 20
2.091840618242681
 30
0.0
 10
-15.45149085505446
 20
2.081841424427291
 30
0.0
 10
-15.48321081070825
 20
2.071841349627004
 30
0.0
 10
-15.51344794037065
 20
2.056754064567432
 30
0.0
 10
-15.53968799677068
 20
2.03776677457847
 30
0.0
 10
-15.56588182583007
 20
2.018812934667079
 30
0.0
 10
-15.58881603189363
 20
1.99544752953178
 30
0.0
 10
-15.60659780417597
 20
1.969538698887608
 30
0.0
 10
-15.62437786414234
 20
1.943632363163741
 30
0.0
 10
-15.63749769506998
 20
1.914466442228803
 30
0.0
 10
-15.64487992716996
 20
1.884407343211168
 30
0.0
 10
-15.64976050398999
 20
1.864534526980273
 30
0.0
 10
-15.65224582713589
 20
1.843978454301277
 30
0.0
 10
-15.65224582713589
 20
1.823486555219723
 30
0.0
 10
-15.65224582713589
 20
1.792471143871127
 30
0.0
 10
-15.6464625211592
 20
1.760884791333693
 30
0.0
 10
-15.63537066702323
 20
1.7313648984769
 30
0.0
 10
-15.62427872984386
 20
1.70184478460814
 30
0.0
 10
-15.60757139608907
 20
1.673578773778693
 30
0.0
 10
-15.58662427724819
 20
1.648965445957228
 30
0.0
 10
-15.56568238504307
 20
1.624358259548356
 30
0.0
 10
-15.53992402303881
 20
1.602726493022004
 30
0.0
 10
-15.51148027339866
 20
1.585926253519161
 30
0.0
 10
-15.4830515639782
 20
1.569134897489712
 30
0.0
 10
-15.451157514413
 20
1.556710175831288
 30
0.0
 10
-15.41843921729192
 20
1.549711331265573
 30
0.0
 10
-15.39673431585316
 20
1.545068386954569
 30
0.0
 10
-15.37434478942216
 20
1.542705097677474
 30
0.0
 10
-15.35209148559892
 20
1.542705097677474
 30
0.0
  0
SPLINE
  5
A9
330
1F
100
AcDbEntity
  8
SK1
  6
Continuous
100
AcDbSpline
210
0.0
220
0.0
230
1.0
 70
     8
 71
     3
 72
    35
 73
    31
 74
     0
 42
0.0000000108331195
 43
0.0000000001
 12
1.0
 22
0.0
 32
0.0
 13
1.0
 23
0.0
 33
0.0
 40
0.0
 40
0.0
 40
0.0
 40
0.0
 40
0.1119615440540013
 40
0.1119615440540013
 40
0.1119615440540013
 40
0.2240715221133876
 40
0.2240715221133876
 40
0.2240715221133876
 40
0.3338400478832896
 40
0.3338400478832896
 40
0.3338400478832896
 40
0.4402527267872389
 40
0.4402527267872389
 40
0.4402527267872389
 40
0.5001438666164727
 40
0.5001438666164727
 40
0.5001438666164727
 40
0.6037319614880875
 40
0.6037319614880875
 40
0.6037319614880875
 40
0.7072541124840077
 40
0.7072541124840077
 40
0.7072541124840077
 40
0.8118158326264336
 40
0.8118158326264336
 40
0.8118158326264336
 40
0.9190214043008006
 40
0.9190214043008006
 40
0.9190214043008006
 40
1.0
 40
1.0
 40
1.0
 40
1.0
 10
-15.03282360220951
 20
2.738856634363105
 30
0.0
 10
-15.06801576680537
 20
2.736962535789507
 30
0.0
 10
-15.10373062704931
 20
2.740704517482635
 30
0.0
 10
-15.13701949238256
 20
2.749874344458919
 30
0.0
 10
-15.17033369704752
 20
2.759051151465469
 30
0.0
 10
-15.20215095487846
 20
2.773941046573968
 30
0.0
 10
-15.22961869937285
 20
2.793376013906772
 30
0.0
 10
-15.25651319455873
 20
2.812405375253734
 30
0.0
 10
-15.28000029051702
 20
2.836347809673019
 30
0.0
 10
-15.29787731995898
 20
2.863158411887083
 30
0.0
 10
-15.31521611087211
 20
2.889161805099253
 30
0.0
 10
-15.32776705691965
 20
2.918603819385616
 30
0.0
 10
-15.3343530197476
 20
2.948940630068004
 30
0.0
 10
-15.33809767950688
 20
2.96618959383456
 30
0.0
 10
-15.34000000002173
 20
2.983941995260114
 30
0.0
 10
-15.34000000002174
 20
3.001683973518621
 30
0.0
 10
-15.34000000002174
 20
3.032078831412113
 30
0.0
 10
-15.33430832756254
 20
3.063115084870289
 30
0.0
 10
-15.32344120388141
 20
3.092221717971839
 30
0.0
 10
-15.31257792274587
 20
3.121318059153642
 30
0.0
 10
-15.29625564585642
 20
3.149281115349265
 30
0.0
 10
-15.27590021726822
 20
3.173919235537283
 30
0.0
 10
-15.25533652543727
 20
3.198809436627621
 30
0.0
 10
-15.23011856060381
 20
3.220977837613317
 30
0.0
 10
-15.20234460362324
 20
3.238814874833287
 30
0.0
 10
-15.17387223541928
 20
3.257100446880143
 30
0.0
 10
-15.14196696933445
 20
3.271327924702347
 30
0.0
 10
-15.10918837921914
 20
3.280541815828158
 30
0.0
 10
-15.0842826178909
 20
3.287542695746321
 30
0.0
 10
-15.05845038469791
 20
3.291805079457105
 30
0.0
 10
-15.03282360220951
 20
3.293184353869878
 30
0.0
  0
LINE
  5
AA
330
1F
100
AcDbEntity
  8
SK1
  6
Continuous
100
AcDbLine
 10
-15.0328236022
 20
3.2931843539
 30
0.0
 11
3.1043307596
 21
4.2691823236
 31
0.0
  0
ELLIPSE
  5
AB
330
1F
100
AcDbEntity
  8
SK1
  6
Continuous
100
AcDbEllipse
 10
46.6658477108
 20
0.2771638575
 30
0.0
 11
-62.20000005777084
 21
2.636876901150173E-9
 31
0.0
210
0.0
220
0.0
230
1.0
 40
0.3826834322
 41
-0.1270495817641653
 42
-0.1049663499264915
  0
LINE
  5
AC
330
1F
100
AcDbEntity
  8
SK1
  6
Continuous
100
AcDbLine
 10
6.36
 20
-3.7393717734
 30
0.0
 11
6.36
 21
3.7393717734
 31
0.0
  0
LINE
  5
AD
330
1F
100
AcDbEntity
  8
SK1
  6
Continuous
100
AcDbLine
 10
6.6198076211
 20
-3.7393717734
 30
0.0
 11
6.6198076211
 21
3.7393717734
 31
0.0
  0
LINE
  5
AE
330
1F
100
AcDbEntity
  8
SK1
  6
Continuous
100
AcDbLine
 10
6.36
 20
-3.7393717734
 30
0.0
 11
6.6198076211
 21
-3.7393717734
 31
0.0
  0
LINE
  5
AF
330
1F
100
AcDbEntity
  8
SK1
  6
Continuous
100
AcDbLine
 10
6.36
 20
-4.2936994929
 30
0.0
 11
6.6198076211
 21
-4.2936994929
 31
0.0
  0
LINE
  5
B0
330
1F
100
AcDbEntity
  8
SK1
  6
Continuous
100
AcDbLine
 10
11.035
 20
-2.7633423936
 30
0.0
 11
11.035
 21
2.7633423936
 31
0.0
  0
LINE
  5
B1
330
1F
100
AcDbEntity
  8
SK1
  6
Continuous
100
AcDbLine
 10
11.16
 20
-3.2347560238
 30
0.0
 11
11.16
 21
-7.0254540846
 31
0.0
  0
LINE
  5
B2
330
1F
100
AcDbEntity
  8
SK1
  6
Continuous
100
AcDbLine
 10
3.1043307596
 20
-3.7148546041
 30
0.0
 11
3.1043307596
 21
3.7148546041
 31
0.0
  0
LINE
  5
B3
330
1F
100
AcDbEntity
  8
SK1
  6
Continuous
100
AcDbLine
 10
3.56
 20
-3.5632057851
 30
0.0
 11
3.56
 21
3.5632057851
 31
0.0
  0
LINE
  5
B4
330
1F
100
AcDbEntity
  8
SK1
  6
Continuous
100
AcDbLine
 10
3.76
 20
-3.050202016
 30
0.0
 11
3.76
 21
3.050202016
 31
0.0
  0
LINE
  5
B5
330
1F
100
AcDbEntity
  8
SK1
  6
Continuous
100
AcDbLine
 10
6.16
 20
-3.050202016
 30
0.0
 11
6.16
 21
3.050202016
 31
0.0
  0
SPLINE
  5
B6
330
1F
100
AcDbEntity
  8
SK1
  6
Continuous
100
AcDbSpline
210
0.0
220
0.0
230
1.0
 70
     8
 71
     3
 72
    10
 73
     6
 74
     0
 42
0.0000000190350074
 43
0.0000000001
 12
1.0
 22
0.0
 32
0.0
 13
1.0
 23
0.0
 33
0.0
 40
0.0
 40
0.0
 40
0.0
 40
0.0
 40
0.5
 40
0.5
 40
1.0
 40
1.0
 40
1.0
 40
1.0
 10
3.104330759594508
 20
-4.269182323583615
 30
0.0
 10
3.216662709259185
 20
-4.275226331232846
 30
0.0
 10
3.33714625356458
 20
-4.261543354687847
 30
0.0
 10
3.508261414247824
 20
-4.204489048296487
 30
0.0
 10
3.559999999978547
 20
-4.161458325666407
 30
0.0
 10
3.559999999978546
 20
-4.117533504557815
 30
0.0
  0
SPLINE
  5
B7
330
1F
100
AcDbEntity
  8
SK1
  6
Continuous
100
AcDbSpline
210
0.0
220
0.0
230
1.0
 70
     8
 71
     3
 72
     8
 73
     4
 74
     0
 42
0.0000000022115151
 43
0.0000000001
 12
1.0
 22
0.0
 32
0.0
 13
1.0
 23
0.0
 33
0.0
 40
0.0
 40
0.0
 40
0.0
 40
0.0
 40
1.0
 40
1.0
 40
1.0
 40
1.0
 10
6.619807621113867
 20
-4.293699492888537
 30
0.0
 10
8.091586662786261
 20
-3.968388317447006
 30
0.0
 10
9.563332960267237
 20
-3.643055439571282
 30
0.0
 10
11.03499999997855
 20
-3.31767011308413
 30
0.0
  0
SPLINE
  5
B8
330
1F
100
AcDbEntity
  8
SK1
  6
Continuous
100
AcDbSpline
210
0.0
220
0.0
230
1.0
 70
     8
 71
     3
 72
    10
 73
     6
 74
     0
 42
0.0000000616158575
 43
0.0000000001
 12
1.0
 22
0.0
 32
0.0
 13
1.0
 23
0.0
 33
0.0
 40
0.0
 40
0.0
 40
0.0
 40
0.0
 40
0.5
 40
0.5
 40
1.0
 40
1.0
 40
1.0
 40
1.0
 10
11.03499999997855
 20
-3.31767011308413
 30
0.0
 10
11.07299689723195
 20
-3.309269005710875
 30
0.0
 10
11.10465472777774
 20
-3.297134732213096
 30
0.0
 10
11.14845795261641
 20
-3.268052728311453
 30
0.0
 10
11.15999999997772
 20
-3.251364629519987
 30
0.0
 10
11.16000000000678
 20
-3.234756023757199
 30
0.0
  0
LINE
  5
B9
330
1F
100
AcDbEntity
  8
SK1
  6
Continuous
100
AcDbLine
 10
11.16
 20
-3.2347560238
 30
0.0
 11
11.16
 21
-2.6804283042
 31
0.0
  0
SPLINE
  5
BA
330
1F
100
AcDbEntity
  8
SK3
100
AcDbSpline
210
0.0
220
0.0
230
1.0
 70
     8
 71
     3
 72
    10
 73
     6
 74
     0
 42
0.0000000213859039
 43
0.0000000001
 12
1.0
 22
0.0
 32
0.0
 13
1.0
 23
0.0
 33
0.0
 40
0.0
 40
0.0
 40
0.0
 40
0.0
 40
0.5
 40
0.5
 40
1.0
 40
1.0
 40
1.0
 40
1.0
 10
11.15999999997856
 20
-2.250386846337383
 30
0.0
 10
11.15999999997856
 20
-2.210337931467994
 30
0.0
 10
11.11733913423318
 20
-2.170533164218147
 30
0.0
 10
10.96851164482044
 20
-2.113438148619586
 30
0.0
 10
10.8645746476169
 20
-2.097032817184108
 30
0.0
 10
10.75999999997858
 20
-2.097032817183963
 30
0.0
  0
LINE
  5
BB
330
1F
100
AcDbEntity
  8
SK3
100
AcDbLine
 10
10.76
 20
-2.0970328172
 30
0.0
 11
-15.3520914856
 21
-2.0970328172
 31
0.0
  0
SPLINE
  5
BC
330
1F
100
AcDbEntity
  8
SK1
  6
Continuous
100
AcDbSpline
210
0.0
220
0.0
230
1.0
 70
     8
 71
     3
 72
    10
 73
     6
 74
     0
 42
0.0000000427791171
 43
0.0000000001
 12
1.0
 22
0.0
 32
0.0
 13
1.0
 23
0.0
 33
0.0
 40
0.0
 40
0.0
 40
0.0
 40
0.0
 40
0.5
 40
0.5
 40
1.0
 40
1.0
 40
1.0
 40
1.0
 10
6.359999999978536
 20
-3.126783222129601
 30
0.0
 10
6.359999999978546
 20
-3.106640210982466
 30
0.0
 10
6.33823338843016
 20
-3.086716212217779
 30
0.0
 10
6.264491392666459
 20
-3.058503335126722
 30
0.0
 10
6.212718345145417
 20
-3.050202016002994
 30
0.0
 10
6.159999999978544
 20
-3.050202016002994
 30
0.0
  0
LINE
  5
BD
330
1F
100
AcDbEntity
  8
SK1
  6
Continuous
100
AcDbLine
 10
6.16
 20
-3.050202016
 30
0.0
 11
3.76
 21
-3.050202016
 31
0.0
  0
SPLINE
  5
BE
330
1F
100
AcDbEntity
  8
SK1
  6
Continuous
100
AcDbSpline
210
0.0
220
0.0
230
1.0
 70
     8
 71
     3
 72
    10
 73
     6
 74
     0
 42
0.0000000427814578
 43
0.0000000001
 12
1.0
 22
0.0
 32
0.0
 13
1.0
 23
0.0
 33
0.0
 40
0.0
 40
0.0
 40
0.0
 40
0.0
 40
0.5
 40
0.5
 40
1.0
 40
1.0
 40
1.0
 40
1.0
 10
3.759999999978537
 20
-3.050202016002994
 30
0.0
 10
3.707834989235919
 20
-3.050202016002992
 30
0.0
 10
3.655952867545768
 20
-3.058328472208824
 30
0.0
 10
3.581273880819781
 20
-3.08690962257499
 30
0.0
 10
3.559999999978499
 20
-3.106806998502792
 30
0.0
 10
3.559999999977741
 20
-3.126783222129632
 30
0.0
  0
LINE
  5
BF
330
1F
100
AcDbEntity
  8
SK1
  6
Continuous
100
AcDbLine
 10
6.36
 20
-4.2936994929
 30
0.0
 11
6.36
 21
-3.7393717734
 31
0.0
  0
SPLINE
  5
C0
330
1F
100
AcDbEntity
  8
SK1
  6
Continuous
100
AcDbSpline
210
0.0
220
0.0
230
1.0
 70
     8
 71
     3
 72
    10
 73
     6
 74
     0
 42
0.0000000427791171
 43
0.0000000001
 12
1.0
 22
0.0
 32
0.0
 13
1.0
 23
0.0
 33
0.0
 40
0.0
 40
0.0
 40
0.0
 40
0.0
 40
0.5
 40
0.5
 40
1.0
 40
1.0
 40
1.0
 40
1.0
 10
6.359999999978536
 20
-3.681110941636372
 30
0.0
 10
6.359999999978546
 20
-3.660967930489238
 30
0.0
 10
6.338233388430158
 20
-3.641043931724551
 30
0.0
 10
6.264491392666459
 20
-3.612831054633495
 30
0.0
 10
6.212718345145417
 20
-3.604529735509766
 30
0.0
 10
6.159999999978544
 20
-3.604529735509766
 30
0.0
  0
LINE
  5
C1
330
1F
100
AcDbEntity
  8
SK1
  6
Continuous
100
AcDbLine
 10
6.16
 20
-3.6045297355
 30
0.0
 11
3.76
 21
-3.6045297355
 31
0.0
  0
SPLINE
  5
C2
330
1F
100
AcDbEntity
  8
SK1
  6
Continuous
100
AcDbSpline
210
0.0
220
0.0
230
1.0
 70
     8
 71
     3
 72
    10
 73
     6
 74
     0
 42
0.0000000427814578
 43
0.0000000001
 12
1.0
 22
0.0
 32
0.0
 13
1.0
 23
0.0
 33
0.0
 40
0.0
 40
0.0
 40
0.0
 40
0.0
 40
0.5
 40
0.5
 40
1.0
 40
1.0
 40
1.0
 40
1.0
 10
3.759999999978537
 20
-3.604529735509766
 30
0.0
 10
3.707834989235919
 20
-3.604529735509764
 30
0.0
 10
3.655952867545768
 20
-3.612656191715595
 30
0.0
 10
3.581273880819781
 20
-3.64123734208176
 30
0.0
 10
3.559999999978499
 20
-3.661134718009564
 30
0.0
 10
3.559999999977741
 20
-3.681110941636403
 30
0.0
  0
LINE
  5
C3
330
1F
100
AcDbEntity
  8
SK1
  6
Continuous
100
AcDbLine
 10
3.56
 20
-3.6811109416
 30
0.0
 11
3.56
 21
-4.1175335046
 31
0.0
  0
SPLINE
  5
C4
330
1F
100
AcDbEntity
  8
SK1
  6
Continuous
100
AcDbSpline
210
0.0
220
0.0
230
1.0
 70
     8
 71
     3
 72
    10
 73
     6
 74
     0
 42
0.0000000190350074
 43
0.0000000001
 12
1.0
 22
0.0
 32
0.0
 13
1.0
 23
0.0
 33
0.0
 40
0.0
 40
0.0
 40
0.0
 40
0.0
 40
0.5
 40
0.5
 40
1.0
 40
1.0
 40
1.0
 40
1.0
 10
3.104330759594508
 20
-3.714854604076843
 30
0.0
 10
3.216662709259185
 20
-3.720898611726076
 30
0.0
 10
3.33714625356458
 20
-3.707215635181074
 30
0.0
 10
3.508261414247822
 20
-3.650161328789714
 30
0.0
 10
3.559999999978549
 20
-3.607130606159634
 30
0.0
 10
3.559999999978546
 20
-3.563205785051043
 30
0.0
  0
SPLINE
  5
C5
330
1F
100
AcDbEntity
  8
SK1
  6
Continuous
100
AcDbSpline
210
0.0
220
0.0
230
1.0
 70
     8
 71
     3
 72
     8
 73
     4
 74
     0
 42
0.0000000022115151
 43
0.0000000001
 12
1.0
 22
0.0
 32
0.0
 13
1.0
 23
0.0
 33
0.0
 40
0.0
 40
0.0
 40
0.0
 40
0.0
 40
1.0
 40
1.0
 40
1.0
 40
1.0
 10
6.619807621113867
 20
-3.739371773381765
 30
0.0
 10
8.091586662786261
 20
-3.414060597940234
 30
0.0
 10
9.563332960267239
 20
-3.088727720064511
 30
0.0
 10
11.03499999997855
 20
-2.76334239357736
 30
0.0
  0
SPLINE
  5
C6
330
1F
100
AcDbEntity
  8
SK1
  6
Continuous
100
AcDbSpline
210
0.0
220
0.0
230
1.0
 70
     8
 71
     3
 72
    10
 73
     6
 74
     0
 42
0.0000000616158575
 43
0.0000000001
 12
1.0
 22
0.0
 32
0.0
 13
1.0
 23
0.0
 33
0.0
 40
0.0
 40
0.0
 40
0.0
 40
0.0
 40
0.5000000000000001
 40
0.5000000000000001
 40
1.0
 40
1.0
 40
1.0
 40
1.0
 10
11.03499999997855
 20
-2.76334239357736
 30
0.0
 10
11.07299689723195
 20
-2.754941286204101
 30
0.0
 10
11.10465472777774
 20
-2.742807012706324
 30
0.0
 10
11.14845795261641
 20
-2.713725008804681
 30
0.0
 10
11.15999999997772
 20
-2.697036910013214
 30
0.0
 10
11.16000000000678
 20
-2.680428304250427
 30
0.0
  0
SPLINE
  5
C7
330
1F
100
AcDbEntity
  8
SK3
100
AcDbSpline
210
0.0
220
0.0
230
1.0
 70
     8
 71
     3
 72
    10
 73
     6
 74
     0
 42
0.0000000213859039
 43
0.0000000001
 12
1.0
 22
0.0
 32
0.0
 13
1.0
 23
0.0
 33
0.0
 40
0.0
 40
0.0
 40
0.0
 40
0.0
 40
0.5000000000000001
 40
0.5000000000000001
 40
1.0
 40
1.0
 40
1.0
 40
1.0
 10
11.15999999997856
 20
-1.696059126830611
 30
0.0
 10
11.15999999997856
 20
-1.656010211961222
 30
0.0
 10
11.11733913423318
 20
-1.616205444711375
 30
0.0
 10
10.96851164482044
 20
-1.559110429112815
 30
0.0
 10
10.8645746476169
 20
-1.542705097677337
 30
0.0
 10
10.75999999997858
 20
-1.542705097677191
 30
0.0
  0
LINE
  5
C8
330
1F
100
AcDbEntity
  8
SK3
100
AcDbLine
 10
10.76
 20
-1.5427050977
 30
0.0
 11
-15.3520914856
 21
-1.5427050977
 31
0.0
  0
LINE
  5
C9
330
1F
100
AcDbEntity
  8
SK1
  6
Continuous
100
AcDbLine
 10
-15.0328236022
 20
-3.2931843539
 30
0.0
 11
3.1043307596
 21
-4.2691823236
 31
0.0
  0
ELLIPSE
  5
CA
330
1F
100
AcDbEntity
  8
SK1
  6
Continuous
100
AcDbEllipse
 10
46.6658477109
 20
-0.2771638575
 30
0.0
 11
-62.20000005790111
 21
-2.634828073484619E-9
 31
0.0
210
0.0
220
0.0
230
1.0
 40
0.3826834322
 41
0.1049275822252296
 42
0.1270495817640464
  0
SPLINE
  5
CB
330
1F
100
AcDbEntity
  8
SK3
100
AcDbSpline
210
0.0
220
0.0
230
1.0
 70
     8
 71
     3
 72
    35
 73
    31
 74
     0
 42
0.0000000109732844
 43
0.0000000001
 12
1.0
 22
0.0
 32
0.0
 13
1.0
 23
0.0
 33
0.0
 40
0.0
 40
0.0
 40
0.0
 40
0.0
 40
0.1074969258690681
 40
0.1074969258690681
 40
0.1074969258690681
 40
0.215008740712063
 40
0.215008740712063
 40
0.215008740712063
 40
0.3223256383042641
 40
0.3223256383042641
 40
0.3223256383042641
 40
0.4296307619145738
 40
0.4296307619145738
 40
0.4296307619145738
 40
0.5000013292910876
 40
0.5000013292910876
 40
0.5000013292910876
 40
0.6073770062793267
 40
0.6073770062793267
 40
0.6073770062793267
 40
0.7147541584878774
 40
0.7147541584878774
 40
0.7147541584878774
 40
0.8221048918881515
 40
0.8221048918881515
 40
0.8221048918881515
 40
0.9293958749824749
 40
0.9293958749824749
 40
0.9293958749824749
 40
1.0
 40
1.0
 40
1.0
 40
1.0
 10
-15.35209148559892
 20
-1.542705097677334
 30
0.0
 10
-15.38570026506716
 20
-1.542705097677334
 30
0.0
 10
-15.41977369385995
 20
-1.548183368770873
 30
0.0
 10
-15.45149085505445
 20
-1.558688096142897
 30
0.0
 10
-15.48321081070825
 20
-1.569193749040151
 30
0.0
 10
-15.51344794037064
 20
-1.585016117974694
 30
0.0
 10
-15.53968799677067
 20
-1.604793984592631
 30
0.0
 10
-15.56588182583006
 20
-1.624537008367125
 30
0.0
 10
-15.58881603189362
 20
-1.648762352002735
 30
0.0
 10
-15.60659780417597
 20
-1.67539870365599
 30
0.0
 10
-15.62437786414233
 20
-1.702032490331475
 30
0.0
 10
-15.63749769506998
 20
-1.73180780576552
 30
0.0
 10
-15.64487992716996
 20
-1.762214531812249
 30
0.0
 10
-15.64976050398999
 20
-1.782317172897911
 30
0.0
 10
-15.65224582713589
 20
-1.802994656138026
 30
0.0
 10
-15.65224582713589
 20
-1.823486555219582
 30
0.0
 10
-15.65224582713589
 20
-1.854501966568178
 30
0.0
 10
-15.6464625211592
 20
-1.88580188430185
 30
0.0
 10
-15.63537066702324
 20
-1.91481648369022
 30
0.0
 10
-15.62427872984386
 20
-1.943831300307484
 30
0.0
 10
-15.60757139608907
 20
-1.97136316131017
 30
0.0
 10
-15.58662427724819
 20
-1.995186930792423
 30
0.0
 10
-15.56568238504307
 20
-2.019004755869314
 30
0.0
 10
-15.53992402303882
 20
-2.03977625094618
 30
0.0
 10
-15.51148027339866
 20
-2.055848715410455
 30
0.0
 10
-15.4830515639782
 20
-2.071912681227407
 30
0.0
 10
-15.451157514413
 20
-2.083728114977967
 30
0.0
 10
-15.41843921729193
 20
-2.090379107616593
 30
0.0
 10
-15.39673431585317
 20
-2.094791291391229
 30
0.0
 10
-15.37434478942216
 20
-2.097032817184105
 30
0.0
 10
-15.35209148559892
 20
-2.097032817184105
 30
0.0
  0
SPLINE
  5
CC
330
1F
100
AcDbEntity
  8
SK1
  6
Continuous
100
AcDbSpline
210
0.0
220
0.0
230
1.0
 70
     8
 71
     3
 72
    35
 73
    31
 74
     0
 42
0.0000000108334332
 43
0.0000000001
 12
1.0
 22
0.0
 32
0.0
 13
1.0
 23
0.0
 33
0.0
 40
0.0
 40
0.0
 40
0.0
 40
0.0
 40
0.111961544054001
 40
0.111961544054001
 40
0.111961544054001
 40
0.224071522113387
 40
0.224071522113387
 40
0.224071522113387
 40
0.3338400478832876
 40
0.3338400478832876
 40
0.3338400478832876
 40
0.4402527267872414
 40
0.4402527267872414
 40
0.4402527267872414
 40
0.5001438666164723
 40
0.5001438666164723
 40
0.5001438666164723
 40
0.6037319614880875
 40
0.6037319614880875
 40
0.6037319614880875
 40
0.7072541124840058
 40
0.7072541124840058
 40
0.7072541124840058
 40
0.8118158326264296
 40
0.8118158326264296
 40
0.8118158326264296
 40
0.9190214043007972
 40
0.9190214043007972
 40
0.9190214043007972
 40
1.0
 40
1.0
 40
1.0
 40
1.0
 10
-15.03282360220951
 20
-3.293184353869736
 30
0.0
 10
-15.06801576680537
 20
-3.291290255296139
 30
0.0
 10
-15.10373062704931
 20
-3.283884486258454
 30
0.0
 10
-15.13701949238256
 20
-3.271452671084416
 30
0.0
 10
-15.17033369704752
 20
-3.259011392869648
 30
0.0
 10
-15.20215095487847
 20
-3.241166247027663
 30
0.0
 10
-15.22961869937286
 20
-3.219277646953691
 30
0.0
 10
-15.25651319455873
 20
-3.197845859955842
 30
0.0
 10
-15.28000029051701
 20
-3.171909717481284
 30
0.0
 10
-15.29787731995897
 20
-3.143617227963004
 30
0.0
 10
-15.31521611087211
 20
-3.11617656385479
 30
0.0
 10
-15.32776705691965
 20
-3.08573438096628
 30
0.0
 10
-15.3343530197476
 20
-3.054874391493043
 30
0.0
 10
-15.33809767950688
 20
-3.037327957695731
 30
0.0
 10
-15.34000000002173
 20
-3.019425951777088
 30
0.0
 10
-15.34000000002174
 20
-3.001683973518583
 30
0.0
 10
-15.34000000002174
 20
-2.971289115625091
 30
0.0
 10
-15.33430832756253
 20
-2.940697888711649
 30
0.0
 10
-15.3234412038814
 20
-2.912465767853853
 30
0.0
 10
-15.31257792274586
 20
-2.884243629693855
 30
0.0
 10
-15.29625564585642
 20
-2.857609511506737
 30
0.0
 10
-15.27590021726822
 20
-2.834700981641179
 30
0.0
 10
-15.25533652543727
 20
-2.811558066894175
 30
0.0
 10
-15.23011856060381
 20
-2.791595003311801
 30
0.0
 10
-15.20234460362324
 20
-2.776310039768045
 30
0.0
 10
-15.17387223541928
 20
-2.760640716512949
 30
0.0
 10
-15.14196696933445
 20
-2.749465479802658
 30
0.0
 10
-15.10918837921914
 20
-2.743548414604875
 30
0.0
 10
-15.0842826178909
 20
-2.739052522223254
 30
0.0
 10
-15.05845038469791
 20
-2.737477359950192
 30
0.0
 10
-15.03282360220951
 20
-2.738856634362967
 30
0.0
  0
LINE
  5
CD
330
1F
100
AcDbEntity
  8
SK1
  6
Continuous
100
AcDbLine
 10
-15.0328236022
 20
-2.7388566344
 30
0.0
 11
3.1043307596
 21
-3.7148546041
 31
0.0
  0
LINE
  5
CE
330
1F
100
AcDbEntity
  8
SK1
  6
Continuous
100
AcDbLine
 10
6.36
 20
-9.5819697696
 30
0.0
 11
6.36
 21
-4.2936994929
 31
0.0
  0
LINE
  5
CF
330
1F
100
AcDbEntity
  8
SK1
  6
Continuous
100
AcDbLine
 10
6.6198076211
 20
-9.5819697696
 30
0.0
 11
6.6198076211
 21
-4.2936994929
 31
0.0
  0
LINE
  5
D0
330
1F
100
AcDbEntity
  8
SK1
  6
Continuous
100
AcDbLine
 10
6.36
 20
-9.5819697696
 30
0.0
 11
6.6198076211
 21
-9.5819697696
 31
0.0
  0
LINE
  5
D1
330
1F
100
AcDbEntity
  8
SK1
  6
Continuous
100
AcDbLine
 10
6.36
 20
-9.811579829
 30
0.0
 11
6.6198076211
 21
-9.811579829
 31
0.0
  0
LINE
  5
D2
330
1F
100
AcDbEntity
  8
SK1
  6
Continuous
100
AcDbLine
 10
11.035
 20
-7.2256264036
 30
0.0
 11
11.035
 21
-3.3176701131
 31
0.0
  0
LINE
  5
D3
330
1F
100
AcDbEntity
  8
SK1
  6
Continuous
100
AcDbLine
 10
11.16
 20
-7.7343811406
 30
0.0
 11
11.16
 21
-7.255064144
 31
0.0
  0
LINE
  5
D4
330
1F
100
AcDbEntity
  8
SK1
  6
Continuous
100
AcDbLine
 10
3.1043307596
 20
-9.5227800869
 30
0.0
 11
3.1043307596
 21
-4.2691823236
 31
0.0
  0
LINE
  5
D5
330
1F
100
AcDbEntity
  8
SK1
  6
Continuous
100
AcDbLine
 10
3.56
 20
-9.1566674513
 30
0.0
 11
3.56
 21
-4.1175335046
 31
0.0
  0
LINE
  5
D6
330
1F
100
AcDbEntity
  8
SK1
  6
Continuous
100
AcDbLine
 10
3.76
 20
-7.9181667945
 30
0.0
 11
3.76
 21
-3.6045297355
 31
0.0
  0
LINE
  5
D7
330
1F
100
AcDbEntity
  8
SK1
  6
Continuous
100
AcDbLine
 10
6.16
 20
-7.9181667945
 30
0.0
 11
6.16
 21
-3.6045297355
 31
0.0
  0
ARC
  5
D8
330
1F
100
AcDbEntity
  8
SK1
  6
Continuous
100
AcDbCircle
 10
3.1698834536
 20
-9.3673553257
 30
0.0
 40
0.3905751769059511
100
AcDbArc
 50
260.3379590525
 51
357.2231059151
  0
LINE
  5
D9
330
1F
100
AcDbEntity
  8
SK1
  6
Continuous
100
AcDbLine
 10
6.6198076211
 20
-9.811579829
 30
0.0
 11
11.035
 21
-7.455236463
 31
0.0
  0
ARC
  5
DA
330
1F
100
AcDbEntity
  8
SK1
  6
Continuous
100
AcDbCircle
 10
10.92861756
 20
-7.2496896429
 30
0.0
 40
0.231444850448445
100
AcDbArc
 50
297.3641944883
 51
358.6693853237
  0
LINE
  5
DB
330
1F
100
AcDbEntity
  8
SK1
  6
Continuous
100
AcDbLine
 10
11.16
 20
-7.255064144
 30
0.0
 11
11.16
 21
-7.0254540846
 31
0.0
  0
ARC
  5
DC
330
1F
100
AcDbEntity
  8
SK3
100
AcDbCircle
 10
10.7743288265
 20
-4.8940732696
 30
0.0
 40
0.3859819776426031
100
AcDbArc
 50
2.2994645007
 51
92.1274826826
  0
LINE
  5
DD
330
1F
100
AcDbEntity
  8
SK3
100
AcDbLine
 10
10.76
 20
-4.5083573485
 30
0.0
 11
-15.3520914856
 21
-4.5083573485
 31
0.0
  0
ARC
  5
DE
330
1F
100
AcDbEntity
  8
SK1
  6
Continuous
100
AcDbCircle
 10
6.1672772448
 20
-8.1109125302
 30
0.0
 40
0.1928830653693316
100
AcDbArc
 50
2.3361525744
 51
92.1622136513
  0
LINE
  5
DF
330
1F
100
AcDbEntity
  8
SK1
  6
Continuous
100
AcDbLine
 10
6.16
 20
-7.9181667945
 30
0.0
 11
3.76
 21
-7.9181667945
 31
0.0
  0
ARC
  5
E0
330
1F
100
AcDbEntity
  8
SK1
  6
Continuous
100
AcDbCircle
 10
3.7527231138
 20
-8.1109129181
 30
0.0
 40
0.1928834395199233
100
AcDbArc
 50
87.837897152
 51
177.6637366217
  0
LINE
  5
E1
330
1F
100
AcDbEntity
  8
SK1
  6
Continuous
100
AcDbLine
 10
6.36
 20
-9.811579829
 30
0.0
 11
6.36
 21
-9.5819697696
 31
0.0
  0
ARC
  5
E2
330
1F
100
AcDbEntity
  8
SK1
  6
Continuous
100
AcDbCircle
 10
6.1672772448
 20
-8.3405225896
 30
0.0
 40
0.1928830653693277
100
AcDbArc
 50
2.3361525744
 51
92.1622136513
  0
LINE
  5
E3
330
1F
100
AcDbEntity
  8
SK1
  6
Continuous
100
AcDbLine
 10
6.16
 20
-8.1477768539
 30
0.0
 11
3.76
 21
-8.1477768539
 31
0.0
  0
ARC
  5
E4
330
1F
100
AcDbEntity
  8
SK1
  6
Continuous
100
AcDbCircle
 10
3.7527231138
 20
-8.3405229776
 30
0.0
 40
0.1928834395199218
100
AcDbArc
 50
87.837897152
 51
177.6637366217
  0
LINE
  5
E5
330
1F
100
AcDbEntity
  8
SK1
  6
Continuous
100
AcDbLine
 10
3.56
 20
-9.1566674513
 30
0.0
 11
3.56
 21
-9.3862775107
 31
0.0
  0
ARC
  5
E6
330
1F
100
AcDbEntity
  8
SK1
  6
Continuous
100
AcDbCircle
 10
3.1698834536
 20
-9.1377452663
 30
0.0
 40
0.390575176905949
100
AcDbArc
 50
260.3379590525
 51
357.2231059151
  0
LINE
  5
E7
330
1F
100
AcDbEntity
  8
SK1
  6
Continuous
100
AcDbLine
 10
6.6198076211
 20
-9.5819697696
 30
0.0
 11
11.035
 21
-7.2256264036
 31
0.0
  0
ARC
  5
E8
330
1F
100
AcDbEntity
  8
SK1
  6
Continuous
100
AcDbCircle
 10
10.92861756
 20
-7.0200795834
 30
0.0
 40
0.2314448504483825
100
AcDbArc
 50
297.3641944883
 51
358.6693853238
  0
ARC
  5
E9
330
1F
100
AcDbEntity
  8
SK3
100
AcDbCircle
 10
10.7743288265
 20
-4.6644632102
 30
0.0
 40
0.3859819776426022
100
AcDbArc
 50
2.2994645007
 51
92.1274826826
  0
LINE
  5
EA
330
1F
100
AcDbEntity
  8
SK3
100
AcDbLine
 10
10.76
 20
-4.2787472891
 30
0.0
 11
-15.3520914856
 21
-4.2787472891
 31
0.0
  0
SPLINE
  5
EB
330
1F
100
AcDbEntity
  8
SK1
  6
Continuous
100
AcDbSpline
210
0.0
220
0.0
230
1.0
 70
     8
 71
     3
 72
    11
 73
     7
 74
     0
 42
0.0000000005467597
 43
0.0000000001
 12
1.0
 22
0.0
 32
0.0
 13
1.0
 23
0.0
 33
0.0
 40
0.0
 40
0.0
 40
0.0
 40
0.0
 40
0.7010206363227406
 40
0.7010206363227406
 40
0.7010206363227406
 40
1.0
 40
1.0
 40
1.0
 40
1.0
 10
-15.03282360220951
 20
-7.396122611000524
 30
0.0
 10
-10.79466497899322
 20
-7.946815526376789
 30
0.0
 10
-6.55649332373032
 20
-8.497422835830404
 30
0.0
 10
-2.318314740213633
 20
-9.047984616328533
 30
0.0
 10
-0.5107674719218753
 20
-9.282794552426006
 30
0.0
 10
1.296781118070751
 20
-9.517595804280031
 30
0.0
 10
3.104330759594508
 20
-9.752390146332374
 30
0.0
  0
ELLIPSE
  5
EC
330
1F
100
AcDbEntity
  8
SK1
  6
Continuous
100
AcDbEllipse
 10
46.6658477105
 20
-0.1148050243
 30
0.0
 11
-62.20000005745352
 21
-3.680118684793910E-8
 31
0.0
210
0.0
220
0.0
230
1.0
 40
0.9238795321
 41
0.1229827478551663
 42
0.1270495812341086
  0
SPLINE
  5
ED
330
1F
100
AcDbEntity
  8
SK3
100
AcDbSpline
210
0.0
220
0.0
230
1.0
 70
     8
 71
     3
 72
    35
 73
    31
 74
     0
 42
0.0000000145382157
 43
0.0000000001
 12
1.0
 22
0.0
 32
0.0
 13
1.0
 23
0.0
 33
0.0
 40
0.0
 40
0.0
 40
0.0
 40
0.0
 40
0.1074969258690721
 40
0.1074969258690721
 40
0.1074969258690721
 40
0.2150087407120723
 40
0.2150087407120723
 40
0.2150087407120723
 40
0.3223256383042705
 40
0.3223256383042705
 40
0.3223256383042705
 40
0.4296307619145801
 40
0.4296307619145801
 40
0.4296307619145801
 40
0.500001329291088
 40
0.500001329291088
 40
0.500001329291088
 40
0.6073770062793304
 40
0.6073770062793304
 40
0.6073770062793304
 40
0.7147541584878838
 40
0.7147541584878838
 40
0.7147541584878838
 40
0.8221048918881476
 40
0.8221048918881476
 40
0.8221048918881476
 40
0.9293958749824857
 40
0.9293958749824857
 40
0.9293958749824857
 40
1.0
 40
1.0
 40
1.0
 40
1.0
 10
-15.35209148559892
 20
-4.278747289061601
 30
0.0
 10
-15.38570026506716
 20
-4.278747289061601
 30
0.0
 10
-15.41977369385995
 20
-4.281302535398879
 30
0.0
 10
-15.45149085505446
 20
-4.286159269502035
 30
0.0
 10
-15.48321081070825
 20
-4.291016431510629
 30
0.0
 10
-15.51344794037065
 20
-4.29830535518716
 30
0.0
 10
-15.53968799677068
 20
-4.307288192404094
 30
0.0
 10
-15.56588182583007
 20
-4.316255204476847
 30
0.0
 10
-15.58881603189363
 20
-4.327149608864174
 30
0.0
 10
-15.60659780417597
 20
-4.338910267980173
 30
0.0
 10
-15.62437786414234
 20
-4.35066979459013
 30
0.0
 10
-15.63749769506998
 20
-4.363612528565958
 30
0.0
 10
-15.64487992716996
 20
-4.376555033910971
 30
0.0
 10
-15.64976050398999
 20
-4.385111645342936
 30
0.0
 10
-15.65224582713589
 20
-4.393797949897849
 30
0.0
 10
-15.65224582713589
 20
-4.402285972416209
 30
0.0
 10
-15.65224582713589
 20
-4.415132976439378
 30
0.0
 10
-15.6464625211592
 20
-4.427811392062069
 30
0.0
 10
-15.63537066702323
 20
-4.43932433916713
 30
0.0
 10
-15.62427872984386
 20
-4.450837372468274
 30
0.0
 10
-15.60757139608907
 20
-4.461507292866198
 30
0.0
 10
-15.58662427724819
 20
-4.470585862953387
 30
0.0
 10
-15.56568238504307
 20
-4.47966216779448
 30
0.0
 10
-15.53992402303882
 20
-4.487405731316596
 30
0.0
 10
-15.51148027339866
 20
-4.49333538903989
 30
0.0
 10
-15.4830515639782
 20
-4.499261911334273
 30
0.0
 10
-15.451157514413
 20
-4.503546736331214
 30
0.0
 10
-15.41843921729192
 20
-4.505953815758287
 30
0.0
 10
-15.39673431585316
 20
-4.507550641581053
 30
0.0
 10
-15.37434478942216
 20
-4.508357348480653
 30
0.0
 10
-15.35209148559892
 20
-4.508357348480653
 30
0.0
  0
SPLINE
  5
EE
330
1F
100
AcDbEntity
  8
SK1
  6
Continuous
100
AcDbSpline
210
0.0
220
0.0
230
1.0
 70
     8
 71
     3
 72
    35
 73
    31
 74
     0
 42
0.0000000142044397
 43
0.0000000001
 12
1.0
 22
0.0
 32
0.0
 13
1.0
 23
0.0
 33
0.0
 40
0.0
 40
0.0
 40
0.0
 40
0.0
 40
0.1119615440540031
 40
0.1119615440540031
 40
0.1119615440540031
 40
0.2240715221133949
 40
0.2240715221133949
 40
0.2240715221133949
 40
0.3338400478832972
 40
0.3338400478832972
 40
0.3338400478832972
 40
0.440252726787243
 40
0.440252726787243
 40
0.440252726787243
 40
0.500143866616469
 40
0.500143866616469
 40
0.500143866616469
 40
0.603731961488086
 40
0.603731961488086
 40
0.603731961488086
 40
0.7072541124840037
 40
0.7072541124840037
 40
0.7072541124840037
 40
0.8118158326264289
 40
0.8118158326264289
 40
0.8118158326264289
 40
0.9190214043007998
 40
0.9190214043007998
 40
0.9190214043007998
 40
1.0
 40
1.0
 40
1.0
 40
1.0
 10
-15.03282360220951
 20
-7.396122611000524
 30
0.0
 10
-15.06801576680538
 20
-7.391549852535671
 30
0.0
 10
-15.10373062704932
 20
-7.384818495215904
 30
0.0
 10
-15.13701949238257
 20
-7.376407080568147
 30
0.0
 10
-15.17033369704753
 20
-7.367989263190114
 30
0.0
 10
-15.20215095487847
 20
-7.357642311026344
 30
0.0
 10
-15.22961869937286
 20
-7.346122123273177
 30
0.0
 10
-15.25651319455874
 20
-7.33484236078189
 30
0.0
 10
-15.28000029051702
 20
-7.322105550758019
 30
0.0
 10
-15.29787731995898
 20
-7.308904530582033
 30
0.0
 10
-15.31521611087212
 20
-7.296100964451845
 30
0.0
 10
-15.32776705691965
 20
-7.282491230829033
 30
0.0
 10
-15.3343530197476
 20
-7.269185425863682
 30
0.0
 10
-15.33809767950688
 20
-7.261619984982799
 30
0.0
 10
-15.34000000002173
 20
-7.254055126844525
 30
0.0
 10
-15.34000000002174
 20
-7.246706158826523
 30
0.0
 10
-15.34000000002174
 20
-7.234116196460635
 30
0.0
 10
-15.33430832756254
 20
-7.221889921928185
 30
0.0
 10
-15.32344120388141
 20
-7.211070306818083
 30
0.0
 10
-15.31257792274587
 20
-7.20025451745485
 30
0.0
 10
-15.29625564585642
 20
-7.190551242488406
 30
0.0
 10
-15.27590021726823
 20
-7.182791809046521
 30
0.0
 10
-15.25533652543728
 20
-7.174952986228802
 30
0.0
 10
-15.23011856060381
 20
-7.168889351949796
 30
0.0
 10
-15.20234460362324
 20
-7.165110186425806
 30
0.0
 10
-15.17387223541928
 20
-7.161235989012095
 30
0.0
 10
-15.14196696933445
 20
-7.159659295515873
 30
0.0
 10
-15.10918837921914
 20
-7.160505192789533
 30
0.0
 10
-15.0842826178909
 20
-7.161147920726639
 30
0.0
 10
-15.05845038469791
 20
-7.163182688587918
 30
0.0
 10
-15.03282360220951
 20
-7.166512551581471
 30
0.0
  0
SPLINE
  5
EF
330
1F
100
AcDbEntity
  8
SK1
  6
Continuous
100
AcDbSpline
210
0.0
220
0.0
230
1.0
 70
     8
 71
     3
 72
    11
 73
     7
 74
     0
 42
0.0000000005467597
 43
0.0000000001
 12
1.0
 22
0.0
 32
0.0
 13
1.0
 23
0.0
 33
0.0
 40
0.0
 40
0.0
 40
0.0
 40
0.0
 40
0.7010206363227405
 40
0.7010206363227405
 40
0.7010206363227405
 40
1.0
 40
1.0
 40
1.0
 40
1.0
 10
-15.03282360220951
 20
-7.166512551581471
 30
0.0
 10
-10.79466497899322
 20
-7.717205466957736
 30
0.0
 10
-6.55649332373032
 20
-8.267812776411349
 30
0.0
 10
-2.318314740213635
 20
-8.818374556909479
 30
0.0
 10
-0.5107674719218771
 20
-9.053184493006952
 30
0.0
 10
1.29678111807075
 20
-9.287985744860977
 30
0.0
 10
3.104330759594508
 20
-9.522780086913322
 30
0.0
  0
LINE
  5
F0
330
1F
100
AcDbEntity
  8
SK1
  6
Continuous
100
AcDbLine
 10
6.36
 20
-9.811579829
 30
0.0
 11
6.36
 21
-10.5
 31
0.0
  0
LINE
  5
F1
330
1F
100
AcDbEntity
  8
SK1
  6
Continuous
100
AcDbLine
 10
6.6198076211
 20
-9.811579829
 30
0.0
 11
6.6198076211
 21
-10.5
 31
0.0
  0
LINE
  5
F2
330
1F
100
AcDbEntity
  8
SK1
  6
Continuous
100
AcDbLine
 10
11.035
 20
-7.455236463
 30
0.0
 11
11.035
 21
-7.9508874915
 31
0.0
  0
LINE
  5
F3
330
1F
100
AcDbEntity
  8
SK1
  6
Continuous
100
AcDbLine
 10
3.1043307596
 20
-9.7523901463
 30
0.0
 11
3.1043307596
 21
-10.4359598646
 31
0.0
  0
LINE
  5
F4
330
1F
100
AcDbEntity
  8
SK1
  6
Continuous
100
AcDbLine
 10
3.56
 20
-9.3862775107
 30
0.0
 11
3.56
 21
-10.0398526371
 31
0.0
  0
LINE
  5
F5
330
1F
100
AcDbEntity
  8
SK1
  6
Continuous
100
AcDbLine
 10
3.76
 20
-8.1477768539
 30
0.0
 11
3.76
 21
-8.7
 31
0.0
  0
LINE
  5
F6
330
1F
100
AcDbEntity
  8
SK1
  6
Continuous
100
AcDbLine
 10
6.16
 20
-8.1477768539
 30
0.0
 11
6.16
 21
-8.7
 31
0.0
  0
SPLINE
  5
F7
330
1F
100
AcDbEntity
  8
SK1
  6
Continuous
100
AcDbSpline
210
0.0
220
0.0
230
1.0
 70
     8
 71
     3
 72
    10
 73
     6
 74
     0
 42
0.0000000228003628
 43
0.0000000001
 12
1.0
 22
0.0
 32
0.0
 13
1.0
 23
0.0
 33
0.0
 40
0.0
 40
0.0
 40
0.0
 40
0.0
 40
0.5
 40
0.5
 40
1.0
 40
1.0
 40
1.0
 40
1.0
 10
-20.34000000002145
 20
6.873744493774021
 30
0.0
 10
-20.34000000002145
 20
6.945218406115489
 30
0.0
 10
-20.3132637762139
 20
7.016719007982878
 30
0.0
 10
-20.21985489208031
 20
7.1244321639476
 30
0.0
 10
-20.15328210195579
 20
7.161034298538552
 30
0.0
 10
-20.08175193030947
 20
7.17109600169202
 30
0.0
  0
SPLINE
  5
F8
330
1F
100
AcDbEntity
  8
SK1
  6
Continuous
100
AcDbSpline
210
0.0
220
0.0
230
1.0
 70
     8
 71
     3
 72
    11
 73
     7
 74
     0
 42
0.0000000005843816
 43
0.0000000001
 12
1.0
 22
0.0
 32
0.0
 13
1.0
 23
0.0
 33
0.0
 40
0.0
 40
0.0
 40
0.0
 40
0.0
 40
0.7363654467307729
 40
0.7363654467307729
 40
0.7363654467307729
 40
1.0
 40
1.0
 40
1.0
 40
1.0
 10
-20.08175193030947
 20
7.17109600169202
 30
0.0
 10
-15.92244457916591
 20
7.756159827777026
 30
0.0
 10
-11.76312064060632
 20
8.34110573354411
 30
0.0
 10
-7.603788294761955
 20
8.925991840989706
 30
0.0
 10
-6.114658502019223
 20
9.135393556346441
 30
0.0
 10
-4.62552756770861
 20
9.344787153714233
 30
0.0
 10
-3.136395703206273
 20
9.554174135525766
 30
0.0
  0
LINE
  5
F9
330
1F
100
AcDbEntity
  8
SK3
100
AcDbLine
 10
-20.34
 20
5.0255837252
 30
0.0
 11
-19.8731604391
 21
4.7555467614
 31
0.0
  0
LINE
  5
FA
330
1F
100
AcDbEntity
  8
SK3
100
AcDbLine
 10
-2.5802964052
 20
4.7555467614
 30
0.0
 11
-19.8731604391
 21
4.7555467614
 31
0.0
  0
SPLINE
  5
FB
330
1F
100
AcDbEntity
  8
SK1
  6
Continuous
100
AcDbSpline
210
0.0
220
0.0
230
1.0
 70
     8
 71
     3
 72
    20
 73
    16
 74
     0
 42
0.0000000333319097
 43
0.0000000001
 12
1.0
 22
0.0
 32
0.0
 13
1.0
 23
0.0
 33
0.0
 40
0.0
 40
0.0
 40
0.0
 40
0.0
 40
0.2149247017096551
 40
0.2149247017096551
 40
0.2149247017096551
 40
0.4298480123667657
 40
0.4298480123667657
 40
0.4298480123667657
 40
0.644790515601643
 40
0.644790515601643
 40
0.644790515601643
 40
0.8597152002296615
 40
0.8597152002296615
 40
0.8597152002296615
 40
1.0
 40
1.0
 40
1.0
 40
1.0
 10
-2.840000000021426
 20
9.600538657904762
 30
0.0
 10
-2.840000000021426
 20
9.600538657904762
 30
0.0
 10
-2.84571245977371
 20
9.599550051989675
 30
0.0
 10
-2.856668421701541
 20
9.597682428907252
 30
0.0
 10
-2.867624342417736
 20
9.595814812850026
 30
0.0
 10
-2.884126172469095
 20
9.593019183818457
 30
0.0
 10
-2.904818781073086
 20
9.589598121904928
 30
0.0
 10
-2.925513149046146
 20
9.586176769118913
 30
0.0
 10
-2.95097059336815
 20
9.58203939991906
 30
0.0
 10
-2.979096063279811
 20
9.577612465985633
 30
0.0
 10
-3.007219105744564
 20
9.57318591413105
 30
0.0
 10
-3.038786301052704
 20
9.568351374715718
 30
0.0
 10
-3.07119107040177
 20
9.563569434238529
 30
0.0
 10
-3.092515486605546
 20
9.560422610760208
 30
0.0
 10
-3.114516384739682
 20
9.557250588705102
 30
0.0
 10
-3.136395703206273
 20
9.554174135525766
 30
0.0
  0
ARC
  5
FC
330
1F
100
AcDbEntity
  8
SK3
100
AcDbCircle
 10
-2.5801643639
 20
9.5212535686
 30
0.0
 40
4.765706808969763
100
AcDbArc
 50
269.9984125321
 51
273.5467516253
  0
SPLINE
  5
FD
330
1F
100
AcDbEntity
  8
SK3
100
AcDbSpline
210
0.0
220
0.0
230
1.0
 70
     8
 71
     3
 72
    11
 73
     7
 74
     0
 42
0.0000003287480031
 43
0.0000000001
 12
1.0
 22
0.0
 32
0.0
 13
1.0
 23
0.0
 33
0.0
 40
0.0
 40
0.0
 40
0.0
 40
0.0
 40
0.2334158887561958
 40
0.2334158887561958
 40
0.2334158887561958
 40
1.0
 40
1.0
 40
1.0
 40
1.0
 10
-15.64058176174426
 20
-4.433335068095111
 30
0.0
 10
-15.64217956002008
 20
-4.431301082406063
 30
0.0
 10
-15.64361409238285
 20
-4.429244305170443
 30
0.0
 10
-15.64487992716996
 20
-4.427168953616842
 30
0.0
 10
-15.64907094287966
 20
-4.420297732306707
 30
0.0
 10
-15.65149572643583
 20
-4.413137876268717
 30
0.0
 10
-15.65209724538916
 20
-4.405877193753454
 30
0.0
  0
LINE
  5
FE
330
1F
100
AcDbEntity
  8
SK1
  6
Continuous
100
AcDbLine
 10
-20.34
 20
5.072603378
 30
0.0
 11
-20.34
 21
6.8737444938
 31
0.0
  0
LINE
  5
FF
330
1F
100
AcDbEntity
  8
SK1
  6
Continuous
100
AcDbLine
 10
-20.0817519303
 20
5.2828626457
 30
0.0
 11
-20.0817519303
 21
7.1710960017
 31
0.0
  0
SPLINE
  5
100
330
1F
100
AcDbEntity
  8
SK1
  6
Continuous
100
AcDbSpline
210
0.0
220
0.0
230
1.0
 70
     8
 71
     3
 72
    10
 73
     6
 74
     0
 42
0.0000000269130255
 43
0.0000000001
 12
1.0
 22
0.0
 32
0.0
 13
1.0
 23
0.0
 33
0.0
 40
0.0
 40
0.0
 40
0.0
 40
0.0
 40
0.5
 40
0.5
 40
1.0
 40
1.0
 40
1.0
 40
1.0
 10
-20.34000000002145
 20
4.648339309335361
 30
0.0
 10
-20.34000000002145
 20
4.698878997429945
 30
0.0
 10
-20.3132637762139
 20
4.749437557869294
 30
0.0
 10
-20.21985489208031
 20
4.825602260874955
 30
0.0
 10
-20.15328210195579
 20
4.851483878450118
 30
0.0
 10
-20.08175193030947
 20
4.858598576980224
 30
0.0
  0
SPLINE
  5
101
330
1F
100
AcDbEntity
  8
SK1
  6
Continuous
100
AcDbSpline
210
0.0
220
0.0
230
1.0
 70
     8
 71
     3
 72
    10
 73
     6
 74
     0
 42
0.0000000269130255
 43
0.0000000001
 12
1.0
 22
0.0
 32
0.0
 13
1.0
 23
0.0
 33
0.0
 40
0.0
 40
0.0
 40
0.0
 40
0.0
 40
0.5
 40
0.5
 40
1.0
 40
1.0
 40
1.0
 40
1.0
 10
-20.34000000002159
 20
5.072603378047283
 30
0.0
 10
-20.34000000002146
 20
5.12314306614186
 30
0.0
 10
-20.31326377621391
 20
5.173701626581213
 30
0.0
 10
-20.21985489208033
 20
5.249866329586881
 30
0.0
 10
-20.15328210195579
 20
5.275747947162046
 30
0.0
 10
-20.08175193030947
 20
5.282862645692154
 30
0.0
  0
LINE
  5
102
330
1F
100
AcDbEntity
  8
SK3
100
AcDbLine
 10
-19.8731604391
 20
3.5748113976
 30
0.0
 11
-19.8731604391
 21
4.7555467614
 31
0.0
  0
LINE
  5
103
330
1F
100
AcDbEntity
  8
SK3
100
AcDbLine
 10
-20.34
 20
3.7657563659
 30
0.0
 11
-19.8731604391
 21
3.5748113976
 31
0.0
  0
SPLINE
  5
104
330
1F
100
AcDbEntity
  8
SK1
  6
Continuous
100
AcDbSpline
210
0.0
220
0.0
230
1.0
 70
     8
 71
     3
 72
    11
 73
     7
 74
     0
 42
0.0000000005872358
 43
0.0000000001
 12
1.0
 22
0.0
 32
0.0
 13
1.0
 23
0.0
 33
0.0
 40
0.0
 40
0.0
 40
0.0
 40
0.0
 40
0.736365446730773
 40
0.736365446730773
 40
0.736365446730773
 40
1.0
 40
1.0
 40
1.0
 40
1.0
 10
-20.08175193030947
 20
4.858598576980224
 30
0.0
 10
-15.92244457916591
 20
5.27230117583188
 30
0.0
 10
-11.76312064060632
 20
5.685920392427089
 30
0.0
 10
-7.603788294761955
 20
6.099497325223675
 30
0.0
 10
-6.114658502019223
 20
6.247566698144519
 30
0.0
 10
-4.625527567708613
 20
6.39563033078033
 30
0.0
 10
-3.136395703206276
 20
6.54368928551145
 30
0.0
  0
SPLINE
  5
105
330
1F
100
AcDbEntity
  8
SK1
  6
Continuous
100
AcDbSpline
210
0.0
220
0.0
230
1.0
 70
     8
 71
     3
 72
    11
 73
     7
 74
     0
 42
0.0000000005872358
 43
0.0000000001
 12
1.0
 22
0.0
 32
0.0
 13
1.0
 23
0.0
 33
0.0
 40
0.0
 40
0.0
 40
0.0
 40
0.0
 40
0.7363654467307728
 40
0.7363654467307728
 40
0.7363654467307728
 40
1.0
 40
1.0
 40
1.0
 40
1.0
 10
-20.08175193030947
 20
5.282862645692154
 30
0.0
 10
-15.92244457916591
 20
5.696565244543808
 30
0.0
 10
-11.76312064060632
 20
6.110184461139021
 30
0.0
 10
-7.603788294761955
 20
6.523761393935605
 30
0.0
 10
-6.114658502019223
 20
6.671830766856448
 30
0.0
 10
-4.62552756770861
 20
6.819894399492259
 30
0.0
 10
-3.136395703206269
 20
6.967953354223377
 30
0.0
  0
LINE
  5
106
330
1F
100
AcDbEntity
  8
SK1
  6
Continuous
100
AcDbLine
 10
-20.34
 20
4.6483393093
 30
0.0
 11
-20.34
 21
5.072603378
 31
0.0
  0
LINE
  5
107
330
1F
100
AcDbEntity
  8
SK3
100
AcDbLine
 10
-20.34
 20
3.3414922971
 30
0.0
 11
-19.8731604391
 21
3.1505473289
 31
0.0
  0
LINE
  5
108
330
1F
100
AcDbEntity
  8
SK3
100
AcDbLine
 10
-2.5802964052
 20
3.1505473289
 30
0.0
 11
-19.8731604391
 21
3.1505473289
 31
0.0
  0
SPLINE
  5
109
330
1F
100
AcDbEntity
  8
SK1
  6
Continuous
100
AcDbSpline
210
0.0
220
0.0
230
1.0
 70
     8
 71
     3
 72
    35
 73
    31
 74
     0
 42
0.0000000123423821
 43
0.0000000001
 12
1.0
 22
0.0
 32
0.0
 13
1.0
 23
0.0
 33
0.0
 40
0.0
 40
0.0
 40
0.0
 40
0.0
 40
0.1074285959530351
 40
0.1074285959530351
 40
0.1074285959530351
 40
0.2148567029689949
 40
0.2148567029689949
 40
0.2148567029689949
 40
0.3222951556111677
 40
0.3222951556111677
 40
0.3222951556111677
 40
0.4297633880495463
 40
0.4297633880495463
 40
0.4297633880495463
 40
0.4999992835871162
 40
0.4999992835871162
 40
0.4999992835871162
 40
0.607461788416774
 40
0.607461788416774
 40
0.607461788416774
 40
0.7149235977191608
 40
0.7149235977191608
 40
0.7149235977191608
 40
0.822395003324176
 40
0.822395003324176
 40
0.822395003324176
 40
0.9298574996130002
 40
0.9298574996130002
 40
0.9298574996130002
 40
1.0
 40
1.0
 40
1.0
 40
1.0
 10
-3.136395703206269
 20
6.967953354223377
 30
0.0
 10
-3.103157912645241
 20
6.971258066616785
 30
0.0
 10
-3.069487393881345
 20
6.970642240481133
 30
0.0
 10
-3.038168610554764
 20
6.966135480595015
 30
0.0
 10
-3.006849879386203
 20
6.961628728214413
 30
0.0
 10
-2.977018914271127
 20
6.953105042185392
 30
0.0
 10
-2.95113432588495
 20
6.941219269706219
 30
0.0
 10
-2.925247179271839
 20
6.929332322531782
 30
0.0
 10
-2.902592633806334
 20
6.913752171066655
 30
0.0
 10
-2.885032287890549
 20
6.89570913614717
 30
0.0
 10
-2.867467217368731
 20
6.877661246754314
 30
0.0
 10
-2.854514141946825
 20
6.856648755556273
 30
0.0
 10
-2.847236641973557
 20
6.83436976901694
 30
0.0
 10
-2.84244156185214
 20
6.819690342583073
 30
0.0
 10
-2.840000000021435
 20
6.804249750193286
 30
0.0
 10
-2.840000000021435
 20
6.788605988048078
 30
0.0
 10
-2.840000000021435
 20
6.764864707400779
 30
0.0
 10
-2.845712459773712
 20
6.740096983019472
 30
0.0
 10
-2.856668421701543
 20
6.716373520507121
 30
0.0
 10
-2.867624342417737
 20
6.692650147232277
 30
0.0
 10
-2.884126172469097
 20
6.669318467237237
 30
0.0
 10
-2.90481878107309
 20
6.648360255066156
 30
0.0
 10
-2.92551314904615
 20
6.627400260943321
 30
0.0
 10
-2.95097059336815
 20
6.608238714228035
 30
0.0
 10
-2.979096063279811
 20
6.59252189390468
 30
0.0
 10
-3.007219105744564
 20
6.576806430065217
 30
0.0
 10
-3.038786301052705
 20
6.564104227879003
 30
0.0
 10
-3.071191070401772
 20
6.555509949957774
 30
0.0
 10
-3.092515486605544
 20
6.549854363973222
 30
0.0
 10
-3.114516384739681
 20
6.545864666415536
 30
0.0
 10
-3.136395703206276
 20
6.54368928551145
 30
0.0
  0
SPLINE
  5
10A
330
1F
100
AcDbEntity
  8
SK3
100
AcDbSpline
210
0.0
220
0.0
230
1.0
 70
     8
 71
     3
 72
    35
 73
    31
 74
     0
 42
0.0000000122798441
 43
0.0000000001
 12
1.0
 22
0.0
 32
0.0
 13
1.0
 23
0.0
 33
0.0
 40
0.0
 40
0.0
 40
0.0
 40
0.0
 40
0.1074969258690679
 40
0.1074969258690679
 40
0.1074969258690679
 40
0.2150087407120608
 40
0.2150087407120608
 40
0.2150087407120608
 40
0.3223256383042605
 40
0.3223256383042605
 40
0.3223256383042605
 40
0.4296307619145724
 40
0.4296307619145724
 40
0.4296307619145724
 40
0.5000013292907238
 40
0.5000013292907238
 40
0.5000013292907238
 40
0.607377006279329
 40
0.607377006279329
 40
0.607377006279329
 40
0.7147541584878766
 40
0.7147541584878766
 40
0.7147541584878766
 40
0.8221048918881471
 40
0.8221048918881471
 40
0.8221048918881471
 40
0.9293958749824768
 40
0.9293958749824768
 40
0.9293958749824768
 40
1.0
 40
1.0
 40
1.0
 40
1.0
 10
-2.580296405170379
 20
3.150547328890035
 30
0.0
 10
-2.54668762570214
 20
3.150547328890036
 30
0.0
 10
-2.512614196909353
 20
3.154895037194052
 30
0.0
 10
-2.480897035714847
 20
3.163208600236965
 30
0.0
 10
-2.449177080061057
 20
3.171522895751278
 30
0.0
 10
-2.418939950398659
 20
3.184030637181726
 30
0.0
 10
-2.39269989399863
 20
3.199595817934618
 30
0.0
 10
-2.366506064939234
 20
3.215133577370205
 30
0.0
 10
-2.343571858875678
 20
3.234140248038336
 30
0.0
 10
-2.325790086593331
 20
3.254920560523927
 30
0.0
 10
-2.308010026626965
 20
3.275698871945699
 30
0.0
 10
-2.294890195699319
 20
3.298817713692178
 30
0.0
 10
-2.287507963599345
 20
3.322278148665725
 30
0.0
 10
-2.282627386779323
 20
3.337788424361329
 30
0.0
 10
-2.280142063631942
 20
3.353679991801426
 30
0.0
 10
-2.280142063631918
 20
3.369363812353804
 30
0.0
 10
-2.28014206363188
 20
3.393101980496135
 30
0.0
 10
-2.285925369610041
 20
3.416902882999432
 30
0.0
 10
-2.29701722374607
 20
3.438836233110298
 30
0.0
 10
-2.308109160925442
 20
3.46076974743345
 30
0.0
 10
-2.324816494680224
 20
3.481444402546098
 30
0.0
 10
-2.345763613521106
 20
3.499251020406765
 30
0.0
 10
-2.366705505726227
 20
3.517053195236083
 30
0.0
 10
-2.392463867730482
 20
3.532485433745292
 30
0.0
 10
-2.420907617370641
 20
3.544392896468144
 30
0.0
 10
-2.449336326791097
 20
3.556294062874311
 30
0.0
 10
-2.481230376356294
 20
3.565007460119802
 30
0.0
 10
-2.513948673477371
 20
3.569909653396603
 30
0.0
 10
-2.535653574916129
 20
3.573161705956457
 30
0.0
 10
-2.558043101347137
 20
3.574811397601963
 30
0.0
 10
-2.580296405170379
 20
3.574811397601964
 30
0.0
  0
LINE
  5
10B
330
1F
100
AcDbEntity
  8
SK3
100
AcDbLine
 10
-2.5802964052
 20
3.5748113976
 30
0.0
 11
-19.8731604391
 21
3.5748113976
 31
0.0
  0
ELLIPSE
  5
10C
330
1F
100
AcDbEntity
  8
SK1
  6
Continuous
100
AcDbEllipse
 10
-64.5982355485
 20
0.212132034
 30
0.0
 11
62.20000000475284
 21
7.494233028699322E-10
 31
0.0
210
0.0
220
0.0
230
1.0
 40
0.7071067812
 41
0.144882800190464
 42
0.1542146184855754
  0
LINE
  5
10D
330
1F
100
AcDbEntity
  8
SK1
  6
Continuous
100
AcDbLine
 10
3.1043307596
 20
10.4359598646
 30
0.0
 11
-2.84
 21
9.6005386579
 31
0.0
  0
LINE
  5
10E
330
1F
100
AcDbEntity
  8
SK1
  6
Continuous
100
AcDbLine
 10
-2.84
 20
-9.6005386579
 30
0.0
 11
3.1043307596
 21
-10.4359598646
 31
0.0
  0
LINE
  5
10F
330
1F
100
AcDbEntity
  8
SK3
100
AcDbLine
 10
-2.2801420636
 20
-4.765
 30
0.0
 11
10.76
 21
-4.765
 31
0.0
  0
LINE
  5
110
330
1F
100
AcDbEntity
  8
SK3
100
AcDbLine
 10
10.76
 20
4.765
 30
0.0
 11
-2.2801420636
 21
4.765
 31
0.0
  0
ARC
  5
111
330
1F
100
AcDbEntity
  8
SK3
100
AcDbCircle
 10
-33.9895736318
 20
0.0418937957
 30
0.0
 40
31.89302625244986
100
AcDbArc
 50
347.5748718758
 51
353.8308443271
  0
LINE
  5
112
330
1F
100
AcDbEntity
  8
SK1
  6
Continuous
100
AcDbLine
 10
6.6198076211
 20
10.5
 30
0.0
 11
6.36
 21
10.5
 31
0.0
  0
ARC
  5
113
330
1F
100
AcDbEntity
  8
SK1
  6
Continuous
100
AcDbCircle
 10
10.91
 20
7.7343811406
 30
0.0
 40
0.2500000000000002
100
AcDbArc
 50
0.0
 51
60.0
  0
ARC
  5
114
330
1F
100
AcDbEntity
  8
SK3
100
AcDbCircle
 10
10.76
 20
5.165
 30
0.0
 40
0.4000000000000015
100
AcDbArc
 50
270.0
 51
0.0
  0
ARC
  5
115
330
1F
100
AcDbEntity
  8
SK1
  6
Continuous
100
AcDbCircle
 10
3.16
 20
10.0398526371
 30
0.0
 40
0.3999999999999993
100
AcDbArc
 50
0.0
 51
98.0
  0
ARC
  5
116
330
1F
100
AcDbEntity
  8
SK1
  6
Continuous
100
AcDbCircle
 10
3.76
 20
8.9
 30
0.0
 40
0.1999999999999995
100
AcDbArc
 50
180.0
 51
270.0
  0
LINE
  5
117
330
1F
100
AcDbEntity
  8
SK1
  6
Continuous
100
AcDbLine
 10
6.16
 20
8.7
 30
0.0
 11
3.76
 21
8.7
 31
0.0
  0
ARC
  5
118
330
1F
100
AcDbEntity
  8
SK1
  6
Continuous
100
AcDbCircle
 10
6.16
 20
8.9
 30
0.0
 40
0.1999999999999953
100
AcDbArc
 50
270.0
 51
0.0
  0
LINE
  5
119
330
1F
100
AcDbEntity
  8
SK1
  6
Continuous
100
AcDbLine
 10
11.035
 20
7.9508874915
 30
0.0
 11
6.6198076211
 21
10.5
 31
0.0
  0
ARC
  5
11A
330
1F
100
AcDbEntity
  8
SK3
100
AcDbCircle
 10
-64.5982355438
 20
0.0
 30
0.0
 40
62.5
100
AcDbArc
 50
351.1639152495
 51
355.627543516
  0
ARC
  5
11B
330
1F
100
AcDbEntity
  8
SK3
100
AcDbCircle
 10
37.0899829828
 20
0.0496920627
 30
0.0
 40
52.92167639076286
100
AcDbArc
 50
172.1769107624
 51
175.2974548497
  0
ARC
  5
11C
330
1F
100
AcDbEntity
  8
SK3
100
AcDbCircle
 10
-5.7144939132
 20
-0.1151880044
 30
0.0
 40
10.12993543756394
100
AcDbArc
 50
161.5975799055
 51
168.72117455
  0
ARC
  5
11D
330
1F
100
AcDbEntity
  8
SK3
100
AcDbCircle
 10
-5.675350509
 20
0.1245595674
 30
0.0
 40
10.17015590650361
100
AcDbArc
 50
191.2874718371
 51
198.3837417077
  0
ARC
  5
11E
330
1F
100
AcDbEntity
  8
SK3
100
AcDbCircle
 10
37.3986060238
 20
-0.0184664323
 30
0.0
 40
53.23182081022784
100
AcDbArc
 50
184.7088081214
 51
187.8109260171
  0
LINE
  5
11F
330
1F
100
AcDbEntity
  8
SK1
  6
Continuous
100
AcDbLine
 10
6.36
 20
-10.5
 30
0.0
 11
6.6198076211
 21
-10.5
 31
0.0
  0
ARC
  5
120
330
1F
100
AcDbEntity
  8
SK1
  6
Continuous
100
AcDbCircle
 10
10.91
 20
-7.7343811406
 30
0.0
 40
0.2500000000000014
100
AcDbArc
 50
300.0
 51
0.0
  0
ARC
  5
121
330
1F
100
AcDbEntity
  8
SK3
100
AcDbCircle
 10
10.76
 20
-5.165
 30
0.0
 40
0.3999999999999999
100
AcDbArc
 50
0.0
 51
90.0
  0
ARC
  5
122
330
1F
100
AcDbEntity
  8
SK1
  6
Continuous
100
AcDbCircle
 10
3.16
 20
-10.0398526371
 30
0.0
 40
0.3999999999999994
100
AcDbArc
 50
262.0
 51
0.0
  0
ARC
  5
123
330
1F
100
AcDbEntity
  8
SK1
  6
Continuous
100
AcDbCircle
 10
3.76
 20
-8.9
 30
0.0
 40
0.2000000000000005
100
AcDbArc
 50
90.0
 51
180.0
  0
LINE
  5
124
330
1F
100
AcDbEntity
  8
SK1
  6
Continuous
100
AcDbLine
 10
3.76
 20
-8.7
 30
0.0
 11
6.16
 21
-8.7
 31
0.0
  0
ARC
  5
125
330
1F
100
AcDbEntity
  8
SK1
  6
Continuous
100
AcDbCircle
 10
6.16
 20
-8.9
 30
0.0
 40
0.1999999999999995
100
AcDbArc
 50
0.0
 51
90.0
  0
LINE
  5
126
330
1F
100
AcDbEntity
  8
SK1
  6
Continuous
100
AcDbLine
 10
6.6198076211
 20
-10.5
 30
0.0
 11
11.035
 21
-7.9508874915
 31
0.0
  0
ARC
  5
127
330
1F
100
AcDbEntity
  8
SK3
100
AcDbCircle
 10
-64.5982355438
 20
0.0
 30
0.0
 40
62.5
100
AcDbArc
 50
4.3724830667
 51
8.8361022736
  0
ARC
  5
128
330
1F
100
AcDbEntity
  8
SK3
100
AcDbCircle
 10
-34.0007288636
 20
-0.0455551849
 30
0.0
 40
31.90460960763657
100
AcDbArc
 50
6.1735584868
 51
12.4273158129
  0
LINE
  5
129
330
1F
100
AcDbEntity
  8
SK1
  6
Continuous
100
AcDbLine
 10
0.0
 20
9.9996746285
 30
0.0
 11
0.0
 21
-9.9996746285
 31
0.0
  0
LINE
  5
12B
330
1F
100
AcDbEntity
  8
SK4
  6
Continuous
100
AcDbLine
 10
11.16
 20
0.0
 30
0.0
 11
-20.34
 21
0.0
 31
0.0
  0
DIMENSION
  5
141
330
1F
100
AcDbEntity
  8
SK2
  6
Continuous
 62
   136
100
AcDbDimension
  2
DMBLK179
 10
-20.34
 20
18.3793882683
 30
0.0
 11
-4.5900002533
 21
18.3793882683
 31
0.0
 70
   160
  1
\A1;<>
 71
     5
 42
-1.0
  3
DIN
100
AcDbAlignedDimension
 13
11.16
 23
7.0254540846
 33
0.0
 14
-20.34
 24
5.9731739359
 34
0.0
100
AcDbRotatedDimension
  0
DIMENSION
  5
14B
330
1F
100
AcDbEntity
  8
SK2
  6
Continuous
 62
   136
100
AcDbDimension
  2
DMBLK180
 10
19.8749862855
 20
4.765
 30
0.0
 11
19.8749862855
 21
10.0000000478
 31
0.0
 70
   161
  1
\A1;ø <>
 71
     5
 42
-1.0
  3
DIN
100
AcDbAlignedDimension
 13
10.76
 23
4.765
 33
0.0
 14
10.76
 24
-4.765
 34
0.0
  0
DIMENSION
  5
156
330
1F
100
AcDbEntity
  8
SK2
  6
Continuous
 62
   136
100
AcDbDimension
  2
DMBLK181
 10
0.0
 20
-17.5833524049
 30
0.0
 11
5.5799998863
 21
-17.5833524049
 31
0.0
 70
   160
  1
\A1;<>
 71
     5
 42
-1.0
  3
DIN
100
AcDbAlignedDimension
 13
11.16
 23
-7.0254540846
 33
0.0
 14
0.0
 24
-9.9996746285
 34
0.0
100
AcDbRotatedDimension
  0
DIMENSION
  5
160
330
1F
100
AcDbEntity
  8
SK2
  6
Continuous
 62
   136
100
AcDbDimension
  2
DMBLK182
 10
-26.8249437213
 20
9.9996746285
 30
0.0
 11
-26.8249437213
 21
-0.0000001164
 31
0.0
 70
   161
  1
\A1;ø <>
 71
     5
 42
-1.0
  3
DIN
100
AcDbAlignedDimension
 13
0.0
 23
9.9996746285
 33
0.0
 14
0.0
 24
-9.9996746285
 34
0.0
  0
INSERT
  5
175
330
1F
100
AcDbEntity
  8
SK2
 62
     7
100
AcDbBlockReference
  2
Nullpunkt
 10
0.0
 20
0.0000000998
 30
0.0
  0
INSERT
  5
180
330
1F
100
AcDbEntity
  8
SK2
 62
     7
100
AcDbBlockReference
  2
Einfügepunkt
 10
11.16
 20
0.0
 30
0.0
  0
ENDSEC
  0
SECTION
  2
OBJECTS
  0
DICTIONARY
  5
C
330
0
100
AcDbDictionary
281
     1
  3
ACAD_GROUP
350
D
  3
ACAD_LAYOUT
350
1A
  3
ACAD_MATERIAL
350
3B
  3
ACAD_MLEADERSTYLE
350
183
  3
ACAD_MLINESTYLE
350
17
  3
ACAD_PLOTSETTINGS
350
19
  3
ACAD_PLOTSTYLENAME
350
E
  3
ACAD_VISUALSTYLE
350
2A
  3
AcDbVariableDictionary
350
181
  0
DICTIONARY
  5
D
102
{ACAD_REACTORS
330
C
102
}
330
C
100
AcDbDictionary
281
     1
  0
DICTIONARY
  5
1A
102
{ACAD_REACTORS
330
C
102
}
330
C
100
AcDbDictionary
281
     1
  3
Layout1
350
1E
  3
Model
350
22
  0
DICTIONARY
  5
3B
102
{ACAD_REACTORS
330
C
102
}
330
C
100
AcDbDictionary
281
     1
  3
ByBlock
350
3D
  3
ByLayer
350
3C
  3
Global
350
3E
  0
DICTIONARY
  5
183
102
{ACAD_REACTORS
330
C
102
}
330
C
100
AcDbDictionary
281
     1
  0
DICTIONARY
  5
17
102
{ACAD_REACTORS
330
C
102
}
330
C
100
AcDbDictionary
281
     1
  3
Standard
350
18
  0
DICTIONARY
  5
19
102
{ACAD_REACTORS
330
C
102
}
330
C
100
AcDbDictionary
281
     1
  0
ACDBDICTIONARYWDFLT
  5
E
102
{ACAD_REACTORS
330
C
102
}
330
C
100
AcDbDictionary
281
     1
  3
Normal
350
F
100
AcDbDictionaryWithDefault
340
F
  0
DICTIONARY
  5
2A
102
{ACAD_REACTORS
330
C
102
}
330
C
100
AcDbDictionary
281
     1
  3
2dWireframe
350
2F
  3
3D Hidden
350
31
  3
3dWireframe
350
30
  3
Basic
350
32
  3
Brighten
350
36
  3
ColorChange
350
3A
  3
Conceptual
350
34
  3
Dim
350
35
  3
Facepattern
350
39
  3
Flat
350
2B
  3
FlatWithEdges
350
2C
  3
Gouraud
350
2D
  3
GouraudWithEdges
350
2E
  3
Linepattern
350
38
  3
Realistic
350
33
  3
Thicken
350
37
  0
DICTIONARY
  5
181
102
{ACAD_REACTORS
330
C
102
}
330
C
100
AcDbDictionary
281
     1
  3
DIMASSOC
350
186
  3
HIDETEXT
350
187
  3
PSOLHEIGHT
350
185
  3
PSOLWIDTH
350
184
  0
LAYOUT
  5
1E
102
{ACAD_REACTORS
330
1A
102
}
330
1A
100
AcDbPlotSettings
  1

  2
none_device
  4

  6

 40
0.0
 41
0.0
 42
0.0
 43
0.0
 44
0.0
 45
0.0
 46
0.0
 47
0.0
 48
0.0
 49
0.0
140
0.0
141
0.0
142
1.0
143
1.0
 70
   688
 72
     0
 73
     0
 74
     5
  7

 75
    16
147
1.0
148
0.0
149
0.0
100
AcDbLayout
  1
Layout1
 70
     1
 71
     1
 10
0.0
 20
0.0
 11
210.0
 21
297.0
 12
0.0
 22
0.0
 32
0.0
 14
0.0
 24
0.0
 34
0.0
 15
210.0
 25
297.0
 35
0.0
146
0.0
 13
0.0
 23
0.0
 33
0.0
 16
1.0
 26
0.0
 36
0.0
 17
0.0
 27
1.0
 37
0.0
 76
     0
330
1B
  0
LAYOUT
  5
22
102
{ACAD_REACTORS
330
1A
102
}
330
1A
100
AcDbPlotSettings
  1

  2
none_device
  4

  6

 40
0.0
 41
0.0
 42
0.0
 43
0.0
 44
0.0
 45
0.0
 46
0.0
 47
0.0
 48
0.0
 49
0.0
140
0.0
141
0.0
142
1.0
143
1.0
 70
  1712
 72
     0
 73
     0
 74
     0
  7

 75
     0
147
1.0
148
0.0
149
0.0
100
AcDbLayout
  1
Model
 70
     1
 71
     0
 10
0.0
 20
0.0
 11
210.0
 21
297.0
 12
0.0
 22
0.0
 32
0.0
 14
0.0
 24
0.0
 34
0.0
 15
210.0
 25
297.0
 35
0.0
146
0.0
 13
0.0
 23
0.0
 33
0.0
 16
1.0
 26
0.0
 36
0.0
 17
0.0
 27
1.0
 37
0.0
 76
     0
330
1F
331
29
  0
MATERIAL
  5
3D
102
{ACAD_REACTORS
330
3B
102
}
102
{ACAD_XDICTIONARY
360
1AA
102
}
330
3B
100
AcDbMaterial
  1
ByBlock
  0
MATERIAL
  5
3C
102
{ACAD_REACTORS
330
3B
102
}
102
{ACAD_XDICTIONARY
360
1A8
102
}
330
3B
100
AcDbMaterial
  1
ByLayer
  0
MATERIAL
  5
3E
102
{ACAD_REACTORS
330
3B
102
}
102
{ACAD_XDICTIONARY
360
1AC
102
}
330
3B
100
AcDbMaterial
  1
Global
  0
MLINESTYLE
  5
18
102
{ACAD_REACTORS
330
17
102
}
330
17
100
AcDbMlineStyle
  2
Standard
 70
     0
  3

 62
   256
 51
90.0
 52
90.0
 71
     2
 49
0.5
 62
   256
  6
BYLAYER
 49
-0.5
 62
   256
  6
BYLAYER
  0
ACDBPLACEHOLDER
  5
F
102
{ACAD_REACTORS
330
E
102
}
330
E
  0
VISUALSTYLE
  5
2F
102
{ACAD_REACTORS
330
2A
102
}
102
{ACAD_XDICTIONARY
360
190
102
}
330
2A
100
AcDbVisualStyle
  2
2dWireframe
 70
     4
 71
     0
 72
     2
 73
     0
 90
        0
 40
-0.6
 41
-30.0
 62
     5
 63
     7
 74
     1
 91
        4
 64
     7
 65
   257
 75
     1
175
     1
 42
1.0
 92
        0
 66
   257
 43
1.0
 76
     1
 77
     6
 78
     2
 67
     7
 79
     5
170
     0
171
     0
290
     0
174
     0
 93
        1
 44
0.0
173
     0
291
     0
 45
0.0
1001
ACAD
1000
AcDbSavedByObjectVersion
1070
     0
  0
VISUALSTYLE
  5
31
102
{ACAD_REACTORS
330
2A
102
}
102
{ACAD_XDICTIONARY
360
194
102
}
330
2A
100
AcDbVisualStyle
  2
3D Hidden
 70
     6
 71
     1
 72
     2
 73
     2
 90
        0
 40
-0.6
 41
-30.0
 62
     5
 63
     7
 74
     2
 91
        2
 64
     7
 65
   257
 75
     2
175
     1
 42
40.0
 92
        0
 66
   257
 43
1.0
 76
     1
 77
     6
 78
     2
 67
     7
 79
     3
170
     0
171
     0
290
     0
174
     0
 93
        1
 44
0.0
173
     0
291
     0
 45
0.0
1001
ACAD
1000
AcDbSavedByObjectVersion
1070
     0
  0
VISUALSTYLE
  5
30
102
{ACAD_REACTORS
330
2A
102
}
102
{ACAD_XDICTIONARY
360
192
102
}
330
2A
100
AcDbVisualStyle
  2
3dWireframe
 70
     5
 71
     0
 72
     2
 73
     0
 90
        0
 40
-0.6
 41
-30.0
 62
     5
 63
     7
 74
     1
 91
        4
 64
     7
 65
   257
 75
     1
175
     1
 42
1.0
 92
        0
 66
   257
 43
1.0
 76
     1
 77
     6
 78
     2
 67
     7
 79
     5
170
     0
171
     0
290
     0
174
     0
 93
        1
 44
0.0
173
     0
291
     0
 45
0.0
1001
ACAD
1000
AcDbSavedByObjectVersion
1070
     0
  0
VISUALSTYLE
  5
32
102
{ACAD_REACTORS
330
2A
102
}
102
{ACAD_XDICTIONARY
360
196
102
}
330
2A
100
AcDbVisualStyle
  2
Basic
 70
     7
 71
     1
 72
     0
 73
     1
 90
        0
 40
-0.6
 41
-30.0
 62
     5
 63
     7
 74
     0
 91
        4
 64
     7
 65
   257
 75
     1
175
     1
 42
1.0
 92
        8
 66
     7
 43
1.0
 76
     1
 77
     6
 78
     2
 67
     7
 79
     5
170
     0
171
     0
290
     0
174
     0
 93
        1
 44
0.0
173
     0
291
     1
 45
0.0
1001
ACAD
1000
AcDbSavedByObjectVersion
1070
     0
  0
VISUALSTYLE
  5
36
102
{ACAD_REACTORS
330
2A
102
}
102
{ACAD_XDICTIONARY
360
19E
102
}
330
2A
100
AcDbVisualStyle
  2
Brighten
 70
    12
 71
     2
 72
     2
 73
     0
 90
        0
 40
-0.6
 41
-30.0
 62
     5
 63
     7
 74
     1
 91
        4
 64
     7
 65
   257
 75
     1
175
     1
 42
1.0
 92
        8
 66
     7
 43
1.0
 76
     1
 77
     6
 78
     2
 67
     7
 79
     5
170
     0
171
     0
290
     0
174
     0
 93
        1
 44
50.0
173
     0
291
     1
 45
0.0
1001
ACAD
1000
AcDbSavedByObjectVersion
1070
     0
  0
VISUALSTYLE
  5
3A
102
{ACAD_REACTORS
330
2A
102
}
102
{ACAD_XDICTIONARY
360
1A6
102
}
330
2A
100
AcDbVisualStyle
  2
ColorChange
 70
    16
 71
     2
 72
     2
 73
     3
 90
        0
 40
-0.6
 41
-30.0
 62
     5
 63
     8
 74
     1
 91
        4
 64
     7
 65
   257
 75
     1
175
     1
 42
1.0
 92
        8
 66
     8
 43
1.0
 76
     1
 77
     6
 78
     2
 67
     7
 79
     5
170
     0
171
     0
290
     0
174
     0
 93
        1
 44
0.0
173
     0
291
     1
 45
0.0
1001
ACAD
1000
AcDbSavedByObjectVersion
1070
     0
  0
VISUALSTYLE
  5
34
102
{ACAD_REACTORS
330
2A
102
}
102
{ACAD_XDICTIONARY
360
19A
102
}
330
2A
100
AcDbVisualStyle
  2
Conceptual
 70
     9
 71
     3
 72
     2
 73
     0
 90
        0
 40
-0.6
 41
-30.0
 62
     5
 63
     7
 74
     2
 91
        2
 64
     7
 65
   257
 75
     1
175
     1
 42
40.0
 92
        8
 66
     7
 43
1.0
 76
     1
 77
     6
 78
     2
 67
     7
 79
     3
170
     0
171
     0
290
     0
174
     0
 93
        1
 44
0.0
173
     0
291
     0
 45
0.0
1001
ACAD
1000
AcDbSavedByObjectVersion
1070
     0
  0
VISUALSTYLE
  5
35
102
{ACAD_REACTORS
330
2A
102
}
102
{ACAD_XDICTIONARY
360
19C
102
}
330
2A
100
AcDbVisualStyle
  2
Dim
 70
    11
 71
     2
 72
     2
 73
     0
 90
        0
 40
-0.6
 41
-30.0
 62
     5
 63
     7
 74
     1
 91
        4
 64
     7
 65
   257
 75
     1
175
     1
 42
1.0
 92
        8
 66
     7
 43
1.0
 76
     1
 77
     6
 78
     2
 67
     7
 79
     5
170
     0
171
     0
290
     0
174
     0
 93
        1
 44
-50.0
173
     0
291
     1
 45
0.0
1001
ACAD
1000
AcDbSavedByObjectVersion
1070
     0
  0
VISUALSTYLE
  5
39
102
{ACAD_REACTORS
330
2A
102
}
102
{ACAD_XDICTIONARY
360
1A4
102
}
330
2A
100
AcDbVisualStyle
  2
Facepattern
 70
    15
 71
     2
 72
     2
 73
     0
 90
        0
 40
-0.6
 41
-30.0
 62
     5
 63
     7
 74
     1
 91
        4
 64
     7
 65
   257
 75
     1
175
     1
 42
1.0
 92
        8
 66
     7
 43
1.0
 76
     1
 77
     6
 78
     2
 67
     7
 79
     5
170
     0
171
     0
290
     0
174
     0
 93
        1
 44
0.0
173
     0
291
     1
 45
0.0
1001
ACAD
1000
AcDbSavedByObjectVersion
1070
     0
  0
VISUALSTYLE
  5
2B
102
{ACAD_REACTORS
330
2A
102
}
102
{ACAD_XDICTIONARY
360
188
102
}
330
2A
100
AcDbVisualStyle
  2
Flat
 70
     0
 71
     2
 72
     1
 73
     1
 90
        2
 40
-0.6
 41
30.0
 62
     5
 63
     7
 74
     0
 91
        4
 64
     7
 65
   257
 75
     1
175
     1
 42
1.0
 92
        8
 66
     7
 43
1.0
 76
     1
 77
     6
 78
     2
 67
     7
 79
     5
170
     0
171
     0
290
     0
174
     0
 93
       13
 44
0.0
173
     0
291
     1
 45
0.0
1001
ACAD
1000
AcDbSavedByObjectVersion
1070
     0
  0
VISUALSTYLE
  5
2C
102
{ACAD_REACTORS
330
2A
102
}
102
{ACAD_XDICTIONARY
360
18A
102
}
330
2A
100
AcDbVisualStyle
  2
FlatWithEdges
 70
     1
 71
     2
 72
     1
 73
     1
 90
        2
 40
-0.6
 41
30.0
 62
     5
 63
     7
 74
     1
 91
        4
 64
     7
 65
   257
 75
     1
175
     1
 42
1.0
 92
        0
 66
   257
 43
1.0
 76
     1
 77
     6
 78
     2
 67
     7
 79
     5
170
     0
171
     0
290
     0
174
     0
 93
       13
 44
0.0
173
     0
291
     1
 45
0.0
1001
ACAD
1000
AcDbSavedByObjectVersion
1070
     0
  0
VISUALSTYLE
  5
2D
102
{ACAD_REACTORS
330
2A
102
}
102
{ACAD_XDICTIONARY
360
18C
102
}
330
2A
100
AcDbVisualStyle
  2
Gouraud
 70
     2
 71
     2
 72
     2
 73
     1
 90
        2
 40
-0.6
 41
30.0
 62
     5
 63
     7
 74
     0
 91
        4
 64
     7
 65
   257
 75
     1
175
     1
 42
1.0
 92
        0
 66
     7
 43
1.0
 76
     1
 77
     6
 78
     2
 67
     7
 79
     5
170
     0
171
     0
290
     0
174
     0
 93
       13
 44
0.0
173
     0
291
     1
 45
0.0
1001
ACAD
1000
AcDbSavedByObjectVersion
1070
     0
  0
VISUALSTYLE
  5
2E
102
{ACAD_REACTORS
330
2A
102
}
102
{ACAD_XDICTIONARY
360
18E
102
}
330
2A
100
AcDbVisualStyle
  2
GouraudWithEdges
 70
     3
 71
     2
 72
     2
 73
     1
 90
        2
 40
-0.6
 41
30.0
 62
     5
 63
     7
 74
     1
 91
        4
 64
     7
 65
   257
 75
     1
175
     1
 42
1.0
 92
        0
 66
   257
 43
1.0
 76
     1
 77
     6
 78
     2
 67
     7
 79
     5
170
     0
171
     0
290
     0
174
     0
 93
       13
 44
0.0
173
     0
291
     1
 45
0.0
1001
ACAD
1000
AcDbSavedByObjectVersion
1070
     0
  0
VISUALSTYLE
  5
38
102
{ACAD_REACTORS
330
2A
102
}
102
{ACAD_XDICTIONARY
360
1A2
102
}
330
2A
100
AcDbVisualStyle
  2
Linepattern
 70
    14
 71
     2
 72
     2
 73
     0
 90
        0
 40
-0.6
 41
-30.0
 62
     5
 63
     7
 74
     1
 91
        4
 64
     7
 65
   257
 75
     7
175
     7
 42
1.0
 92
        8
 66
     7
 43
1.0
 76
     1
 77
     6
 78
     2
 67
     7
 79
     5
170
     0
171
     0
290
     0
174
     0
 93
        1
 44
0.0
173
     0
291
     1
 45
0.0
1001
ACAD
1000
AcDbSavedByObjectVersion
1070
     0
  0
VISUALSTYLE
  5
33
102
{ACAD_REACTORS
330
2A
102
}
102
{ACAD_XDICTIONARY
360
198
102
}
330
2A
100
AcDbVisualStyle
  2
Realistic
 70
     8
 71
     2
 72
     2
 73
     0
 90
        0
 40
-0.6
 41
-30.0
 62
     5
 63
     7
 74
     1
 91
        0
 64
     7
 65
   257
 75
     1
175
     1
 42
1.0
 92
        8
 66
     8
 43
1.0
 76
     1
 77
     6
 78
     2
 67
     7
 79
     5
170
     0
171
     0
290
     0
174
     0
 93
       13
 44
0.0
173
     0
291
     0
 45
0.0
1001
ACAD
1000
AcDbSavedByObjectVersion
1070
     0
  0
VISUALSTYLE
  5
37
102
{ACAD_REACTORS
330
2A
102
}
102
{ACAD_XDICTIONARY
360
1A0
102
}
330
2A
100
AcDbVisualStyle
  2
Thicken
 70
    13
 71
     2
 72
     2
 73
     0
 90
        0
 40
-0.6
 41
-30.0
 62
     5
 63
     7
 74
     1
 91
        4
 64
     7
 65
   257
 75
     1
175
     1
 42
1.0
 92
       12
 66
     7
 43
1.0
 76
     1
 77
     6
 78
     2
 67
     7
 79
     5
170
     0
171
     0
290
     0
174
     0
 93
        1
 44
0.0
173
     0
291
     1
 45
0.0
1001
ACAD
1000
AcDbSavedByObjectVersion
1070
     0
  0
DICTIONARYVAR
  5
186
102
{ACAD_REACTORS
330
181
102
}
330
181
100
DictionaryVariables
280
     0
  1
2
  0
DICTIONARYVAR
  5
187
102
{ACAD_REACTORS
330
181
102
}
330
181
100
DictionaryVariables
280
     0
  1
1
  0
DICTIONARYVAR
  5
185
102
{ACAD_REACTORS
330
181
102
}
330
181
100
DictionaryVariables
280
     0
  1
80.000000
  0
DICTIONARYVAR
  5
184
102
{ACAD_REACTORS
330
181
102
}
330
181
100
DictionaryVariables
280
     0
  1
5.000000
  0
DICTIONARY
  5
1AA
330
3D
100
AcDbDictionary
280
     1
281
     1
  3
ACAD_XREC_ROUNDTRIP
360
1AB
  0
DICTIONARY
  5
1A8
330
3C
100
AcDbDictionary
280
     1
281
     1
  3
ACAD_XREC_ROUNDTRIP
360
1A9
  0
DICTIONARY
  5
1AC
330
3E
100
AcDbDictionary
280
     1
281
     1
  3
ACAD_XREC_ROUNDTRIP
360
1AD
  0
DICTIONARY
  5
190
330
2F
100
AcDbDictionary
280
     1
281
     1
  3
ACAD_XREC_ROUNDTRIP
360
191
  0
DICTIONARY
  5
194
330
31
100
AcDbDictionary
280
     1
281
     1
  3
ACAD_XREC_ROUNDTRIP
360
195
  0
DICTIONARY
  5
192
330
30
100
AcDbDictionary
280
     1
281
     1
  3
ACAD_XREC_ROUNDTRIP
360
193
  0
DICTIONARY
  5
196
330
32
100
AcDbDictionary
280
     1
281
     1
  3
ACAD_XREC_ROUNDTRIP
360
197
  0
DICTIONARY
  5
19E
330
36
100
AcDbDictionary
280
     1
281
     1
  3
ACAD_XREC_ROUNDTRIP
360
19F
  0
DICTIONARY
  5
1A6
330
3A
100
AcDbDictionary
280
     1
281
     1
  3
ACAD_XREC_ROUNDTRIP
360
1A7
  0
DICTIONARY
  5
19A
330
34
100
AcDbDictionary
280
     1
281
     1
  3
ACAD_XREC_ROUNDTRIP
360
19B
  0
DICTIONARY
  5
19C
330
35
100
AcDbDictionary
280
     1
281
     1
  3
ACAD_XREC_ROUNDTRIP
360
19D
  0
DICTIONARY
  5
1A4
330
39
100
AcDbDictionary
280
     1
281
     1
  3
ACAD_XREC_ROUNDTRIP
360
1A5
  0
DICTIONARY
  5
188
330
2B
100
AcDbDictionary
280
     1
281
     1
  3
ACAD_XREC_ROUNDTRIP
360
189
  0
DICTIONARY
  5
18A
330
2C
100
AcDbDictionary
280
     1
281
     1
  3
ACAD_XREC_ROUNDTRIP
360
18B
  0
DICTIONARY
  5
18C
330
2D
100
AcDbDictionary
280
     1
281
     1
  3
ACAD_XREC_ROUNDTRIP
360
18D
  0
DICTIONARY
  5
18E
330
2E
100
AcDbDictionary
280
     1
281
     1
  3
ACAD_XREC_ROUNDTRIP
360
18F
  0
DICTIONARY
  5
1A2
330
38
100
AcDbDictionary
280
     1
281
     1
  3
ACAD_XREC_ROUNDTRIP
360
1A3
  0
DICTIONARY
  5
198
330
33
100
AcDbDictionary
280
     1
281
     1
  3
ACAD_XREC_ROUNDTRIP
360
199
  0
DICTIONARY
  5
1A0
330
37
100
AcDbDictionary
280
     1
281
     1
  3
ACAD_XREC_ROUNDTRIP
360
1A1
  0
XRECORD
  5
1AB
102
{ACAD_REACTORS
330
1AA
102
}
330
1AA
100
AcDbXrecord
280
     1
102
MATERIAL
148
0.0
149
0.0
149
0.0
 93
        0
 94
      127
282
     0
 72
     1
 77
     1
171
     1
175
     1
179
     1
273
     0
  0
XRECORD
  5
1A9
102
{ACAD_REACTORS
330
1A8
102
}
330
1A8
100
AcDbXrecord
280
     1
102
MATERIAL
148
0.0
149
0.0
149
0.0
 93
        0
 94
      127
282
     0
 72
     1
 77
     1
171
     1
175
     1
179
     1
273
     0
  0
XRECORD
  5
1AD
102
{ACAD_REACTORS
330
1AC
102
}
330
1AC
100
AcDbXrecord
280
     1
102
MATERIAL
148
0.0
149
0.0
149
0.0
 93
        0
 94
      127
282
     0
 72
     1
 77
     1
171
     1
175
     1
179
     1
273
     0
  0
XRECORD
  5
191
102
{ACAD_REACTORS
330
190
102
}
330
190
100
AcDbXrecord
280
     1
102
RTVSPropertyOp0
 70
     1
102
RTVSPropertyOp1
 70
     1
102
RTVSPropertyOp2
 70
     1
102
RTVSPropertyOp3
 70
     1
102
RTVSPropertyOp4
 70
     1
102
RTVSPropertyOp5
 70
     1
102
RTVSPropertyOp6
 70
     1
102
RTVSPropertyOp7
 70
     1
102
RTVSPropertyOp8
 70
     1
102
RTVSPropertyOp9
 70
     1
102
RTVSPropertyOp10
 70
     1
102
RTVSPropertyOp11
 70
     1
102
RTVSPropertyOp12
 70
     1
102
RTVSPropertyOp13
 70
     1
102
RTVSPropertyOp14
 70
     1
102
RTVSPropertyOp15
 70
     1
102
RTVSPropertyOp16
 70
     1
102
RTVSPropertyOp17
 70
     1
102
RTVSPropertyOp18
 70
     1
102
RTVSPropertyOp19
 70
     1
102
RTVSPropertyOp20
 70
     1
102
RTVSPropertyOp21
 70
     1
102
RTVSPropertyOp22
 70
     1
102
RTVSPropertyOp23
 70
     1
102
RTVSPropertyOp24
 70
     1
102
RTVSPropertyOp25
 70
     1
102
RTVSPropertyOp26
 70
     1
102
RTVSPropertyOp27
 70
     1
102
RTVSPropertyOp28
 70
     1
102
RTVSPropertyOp29
 70
     1
102
RTVSPropertyOp30
 70
     1
102
RTVSPropertyOp31
 70
     1
102
RTVSPropertyOp32
 70
     1
  0
XRECORD
  5
195
102
{ACAD_REACTORS
330
194
102
}
330
194
100
AcDbXrecord
280
     1
102
RTVSPropertyOp0
 70
     1
102
RTVSPropertyOp1
 70
     1
102
RTVSPropertyOp2
 70
     1
102
RTVSPropertyOp3
 70
     1
102
RTVSPropertyOp4
 70
     1
102
RTVSPropertyOp5
 70
     1
102
RTVSPropertyOp6
 70
     1
102
RTVSPropertyOp7
 70
     1
102
RTVSPropertyOp8
 70
     1
102
RTVSPropertyOp9
 70
     1
102
RTVSPropertyOp10
 70
     1
102
RTVSPropertyOp11
 70
     1
102
RTVSPropertyOp12
 70
     1
102
RTVSPropertyOp13
 70
     1
102
RTVSPropertyOp14
 70
     1
102
RTVSPropertyOp15
 70
     1
102
RTVSPropertyOp16
 70
     1
102
RTVSPropertyOp17
 70
     1
102
RTVSPropertyOp18
 70
     1
102
RTVSPropertyOp19
 70
     1
102
RTVSPropertyOp20
 70
     1
102
RTVSPropertyOp21
 70
     1
102
RTVSPropertyOp22
 70
     1
102
RTVSPropertyOp23
 70
     1
102
RTVSPropertyOp24
 70
     1
102
RTVSPropertyOp25
 70
     1
102
RTVSPropertyOp26
 70
     1
102
RTVSPropertyOp27
 70
     1
102
RTVSPropertyOp28
 70
     1
102
RTVSPropertyOp29
 70
     1
102
RTVSPropertyOp30
 70
     1
102
RTVSPropertyOp31
 70
     1
102
RTVSPropertyOp32
 70
     1
  0
XRECORD
  5
193
102
{ACAD_REACTORS
330
192
102
}
330
192
100
AcDbXrecord
280
     1
102
RTVSPropertyOp0
 70
     1
102
RTVSPropertyOp1
 70
     1
102
RTVSPropertyOp2
 70
     1
102
RTVSPropertyOp3
 70
     1
102
RTVSPropertyOp4
 70
     1
102
RTVSPropertyOp5
 70
     1
102
RTVSPropertyOp6
 70
     1
102
RTVSPropertyOp7
 70
     1
102
RTVSPropertyOp8
 70
     1
102
RTVSPropertyOp9
 70
     1
102
RTVSPropertyOp10
 70
     1
102
RTVSPropertyOp11
 70
     1
102
RTVSPropertyOp12
 70
     1
102
RTVSPropertyOp13
 70
     1
102
RTVSPropertyOp14
 70
     1
102
RTVSPropertyOp15
 70
     1
102
RTVSPropertyOp16
 70
     1
102
RTVSPropertyOp17
 70
     1
102
RTVSPropertyOp18
 70
     1
102
RTVSPropertyOp19
 70
     1
102
RTVSPropertyOp20
 70
     1
102
RTVSPropertyOp21
 70
     1
102
RTVSPropertyOp22
 70
     1
102
RTVSPropertyOp23
 70
     1
102
RTVSPropertyOp24
 70
     1
102
RTVSPropertyOp25
 70
     1
102
RTVSPropertyOp26
 70
     1
102
RTVSPropertyOp27
 70
     1
102
RTVSPropertyOp28
 70
     1
102
RTVSPropertyOp29
 70
     1
102
RTVSPropertyOp30
 70
     1
102
RTVSPropertyOp31
 70
     1
102
RTVSPropertyOp32
 70
     1
  0
XRECORD
  5
197
102
{ACAD_REACTORS
330
196
102
}
330
196
100
AcDbXrecord
280
     1
102
RTVSPropertyOp0
 70
     1
102
RTVSPropertyOp1
 70
     1
102
RTVSPropertyOp2
 70
     1
102
RTVSPropertyOp3
 70
     1
102
RTVSPropertyOp4
 70
     1
102
RTVSPropertyOp5
 70
     1
102
RTVSPropertyOp6
 70
     1
102
RTVSPropertyOp7
 70
     1
102
RTVSPropertyOp8
 70
     1
102
RTVSPropertyOp9
 70
     1
102
RTVSPropertyOp10
 70
     1
102
RTVSPropertyOp11
 70
     1
102
RTVSPropertyOp12
 70
     1
102
RTVSPropertyOp13
 70
     1
102
RTVSPropertyOp14
 70
     1
102
RTVSPropertyOp15
 70
     1
102
RTVSPropertyOp16
 70
     1
102
RTVSPropertyOp17
 70
     1
102
RTVSPropertyOp18
 70
     1
102
RTVSPropertyOp19
 70
     1
102
RTVSPropertyOp20
 70
     1
102
RTVSPropertyOp21
 70
     1
102
RTVSPropertyOp22
 70
     1
102
RTVSPropertyOp23
 70
     1
102
RTVSPropertyOp24
 70
     1
102
RTVSPropertyOp25
 70
     1
102
RTVSPropertyOp26
 70
     1
102
RTVSPropertyOp27
 70
     1
102
RTVSPropertyOp28
 70
     1
102
RTVSPropertyOp29
 70
     1
102
RTVSPropertyOp30
 70
     1
102
RTVSPropertyOp31
 70
     1
102
RTVSPropertyOp32
 70
     1
  0
XRECORD
  5
19F
102
{ACAD_REACTORS
330
19E
102
}
330
19E
100
AcDbXrecord
280
     1
102
RTVSPropertyOp0
 70
     1
102
RTVSPropertyOp1
 70
     1
102
RTVSPropertyOp2
 70
     1
102
RTVSPropertyOp3
 70
     1
102
RTVSPropertyOp4
 70
     1
102
RTVSPropertyOp5
 70
     1
102
RTVSPropertyOp6
 70
     1
102
RTVSPropertyOp7
 70
     1
102
RTVSPropertyOp8
 70
     1
102
RTVSPropertyOp9
 70
     1
102
RTVSPropertyOp10
 70
     1
102
RTVSPropertyOp11
 70
     1
102
RTVSPropertyOp12
 70
     1
102
RTVSPropertyOp13
 70
     1
102
RTVSPropertyOp14
 70
     1
102
RTVSPropertyOp15
 70
     1
102
RTVSPropertyOp16
 70
     1
102
RTVSPropertyOp17
 70
     1
102
RTVSPropertyOp18
 70
     1
102
RTVSPropertyOp19
 70
     1
102
RTVSPropertyOp20
 70
     1
102
RTVSPropertyOp21
 70
     1
102
RTVSPropertyOp22
 70
     1
102
RTVSPropertyOp23
 70
     1
102
RTVSPropertyOp24
 70
     1
102
RTVSPropertyOp25
 70
     1
102
RTVSPropertyOp26
 70
     1
102
RTVSPropertyOp27
 70
     1
102
RTVSPropertyOp28
 70
     1
102
RTVSPropertyOp29
 70
     1
102
RTVSPropertyOp30
 70
     1
102
RTVSPropertyOp31
 70
     1
102
RTVSPropertyOp32
 70
     1
  0
XRECORD
  5
1A7
102
{ACAD_REACTORS
330
1A6
102
}
330
1A6
100
AcDbXrecord
280
     1
102
RTVSPropertyOp0
 70
     1
102
RTVSPropertyOp1
 70
     1
102
RTVSPropertyOp2
 70
     1
102
RTVSPropertyOp3
 70
     1
102
RTVSPropertyOp4
 70
     1
102
RTVSPropertyOp5
 70
     1
102
RTVSPropertyOp6
 70
     1
102
RTVSPropertyOp7
 70
     1
102
RTVSPropertyOp8
 70
     1
102
RTVSPropertyOp9
 70
     1
102
RTVSPropertyOp10
 70
     1
102
RTVSPropertyOp11
 70
     1
102
RTVSPropertyOp12
 70
     1
102
RTVSPropertyOp13
 70
     1
102
RTVSPropertyOp14
 70
     1
102
RTVSPropertyOp15
 70
     1
102
RTVSPropertyOp16
 70
     1
102
RTVSPropertyOp17
 70
     1
102
RTVSPropertyOp18
 70
     1
102
RTVSPropertyOp19
 70
     1
102
RTVSPropertyOp20
 70
     1
102
RTVSPropertyOp21
 70
     1
102
RTVSPropertyOp22
 70
     1
102
RTVSPropertyOp23
 70
     1
102
RTVSPropertyOp24
 70
     1
102
RTVSPropertyOp25
 70
     1
102
RTVSPropertyOp26
 70
     1
102
RTVSPropertyOp27
 70
     1
102
RTVSPropertyOp28
 70
     1
102
RTVSPropertyOp29
 70
     1
102
RTVSPropertyOp30
 70
     1
102
RTVSPropertyOp31
 70
     1
102
RTVSPropertyOp32
 70
     1
  0
XRECORD
  5
19B
102
{ACAD_REACTORS
330
19A
102
}
330
19A
100
AcDbXrecord
280
     1
102
RTVSPropertyOp0
 70
     1
102
RTVSPropertyOp1
 70
     1
102
RTVSPropertyOp2
 70
     1
102
RTVSPropertyOp3
 70
     1
102
RTVSPropertyOp4
 70
     1
102
RTVSPropertyOp5
 70
     1
102
RTVSPropertyOp6
 70
     1
102
RTVSPropertyOp7
 70
     1
102
RTVSPropertyOp8
 70
     1
102
RTVSPropertyOp9
 70
     1
102
RTVSPropertyOp10
 70
     1
102
RTVSPropertyOp11
 70
     1
102
RTVSPropertyOp12
 70
     1
102
RTVSPropertyOp13
 70
     1
102
RTVSPropertyOp14
 70
     1
102
RTVSPropertyOp15
 70
     1
102
RTVSPropertyOp16
 70
     1
102
RTVSPropertyOp17
 70
     1
102
RTVSPropertyOp18
 70
     1
102
RTVSPropertyOp19
 70
     1
102
RTVSPropertyOp20
 70
     1
102
RTVSPropertyOp21
 70
     1
102
RTVSPropertyOp22
 70
     1
102
RTVSPropertyOp23
 70
     1
102
RTVSPropertyOp24
 70
     1
102
RTVSPropertyOp25
 70
     1
102
RTVSPropertyOp26
 70
     1
102
RTVSPropertyOp27
 70
     1
102
RTVSPropertyOp28
 70
     1
102
RTVSPropertyOp29
 70
     1
102
RTVSPropertyOp30
 70
     1
102
RTVSPropertyOp31
 70
     1
102
RTVSPropertyOp32
 70
     1
  0
XRECORD
  5
19D
102
{ACAD_REACTORS
330
19C
102
}
330
19C
100
AcDbXrecord
280
     1
102
RTVSPropertyOp0
 70
     1
102
RTVSPropertyOp1
 70
     1
102
RTVSPropertyOp2
 70
     1
102
RTVSPropertyOp3
 70
     1
102
RTVSPropertyOp4
 70
     1
102
RTVSPropertyOp5
 70
     1
102
RTVSPropertyOp6
 70
     1
102
RTVSPropertyOp7
 70
     1
102
RTVSPropertyOp8
 70
     1
102
RTVSPropertyOp9
 70
     1
102
RTVSPropertyOp10
 70
     1
102
RTVSPropertyOp11
 70
     1
102
RTVSPropertyOp12
 70
     1
102
RTVSPropertyOp13
 70
     1
102
RTVSPropertyOp14
 70
     1
102
RTVSPropertyOp15
 70
     1
102
RTVSPropertyOp16
 70
     1
102
RTVSPropertyOp17
 70
     1
102
RTVSPropertyOp18
 70
     1
102
RTVSPropertyOp19
 70
     1
102
RTVSPropertyOp20
 70
     1
102
RTVSPropertyOp21
 70
     1
102
RTVSPropertyOp22
 70
     1
102
RTVSPropertyOp23
 70
     1
102
RTVSPropertyOp24
 70
     1
102
RTVSPropertyOp25
 70
     1
102
RTVSPropertyOp26
 70
     1
102
RTVSPropertyOp27
 70
     1
102
RTVSPropertyOp28
 70
     1
102
RTVSPropertyOp29
 70
     1
102
RTVSPropertyOp30
 70
     1
102
RTVSPropertyOp31
 70
     1
102
RTVSPropertyOp32
 70
     1
  0
XRECORD
  5
1A5
102
{ACAD_REACTORS
330
1A4
102
}
330
1A4
100
AcDbXrecord
280
     1
102
RTVSPropertyOp0
 70
     1
102
RTVSPropertyOp1
 70
     1
102
RTVSPropertyOp2
 70
     1
102
RTVSPropertyOp3
 70
     1
102
RTVSPropertyOp4
 70
     1
102
RTVSPropertyOp5
 70
     1
102
RTVSPropertyOp6
 70
     1
102
RTVSPropertyOp7
 70
     1
102
RTVSPropertyOp8
 70
     1
102
RTVSPropertyOp9
 70
     1
102
RTVSPropertyOp10
 70
     1
102
RTVSPropertyOp11
 70
     1
102
RTVSPropertyOp12
 70
     1
102
RTVSPropertyOp13
 70
     1
102
RTVSPropertyOp14
 70
     1
102
RTVSPropertyOp15
 70
     1
102
RTVSPropertyOp16
 70
     1
102
RTVSPropertyOp17
 70
     1
102
RTVSPropertyOp18
 70
     1
102
RTVSPropertyOp19
 70
     1
102
RTVSPropertyOp20
 70
     1
102
RTVSPropertyOp21
 70
     1
102
RTVSPropertyOp22
 70
     1
102
RTVSPropertyOp23
 70
     1
102
RTVSPropertyOp24
 70
     1
102
RTVSPropertyOp25
 70
     1
102
RTVSPropertyOp26
 70
     1
102
RTVSPropertyOp27
 70
     1
102
RTVSPropertyOp28
 70
     1
102
RTVSPropertyOp29
 70
     1
102
RTVSPropertyOp30
 70
     1
102
RTVSPropertyOp31
 70
     1
102
RTVSPropertyOp32
 70
     1
  0
XRECORD
  5
189
102
{ACAD_REACTORS
330
188
102
}
330
188
100
AcDbXrecord
280
     1
102
RTVSPropertyOp0
 70
     1
102
RTVSPropertyOp1
 70
     1
102
RTVSPropertyOp2
 70
     1
102
RTVSPropertyOp3
 70
     1
102
RTVSPropertyOp4
 70
     1
102
RTVSPropertyOp5
 70
     1
102
RTVSPropertyOp6
 70
     1
102
RTVSPropertyOp7
 70
     1
102
RTVSPropertyOp8
 70
     1
102
RTVSPropertyOp9
 70
     1
102
RTVSPropertyOp10
 70
     1
102
RTVSPropertyOp11
 70
     1
102
RTVSPropertyOp12
 70
     1
102
RTVSPropertyOp13
 70
     1
102
RTVSPropertyOp14
 70
     1
102
RTVSPropertyOp15
 70
     1
102
RTVSPropertyOp16
 70
     1
102
RTVSPropertyOp17
 70
     1
102
RTVSPropertyOp18
 70
     1
102
RTVSPropertyOp19
 70
     1
102
RTVSPropertyOp20
 70
     1
102
RTVSPropertyOp21
 70
     1
102
RTVSPropertyOp22
 70
     1
102
RTVSPropertyOp23
 70
     1
102
RTVSPropertyOp24
 70
     1
102
RTVSPropertyOp25
 70
     1
102
RTVSPropertyOp26
 70
     1
102
RTVSPropertyOp27
 70
     1
102
RTVSPropertyOp28
 70
     1
102
RTVSPropertyOp29
 70
     1
102
RTVSPropertyOp30
 70
     1
102
RTVSPropertyOp31
 70
     1
102
RTVSPropertyOp32
 70
     1
  0
XRECORD
  5
18B
102
{ACAD_REACTORS
330
18A
102
}
330
18A
100
AcDbXrecord
280
     1
102
RTVSPropertyOp0
 70
     1
102
RTVSPropertyOp1
 70
     1
102
RTVSPropertyOp2
 70
     1
102
RTVSPropertyOp3
 70
     1
102
RTVSPropertyOp4
 70
     1
102
RTVSPropertyOp5
 70
     1
102
RTVSPropertyOp6
 70
     1
102
RTVSPropertyOp7
 70
     1
102
RTVSPropertyOp8
 70
     1
102
RTVSPropertyOp9
 70
     1
102
RTVSPropertyOp10
 70
     1
102
RTVSPropertyOp11
 70
     1
102
RTVSPropertyOp12
 70
     1
102
RTVSPropertyOp13
 70
     1
102
RTVSPropertyOp14
 70
     1
102
RTVSPropertyOp15
 70
     1
102
RTVSPropertyOp16
 70
     1
102
RTVSPropertyOp17
 70
     1
102
RTVSPropertyOp18
 70
     1
102
RTVSPropertyOp19
 70
     1
102
RTVSPropertyOp20
 70
     1
102
RTVSPropertyOp21
 70
     1
102
RTVSPropertyOp22
 70
     1
102
RTVSPropertyOp23
 70
     1
102
RTVSPropertyOp24
 70
     1
102
RTVSPropertyOp25
 70
     1
102
RTVSPropertyOp26
 70
     1
102
RTVSPropertyOp27
 70
     1
102
RTVSPropertyOp28
 70
     1
102
RTVSPropertyOp29
 70
     1
102
RTVSPropertyOp30
 70
     1
102
RTVSPropertyOp31
 70
     1
102
RTVSPropertyOp32
 70
     1
  0
XRECORD
  5
18D
102
{ACAD_REACTORS
330
18C
102
}
330
18C
100
AcDbXrecord
280
     1
102
RTVSPropertyOp0
 70
     1
102
RTVSPropertyOp1
 70
     1
102
RTVSPropertyOp2
 70
     1
102
RTVSPropertyOp3
 70
     1
102
RTVSPropertyOp4
 70
     1
102
RTVSPropertyOp5
 70
     1
102
RTVSPropertyOp6
 70
     1
102
RTVSPropertyOp7
 70
     1
102
RTVSPropertyOp8
 70
     1
102
RTVSPropertyOp9
 70
     1
102
RTVSPropertyOp10
 70
     1
102
RTVSPropertyOp11
 70
     1
102
RTVSPropertyOp12
 70
     1
102
RTVSPropertyOp13
 70
     1
102
RTVSPropertyOp14
 70
     1
102
RTVSPropertyOp15
 70
     1
102
RTVSPropertyOp16
 70
     1
102
RTVSPropertyOp17
 70
     1
102
RTVSPropertyOp18
 70
     1
102
RTVSPropertyOp19
 70
     1
102
RTVSPropertyOp20
 70
     1
102
RTVSPropertyOp21
 70
     1
102
RTVSPropertyOp22
 70
     1
102
RTVSPropertyOp23
 70
     1
102
RTVSPropertyOp24
 70
     1
102
RTVSPropertyOp25
 70
     1
102
RTVSPropertyOp26
 70
     1
102
RTVSPropertyOp27
 70
     1
102
RTVSPropertyOp28
 70
     1
102
RTVSPropertyOp29
 70
     1
102
RTVSPropertyOp30
 70
     1
102
RTVSPropertyOp31
 70
     1
102
RTVSPropertyOp32
 70
     1
  0
XRECORD
  5
18F
102
{ACAD_REACTORS
330
18E
102
}
330
18E
100
AcDbXrecord
280
     1
102
RTVSPropertyOp0
 70
     1
102
RTVSPropertyOp1
 70
     1
102
RTVSPropertyOp2
 70
     1
102
RTVSPropertyOp3
 70
     1
102
RTVSPropertyOp4
 70
     1
102
RTVSPropertyOp5
 70
     1
102
RTVSPropertyOp6
 70
     1
102
RTVSPropertyOp7
 70
     1
102
RTVSPropertyOp8
 70
     1
102
RTVSPropertyOp9
 70
     1
102
RTVSPropertyOp10
 70
     1
102
RTVSPropertyOp11
 70
     1
102
RTVSPropertyOp12
 70
     1
102
RTVSPropertyOp13
 70
     1
102
RTVSPropertyOp14
 70
     1
102
RTVSPropertyOp15
 70
     1
102
RTVSPropertyOp16
 70
     1
102
RTVSPropertyOp17
 70
     1
102
RTVSPropertyOp18
 70
     1
102
RTVSPropertyOp19
 70
     1
102
RTVSPropertyOp20
 70
     1
102
RTVSPropertyOp21
 70
     1
102
RTVSPropertyOp22
 70
     1
102
RTVSPropertyOp23
 70
     1
102
RTVSPropertyOp24
 70
     1
102
RTVSPropertyOp25
 70
     1
102
RTVSPropertyOp26
 70
     1
102
RTVSPropertyOp27
 70
     1
102
RTVSPropertyOp28
 70
     1
102
RTVSPropertyOp29
 70
     1
102
RTVSPropertyOp30
 70
     1
102
RTVSPropertyOp31
 70
     1
102
RTVSPropertyOp32
 70
     1
  0
XRECORD
  5
1A3
102
{ACAD_REACTORS
330
1A2
102
}
330
1A2
100
AcDbXrecord
280
     1
102
RTVSPropertyOp0
 70
     1
102
RTVSPropertyOp1
 70
     1
102
RTVSPropertyOp2
 70
     1
102
RTVSPropertyOp3
 70
     1
102
RTVSPropertyOp4
 70
     1
102
RTVSPropertyOp5
 70
     1
102
RTVSPropertyOp6
 70
     1
102
RTVSPropertyOp7
 70
     1
102
RTVSPropertyOp8
 70
     1
102
RTVSPropertyOp9
 70
     1
102
RTVSPropertyOp10
 70
     1
102
RTVSPropertyOp11
 70
     1
102
RTVSPropertyOp12
 70
     1
102
RTVSPropertyOp13
 70
     1
102
RTVSPropertyOp14
 70
     1
102
RTVSPropertyOp15
 70
     1
102
RTVSPropertyOp16
 70
     1
102
RTVSPropertyOp17
 70
     1
102
RTVSPropertyOp18
 70
     1
102
RTVSPropertyOp19
 70
     1
102
RTVSPropertyOp20
 70
     1
102
RTVSPropertyOp21
 70
     1
102
RTVSPropertyOp22
 70
     1
102
RTVSPropertyOp23
 70
     1
102
RTVSPropertyOp24
 70
     1
102
RTVSPropertyOp25
 70
     1
102
RTVSPropertyOp26
 70
     1
102
RTVSPropertyOp27
 70
     1
102
RTVSPropertyOp28
 70
     1
102
RTVSPropertyOp29
 70
     1
102
RTVSPropertyOp30
 70
     1
102
RTVSPropertyOp31
 70
     1
102
RTVSPropertyOp32
 70
     1
  0
XRECORD
  5
199
102
{ACAD_REACTORS
330
198
102
}
330
198
100
AcDbXrecord
280
     1
102
RTVSPropertyOp0
 70
     1
102
RTVSPropertyOp1
 70
     1
102
RTVSPropertyOp2
 70
     1
102
RTVSPropertyOp3
 70
     1
102
RTVSPropertyOp4
 70
     1
102
RTVSPropertyOp5
 70
     1
102
RTVSPropertyOp6
 70
     1
102
RTVSPropertyOp7
 70
     1
102
RTVSPropertyOp8
 70
     1
102
RTVSPropertyOp9
 70
     1
102
RTVSPropertyOp10
 70
     1
102
RTVSPropertyOp11
 70
     1
102
RTVSPropertyOp12
 70
     1
102
RTVSPropertyOp13
 70
     1
102
RTVSPropertyOp14
 70
     1
102
RTVSPropertyOp15
 70
     1
102
RTVSPropertyOp16
 70
     1
102
RTVSPropertyOp17
 70
     1
102
RTVSPropertyOp18
 70
     1
102
RTVSPropertyOp19
 70
     1
102
RTVSPropertyOp20
 70
     1
102
RTVSPropertyOp21
 70
     1
102
RTVSPropertyOp22
 70
     1
102
RTVSPropertyOp23
 70
     1
102
RTVSPropertyOp24
 70
     1
102
RTVSPropertyOp25
 70
     1
102
RTVSPropertyOp26
 70
     1
102
RTVSPropertyOp27
 70
     1
102
RTVSPropertyOp28
 70
     1
102
RTVSPropertyOp29
 70
     1
102
RTVSPropertyOp30
 70
     1
102
RTVSPropertyOp31
 70
     1
102
RTVSPropertyOp32
 70
     1
  0
XRECORD
  5
1A1
102
{ACAD_REACTORS
330
1A0
102
}
330
1A0
100
AcDbXrecord
280
     1
102
RTVSPropertyOp0
 70
     1
102
RTVSPropertyOp1
 70
     1
102
RTVSPropertyOp2
 70
     1
102
RTVSPropertyOp3
 70
     1
102
RTVSPropertyOp4
 70
     1
102
RTVSPropertyOp5
 70
     1
102
RTVSPropertyOp6
 70
     1
102
RTVSPropertyOp7
 70
     1
102
RTVSPropertyOp8
 70
     1
102
RTVSPropertyOp9
 70
     1
102
RTVSPropertyOp10
 70
     1
102
RTVSPropertyOp11
 70
     1
102
RTVSPropertyOp12
 70
     1
102
RTVSPropertyOp13
 70
     1
102
RTVSPropertyOp14
 70
     1
102
RTVSPropertyOp15
 70
     1
102
RTVSPropertyOp16
 70
     1
102
RTVSPropertyOp17
 70
     1
102
RTVSPropertyOp18
 70
     1
102
RTVSPropertyOp19
 70
     1
102
RTVSPropertyOp20
 70
     1
102
RTVSPropertyOp21
 70
     1
102
RTVSPropertyOp22
 70
     1
102
RTVSPropertyOp23
 70
     1
102
RTVSPropertyOp24
 70
     1
102
RTVSPropertyOp25
 70
     1
102
RTVSPropertyOp26
 70
     1
102
RTVSPropertyOp27
 70
     1
102
RTVSPropertyOp28
 70
     1
102
RTVSPropertyOp29
 70
     1
102
RTVSPropertyOp30
 70
     1
102
RTVSPropertyOp31
 70
     1
102
RTVSPropertyOp32
 70
     1
  0
ENDSEC
  0
EOF
