  0
SECTION
  2
HEADER
  9
$ACADVER
  1
AC1015
  9
$ACADMAINTVER
 70
     6
  9
$DWGCODEPAGE
  3
ANSI_1252
  9
$INSBASE
 10
0.0
 20
0.0
 30
0.0
  9
$EXTMIN
 10
0.0
 20
0.0
 30
0.0
  9
$EXTMAX
 10
210.0
 20
297.0
 30
0.0
  9
$LIMMIN
 10
0.0
 20
0.0
  9
$LIMMAX
 10
210.0
 20
297.0
  9
$ORTHOMODE
 70
     0
  9
$REGENMODE
 70
     1
  9
$FILLMODE
 70
     1
  9
$QTEXTMODE
 70
     0
  9
$MIRRTEXT
 70
     1
  9
$LTSCALE
 40
1.0
  9
$ATTMODE
 70
     1
  9
$TEXTSIZE
 40
2.5
  9
$TRACEWID
 40
1.0
  9
$TEXTSTYLE
  7
Standard
  9
$CLAYER
  8
0
  9
$CELTYPE
  6
ByLayer
  9
$CECOLOR
 62
   256
  9
$CELTSCALE
 40
1.0
  9
$DISPSILH
 70
     0
  9
$DIMSCALE
 40
1.0
  9
$DIMASZ
 40
2.5
  9
$DIMEXO
 40
0.625
  9
$DIMDLI
 40
3.75
  9
$DIMRND
 40
0.0
  9
$DIMDLE
 40
0.0
  9
$DIMEXE
 40
1.25
  9
$DIMTP
 40
0.0
  9
$DIMTM
 40
0.0
  9
$DIMTXT
 40
2.5
  9
$DIMCEN
 40
2.5
  9
$DIMTSZ
 40
0.0
  9
$DIMTOL
 70
     0
  9
$DIMLIM
 70
     0
  9
$DIMTIH
 70
     0
  9
$DIMTOH
 70
     0
  9
$DIMSE1
 70
     0
  9
$DIMSE2
 70
     0
  9
$DIMTAD
 70
     1
  9
$DIMZIN
 70
     8
  9
$DIMBLK
  1

  9
$DIMASO
 70
     1
  9
$DIMSHO
 70
     1
  9
$DIMPOST
  1

  9
$DIMAPOST
  1

  9
$DIMALT
 70
     0
  9
$DIMALTD
 70
     3
  9
$DIMALTF
 40
0.0393700787
  9
$DIMLFAC
 40
1.0
  9
$DIMTOFL
 70
     1
  9
$DIMTVP
 40
0.0
  9
$DIMTIX
 70
     0
  9
$DIMSOXD
 70
     0
  9
$DIMSAH
 70
     0
  9
$DIMBLK1
  1

  9
$DIMBLK2
  1

  9
$DIMSTYLE
  2
ISO-25
  9
$DIMCLRD
 70
     0
  9
$DIMCLRE
 70
     0
  9
$DIMCLRT
 70
     0
  9
$DIMTFAC
 40
1.0
  9
$DIMGAP
 40
0.625
  9
$DIMJUST
 70
     0
  9
$DIMSD1
 70
     0
  9
$DIMSD2
 70
     0
  9
$DIMTOLJ
 70
     0
  9
$DIMTZIN
 70
     8
  9
$DIMALTZ
 70
     0
  9
$DIMALTTZ
 70
     0
  9
$DIMUPT
 70
     0
  9
$DIMDEC
 70
     2
  9
$DIMTDEC
 70
     2
  9
$DIMALTU
 70
     2
  9
$DIMALTTD
 70
     3
  9
$DIMTXSTY
  7
Standard
  9
$DIMAUNIT
 70
     0
  9
$DIMADEC
 70
     0
  9
$DIMALTRND
 40
0.0
  9
$DIMAZIN
 70
     0
  9
$DIMDSEP
 70
    44
  9
$DIMATFIT
 70
     3
  9
$DIMFRAC
 70
     0
  9
$DIMLDRBLK
  1

  9
$DIMLUNIT
 70
     2
  9
$DIMLWD
 70
    -2
  9
$DIMLWE
 70
    -2
  9
$DIMTMOVE
 70
     0
  9
$LUNITS
 70
     2
  9
$LUPREC
 70
     4
  9
$SKETCHINC
 40
1.0
  9
$FILLETRAD
 40
10.0
  9
$AUNITS
 70
     0
  9
$AUPREC
 70
     0
  9
$MENU
  1
.
  9
$ELEVATION
 40
0.0
  9
$PELEVATION
 40
0.0
  9
$THICKNESS
 40
0.0
  9
$LIMCHECK
 70
     0
  9
$CHAMFERA
 40
10.0
  9
$CHAMFERB
 40
10.0
  9
$CHAMFERC
 40
20.0
  9
$CHAMFERD
 40
0.0
  9
$SKPOLY
 70
     0
  9
$TDCREATE
 40
2457564.612644329
  9
$TDUCREATE
 40
2457564.529310995
  9
$TDUPDATE
 40
2457564.612645776
  9
$TDUUPDATE
 40
2457564.529312442
  9
$TDINDWG
 40
0.0000000116
  9
$TDUSRTIMER
 40
0.0000000116
  9
$USRTIMER
 70
     1
  9
$ANGBASE
 50
0.0
  9
$ANGDIR
 70
     0
  9
$PDMODE
 70
     0
  9
$PDSIZE
 40
0.0
  9
$PLINEWID
 40
0.0
  9
$SPLFRAME
 70
     0
  9
$SPLINETYPE
 70
     6
  9
$SPLINESEGS
 70
     8
  9
$HANDSEED
  5
1AC
  9
$SURFTAB1
 70
     6
  9
$SURFTAB2
 70
     6
  9
$SURFTYPE
 70
     6
  9
$SURFU
 70
     6
  9
$SURFV
 70
     6
  9
$UCSBASE
  2

  9
$UCSNAME
  2

  9
$UCSORG
 10
0.0
 20
0.0
 30
0.0
  9
$UCSXDIR
 10
1.0
 20
0.0
 30
0.0
  9
$UCSYDIR
 10
0.0
 20
1.0
 30
0.0
  9
$UCSORTHOREF
  2

  9
$UCSORTHOVIEW
 70
     0
  9
$UCSORGTOP
 10
0.0
 20
0.0
 30
0.0
  9
$UCSORGBOTTOM
 10
0.0
 20
0.0
 30
0.0
  9
$UCSORGLEFT
 10
0.0
 20
0.0
 30
0.0
  9
$UCSORGRIGHT
 10
0.0
 20
0.0
 30
0.0
  9
$UCSORGFRONT
 10
0.0
 20
0.0
 30
0.0
  9
$UCSORGBACK
 10
0.0
 20
0.0
 30
0.0
  9
$PUCSBASE
  2

  9
$PUCSNAME
  2

  9
$PUCSORG
 10
0.0
 20
0.0
 30
0.0
  9
$PUCSXDIR
 10
1.0
 20
0.0
 30
0.0
  9
$PUCSYDIR
 10
0.0
 20
1.0
 30
0.0
  9
$PUCSORTHOREF
  2

  9
$PUCSORTHOVIEW
 70
     0
  9
$PUCSORGTOP
 10
0.0
 20
0.0
 30
0.0
  9
$PUCSORGBOTTOM
 10
0.0
 20
0.0
 30
0.0
  9
$PUCSORGLEFT
 10
0.0
 20
0.0
 30
0.0
  9
$PUCSORGRIGHT
 10
0.0
 20
0.0
 30
0.0
  9
$PUCSORGFRONT
 10
0.0
 20
0.0
 30
0.0
  9
$PUCSORGBACK
 10
0.0
 20
0.0
 30
0.0
  9
$USERI1
 70
     0
  9
$USERI2
 70
     0
  9
$USERI3
 70
     0
  9
$USERI4
 70
     0
  9
$USERI5
 70
     0
  9
$USERR1
 40
0.0
  9
$USERR2
 40
0.0
  9
$USERR3
 40
0.0
  9
$USERR4
 40
0.0
  9
$USERR5
 40
0.0
  9
$WORLDVIEW
 70
     1
  9
$SHADEDGE
 70
     3
  9
$SHADEDIF
 70
    70
  9
$TILEMODE
 70
     1
  9
$MAXACTVP
 70
    64
  9
$PINSBASE
 10
0.0
 20
0.0
 30
0.0
  9
$PLIMCHECK
 70
     0
  9
$PEXTMIN
 10
0.0
 20
0.0
 30
0.0
  9
$PEXTMAX
 10
210.0
 20
297.0
 30
0.0
  9
$PLIMMIN
 10
0.0
 20
0.0
  9
$PLIMMAX
 10
210.0
 20
297.0
  9
$UNITMODE
 70
     0
  9
$VISRETAIN
 70
     1
  9
$PLINEGEN
 70
     0
  9
$PSLTSCALE
 70
     1
  9
$TREEDEPTH
 70
  3020
  9
$CMLSTYLE
  2
Standard
  9
$CMLJUST
 70
     0
  9
$CMLSCALE
 40
20.0
  9
$PROXYGRAPHICS
 70
     1
  9
$MEASUREMENT
 70
     1
  9
$CELWEIGHT
370
    -1
  9
$ENDCAPS
280
     0
  9
$JOINSTYLE
280
     0
  9
$LWDISPLAY
290
     0
  9
$INSUNITS
 70
     4
  9
$HYPERLINKBASE
  1

  9
$STYLESHEET
  1

  9
$XEDIT
290
     1
  9
$CEPSNTYPE
380
     0
  9
$PSTYLEMODE
290
     1
  9
$FINGERPRINTGUID
  2
{A44559FA-04C3-4DEE-8DF7-A32F2C05BA5E}
  9
$VERSIONGUID
  2
{FAEB1C32-E019-11D5-929B-00C0DF256EC4}
  9
$EXTNAMES
290
     1
  9
$PSVPSCALE
 40
0.0
  9
$OLESTARTUP
290
     0
  0
ENDSEC
  0
SECTION
  2
CLASSES
  0
CLASS
  1
ACDBDICTIONARYWDFLT
  2
AcDbDictionaryWithDefault
  3
ObjectDBX Classes
 90
        0
280
     0
281
     0
  0
CLASS
  1
VISUALSTYLE
  2
AcDbVisualStyle
  3
ObjectDBX Classes
 90
     4095
280
     0
281
     0
  0
CLASS
  1
MATERIAL
  2
AcDbMaterial
  3
ObjectDBX Classes
 90
     1153
280
     0
281
     0
  0
CLASS
  1
DICTIONARYVAR
  2
AcDbDictionaryVar
  3
ObjectDBX Classes
 90
        0
280
     0
281
     0
  0
CLASS
  1
ACDBPLACEHOLDER
  2
AcDbPlaceHolder
  3
ObjectDBX Classes
 90
        0
280
     0
281
     0
  0
CLASS
  1
LAYOUT
  2
AcDbLayout
  3
ObjectDBX Classes
 90
        0
280
     0
281
     0
  0
ENDSEC
  0
SECTION
  2
TABLES
  0
TABLE
  2
VPORT
  5
8
330
0
100
AcDbSymbolTable
 70
     1
  0
VPORT
  5
29
330
8
100
AcDbSymbolTableRecord
100
AcDbViewportTableRecord
  2
*Active
 70
     0
 10
0.0
 20
0.0
 11
1.0
 21
1.0
 12
344.1869158879
 22
148.5
 13
0.0
 23
0.0
 14
10.0
 24
10.0
 15
10.0
 25
10.0
 16
0.0
 26
0.0
 36
1.0
 17
0.0
 27
0.0
 37
0.0
 40
297.0
 41
1.9729729729
 42
50.0
 43
0.0
 44
0.0
 50
0.0
 51
0.0
 71
     0
 72
   100
 73
     1
 74
     3
 75
     0
 76
     0
 77
     0
 78
     0
281
     0
 65
     1
110
0.0
120
0.0
130
0.0
111
1.0
121
0.0
131
0.0
112
0.0
122
1.0
132
0.0
 79
     0
146
0.0
  0
ENDTAB
  0
TABLE
  2
LTYPE
  5
5
330
0
100
AcDbSymbolTable
 70
     2
  0
LTYPE
  5
14
330
5
100
AcDbSymbolTableRecord
100
AcDbLinetypeTableRecord
  2
ByBlock
 70
     0
  3

 72
    65
 73
     0
 40
0.0
  0
LTYPE
  5
15
330
5
100
AcDbSymbolTableRecord
100
AcDbLinetypeTableRecord
  2
ByLayer
 70
     0
  3

 72
    65
 73
     0
 40
0.0
  0
LTYPE
  5
16
330
5
100
AcDbSymbolTableRecord
100
AcDbLinetypeTableRecord
  2
Continuous
 70
     0
  3
Solid line
 72
    65
 73
     0
 40
0.0
  0
LTYPE
  5
40
330
5
100
AcDbSymbolTableRecord
100
AcDbLinetypeTableRecord
  2
HIDDEN2
 70
     0
  3
Hidden (.5x) _ _ _ _ _ _ _ _ _ _ _ _ _ _ _ _ _ 
 72
    65
 73
     2
 40
4.7625
 49
3.175
 74
     4
 75
     0
340
0
 46
0.0
 50
0.0
 44
0.0
 45
0.0
 49
-1.5875
 74
     4
 75
     0
340
0
 46
0.0
 50
0.0
 44
0.0
 45
0.0
  0
ENDTAB
  0
TABLE
  2
LAYER
  5
2
330
0
100
AcDbSymbolTable
 70
     5
  0
LAYER
  5
10
330
2
100
AcDbSymbolTableRecord
100
AcDbLayerTableRecord
  2
0
 70
     0
 62
     7
  6
Continuous
370
    -3
390
F
  0
LAYER
  5
3F
330
2
100
AcDbSymbolTableRecord
100
AcDbLayerTableRecord
  2
SK3
 70
     0
 62
     1
  6
HIDDEN2
370
    15
390
F
  0
LAYER
  5
42
330
2
100
AcDbSymbolTableRecord
100
AcDbLayerTableRecord
  2
SK1
 70
     0
 62
     4
  6
Continuous
370
    18
390
F
  0
LAYER
  5
128
330
2
100
AcDbSymbolTableRecord
100
AcDbLayerTableRecord
  2
SK4
 70
     0
 62
     2
  6
Continuous
370
    13
390
F
  0
LAYER
  5
12A
330
2
100
AcDbSymbolTableRecord
100
AcDbLayerTableRecord
  2
SK2
 70
     0
 62
     7
  6
Continuous
370
    15
390
F
  0
ENDTAB
  0
TABLE
  2
STYLE
  5
3
330
0
100
AcDbSymbolTable
 70
     2
  0
STYLE
  5
11
330
3
100
AcDbSymbolTableRecord
100
AcDbTextStyleTableRecord
  2
Standard
 70
     0
 40
0.0
 41
1.0
 50
0.0
 71
     0
 42
2.5
  3
txt
  4

  0
STYLE
  5
13D
330
3
100
AcDbSymbolTableRecord
100
AcDbTextStyleTableRecord
  2
SEACAD_Solid_Edge_ISO
 70
     0
 40
0.0
 41
1.0
 50
0.0
 71
     0
 42
0.2
  3
seiso.ttf
  4

1001
ACAD
1000
Solid Edge ISO
1071
        0
  0
ENDTAB
  0
TABLE
  2
VIEW
  5
6
330
0
100
AcDbSymbolTable
 70
     0
  0
ENDTAB
  0
TABLE
  2
UCS
  5
7
330
0
100
AcDbSymbolTable
 70
     0
  0
ENDTAB
  0
TABLE
  2
APPID
  5
9
330
0
100
AcDbSymbolTable
 70
     1
  0
APPID
  5
12
330
9
100
AcDbSymbolTableRecord
100
AcDbRegAppTableRecord
  2
ACAD
 70
     0
  0
ENDTAB
  0
TABLE
  2
DIMSTYLE
  5
A
330
0
100
AcDbSymbolTable
 70
     3
100
AcDbDimStyleTable
  0
DIMSTYLE
105
27
330
A
100
AcDbSymbolTableRecord
100
AcDbDimStyleTableRecord
  2
ISO-25
 70
     0
 41
2.5
 42
0.625
 43
3.75
 44
1.25
 73
     0
 74
     0
 77
     1
 78
     8
140
2.5
141
2.5
143
0.0393700787
147
0.625
171
     3
172
     1
178
     0
271
     2
272
     2
274
     3
278
    44
283
     0
284
     8
340
11
  0
DIMSTYLE
105
12B
330
A
100
AcDbSymbolTableRecord
100
AcDbDimStyleTableRecord
  2
Standard
 70
     0
178
     0
340
11
  0
DIMSTYLE
105
13E
102
{ACAD_REACTORS
330
13F
330
149
330
154
330
15E
102
}
330
A
100
AcDbSymbolTableRecord
100
AcDbDimStyleTableRecord
  2
DIN
 70
     0
 41
3.5
 42
0.0
 44
1.75
 73
     0
 74
     0
 77
     1
 78
     8
140
3.5
141
1.75
147
1.75
172
     1
173
     1
178
     0
179
     3
271
     2
272
     2
278
    44
284
     8
340
13D
343
138
344
138
  0
ENDTAB
  0
TABLE
  2
BLOCK_RECORD
  5
1
330
0
100
AcDbSymbolTable
 70
    10
  0
BLOCK_RECORD
  5
1F
330
1
100
AcDbSymbolTableRecord
100
AcDbBlockTableRecord
  2
*Model_Space
340
22
  0
BLOCK_RECORD
  5
1B
330
1
100
AcDbSymbolTableRecord
100
AcDbBlockTableRecord
  2
*Paper_Space
340
1E
  0
BLOCK_RECORD
  5
12C
330
1
100
AcDbSymbolTableRecord
100
AcDbBlockTableRecord
  2
_OBLIQUE
340
0
  0
BLOCK_RECORD
  5
130
330
1
100
AcDbSymbolTableRecord
100
AcDbBlockTableRecord
  2
_DOT
340
0
  0
BLOCK_RECORD
  5
138
330
1
100
AcDbSymbolTableRecord
100
AcDbBlockTableRecord
  2
_SE_FILLED
340
0
  0
BLOCK_RECORD
  5
140
330
1
100
AcDbSymbolTableRecord
100
AcDbBlockTableRecord
  2
DMBLK191
340
0
  0
BLOCK_RECORD
  5
14A
330
1
100
AcDbSymbolTableRecord
100
AcDbBlockTableRecord
  2
DMBLK192
340
0
  0
BLOCK_RECORD
  5
155
330
1
100
AcDbSymbolTableRecord
100
AcDbBlockTableRecord
  2
DMBLK193
340
0
  0
BLOCK_RECORD
  5
15F
330
1
100
AcDbSymbolTableRecord
100
AcDbBlockTableRecord
  2
DMBLK194
340
0
  0
BLOCK_RECORD
  5
169
330
1
100
AcDbSymbolTableRecord
100
AcDbBlockTableRecord
  2
Nullpunkt
340
0
102
{BLKREFS
331
173
102
}
  0
BLOCK_RECORD
  5
174
330
1
100
AcDbSymbolTableRecord
100
AcDbBlockTableRecord
  2
Einfügepunkt
340
0
102
{BLKREFS
331
17E
102
}
  0
ENDTAB
  0
ENDSEC
  0
SECTION
  2
BLOCKS
  0
BLOCK
  5
20
330
1F
100
AcDbEntity
  8
0
100
AcDbBlockBegin
  2
*Model_Space
 70
     0
 10
0.0
 20
0.0
 30
0.0
  3
*Model_Space
  1

  0
ENDBLK
  5
21
330
1F
100
AcDbEntity
  8
0
100
AcDbBlockEnd
  0
BLOCK
  5
1C
330
1B
100
AcDbEntity
 67
     1
  8
0
100
AcDbBlockBegin
  2
*Paper_Space
 70
     0
 10
0.0
 20
0.0
 30
0.0
  3
*Paper_Space
  1

  0
ENDBLK
  5
1D
330
1B
100
AcDbEntity
 67
     1
  8
0
100
AcDbBlockEnd
  0
BLOCK
  5
12D
330
12C
100
AcDbEntity
  8
0
100
AcDbBlockBegin
  2
_OBLIQUE
 70
     0
 10
0.0
 20
0.0
 30
0.0
  3
_OBLIQUE
  1

  0
LINE
  5
12F
330
12C
100
AcDbEntity
  8
0
  6
ByBlock
 62
     0
370
    -2
100
AcDbLine
 10
-0.5
 20
-0.5
 30
0.0
 11
0.5
 21
0.5
 31
0.0
  0
ENDBLK
  5
12E
330
12C
100
AcDbEntity
  8
0
100
AcDbBlockEnd
  0
BLOCK
  5
131
330
130
100
AcDbEntity
  8
0
100
AcDbBlockBegin
  2
_DOT
 70
     0
 10
0.0
 20
0.0
 30
0.0
  3
_DOT
  1

  0
POLYLINE
  5
133
330
130
100
AcDbEntity
  8
0
  6
ByBlock
 62
     0
100
AcDb2dPolyline
 66
     1
 10
0.0
 20
0.0
 30
0.0
 70
     1
 40
0.5
 41
0.5
  0
VERTEX
  5
135
330
133
100
AcDbEntity
  8
0
  6
ByBlock
 62
     0
100
AcDbVertex
100
AcDb2dVertex
 10
-0.25
 20
0.0
 30
0.0
 42
1.0
  0
VERTEX
  5
136
330
133
100
AcDbEntity
  8
0
  6
ByBlock
 62
     0
100
AcDbVertex
100
AcDb2dVertex
 10
0.25
 20
0.0
 30
0.0
 42
1.0
  0
SEQEND
  5
137
330
133
100
AcDbEntity
  8
0
  6
ByBlock
 62
     0
  0
LINE
  5
134
330
130
100
AcDbEntity
  8
0
  6
ByBlock
 62
     0
370
    -2
100
AcDbLine
 10
-0.5
 20
0.0
 30
0.0
 11
-1.0
 21
0.0
 31
0.0
  0
ENDBLK
  5
132
330
130
100
AcDbEntity
  8
0
100
AcDbBlockEnd
  0
BLOCK
  5
13B
330
138
100
AcDbEntity
  8
0
100
AcDbBlockBegin
  2
_SE_FILLED
 70
     0
 10
0.0
 20
0.0
 30
0.0
  3
_SE_FILLED
  1

  0
SOLID
  5
139
330
138
100
AcDbEntity
  8
0
 62
     0
100
AcDbTrace
 10
0.0
 20
0.0
 30
0.0
 11
-1.0
 21
-0.1665
 31
0.0
 12
-1.0
 22
0.1665
 32
0.0
 13
0.0
 23
0.0
 33
0.0
  0
LINE
  5
13A
330
138
100
AcDbEntity
  8
0
 62
     0
100
AcDbLine
 10
0.0
 20
0.0
 30
0.0
 11
-1.0
 21
0.0
 31
0.0
  0
ENDBLK
  5
13C
330
138
100
AcDbEntity
  8
0
100
AcDbBlockEnd
  0
BLOCK
  5
147
330
140
100
AcDbEntity
  8
0
100
AcDbBlockBegin
  2
DMBLK191
 70
     0
 10
0.0
 20
0.0
 30
0.0
  3
DMBLK191
  1

  0
HATCH
  5
141
330
140
100
AcDbEntity
  8
SK2
  6
Continuous
 62
   136
100
AcDbHatch
 10
0.0
 20
0.0
 30
0.0
210
0.0
220
0.0
230
1.0
  2
SOLID
 70
     1
 71
     0
 91
        1
 92
        1
 93
        3
 72
     1
 10
-16.83999989199152
 20
18.95916878399117
 11
-20.34000000002494
 21
18.37583543265227
 72
     1
 10
-20.34000000002494
 20
18.37583543265227
 11
-16.83999989199152
 21
17.79250208131336
 72
     1
 10
-16.83999989199152
 20
17.79250208131336
 11
-16.83999989199152
 21
18.95916878399117
 97
        0
 75
     0
 76
     1
 98
        0
  0
HATCH
  5
142
330
140
100
AcDbEntity
  8
SK2
  6
Continuous
 62
   136
100
AcDbHatch
 10
0.0
 20
0.0
 30
0.0
210
0.0
220
0.0
230
1.0
  2
SOLID
 70
     1
 71
     0
 91
        1
 92
        1
 93
        3
 72
     1
 10
7.660000398581123
 20
18.95916878399117
 11
7.660000398581123
 21
17.79250208131336
 72
     1
 10
7.660000398581123
 20
17.79250208131336
 11
11.16000050661454
 21
18.37583543265227
 72
     1
 10
11.16000050661454
 20
18.37583543265227
 11
7.660000398581124
 21
18.95916878399117
 97
        0
 75
     0
 76
     1
 98
        0
  0
LINE
  5
143
330
140
100
AcDbEntity
  8
SK2
  6
Continuous
 62
   136
100
AcDbLine
 10
-20.34
 20
6.9607549161
 30
0.0
 11
-20.34
 21
20.1258354867
 31
0.0
  0
LINE
  5
144
330
140
100
AcDbEntity
  8
SK2
  6
Continuous
 62
   136
100
AcDbLine
 10
11.16
 20
7.0254540846
 30
0.0
 11
11.16
 21
20.1258354867
 31
0.0
  0
LINE
  5
145
330
140
100
AcDbEntity
  8
SK2
  6
Continuous
 62
   136
100
AcDbLine
 10
-20.34
 20
18.3758354327
 30
0.0
 11
11.1600005066
 21
18.3758354327
 31
0.0
  0
TEXT
  5
146
330
140
100
AcDbEntity
  8
SK2
  6
Continuous
 62
   136
100
AcDbText
 10
-7.5331815649
 20
19.2508354327
 30
0.0
 40
3.5
  1
31,5
  7
SEACAD_Solid_Edge_ISO
 11
-7.5331815649
 21
22.7508354327
 31
0.0
100
AcDbText
 73
     3
  0
ENDBLK
  5
148
330
140
100
AcDbEntity
  8
0
100
AcDbBlockEnd
  0
BLOCK
  5
152
330
14A
100
AcDbEntity
  8
0
100
AcDbBlockBegin
  2
DMBLK192
 70
     0
 10
0.0
 20
0.0
 30
0.0
  3
DMBLK192
  1

  0
HATCH
  5
14B
330
14A
100
AcDbEntity
  8
SK2
  6
Continuous
 62
   136
100
AcDbHatch
 10
0.0
 20
0.0
 30
0.0
210
0.0
220
0.0
230
1.0
  2
SOLID
 70
     1
 71
     0
 91
        1
 92
        1
 93
        3
 72
     1
 10
21.09616824656725
 20
9.85000010803349
 11
19.92950154388944
 21
9.85000010803349
 72
     1
 10
19.92950154388944
 20
9.85000010803349
 11
20.51283489522835
 21
6.350000000000071
 72
     1
 10
20.51283489522835
 20
6.350000000000071
 11
21.09616824656725
 21
9.85000010803349
 97
        0
 75
     0
 76
     1
 98
        0
  0
HATCH
  5
14C
330
14A
100
AcDbEntity
  8
SK2
  6
Continuous
 62
   136
100
AcDbHatch
 10
0.0
 20
0.0
 30
0.0
210
0.0
220
0.0
230
1.0
  2
SOLID
 70
     1
 71
     0
 91
        1
 92
        1
 93
        3
 72
     1
 10
21.09616824656725
 20
-9.850000108033345
 11
20.51283489522835
 21
-6.349999999999927
 72
     1
 10
20.51283489522835
 20
-6.349999999999927
 11
19.92950154388944
 21
-9.850000108033345
 72
     1
 10
19.92950154388944
 20
-9.850000108033345
 11
21.09616824656725
 21
-9.850000108033345
 97
        0
 75
     0
 76
     1
 98
        0
  0
LINE
  5
14D
330
14A
100
AcDbEntity
  8
SK2
  6
Continuous
 62
   136
100
AcDbLine
 10
11.16
 20
6.35
 30
0.0
 11
22.2628349492
 21
6.35
 31
0.0
  0
LINE
  5
14E
330
14A
100
AcDbEntity
  8
SK2
  6
Continuous
 62
   136
100
AcDbLine
 10
11.16
 20
-6.35
 30
0.0
 11
22.2628349492
 21
-6.35
 31
0.0
  0
LINE
  5
14F
330
14A
100
AcDbEntity
  8
SK2
  6
Continuous
 62
   136
100
AcDbLine
 10
20.5128348952
 20
22.9659085929
 30
0.0
 11
20.5128348952
 21
-13.3500000626
 31
0.0
  0
TEXT
  5
150
330
14A
100
AcDbEntity
  8
SK2
  6
Continuous
 62
   136
100
AcDbText
 10
19.6378348952
 20
15.2977273588
 30
0.0
 40
3.5
  1
12,7
 50
90.0
  7
SEACAD_Solid_Edge_ISO
 11
16.1378348952
 21
15.2977273588
 31
0.0
100
AcDbText
 73
     3
  0
TEXT
  5
151
330
14A
100
AcDbEntity
  8
SK2
  6
Continuous
 62
   136
100
AcDbText
 10
19.6378348952
 20
11.2250000861
 30
0.0
 40
3.5
  1
ø
 50
90.0
  7
SEACAD_Solid_Edge_ISO
 11
16.1378348952
 21
11.2250000861
 31
0.0
100
AcDbText
 73
     3
  0
ENDBLK
  5
153
330
14A
100
AcDbEntity
  8
0
100
AcDbBlockEnd
  0
BLOCK
  5
15C
330
155
100
AcDbEntity
  8
0
100
AcDbBlockBegin
  2
DMBLK193
 70
     0
 10
0.0
 20
0.0
 30
0.0
  3
DMBLK193
  1

  0
HATCH
  5
156
330
155
100
AcDbEntity
  8
SK2
  6
Continuous
 62
   136
100
AcDbHatch
 10
0.0
 20
0.0
 30
0.0
210
0.0
220
0.0
230
1.0
  2
SOLID
 70
     1
 71
     0
 91
        1
 92
        1
 93
        3
 72
     1
 10
-3.500000108033418
 20
-18.22741403397074
 11
0.0000000000000009
 21
-17.64408068263184
 72
     1
 10
0.0000000000000009
 20
-17.64408068263184
 11
-3.500000108033418
 21
-17.06074733129293
 72
     1
 10
-3.500000108033418
 20
-17.06074733129293
 11
-3.500000108033418
 21
-18.22741403397074
 97
        0
 75
     0
 76
     1
 98
        0
  0
HATCH
  5
157
330
155
100
AcDbEntity
  8
SK2
  6
Continuous
 62
   136
100
AcDbHatch
 10
0.0
 20
0.0
 30
0.0
210
0.0
220
0.0
230
1.0
  2
SOLID
 70
     1
 71
     0
 91
        1
 92
        1
 93
        3
 72
     1
 10
14.66000010803003
 20
-18.22741403397074
 11
14.66000010803003
 21
-17.06074733129293
 72
     1
 10
14.66000010803003
 20
-17.06074733129293
 11
11.15999999999661
 21
-17.64408068263184
 72
     1
 10
11.15999999999661
 20
-17.64408068263184
 11
14.66000010803003
 21
-18.22741403397074
 97
        0
 75
     0
 76
     1
 98
        0
  0
LINE
  5
158
330
155
100
AcDbEntity
  8
SK2
  6
Continuous
 62
   136
100
AcDbLine
 10
0.0
 20
-9.9996746285
 30
0.0
 11
0.0
 21
-19.3940807366
 31
0.0
  0
LINE
  5
159
330
155
100
AcDbEntity
  8
SK2
  6
Continuous
 62
   136
100
AcDbLine
 10
11.16
 20
-7.0254540846
 30
0.0
 11
11.16
 21
-19.3940807366
 31
0.0
  0
LINE
  5
15A
330
155
100
AcDbEntity
  8
SK2
  6
Continuous
 62
   136
100
AcDbLine
 10
-7.0000002161
 20
-17.6440806826
 30
0.0
 11
18.1600004435
 21
-17.6440806826
 31
0.0
  0
TEXT
  5
15B
330
155
100
AcDbEntity
  8
SK2
  6
Continuous
 62
   136
100
AcDbText
 10
2.0402273864
 20
-16.7690806826
 30
0.0
 40
3.5
  1
11,16
  7
SEACAD_Solid_Edge_ISO
 11
2.0402273864
 21
-13.2690806826
 31
0.0
100
AcDbText
 73
     3
  0
ENDBLK
  5
15D
330
155
100
AcDbEntity
  8
0
100
AcDbBlockEnd
  0
BLOCK
  5
167
330
15F
100
AcDbEntity
  8
0
100
AcDbBlockBegin
  2
DMBLK194
 70
     0
 10
0.0
 20
0.0
 30
0.0
  3
DMBLK194
  1

  0
HATCH
  5
160
330
15F
100
AcDbEntity
  8
SK2
  6
Continuous
 62
   136
100
AcDbHatch
 10
0.0
 20
0.0
 30
0.0
210
0.0
220
0.0
230
1.0
  2
SOLID
 70
     1
 71
     0
 91
        1
 92
        1
 93
        3
 72
     1
 10
-26.68586691531042
 20
6.499674520429627
 11
-25.51920021263262
 21
6.499674520429627
 72
     1
 10
-25.51920021263262
 20
6.499674520429627
 11
-26.10253356397152
 21
9.999674628463046
 72
     1
 10
-26.10253356397152
 20
9.999674628463046
 11
-26.68586691531042
 21
6.499674520429627
 97
        0
 75
     0
 76
     1
 98
        0
  0
HATCH
  5
161
330
15F
100
AcDbEntity
  8
SK2
  6
Continuous
 62
   136
100
AcDbHatch
 10
0.0
 20
0.0
 30
0.0
210
0.0
220
0.0
230
1.0
  2
SOLID
 70
     1
 71
     0
 91
        1
 92
        1
 93
        3
 72
     1
 10
-26.68586691531042
 20
-6.499674753311618
 11
-26.10253356397152
 21
-9.999674861345037
 72
     1
 10
-26.10253356397152
 20
-9.999674861345037
 11
-25.51920021263262
 21
-6.499674753311618
 72
     1
 10
-25.51920021263262
 20
-6.499674753311618
 11
-26.68586691531042
 21
-6.499674753311618
 97
        0
 75
     0
 76
     1
 98
        0
  0
LINE
  5
162
330
15F
100
AcDbEntity
  8
SK2
  6
Continuous
 62
   136
100
AcDbLine
 10
0.0
 20
9.9996746285
 30
0.0
 11
-27.852533618
 21
9.9996746285
 31
0.0
  0
LINE
  5
163
330
15F
100
AcDbEntity
  8
SK2
  6
Continuous
 62
   136
100
AcDbLine
 10
0.0
 20
-9.9996746285
 30
0.0
 11
-27.852533618
 21
-9.9996746285
 31
0.0
  0
LINE
  5
164
330
15F
100
AcDbEntity
  8
SK2
  6
Continuous
 62
   136
100
AcDbLine
 10
-26.102533564
 20
9.9996746285
 30
0.0
 11
-26.102533564
 21
-9.9996748613
 31
0.0
  0
TEXT
  5
165
330
15F
100
AcDbEntity
  8
SK2
  6
Continuous
 62
   136
100
AcDbText
 10
-26.977533564
 20
-0.0715910255
 30
0.0
 40
3.5
  1
20
 50
90.0
  7
SEACAD_Solid_Edge_ISO
 11
-30.477533564
 21
-0.0715910255
 31
0.0
100
AcDbText
 73
     3
  0
TEXT
  5
166
330
15F
100
AcDbEntity
  8
SK2
  6
Continuous
 62
   136
100
AcDbText
 10
-26.977533564
 20
-4.1443182983
 30
0.0
 40
3.5
  1
ø
 50
90.0
  7
SEACAD_Solid_Edge_ISO
 11
-30.477533564
 21
-4.1443182983
 31
0.0
100
AcDbText
 73
     3
  0
ENDBLK
  5
168
330
15F
100
AcDbEntity
  8
0
100
AcDbBlockEnd
  0
BLOCK
  5
171
330
169
100
AcDbEntity
  8
0
100
AcDbBlockBegin
  2
Nullpunkt
 70
     0
 10
0.0
 20
0.0
 30
0.0
  3
Nullpunkt
  1

  0
HATCH
  5
16A
330
169
100
AcDbEntity
  8
SK2
  6
Continuous
 62
     7
100
AcDbHatch
 10
0.0
 20
0.0
 30
0.0
210
0.0
220
0.0
230
1.0
  2
SOLID
 70
     1
 71
     0
 91
        1
 92
        1
 93
        3
 72
     1
 10
-1.0
 20
0.0
 11
0.0000000000000009
 21
0.0
 72
     1
 10
0.0
 20
0.0
 11
0.0
 21
1.000000000000001
 72
     2
 10
0.0
 20
0.0
 40
1.0
 50
90.0
 51
180.0
 73
     1
 97
        0
 75
     0
 76
     1
 98
        0
  0
HATCH
  5
16B
330
169
100
AcDbEntity
  8
SK2
  6
Continuous
 62
     7
100
AcDbHatch
 10
0.0
 20
0.0
 30
0.0
210
0.0
220
0.0
230
1.0
  2
SOLID
 70
     1
 71
     0
 91
        1
 92
        1
 93
        3
 72
     2
 10
0.0
 20
0.0
 40
1.0
 50
270.0
 51
360.0
 73
     1
 72
     1
 10
1.0
 20
0.0
 11
-0.0000000000000009
 21
0.0
 72
     1
 10
0.0
 20
0.0
 11
0.0
 21
-1.000000000000001
 97
        0
 75
     0
 76
     1
 98
        0
  0
CIRCLE
  5
16C
330
169
100
AcDbEntity
  8
SK2
  6
Continuous
 62
     7
100
AcDbCircle
 10
0.0
 20
0.0
 30
0.0
 40
1.0
  0
LINE
  5
16D
330
169
100
AcDbEntity
  8
SK1
  6
Continuous
100
AcDbLine
 10
-1.0
 20
0.0
 30
0.0
 11
1.0
 21
0.0
 31
0.0
  0
LINE
  5
16E
330
169
100
AcDbEntity
  8
SK1
  6
Continuous
100
AcDbLine
 10
0.0
 20
1.0
 30
0.0
 11
0.0
 21
-1.0
 31
0.0
  0
POINT
  5
16F
330
169
100
AcDbEntity
  8
SK1
  6
Continuous
100
AcDbPoint
 10
0.0
 20
0.0
 30
0.0
  0
POINT
  5
170
330
169
100
AcDbEntity
  8
SK1
  6
Continuous
100
AcDbPoint
 10
0.0
 20
0.0
 30
0.0
  0
ENDBLK
  5
172
330
169
100
AcDbEntity
  8
0
100
AcDbBlockEnd
  0
BLOCK
  5
17C
330
174
100
AcDbEntity
  8
0
100
AcDbBlockBegin
  2
Einfügepunkt
 70
     0
 10
0.0
 20
0.0
 30
0.0
  3
Einfügepunkt
  1

  0
HATCH
  5
175
330
174
100
AcDbEntity
  8
SK2
  6
Continuous
 62
     7
100
AcDbHatch
 10
0.0
 20
0.0
 30
0.0
210
0.0
220
0.0
230
1.0
  2
SOLID
 70
     1
 71
     0
 91
        1
 92
        1
 93
        3
 72
     1
 10
-0.4502381196756744
 20
-0.0000000000000018
 11
0.0000000000000033
 21
-0.0000000000000018
 72
     1
 10
0.0
 20
-0.0000000000000018
 11
0.0
 21
0.4502381196756812
 72
     2
 10
0.0
 20
-0.0000000000000018
 40
0.4502381196756812
 50
90.0
 51
180.0
 73
     1
 97
        0
 75
     0
 76
     1
 98
        0
  0
HATCH
  5
176
330
174
100
AcDbEntity
  8
SK2
  6
Continuous
 62
     7
100
AcDbHatch
 10
0.0
 20
0.0
 30
0.0
210
0.0
220
0.0
230
1.0
  2
SOLID
 70
     1
 71
     0
 91
        1
 92
        1
 93
        3
 72
     2
 10
0.0
 20
-0.0000000000000018
 40
0.4502381196756812
 50
270.0
 51
360.0
 73
     1
 72
     1
 10
0.4502381196756815
 20
-0.0000000000000018
 11
0.0000000000000038
 21
-0.0000000000000018
 72
     1
 10
0.0
 20
-0.0000000000000018
 11
0.0
 21
-0.4502381196756812
 97
        0
 75
     0
 76
     1
 98
        0
  0
CIRCLE
  5
177
330
174
100
AcDbEntity
  8
SK2
  6
Continuous
 62
     7
100
AcDbCircle
 10
0.0
 20
0.0
 30
0.0
 40
0.4502381196756812
  0
LINE
  5
178
330
174
100
AcDbEntity
  8
SK1
  6
Continuous
100
AcDbLine
 10
-0.4502381197
 20
0.0
 30
0.0
 11
0.4502381197
 21
0.0
 31
0.0
  0
LINE
  5
179
330
174
100
AcDbEntity
  8
SK1
  6
Continuous
100
AcDbLine
 10
0.0
 20
0.4502381197
 30
0.0
 11
0.0
 21
-0.4502381197
 31
0.0
  0
POINT
  5
17A
330
174
100
AcDbEntity
  8
SK2
  6
Continuous
 62
     7
100
AcDbPoint
 10
0.0
 20
0.0
 30
0.0
  0
POINT
  5
17B
330
174
100
AcDbEntity
  8
SK2
  6
Continuous
 62
     7
100
AcDbPoint
 10
0.0
 20
0.0
 30
0.0
  0
ENDBLK
  5
17D
330
174
100
AcDbEntity
  8
0
100
AcDbBlockEnd
  0
ENDSEC
  0
SECTION
  2
ENTITIES
  0
LINE
  5
41
330
1F
100
AcDbEntity
  8
SK3
100
AcDbLine
 10
-18.8386154541
 20
0.3
 30
0.0
 11
-18.8386154541
 21
4.272982234
 31
0.0
  0
LINE
  5
43
330
1F
100
AcDbEntity
  8
SK1
  6
Continuous
100
AcDbLine
 10
-20.34
 20
0.3
 30
0.0
 11
-20.34
 21
4.7098649479
 31
0.0
  0
LINE
  5
44
330
1F
100
AcDbEntity
  8
SK1
  6
Continuous
100
AcDbLine
 10
-20.1678346202
 20
0.3
 30
0.0
 11
-20.1678346202
 21
4.8500364097
 31
0.0
  0
LINE
  5
45
330
1F
100
AcDbEntity
  8
SK1
  6
Continuous
100
AcDbLine
 10
-20.1678346202
 20
-0.3
 30
0.0
 11
-3.1363957032
 21
-0.3
 31
0.0
  0
LINE
  5
46
330
1F
100
AcDbEntity
  8
SK1
  6
Continuous
100
AcDbLine
 10
-20.1678346202
 20
0.3
 30
0.0
 11
-3.1363957032
 21
0.3
 31
0.0
  0
LINE
  5
47
330
1F
100
AcDbEntity
  8
SK1
  6
Continuous
100
AcDbLine
 10
-20.34
 20
0.3
 30
0.0
 11
-20.1678346202
 21
0.3
 31
0.0
  0
LINE
  5
48
330
1F
100
AcDbEntity
  8
SK1
  6
Continuous
100
AcDbLine
 10
-20.34
 20
-0.3
 30
0.0
 11
-20.1678346202
 21
-0.3
 31
0.0
  0
LINE
  5
49
330
1F
100
AcDbEntity
  8
SK3
100
AcDbLine
 10
-3.1363957032
 20
-0.3
 30
0.0
 11
-2.722493124
 21
-0.3
 31
0.0
  0
ARC
  5
4A
330
1F
100
AcDbEntity
  8
SK1
  6
Continuous
100
AcDbCircle
 10
-3.1400087408
 20
0.0
 30
0.0
 40
0.3000217559456842
100
AcDbArc
 50
270.6900059939
 51
89.3099940061
  0
ARC
  5
4B
330
1F
100
AcDbEntity
  8
SK3
100
AcDbCircle
 10
-2.7216194755
 20
0.0
 30
0.0
 40
0.3000012721002061
100
AcDbArc
 50
269.8331458945
 51
90.1668541055
  0
SPLINE
  5
4C
330
1F
100
AcDbEntity
  8
SK3
100
AcDbSpline
210
0.0
220
0.0
230
1.0
 70
     8
 71
     3
 72
     8
 73
     4
 74
     0
 42
0.0000001491141599
 43
0.0000000001
 12
1.0
 22
0.0
 32
0.0
 13
1.0
 23
0.0
 33
0.0
 40
0.0
 40
0.0
 40
0.0
 40
0.0
 40
1.0
 40
1.0
 40
1.0
 40
1.0
 10
-15.51073555964831
 20
2.430039795518393
 30
0.0
 10
-15.51073555964831
 20
2.452228211232472
 30
0.0
 10
-15.50776869478098
 20
2.474580798692422
 30
0.0
 10
-15.50201044321111
 20
2.496151106651739
 30
0.0
  0
SPLINE
  5
4D
330
1F
100
AcDbEntity
  8
SK3
100
AcDbSpline
210
0.0
220
0.0
230
1.0
 70
     8
 71
     3
 72
     8
 73
     4
 74
     0
 42
0.0000002497148553
 43
0.0000000001
 12
1.0
 22
0.0
 32
0.0
 13
1.0
 23
0.0
 33
0.0
 40
0.0
 40
0.0
 40
0.0
 40
0.0
 40
1.0
 40
1.0
 40
1.0
 40
1.0
 10
-15.31151467035696
 20
3.119470690332103
 30
0.0
 10
-15.31752312394631
 20
3.10748804092009
 30
0.0
 10
-15.32265335338491
 20
3.095117185942771
 30
0.0
 10
-15.32682182060249
 20
3.082541483906993
 30
0.0
  0
LINE
  5
4E
330
1F
100
AcDbEntity
  8
SK3
100
AcDbLine
 10
-2.722493124
 20
0.3
 30
0.0
 11
-3.1363957032
 21
0.3
 31
0.0
  0
LINE
  5
4F
330
1F
100
AcDbEntity
  8
SK1
  6
Continuous
100
AcDbLine
 10
11.16
 20
7.255064144
 30
0.0
 11
11.16
 21
7.7343811406
 31
0.0
  0
LINE
  5
50
330
1F
100
AcDbEntity
  8
SK1
  6
Continuous
100
AcDbLine
 10
-20.1678346202
 20
-4.8500364097
 30
0.0
 11
-20.1678346202
 21
-0.3
 31
0.0
  0
SPLINE
  5
51
330
1F
100
AcDbEntity
  8
SK1
  6
Continuous
100
AcDbSpline
210
0.0
220
0.0
230
1.0
 70
     8
 71
     3
 72
    11
 73
     7
 74
     0
 42
0.0000000005842677
 43
0.0000000001
 12
1.0
 22
0.0
 32
0.0
 13
1.0
 23
0.0
 33
0.0
 40
0.0
 40
0.0
 40
0.0
 40
0.0
 40
0.7314086246724171
 40
0.7314086246724171
 40
0.7314086246724171
 40
1.0
 40
1.0
 40
1.0
 40
1.0
 10
-20.16783462021685
 20
-5.274300478451004
 30
0.0
 10
-16.01553855294319
 20
-5.687306926317957
 30
0.0
 10
-11.86322587006044
 20
-6.1002298504587
 30
0.0
 10
-7.710904765646037
 20
-6.513110419201313
 30
0.0
 10
-6.186069538391882
 20
-6.66473039753058
 30
0.0
 10
-4.661233108340795
 20
-6.816344327702214
 30
0.0
 10
-3.136395703209659
 20
-6.967953354223229
 30
0.0
  0
SPLINE
  5
52
330
1F
100
AcDbEntity
  8
SK1
  6
Continuous
100
AcDbSpline
210
0.0
220
0.0
230
1.0
 70
     8
 71
     3
 72
    11
 73
     7
 74
     0
 42
0.0000000005842677
 43
0.0000000001
 12
1.0
 22
0.0
 32
0.0
 13
1.0
 23
0.0
 33
0.0
 40
0.0
 40
0.0
 40
0.0
 40
0.0
 40
0.7314086246724171
 40
0.7314086246724171
 40
0.7314086246724171
 40
1.0
 40
1.0
 40
1.0
 40
1.0
 10
-20.16783462021685
 20
-4.850036409739078
 30
0.0
 10
-16.01553855294319
 20
-5.263042857606028
 30
0.0
 10
-11.86322587006044
 20
-5.67596578174677
 30
0.0
 10
-7.710904765646037
 20
-6.088846350489385
 30
0.0
 10
-6.186069538391882
 20
-6.240466328818651
 30
0.0
 10
-4.661233108340795
 20
-6.392080258990284
 30
0.0
 10
-3.136395703209659
 20
-6.543689285511301
 30
0.0
  0
LINE
  5
53
330
1F
100
AcDbEntity
  8
SK1
  6
Continuous
100
AcDbLine
 10
-20.34
 20
-4.7098649479
 30
0.0
 11
-20.34
 21
-0.3
 31
0.0
  0
LINE
  5
54
330
1F
100
AcDbEntity
  8
SK3
100
AcDbLine
 10
-18.8386154541
 20
-4.272982234
 30
0.0
 11
-18.8386154541
 21
-0.3
 31
0.0
  0
SPLINE
  5
55
330
1F
100
AcDbEntity
  8
SK1
  6
Continuous
100
AcDbSpline
210
0.0
220
0.0
230
1.0
 70
     8
 71
     3
 72
    10
 73
     6
 74
     0
 42
0.0000000403697801
 43
0.0000000001
 12
1.0
 22
0.0
 32
0.0
 13
1.0
 23
0.0
 33
0.0
 40
0.0
 40
0.0
 40
0.0
 40
0.0
 40
0.5
 40
0.5
 40
1.0
 40
1.0
 40
1.0
 40
1.0
 10
-20.34000000002494
 20
-4.709864947929336
 30
0.0
 10
-20.34000000002485
 20
-4.743556970169267
 30
0.0
 10
-20.32217488163267
 20
-4.777263588516321
 30
0.0
 10
-20.259903167501
 20
-4.828038652714087
 30
0.0
 10
-20.2155197779419
 20
-4.845293424827751
 30
0.0
 10
-20.16783462021685
 20
-4.850036409739078
 30
0.0
  0
LINE
  5
56
330
1F
100
AcDbEntity
  8
SK1
  6
Continuous
100
AcDbLine
 10
-20.34
 20
-4.8846428091
 30
0.0
 11
-20.1093433578
 21
-4.8558532168
 31
0.0
  0
LINE
  5
57
330
1F
100
AcDbEntity
  8
SK3
100
AcDbLine
 10
-20.1093433578
 20
-4.8558532168
 30
0.0
 11
-18.8386154541
 21
-4.6972463027
 31
0.0
  0
LINE
  5
58
330
1F
100
AcDbEntity
  8
SK3
100
AcDbLine
 10
-18.8386154541
 20
-4.6972463027
 30
0.0
 11
-2.722493124
 21
-4.6972463027
 31
0.0
  0
LINE
  5
59
330
1F
100
AcDbEntity
  8
SK3
100
AcDbLine
 10
-20.34
 20
-4.4603787403
 30
0.0
 11
-18.8386154541
 21
-4.272982234
 31
0.0
  0
LINE
  5
5A
330
1F
100
AcDbEntity
  8
SK3
100
AcDbLine
 10
-18.8386154541
 20
-4.272982234
 30
0.0
 11
-2.722493124
 21
-4.272982234
 31
0.0
  0
LINE
  5
5B
330
1F
100
AcDbEntity
  8
SK1
  6
Continuous
100
AcDbLine
 10
-20.34
 20
-4.8846428091
 30
0.0
 11
-20.34
 21
-5.1341290166
 31
0.0
  0
SPLINE
  5
5C
330
1F
100
AcDbEntity
  8
SK1
  6
Continuous
100
AcDbSpline
210
0.0
220
0.0
230
1.0
 70
     8
 71
     3
 72
    10
 73
     6
 74
     0
 42
0.0000000403697801
 43
0.0000000001
 12
1.0
 22
0.0
 32
0.0
 13
1.0
 23
0.0
 33
0.0
 40
0.0
 40
0.0
 40
0.0
 40
0.0
 40
0.5
 40
0.5
 40
1.0
 40
1.0
 40
1.0
 40
1.0
 10
-20.34000000002494
 20
-5.134129016641265
 30
0.0
 10
-20.34000000002485
 20
-5.167821038881177
 30
0.0
 10
-20.32217488163267
 20
-5.201527657228252
 30
0.0
 10
-20.25990316750101
 20
-5.252302721426005
 30
0.0
 10
-20.2155197779419
 20
-5.26955749353968
 30
0.0
 10
-20.16783462021685
 20
-5.274300478451004
 30
0.0
  0
ELLIPSE
  5
5D
330
1F
100
AcDbEntity
  8
SK1
  6
Continuous
100
AcDbEllipse
 10
-64.598235476
 20
-0.2121320405
 30
0.0
 11
62.19999993221867
 21
1.226073715490829E-8
 31
0.0
210
0.0
220
0.0
230
1.0
 40
0.7071067816
 41
-0.154214618723314
 42
-0.1448828125978618
  0
SPLINE
  5
5E
330
1F
100
AcDbEntity
  8
SK1
  6
Continuous
100
AcDbSpline
210
0.0
220
0.0
230
1.0
 70
     8
 71
     3
 72
    35
 73
    31
 74
     0
 42
0.0000000123418823
 43
0.0000000001
 12
1.0
 22
0.0
 32
0.0
 13
1.0
 23
0.0
 33
0.0
 40
0.0
 40
0.0
 40
0.0
 40
0.0
 40
0.1074285959530391
 40
0.1074285959530391
 40
0.1074285959530391
 40
0.2148567029690039
 40
0.2148567029690039
 40
0.2148567029690039
 40
0.3222951556111734
 40
0.3222951556111734
 40
0.3222951556111734
 40
0.4297633880495534
 40
0.4297633880495534
 40
0.4297633880495534
 40
0.4999992835871157
 40
0.4999992835871157
 40
0.4999992835871157
 40
0.6074617884167716
 40
0.6074617884167716
 40
0.6074617884167716
 40
0.7149235977191588
 40
0.7149235977191588
 40
0.7149235977191588
 40
0.8223950033241758
 40
0.8223950033241758
 40
0.8223950033241758
 40
0.9298574996129999
 40
0.9298574996129999
 40
0.9298574996129999
 40
1.0
 40
1.0
 40
1.0
 40
1.0
 10
-3.136395703209659
 20
-6.543689285511301
 30
0.0
 10
-3.103157912648629
 20
-6.546993997904709
 30
0.0
 10
-3.069487393884733
 20
-6.554569091893362
 30
0.0
 10
-3.03816861055815
 20
-6.565768015754906
 30
0.0
 10
-3.006849879389588
 20
-6.576966920965863
 30
0.0
 10
-2.97701891427451
 20
-6.592096522736386
 30
0.0
 10
-2.951134325888333
 20
-6.609853372502155
 30
0.0
 10
-2.925247179275224
 20
-6.627611977213787
 30
0.0
 10
-2.902592633809721
 20
-6.648485146132183
 30
0.0
 10
-2.885032287893937
 20
-6.670686386106849
 30
0.0
 10
-2.867467217372119
 20
-6.692893599318764
 30
0.0
 10
-2.854514141950214
 20
-6.717039601619474
 30
0.0
 10
-2.847236641976949
 20
-6.741083375980668
 30
0.0
 10
-2.842441561855534
 20
-6.756925605442251
 30
0.0
 10
-2.840000000024821
 20
-6.772962225902722
 30
0.0
 10
-2.840000000024821
 20
-6.788605988047928
 30
0.0
 10
-2.840000000024821
 20
-6.812347268695227
 30
0.0
 10
-2.845712459777098
 20
-6.835716893183572
 30
0.0
 10
-2.856668421704929
 20
-6.856799137803359
 30
0.0
 10
-2.867624342421124
 20
-6.877881303120771
 30
0.0
 10
-2.884126172472487
 20
-6.897259366623999
 30
0.0
 10
-2.90481878107648
 20
-6.913379466639251
 30
0.0
 10
-2.925513149049539
 20
-6.929500937250443
 30
0.0
 10
-2.95097059337154
 20
-6.942811360330755
 30
0.0
 10
-2.9790960632832
 20
-6.952267550645726
 30
0.0
 10
-3.007219105747954
 20
-6.96172292481789
 30
0.0
 10
-3.038786301056095
 20
-6.96758805579511
 30
0.0
 10
-3.071191070405162
 20
-6.969419648639039
 30
0.0
 10
-3.092515486608934
 20
-6.970624954182153
 30
0.0
 10
-3.11451638474307
 20
-6.970128735129365
 30
0.0
 10
-3.136395703209659
 20
-6.967953354223229
 30
0.0
  0
SPLINE
  5
5F
330
1F
100
AcDbEntity
  8
SK3
100
AcDbSpline
210
0.0
220
0.0
230
1.0
 70
     8
 71
     3
 72
    35
 73
    31
 74
     0
 42
0.0000000122632384
 43
0.0000000001
 12
1.0
 22
0.0
 32
0.0
 13
1.0
 23
0.0
 33
0.0
 40
0.0
 40
0.0
 40
0.0
 40
0.0
 40
0.1078704826195372
 40
0.1078704826195372
 40
0.1078704826195372
 40
0.2157669765668138
 40
0.2157669765668138
 40
0.2157669765668138
 40
0.323294612291788
 40
0.323294612291788
 40
0.323294612291788
 40
0.430534265558637
 40
0.430534265558637
 40
0.430534265558637
 40
0.5000116138319263
 40
0.5000116138319263
 40
0.5000116138319263
 40
0.6071444575011787
 40
0.6071444575011787
 40
0.6071444575011787
 40
0.7142759345425393
 40
0.7142759345425393
 40
0.7142759345425393
 40
0.8214297331009345
 40
0.8214297331009345
 40
0.8214297331009345
 40
0.9287167764825602
 40
0.9287167764825602
 40
0.9287167764825602
 40
1.0
 40
1.0
 40
1.0
 40
1.0
 10
-2.722493123992687
 20
-4.697246302688417
 30
0.0
 10
-2.688733261617978
 20
-4.697246302688417
 30
0.0
 10
-2.654506508344019
 20
-4.693344686307377
 30
0.0
 10
-2.622644785091912
 20
-4.685812571492782
 30
0.0
 10
-2.590778420126581
 20
-4.678279359376679
 30
0.0
 10
-2.560398785996723
 20
-4.666901401770023
 30
0.0
 10
-2.534048021188742
 20
-4.652533499001668
 30
0.0
 10
-2.507786056740057
 20
-4.638214015128836
 30
0.0
 10
-2.48479925734197
 20
-4.620523952608115
 30
0.0
 10
-2.467004741024266
 20
-4.600838653060438
 30
0.0
 10
-2.449256813507727
 20
-4.581204892677419
 30
0.0
 10
-2.436182771403067
 20
-4.5590403267004
 30
0.0
 10
-2.428865613404879
 20
-4.536118335260238
 30
0.0
 10
-2.424085728011623
 20
-4.521144694934813
 30
0.0
 10
-2.421652331126503
 20
-4.505631191946823
 30
0.0
 10
-2.421652331126482
 20
-4.490128060534752
 30
0.0
 10
-2.421652331126449
 20
-4.466418545489479
 30
0.0
 10
-2.427435304694504
 20
-4.442183945715664
 30
0.0
 10
-2.438523718985543
 20
-4.419461716364042
 30
0.0
 10
-2.449612057615421
 20
-4.396739642056253
 30
0.0
 10
-2.466311873741892
 20
-4.374906350378549
 30
0.0
 10
-2.487241384820905
 20
-4.355845220455642
 30
0.0
 10
-2.508175641458058
 20
-4.33677976861141
 30
0.0
 10
-2.533917630673071
 20
-4.319967340578297
 30
0.0
 10
-2.562335222914198
 20
-4.306879540348415
 30
0.0
 10
-2.590788925336597
 20
-4.293775109475278
 30
0.0
 10
-2.622704988110014
 20
-4.284048143096371
 30
0.0
 10
-2.655448997730552
 20
-4.278544909827977
 30
0.0
 10
-2.677377269913701
 20
-4.274859460232914
 30
0.0
 10
-2.700004792881405
 20
-4.272982233976489
 30
0.0
 10
-2.722493123992687
 20
-4.272982233976489
 30
0.0
  0
SPLINE
  5
60
330
1F
100
AcDbEntity
  8
SK3
100
AcDbSpline
210
0.0
220
0.0
230
1.0
 70
     8
 71
     3
 72
    11
 73
     7
 74
     0
 42
0.0000003739263568
 43
0.0000000001
 12
1.0
 22
0.0
 32
0.0
 13
1.0
 23
0.0
 33
0.0
 40
0.0
 40
0.0
 40
0.0
 40
0.0
 40
0.3277976614044223
 40
0.3277976614044223
 40
0.3277976614044223
 40
1.0
 40
1.0
 40
1.0
 40
1.0
 10
-15.32968533642641
 20
7.277211078547341
 30
0.0
 10
-15.33147438506366
 20
7.274529612473898
 30
0.0
 10
-15.33303343566971
 20
7.271851418502969
 30
0.0
 10
-15.33435301975099
 20
7.26918542586383
 30
0.0
 10
-15.33708674662778
 20
7.263662400969616
 30
0.0
 10
-15.3388386009494
 20
7.258139686647398
 30
0.0
 10
-15.33958524577439
 20
7.252701052641142
 30
0.0
  0
LINE
  5
61
330
1F
100
AcDbEntity
  8
SK1
  6
Continuous
100
AcDbLine
 10
6.36
 20
9.811579829
 30
0.0
 11
6.36
 21
10.5
 31
0.0
  0
LINE
  5
62
330
1F
100
AcDbEntity
  8
SK1
  6
Continuous
100
AcDbLine
 10
6.6198076211
 20
9.811579829
 30
0.0
 11
6.6198076211
 21
10.5
 31
0.0
  0
LINE
  5
63
330
1F
100
AcDbEntity
  8
SK1
  6
Continuous
100
AcDbLine
 10
6.36
 20
9.811579829
 30
0.0
 11
6.6198076211
 21
9.811579829
 31
0.0
  0
LINE
  5
64
330
1F
100
AcDbEntity
  8
SK1
  6
Continuous
100
AcDbLine
 10
6.36
 20
9.5819697696
 30
0.0
 11
6.6198076211
 21
9.5819697696
 31
0.0
  0
LINE
  5
65
330
1F
100
AcDbEntity
  8
SK1
  6
Continuous
100
AcDbLine
 10
11.035
 20
7.455236463
 30
0.0
 11
11.035
 21
7.9508874915
 31
0.0
  0
LINE
  5
66
330
1F
100
AcDbEntity
  8
SK1
  6
Continuous
100
AcDbLine
 10
11.16
 20
7.0254540846
 30
0.0
 11
11.16
 21
3.2347560238
 31
0.0
  0
LINE
  5
67
330
1F
100
AcDbEntity
  8
SK1
  6
Continuous
100
AcDbLine
 10
3.1043307596
 20
9.7523901463
 30
0.0
 11
3.1043307596
 21
10.4359598646
 31
0.0
  0
LINE
  5
68
330
1F
100
AcDbEntity
  8
SK1
  6
Continuous
100
AcDbLine
 10
3.56
 20
9.3862775107
 30
0.0
 11
3.56
 21
10.0398526371
 31
0.0
  0
LINE
  5
69
330
1F
100
AcDbEntity
  8
SK1
  6
Continuous
100
AcDbLine
 10
3.76
 20
8.1477768539
 30
0.0
 11
3.76
 21
8.7
 31
0.0
  0
LINE
  5
6A
330
1F
100
AcDbEntity
  8
SK1
  6
Continuous
100
AcDbLine
 10
6.16
 20
8.7
 30
0.0
 11
6.16
 21
8.1477768539
 31
0.0
  0
ARC
  5
6B
330
1F
100
AcDbEntity
  8
SK1
  6
Continuous
100
AcDbCircle
 10
3.1698769151
 20
9.1377371284
 30
0.0
 40
0.3905821020576976
100
AcDbArc
 50
2.7780399913
 51
99.6608950409
  0
SPLINE
  5
6C
330
1F
100
AcDbEntity
  8
SK1
  6
Continuous
100
AcDbSpline
210
0.0
220
0.0
230
1.0
 70
     8
 71
     3
 72
     8
 73
     4
 74
     0
 42
0.0000000019981515
 43
0.0000000001
 12
1.0
 22
0.0
 32
0.0
 13
1.0
 23
0.0
 33
0.0
 40
0.0
 40
0.0
 40
0.0
 40
0.0
 40
1.0
 40
1.0
 40
1.0
 40
1.0
 10
6.619807621110477
 20
9.581969769560404
 30
0.0
 10
8.091586662782872
 20
8.796599117817928
 30
0.0
 10
9.56333296026385
 20
8.011176071764488
 30
0.0
 10
11.03499999997516
 20
7.225626403562008
 30
0.0
  0
ARC
  5
6D
330
1F
100
AcDbEntity
  8
SK1
  6
Continuous
100
AcDbCircle
 10
10.9314792455
 20
7.0218665972
 30
0.0
 40
0.2285489122187468
100
AcDbArc
 50
0.8993975288
 51
63.0670226622
  0
LINE
  5
6E
330
1F
100
AcDbEntity
  8
SK1
  6
Continuous
100
AcDbLine
 10
6.36
 20
9.811579829
 30
0.0
 11
6.36
 21
9.5819697696
 31
0.0
  0
ARC
  5
6F
330
1F
100
AcDbEntity
  8
SK1
  6
Continuous
100
AcDbCircle
 10
6.1672842399
 20
8.3405150226
 30
0.0
 40
0.1928757677871506
100
AcDbArc
 50
267.8356250557
 51
357.6660087198
  0
LINE
  5
70
330
1F
100
AcDbEntity
  8
SK1
  6
Continuous
100
AcDbLine
 10
6.16
 20
8.1477768539
 30
0.0
 11
3.76
 21
8.1477768539
 31
0.0
  0
ARC
  5
71
330
1F
100
AcDbEntity
  8
SK1
  6
Continuous
100
AcDbCircle
 10
3.7527240376
 20
8.3405239769
 30
0.0
 40
0.1928844032862176
100
AcDbArc
 50
182.3365487929
 51
272.161817433
  0
LINE
  5
72
330
1F
100
AcDbEntity
  8
SK1
  6
Continuous
100
AcDbLine
 10
3.56
 20
9.1566674513
 30
0.0
 11
3.56
 21
9.3862775107
 31
0.0
  0
ARC
  5
73
330
1F
100
AcDbEntity
  8
SK1
  6
Continuous
100
AcDbCircle
 10
6.1672842399
 20
8.1109049632
 30
0.0
 40
0.1928757677871549
100
AcDbArc
 50
267.8356250557
 51
357.6660087198
  0
LINE
  5
74
330
1F
100
AcDbEntity
  8
SK1
  6
Continuous
100
AcDbLine
 10
6.16
 20
7.9181667945
 30
0.0
 11
3.76
 21
7.9181667945
 31
0.0
  0
ARC
  5
75
330
1F
100
AcDbEntity
  8
SK1
  6
Continuous
100
AcDbCircle
 10
3.7527240376
 20
8.1109139175
 30
0.0
 40
0.1928844032862201
100
AcDbArc
 50
182.3365487929
 51
272.161817433
  0
ARC
  5
76
330
1F
100
AcDbEntity
  8
SK1
  6
Continuous
100
AcDbCircle
 10
3.1698769151
 20
9.3673471878
 30
0.0
 40
0.3905821020576981
100
AcDbArc
 50
2.7780399913
 51
99.6608950409
  0
SPLINE
  5
77
330
1F
100
AcDbEntity
  8
SK1
  6
Continuous
100
AcDbSpline
210
0.0
220
0.0
230
1.0
 70
     8
 71
     3
 72
     8
 73
     4
 74
     0
 42
0.0000000019981515
 43
0.0000000001
 12
1.0
 22
0.0
 32
0.0
 13
1.0
 23
0.0
 33
0.0
 40
0.0
 40
0.0
 40
0.0
 40
0.0
 40
1.0
 40
1.0
 40
1.0
 40
1.0
 10
6.619807621110477
 20
9.81157982897946
 30
0.0
 10
8.091586662782872
 20
9.026209177236982
 30
0.0
 10
9.563332960263848
 20
8.24078613118354
 30
0.0
 10
11.03499999997516
 20
7.455236462981062
 30
0.0
  0
ARC
  5
78
330
1F
100
AcDbEntity
  8
SK1
  6
Continuous
100
AcDbCircle
 10
10.9314792455
 20
7.2514766566
 30
0.0
 40
0.2285489122187441
100
AcDbArc
 50
0.8993975288
 51
63.0670226622
  0
LINE
  5
79
330
1F
100
AcDbEntity
  8
SK1
  6
Continuous
100
AcDbLine
 10
11.16
 20
7.255064144
 30
0.0
 11
11.16
 21
7.0254540846
 31
0.0
  0
LINE
  5
7A
330
1F
100
AcDbEntity
  8
SK1
  6
Continuous
100
AcDbLine
 10
-20.34
 20
-6.9607548863
 30
0.0
 11
-20.34
 21
-5.1341290166
 31
0.0
  0
LINE
  5
7B
330
1F
100
AcDbEntity
  8
SK1
  6
Continuous
100
AcDbLine
 10
-20.1678346202
 20
-7.1589872687
 30
0.0
 11
-20.1678346202
 21
-5.2743004785
 31
0.0
  0
ARC
  5
7C
330
1F
100
AcDbEntity
  8
SK3
100
AcDbCircle
 10
-20.1398803136
 20
-6.9608296263
 30
0.0
 40
0.2001197003429058
100
AcDbArc
 50
179.978601365
 51
194.5530446436
  0
ARC
  5
7D
330
1F
100
AcDbEntity
  8
SK1
  6
Continuous
100
AcDbCircle
 10
-20.1398803136
 20
-6.9608296263
 30
0.0
 40
0.2001197003430814
100
AcDbArc
 50
179.978601365
 51
261.9702115233
  0
LINE
  5
7E
330
1F
100
AcDbEntity
  8
SK3
100
AcDbLine
 10
-18.8386154541
 20
-6.3429094271
 30
0.0
 11
-18.8386154541
 21
-4.6972463027
 31
0.0
  0
SPLINE
  5
7F
330
1F
100
AcDbEntity
  8
SK1
  6
Continuous
100
AcDbSpline
210
0.0
220
0.0
230
1.0
 70
     8
 71
     3
 72
    11
 73
     7
 74
     0
 42
0.0000000005814279
 43
0.0000000001
 12
1.0
 22
0.0
 32
0.0
 13
1.0
 23
0.0
 33
0.0
 40
0.0
 40
0.0
 40
0.0
 40
0.0
 40
0.7314086246724172
 40
0.7314086246724172
 40
0.7314086246724172
 40
1.0
 40
1.0
 40
1.0
 40
1.0
 10
-20.16783462021685
 20
-7.158987268656345
 30
0.0
 10
-16.01553855294319
 20
-7.743066588577324
 30
0.0
 10
-11.86322587006044
 20
-8.32702778811192
 30
0.0
 10
-7.710904765646037
 20
-8.910929088068041
 30
0.0
 10
-6.186069538391882
 20
-9.125352117748003
 30
0.0
 10
-4.661233108340795
 20
-9.339766594041416
 30
0.0
 10
-3.136395703209659
 20
-9.55417413552562
 30
0.0
  0
LINE
  5
80
330
1F
100
AcDbEntity
  8
SK3
100
AcDbLine
 10
-20.34
 20
-6.6079281079
 30
0.0
 11
-18.8386154541
 21
-6.3429094271
 31
0.0
  0
LINE
  5
81
330
1F
100
AcDbEntity
  8
SK3
100
AcDbLine
 10
-18.8386154541
 20
-6.3429094271
 30
0.0
 11
-2.722493124
 21
-6.3429094271
 31
0.0
  0
SPLINE
  5
82
330
1F
100
AcDbEntity
  8
SK1
  6
Continuous
100
AcDbSpline
210
0.0
220
0.0
230
1.0
 70
     8
 71
     3
 72
    20
 73
    16
 74
     0
 42
0.0000000333318921
 43
0.0000000001
 12
1.0
 22
0.0
 32
0.0
 13
1.0
 23
0.0
 33
0.0
 40
0.0
 40
0.0
 40
0.0
 40
0.0
 40
0.2148574997594414
 40
0.2148574997594414
 40
0.2148574997594414
 40
0.4297140216433305
 40
0.4297140216433305
 40
0.4297140216433305
 40
0.644591234809264
 40
0.644591234809264
 40
0.644591234809264
 40
0.8595280076529805
 40
0.8595280076529805
 40
0.8595280076529805
 40
1.0
 40
1.0
 40
1.0
 40
1.0
 10
-3.136395703209659
 20
-9.55417413552562
 30
0.0
 10
-3.103157912648629
 20
-9.558847704612118
 30
0.0
 10
-3.069487393884733
 20
-9.56376865010307
 30
0.0
 10
-3.03816861055815
 20
-9.568500724630905
 30
0.0
 10
-3.006849879389589
 20
-9.573232791277984
 30
0.0
 10
-2.977018914274512
 20
-9.57790387909475
 30
0.0
 10
-2.951134325888335
 20
-9.58205535765697
 30
0.0
 10
-2.925247179275227
 20
-9.586207246518326
 30
0.0
 10
-2.902592633809724
 20
-9.589949975052473
 30
0.0
 10
-2.885032287893941
 20
-9.592890270044553
 30
0.0
 10
-2.867467217372121
 20
-9.595831356122162
 30
0.0
 10
-2.854514141950218
 20
-9.598047083071776
 30
0.0
 10
-2.84723664197695
 20
-9.59929497650797
 30
0.0
 10
-2.842441561855535
 20
-9.600117202414053
 30
0.0
 10
-2.840000000024819
 20
-9.600538657904615
 30
0.0
 10
-2.840000000024819
 20
-9.600538657904615
 30
0.0
  0
ARC
  5
83
330
1F
100
AcDbEntity
  8
SK3
100
AcDbCircle
 10
-2.7222613474
 20
-12.7186990883
 30
0.0
 40
6.375789665448479
100
AcDbArc
 50
87.2975871984
 51
90.002082851
  0
SPLINE
  5
84
330
1F
100
AcDbEntity
  8
SK1
  6
Continuous
100
AcDbSpline
210
0.0
220
0.0
230
1.0
 70
     8
 71
     3
 72
    14
 73
    10
 74
     0
 42
0.0000000005467597
 43
0.0000000001
 12
1.0
 22
0.0
 32
0.0
 13
1.0
 23
0.0
 33
0.0
 40
0.0
 40
0.0
 40
0.0
 40
0.0
 40
0.0842539479580858
 40
0.0842539479580858
 40
0.0842539479580858
 40
0.8608517021639168
 40
0.8608517021639168
 40
0.8608517021639168
 40
1.0
 40
1.0
 40
1.0
 40
1.0
 10
-15.0328236022129
 20
7.166512551581618
 30
0.0
 10
-14.52344972983641
 20
7.232698980107183
 30
0.0
 10
-14.01407566268372
 20
7.298884129161042
 30
0.0
 10
-13.50470141587453
 20
7.365068097996397
 30
0.0
 10
-8.809622957882464
 20
7.975108610036061
 30
0.0
 10
-4.114529814944629
 20
8.585052654571609
 30
0.0
 10
0.5805707733310301
 20
9.194947769884466
 30
0.0
 10
1.421823856453064
 20
9.304226822908216
 30
0.0
 10
2.26307719356505
 20
9.413504207016873
 30
0.0
 10
3.104330759590554
 20
9.522780086915525
 30
0.0
  0
LINE
  5
85
330
1F
100
AcDbEntity
  8
SK3
100
AcDbLine
 10
-15.2098947668
 20
5.7452791665
 30
0.0
 11
11.16
 21
5.7452791665
 31
0.0
  0
SPLINE
  5
86
330
1F
100
AcDbEntity
  8
SK3
100
AcDbSpline
210
0.0
220
0.0
230
1.0
 70
     8
 71
     3
 72
    35
 73
    31
 74
     0
 42
0.0000000145145056
 43
0.0000000001
 12
1.0
 22
0.0
 32
0.0
 13
1.0
 23
0.0
 33
0.0
 40
0.0
 40
0.0
 40
0.0
 40
0.0
 40
0.1078704826195409
 40
0.1078704826195409
 40
0.1078704826195409
 40
0.215766976566821
 40
0.215766976566821
 40
0.215766976566821
 40
0.3232946122917963
 40
0.3232946122917963
 40
0.3232946122917963
 40
0.4305342655586383
 40
0.4305342655586383
 40
0.4305342655586383
 40
0.5000116138322356
 40
0.5000116138322356
 40
0.5000116138322356
 40
0.6071444575011757
 40
0.6071444575011757
 40
0.6071444575011757
 40
0.7142759345425399
 40
0.7142759345425399
 40
0.7142759345425399
 40
0.8214297331009347
 40
0.8214297331009347
 40
0.8214297331009347
 40
0.9287167764825637
 40
0.9287167764825637
 40
0.9287167764825637
 40
1.0
 40
1.0
 40
1.0
 40
1.0
 10
-15.20989476678339
 20
5.974889225951482
 30
0.0
 10
-15.2436546291581
 20
5.974889225951483
 30
0.0
 10
-15.27788138243206
 20
5.972930002753663
 30
0.0
 10
-15.30974310568417
 20
5.969122887832375
 30
0.0
 10
-15.3416094706495
 20
5.965315218278949
 30
0.0
 10
-15.37198910477936
 20
5.959549132966961
 30
0.0
 10
-15.39833986958734
 20
5.952194293128117
 30
0.0
 10
-15.42460183403603
 20
5.944864238619982
 30
0.0
 10
-15.44758863343412
 20
5.935747467904342
 30
0.0
 10
-15.46538314975182
 20
5.925479799847391
 30
0.0
 10
-15.48313107726836
 20
5.9152390141365
 30
0.0
 10
-15.49620511937301
 20
5.903565429511886
 30
0.0
 10
-15.50352227737119
 20
5.891342647901733
 30
0.0
 10
-15.50830216276446
 20
5.883358196110761
 30
0.0
 10
-15.51073555964831
 20
5.875025265707027
 30
0.0
 10
-15.51073555964831
 20
5.866635031446743
 30
0.0
 10
-15.51073555964831
 20
5.853803534367947
 30
0.0
 10
-15.50495258608152
 20
5.840536238588037
 30
0.0
 10
-15.49386417179054
 20
5.827971621236311
 30
0.0
 10
-15.48277583316066
 20
5.815407089618471
 30
0.0
 10
-15.46607601703418
 20
5.803202496163155
 30
0.0
 10
-15.44514650595517
 20
5.792468861911446
 30
0.0
 10
-15.42421224931801
 20
5.781732793915101
 30
0.0
 10
-15.39847026010301
 20
5.772178531487916
 30
0.0
 10
-15.37005266786188
 20
5.764709801206144
 30
0.0
 10
-15.34159896543948
 20
5.75723158042278
 30
0.0
 10
-15.30968290266606
 20
5.751643611796768
 30
0.0
 10
-15.27693889304552
 20
5.748479631118117
 30
0.0
 10
-15.25501062086238
 20
5.746360751044853
 30
0.0
 10
-15.23238309789467
 20
5.745279166532428
 30
0.0
 10
-15.20989476678339
 20
5.745279166532428
 30
0.0
  0
SPLINE
  5
87
330
1F
100
AcDbEntity
  8
SK1
  6
Continuous
100
AcDbSpline
210
0.0
220
0.0
230
1.0
 70
     8
 71
     3
 72
    35
 73
    31
 74
     0
 42
0.0000000142051026
 43
0.0000000001
 12
1.0
 22
0.0
 32
0.0
 13
1.0
 23
0.0
 33
0.0
 40
0.0
 40
0.0
 40
0.0
 40
0.0
 40
0.1119615440540013
 40
0.1119615440540013
 40
0.1119615440540013
 40
0.2240715221133875
 40
0.2240715221133875
 40
0.2240715221133875
 40
0.3338400478832877
 40
0.3338400478832877
 40
0.3338400478832877
 40
0.4402527267872416
 40
0.4402527267872416
 40
0.4402527267872416
 40
0.5001438666164725
 40
0.5001438666164725
 40
0.5001438666164725
 40
0.6037319614880877
 40
0.6037319614880877
 40
0.6037319614880877
 40
0.707254112484006
 40
0.707254112484006
 40
0.707254112484006
 40
0.8118158326264298
 40
0.8118158326264298
 40
0.8118158326264298
 40
0.919021404300797
 40
0.919021404300797
 40
0.919021404300797
 40
1.0
 40
1.0
 40
1.0
 40
1.0
 10
-15.0328236022129
 20
7.166512551581618
 30
0.0
 10
-15.06801576680876
 20
7.161939793116766
 30
0.0
 10
-15.1037306270527
 20
7.159825985339654
 30
0.0
 10
-15.13701949238595
 20
7.160362263840091
 30
0.0
 10
-15.17033369705091
 20
7.160898950553264
 30
0.0
 10
-15.20215095488185
 20
7.164111296316026
 30
0.0
 10
-15.22961869937624
 20
7.169707890628382
 30
0.0
 10
-15.25651319456212
 20
7.175187684530707
 30
0.0
 10
-15.2800002905204
 20
7.183111257528138
 30
0.0
 10
-15.29787731996236
 20
7.192734685276378
 30
0.0
 10
-15.3152161108755
 20
7.202068372516536
 30
0.0
 10
-15.32776705692304
 20
7.213263485535381
 30
0.0
 10
-15.33435301975099
 20
7.225306225168325
 30
0.0
 10
-15.33809767951027
 20
7.232153509866558
 30
0.0
 10
-15.34000000002512
 20
7.239357190808625
 30
0.0
 10
-15.34000000002512
 20
7.246706158826627
 30
0.0
 10
-15.34000000002513
 20
7.259296121192514
 30
0.0
 10
-15.33430832756592
 20
7.272596784844868
 30
0.0
 10
-15.32344120388479
 20
7.285527659274303
 30
0.0
 10
-15.31257792274925
 20
7.298453961429044
 30
0.0
 10
-15.29625564585981
 20
7.311365576559182
 30
0.0
 10
-15.27590021727161
 20
7.323300610414896
 30
0.0
 10
-15.25533652544066
 20
7.335357755620042
 30
0.0
 10
-15.2301185606072
 20
7.346745545367769
 30
0.0
 10
-15.20234460362663
 20
7.356685961773048
 30
0.0
 10
-15.17387223542267
 20
7.366876342502362
 30
0.0
 10
-15.14196696933783
 20
7.375821797886592
 30
0.0
 10
-15.10918837922253
 20
7.382935142481161
 30
0.0
 10
-15.08428261789429
 20
7.388339989428352
 30
0.0
 10
-15.0584503847013
 20
7.392792748007119
 30
0.0
 10
-15.0328236022129
 20
7.396122611000673
 30
0.0
  0
LINE
  5
88
330
1F
100
AcDbEntity
  8
SK3
100
AcDbLine
 10
-15.2098947668
 20
5.974889226
 30
0.0
 11
11.16
 21
5.974889226
 31
0.0
  0
SPLINE
  5
89
330
1F
100
AcDbEntity
  8
SK1
  6
Continuous
100
AcDbSpline
210
0.0
220
0.0
230
1.0
 70
     8
 71
     3
 72
    14
 73
    10
 74
     0
 42
0.0000000005467597
 43
0.0000000001
 12
1.0
 22
0.0
 32
0.0
 13
1.0
 23
0.0
 33
0.0
 40
0.0
 40
0.0
 40
0.0
 40
0.0
 40
0.0842539479580858
 40
0.0842539479580858
 40
0.0842539479580858
 40
0.8608517021639168
 40
0.8608517021639168
 40
0.8608517021639168
 40
1.0
 40
1.0
 40
1.0
 40
1.0
 10
-15.0328236022129
 20
7.396122611000673
 30
0.0
 10
-14.52344972983641
 20
7.462309039526237
 30
0.0
 10
-14.01407566268372
 20
7.528494188580096
 30
0.0
 10
-13.50470141587453
 20
7.594678157415451
 30
0.0
 10
-8.809622957882464
 20
8.204718669455117
 30
0.0
 10
-4.114529814944629
 20
8.814662713990662
 30
0.0
 10
0.5805707733310301
 20
9.424557829303518
 30
0.0
 10
1.421823856453064
 20
9.53383688232727
 30
0.0
 10
2.26307719356505
 20
9.643114266435926
 30
0.0
 10
3.104330759590556
 20
9.75239014633458
 30
0.0
  0
ELLIPSE
  5
8A
330
1F
100
AcDbEntity
  8
SK1
  6
Continuous
100
AcDbEllipse
 10
46.6658476169
 20
0.1148050331
 30
0.0
 11
-62.19999996377835
 21
-2.336154502117299E-8
 31
0.0
210
0.0
220
0.0
230
1.0
 40
0.9238795328
 41
-0.1270495822232123
 42
-0.122997668388023
  0
LINE
  5
8B
330
1F
100
AcDbEntity
  8
SK1
  6
Continuous
100
AcDbLine
 10
6.36
 20
4.2936994929
 30
0.0
 11
6.36
 21
9.5819697696
 31
0.0
  0
LINE
  5
8C
330
1F
100
AcDbEntity
  8
SK1
  6
Continuous
100
AcDbLine
 10
6.6198076211
 20
4.2936994929
 30
0.0
 11
6.6198076211
 21
9.5819697696
 31
0.0
  0
LINE
  5
8D
330
1F
100
AcDbEntity
  8
SK1
  6
Continuous
100
AcDbLine
 10
6.36
 20
4.2936994929
 30
0.0
 11
6.6198076211
 21
4.2936994929
 31
0.0
  0
LINE
  5
8E
330
1F
100
AcDbEntity
  8
SK1
  6
Continuous
100
AcDbLine
 10
6.36
 20
3.7393717734
 30
0.0
 11
6.6198076211
 21
3.7393717734
 31
0.0
  0
LINE
  5
8F
330
1F
100
AcDbEntity
  8
SK1
  6
Continuous
100
AcDbLine
 10
11.035
 20
3.3176701131
 30
0.0
 11
11.035
 21
7.2256264036
 31
0.0
  0
LINE
  5
90
330
1F
100
AcDbEntity
  8
SK1
  6
Continuous
100
AcDbLine
 10
11.16
 20
2.6804283042
 30
0.0
 11
11.16
 21
-2.6804283042
 31
0.0
  0
LINE
  5
91
330
1F
100
AcDbEntity
  8
SK1
  6
Continuous
100
AcDbLine
 10
3.1043307596
 20
4.2691823236
 30
0.0
 11
3.1043307596
 21
9.5227800869
 31
0.0
  0
LINE
  5
92
330
1F
100
AcDbEntity
  8
SK1
  6
Continuous
100
AcDbLine
 10
3.56
 20
4.1175335046
 30
0.0
 11
3.56
 21
9.1566674513
 31
0.0
  0
LINE
  5
93
330
1F
100
AcDbEntity
  8
SK1
  6
Continuous
100
AcDbLine
 10
3.76
 20
3.6045297355
 30
0.0
 11
3.76
 21
7.9181667945
 31
0.0
  0
LINE
  5
94
330
1F
100
AcDbEntity
  8
SK1
  6
Continuous
100
AcDbLine
 10
6.16
 20
3.6045297355
 30
0.0
 11
6.16
 21
7.9181667945
 31
0.0
  0
SPLINE
  5
95
330
1F
100
AcDbEntity
  8
SK1
  6
Continuous
100
AcDbSpline
210
0.0
220
0.0
230
1.0
 70
     8
 71
     3
 72
    10
 73
     6
 74
     0
 42
0.0000000190345776
 43
0.0000000001
 12
1.0
 22
0.0
 32
0.0
 13
1.0
 23
0.0
 33
0.0
 40
0.0
 40
0.0
 40
0.0
 40
0.0
 40
0.5
 40
0.5
 40
1.0
 40
1.0
 40
1.0
 40
1.0
 10
3.104330759591118
 20
3.71485460407698
 30
0.0
 10
3.218332587580662
 20
3.720988459337679
 30
0.0
 10
3.336761943192155
 20
3.707288459508964
 30
0.0
 10
3.508067280597034
 20
3.65028118640541
 30
0.0
 10
3.559999999975158
 20
3.607094529435138
 30
0.0
 10
3.559999999975156
 20
3.56320578505118
 30
0.0
  0
LINE
  5
96
330
1F
100
AcDbEntity
  8
SK1
  6
Continuous
100
AcDbLine
 10
6.6198076211
 20
3.7393717734
 30
0.0
 11
11.035
 21
2.7633423936
 31
0.0
  0
SPLINE
  5
97
330
1F
100
AcDbEntity
  8
SK1
  6
Continuous
100
AcDbSpline
210
0.0
220
0.0
230
1.0
 70
     8
 71
     3
 72
     8
 73
     4
 74
     0
 42
0.0000000587426104
 43
0.0000000001
 12
1.0
 22
0.0
 32
0.0
 13
1.0
 23
0.0
 33
0.0
 40
0.0
 40
0.0
 40
0.0
 40
0.0
 40
1.0
 40
1.0
 40
1.0
 40
1.0
 10
11.03499999997516
 20
2.763342393577497
 30
0.0
 10
11.11129747162527
 20
2.746473035867421
 30
0.0
 10
11.15999999997516
 20
2.713969899195336
 30
0.0
 10
11.15999999997516
 20
2.680428304248983
 30
0.0
  0
LINE
  5
98
330
1F
100
AcDbEntity
  8
SK1
  6
Continuous
100
AcDbLine
 10
6.36
 20
4.2936994929
 30
0.0
 11
6.36
 21
3.7393717734
 31
0.0
  0
SPLINE
  5
99
330
1F
100
AcDbEntity
  8
SK1
  6
Continuous
100
AcDbSpline
210
0.0
220
0.0
230
1.0
 70
     8
 71
     3
 72
    10
 73
     6
 74
     0
 42
0.0000000427808113
 43
0.0000000001
 12
1.0
 22
0.0
 32
0.0
 13
1.0
 23
0.0
 33
0.0
 40
0.0
 40
0.0
 40
0.0
 40
0.0
 40
0.5
 40
0.5
 40
1.0
 40
1.0
 40
1.0
 40
1.0
 10
6.359999999975146
 20
3.68111094163651
 30
0.0
 10
6.359999999975162
 20
3.661147913130357
 30
0.0
 10
6.338797885644282
 20
3.641286941291399
 30
0.0
 10
6.264194095974195
 20
3.612690369676939
 30
0.0
 10
6.212837205973042
 20
3.604529735509601
 30
0.0
 10
6.159999999975154
 20
3.604529735509904
 30
0.0
  0
LINE
  5
9A
330
1F
100
AcDbEntity
  8
SK1
  6
Continuous
100
AcDbLine
 10
6.16
 20
3.6045297355
 30
0.0
 11
3.76
 21
3.6045297355
 31
0.0
  0
SPLINE
  5
9B
330
1F
100
AcDbEntity
  8
SK1
  6
Continuous
100
AcDbSpline
210
0.0
220
0.0
230
1.0
 70
     8
 71
     3
 72
    10
 73
     6
 74
     0
 42
0.0000000427872622
 43
0.0000000001
 12
1.0
 22
0.0
 32
0.0
 13
1.0
 23
0.0
 33
0.0
 40
0.0
 40
0.0
 40
0.0
 40
0.0
 40
0.5
 40
0.5
 40
1.0
 40
1.0
 40
1.0
 40
1.0
 10
3.759999999975148
 20
3.604529735509903
 30
0.0
 10
3.707123214840093
 20
3.604529735509904
 30
0.0
 10
3.655403319821882
 20
3.612845671541616
 30
0.0
 10
3.581614556146792
 20
3.641127860983143
 30
0.0
 10
3.559999999975041
 20
3.661130633392036
 30
0.0
 10
3.559999999972804
 20
3.681110941636612
 30
0.0
  0
LINE
  5
9C
330
1F
100
AcDbEntity
  8
SK1
  6
Continuous
100
AcDbLine
 10
3.56
 20
3.6811109416
 30
0.0
 11
3.56
 21
4.1175335046
 31
0.0
  0
SPLINE
  5
9D
330
1F
100
AcDbEntity
  8
SK1
  6
Continuous
100
AcDbSpline
210
0.0
220
0.0
230
1.0
 70
     8
 71
     3
 72
    10
 73
     6
 74
     0
 42
0.0000000427808113
 43
0.0000000001
 12
1.0
 22
0.0
 32
0.0
 13
1.0
 23
0.0
 33
0.0
 40
0.0
 40
0.0
 40
0.0
 40
0.0
 40
0.5
 40
0.5
 40
1.0
 40
1.0
 40
1.0
 40
1.0
 10
6.359999999975146
 20
3.126783222129736
 30
0.0
 10
6.359999999975162
 20
3.106820193623583
 30
0.0
 10
6.338797885644282
 20
3.086959221784625
 30
0.0
 10
6.264194095974195
 20
3.058362650170168
 30
0.0
 10
6.212837205973042
 20
3.050202016002828
 30
0.0
 10
6.159999999975154
 20
3.050202016003131
 30
0.0
  0
LINE
  5
9E
330
1F
100
AcDbEntity
  8
SK1
  6
Continuous
100
AcDbLine
 10
6.16
 20
3.050202016
 30
0.0
 11
3.76
 21
3.050202016
 31
0.0
  0
SPLINE
  5
9F
330
1F
100
AcDbEntity
  8
SK1
  6
Continuous
100
AcDbSpline
210
0.0
220
0.0
230
1.0
 70
     8
 71
     3
 72
    10
 73
     6
 74
     0
 42
0.0000000427872622
 43
0.0000000001
 12
1.0
 22
0.0
 32
0.0
 13
1.0
 23
0.0
 33
0.0
 40
0.0
 40
0.0
 40
0.0
 40
0.0
 40
0.5
 40
0.5
 40
1.0
 40
1.0
 40
1.0
 40
1.0
 10
3.759999999975148
 20
3.050202016003131
 30
0.0
 10
3.70712321484009
 20
3.050202016003131
 30
0.0
 10
3.655403319821884
 20
3.058517952034843
 30
0.0
 10
3.581614556146792
 20
3.086800141476369
 30
0.0
 10
3.559999999975041
 20
3.106802913885265
 30
0.0
 10
3.559999999972804
 20
3.12678322212984
 30
0.0
  0
SPLINE
  5
A0
330
1F
100
AcDbEntity
  8
SK1
  6
Continuous
100
AcDbSpline
210
0.0
220
0.0
230
1.0
 70
     8
 71
     3
 72
    10
 73
     6
 74
     0
 42
0.0000000190345776
 43
0.0000000001
 12
1.0
 22
0.0
 32
0.0
 13
1.0
 23
0.0
 33
0.0
 40
0.0
 40
0.0
 40
0.0
 40
0.0
 40
0.5
 40
0.5
 40
1.0
 40
1.0
 40
1.0
 40
1.0
 10
3.104330759591118
 20
4.269182323583752
 30
0.0
 10
3.218332587580655
 20
4.27531617884445
 30
0.0
 10
3.336761943192152
 20
4.261616179015736
 30
0.0
 10
3.508067280597037
 20
4.204608905912184
 30
0.0
 10
3.559999999975158
 20
4.161422248941907
 30
0.0
 10
3.559999999975156
 20
4.117533504557954
 30
0.0
  0
LINE
  5
A1
330
1F
100
AcDbEntity
  8
SK1
  6
Continuous
100
AcDbLine
 10
6.6198076211
 20
4.2936994929
 30
0.0
 11
11.035
 21
3.3176701131
 31
0.0
  0
SPLINE
  5
A2
330
1F
100
AcDbEntity
  8
SK1
  6
Continuous
100
AcDbSpline
210
0.0
220
0.0
230
1.0
 70
     8
 71
     3
 72
     8
 73
     4
 74
     0
 42
0.0000000587426104
 43
0.0000000001
 12
1.0
 22
0.0
 32
0.0
 13
1.0
 23
0.0
 33
0.0
 40
0.0
 40
0.0
 40
0.0
 40
0.0
 40
1.0
 40
1.0
 40
1.0
 40
1.0
 10
11.03499999997516
 20
3.317670113084268
 30
0.0
 10
11.11129747162532
 20
3.300800755374185
 30
0.0
 10
11.15999999997516
 20
3.268297618702122
 30
0.0
 10
11.15999999997516
 20
3.234756023755755
 30
0.0
  0
LINE
  5
A3
330
1F
100
AcDbEntity
  8
SK1
  6
Continuous
100
AcDbLine
 10
11.16
 20
3.2347560238
 30
0.0
 11
11.16
 21
2.7044902105
 31
0.0
  0
SPLINE
  5
A4
330
1F
100
AcDbEntity
  8
SK3
100
AcDbSpline
210
0.0
220
0.0
230
1.0
 70
     8
 71
     3
 72
     8
 73
     4
 74
     0
 42
0.000000468965754
 43
0.0000000001
 12
1.0
 22
0.0
 32
0.0
 13
1.0
 23
0.0
 33
0.0
 40
0.0
 40
0.0
 40
0.0
 40
0.0
 40
1.0
 40
1.0
 40
1.0
 40
1.0
 10
-2.421652331126479
 20
-4.490128060534343
 30
0.0
 10
-2.421652331126468
 20
-4.497210996227206
 30
0.0
 10
-2.422168429467262
 20
-4.504305432834347
 30
0.0
 10
-2.423187894779105
 20
-4.511359545440809
 30
0.0
  0
LINE
  5
A5
330
1F
100
AcDbEntity
  8
SK1
  6
Continuous
100
AcDbLine
 10
-15.0328236022
 20
2.7388566344
 30
0.0
 11
3.1043307596
 21
3.7148546041
 31
0.0
  0
LINE
  5
A6
330
1F
100
AcDbEntity
  8
SK3
100
AcDbLine
 10
-15.2098947668
 20
2.150162491
 30
0.0
 11
11.16
 21
2.150162491
 31
0.0
  0
SPLINE
  5
A7
330
1F
100
AcDbEntity
  8
SK3
100
AcDbSpline
210
0.0
220
0.0
230
1.0
 70
     8
 71
     3
 72
    35
 73
    31
 74
     0
 42
0.0000000109602731
 43
0.0000000001
 12
1.0
 22
0.0
 32
0.0
 13
1.0
 23
0.0
 33
0.0
 40
0.0
 40
0.0
 40
0.0
 40
0.0
 40
0.1078704826195379
 40
0.1078704826195379
 40
0.1078704826195379
 40
0.2157669765668087
 40
0.2157669765668087
 40
0.2157669765668087
 40
0.3232946122917951
 40
0.3232946122917951
 40
0.3232946122917951
 40
0.4305342655586387
 40
0.4305342655586387
 40
0.4305342655586387
 40
0.5000116138322376
 40
0.5000116138322376
 40
0.5000116138322376
 40
0.6071444575011795
 40
0.6071444575011795
 40
0.6071444575011795
 40
0.7142759345425396
 40
0.7142759345425396
 40
0.7142759345425396
 40
0.8214297331009397
 40
0.8214297331009397
 40
0.8214297331009397
 40
0.9287167764825637
 40
0.9287167764825637
 40
0.9287167764825637
 40
1.0
 40
1.0
 40
1.0
 40
1.0
 10
-15.20989476678339
 20
2.704490210485079
 30
0.0
 10
-15.2436546291581
 20
2.704490210485078
 30
0.0
 10
-15.27788138243206
 20
2.699240186646589
 30
0.0
 10
-15.30974310568417
 20
2.68912976814042
 30
0.0
 10
-15.3416094706495
 20
2.679017876717581
 30
0.0
 10
-15.37198910477935
 20
2.663760237720426
 30
0.0
 10
-15.39833986958733
 20
2.644566654973683
 30
0.0
 10
-15.42460183403602
 20
2.625437753349346
 30
0.0
 10
-15.4475886334341
 20
2.6018675506815
 30
0.0
 10
-15.46538314975181
 20
2.575761528051542
 30
0.0
 10
-15.48313107726834
 20
2.549723855034233
 30
0.0
 10
-15.49620511937301
 20
2.520442661952523
 30
0.0
 10
-15.50352227737119
 20
2.490311126090751
 30
0.0
 10
-15.50830216276446
 20
2.47062789823397
 30
0.0
 10
-15.5107355596483
 20
2.450295612861056
 30
0.0
 10
-15.5107355596483
 20
2.430039795518387
 30
0.0
 10
-15.5107355596483
 20
2.399061821245208
 30
0.0
 10
-15.50495258608152
 20
2.367549415605885
 30
0.0
 10
-15.49386417179054
 20
2.338128827695838
 30
0.0
 10
-15.48277583316066
 20
2.308708440535345
 30
0.0
 10
-15.46607601703418
 20
2.280570371373909
 30
0.0
 10
-15.44514650595517
 20
2.25608363002099
 30
0.0
 10
-15.42421224931802
 20
2.231591336543404
 30
0.0
 10
-15.39847026010301
 20
2.210080282667355
 30
0.0
 10
-15.37005266786188
 20
2.19336591143316
 30
0.0
 10
-15.34159896543948
 20
2.176630301278722
 30
0.0
 10
-15.30968290266606
 20
2.164245179602943
 30
0.0
 10
-15.27693889304552
 20
2.157240511122985
 30
0.0
 10
-15.25501062086238
 20
2.15254956829829
 30
0.0
 10
-15.23238309789467
 20
2.150162490978307
 30
0.0
 10
-15.20989476678339
 20
2.150162490978306
 30
0.0
  0
SPLINE
  5
A8
330
1F
100
AcDbEntity
  8
SK1
  6
Continuous
100
AcDbSpline
210
0.0
220
0.0
230
1.0
 70
     8
 71
     3
 72
    35
 73
    31
 74
     0
 42
0.0000000108331195
 43
0.0000000001
 12
1.0
 22
0.0
 32
0.0
 13
1.0
 23
0.0
 33
0.0
 40
0.0
 40
0.0
 40
0.0
 40
0.0
 40
0.1119615440540016
 40
0.1119615440540016
 40
0.1119615440540016
 40
0.2240715221133873
 40
0.2240715221133873
 40
0.2240715221133873
 40
0.333840047883292
 40
0.333840047883292
 40
0.333840047883292
 40
0.4402527267872398
 40
0.4402527267872398
 40
0.4402527267872398
 40
0.5001438666164729
 40
0.5001438666164729
 40
0.5001438666164729
 40
0.6037319614880873
 40
0.6037319614880873
 40
0.6037319614880873
 40
0.7072541124840074
 40
0.7072541124840074
 40
0.7072541124840074
 40
0.8118158326264323
 40
0.8118158326264323
 40
0.8118158326264323
 40
0.9190214043008008
 40
0.9190214043008008
 40
0.9190214043008008
 40
1.0
 40
1.0
 40
1.0
 40
1.0
 10
-15.0328236022129
 20
2.738856634363103
 30
0.0
 10
-15.06801576680876
 20
2.736962535789505
 30
0.0
 10
-15.1037306270527
 20
2.740704517482633
 30
0.0
 10
-15.13701949238595
 20
2.749874344458918
 30
0.0
 10
-15.17033369705091
 20
2.759051151465466
 30
0.0
 10
-15.20215095488185
 20
2.773941046573966
 30
0.0
 10
-15.22961869937624
 20
2.793376013906769
 30
0.0
 10
-15.25651319456212
 20
2.812405375253732
 30
0.0
 10
-15.28000029052041
 20
2.836347809673018
 30
0.0
 10
-15.29787731996237
 20
2.863158411887084
 30
0.0
 10
-15.3152161108755
 20
2.889161805099254
 30
0.0
 10
-15.32776705692304
 20
2.918603819385614
 30
0.0
 10
-15.33435301975099
 20
2.948940630068002
 30
0.0
 10
-15.33809767951027
 20
2.966189593834558
 30
0.0
 10
-15.34000000002512
 20
2.983941995260113
 30
0.0
 10
-15.34000000002512
 20
3.001683973518619
 30
0.0
 10
-15.34000000002513
 20
3.032078831412111
 30
0.0
 10
-15.33430832756593
 20
3.063115084870286
 30
0.0
 10
-15.3234412038848
 20
3.092221717971836
 30
0.0
 10
-15.31257792274926
 20
3.121318059153639
 30
0.0
 10
-15.29625564585981
 20
3.149281115349261
 30
0.0
 10
-15.27590021727161
 20
3.17391923553728
 30
0.0
 10
-15.25533652544066
 20
3.198809436627618
 30
0.0
 10
-15.2301185606072
 20
3.220977837613314
 30
0.0
 10
-15.20234460362662
 20
3.238814874833282
 30
0.0
 10
-15.17387223542267
 20
3.257100446880138
 30
0.0
 10
-15.14196696933783
 20
3.271327924702345
 30
0.0
 10
-15.10918837922253
 20
3.280541815828157
 30
0.0
 10
-15.08428261789429
 20
3.287542695746319
 30
0.0
 10
-15.0584503847013
 20
3.291805079457102
 30
0.0
 10
-15.0328236022129
 20
3.293184353869875
 30
0.0
  0
LINE
  5
A9
330
1F
100
AcDbEntity
  8
SK3
100
AcDbLine
 10
-15.2098947668
 20
2.7044902105
 30
0.0
 11
11.16
 21
2.7044902105
 31
0.0
  0
LINE
  5
AA
330
1F
100
AcDbEntity
  8
SK1
  6
Continuous
100
AcDbLine
 10
-15.0328236022
 20
3.2931843539
 30
0.0
 11
3.1043307596
 21
4.2691823236
 31
0.0
  0
ELLIPSE
  5
AB
330
1F
100
AcDbEntity
  8
SK1
  6
Continuous
100
AcDbEllipse
 10
46.6658476239
 20
0.2771638609
 30
0.0
 11
-62.19999997086349
 21
-1.286397729221380E-9
 31
0.0
210
0.0
220
0.0
230
1.0
 40
0.3826834325
 41
-0.1270495818770785
 42
-0.1051038615399511
  0
LINE
  5
AC
330
1F
100
AcDbEntity
  8
SK1
  6
Continuous
100
AcDbLine
 10
6.36
 20
-3.7393717734
 30
0.0
 11
6.36
 21
3.7393717734
 31
0.0
  0
LINE
  5
AD
330
1F
100
AcDbEntity
  8
SK1
  6
Continuous
100
AcDbLine
 10
6.6198076211
 20
-3.7393717734
 30
0.0
 11
6.6198076211
 21
3.7393717734
 31
0.0
  0
LINE
  5
AE
330
1F
100
AcDbEntity
  8
SK1
  6
Continuous
100
AcDbLine
 10
6.36
 20
-3.7393717734
 30
0.0
 11
6.6198076211
 21
-3.7393717734
 31
0.0
  0
LINE
  5
AF
330
1F
100
AcDbEntity
  8
SK1
  6
Continuous
100
AcDbLine
 10
6.36
 20
-4.2936994929
 30
0.0
 11
6.6198076211
 21
-4.2936994929
 31
0.0
  0
LINE
  5
B0
330
1F
100
AcDbEntity
  8
SK1
  6
Continuous
100
AcDbLine
 10
11.035
 20
-2.7633423936
 30
0.0
 11
11.035
 21
2.7633423936
 31
0.0
  0
LINE
  5
B1
330
1F
100
AcDbEntity
  8
SK1
  6
Continuous
100
AcDbLine
 10
11.16
 20
-3.2347560238
 30
0.0
 11
11.16
 21
-7.0254540846
 31
0.0
  0
LINE
  5
B2
330
1F
100
AcDbEntity
  8
SK1
  6
Continuous
100
AcDbLine
 10
3.1043307596
 20
-3.7148546041
 30
0.0
 11
3.1043307596
 21
3.7148546041
 31
0.0
  0
LINE
  5
B3
330
1F
100
AcDbEntity
  8
SK1
  6
Continuous
100
AcDbLine
 10
3.56
 20
-3.5632057851
 30
0.0
 11
3.56
 21
3.5632057851
 31
0.0
  0
LINE
  5
B4
330
1F
100
AcDbEntity
  8
SK1
  6
Continuous
100
AcDbLine
 10
3.76
 20
-3.050202016
 30
0.0
 11
3.76
 21
3.050202016
 31
0.0
  0
LINE
  5
B5
330
1F
100
AcDbEntity
  8
SK1
  6
Continuous
100
AcDbLine
 10
6.16
 20
-3.050202016
 30
0.0
 11
6.16
 21
3.050202016
 31
0.0
  0
SPLINE
  5
B6
330
1F
100
AcDbEntity
  8
SK1
  6
Continuous
100
AcDbSpline
210
0.0
220
0.0
230
1.0
 70
     8
 71
     3
 72
    10
 73
     6
 74
     0
 42
0.0000000190350074
 43
0.0000000001
 12
1.0
 22
0.0
 32
0.0
 13
1.0
 23
0.0
 33
0.0
 40
0.0
 40
0.0
 40
0.0
 40
0.0
 40
0.5
 40
0.5
 40
1.0
 40
1.0
 40
1.0
 40
1.0
 10
3.104330759591118
 20
-4.269182323583618
 30
0.0
 10
3.216662709255795
 20
-4.275226331232851
 30
0.0
 10
3.33714625356119
 20
-4.261543354687849
 30
0.0
 10
3.508261414244434
 20
-4.204489048296489
 30
0.0
 10
3.559999999975158
 20
-4.161458325666409
 30
0.0
 10
3.559999999975156
 20
-4.117533504557819
 30
0.0
  0
SPLINE
  5
B7
330
1F
100
AcDbEntity
  8
SK1
  6
Continuous
100
AcDbSpline
210
0.0
220
0.0
230
1.0
 70
     8
 71
     3
 72
     8
 73
     4
 74
     0
 42
0.0000000022115151
 43
0.0000000001
 12
1.0
 22
0.0
 32
0.0
 13
1.0
 23
0.0
 33
0.0
 40
0.0
 40
0.0
 40
0.0
 40
0.0
 40
1.0
 40
1.0
 40
1.0
 40
1.0
 10
6.619807621110477
 20
-4.29369949288854
 30
0.0
 10
8.091586662782872
 20
-3.968388317447009
 30
0.0
 10
9.563332960263848
 20
-3.643055439571284
 30
0.0
 10
11.03499999997516
 20
-3.317670113084133
 30
0.0
  0
SPLINE
  5
B8
330
1F
100
AcDbEntity
  8
SK1
  6
Continuous
100
AcDbSpline
210
0.0
220
0.0
230
1.0
 70
     8
 71
     3
 72
    10
 73
     6
 74
     0
 42
0.0000000616158575
 43
0.0000000001
 12
1.0
 22
0.0
 32
0.0
 13
1.0
 23
0.0
 33
0.0
 40
0.0
 40
0.0
 40
0.0
 40
0.0
 40
0.5
 40
0.5
 40
1.0
 40
1.0
 40
1.0
 40
1.0
 10
11.03499999997516
 20
-3.317670113084133
 30
0.0
 10
11.07299689722856
 20
-3.309269005710877
 30
0.0
 10
11.10465472777435
 20
-3.297134732213099
 30
0.0
 10
11.14845795261302
 20
-3.268052728311456
 30
0.0
 10
11.15999999997433
 20
-3.25136462951999
 30
0.0
 10
11.16000000000339
 20
-3.234756023757201
 30
0.0
  0
LINE
  5
B9
330
1F
100
AcDbEntity
  8
SK1
  6
Continuous
100
AcDbLine
 10
11.16
 20
-3.2347560238
 30
0.0
 11
11.16
 21
-2.7044902105
 31
0.0
  0
SPLINE
  5
BA
330
1F
100
AcDbEntity
  8
SK1
  6
Continuous
100
AcDbSpline
210
0.0
220
0.0
230
1.0
 70
     8
 71
     3
 72
    10
 73
     6
 74
     0
 42
0.0000000427791171
 43
0.0000000001
 12
1.0
 22
0.0
 32
0.0
 13
1.0
 23
0.0
 33
0.0
 40
0.0
 40
0.0
 40
0.0
 40
0.0
 40
0.5
 40
0.5
 40
1.0
 40
1.0
 40
1.0
 40
1.0
 10
6.359999999975146
 20
-3.126783222129603
 30
0.0
 10
6.359999999975156
 20
-3.106640210982468
 30
0.0
 10
6.338233388426771
 20
-3.086716212217781
 30
0.0
 10
6.26449139266307
 20
-3.058503335126725
 30
0.0
 10
6.212718345142027
 20
-3.050202016002997
 30
0.0
 10
6.159999999975154
 20
-3.050202016002997
 30
0.0
  0
LINE
  5
BB
330
1F
100
AcDbEntity
  8
SK1
  6
Continuous
100
AcDbLine
 10
6.16
 20
-3.050202016
 30
0.0
 11
3.76
 21
-3.050202016
 31
0.0
  0
SPLINE
  5
BC
330
1F
100
AcDbEntity
  8
SK1
  6
Continuous
100
AcDbSpline
210
0.0
220
0.0
230
1.0
 70
     8
 71
     3
 72
    10
 73
     6
 74
     0
 42
0.0000000427814578
 43
0.0000000001
 12
1.0
 22
0.0
 32
0.0
 13
1.0
 23
0.0
 33
0.0
 40
0.0
 40
0.0
 40
0.0
 40
0.0
 40
0.5
 40
0.5
 40
1.0
 40
1.0
 40
1.0
 40
1.0
 10
3.759999999975148
 20
-3.050202016002997
 30
0.0
 10
3.707834989232529
 20
-3.050202016002995
 30
0.0
 10
3.655952867542379
 20
-3.058328472208826
 30
0.0
 10
3.581273880816391
 20
-3.086909622574991
 30
0.0
 10
3.559999999975109
 20
-3.106806998502795
 30
0.0
 10
3.559999999974351
 20
-3.126783222129634
 30
0.0
  0
LINE
  5
BD
330
1F
100
AcDbEntity
  8
SK1
  6
Continuous
100
AcDbLine
 10
6.36
 20
-4.2936994929
 30
0.0
 11
6.36
 21
-3.7393717734
 31
0.0
  0
SPLINE
  5
BE
330
1F
100
AcDbEntity
  8
SK1
  6
Continuous
100
AcDbSpline
210
0.0
220
0.0
230
1.0
 70
     8
 71
     3
 72
    10
 73
     6
 74
     0
 42
0.0000000427791171
 43
0.0000000001
 12
1.0
 22
0.0
 32
0.0
 13
1.0
 23
0.0
 33
0.0
 40
0.0
 40
0.0
 40
0.0
 40
0.0
 40
0.5
 40
0.5
 40
1.0
 40
1.0
 40
1.0
 40
1.0
 10
6.359999999975146
 20
-3.681110941636375
 30
0.0
 10
6.359999999975156
 20
-3.660967930489241
 30
0.0
 10
6.338233388426769
 20
-3.641043931724553
 30
0.0
 10
6.26449139266307
 20
-3.612831054633497
 30
0.0
 10
6.212718345142027
 20
-3.604529735509769
 30
0.0
 10
6.159999999975154
 20
-3.604529735509769
 30
0.0
  0
LINE
  5
BF
330
1F
100
AcDbEntity
  8
SK1
  6
Continuous
100
AcDbLine
 10
6.16
 20
-3.6045297355
 30
0.0
 11
3.76
 21
-3.6045297355
 31
0.0
  0
SPLINE
  5
C0
330
1F
100
AcDbEntity
  8
SK1
  6
Continuous
100
AcDbSpline
210
0.0
220
0.0
230
1.0
 70
     8
 71
     3
 72
    10
 73
     6
 74
     0
 42
0.0000000427814578
 43
0.0000000001
 12
1.0
 22
0.0
 32
0.0
 13
1.0
 23
0.0
 33
0.0
 40
0.0
 40
0.0
 40
0.0
 40
0.0
 40
0.5
 40
0.5
 40
1.0
 40
1.0
 40
1.0
 40
1.0
 10
3.759999999975148
 20
-3.604529735509769
 30
0.0
 10
3.707834989232529
 20
-3.604529735509767
 30
0.0
 10
3.655952867542379
 20
-3.612656191715597
 30
0.0
 10
3.581273880816391
 20
-3.641237342081762
 30
0.0
 10
3.559999999975109
 20
-3.661134718009567
 30
0.0
 10
3.559999999974351
 20
-3.681110941636405
 30
0.0
  0
LINE
  5
C1
330
1F
100
AcDbEntity
  8
SK1
  6
Continuous
100
AcDbLine
 10
3.56
 20
-3.6811109416
 30
0.0
 11
3.56
 21
-4.1175335046
 31
0.0
  0
SPLINE
  5
C2
330
1F
100
AcDbEntity
  8
SK1
  6
Continuous
100
AcDbSpline
210
0.0
220
0.0
230
1.0
 70
     8
 71
     3
 72
    10
 73
     6
 74
     0
 42
0.0000000190350074
 43
0.0000000001
 12
1.0
 22
0.0
 32
0.0
 13
1.0
 23
0.0
 33
0.0
 40
0.0
 40
0.0
 40
0.0
 40
0.0
 40
0.5
 40
0.5
 40
1.0
 40
1.0
 40
1.0
 40
1.0
 10
3.104330759591118
 20
-3.714854604076845
 30
0.0
 10
3.216662709255795
 20
-3.720898611726078
 30
0.0
 10
3.33714625356119
 20
-3.707215635181077
 30
0.0
 10
3.508261414244433
 20
-3.650161328789718
 30
0.0
 10
3.559999999975159
 20
-3.607130606159637
 30
0.0
 10
3.559999999975156
 20
-3.563205785051046
 30
0.0
  0
SPLINE
  5
C3
330
1F
100
AcDbEntity
  8
SK1
  6
Continuous
100
AcDbSpline
210
0.0
220
0.0
230
1.0
 70
     8
 71
     3
 72
     8
 73
     4
 74
     0
 42
0.0000000022115151
 43
0.0000000001
 12
1.0
 22
0.0
 32
0.0
 13
1.0
 23
0.0
 33
0.0
 40
0.0
 40
0.0
 40
0.0
 40
0.0
 40
1.0
 40
1.0
 40
1.0
 40
1.0
 10
6.619807621110477
 20
-3.739371773381767
 30
0.0
 10
8.091586662782872
 20
-3.414060597940237
 30
0.0
 10
9.56333296026385
 20
-3.088727720064513
 30
0.0
 10
11.03499999997516
 20
-2.763342393577362
 30
0.0
  0
SPLINE
  5
C4
330
1F
100
AcDbEntity
  8
SK1
  6
Continuous
100
AcDbSpline
210
0.0
220
0.0
230
1.0
 70
     8
 71
     3
 72
    10
 73
     6
 74
     0
 42
0.0000000616158575
 43
0.0000000001
 12
1.0
 22
0.0
 32
0.0
 13
1.0
 23
0.0
 33
0.0
 40
0.0
 40
0.0
 40
0.0
 40
0.0
 40
0.5000000000000001
 40
0.5000000000000001
 40
1.0
 40
1.0
 40
1.0
 40
1.0
 10
11.03499999997516
 20
-2.763342393577362
 30
0.0
 10
11.07299689722856
 20
-2.754941286204104
 30
0.0
 10
11.10465472777435
 20
-2.742807012706327
 30
0.0
 10
11.14845795261302
 20
-2.713725008804684
 30
0.0
 10
11.15999999997433
 20
-2.697036910013217
 30
0.0
 10
11.16000000000339
 20
-2.680428304250429
 30
0.0
  0
LINE
  5
C5
330
1F
100
AcDbEntity
  8
SK1
  6
Continuous
100
AcDbLine
 10
-15.0328236022
 20
-3.2931843539
 30
0.0
 11
3.1043307596
 21
-4.2691823236
 31
0.0
  0
LINE
  5
C6
330
1F
100
AcDbEntity
  8
SK3
100
AcDbLine
 10
-15.2098947668
 20
-2.7044902105
 30
0.0
 11
11.1486953962
 21
-2.7044902105
 31
0.0
  0
LINE
  5
C7
330
1F
100
AcDbEntity
  8
SK1
  6
Continuous
100
AcDbLine
 10
11.1486953962
 20
-2.7044902105
 30
0.0
 11
11.16
 21
-2.7044902105
 31
0.0
  0
ELLIPSE
  5
C8
330
1F
100
AcDbEntity
  8
SK1
  6
Continuous
100
AcDbEllipse
 10
46.6658476179
 20
-0.2771638615
 30
0.0
 11
-62.19999996489098
 21
1.999307783231439E-9
 31
0.0
210
0.0
220
0.0
230
1.0
 40
0.3826834325
 41
0.105001880241871
 42
0.1270495818874425
  0
SPLINE
  5
C9
330
1F
100
AcDbEntity
  8
SK3
100
AcDbSpline
210
0.0
220
0.0
230
1.0
 70
     8
 71
     3
 72
    35
 73
    31
 74
     0
 42
0.0000000109601091
 43
0.0000000001
 12
1.0
 22
0.0
 32
0.0
 13
1.0
 23
0.0
 33
0.0
 40
0.0
 40
0.0
 40
0.0
 40
0.0
 40
0.1078704826195411
 40
0.1078704826195411
 40
0.1078704826195411
 40
0.2157669765668213
 40
0.2157669765668213
 40
0.2157669765668213
 40
0.3232946122917967
 40
0.3232946122917967
 40
0.3232946122917967
 40
0.4305342655586391
 40
0.4305342655586391
 40
0.4305342655586391
 40
0.5000116138322364
 40
0.5000116138322364
 40
0.5000116138322364
 40
0.6071444575011767
 40
0.6071444575011767
 40
0.6071444575011767
 40
0.7142759345425405
 40
0.7142759345425405
 40
0.7142759345425405
 40
0.8214297331009325
 40
0.8214297331009325
 40
0.8214297331009325
 40
0.9287167764825602
 40
0.9287167764825602
 40
0.9287167764825602
 40
1.0
 40
1.0
 40
1.0
 40
1.0
 10
-15.20989476678339
 20
-2.150162490978171
 30
0.0
 10
-15.2436546291581
 20
-2.150162490978171
 30
0.0
 10
-15.27788138243206
 20
-2.155627922695527
 30
0.0
 10
-15.30974310568417
 20
-2.166119098746933
 30
0.0
 10
-15.3416094706495
 20
-2.176611803184931
 30
0.0
 10
-15.37198910477936
 20
-2.192423277872519
 30
0.0
 10
-15.39833986958734
 20
-2.212212263064651
 30
0.0
 10
-15.42460183403603
 20
-2.231934560666957
 30
0.0
 10
-15.44758863343412
 20
-2.256151090232049
 30
0.0
 10
-15.46538314975182
 20
-2.282802913438002
 30
0.0
 10
-15.48313107726836
 20
-2.309384958040824
 30
0.0
 10
-15.49620511937301
 20
-2.339121233794836
 30
0.0
 10
-15.50352227737119
 20
-2.369510878855534
 30
0.0
 10
-15.50830216276446
 20
-2.389362714850899
 30
0.0
 10
-15.51073555964831
 20
-2.409783978175581
 30
0.0
 10
-15.51073555964831
 20
-2.430039795518251
 30
0.0
 10
-15.51073555964831
 20
-2.46101776979143
 30
0.0
 10
-15.50495258608152
 20
-2.492315745449652
 30
0.0
 10
-15.49386417179054
 20
-2.521358122533305
 30
0.0
 10
-15.48277583316066
 20
-2.550400301448104
 30
0.0
 10
-15.46607601703418
 20
-2.577988947019881
 30
0.0
 10
-15.44514650595517
 20
-2.601884794487794
 30
0.0
 10
-15.42421224931802
 20
-2.625786060101069
 30
0.0
 10
-15.39847026010301
 20
-2.646653021806325
 30
0.0
 10
-15.37005266786188
 20
-2.662821982010489
 30
0.0
 10
-15.34159896543948
 20
-2.679011488082122
 30
0.0
 10
-15.30968290266607
 20
-2.690938726501645
 30
0.0
 10
-15.27693889304553
 20
-2.697680842987278
 30
0.0
 10
-15.25501062086238
 20
-2.702195957877016
 30
0.0
 10
-15.23238309789467
 20
-2.704490210484943
 30
0.0
 10
-15.20989476678339
 20
-2.704490210484943
 30
0.0
  0
SPLINE
  5
CA
330
1F
100
AcDbEntity
  8
SK1
  6
Continuous
100
AcDbSpline
210
0.0
220
0.0
230
1.0
 70
     8
 71
     3
 72
    35
 73
    31
 74
     0
 42
0.0000000108334332
 43
0.0000000001
 12
1.0
 22
0.0
 32
0.0
 13
1.0
 23
0.0
 33
0.0
 40
0.0
 40
0.0
 40
0.0
 40
0.0
 40
0.1119615440540011
 40
0.1119615440540011
 40
0.1119615440540011
 40
0.2240715221133873
 40
0.2240715221133873
 40
0.2240715221133873
 40
0.3338400478832876
 40
0.3338400478832876
 40
0.3338400478832876
 40
0.4402527267872415
 40
0.4402527267872415
 40
0.4402527267872415
 40
0.5001438666164723
 40
0.5001438666164723
 40
0.5001438666164723
 40
0.6037319614880876
 40
0.6037319614880876
 40
0.6037319614880876
 40
0.707254112484006
 40
0.707254112484006
 40
0.707254112484006
 40
0.8118158326264298
 40
0.8118158326264298
 40
0.8118158326264298
 40
0.919021404300797
 40
0.919021404300797
 40
0.919021404300797
 40
1.0
 40
1.0
 40
1.0
 40
1.0
 10
-15.0328236022129
 20
-3.293184353869739
 30
0.0
 10
-15.06801576680876
 20
-3.291290255296142
 30
0.0
 10
-15.1037306270527
 20
-3.283884486258458
 30
0.0
 10
-15.13701949238595
 20
-3.271452671084419
 30
0.0
 10
-15.17033369705091
 20
-3.259011392869651
 30
0.0
 10
-15.20215095488185
 20
-3.241166247027666
 30
0.0
 10
-15.22961869937624
 20
-3.219277646953694
 30
0.0
 10
-15.25651319456212
 20
-3.197845859955845
 30
0.0
 10
-15.2800002905204
 20
-3.171909717481287
 30
0.0
 10
-15.29787731996236
 20
-3.143617227963007
 30
0.0
 10
-15.3152161108755
 20
-3.116176563854794
 30
0.0
 10
-15.32776705692304
 20
-3.085734380966282
 30
0.0
 10
-15.33435301975099
 20
-3.054874391493046
 30
0.0
 10
-15.33809767951027
 20
-3.037327957695734
 30
0.0
 10
-15.34000000002512
 20
-3.019425951777091
 30
0.0
 10
-15.34000000002512
 20
-3.001683973518586
 30
0.0
 10
-15.34000000002513
 20
-2.971289115625094
 30
0.0
 10
-15.33430832756592
 20
-2.940697888711651
 30
0.0
 10
-15.32344120388479
 20
-2.912465767853856
 30
0.0
 10
-15.31257792274925
 20
-2.884243629693857
 30
0.0
 10
-15.29625564585981
 20
-2.85760951150674
 30
0.0
 10
-15.27590021727161
 20
-2.834700981641182
 30
0.0
 10
-15.25533652544066
 20
-2.811558066894178
 30
0.0
 10
-15.2301185606072
 20
-2.791595003311804
 30
0.0
 10
-15.20234460362663
 20
-2.776310039768048
 30
0.0
 10
-15.17387223542267
 20
-2.760640716512951
 30
0.0
 10
-15.14196696933783
 20
-2.749465479802661
 30
0.0
 10
-15.10918837922253
 20
-2.743548414604878
 30
0.0
 10
-15.08428261789429
 20
-2.739052522223257
 30
0.0
 10
-15.0584503847013
 20
-2.737477359950195
 30
0.0
 10
-15.0328236022129
 20
-2.738856634362969
 30
0.0
  0
LINE
  5
CB
330
1F
100
AcDbEntity
  8
SK3
100
AcDbLine
 10
-15.2098947668
 20
-2.150162491
 30
0.0
 11
11.16
 21
-2.150162491
 31
0.0
  0
LINE
  5
CC
330
1F
100
AcDbEntity
  8
SK1
  6
Continuous
100
AcDbLine
 10
-15.0328236022
 20
-2.7388566344
 30
0.0
 11
3.1043307596
 21
-3.7148546041
 31
0.0
  0
LINE
  5
CD
330
1F
100
AcDbEntity
  8
SK1
  6
Continuous
100
AcDbLine
 10
6.36
 20
-9.5819697696
 30
0.0
 11
6.36
 21
-4.2936994929
 31
0.0
  0
LINE
  5
CE
330
1F
100
AcDbEntity
  8
SK1
  6
Continuous
100
AcDbLine
 10
6.6198076211
 20
-9.5819697696
 30
0.0
 11
6.6198076211
 21
-4.2936994929
 31
0.0
  0
LINE
  5
CF
330
1F
100
AcDbEntity
  8
SK1
  6
Continuous
100
AcDbLine
 10
6.36
 20
-9.5819697696
 30
0.0
 11
6.6198076211
 21
-9.5819697696
 31
0.0
  0
LINE
  5
D0
330
1F
100
AcDbEntity
  8
SK1
  6
Continuous
100
AcDbLine
 10
6.36
 20
-9.811579829
 30
0.0
 11
6.6198076211
 21
-9.811579829
 31
0.0
  0
LINE
  5
D1
330
1F
100
AcDbEntity
  8
SK1
  6
Continuous
100
AcDbLine
 10
11.035
 20
-7.2256264036
 30
0.0
 11
11.035
 21
-3.3176701131
 31
0.0
  0
LINE
  5
D2
330
1F
100
AcDbEntity
  8
SK1
  6
Continuous
100
AcDbLine
 10
11.16
 20
-7.7343811406
 30
0.0
 11
11.16
 21
-7.255064144
 31
0.0
  0
LINE
  5
D3
330
1F
100
AcDbEntity
  8
SK1
  6
Continuous
100
AcDbLine
 10
3.1043307596
 20
-9.5227800869
 30
0.0
 11
3.1043307596
 21
-4.2691823236
 31
0.0
  0
LINE
  5
D4
330
1F
100
AcDbEntity
  8
SK1
  6
Continuous
100
AcDbLine
 10
3.56
 20
-9.1566674513
 30
0.0
 11
3.56
 21
-4.1175335046
 31
0.0
  0
LINE
  5
D5
330
1F
100
AcDbEntity
  8
SK1
  6
Continuous
100
AcDbLine
 10
3.76
 20
-7.9181667945
 30
0.0
 11
3.76
 21
-3.6045297355
 31
0.0
  0
LINE
  5
D6
330
1F
100
AcDbEntity
  8
SK1
  6
Continuous
100
AcDbLine
 10
6.16
 20
-7.9181667945
 30
0.0
 11
6.16
 21
-3.6045297355
 31
0.0
  0
ARC
  5
D7
330
1F
100
AcDbEntity
  8
SK1
  6
Continuous
100
AcDbCircle
 10
3.1698834536
 20
-9.3673553257
 30
0.0
 40
0.3905751769059509
100
AcDbArc
 50
260.3379590525
 51
357.2231059151
  0
LINE
  5
D8
330
1F
100
AcDbEntity
  8
SK1
  6
Continuous
100
AcDbLine
 10
6.6198076211
 20
-9.811579829
 30
0.0
 11
11.035
 21
-7.455236463
 31
0.0
  0
ARC
  5
D9
330
1F
100
AcDbEntity
  8
SK1
  6
Continuous
100
AcDbCircle
 10
10.92861756
 20
-7.2496896429
 30
0.0
 40
0.2314448504484449
100
AcDbArc
 50
297.3641944883
 51
358.6693853237
  0
LINE
  5
DA
330
1F
100
AcDbEntity
  8
SK1
  6
Continuous
100
AcDbLine
 10
11.16
 20
-7.255064144
 30
0.0
 11
11.16
 21
-7.0254540846
 31
0.0
  0
ARC
  5
DB
330
1F
100
AcDbEntity
  8
SK1
  6
Continuous
100
AcDbCircle
 10
6.1672772448
 20
-8.1109125302
 30
0.0
 40
0.1928830653693314
100
AcDbArc
 50
2.3361525744
 51
92.1622136513
  0
LINE
  5
DC
330
1F
100
AcDbEntity
  8
SK1
  6
Continuous
100
AcDbLine
 10
6.16
 20
-7.9181667945
 30
0.0
 11
3.76
 21
-7.9181667945
 31
0.0
  0
ARC
  5
DD
330
1F
100
AcDbEntity
  8
SK1
  6
Continuous
100
AcDbCircle
 10
3.7527231138
 20
-8.1109129181
 30
0.0
 40
0.1928834395199233
100
AcDbArc
 50
87.837897152
 51
177.6637366217
  0
LINE
  5
DE
330
1F
100
AcDbEntity
  8
SK1
  6
Continuous
100
AcDbLine
 10
6.36
 20
-9.811579829
 30
0.0
 11
6.36
 21
-9.5819697696
 31
0.0
  0
ARC
  5
DF
330
1F
100
AcDbEntity
  8
SK1
  6
Continuous
100
AcDbCircle
 10
6.1672772448
 20
-8.3405225896
 30
0.0
 40
0.1928830653693277
100
AcDbArc
 50
2.3361525744
 51
92.1622136513
  0
LINE
  5
E0
330
1F
100
AcDbEntity
  8
SK1
  6
Continuous
100
AcDbLine
 10
6.16
 20
-8.1477768539
 30
0.0
 11
3.76
 21
-8.1477768539
 31
0.0
  0
ARC
  5
E1
330
1F
100
AcDbEntity
  8
SK1
  6
Continuous
100
AcDbCircle
 10
3.7527231138
 20
-8.3405229776
 30
0.0
 40
0.1928834395199225
100
AcDbArc
 50
87.837897152
 51
177.6637366217
  0
LINE
  5
E2
330
1F
100
AcDbEntity
  8
SK1
  6
Continuous
100
AcDbLine
 10
3.56
 20
-9.1566674513
 30
0.0
 11
3.56
 21
-9.3862775107
 31
0.0
  0
ARC
  5
E3
330
1F
100
AcDbEntity
  8
SK1
  6
Continuous
100
AcDbCircle
 10
3.1698834536
 20
-9.1377452663
 30
0.0
 40
0.3905751769059488
100
AcDbArc
 50
260.3379590525
 51
357.2231059151
  0
LINE
  5
E4
330
1F
100
AcDbEntity
  8
SK1
  6
Continuous
100
AcDbLine
 10
6.6198076211
 20
-9.5819697696
 30
0.0
 11
11.035
 21
-7.2256264036
 31
0.0
  0
ARC
  5
E5
330
1F
100
AcDbEntity
  8
SK1
  6
Continuous
100
AcDbCircle
 10
10.92861756
 20
-7.0200795834
 30
0.0
 40
0.2314448504483823
100
AcDbArc
 50
297.3641944883
 51
358.6693853238
  0
SPLINE
  5
E6
330
1F
100
AcDbEntity
  8
SK3
100
AcDbSpline
210
0.0
220
0.0
230
1.0
 70
     8
 71
     3
 72
    11
 73
     7
 74
     0
 42
0.000000263285683
 43
0.0000000001
 12
1.0
 22
0.0
 32
0.0
 13
1.0
 23
0.0
 33
0.0
 40
0.0
 40
0.0
 40
0.0
 40
0.0
 40
0.3327806063712721
 40
0.3327806063712721
 40
0.3327806063712721
 40
0.9999999999999999
 40
0.9999999999999999
 40
0.9999999999999999
 40
0.9999999999999999
 10
-2.433208200336257
 20
4.548019711699065
 30
0.0
 10
-2.431589772445156
 20
4.544081824101283
 30
0.0
 10
-2.430140334822723
 20
4.540111573268311
 30
0.0
 10
-2.428865613404879
 20
4.53611833526038
 30
0.0
 10
-2.426288620915067
 20
4.528045556210444
 30
0.0
 10
-2.424393668306244
 20
4.519815858486137
 30
0.0
 10
-2.423194374685881
 20
4.511515467368484
 30
0.0
  0
SPLINE
  5
E7
330
1F
100
AcDbEntity
  8
SK1
  6
Continuous
100
AcDbSpline
210
0.0
220
0.0
230
1.0
 70
     8
 71
     3
 72
    11
 73
     7
 74
     0
 42
0.0000000005467597
 43
0.0000000001
 12
1.0
 22
0.0
 32
0.0
 13
1.0
 23
0.0
 33
0.0
 40
0.0
 40
0.0
 40
0.0
 40
0.0
 40
0.7010206363227406
 40
0.7010206363227406
 40
0.7010206363227406
 40
1.0
 40
1.0
 40
1.0
 40
1.0
 10
-15.03282360221291
 20
-7.396122611000527
 30
0.0
 10
-10.79466497899661
 20
-7.946815526376792
 30
0.0
 10
-6.55649332373371
 20
-8.497422835830406
 30
0.0
 10
-2.318314740217023
 20
-9.047984616328534
 30
0.0
 10
-0.5107674719252651
 20
-9.282794552426008
 30
0.0
 10
1.296781118067362
 20
-9.517595804280035
 30
0.0
 10
3.104330759591118
 20
-9.75239014633238
 30
0.0
  0
LINE
  5
E8
330
1F
100
AcDbEntity
  8
SK3
100
AcDbLine
 10
-15.2098947668
 20
-5.974889226
 30
0.0
 11
11.16
 21
-5.974889226
 31
0.0
  0
ELLIPSE
  5
E9
330
1F
100
AcDbEntity
  8
SK1
  6
Continuous
100
AcDbEllipse
 10
46.6658476258
 20
-0.114805033
 30
0.0
 11
-62.19999997271476
 21
2.266079998030792E-8
 31
0.0
210
0.0
220
0.0
230
1.0
 40
0.9238795327
 41
0.122987655220401
 42
0.1270495822036335
  0
SPLINE
  5
EA
330
1F
100
AcDbEntity
  8
SK3
100
AcDbSpline
210
0.0
220
0.0
230
1.0
 70
     8
 71
     3
 72
    35
 73
    31
 74
     0
 42
0.0000000145136508
 43
0.0000000001
 12
1.0
 22
0.0
 32
0.0
 13
1.0
 23
0.0
 33
0.0
 40
0.0
 40
0.0
 40
0.0
 40
0.0
 40
0.1078704826195376
 40
0.1078704826195376
 40
0.1078704826195376
 40
0.2157669765668086
 40
0.2157669765668086
 40
0.2157669765668086
 40
0.3232946122917939
 40
0.3232946122917939
 40
0.3232946122917939
 40
0.4305342655586362
 40
0.4305342655586362
 40
0.4305342655586362
 40
0.5000116138322367
 40
0.5000116138322367
 40
0.5000116138322367
 40
0.6071444575011776
 40
0.6071444575011776
 40
0.6071444575011776
 40
0.7142759345425392
 40
0.7142759345425392
 40
0.7142759345425392
 40
0.821429733100938
 40
0.821429733100938
 40
0.821429733100938
 40
0.9287167764825561
 40
0.9287167764825561
 40
0.9287167764825561
 40
1.0
 40
1.0
 40
1.0
 40
1.0
 10
-15.20989476678339
 20
-5.745279166532285
 30
0.0
 10
-15.2436546291581
 20
-5.745279166532288
 30
0.0
 10
-15.27788138243206
 20
-5.747758430352706
 30
0.0
 10
-15.30974310568417
 20
-5.752484775303676
 30
0.0
 10
-15.3416094706495
 20
-5.757211808803027
 30
0.0
 10
-15.37198910477935
 20
-5.764314971750169
 30
0.0
 10
-15.39833986958733
 20
-5.773107240247736
 30
0.0
 10
-15.42460183403602
 20
-5.781869879373736
 30
0.0
 10
-15.4475886334341
 20
-5.792547021250471
 30
0.0
 10
-15.46538314975181
 20
-5.804132368460346
 30
0.0
 10
-15.48313107726834
 20
-5.815687383435953
 30
0.0
 10
-15.49620511937301
 20
-5.828459634820025
 30
0.0
 10
-15.5035222773712
 20
-5.841305547158795
 30
0.0
 10
-15.50830216276447
 20
-5.849697055004667
 30
0.0
 10
-15.5107355596483
 20
-5.858244797186313
 30
0.0
 10
-15.5107355596483
 20
-5.866635031446599
 30
0.0
 10
-15.5107355596483
 20
-5.879466528525394
 30
0.0
 10
-15.50495258608152
 20
-5.892216144536754
 30
0.0
 10
-15.49386417179054
 20
-5.903867680181963
 30
0.0
 10
-15.48277583316066
 20
-5.915519136323643
 30
0.0
 10
-15.46607601703418
 20
-5.926397303897317
 30
0.0
 10
-15.44514650595517
 20
-5.935704394117918
 30
0.0
 10
-15.42421224931802
 20
-5.945013594628511
 30
0.0
 10
-15.39847026010301
 20
-5.953012881001563
 30
0.0
 10
-15.37005266786188
 20
-5.959164872577568
 30
0.0
 10
-15.34159896543948
 20
-5.965324681477752
 30
0.0
 10
-15.30968290266607
 20
-5.969807222136515
 30
0.0
 10
-15.27693889304553
 20
-5.972337346229637
 30
0.0
 10
-15.25501062086238
 20
-5.974031740117681
 30
0.0
 10
-15.23238309789467
 20
-5.974889225951339
 30
0.0
 10
-15.20989476678339
 20
-5.974889225951339
 30
0.0
  0
SPLINE
  5
EB
330
1F
100
AcDbEntity
  8
SK1
  6
Continuous
100
AcDbSpline
210
0.0
220
0.0
230
1.0
 70
     8
 71
     3
 72
    35
 73
    31
 74
     0
 42
0.0000000142044397
 43
0.0000000001
 12
1.0
 22
0.0
 32
0.0
 13
1.0
 23
0.0
 33
0.0
 40
0.0
 40
0.0
 40
0.0
 40
0.0
 40
0.1119615440540031
 40
0.1119615440540031
 40
0.1119615440540031
 40
0.2240715221133952
 40
0.2240715221133952
 40
0.2240715221133952
 40
0.3338400478832947
 40
0.3338400478832947
 40
0.3338400478832947
 40
0.4402527267872414
 40
0.4402527267872414
 40
0.4402527267872414
 40
0.5001438666164707
 40
0.5001438666164707
 40
0.5001438666164707
 40
0.6037319614880864
 40
0.6037319614880864
 40
0.6037319614880864
 40
0.7072541124840034
 40
0.7072541124840034
 40
0.7072541124840034
 40
0.811815832626429
 40
0.811815832626429
 40
0.811815832626429
 40
0.9190214043008
 40
0.9190214043008
 40
0.9190214043008
 40
1.0
 40
1.0
 40
1.0
 40
1.0
 10
-15.03282360221291
 20
-7.396122611000527
 30
0.0
 10
-15.06801576680877
 20
-7.391549852535674
 30
0.0
 10
-15.10373062705271
 20
-7.384818495215907
 30
0.0
 10
-15.13701949238596
 20
-7.376407080568149
 30
0.0
 10
-15.17033369705092
 20
-7.367989263190116
 30
0.0
 10
-15.20215095488186
 20
-7.357642311026347
 30
0.0
 10
-15.22961869937625
 20
-7.346122123273179
 30
0.0
 10
-15.25651319456213
 20
-7.334842360781892
 30
0.0
 10
-15.28000029052041
 20
-7.322105550758021
 30
0.0
 10
-15.29787731996237
 20
-7.308904530582035
 30
0.0
 10
-15.3152161108755
 20
-7.296100964451848
 30
0.0
 10
-15.32776705692304
 20
-7.282491230829038
 30
0.0
 10
-15.33435301975099
 20
-7.269185425863687
 30
0.0
 10
-15.33809767951027
 20
-7.261619984982802
 30
0.0
 10
-15.34000000002512
 20
-7.254055126844526
 30
0.0
 10
-15.34000000002512
 20
-7.246706158826525
 30
0.0
 10
-15.34000000002513
 20
-7.234116196460636
 30
0.0
 10
-15.33430832756593
 20
-7.221889921928188
 30
0.0
 10
-15.3234412038848
 20
-7.211070306818086
 30
0.0
 10
-15.31257792274926
 20
-7.200254517454852
 30
0.0
 10
-15.29625564585982
 20
-7.190551242488407
 30
0.0
 10
-15.27590021727162
 20
-7.182791809046524
 30
0.0
 10
-15.25533652544067
 20
-7.174952986228804
 30
0.0
 10
-15.2301185606072
 20
-7.168889351949796
 30
0.0
 10
-15.20234460362663
 20
-7.165110186425808
 30
0.0
 10
-15.17387223542267
 20
-7.161235989012098
 30
0.0
 10
-15.14196696933783
 20
-7.159659295515875
 30
0.0
 10
-15.10918837922253
 20
-7.160505192789537
 30
0.0
 10
-15.08428261789429
 20
-7.161147920726641
 30
0.0
 10
-15.0584503847013
 20
-7.163182688587921
 30
0.0
 10
-15.0328236022129
 20
-7.166512551581474
 30
0.0
  0
LINE
  5
EC
330
1F
100
AcDbEntity
  8
SK3
100
AcDbLine
 10
-15.2098947668
 20
-5.7452791665
 30
0.0
 11
11.16
 21
-5.7452791665
 31
0.0
  0
SPLINE
  5
ED
330
1F
100
AcDbEntity
  8
SK1
  6
Continuous
100
AcDbSpline
210
0.0
220
0.0
230
1.0
 70
     8
 71
     3
 72
    11
 73
     7
 74
     0
 42
0.0000000005467597
 43
0.0000000001
 12
1.0
 22
0.0
 32
0.0
 13
1.0
 23
0.0
 33
0.0
 40
0.0
 40
0.0
 40
0.0
 40
0.0
 40
0.7010206363227405
 40
0.7010206363227405
 40
0.7010206363227405
 40
1.0
 40
1.0
 40
1.0
 40
1.0
 10
-15.0328236022129
 20
-7.166512551581474
 30
0.0
 10
-10.79466497899661
 20
-7.717205466957739
 30
0.0
 10
-6.55649332373371
 20
-8.267812776411354
 30
0.0
 10
-2.318314740217025
 20
-8.81837455690948
 30
0.0
 10
-0.5107674719252667
 20
-9.053184493006958
 30
0.0
 10
1.29678111806736
 20
-9.28798574486098
 30
0.0
 10
3.104330759591118
 20
-9.522780086913325
 30
0.0
  0
LINE
  5
EE
330
1F
100
AcDbEntity
  8
SK1
  6
Continuous
100
AcDbLine
 10
6.36
 20
-9.811579829
 30
0.0
 11
6.36
 21
-10.5
 31
0.0
  0
LINE
  5
EF
330
1F
100
AcDbEntity
  8
SK1
  6
Continuous
100
AcDbLine
 10
6.6198076211
 20
-9.811579829
 30
0.0
 11
6.6198076211
 21
-10.5
 31
0.0
  0
LINE
  5
F0
330
1F
100
AcDbEntity
  8
SK1
  6
Continuous
100
AcDbLine
 10
11.035
 20
-7.455236463
 30
0.0
 11
11.035
 21
-7.9508874915
 31
0.0
  0
LINE
  5
F1
330
1F
100
AcDbEntity
  8
SK1
  6
Continuous
100
AcDbLine
 10
3.1043307596
 20
-9.7523901463
 30
0.0
 11
3.1043307596
 21
-10.4359598646
 31
0.0
  0
LINE
  5
F2
330
1F
100
AcDbEntity
  8
SK1
  6
Continuous
100
AcDbLine
 10
3.56
 20
-9.3862775107
 30
0.0
 11
3.56
 21
-10.0398526371
 31
0.0
  0
LINE
  5
F3
330
1F
100
AcDbEntity
  8
SK1
  6
Continuous
100
AcDbLine
 10
3.76
 20
-8.1477768539
 30
0.0
 11
3.76
 21
-8.7
 31
0.0
  0
LINE
  5
F4
330
1F
100
AcDbEntity
  8
SK1
  6
Continuous
100
AcDbLine
 10
6.16
 20
-8.1477768539
 30
0.0
 11
6.16
 21
-8.7
 31
0.0
  0
ARC
  5
F5
330
1F
100
AcDbEntity
  8
SK1
  6
Continuous
100
AcDbCircle
 10
-20.1398803136
 20
6.9608296263
 30
0.0
 40
0.2001197003429021
100
AcDbArc
 50
98.0297884767
 51
180.021398635
  0
LINE
  5
F6
330
1F
100
AcDbEntity
  8
SK3
100
AcDbLine
 10
-20.34
 20
6.6079281079
 30
0.0
 11
-18.8386154541
 21
6.3429094271
 31
0.0
  0
LINE
  5
F7
330
1F
100
AcDbEntity
  8
SK3
100
AcDbLine
 10
-18.8386154541
 20
6.3429094271
 30
0.0
 11
-2.722493124
 21
6.3429094271
 31
0.0
  0
SPLINE
  5
F8
330
1F
100
AcDbEntity
  8
SK1
  6
Continuous
100
AcDbSpline
210
0.0
220
0.0
230
1.0
 70
     8
 71
     3
 72
    11
 73
     7
 74
     0
 42
0.0000000005814279
 43
0.0000000001
 12
1.0
 22
0.0
 32
0.0
 13
1.0
 23
0.0
 33
0.0
 40
0.0
 40
0.0
 40
0.0
 40
0.0
 40
0.7314086246724174
 40
0.7314086246724174
 40
0.7314086246724174
 40
1.0
 40
1.0
 40
1.0
 40
1.0
 10
-20.16783462021685
 20
7.158987268656489
 30
0.0
 10
-16.01553855294319
 20
7.743066588577468
 30
0.0
 10
-11.86322587006044
 20
8.327027788112062
 30
0.0
 10
-7.710904765646037
 20
8.910929088068183
 30
0.0
 10
-6.186069538391886
 20
9.125352117748148
 30
0.0
 10
-4.661233108340802
 20
9.339766594041558
 30
0.0
 10
-3.136395703209666
 20
9.554174135525763
 30
0.0
  0
SPLINE
  5
F9
330
1F
100
AcDbEntity
  8
SK1
  6
Continuous
100
AcDbSpline
210
0.0
220
0.0
230
1.0
 70
     8
 71
     3
 72
    20
 73
    16
 74
     0
 42
0.0000000333319097
 43
0.0000000001
 12
1.0
 22
0.0
 32
0.0
 13
1.0
 23
0.0
 33
0.0
 40
0.0
 40
0.0
 40
0.0
 40
0.0
 40
0.2149247017096622
 40
0.2149247017096622
 40
0.2149247017096622
 40
0.4298480123667788
 40
0.4298480123667788
 40
0.4298480123667788
 40
0.6447905156016547
 40
0.6447905156016547
 40
0.6447905156016547
 40
0.8597152002296796
 40
0.8597152002296796
 40
0.8597152002296796
 40
1.0
 40
1.0
 40
1.0
 40
1.0
 10
-2.840000000024821
 20
9.60053865790476
 30
0.0
 10
-2.840000000024821
 20
9.60053865790476
 30
0.0
 10
-2.845712459777098
 20
9.599550051989672
 30
0.0
 10
-2.856668421704929
 20
9.597682428907246
 30
0.0
 10
-2.867624342421124
 20
9.595814812850021
 30
0.0
 10
-2.884126172472487
 20
9.593019183818456
 30
0.0
 10
-2.90481878107648
 20
9.589598121904926
 30
0.0
 10
-2.925513149049539
 20
9.586176769118913
 30
0.0
 10
-2.95097059337154
 20
9.582039399919056
 30
0.0
 10
-2.9790960632832
 20
9.57761246598563
 30
0.0
 10
-3.007219105747956
 20
9.57318591413105
 30
0.0
 10
-3.038786301056096
 20
9.568351374715713
 30
0.0
 10
-3.071191070405164
 20
9.563569434238525
 30
0.0
 10
-3.092515486608936
 20
9.560422610760202
 30
0.0
 10
-3.11451638474307
 20
9.557250588705099
 30
0.0
 10
-3.136395703209666
 20
9.554174135525763
 30
0.0
  0
ARC
  5
FA
330
1F
100
AcDbEntity
  8
SK3
100
AcDbCircle
 10
-2.7222613474
 20
12.7186990883
 30
0.0
 40
6.375789665447938
100
AcDbArc
 50
269.997917149
 51
272.6569873139
  0
SPLINE
  5
FB
330
1F
100
AcDbEntity
  8
SK3
100
AcDbSpline
210
0.0
220
0.0
230
1.0
 70
     8
 71
     3
 72
    11
 73
     7
 74
     0
 42
0.0000003434148905
 43
0.0000000001
 12
1.0
 22
0.0
 32
0.0
 13
1.0
 23
0.0
 33
0.0
 40
0.0
 40
0.0
 40
0.0
 40
0.0
 40
0.2495194758582696
 40
0.2495194758582696
 40
0.2495194758582696
 40
1.0
 40
1.0
 40
1.0
 40
1.0
 10
-15.4991756737762
 20
-5.897681152085946
 30
0.0
 10
-15.5007957202462
 20
-5.895588134777937
 30
0.0
 10
-15.50224650149695
 20
-5.893473738947901
 30
0.0
 10
-15.50352227737119
 20
-5.891342647901588
 30
0.0
 10
-15.50739125821542
 20
-5.884879796077898
 30
0.0
 10
-15.50972287535598
 20
-5.878188629319526
 30
0.0
 10
-15.51047103962003
 20
-5.871423563167649
 30
0.0
  0
LINE
  5
FC
330
1F
100
AcDbEntity
  8
SK1
  6
Continuous
100
AcDbLine
 10
-20.34
 20
5.1341290166
 30
0.0
 11
-20.34
 21
6.9607548863
 31
0.0
  0
LINE
  5
FD
330
1F
100
AcDbEntity
  8
SK1
  6
Continuous
100
AcDbLine
 10
-20.1678346202
 20
5.2743004785
 30
0.0
 11
-20.1678346202
 21
7.1589872687
 31
0.0
  0
SPLINE
  5
FE
330
1F
100
AcDbEntity
  8
SK1
  6
Continuous
100
AcDbSpline
210
0.0
220
0.0
230
1.0
 70
     8
 71
     3
 72
    10
 73
     6
 74
     0
 42
0.0000000403697801
 43
0.0000000001
 12
1.0
 22
0.0
 32
0.0
 13
1.0
 23
0.0
 33
0.0
 40
0.0
 40
0.0
 40
0.0
 40
0.0
 40
0.5
 40
0.5
 40
1.0
 40
1.0
 40
1.0
 40
1.0
 10
-20.34000000002484
 20
4.709864947929487
 30
0.0
 10
-20.34000000002485
 20
4.743556970169421
 30
0.0
 10
-20.32217488163267
 20
4.777263588516471
 30
0.0
 10
-20.25990316750099
 20
4.828038652714234
 30
0.0
 10
-20.2155197779419
 20
4.845293424827899
 30
0.0
 10
-20.16783462021685
 20
4.850036409739222
 30
0.0
  0
SPLINE
  5
FF
330
1F
100
AcDbEntity
  8
SK1
  6
Continuous
100
AcDbSpline
210
0.0
220
0.0
230
1.0
 70
     8
 71
     3
 72
    10
 73
     6
 74
     0
 42
0.0000000403697801
 43
0.0000000001
 12
1.0
 22
0.0
 32
0.0
 13
1.0
 23
0.0
 33
0.0
 40
0.0
 40
0.0
 40
0.0
 40
0.0
 40
0.5
 40
0.5
 40
1.0
 40
1.0
 40
1.0
 40
1.0
 10
-20.34000000002494
 20
5.13412901664141
 30
0.0
 10
-20.34000000002485
 20
5.167821038881341
 30
0.0
 10
-20.32217488163267
 20
5.201527657228396
 30
0.0
 10
-20.259903167501
 20
5.25230272142616
 30
0.0
 10
-20.2155197779419
 20
5.269557493539826
 30
0.0
 10
-20.16783462021685
 20
5.27430047845115
 30
0.0
  0
LINE
  5
100
330
1F
100
AcDbEntity
  8
SK3
100
AcDbLine
 10
-18.8386154541
 20
4.6972463027
 30
0.0
 11
-18.8386154541
 21
6.3429094271
 31
0.0
  0
LINE
  5
101
330
1F
100
AcDbEntity
  8
SK1
  6
Continuous
100
AcDbLine
 10
-20.34
 20
4.8846428091
 30
0.0
 11
-20.34
 21
5.1341290166
 31
0.0
  0
SPLINE
  5
102
330
1F
100
AcDbEntity
  8
SK1
  6
Continuous
100
AcDbSpline
210
0.0
220
0.0
230
1.0
 70
     8
 71
     3
 72
    11
 73
     7
 74
     0
 42
0.0000000005842677
 43
0.0000000001
 12
1.0
 22
0.0
 32
0.0
 13
1.0
 23
0.0
 33
0.0
 40
0.0
 40
0.0
 40
0.0
 40
0.0
 40
0.7314086246724174
 40
0.7314086246724174
 40
0.7314086246724174
 40
1.0
 40
1.0
 40
1.0
 40
1.0
 10
-20.16783462021685
 20
5.27430047845115
 30
0.0
 10
-16.01553855294319
 20
5.687306926318103
 30
0.0
 10
-11.86322587006044
 20
6.100229850458845
 30
0.0
 10
-7.710904765646037
 20
6.513110419201459
 30
0.0
 10
-6.186069538391886
 20
6.664730397530725
 30
0.0
 10
-4.661233108340799
 20
6.816344327702358
 30
0.0
 10
-3.136395703209662
 20
6.967953354223375
 30
0.0
  0
LINE
  5
103
330
1F
100
AcDbEntity
  8
SK3
100
AcDbLine
 10
-20.34
 20
4.4603787403
 30
0.0
 11
-18.8386154541
 21
4.272982234
 31
0.0
  0
LINE
  5
104
330
1F
100
AcDbEntity
  8
SK3
100
AcDbLine
 10
-18.8386154541
 20
4.272982234
 30
0.0
 11
-2.722493124
 21
4.272982234
 31
0.0
  0
LINE
  5
105
330
1F
100
AcDbEntity
  8
SK1
  6
Continuous
100
AcDbLine
 10
-20.34
 20
4.8846428091
 30
0.0
 11
-20.1093433578
 21
4.8558532168
 31
0.0
  0
LINE
  5
106
330
1F
100
AcDbEntity
  8
SK3
100
AcDbLine
 10
-20.1093433578
 20
4.8558532168
 30
0.0
 11
-18.8386154541
 21
4.6972463027
 31
0.0
  0
LINE
  5
107
330
1F
100
AcDbEntity
  8
SK3
100
AcDbLine
 10
-18.8386154541
 20
4.6972463027
 30
0.0
 11
-2.722493124
 21
4.6972463027
 31
0.0
  0
SPLINE
  5
108
330
1F
100
AcDbEntity
  8
SK1
  6
Continuous
100
AcDbSpline
210
0.0
220
0.0
230
1.0
 70
     8
 71
     3
 72
    11
 73
     7
 74
     0
 42
0.0000000005842677
 43
0.0000000001
 12
1.0
 22
0.0
 32
0.0
 13
1.0
 23
0.0
 33
0.0
 40
0.0
 40
0.0
 40
0.0
 40
0.0
 40
0.7314086246724174
 40
0.7314086246724174
 40
0.7314086246724174
 40
1.0
 40
1.0
 40
1.0
 40
1.0
 10
-20.16783462021685
 20
4.850036409739222
 30
0.0
 10
-16.01553855294319
 20
5.263042857606173
 30
0.0
 10
-11.86322587006044
 20
5.675965781746916
 30
0.0
 10
-7.710904765646037
 20
6.088846350489531
 30
0.0
 10
-6.186069538391886
 20
6.240466328818796
 30
0.0
 10
-4.661233108340799
 20
6.392080258990428
 30
0.0
 10
-3.136395703209662
 20
6.543689285511447
 30
0.0
  0
SPLINE
  5
109
330
1F
100
AcDbEntity
  8
SK1
  6
Continuous
100
AcDbSpline
210
0.0
220
0.0
230
1.0
 70
     8
 71
     3
 72
    35
 73
    31
 74
     0
 42
0.0000000123423821
 43
0.0000000001
 12
1.0
 22
0.0
 32
0.0
 13
1.0
 23
0.0
 33
0.0
 40
0.0
 40
0.0
 40
0.0
 40
0.0
 40
0.1074285959530358
 40
0.1074285959530358
 40
0.1074285959530358
 40
0.2148567029690025
 40
0.2148567029690025
 40
0.2148567029690025
 40
0.3222951556111655
 40
0.3222951556111655
 40
0.3222951556111655
 40
0.4297633880495435
 40
0.4297633880495435
 40
0.4297633880495435
 40
0.4999992835871153
 40
0.4999992835871153
 40
0.4999992835871153
 40
0.6074617884167742
 40
0.6074617884167742
 40
0.6074617884167742
 40
0.7149235977191623
 40
0.7149235977191623
 40
0.7149235977191623
 40
0.8223950033241799
 40
0.8223950033241799
 40
0.8223950033241799
 40
0.9298574996130037
 40
0.9298574996130037
 40
0.9298574996130037
 40
1.0
 40
1.0
 40
1.0
 40
1.0
 10
-3.136395703209662
 20
6.967953354223375
 30
0.0
 10
-3.103157912648633
 20
6.97125806661678
 30
0.0
 10
-3.069487393884736
 20
6.97064224048113
 30
0.0
 10
-3.038168610558155
 20
6.966135480595011
 30
0.0
 10
-3.006849879389593
 20
6.961628728214411
 30
0.0
 10
-2.977018914274517
 20
6.953105042185386
 30
0.0
 10
-2.95113432588834
 20
6.94121926970621
 30
0.0
 10
-2.925247179275233
 20
6.929332322531775
 30
0.0
 10
-2.902592633809724
 20
6.913752171066653
 30
0.0
 10
-2.885032287893941
 20
6.895709136147169
 30
0.0
 10
-2.867467217372123
 20
6.877661246754313
 30
0.0
 10
-2.854514141950218
 20
6.85664875555627
 30
0.0
 10
-2.84723664197695
 20
6.834369769016939
 30
0.0
 10
-2.842441561855534
 20
6.819690342583069
 30
0.0
 10
-2.840000000024821
 20
6.804249750193284
 30
0.0
 10
-2.840000000024821
 20
6.788605988048075
 30
0.0
 10
-2.840000000024821
 20
6.764864707400777
 30
0.0
 10
-2.845712459777102
 20
6.74009698301947
 30
0.0
 10
-2.856668421704933
 20
6.716373520507116
 30
0.0
 10
-2.867624342421127
 20
6.692650147232273
 30
0.0
 10
-2.884126172472488
 20
6.669318467237232
 30
0.0
 10
-2.904818781076481
 20
6.648360255066152
 30
0.0
 10
-2.925513149049543
 20
6.627400260943316
 30
0.0
 10
-2.950970593371547
 20
6.60823871422803
 30
0.0
 10
-2.979096063283207
 20
6.592521893904676
 30
0.0
 10
-3.007219105747961
 20
6.576806430065214
 30
0.0
 10
-3.038786301056102
 20
6.564104227879
 30
0.0
 10
-3.071191070405169
 20
6.55550994995777
 30
0.0
 10
-3.092515486608941
 20
6.549854363973219
 30
0.0
 10
-3.114516384743073
 20
6.545864666415532
 30
0.0
 10
-3.136395703209662
 20
6.543689285511447
 30
0.0
  0
SPLINE
  5
10A
330
1F
100
AcDbEntity
  8
SK3
100
AcDbSpline
210
0.0
220
0.0
230
1.0
 70
     8
 71
     3
 72
    35
 73
    31
 74
     0
 42
0.0000000122628841
 43
0.0000000001
 12
1.0
 22
0.0
 32
0.0
 13
1.0
 23
0.0
 33
0.0
 40
0.0
 40
0.0
 40
0.0
 40
0.0
 40
0.1078704826195375
 40
0.1078704826195375
 40
0.1078704826195375
 40
0.2157669765668143
 40
0.2157669765668143
 40
0.2157669765668143
 40
0.3232946122917887
 40
0.3232946122917887
 40
0.3232946122917887
 40
0.4305342655586327
 40
0.4305342655586327
 40
0.4305342655586327
 40
0.5000116138319262
 40
0.5000116138319262
 40
0.5000116138319262
 40
0.6071444575011793
 40
0.6071444575011793
 40
0.6071444575011793
 40
0.7142759345425417
 40
0.7142759345425417
 40
0.7142759345425417
 40
0.8214297331009397
 40
0.8214297331009397
 40
0.8214297331009397
 40
0.9287167764825568
 40
0.9287167764825568
 40
0.9287167764825568
 40
1.0
 40
1.0
 40
1.0
 40
1.0
 10
-2.722493123992687
 20
4.272982233976633
 30
0.0
 10
-2.688733261617978
 20
4.272982233976634
 30
0.0
 10
-2.654506508344019
 20
4.277281872218526
 30
0.0
 10
-2.622644785091912
 20
4.285517535238906
 30
0.0
 10
-2.590778420126581
 20
4.293754398055847
 30
0.0
 10
-2.560398785996723
 20
4.306155710580025
 30
0.0
 10
-2.534048021188742
 20
4.321623773614179
 30
0.0
 10
-2.507786056740057
 20
4.337039710284449
 30
0.0
 10
-2.48479925734197
 20
4.355924029188547
 30
0.0
 10
-2.467004741024266
 20
4.376617836698218
 30
0.0
 10
-2.449256813507728
 20
4.397257464613107
 30
0.0
 10
-2.436182771403069
 20
4.420262913723197
 30
0.0
 10
-2.428865613404881
 20
4.443661828775436
 30
0.0
 10
-2.424085728011625
 20
4.458947016317368
 30
0.0
 10
-2.421652331126503
 20
4.474624929122415
 30
0.0
 10
-2.421652331126482
 20
4.49012806053449
 30
0.0
 10
-2.421652331126449
 20
4.513837575579764
 30
0.0
 10
-2.427435304694503
 20
4.537675960412106
 30
0.0
 10
-2.438523718985543
 20
4.559699347280764
 30
0.0
 10
-2.449612057615421
 20
4.581722583874103
 30
0.0
 10
-2.466311873741897
 20
4.602540673133473
 30
0.0
 10
-2.487241384820911
 20
4.620509973523894
 30
0.0
 10
-2.508175641458064
 20
4.638483348274169
 30
0.0
 10
-2.533917630673073
 20
4.654105649160004
 30
0.0
 10
-2.562335222914202
 20
4.666185661214984
 30
0.0
 10
-2.590788925336601
 20
4.678281023318669
 30
0.0
 10
-2.622704988110012
 20
4.687161931760098
 30
0.0
 10
-2.655448997730549
 20
4.692180032200937
 30
0.0
 10
-2.677377269913697
 20
4.695540594135298
 30
0.0
 10
-2.700004792881405
 20
4.697246302688562
 30
0.0
 10
-2.722493123992687
 20
4.697246302688562
 30
0.0
  0
SPLINE
  5
10B
330
1F
100
AcDbEntity
  8
SK3
100
AcDbSpline
210
0.0
220
0.0
230
1.0
 70
     8
 71
     3
 72
     8
 73
     4
 74
     0
 42
0.0000009453302693
 43
0.0000000001
 12
1.0
 22
0.0
 32
0.0
 13
1.0
 23
0.0
 33
0.0
 40
0.0
 40
0.0
 40
0.0
 40
0.0
 40
1.0
 40
1.0
 40
1.0
 40
1.0
 10
-15.49918135125655
 20
-2.505963366974195
 30
0.0
 10
-15.50023363867367
 20
-2.502591904026756
 30
0.0
 10
-15.50121447467677
 20
-2.499204181625519
 30
0.0
 10
-15.50212228505597
 20
-2.495803678411144
 30
0.0
  0
ELLIPSE
  5
10C
330
1F
100
AcDbEntity
  8
SK1
  6
Continuous
100
AcDbEllipse
 10
-64.5982354749
 20
0.2121320406
 30
0.0
 11
62.19999993111948
 21
-1.243913077093159E-8
 31
0.0
210
0.0
220
0.0
230
1.0
 40
0.7071067816
 41
0.1449149291447998
 42
0.1542146187267216
  0
LINE
  5
10D
330
1F
100
AcDbEntity
  8
SK3
100
AcDbLine
 10
-2.4216523311
 20
-6.35
 30
0.0
 11
11.16
 21
-6.35
 31
0.0
  0
LINE
  5
10E
330
1F
100
AcDbEntity
  8
SK3
100
AcDbLine
 10
11.16
 20
6.35
 30
0.0
 11
-2.4216523311
 21
6.35
 31
0.0
  0
LINE
  5
10F
330
1F
100
AcDbEntity
  8
SK1
  6
Continuous
100
AcDbLine
 10
3.1043307596
 20
10.4359598646
 30
0.0
 11
-2.84
 21
9.6005386579
 31
0.0
  0
LINE
  5
110
330
1F
100
AcDbEntity
  8
SK1
  6
Continuous
100
AcDbLine
 10
-2.84
 20
-9.6005386579
 30
0.0
 11
3.1043307596
 21
-10.4359598646
 31
0.0
  0
ARC
  5
111
330
1F
100
AcDbEntity
  8
SK3
100
AcDbCircle
 10
-34.2627943668
 20
0.0908753678
 30
0.0
 40
32.17052024109724
100
AcDbArc
 50
347.5690596055
 51
351.8000190328
  0
LINE
  5
112
330
1F
100
AcDbEntity
  8
SK1
  6
Continuous
100
AcDbLine
 10
6.6198076211
 20
10.5
 30
0.0
 11
6.36
 21
10.5
 31
0.0
  0
ARC
  5
113
330
1F
100
AcDbEntity
  8
SK1
  6
Continuous
100
AcDbCircle
 10
10.91
 20
7.7343811406
 30
0.0
 40
0.2500000000000002
100
AcDbArc
 50
0.0
 51
60.0
  0
ARC
  5
114
330
1F
100
AcDbEntity
  8
SK1
  6
Continuous
100
AcDbCircle
 10
3.16
 20
10.0398526371
 30
0.0
 40
0.3999999999999993
100
AcDbArc
 50
0.0
 51
98.0
  0
ARC
  5
115
330
1F
100
AcDbEntity
  8
SK1
  6
Continuous
100
AcDbCircle
 10
3.76
 20
8.9
 30
0.0
 40
0.1999999999999994
100
AcDbArc
 50
180.0
 51
270.0
  0
LINE
  5
116
330
1F
100
AcDbEntity
  8
SK1
  6
Continuous
100
AcDbLine
 10
6.16
 20
8.7
 30
0.0
 11
3.76
 21
8.7
 31
0.0
  0
ARC
  5
117
330
1F
100
AcDbEntity
  8
SK1
  6
Continuous
100
AcDbCircle
 10
6.16
 20
8.9
 30
0.0
 40
0.1999999999999953
100
AcDbArc
 50
270.0
 51
0.0
  0
LINE
  5
118
330
1F
100
AcDbEntity
  8
SK1
  6
Continuous
100
AcDbLine
 10
11.035
 20
7.9508874915
 30
0.0
 11
6.6198076211
 21
10.5
 31
0.0
  0
ARC
  5
119
330
1F
100
AcDbEntity
  8
SK3
100
AcDbCircle
 10
-64.5982355438
 20
0.0
 30
0.0
 40
62.5
100
AcDbArc
 50
351.1639152495
 51
354.1686546795
  0
ARC
  5
11A
330
1F
100
AcDbEntity
  8
SK3
100
AcDbCircle
 10
38.3275867897
 20
-0.1012165239
 30
0.0
 40
54.16833721517615
100
AcDbArc
 50
172.1969583221
 51
173.6789178931
  0
ARC
  5
11B
330
1F
100
AcDbEntity
  8
SK3
100
AcDbCircle
 10
-5.2662013916
 20
-0.2482389857
 30
0.0
 40
10.59734814538555
100
AcDbArc
 50
161.680204572
 51
165.0141336468
  0
ARC
  5
11C
330
1F
100
AcDbEntity
  8
SK3
100
AcDbCircle
 10
-5.6405929864
 20
0.1409261361
 30
0.0
 40
10.20794300428137
100
AcDbArc
 50
194.9474034441
 51
198.4099056198
  0
ARC
  5
11D
330
1F
100
AcDbEntity
  8
SK3
100
AcDbCircle
 10
36.326806364
 20
-0.1357553864
 30
0.0
 40
52.15363212456985
100
AcDbArc
 50
186.3043337338
 51
187.8433004421
  0
LINE
  5
11E
330
1F
100
AcDbEntity
  8
SK1
  6
Continuous
100
AcDbLine
 10
6.36
 20
-10.5
 30
0.0
 11
6.6198076211
 21
-10.5
 31
0.0
  0
ARC
  5
11F
330
1F
100
AcDbEntity
  8
SK1
  6
Continuous
100
AcDbCircle
 10
10.91
 20
-7.7343811406
 30
0.0
 40
0.2500000000000014
100
AcDbArc
 50
300.0
 51
0.0
  0
ARC
  5
120
330
1F
100
AcDbEntity
  8
SK1
  6
Continuous
100
AcDbCircle
 10
3.16
 20
-10.0398526371
 30
0.0
 40
0.3999999999999992
100
AcDbArc
 50
262.0
 51
0.0
  0
ARC
  5
121
330
1F
100
AcDbEntity
  8
SK1
  6
Continuous
100
AcDbCircle
 10
3.76
 20
-8.9
 30
0.0
 40
0.2000000000000005
100
AcDbArc
 50
90.0
 51
180.0
  0
LINE
  5
122
330
1F
100
AcDbEntity
  8
SK1
  6
Continuous
100
AcDbLine
 10
3.76
 20
-8.7
 30
0.0
 11
6.16
 21
-8.7
 31
0.0
  0
ARC
  5
123
330
1F
100
AcDbEntity
  8
SK1
  6
Continuous
100
AcDbCircle
 10
6.16
 20
-8.9
 30
0.0
 40
0.1999999999999994
100
AcDbArc
 50
0.0
 51
90.0
  0
LINE
  5
124
330
1F
100
AcDbEntity
  8
SK1
  6
Continuous
100
AcDbLine
 10
6.6198076211
 20
-10.5
 30
0.0
 11
11.035
 21
-7.9508874915
 31
0.0
  0
ARC
  5
125
330
1F
100
AcDbEntity
  8
SK3
100
AcDbCircle
 10
-64.5982355438
 20
0.0
 30
0.0
 40
62.5
100
AcDbArc
 50
5.8313419747
 51
8.8361022736
  0
ARC
  5
126
330
1F
100
AcDbEntity
  8
SK3
100
AcDbCircle
 10
-34.2594915304
 20
-0.09027422
 30
0.0
 40
32.16716543140085
100
AcDbArc
 50
8.1997602371
 51
12.4311611245
  0
LINE
  5
127
330
1F
100
AcDbEntity
  8
SK1
  6
Continuous
100
AcDbLine
 10
0.0
 20
9.9996746285
 30
0.0
 11
0.0
 21
-9.9996746285
 31
0.0
  0
LINE
  5
129
330
1F
100
AcDbEntity
  8
SK4
  6
Continuous
100
AcDbLine
 10
11.16
 20
0.0
 30
0.0
 11
-20.34
 21
0.0
 31
0.0
  0
DIMENSION
  5
13F
330
1F
100
AcDbEntity
  8
SK2
  6
Continuous
 62
   136
100
AcDbDimension
  2
DMBLK191
 10
11.16
 20
18.3758354327
 30
0.0
 11
-4.5899997467
 21
18.3758354327
 31
0.0
 70
   160
  1
\A1;<>
 71
     5
 42
-1.0
  3
DIN
100
AcDbAlignedDimension
 13
-20.34
 23
5.1341290166
 33
0.0
 14
11.16
 24
7.0254540846
 34
0.0
100
AcDbRotatedDimension
  0
DIMENSION
  5
149
330
1F
100
AcDbEntity
  8
SK2
  6
Continuous
 62
   136
100
AcDbDimension
  2
DMBLK192
 10
20.5128348952
 20
6.35
 30
0.0
 11
20.5128348952
 21
10.0000000861
 31
0.0
 70
   161
  1
\A1;ø <>
 71
     5
 42
-1.0
  3
DIN
100
AcDbAlignedDimension
 13
11.16
 23
6.35
 33
0.0
 14
11.16
 24
-6.35
 34
0.0
  0
DIMENSION
  5
154
330
1F
100
AcDbEntity
  8
SK2
  6
Continuous
 62
   136
100
AcDbDimension
  2
DMBLK193
 10
11.16
 20
-17.6440806826
 30
0.0
 11
5.5800001137
 21
-17.6440806826
 31
0.0
 70
   160
  1
\A1;<>
 71
     5
 42
-1.0
  3
DIN
100
AcDbAlignedDimension
 13
0.0
 23
-9.9996746285
 33
0.0
 14
11.16
 24
-7.0254540846
 34
0.0
100
AcDbRotatedDimension
  0
DIMENSION
  5
15E
330
1F
100
AcDbEntity
  8
SK2
  6
Continuous
 62
   136
100
AcDbDimension
  2
DMBLK194
 10
-26.102533564
 20
9.9996746285
 30
0.0
 11
-26.102533564
 21
-0.0000001164
 31
0.0
 70
   161
  1
\A1;ø <>
 71
     5
 42
-1.0
  3
DIN
100
AcDbAlignedDimension
 13
0.0
 23
9.9996746285
 33
0.0
 14
0.0
 24
-9.9996746285
 34
0.0
  0
INSERT
  5
173
330
1F
100
AcDbEntity
  8
SK2
 62
     7
100
AcDbBlockReference
  2
Nullpunkt
 10
0.0
 20
0.0000000998
 30
0.0
  0
INSERT
  5
17E
330
1F
100
AcDbEntity
  8
SK2
 62
     7
100
AcDbBlockReference
  2
Einfügepunkt
 10
11.16
 20
0.0
 30
0.0
  0
ENDSEC
  0
SECTION
  2
OBJECTS
  0
DICTIONARY
  5
C
330
0
100
AcDbDictionary
281
     1
  3
ACAD_GROUP
350
D
  3
ACAD_LAYOUT
350
1A
  3
ACAD_MATERIAL
350
3B
  3
ACAD_MLEADERSTYLE
350
181
  3
ACAD_MLINESTYLE
350
17
  3
ACAD_PLOTSETTINGS
350
19
  3
ACAD_PLOTSTYLENAME
350
E
  3
ACAD_VISUALSTYLE
350
2A
  3
AcDbVariableDictionary
350
17F
  0
DICTIONARY
  5
D
102
{ACAD_REACTORS
330
C
102
}
330
C
100
AcDbDictionary
281
     1
  0
DICTIONARY
  5
1A
102
{ACAD_REACTORS
330
C
102
}
330
C
100
AcDbDictionary
281
     1
  3
Layout1
350
1E
  3
Model
350
22
  0
DICTIONARY
  5
3B
102
{ACAD_REACTORS
330
C
102
}
330
C
100
AcDbDictionary
281
     1
  3
ByBlock
350
3D
  3
ByLayer
350
3C
  3
Global
350
3E
  0
DICTIONARY
  5
181
102
{ACAD_REACTORS
330
C
102
}
330
C
100
AcDbDictionary
281
     1
  0
DICTIONARY
  5
17
102
{ACAD_REACTORS
330
C
102
}
330
C
100
AcDbDictionary
281
     1
  3
Standard
350
18
  0
DICTIONARY
  5
19
102
{ACAD_REACTORS
330
C
102
}
330
C
100
AcDbDictionary
281
     1
  0
ACDBDICTIONARYWDFLT
  5
E
102
{ACAD_REACTORS
330
C
102
}
330
C
100
AcDbDictionary
281
     1
  3
Normal
350
F
100
AcDbDictionaryWithDefault
340
F
  0
DICTIONARY
  5
2A
102
{ACAD_REACTORS
330
C
102
}
330
C
100
AcDbDictionary
281
     1
  3
2dWireframe
350
2F
  3
3D Hidden
350
31
  3
3dWireframe
350
30
  3
Basic
350
32
  3
Brighten
350
36
  3
ColorChange
350
3A
  3
Conceptual
350
34
  3
Dim
350
35
  3
Facepattern
350
39
  3
Flat
350
2B
  3
FlatWithEdges
350
2C
  3
Gouraud
350
2D
  3
GouraudWithEdges
350
2E
  3
Linepattern
350
38
  3
Realistic
350
33
  3
Thicken
350
37
  0
DICTIONARY
  5
17F
102
{ACAD_REACTORS
330
C
102
}
330
C
100
AcDbDictionary
281
     1
  3
DIMASSOC
350
184
  3
HIDETEXT
350
185
  3
PSOLHEIGHT
350
183
  3
PSOLWIDTH
350
182
  0
LAYOUT
  5
1E
102
{ACAD_REACTORS
330
1A
102
}
330
1A
100
AcDbPlotSettings
  1

  2
none_device
  4

  6

 40
0.0
 41
0.0
 42
0.0
 43
0.0
 44
0.0
 45
0.0
 46
0.0
 47
0.0
 48
0.0
 49
0.0
140
0.0
141
0.0
142
1.0
143
1.0
 70
   688
 72
     0
 73
     0
 74
     5
  7

 75
    16
147
1.0
148
0.0
149
0.0
100
AcDbLayout
  1
Layout1
 70
     1
 71
     1
 10
0.0
 20
0.0
 11
210.0
 21
297.0
 12
0.0
 22
0.0
 32
0.0
 14
0.0
 24
0.0
 34
0.0
 15
210.0
 25
297.0
 35
0.0
146
0.0
 13
0.0
 23
0.0
 33
0.0
 16
1.0
 26
0.0
 36
0.0
 17
0.0
 27
1.0
 37
0.0
 76
     0
330
1B
  0
LAYOUT
  5
22
102
{ACAD_REACTORS
330
1A
102
}
330
1A
100
AcDbPlotSettings
  1

  2
none_device
  4

  6

 40
0.0
 41
0.0
 42
0.0
 43
0.0
 44
0.0
 45
0.0
 46
0.0
 47
0.0
 48
0.0
 49
0.0
140
0.0
141
0.0
142
1.0
143
1.0
 70
  1712
 72
     0
 73
     0
 74
     0
  7

 75
     0
147
1.0
148
0.0
149
0.0
100
AcDbLayout
  1
Model
 70
     1
 71
     0
 10
0.0
 20
0.0
 11
210.0
 21
297.0
 12
0.0
 22
0.0
 32
0.0
 14
0.0
 24
0.0
 34
0.0
 15
210.0
 25
297.0
 35
0.0
146
0.0
 13
0.0
 23
0.0
 33
0.0
 16
1.0
 26
0.0
 36
0.0
 17
0.0
 27
1.0
 37
0.0
 76
     0
330
1F
331
29
  0
MATERIAL
  5
3D
102
{ACAD_REACTORS
330
3B
102
}
102
{ACAD_XDICTIONARY
360
1A8
102
}
330
3B
100
AcDbMaterial
  1
ByBlock
  0
MATERIAL
  5
3C
102
{ACAD_REACTORS
330
3B
102
}
102
{ACAD_XDICTIONARY
360
1A6
102
}
330
3B
100
AcDbMaterial
  1
ByLayer
  0
MATERIAL
  5
3E
102
{ACAD_REACTORS
330
3B
102
}
102
{ACAD_XDICTIONARY
360
1AA
102
}
330
3B
100
AcDbMaterial
  1
Global
  0
MLINESTYLE
  5
18
102
{ACAD_REACTORS
330
17
102
}
330
17
100
AcDbMlineStyle
  2
Standard
 70
     0
  3

 62
   256
 51
90.0
 52
90.0
 71
     2
 49
0.5
 62
   256
  6
BYLAYER
 49
-0.5
 62
   256
  6
BYLAYER
  0
ACDBPLACEHOLDER
  5
F
102
{ACAD_REACTORS
330
E
102
}
330
E
  0
VISUALSTYLE
  5
2F
102
{ACAD_REACTORS
330
2A
102
}
102
{ACAD_XDICTIONARY
360
18E
102
}
330
2A
100
AcDbVisualStyle
  2
2dWireframe
 70
     4
 71
     0
 72
     2
 73
     0
 90
        0
 40
-0.6
 41
-30.0
 62
     5
 63
     7
 74
     1
 91
        4
 64
     7
 65
   257
 75
     1
175
     1
 42
1.0
 92
        0
 66
   257
 43
1.0
 76
     1
 77
     6
 78
     2
 67
     7
 79
     5
170
     0
171
     0
290
     0
174
     0
 93
        1
 44
0.0
173
     0
291
     0
 45
0.0
1001
ACAD
1000
AcDbSavedByObjectVersion
1070
     0
  0
VISUALSTYLE
  5
31
102
{ACAD_REACTORS
330
2A
102
}
102
{ACAD_XDICTIONARY
360
192
102
}
330
2A
100
AcDbVisualStyle
  2
3D Hidden
 70
     6
 71
     1
 72
     2
 73
     2
 90
        0
 40
-0.6
 41
-30.0
 62
     5
 63
     7
 74
     2
 91
        2
 64
     7
 65
   257
 75
     2
175
     1
 42
40.0
 92
        0
 66
   257
 43
1.0
 76
     1
 77
     6
 78
     2
 67
     7
 79
     3
170
     0
171
     0
290
     0
174
     0
 93
        1
 44
0.0
173
     0
291
     0
 45
0.0
1001
ACAD
1000
AcDbSavedByObjectVersion
1070
     0
  0
VISUALSTYLE
  5
30
102
{ACAD_REACTORS
330
2A
102
}
102
{ACAD_XDICTIONARY
360
190
102
}
330
2A
100
AcDbVisualStyle
  2
3dWireframe
 70
     5
 71
     0
 72
     2
 73
     0
 90
        0
 40
-0.6
 41
-30.0
 62
     5
 63
     7
 74
     1
 91
        4
 64
     7
 65
   257
 75
     1
175
     1
 42
1.0
 92
        0
 66
   257
 43
1.0
 76
     1
 77
     6
 78
     2
 67
     7
 79
     5
170
     0
171
     0
290
     0
174
     0
 93
        1
 44
0.0
173
     0
291
     0
 45
0.0
1001
ACAD
1000
AcDbSavedByObjectVersion
1070
     0
  0
VISUALSTYLE
  5
32
102
{ACAD_REACTORS
330
2A
102
}
102
{ACAD_XDICTIONARY
360
194
102
}
330
2A
100
AcDbVisualStyle
  2
Basic
 70
     7
 71
     1
 72
     0
 73
     1
 90
        0
 40
-0.6
 41
-30.0
 62
     5
 63
     7
 74
     0
 91
        4
 64
     7
 65
   257
 75
     1
175
     1
 42
1.0
 92
        8
 66
     7
 43
1.0
 76
     1
 77
     6
 78
     2
 67
     7
 79
     5
170
     0
171
     0
290
     0
174
     0
 93
        1
 44
0.0
173
     0
291
     1
 45
0.0
1001
ACAD
1000
AcDbSavedByObjectVersion
1070
     0
  0
VISUALSTYLE
  5
36
102
{ACAD_REACTORS
330
2A
102
}
102
{ACAD_XDICTIONARY
360
19C
102
}
330
2A
100
AcDbVisualStyle
  2
Brighten
 70
    12
 71
     2
 72
     2
 73
     0
 90
        0
 40
-0.6
 41
-30.0
 62
     5
 63
     7
 74
     1
 91
        4
 64
     7
 65
   257
 75
     1
175
     1
 42
1.0
 92
        8
 66
     7
 43
1.0
 76
     1
 77
     6
 78
     2
 67
     7
 79
     5
170
     0
171
     0
290
     0
174
     0
 93
        1
 44
50.0
173
     0
291
     1
 45
0.0
1001
ACAD
1000
AcDbSavedByObjectVersion
1070
     0
  0
VISUALSTYLE
  5
3A
102
{ACAD_REACTORS
330
2A
102
}
102
{ACAD_XDICTIONARY
360
1A4
102
}
330
2A
100
AcDbVisualStyle
  2
ColorChange
 70
    16
 71
     2
 72
     2
 73
     3
 90
        0
 40
-0.6
 41
-30.0
 62
     5
 63
     8
 74
     1
 91
        4
 64
     7
 65
   257
 75
     1
175
     1
 42
1.0
 92
        8
 66
     8
 43
1.0
 76
     1
 77
     6
 78
     2
 67
     7
 79
     5
170
     0
171
     0
290
     0
174
     0
 93
        1
 44
0.0
173
     0
291
     1
 45
0.0
1001
ACAD
1000
AcDbSavedByObjectVersion
1070
     0
  0
VISUALSTYLE
  5
34
102
{ACAD_REACTORS
330
2A
102
}
102
{ACAD_XDICTIONARY
360
198
102
}
330
2A
100
AcDbVisualStyle
  2
Conceptual
 70
     9
 71
     3
 72
     2
 73
     0
 90
        0
 40
-0.6
 41
-30.0
 62
     5
 63
     7
 74
     2
 91
        2
 64
     7
 65
   257
 75
     1
175
     1
 42
40.0
 92
        8
 66
     7
 43
1.0
 76
     1
 77
     6
 78
     2
 67
     7
 79
     3
170
     0
171
     0
290
     0
174
     0
 93
        1
 44
0.0
173
     0
291
     0
 45
0.0
1001
ACAD
1000
AcDbSavedByObjectVersion
1070
     0
  0
VISUALSTYLE
  5
35
102
{ACAD_REACTORS
330
2A
102
}
102
{ACAD_XDICTIONARY
360
19A
102
}
330
2A
100
AcDbVisualStyle
  2
Dim
 70
    11
 71
     2
 72
     2
 73
     0
 90
        0
 40
-0.6
 41
-30.0
 62
     5
 63
     7
 74
     1
 91
        4
 64
     7
 65
   257
 75
     1
175
     1
 42
1.0
 92
        8
 66
     7
 43
1.0
 76
     1
 77
     6
 78
     2
 67
     7
 79
     5
170
     0
171
     0
290
     0
174
     0
 93
        1
 44
-50.0
173
     0
291
     1
 45
0.0
1001
ACAD
1000
AcDbSavedByObjectVersion
1070
     0
  0
VISUALSTYLE
  5
39
102
{ACAD_REACTORS
330
2A
102
}
102
{ACAD_XDICTIONARY
360
1A2
102
}
330
2A
100
AcDbVisualStyle
  2
Facepattern
 70
    15
 71
     2
 72
     2
 73
     0
 90
        0
 40
-0.6
 41
-30.0
 62
     5
 63
     7
 74
     1
 91
        4
 64
     7
 65
   257
 75
     1
175
     1
 42
1.0
 92
        8
 66
     7
 43
1.0
 76
     1
 77
     6
 78
     2
 67
     7
 79
     5
170
     0
171
     0
290
     0
174
     0
 93
        1
 44
0.0
173
     0
291
     1
 45
0.0
1001
ACAD
1000
AcDbSavedByObjectVersion
1070
     0
  0
VISUALSTYLE
  5
2B
102
{ACAD_REACTORS
330
2A
102
}
102
{ACAD_XDICTIONARY
360
186
102
}
330
2A
100
AcDbVisualStyle
  2
Flat
 70
     0
 71
     2
 72
     1
 73
     1
 90
        2
 40
-0.6
 41
30.0
 62
     5
 63
     7
 74
     0
 91
        4
 64
     7
 65
   257
 75
     1
175
     1
 42
1.0
 92
        8
 66
     7
 43
1.0
 76
     1
 77
     6
 78
     2
 67
     7
 79
     5
170
     0
171
     0
290
     0
174
     0
 93
       13
 44
0.0
173
     0
291
     1
 45
0.0
1001
ACAD
1000
AcDbSavedByObjectVersion
1070
     0
  0
VISUALSTYLE
  5
2C
102
{ACAD_REACTORS
330
2A
102
}
102
{ACAD_XDICTIONARY
360
188
102
}
330
2A
100
AcDbVisualStyle
  2
FlatWithEdges
 70
     1
 71
     2
 72
     1
 73
     1
 90
        2
 40
-0.6
 41
30.0
 62
     5
 63
     7
 74
     1
 91
        4
 64
     7
 65
   257
 75
     1
175
     1
 42
1.0
 92
        0
 66
   257
 43
1.0
 76
     1
 77
     6
 78
     2
 67
     7
 79
     5
170
     0
171
     0
290
     0
174
     0
 93
       13
 44
0.0
173
     0
291
     1
 45
0.0
1001
ACAD
1000
AcDbSavedByObjectVersion
1070
     0
  0
VISUALSTYLE
  5
2D
102
{ACAD_REACTORS
330
2A
102
}
102
{ACAD_XDICTIONARY
360
18A
102
}
330
2A
100
AcDbVisualStyle
  2
Gouraud
 70
     2
 71
     2
 72
     2
 73
     1
 90
        2
 40
-0.6
 41
30.0
 62
     5
 63
     7
 74
     0
 91
        4
 64
     7
 65
   257
 75
     1
175
     1
 42
1.0
 92
        0
 66
     7
 43
1.0
 76
     1
 77
     6
 78
     2
 67
     7
 79
     5
170
     0
171
     0
290
     0
174
     0
 93
       13
 44
0.0
173
     0
291
     1
 45
0.0
1001
ACAD
1000
AcDbSavedByObjectVersion
1070
     0
  0
VISUALSTYLE
  5
2E
102
{ACAD_REACTORS
330
2A
102
}
102
{ACAD_XDICTIONARY
360
18C
102
}
330
2A
100
AcDbVisualStyle
  2
GouraudWithEdges
 70
     3
 71
     2
 72
     2
 73
     1
 90
        2
 40
-0.6
 41
30.0
 62
     5
 63
     7
 74
     1
 91
        4
 64
     7
 65
   257
 75
     1
175
     1
 42
1.0
 92
        0
 66
   257
 43
1.0
 76
     1
 77
     6
 78
     2
 67
     7
 79
     5
170
     0
171
     0
290
     0
174
     0
 93
       13
 44
0.0
173
     0
291
     1
 45
0.0
1001
ACAD
1000
AcDbSavedByObjectVersion
1070
     0
  0
VISUALSTYLE
  5
38
102
{ACAD_REACTORS
330
2A
102
}
102
{ACAD_XDICTIONARY
360
1A0
102
}
330
2A
100
AcDbVisualStyle
  2
Linepattern
 70
    14
 71
     2
 72
     2
 73
     0
 90
        0
 40
-0.6
 41
-30.0
 62
     5
 63
     7
 74
     1
 91
        4
 64
     7
 65
   257
 75
     7
175
     7
 42
1.0
 92
        8
 66
     7
 43
1.0
 76
     1
 77
     6
 78
     2
 67
     7
 79
     5
170
     0
171
     0
290
     0
174
     0
 93
        1
 44
0.0
173
     0
291
     1
 45
0.0
1001
ACAD
1000
AcDbSavedByObjectVersion
1070
     0
  0
VISUALSTYLE
  5
33
102
{ACAD_REACTORS
330
2A
102
}
102
{ACAD_XDICTIONARY
360
196
102
}
330
2A
100
AcDbVisualStyle
  2
Realistic
 70
     8
 71
     2
 72
     2
 73
     0
 90
        0
 40
-0.6
 41
-30.0
 62
     5
 63
     7
 74
     1
 91
        0
 64
     7
 65
   257
 75
     1
175
     1
 42
1.0
 92
        8
 66
     8
 43
1.0
 76
     1
 77
     6
 78
     2
 67
     7
 79
     5
170
     0
171
     0
290
     0
174
     0
 93
       13
 44
0.0
173
     0
291
     0
 45
0.0
1001
ACAD
1000
AcDbSavedByObjectVersion
1070
     0
  0
VISUALSTYLE
  5
37
102
{ACAD_REACTORS
330
2A
102
}
102
{ACAD_XDICTIONARY
360
19E
102
}
330
2A
100
AcDbVisualStyle
  2
Thicken
 70
    13
 71
     2
 72
     2
 73
     0
 90
        0
 40
-0.6
 41
-30.0
 62
     5
 63
     7
 74
     1
 91
        4
 64
     7
 65
   257
 75
     1
175
     1
 42
1.0
 92
       12
 66
     7
 43
1.0
 76
     1
 77
     6
 78
     2
 67
     7
 79
     5
170
     0
171
     0
290
     0
174
     0
 93
        1
 44
0.0
173
     0
291
     1
 45
0.0
1001
ACAD
1000
AcDbSavedByObjectVersion
1070
     0
  0
DICTIONARYVAR
  5
184
102
{ACAD_REACTORS
330
17F
102
}
330
17F
100
DictionaryVariables
280
     0
  1
2
  0
DICTIONARYVAR
  5
185
102
{ACAD_REACTORS
330
17F
102
}
330
17F
100
DictionaryVariables
280
     0
  1
1
  0
DICTIONARYVAR
  5
183
102
{ACAD_REACTORS
330
17F
102
}
330
17F
100
DictionaryVariables
280
     0
  1
80.000000
  0
DICTIONARYVAR
  5
182
102
{ACAD_REACTORS
330
17F
102
}
330
17F
100
DictionaryVariables
280
     0
  1
5.000000
  0
DICTIONARY
  5
1A8
330
3D
100
AcDbDictionary
280
     1
281
     1
  3
ACAD_XREC_ROUNDTRIP
360
1A9
  0
DICTIONARY
  5
1A6
330
3C
100
AcDbDictionary
280
     1
281
     1
  3
ACAD_XREC_ROUNDTRIP
360
1A7
  0
DICTIONARY
  5
1AA
330
3E
100
AcDbDictionary
280
     1
281
     1
  3
ACAD_XREC_ROUNDTRIP
360
1AB
  0
DICTIONARY
  5
18E
330
2F
100
AcDbDictionary
280
     1
281
     1
  3
ACAD_XREC_ROUNDTRIP
360
18F
  0
DICTIONARY
  5
192
330
31
100
AcDbDictionary
280
     1
281
     1
  3
ACAD_XREC_ROUNDTRIP
360
193
  0
DICTIONARY
  5
190
330
30
100
AcDbDictionary
280
     1
281
     1
  3
ACAD_XREC_ROUNDTRIP
360
191
  0
DICTIONARY
  5
194
330
32
100
AcDbDictionary
280
     1
281
     1
  3
ACAD_XREC_ROUNDTRIP
360
195
  0
DICTIONARY
  5
19C
330
36
100
AcDbDictionary
280
     1
281
     1
  3
ACAD_XREC_ROUNDTRIP
360
19D
  0
DICTIONARY
  5
1A4
330
3A
100
AcDbDictionary
280
     1
281
     1
  3
ACAD_XREC_ROUNDTRIP
360
1A5
  0
DICTIONARY
  5
198
330
34
100
AcDbDictionary
280
     1
281
     1
  3
ACAD_XREC_ROUNDTRIP
360
199
  0
DICTIONARY
  5
19A
330
35
100
AcDbDictionary
280
     1
281
     1
  3
ACAD_XREC_ROUNDTRIP
360
19B
  0
DICTIONARY
  5
1A2
330
39
100
AcDbDictionary
280
     1
281
     1
  3
ACAD_XREC_ROUNDTRIP
360
1A3
  0
DICTIONARY
  5
186
330
2B
100
AcDbDictionary
280
     1
281
     1
  3
ACAD_XREC_ROUNDTRIP
360
187
  0
DICTIONARY
  5
188
330
2C
100
AcDbDictionary
280
     1
281
     1
  3
ACAD_XREC_ROUNDTRIP
360
189
  0
DICTIONARY
  5
18A
330
2D
100
AcDbDictionary
280
     1
281
     1
  3
ACAD_XREC_ROUNDTRIP
360
18B
  0
DICTIONARY
  5
18C
330
2E
100
AcDbDictionary
280
     1
281
     1
  3
ACAD_XREC_ROUNDTRIP
360
18D
  0
DICTIONARY
  5
1A0
330
38
100
AcDbDictionary
280
     1
281
     1
  3
ACAD_XREC_ROUNDTRIP
360
1A1
  0
DICTIONARY
  5
196
330
33
100
AcDbDictionary
280
     1
281
     1
  3
ACAD_XREC_ROUNDTRIP
360
197
  0
DICTIONARY
  5
19E
330
37
100
AcDbDictionary
280
     1
281
     1
  3
ACAD_XREC_ROUNDTRIP
360
19F
  0
XRECORD
  5
1A9
102
{ACAD_REACTORS
330
1A8
102
}
330
1A8
100
AcDbXrecord
280
     1
102
MATERIAL
148
0.0
149
0.0
149
0.0
 93
        0
 94
      127
282
     0
 72
     1
 77
     1
171
     1
175
     1
179
     1
273
     0
  0
XRECORD
  5
1A7
102
{ACAD_REACTORS
330
1A6
102
}
330
1A6
100
AcDbXrecord
280
     1
102
MATERIAL
148
0.0
149
0.0
149
0.0
 93
        0
 94
      127
282
     0
 72
     1
 77
     1
171
     1
175
     1
179
     1
273
     0
  0
XRECORD
  5
1AB
102
{ACAD_REACTORS
330
1AA
102
}
330
1AA
100
AcDbXrecord
280
     1
102
MATERIAL
148
0.0
149
0.0
149
0.0
 93
        0
 94
      127
282
     0
 72
     1
 77
     1
171
     1
175
     1
179
     1
273
     0
  0
XRECORD
  5
18F
102
{ACAD_REACTORS
330
18E
102
}
330
18E
100
AcDbXrecord
280
     1
102
RTVSPropertyOp0
 70
     1
102
RTVSPropertyOp1
 70
     1
102
RTVSPropertyOp2
 70
     1
102
RTVSPropertyOp3
 70
     1
102
RTVSPropertyOp4
 70
     1
102
RTVSPropertyOp5
 70
     1
102
RTVSPropertyOp6
 70
     1
102
RTVSPropertyOp7
 70
     1
102
RTVSPropertyOp8
 70
     1
102
RTVSPropertyOp9
 70
     1
102
RTVSPropertyOp10
 70
     1
102
RTVSPropertyOp11
 70
     1
102
RTVSPropertyOp12
 70
     1
102
RTVSPropertyOp13
 70
     1
102
RTVSPropertyOp14
 70
     1
102
RTVSPropertyOp15
 70
     1
102
RTVSPropertyOp16
 70
     1
102
RTVSPropertyOp17
 70
     1
102
RTVSPropertyOp18
 70
     1
102
RTVSPropertyOp19
 70
     1
102
RTVSPropertyOp20
 70
     1
102
RTVSPropertyOp21
 70
     1
102
RTVSPropertyOp22
 70
     1
102
RTVSPropertyOp23
 70
     1
102
RTVSPropertyOp24
 70
     1
102
RTVSPropertyOp25
 70
     1
102
RTVSPropertyOp26
 70
     1
102
RTVSPropertyOp27
 70
     1
102
RTVSPropertyOp28
 70
     1
102
RTVSPropertyOp29
 70
     1
102
RTVSPropertyOp30
 70
     1
102
RTVSPropertyOp31
 70
     1
102
RTVSPropertyOp32
 70
     1
  0
XRECORD
  5
193
102
{ACAD_REACTORS
330
192
102
}
330
192
100
AcDbXrecord
280
     1
102
RTVSPropertyOp0
 70
     1
102
RTVSPropertyOp1
 70
     1
102
RTVSPropertyOp2
 70
     1
102
RTVSPropertyOp3
 70
     1
102
RTVSPropertyOp4
 70
     1
102
RTVSPropertyOp5
 70
     1
102
RTVSPropertyOp6
 70
     1
102
RTVSPropertyOp7
 70
     1
102
RTVSPropertyOp8
 70
     1
102
RTVSPropertyOp9
 70
     1
102
RTVSPropertyOp10
 70
     1
102
RTVSPropertyOp11
 70
     1
102
RTVSPropertyOp12
 70
     1
102
RTVSPropertyOp13
 70
     1
102
RTVSPropertyOp14
 70
     1
102
RTVSPropertyOp15
 70
     1
102
RTVSPropertyOp16
 70
     1
102
RTVSPropertyOp17
 70
     1
102
RTVSPropertyOp18
 70
     1
102
RTVSPropertyOp19
 70
     1
102
RTVSPropertyOp20
 70
     1
102
RTVSPropertyOp21
 70
     1
102
RTVSPropertyOp22
 70
     1
102
RTVSPropertyOp23
 70
     1
102
RTVSPropertyOp24
 70
     1
102
RTVSPropertyOp25
 70
     1
102
RTVSPropertyOp26
 70
     1
102
RTVSPropertyOp27
 70
     1
102
RTVSPropertyOp28
 70
     1
102
RTVSPropertyOp29
 70
     1
102
RTVSPropertyOp30
 70
     1
102
RTVSPropertyOp31
 70
     1
102
RTVSPropertyOp32
 70
     1
  0
XRECORD
  5
191
102
{ACAD_REACTORS
330
190
102
}
330
190
100
AcDbXrecord
280
     1
102
RTVSPropertyOp0
 70
     1
102
RTVSPropertyOp1
 70
     1
102
RTVSPropertyOp2
 70
     1
102
RTVSPropertyOp3
 70
     1
102
RTVSPropertyOp4
 70
     1
102
RTVSPropertyOp5
 70
     1
102
RTVSPropertyOp6
 70
     1
102
RTVSPropertyOp7
 70
     1
102
RTVSPropertyOp8
 70
     1
102
RTVSPropertyOp9
 70
     1
102
RTVSPropertyOp10
 70
     1
102
RTVSPropertyOp11
 70
     1
102
RTVSPropertyOp12
 70
     1
102
RTVSPropertyOp13
 70
     1
102
RTVSPropertyOp14
 70
     1
102
RTVSPropertyOp15
 70
     1
102
RTVSPropertyOp16
 70
     1
102
RTVSPropertyOp17
 70
     1
102
RTVSPropertyOp18
 70
     1
102
RTVSPropertyOp19
 70
     1
102
RTVSPropertyOp20
 70
     1
102
RTVSPropertyOp21
 70
     1
102
RTVSPropertyOp22
 70
     1
102
RTVSPropertyOp23
 70
     1
102
RTVSPropertyOp24
 70
     1
102
RTVSPropertyOp25
 70
     1
102
RTVSPropertyOp26
 70
     1
102
RTVSPropertyOp27
 70
     1
102
RTVSPropertyOp28
 70
     1
102
RTVSPropertyOp29
 70
     1
102
RTVSPropertyOp30
 70
     1
102
RTVSPropertyOp31
 70
     1
102
RTVSPropertyOp32
 70
     1
  0
XRECORD
  5
195
102
{ACAD_REACTORS
330
194
102
}
330
194
100
AcDbXrecord
280
     1
102
RTVSPropertyOp0
 70
     1
102
RTVSPropertyOp1
 70
     1
102
RTVSPropertyOp2
 70
     1
102
RTVSPropertyOp3
 70
     1
102
RTVSPropertyOp4
 70
     1
102
RTVSPropertyOp5
 70
     1
102
RTVSPropertyOp6
 70
     1
102
RTVSPropertyOp7
 70
     1
102
RTVSPropertyOp8
 70
     1
102
RTVSPropertyOp9
 70
     1
102
RTVSPropertyOp10
 70
     1
102
RTVSPropertyOp11
 70
     1
102
RTVSPropertyOp12
 70
     1
102
RTVSPropertyOp13
 70
     1
102
RTVSPropertyOp14
 70
     1
102
RTVSPropertyOp15
 70
     1
102
RTVSPropertyOp16
 70
     1
102
RTVSPropertyOp17
 70
     1
102
RTVSPropertyOp18
 70
     1
102
RTVSPropertyOp19
 70
     1
102
RTVSPropertyOp20
 70
     1
102
RTVSPropertyOp21
 70
     1
102
RTVSPropertyOp22
 70
     1
102
RTVSPropertyOp23
 70
     1
102
RTVSPropertyOp24
 70
     1
102
RTVSPropertyOp25
 70
     1
102
RTVSPropertyOp26
 70
     1
102
RTVSPropertyOp27
 70
     1
102
RTVSPropertyOp28
 70
     1
102
RTVSPropertyOp29
 70
     1
102
RTVSPropertyOp30
 70
     1
102
RTVSPropertyOp31
 70
     1
102
RTVSPropertyOp32
 70
     1
  0
XRECORD
  5
19D
102
{ACAD_REACTORS
330
19C
102
}
330
19C
100
AcDbXrecord
280
     1
102
RTVSPropertyOp0
 70
     1
102
RTVSPropertyOp1
 70
     1
102
RTVSPropertyOp2
 70
     1
102
RTVSPropertyOp3
 70
     1
102
RTVSPropertyOp4
 70
     1
102
RTVSPropertyOp5
 70
     1
102
RTVSPropertyOp6
 70
     1
102
RTVSPropertyOp7
 70
     1
102
RTVSPropertyOp8
 70
     1
102
RTVSPropertyOp9
 70
     1
102
RTVSPropertyOp10
 70
     1
102
RTVSPropertyOp11
 70
     1
102
RTVSPropertyOp12
 70
     1
102
RTVSPropertyOp13
 70
     1
102
RTVSPropertyOp14
 70
     1
102
RTVSPropertyOp15
 70
     1
102
RTVSPropertyOp16
 70
     1
102
RTVSPropertyOp17
 70
     1
102
RTVSPropertyOp18
 70
     1
102
RTVSPropertyOp19
 70
     1
102
RTVSPropertyOp20
 70
     1
102
RTVSPropertyOp21
 70
     1
102
RTVSPropertyOp22
 70
     1
102
RTVSPropertyOp23
 70
     1
102
RTVSPropertyOp24
 70
     1
102
RTVSPropertyOp25
 70
     1
102
RTVSPropertyOp26
 70
     1
102
RTVSPropertyOp27
 70
     1
102
RTVSPropertyOp28
 70
     1
102
RTVSPropertyOp29
 70
     1
102
RTVSPropertyOp30
 70
     1
102
RTVSPropertyOp31
 70
     1
102
RTVSPropertyOp32
 70
     1
  0
XRECORD
  5
1A5
102
{ACAD_REACTORS
330
1A4
102
}
330
1A4
100
AcDbXrecord
280
     1
102
RTVSPropertyOp0
 70
     1
102
RTVSPropertyOp1
 70
     1
102
RTVSPropertyOp2
 70
     1
102
RTVSPropertyOp3
 70
     1
102
RTVSPropertyOp4
 70
     1
102
RTVSPropertyOp5
 70
     1
102
RTVSPropertyOp6
 70
     1
102
RTVSPropertyOp7
 70
     1
102
RTVSPropertyOp8
 70
     1
102
RTVSPropertyOp9
 70
     1
102
RTVSPropertyOp10
 70
     1
102
RTVSPropertyOp11
 70
     1
102
RTVSPropertyOp12
 70
     1
102
RTVSPropertyOp13
 70
     1
102
RTVSPropertyOp14
 70
     1
102
RTVSPropertyOp15
 70
     1
102
RTVSPropertyOp16
 70
     1
102
RTVSPropertyOp17
 70
     1
102
RTVSPropertyOp18
 70
     1
102
RTVSPropertyOp19
 70
     1
102
RTVSPropertyOp20
 70
     1
102
RTVSPropertyOp21
 70
     1
102
RTVSPropertyOp22
 70
     1
102
RTVSPropertyOp23
 70
     1
102
RTVSPropertyOp24
 70
     1
102
RTVSPropertyOp25
 70
     1
102
RTVSPropertyOp26
 70
     1
102
RTVSPropertyOp27
 70
     1
102
RTVSPropertyOp28
 70
     1
102
RTVSPropertyOp29
 70
     1
102
RTVSPropertyOp30
 70
     1
102
RTVSPropertyOp31
 70
     1
102
RTVSPropertyOp32
 70
     1
  0
XRECORD
  5
199
102
{ACAD_REACTORS
330
198
102
}
330
198
100
AcDbXrecord
280
     1
102
RTVSPropertyOp0
 70
     1
102
RTVSPropertyOp1
 70
     1
102
RTVSPropertyOp2
 70
     1
102
RTVSPropertyOp3
 70
     1
102
RTVSPropertyOp4
 70
     1
102
RTVSPropertyOp5
 70
     1
102
RTVSPropertyOp6
 70
     1
102
RTVSPropertyOp7
 70
     1
102
RTVSPropertyOp8
 70
     1
102
RTVSPropertyOp9
 70
     1
102
RTVSPropertyOp10
 70
     1
102
RTVSPropertyOp11
 70
     1
102
RTVSPropertyOp12
 70
     1
102
RTVSPropertyOp13
 70
     1
102
RTVSPropertyOp14
 70
     1
102
RTVSPropertyOp15
 70
     1
102
RTVSPropertyOp16
 70
     1
102
RTVSPropertyOp17
 70
     1
102
RTVSPropertyOp18
 70
     1
102
RTVSPropertyOp19
 70
     1
102
RTVSPropertyOp20
 70
     1
102
RTVSPropertyOp21
 70
     1
102
RTVSPropertyOp22
 70
     1
102
RTVSPropertyOp23
 70
     1
102
RTVSPropertyOp24
 70
     1
102
RTVSPropertyOp25
 70
     1
102
RTVSPropertyOp26
 70
     1
102
RTVSPropertyOp27
 70
     1
102
RTVSPropertyOp28
 70
     1
102
RTVSPropertyOp29
 70
     1
102
RTVSPropertyOp30
 70
     1
102
RTVSPropertyOp31
 70
     1
102
RTVSPropertyOp32
 70
     1
  0
XRECORD
  5
19B
102
{ACAD_REACTORS
330
19A
102
}
330
19A
100
AcDbXrecord
280
     1
102
RTVSPropertyOp0
 70
     1
102
RTVSPropertyOp1
 70
     1
102
RTVSPropertyOp2
 70
     1
102
RTVSPropertyOp3
 70
     1
102
RTVSPropertyOp4
 70
     1
102
RTVSPropertyOp5
 70
     1
102
RTVSPropertyOp6
 70
     1
102
RTVSPropertyOp7
 70
     1
102
RTVSPropertyOp8
 70
     1
102
RTVSPropertyOp9
 70
     1
102
RTVSPropertyOp10
 70
     1
102
RTVSPropertyOp11
 70
     1
102
RTVSPropertyOp12
 70
     1
102
RTVSPropertyOp13
 70
     1
102
RTVSPropertyOp14
 70
     1
102
RTVSPropertyOp15
 70
     1
102
RTVSPropertyOp16
 70
     1
102
RTVSPropertyOp17
 70
     1
102
RTVSPropertyOp18
 70
     1
102
RTVSPropertyOp19
 70
     1
102
RTVSPropertyOp20
 70
     1
102
RTVSPropertyOp21
 70
     1
102
RTVSPropertyOp22
 70
     1
102
RTVSPropertyOp23
 70
     1
102
RTVSPropertyOp24
 70
     1
102
RTVSPropertyOp25
 70
     1
102
RTVSPropertyOp26
 70
     1
102
RTVSPropertyOp27
 70
     1
102
RTVSPropertyOp28
 70
     1
102
RTVSPropertyOp29
 70
     1
102
RTVSPropertyOp30
 70
     1
102
RTVSPropertyOp31
 70
     1
102
RTVSPropertyOp32
 70
     1
  0
XRECORD
  5
1A3
102
{ACAD_REACTORS
330
1A2
102
}
330
1A2
100
AcDbXrecord
280
     1
102
RTVSPropertyOp0
 70
     1
102
RTVSPropertyOp1
 70
     1
102
RTVSPropertyOp2
 70
     1
102
RTVSPropertyOp3
 70
     1
102
RTVSPropertyOp4
 70
     1
102
RTVSPropertyOp5
 70
     1
102
RTVSPropertyOp6
 70
     1
102
RTVSPropertyOp7
 70
     1
102
RTVSPropertyOp8
 70
     1
102
RTVSPropertyOp9
 70
     1
102
RTVSPropertyOp10
 70
     1
102
RTVSPropertyOp11
 70
     1
102
RTVSPropertyOp12
 70
     1
102
RTVSPropertyOp13
 70
     1
102
RTVSPropertyOp14
 70
     1
102
RTVSPropertyOp15
 70
     1
102
RTVSPropertyOp16
 70
     1
102
RTVSPropertyOp17
 70
     1
102
RTVSPropertyOp18
 70
     1
102
RTVSPropertyOp19
 70
     1
102
RTVSPropertyOp20
 70
     1
102
RTVSPropertyOp21
 70
     1
102
RTVSPropertyOp22
 70
     1
102
RTVSPropertyOp23
 70
     1
102
RTVSPropertyOp24
 70
     1
102
RTVSPropertyOp25
 70
     1
102
RTVSPropertyOp26
 70
     1
102
RTVSPropertyOp27
 70
     1
102
RTVSPropertyOp28
 70
     1
102
RTVSPropertyOp29
 70
     1
102
RTVSPropertyOp30
 70
     1
102
RTVSPropertyOp31
 70
     1
102
RTVSPropertyOp32
 70
     1
  0
XRECORD
  5
187
102
{ACAD_REACTORS
330
186
102
}
330
186
100
AcDbXrecord
280
     1
102
RTVSPropertyOp0
 70
     1
102
RTVSPropertyOp1
 70
     1
102
RTVSPropertyOp2
 70
     1
102
RTVSPropertyOp3
 70
     1
102
RTVSPropertyOp4
 70
     1
102
RTVSPropertyOp5
 70
     1
102
RTVSPropertyOp6
 70
     1
102
RTVSPropertyOp7
 70
     1
102
RTVSPropertyOp8
 70
     1
102
RTVSPropertyOp9
 70
     1
102
RTVSPropertyOp10
 70
     1
102
RTVSPropertyOp11
 70
     1
102
RTVSPropertyOp12
 70
     1
102
RTVSPropertyOp13
 70
     1
102
RTVSPropertyOp14
 70
     1
102
RTVSPropertyOp15
 70
     1
102
RTVSPropertyOp16
 70
     1
102
RTVSPropertyOp17
 70
     1
102
RTVSPropertyOp18
 70
     1
102
RTVSPropertyOp19
 70
     1
102
RTVSPropertyOp20
 70
     1
102
RTVSPropertyOp21
 70
     1
102
RTVSPropertyOp22
 70
     1
102
RTVSPropertyOp23
 70
     1
102
RTVSPropertyOp24
 70
     1
102
RTVSPropertyOp25
 70
     1
102
RTVSPropertyOp26
 70
     1
102
RTVSPropertyOp27
 70
     1
102
RTVSPropertyOp28
 70
     1
102
RTVSPropertyOp29
 70
     1
102
RTVSPropertyOp30
 70
     1
102
RTVSPropertyOp31
 70
     1
102
RTVSPropertyOp32
 70
     1
  0
XRECORD
  5
189
102
{ACAD_REACTORS
330
188
102
}
330
188
100
AcDbXrecord
280
     1
102
RTVSPropertyOp0
 70
     1
102
RTVSPropertyOp1
 70
     1
102
RTVSPropertyOp2
 70
     1
102
RTVSPropertyOp3
 70
     1
102
RTVSPropertyOp4
 70
     1
102
RTVSPropertyOp5
 70
     1
102
RTVSPropertyOp6
 70
     1
102
RTVSPropertyOp7
 70
     1
102
RTVSPropertyOp8
 70
     1
102
RTVSPropertyOp9
 70
     1
102
RTVSPropertyOp10
 70
     1
102
RTVSPropertyOp11
 70
     1
102
RTVSPropertyOp12
 70
     1
102
RTVSPropertyOp13
 70
     1
102
RTVSPropertyOp14
 70
     1
102
RTVSPropertyOp15
 70
     1
102
RTVSPropertyOp16
 70
     1
102
RTVSPropertyOp17
 70
     1
102
RTVSPropertyOp18
 70
     1
102
RTVSPropertyOp19
 70
     1
102
RTVSPropertyOp20
 70
     1
102
RTVSPropertyOp21
 70
     1
102
RTVSPropertyOp22
 70
     1
102
RTVSPropertyOp23
 70
     1
102
RTVSPropertyOp24
 70
     1
102
RTVSPropertyOp25
 70
     1
102
RTVSPropertyOp26
 70
     1
102
RTVSPropertyOp27
 70
     1
102
RTVSPropertyOp28
 70
     1
102
RTVSPropertyOp29
 70
     1
102
RTVSPropertyOp30
 70
     1
102
RTVSPropertyOp31
 70
     1
102
RTVSPropertyOp32
 70
     1
  0
XRECORD
  5
18B
102
{ACAD_REACTORS
330
18A
102
}
330
18A
100
AcDbXrecord
280
     1
102
RTVSPropertyOp0
 70
     1
102
RTVSPropertyOp1
 70
     1
102
RTVSPropertyOp2
 70
     1
102
RTVSPropertyOp3
 70
     1
102
RTVSPropertyOp4
 70
     1
102
RTVSPropertyOp5
 70
     1
102
RTVSPropertyOp6
 70
     1
102
RTVSPropertyOp7
 70
     1
102
RTVSPropertyOp8
 70
     1
102
RTVSPropertyOp9
 70
     1
102
RTVSPropertyOp10
 70
     1
102
RTVSPropertyOp11
 70
     1
102
RTVSPropertyOp12
 70
     1
102
RTVSPropertyOp13
 70
     1
102
RTVSPropertyOp14
 70
     1
102
RTVSPropertyOp15
 70
     1
102
RTVSPropertyOp16
 70
     1
102
RTVSPropertyOp17
 70
     1
102
RTVSPropertyOp18
 70
     1
102
RTVSPropertyOp19
 70
     1
102
RTVSPropertyOp20
 70
     1
102
RTVSPropertyOp21
 70
     1
102
RTVSPropertyOp22
 70
     1
102
RTVSPropertyOp23
 70
     1
102
RTVSPropertyOp24
 70
     1
102
RTVSPropertyOp25
 70
     1
102
RTVSPropertyOp26
 70
     1
102
RTVSPropertyOp27
 70
     1
102
RTVSPropertyOp28
 70
     1
102
RTVSPropertyOp29
 70
     1
102
RTVSPropertyOp30
 70
     1
102
RTVSPropertyOp31
 70
     1
102
RTVSPropertyOp32
 70
     1
  0
XRECORD
  5
18D
102
{ACAD_REACTORS
330
18C
102
}
330
18C
100
AcDbXrecord
280
     1
102
RTVSPropertyOp0
 70
     1
102
RTVSPropertyOp1
 70
     1
102
RTVSPropertyOp2
 70
     1
102
RTVSPropertyOp3
 70
     1
102
RTVSPropertyOp4
 70
     1
102
RTVSPropertyOp5
 70
     1
102
RTVSPropertyOp6
 70
     1
102
RTVSPropertyOp7
 70
     1
102
RTVSPropertyOp8
 70
     1
102
RTVSPropertyOp9
 70
     1
102
RTVSPropertyOp10
 70
     1
102
RTVSPropertyOp11
 70
     1
102
RTVSPropertyOp12
 70
     1
102
RTVSPropertyOp13
 70
     1
102
RTVSPropertyOp14
 70
     1
102
RTVSPropertyOp15
 70
     1
102
RTVSPropertyOp16
 70
     1
102
RTVSPropertyOp17
 70
     1
102
RTVSPropertyOp18
 70
     1
102
RTVSPropertyOp19
 70
     1
102
RTVSPropertyOp20
 70
     1
102
RTVSPropertyOp21
 70
     1
102
RTVSPropertyOp22
 70
     1
102
RTVSPropertyOp23
 70
     1
102
RTVSPropertyOp24
 70
     1
102
RTVSPropertyOp25
 70
     1
102
RTVSPropertyOp26
 70
     1
102
RTVSPropertyOp27
 70
     1
102
RTVSPropertyOp28
 70
     1
102
RTVSPropertyOp29
 70
     1
102
RTVSPropertyOp30
 70
     1
102
RTVSPropertyOp31
 70
     1
102
RTVSPropertyOp32
 70
     1
  0
XRECORD
  5
1A1
102
{ACAD_REACTORS
330
1A0
102
}
330
1A0
100
AcDbXrecord
280
     1
102
RTVSPropertyOp0
 70
     1
102
RTVSPropertyOp1
 70
     1
102
RTVSPropertyOp2
 70
     1
102
RTVSPropertyOp3
 70
     1
102
RTVSPropertyOp4
 70
     1
102
RTVSPropertyOp5
 70
     1
102
RTVSPropertyOp6
 70
     1
102
RTVSPropertyOp7
 70
     1
102
RTVSPropertyOp8
 70
     1
102
RTVSPropertyOp9
 70
     1
102
RTVSPropertyOp10
 70
     1
102
RTVSPropertyOp11
 70
     1
102
RTVSPropertyOp12
 70
     1
102
RTVSPropertyOp13
 70
     1
102
RTVSPropertyOp14
 70
     1
102
RTVSPropertyOp15
 70
     1
102
RTVSPropertyOp16
 70
     1
102
RTVSPropertyOp17
 70
     1
102
RTVSPropertyOp18
 70
     1
102
RTVSPropertyOp19
 70
     1
102
RTVSPropertyOp20
 70
     1
102
RTVSPropertyOp21
 70
     1
102
RTVSPropertyOp22
 70
     1
102
RTVSPropertyOp23
 70
     1
102
RTVSPropertyOp24
 70
     1
102
RTVSPropertyOp25
 70
     1
102
RTVSPropertyOp26
 70
     1
102
RTVSPropertyOp27
 70
     1
102
RTVSPropertyOp28
 70
     1
102
RTVSPropertyOp29
 70
     1
102
RTVSPropertyOp30
 70
     1
102
RTVSPropertyOp31
 70
     1
102
RTVSPropertyOp32
 70
     1
  0
XRECORD
  5
197
102
{ACAD_REACTORS
330
196
102
}
330
196
100
AcDbXrecord
280
     1
102
RTVSPropertyOp0
 70
     1
102
RTVSPropertyOp1
 70
     1
102
RTVSPropertyOp2
 70
     1
102
RTVSPropertyOp3
 70
     1
102
RTVSPropertyOp4
 70
     1
102
RTVSPropertyOp5
 70
     1
102
RTVSPropertyOp6
 70
     1
102
RTVSPropertyOp7
 70
     1
102
RTVSPropertyOp8
 70
     1
102
RTVSPropertyOp9
 70
     1
102
RTVSPropertyOp10
 70
     1
102
RTVSPropertyOp11
 70
     1
102
RTVSPropertyOp12
 70
     1
102
RTVSPropertyOp13
 70
     1
102
RTVSPropertyOp14
 70
     1
102
RTVSPropertyOp15
 70
     1
102
RTVSPropertyOp16
 70
     1
102
RTVSPropertyOp17
 70
     1
102
RTVSPropertyOp18
 70
     1
102
RTVSPropertyOp19
 70
     1
102
RTVSPropertyOp20
 70
     1
102
RTVSPropertyOp21
 70
     1
102
RTVSPropertyOp22
 70
     1
102
RTVSPropertyOp23
 70
     1
102
RTVSPropertyOp24
 70
     1
102
RTVSPropertyOp25
 70
     1
102
RTVSPropertyOp26
 70
     1
102
RTVSPropertyOp27
 70
     1
102
RTVSPropertyOp28
 70
     1
102
RTVSPropertyOp29
 70
     1
102
RTVSPropertyOp30
 70
     1
102
RTVSPropertyOp31
 70
     1
102
RTVSPropertyOp32
 70
     1
  0
XRECORD
  5
19F
102
{ACAD_REACTORS
330
19E
102
}
330
19E
100
AcDbXrecord
280
     1
102
RTVSPropertyOp0
 70
     1
102
RTVSPropertyOp1
 70
     1
102
RTVSPropertyOp2
 70
     1
102
RTVSPropertyOp3
 70
     1
102
RTVSPropertyOp4
 70
     1
102
RTVSPropertyOp5
 70
     1
102
RTVSPropertyOp6
 70
     1
102
RTVSPropertyOp7
 70
     1
102
RTVSPropertyOp8
 70
     1
102
RTVSPropertyOp9
 70
     1
102
RTVSPropertyOp10
 70
     1
102
RTVSPropertyOp11
 70
     1
102
RTVSPropertyOp12
 70
     1
102
RTVSPropertyOp13
 70
     1
102
RTVSPropertyOp14
 70
     1
102
RTVSPropertyOp15
 70
     1
102
RTVSPropertyOp16
 70
     1
102
RTVSPropertyOp17
 70
     1
102
RTVSPropertyOp18
 70
     1
102
RTVSPropertyOp19
 70
     1
102
RTVSPropertyOp20
 70
     1
102
RTVSPropertyOp21
 70
     1
102
RTVSPropertyOp22
 70
     1
102
RTVSPropertyOp23
 70
     1
102
RTVSPropertyOp24
 70
     1
102
RTVSPropertyOp25
 70
     1
102
RTVSPropertyOp26
 70
     1
102
RTVSPropertyOp27
 70
     1
102
RTVSPropertyOp28
 70
     1
102
RTVSPropertyOp29
 70
     1
102
RTVSPropertyOp30
 70
     1
102
RTVSPropertyOp31
 70
     1
102
RTVSPropertyOp32
 70
     1
  0
ENDSEC
  0
EOF
