  0
SECTION
  2
HEADER
  9
$ACADVER
  1
AC1015
  9
$ACADMAINTVER
 70
     6
  9
$DWGCODEPAGE
  3
ANSI_1252
  9
$INSBASE
 10
0.0
 20
0.0
 30
0.0
  9
$EXTMIN
 10
0.0
 20
0.0
 30
0.0
  9
$EXTMAX
 10
210.0
 20
297.0
 30
0.0
  9
$LIMMIN
 10
0.0
 20
0.0
  9
$LIMMAX
 10
210.0
 20
297.0
  9
$ORTHOMODE
 70
     0
  9
$REGENMODE
 70
     1
  9
$FILLMODE
 70
     1
  9
$QTEXTMODE
 70
     0
  9
$MIRRTEXT
 70
     1
  9
$LTSCALE
 40
1.0
  9
$ATTMODE
 70
     1
  9
$TEXTSIZE
 40
2.5
  9
$TRACEWID
 40
1.0
  9
$TEXTSTYLE
  7
Standard
  9
$CLAYER
  8
0
  9
$CELTYPE
  6
ByLayer
  9
$CECOLOR
 62
   256
  9
$CELTSCALE
 40
1.0
  9
$DISPSILH
 70
     0
  9
$DIMSCALE
 40
1.0
  9
$DIMASZ
 40
2.5
  9
$DIMEXO
 40
0.625
  9
$DIMDLI
 40
3.75
  9
$DIMRND
 40
0.0
  9
$DIMDLE
 40
0.0
  9
$DIMEXE
 40
1.25
  9
$DIMTP
 40
0.0
  9
$DIMTM
 40
0.0
  9
$DIMTXT
 40
2.5
  9
$DIMCEN
 40
2.5
  9
$DIMTSZ
 40
0.0
  9
$DIMTOL
 70
     0
  9
$DIMLIM
 70
     0
  9
$DIMTIH
 70
     0
  9
$DIMTOH
 70
     0
  9
$DIMSE1
 70
     0
  9
$DIMSE2
 70
     0
  9
$DIMTAD
 70
     1
  9
$DIMZIN
 70
     8
  9
$DIMBLK
  1

  9
$DIMASO
 70
     1
  9
$DIMSHO
 70
     1
  9
$DIMPOST
  1

  9
$DIMAPOST
  1

  9
$DIMALT
 70
     0
  9
$DIMALTD
 70
     3
  9
$DIMALTF
 40
0.0393700787
  9
$DIMLFAC
 40
1.0
  9
$DIMTOFL
 70
     1
  9
$DIMTVP
 40
0.0
  9
$DIMTIX
 70
     0
  9
$DIMSOXD
 70
     0
  9
$DIMSAH
 70
     0
  9
$DIMBLK1
  1

  9
$DIMBLK2
  1

  9
$DIMSTYLE
  2
ISO-25
  9
$DIMCLRD
 70
     0
  9
$DIMCLRE
 70
     0
  9
$DIMCLRT
 70
     0
  9
$DIMTFAC
 40
1.0
  9
$DIMGAP
 40
0.625
  9
$DIMJUST
 70
     0
  9
$DIMSD1
 70
     0
  9
$DIMSD2
 70
     0
  9
$DIMTOLJ
 70
     0
  9
$DIMTZIN
 70
     8
  9
$DIMALTZ
 70
     0
  9
$DIMALTTZ
 70
     0
  9
$DIMUPT
 70
     0
  9
$DIMDEC
 70
     2
  9
$DIMTDEC
 70
     2
  9
$DIMALTU
 70
     2
  9
$DIMALTTD
 70
     3
  9
$DIMTXSTY
  7
Standard
  9
$DIMAUNIT
 70
     0
  9
$DIMADEC
 70
     0
  9
$DIMALTRND
 40
0.0
  9
$DIMAZIN
 70
     0
  9
$DIMDSEP
 70
    44
  9
$DIMATFIT
 70
     3
  9
$DIMFRAC
 70
     0
  9
$DIMLDRBLK
  1

  9
$DIMLUNIT
 70
     2
  9
$DIMLWD
 70
    -2
  9
$DIMLWE
 70
    -2
  9
$DIMTMOVE
 70
     0
  9
$LUNITS
 70
     2
  9
$LUPREC
 70
     4
  9
$SKETCHINC
 40
1.0
  9
$FILLETRAD
 40
10.0
  9
$AUNITS
 70
     0
  9
$AUPREC
 70
     0
  9
$MENU
  1
.
  9
$ELEVATION
 40
0.0
  9
$PELEVATION
 40
0.0
  9
$THICKNESS
 40
0.0
  9
$LIMCHECK
 70
     0
  9
$CHAMFERA
 40
10.0
  9
$CHAMFERB
 40
10.0
  9
$CHAMFERC
 40
20.0
  9
$CHAMFERD
 40
0.0
  9
$SKPOLY
 70
     0
  9
$TDCREATE
 40
2457564.417925718
  9
$TDUCREATE
 40
2457564.334592384
  9
$TDUPDATE
 40
2457564.417927963
  9
$TDUUPDATE
 40
2457564.33459463
  9
$TDINDWG
 40
0.0000000116
  9
$TDUSRTIMER
 40
0.0000000116
  9
$USRTIMER
 70
     1
  9
$ANGBASE
 50
0.0
  9
$ANGDIR
 70
     0
  9
$PDMODE
 70
     0
  9
$PDSIZE
 40
0.0
  9
$PLINEWID
 40
0.0
  9
$SPLFRAME
 70
     0
  9
$SPLINETYPE
 70
     6
  9
$SPLINESEGS
 70
     8
  9
$HANDSEED
  5
1AE
  9
$SURFTAB1
 70
     6
  9
$SURFTAB2
 70
     6
  9
$SURFTYPE
 70
     6
  9
$SURFU
 70
     6
  9
$SURFV
 70
     6
  9
$UCSBASE
  2

  9
$UCSNAME
  2

  9
$UCSORG
 10
0.0
 20
0.0
 30
0.0
  9
$UCSXDIR
 10
1.0
 20
0.0
 30
0.0
  9
$UCSYDIR
 10
0.0
 20
1.0
 30
0.0
  9
$UCSORTHOREF
  2

  9
$UCSORTHOVIEW
 70
     0
  9
$UCSORGTOP
 10
0.0
 20
0.0
 30
0.0
  9
$UCSORGBOTTOM
 10
0.0
 20
0.0
 30
0.0
  9
$UCSORGLEFT
 10
0.0
 20
0.0
 30
0.0
  9
$UCSORGRIGHT
 10
0.0
 20
0.0
 30
0.0
  9
$UCSORGFRONT
 10
0.0
 20
0.0
 30
0.0
  9
$UCSORGBACK
 10
0.0
 20
0.0
 30
0.0
  9
$PUCSBASE
  2

  9
$PUCSNAME
  2

  9
$PUCSORG
 10
0.0
 20
0.0
 30
0.0
  9
$PUCSXDIR
 10
1.0
 20
0.0
 30
0.0
  9
$PUCSYDIR
 10
0.0
 20
1.0
 30
0.0
  9
$PUCSORTHOREF
  2

  9
$PUCSORTHOVIEW
 70
     0
  9
$PUCSORGTOP
 10
0.0
 20
0.0
 30
0.0
  9
$PUCSORGBOTTOM
 10
0.0
 20
0.0
 30
0.0
  9
$PUCSORGLEFT
 10
0.0
 20
0.0
 30
0.0
  9
$PUCSORGRIGHT
 10
0.0
 20
0.0
 30
0.0
  9
$PUCSORGFRONT
 10
0.0
 20
0.0
 30
0.0
  9
$PUCSORGBACK
 10
0.0
 20
0.0
 30
0.0
  9
$USERI1
 70
     0
  9
$USERI2
 70
     0
  9
$USERI3
 70
     0
  9
$USERI4
 70
     0
  9
$USERI5
 70
     0
  9
$USERR1
 40
0.0
  9
$USERR2
 40
0.0
  9
$USERR3
 40
0.0
  9
$USERR4
 40
0.0
  9
$USERR5
 40
0.0
  9
$WORLDVIEW
 70
     1
  9
$SHADEDGE
 70
     3
  9
$SHADEDIF
 70
    70
  9
$TILEMODE
 70
     1
  9
$MAXACTVP
 70
    64
  9
$PINSBASE
 10
0.0
 20
0.0
 30
0.0
  9
$PLIMCHECK
 70
     0
  9
$PEXTMIN
 10
0.0
 20
0.0
 30
0.0
  9
$PEXTMAX
 10
210.0
 20
297.0
 30
0.0
  9
$PLIMMIN
 10
0.0
 20
0.0
  9
$PLIMMAX
 10
210.0
 20
297.0
  9
$UNITMODE
 70
     0
  9
$VISRETAIN
 70
     1
  9
$PLINEGEN
 70
     0
  9
$PSLTSCALE
 70
     1
  9
$TREEDEPTH
 70
  3020
  9
$CMLSTYLE
  2
Standard
  9
$CMLJUST
 70
     0
  9
$CMLSCALE
 40
20.0
  9
$PROXYGRAPHICS
 70
     1
  9
$MEASUREMENT
 70
     1
  9
$CELWEIGHT
370
    -1
  9
$ENDCAPS
280
     0
  9
$JOINSTYLE
280
     0
  9
$LWDISPLAY
290
     0
  9
$INSUNITS
 70
     4
  9
$HYPERLINKBASE
  1

  9
$STYLESHEET
  1

  9
$XEDIT
290
     1
  9
$CEPSNTYPE
380
     0
  9
$PSTYLEMODE
290
     1
  9
$FINGERPRINTGUID
  2
{6BA54B0A-A7AF-4231-B42D-98AA6286BEC7}
  9
$VERSIONGUID
  2
{FAEB1C32-E019-11D5-929B-00C0DF256EC4}
  9
$EXTNAMES
290
     1
  9
$PSVPSCALE
 40
0.0
  9
$OLESTARTUP
290
     0
  0
ENDSEC
  0
SECTION
  2
CLASSES
  0
CLASS
  1
ACDBDICTIONARYWDFLT
  2
AcDbDictionaryWithDefault
  3
ObjectDBX Classes
 90
        0
280
     0
281
     0
  0
CLASS
  1
VISUALSTYLE
  2
AcDbVisualStyle
  3
ObjectDBX Classes
 90
     4095
280
     0
281
     0
  0
CLASS
  1
MATERIAL
  2
AcDbMaterial
  3
ObjectDBX Classes
 90
     1153
280
     0
281
     0
  0
CLASS
  1
DICTIONARYVAR
  2
AcDbDictionaryVar
  3
ObjectDBX Classes
 90
        0
280
     0
281
     0
  0
CLASS
  1
ACDBPLACEHOLDER
  2
AcDbPlaceHolder
  3
ObjectDBX Classes
 90
        0
280
     0
281
     0
  0
CLASS
  1
LAYOUT
  2
AcDbLayout
  3
ObjectDBX Classes
 90
        0
280
     0
281
     0
  0
ENDSEC
  0
SECTION
  2
TABLES
  0
TABLE
  2
VPORT
  5
8
330
0
100
AcDbSymbolTable
 70
     1
  0
VPORT
  5
29
330
8
100
AcDbSymbolTableRecord
100
AcDbViewportTableRecord
  2
*Active
 70
     0
 10
0.0
 20
0.0
 11
1.0
 21
1.0
 12
344.1869158879
 22
148.5
 13
0.0
 23
0.0
 14
10.0
 24
10.0
 15
10.0
 25
10.0
 16
0.0
 26
0.0
 36
1.0
 17
0.0
 27
0.0
 37
0.0
 40
297.0
 41
1.9729729729
 42
50.0
 43
0.0
 44
0.0
 50
0.0
 51
0.0
 71
     0
 72
   100
 73
     1
 74
     3
 75
     0
 76
     0
 77
     0
 78
     0
281
     0
 65
     1
110
0.0
120
0.0
130
0.0
111
1.0
121
0.0
131
0.0
112
0.0
122
1.0
132
0.0
 79
     0
146
0.0
  0
ENDTAB
  0
TABLE
  2
LTYPE
  5
5
330
0
100
AcDbSymbolTable
 70
     2
  0
LTYPE
  5
14
330
5
100
AcDbSymbolTableRecord
100
AcDbLinetypeTableRecord
  2
ByBlock
 70
     0
  3

 72
    65
 73
     0
 40
0.0
  0
LTYPE
  5
15
330
5
100
AcDbSymbolTableRecord
100
AcDbLinetypeTableRecord
  2
ByLayer
 70
     0
  3

 72
    65
 73
     0
 40
0.0
  0
LTYPE
  5
16
330
5
100
AcDbSymbolTableRecord
100
AcDbLinetypeTableRecord
  2
Continuous
 70
     0
  3
Solid line
 72
    65
 73
     0
 40
0.0
  0
LTYPE
  5
55
330
5
100
AcDbSymbolTableRecord
100
AcDbLinetypeTableRecord
  2
HIDDEN2
 70
     0
  3
Hidden (.5x) _ _ _ _ _ _ _ _ _ _ _ _ _ _ _ _ _ 
 72
    65
 73
     2
 40
4.7625
 49
3.175
 74
     4
 75
     0
340
0
 46
0.0
 50
0.0
 44
0.0
 45
0.0
 49
-1.5875
 74
     4
 75
     0
340
0
 46
0.0
 50
0.0
 44
0.0
 45
0.0
  0
ENDTAB
  0
TABLE
  2
LAYER
  5
2
330
0
100
AcDbSymbolTable
 70
     5
  0
LAYER
  5
10
330
2
100
AcDbSymbolTableRecord
100
AcDbLayerTableRecord
  2
0
 70
     0
 62
     7
  6
Continuous
370
    -3
390
F
  0
LAYER
  5
3F
330
2
100
AcDbSymbolTableRecord
100
AcDbLayerTableRecord
  2
SK1
 70
     0
 62
     4
  6
Continuous
370
    18
390
F
  0
LAYER
  5
54
330
2
100
AcDbSymbolTableRecord
100
AcDbLayerTableRecord
  2
SK3
 70
     0
 62
     1
  6
HIDDEN2
370
    15
390
F
  0
LAYER
  5
12A
330
2
100
AcDbSymbolTableRecord
100
AcDbLayerTableRecord
  2
SK4
 70
     0
 62
     2
  6
Continuous
370
    13
390
F
  0
LAYER
  5
12C
330
2
100
AcDbSymbolTableRecord
100
AcDbLayerTableRecord
  2
SK2
 70
     0
 62
     7
  6
Continuous
370
    15
390
F
  0
ENDTAB
  0
TABLE
  2
STYLE
  5
3
330
0
100
AcDbSymbolTable
 70
     2
  0
STYLE
  5
11
330
3
100
AcDbSymbolTableRecord
100
AcDbTextStyleTableRecord
  2
Standard
 70
     0
 40
0.0
 41
1.0
 50
0.0
 71
     0
 42
2.5
  3
txt
  4

  0
STYLE
  5
13F
330
3
100
AcDbSymbolTableRecord
100
AcDbTextStyleTableRecord
  2
SEACAD_Solid_Edge_ISO
 70
     0
 40
0.0
 41
1.0
 50
0.0
 71
     0
 42
0.2
  3
seiso.ttf
  4

1001
ACAD
1000
Solid Edge ISO
1071
        0
  0
ENDTAB
  0
TABLE
  2
VIEW
  5
6
330
0
100
AcDbSymbolTable
 70
     0
  0
ENDTAB
  0
TABLE
  2
UCS
  5
7
330
0
100
AcDbSymbolTable
 70
     0
  0
ENDTAB
  0
TABLE
  2
APPID
  5
9
330
0
100
AcDbSymbolTable
 70
     1
  0
APPID
  5
12
330
9
100
AcDbSymbolTableRecord
100
AcDbRegAppTableRecord
  2
ACAD
 70
     0
  0
ENDTAB
  0
TABLE
  2
DIMSTYLE
  5
A
330
0
100
AcDbSymbolTable
 70
     3
100
AcDbDimStyleTable
  0
DIMSTYLE
105
27
330
A
100
AcDbSymbolTableRecord
100
AcDbDimStyleTableRecord
  2
ISO-25
 70
     0
 41
2.5
 42
0.625
 43
3.75
 44
1.25
 73
     0
 74
     0
 77
     1
 78
     8
140
2.5
141
2.5
143
0.0393700787
147
0.625
171
     3
172
     1
178
     0
271
     2
272
     2
274
     3
278
    44
283
     0
284
     8
340
11
  0
DIMSTYLE
105
12D
330
A
100
AcDbSymbolTableRecord
100
AcDbDimStyleTableRecord
  2
Standard
 70
     0
178
     0
340
11
  0
DIMSTYLE
105
140
102
{ACAD_REACTORS
330
141
330
14B
330
156
330
160
102
}
330
A
100
AcDbSymbolTableRecord
100
AcDbDimStyleTableRecord
  2
DIN
 70
     0
 41
3.5
 42
0.0
 44
1.75
 73
     0
 74
     0
 77
     1
 78
     8
140
3.5
141
1.75
147
1.75
172
     1
173
     1
178
     0
179
     3
271
     2
272
     2
278
    44
284
     8
340
13F
343
13A
344
13A
  0
ENDTAB
  0
TABLE
  2
BLOCK_RECORD
  5
1
330
0
100
AcDbSymbolTable
 70
    10
  0
BLOCK_RECORD
  5
1F
330
1
100
AcDbSymbolTableRecord
100
AcDbBlockTableRecord
  2
*Model_Space
340
22
  0
BLOCK_RECORD
  5
1B
330
1
100
AcDbSymbolTableRecord
100
AcDbBlockTableRecord
  2
*Paper_Space
340
1E
  0
BLOCK_RECORD
  5
12E
330
1
100
AcDbSymbolTableRecord
100
AcDbBlockTableRecord
  2
_OBLIQUE
340
0
  0
BLOCK_RECORD
  5
132
330
1
100
AcDbSymbolTableRecord
100
AcDbBlockTableRecord
  2
_DOT
340
0
  0
BLOCK_RECORD
  5
13A
330
1
100
AcDbSymbolTableRecord
100
AcDbBlockTableRecord
  2
_SE_FILLED
340
0
  0
BLOCK_RECORD
  5
142
330
1
100
AcDbSymbolTableRecord
100
AcDbBlockTableRecord
  2
DMBLK103
340
0
  0
BLOCK_RECORD
  5
14C
330
1
100
AcDbSymbolTableRecord
100
AcDbBlockTableRecord
  2
DMBLK104
340
0
  0
BLOCK_RECORD
  5
157
330
1
100
AcDbSymbolTableRecord
100
AcDbBlockTableRecord
  2
DMBLK105
340
0
  0
BLOCK_RECORD
  5
161
330
1
100
AcDbSymbolTableRecord
100
AcDbBlockTableRecord
  2
DMBLK106
340
0
  0
BLOCK_RECORD
  5
16B
330
1
100
AcDbSymbolTableRecord
100
AcDbBlockTableRecord
  2
Nullpunkt
340
0
102
{BLKREFS
331
175
102
}
  0
BLOCK_RECORD
  5
176
330
1
100
AcDbSymbolTableRecord
100
AcDbBlockTableRecord
  2
Einfügepunkt
340
0
102
{BLKREFS
331
180
102
}
  0
ENDTAB
  0
ENDSEC
  0
SECTION
  2
BLOCKS
  0
BLOCK
  5
20
330
1F
100
AcDbEntity
  8
0
100
AcDbBlockBegin
  2
*Model_Space
 70
     0
 10
0.0
 20
0.0
 30
0.0
  3
*Model_Space
  1

  0
ENDBLK
  5
21
330
1F
100
AcDbEntity
  8
0
100
AcDbBlockEnd
  0
BLOCK
  5
1C
330
1B
100
AcDbEntity
 67
     1
  8
0
100
AcDbBlockBegin
  2
*Paper_Space
 70
     0
 10
0.0
 20
0.0
 30
0.0
  3
*Paper_Space
  1

  0
ENDBLK
  5
1D
330
1B
100
AcDbEntity
 67
     1
  8
0
100
AcDbBlockEnd
  0
BLOCK
  5
12F
330
12E
100
AcDbEntity
  8
0
100
AcDbBlockBegin
  2
_OBLIQUE
 70
     0
 10
0.0
 20
0.0
 30
0.0
  3
_OBLIQUE
  1

  0
LINE
  5
131
330
12E
100
AcDbEntity
  8
0
  6
ByBlock
 62
     0
370
    -2
100
AcDbLine
 10
-0.5
 20
-0.5
 30
0.0
 11
0.5
 21
0.5
 31
0.0
  0
ENDBLK
  5
130
330
12E
100
AcDbEntity
  8
0
100
AcDbBlockEnd
  0
BLOCK
  5
133
330
132
100
AcDbEntity
  8
0
100
AcDbBlockBegin
  2
_DOT
 70
     0
 10
0.0
 20
0.0
 30
0.0
  3
_DOT
  1

  0
POLYLINE
  5
135
330
132
100
AcDbEntity
  8
0
  6
ByBlock
 62
     0
100
AcDb2dPolyline
 66
     1
 10
0.0
 20
0.0
 30
0.0
 70
     1
 40
0.5
 41
0.5
  0
VERTEX
  5
137
330
135
100
AcDbEntity
  8
0
  6
ByBlock
 62
     0
100
AcDbVertex
100
AcDb2dVertex
 10
-0.25
 20
0.0
 30
0.0
 42
1.0
  0
VERTEX
  5
138
330
135
100
AcDbEntity
  8
0
  6
ByBlock
 62
     0
100
AcDbVertex
100
AcDb2dVertex
 10
0.25
 20
0.0
 30
0.0
 42
1.0
  0
SEQEND
  5
139
330
135
100
AcDbEntity
  8
0
  6
ByBlock
 62
     0
  0
LINE
  5
136
330
132
100
AcDbEntity
  8
0
  6
ByBlock
 62
     0
370
    -2
100
AcDbLine
 10
-0.5
 20
0.0
 30
0.0
 11
-1.0
 21
0.0
 31
0.0
  0
ENDBLK
  5
134
330
132
100
AcDbEntity
  8
0
100
AcDbBlockEnd
  0
BLOCK
  5
13D
330
13A
100
AcDbEntity
  8
0
100
AcDbBlockBegin
  2
_SE_FILLED
 70
     0
 10
0.0
 20
0.0
 30
0.0
  3
_SE_FILLED
  1

  0
SOLID
  5
13B
330
13A
100
AcDbEntity
  8
0
 62
     0
100
AcDbTrace
 10
0.0
 20
0.0
 30
0.0
 11
-1.0
 21
-0.1665
 31
0.0
 12
-1.0
 22
0.1665
 32
0.0
 13
0.0
 23
0.0
 33
0.0
  0
LINE
  5
13C
330
13A
100
AcDbEntity
  8
0
 62
     0
100
AcDbLine
 10
0.0
 20
0.0
 30
0.0
 11
-1.0
 21
0.0
 31
0.0
  0
ENDBLK
  5
13E
330
13A
100
AcDbEntity
  8
0
100
AcDbBlockEnd
  0
BLOCK
  5
149
330
142
100
AcDbEntity
  8
0
100
AcDbBlockBegin
  2
DMBLK103
 70
     0
 10
0.0
 20
0.0
 30
0.0
  3
DMBLK103
  1

  0
HATCH
  5
143
330
142
100
AcDbEntity
  8
SK2
  6
Continuous
 62
   136
100
AcDbHatch
 10
0.0
 20
0.0
 30
0.0
210
0.0
220
0.0
230
1.0
  2
SOLID
 70
     1
 71
     0
 91
        1
 92
        1
 93
        3
 72
     1
 10
-13.73976447658345
 20
16.69609076600974
 11
-17.23976458461687
 21
16.11275741467083
 72
     1
 10
-17.23976458461687
 20
16.11275741467083
 11
-13.73976447658346
 21
15.52942406333193
 72
     1
 10
-13.73976447658345
 20
15.52942406333193
 11
-13.73976447658345
 21
16.69609076600974
 97
        0
 75
     0
 76
     1
 98
        0
  0
HATCH
  5
144
330
142
100
AcDbEntity
  8
SK2
  6
Continuous
 62
   136
100
AcDbHatch
 10
0.0
 20
0.0
 30
0.0
210
0.0
220
0.0
230
1.0
  2
SOLID
 70
     1
 71
     0
 91
        1
 92
        1
 93
        3
 72
     1
 10
6.760235158338096
 20
16.69609076600974
 11
6.760235158338096
 21
15.52942406333193
 72
     1
 10
6.760235158338096
 20
15.52942406333193
 11
10.26023526637151
 21
16.11275741467083
 72
     1
 10
10.26023526637151
 20
16.11275741467083
 11
6.760235158338096
 21
16.69609076600974
 97
        0
 75
     0
 76
     1
 98
        0
  0
LINE
  5
145
330
142
100
AcDbEntity
  8
SK2
  6
Continuous
 62
   136
100
AcDbLine
 10
-17.2397645846
 20
5.3945579902
 30
0.0
 11
-17.2397645846
 21
17.8627574687
 31
0.0
  0
LINE
  5
146
330
142
100
AcDbEntity
  8
SK2
  6
Continuous
 62
   136
100
AcDbLine
 10
10.2602354154
 20
2.6360112113
 30
0.0
 11
10.2602354154
 21
17.8627574687
 31
0.0
  0
LINE
  5
147
330
142
100
AcDbEntity
  8
SK2
  6
Continuous
 62
   136
100
AcDbLine
 10
-17.2397645846
 20
16.1127574147
 30
0.0
 11
10.2602352664
 21
16.1127574147
 31
0.0
  0
TEXT
  5
148
330
142
100
AcDbEntity
  8
SK2
  6
Continuous
 62
   136
100
AcDbText
 10
-6.9897646591
 20
16.9877574147
 30
0.0
 40
3.5
  1
27,5
  7
SEACAD_Solid_Edge_ISO
 11
-6.9897646591
 21
20.4877574147
 31
0.0
100
AcDbText
 73
     3
  0
ENDBLK
  5
14A
330
142
100
AcDbEntity
  8
0
100
AcDbBlockEnd
  0
BLOCK
  5
154
330
14C
100
AcDbEntity
  8
0
100
AcDbBlockBegin
  2
DMBLK104
 70
     0
 10
0.0
 20
0.0
 30
0.0
  3
DMBLK104
  1

  0
HATCH
  5
14D
330
14C
100
AcDbEntity
  8
SK2
  6
Continuous
 62
   136
100
AcDbHatch
 10
0.0
 20
0.0
 30
0.0
210
0.0
220
0.0
230
1.0
  2
SOLID
 70
     1
 71
     0
 91
        1
 92
        1
 93
        3
 72
     1
 10
20.89922742606106
 20
-7.469000108033423
 11
20.31589407472216
 21
-3.969000000000004
 72
     1
 10
20.31589407472216
 20
-3.969000000000004
 11
19.73256072338325
 21
-7.469000108033423
 72
     1
 10
19.73256072338325
 20
-7.469000108033423
 11
20.89922742606106
 21
-7.469000108033423
 97
        0
 75
     0
 76
     1
 98
        0
  0
HATCH
  5
14E
330
14C
100
AcDbEntity
  8
SK2
  6
Continuous
 62
   136
100
AcDbHatch
 10
0.0
 20
0.0
 30
0.0
210
0.0
220
0.0
230
1.0
  2
SOLID
 70
     1
 71
     0
 91
        1
 92
        1
 93
        3
 72
     1
 10
20.89922742606106
 20
7.469000108033424
 11
19.73256072338325
 21
7.469000108033424
 72
     1
 10
19.73256072338325
 20
7.469000108033424
 11
20.31589407472216
 21
3.969000000000006
 72
     1
 10
20.31589407472216
 20
3.969000000000006
 11
20.89922742606106
 21
7.469000108033424
 97
        0
 75
     0
 76
     1
 98
        0
  0
LINE
  5
14F
330
14C
100
AcDbEntity
  8
SK2
  6
Continuous
 62
   136
100
AcDbLine
 10
9.8602354154
 20
-3.969
 30
0.0
 11
22.0658941287
 21
-3.969
 31
0.0
  0
LINE
  5
150
330
14C
100
AcDbEntity
  8
SK2
  6
Continuous
 62
   136
100
AcDbLine
 10
9.8602354154
 20
3.969
 30
0.0
 11
22.0658941287
 21
3.969
 31
0.0
  0
LINE
  5
151
330
14C
100
AcDbEntity
  8
SK2
  6
Continuous
 62
   136
100
AcDbLine
 10
20.3158940747
 20
-10.9690002161
 30
0.0
 11
20.3158940747
 21
21.6897881595
 31
0.0
  0
TEXT
  5
152
330
14C
100
AcDbEntity
  8
SK2
  6
Continuous
 62
   136
100
AcDbText
 10
19.4408940747
 20
13.3852437562
 30
0.0
 40
3.5
  1
7,94
 50
90.0
  7
SEACAD_Solid_Edge_ISO
 11
15.9408940747
 21
13.3852437562
 31
0.0
100
AcDbText
 73
     3
  0
TEXT
  5
153
330
14C
100
AcDbEntity
  8
SK2
  6
Continuous
 62
   136
100
AcDbText
 10
19.4408940747
 20
9.3125164834
 30
0.0
 40
3.5
  1
ø
 50
90.0
  7
SEACAD_Solid_Edge_ISO
 11
15.9408940747
 21
9.3125164834
 31
0.0
100
AcDbText
 73
     3
  0
ENDBLK
  5
155
330
14C
100
AcDbEntity
  8
0
100
AcDbBlockEnd
  0
BLOCK
  5
15E
330
157
100
AcDbEntity
  8
0
100
AcDbBlockBegin
  2
DMBLK105
 70
     0
 10
0.0
 20
0.0
 30
0.0
  3
DMBLK105
  1

  0
HATCH
  5
158
330
157
100
AcDbEntity
  8
SK2
  6
Continuous
 62
   136
100
AcDbHatch
 10
0.0
 20
0.0
 30
0.0
210
0.0
220
0.0
230
1.0
  2
SOLID
 70
     1
 71
     0
 91
        1
 92
        1
 93
        3
 72
     1
 10
-3.500000108033417
 20
-16.9455670922786
 11
0.0000000000000013
 21
-16.3622337409397
 72
     1
 10
0.0000000000000013
 20
-16.3622337409397
 11
-3.500000108033417
 21
-15.77890038960079
 72
     1
 10
-3.500000108033417
 20
-15.77890038960079
 11
-3.500000108033417
 21
-16.9455670922786
 97
        0
 75
     0
 76
     1
 98
        0
  0
HATCH
  5
159
330
157
100
AcDbEntity
  8
SK2
  6
Continuous
 62
   136
100
AcDbHatch
 10
0.0
 20
0.0
 30
0.0
210
0.0
220
0.0
230
1.0
  2
SOLID
 70
     1
 71
     0
 91
        1
 92
        1
 93
        3
 72
     1
 10
13.76023552341663
 20
-16.9455670922786
 11
13.76023552341663
 21
-15.77890038960079
 72
     1
 10
13.76023552341663
 20
-15.77890038960079
 11
10.26023541538321
 21
-16.36223374093969
 72
     1
 10
10.26023541538321
 20
-16.3622337409397
 11
13.76023552341663
 21
-16.9455670922786
 97
        0
 75
     0
 76
     1
 98
        0
  0
LINE
  5
15A
330
157
100
AcDbEntity
  8
SK2
  6
Continuous
 62
   136
100
AcDbLine
 10
0.0
 20
-7.999641543
 30
0.0
 11
0.0
 21
-18.112233795
 31
0.0
  0
LINE
  5
15B
330
157
100
AcDbEntity
  8
SK2
  6
Continuous
 62
   136
100
AcDbLine
 10
10.2602354154
 20
-5.5799562379
 30
0.0
 11
10.2602354154
 21
-18.112233795
 31
0.0
  0
LINE
  5
15C
330
157
100
AcDbEntity
  8
SK2
  6
Continuous
 62
   136
100
AcDbLine
 10
-7.0000002161
 20
-16.3622337409
 30
0.0
 11
17.260234803
 21
-16.3622337409
 31
0.0
  0
TEXT
  5
15D
330
157
100
AcDbEntity
  8
SK2
  6
Continuous
 62
   136
100
AcDbText
 10
0.9142086682
 20
-15.4872337409
 30
0.0
 40
3.5
  1
10,26
  7
SEACAD_Solid_Edge_ISO
 11
0.9142086682
 21
-11.9872337409
 31
0.0
100
AcDbText
 73
     3
  0
ENDBLK
  5
15F
330
157
100
AcDbEntity
  8
0
100
AcDbBlockEnd
  0
BLOCK
  5
169
330
161
100
AcDbEntity
  8
0
100
AcDbBlockBegin
  2
DMBLK106
 70
     0
 10
0.0
 20
0.0
 30
0.0
  3
DMBLK106
  1

  0
HATCH
  5
162
330
161
100
AcDbEntity
  8
SK2
  6
Continuous
 62
   136
100
AcDbHatch
 10
0.0
 20
0.0
 30
0.0
210
0.0
220
0.0
230
1.0
  2
SOLID
 70
     1
 71
     0
 91
        1
 92
        1
 93
        3
 72
     1
 10
-23.57480620654921
 20
4.499641434951624
 11
-22.4081395038714
 21
4.499641434951624
 72
     1
 10
-22.4081395038714
 20
4.499641434951624
 11
-22.9914728552103
 21
7.999641542985042
 72
     1
 10
-22.9914728552103
 20
7.999641542985042
 11
-23.57480620654921
 21
4.499641434951624
 97
        0
 75
     0
 76
     1
 98
        0
  0
HATCH
  5
163
330
161
100
AcDbEntity
  8
SK2
  6
Continuous
 62
   136
100
AcDbHatch
 10
0.0
 20
0.0
 30
0.0
210
0.0
220
0.0
230
1.0
  2
SOLID
 70
     1
 71
     0
 91
        1
 92
        1
 93
        3
 72
     1
 10
-23.57480620654921
 20
-4.499641990558306
 11
-22.9914728552103
 21
-7.999642098591725
 72
     1
 10
-22.9914728552103
 20
-7.999642098591725
 11
-22.4081395038714
 21
-4.499641990558306
 72
     1
 10
-22.4081395038714
 20
-4.499641990558306
 11
-23.57480620654921
 21
-4.499641990558306
 97
        0
 75
     0
 76
     1
 98
        0
  0
LINE
  5
164
330
161
100
AcDbEntity
  8
SK2
  6
Continuous
 62
   136
100
AcDbLine
 10
0.0
 20
7.999641543
 30
0.0
 11
-24.7414729092
 21
7.999641543
 31
0.0
  0
LINE
  5
165
330
161
100
AcDbEntity
  8
SK2
  6
Continuous
 62
   136
100
AcDbLine
 10
0.0
 20
-7.999641543
 30
0.0
 11
-24.7414729092
 21
-7.999641543
 31
0.0
  0
LINE
  5
166
330
161
100
AcDbEntity
  8
SK2
  6
Continuous
 62
   136
100
AcDbLine
 10
-22.9914728552
 20
7.999641543
 30
0.0
 11
-22.9914728552
 21
-7.9996420986
 31
0.0
  0
TEXT
  5
167
330
161
100
AcDbEntity
  8
SK2
  6
Continuous
 62
   136
100
AcDbText
 10
-23.8664728552
 20
0.2465906313
 30
0.0
 40
3.5
  1
16
 50
90.0
  7
SEACAD_Solid_Edge_ISO
 11
-27.3664728552
 21
0.2465906313
 31
0.0
100
AcDbText
 73
     3
  0
TEXT
  5
168
330
161
100
AcDbEntity
  8
SK2
  6
Continuous
 62
   136
100
AcDbText
 10
-23.8664728552
 20
-3.8261366414
 30
0.0
 40
3.5
  1
ø
 50
90.0
  7
SEACAD_Solid_Edge_ISO
 11
-27.3664728552
 21
-3.8261366414
 31
0.0
100
AcDbText
 73
     3
  0
ENDBLK
  5
16A
330
161
100
AcDbEntity
  8
0
100
AcDbBlockEnd
  0
BLOCK
  5
173
330
16B
100
AcDbEntity
  8
0
100
AcDbBlockBegin
  2
Nullpunkt
 70
     0
 10
0.0
 20
0.0
 30
0.0
  3
Nullpunkt
  1

  0
HATCH
  5
16C
330
16B
100
AcDbEntity
  8
SK2
  6
Continuous
 62
     7
100
AcDbHatch
 10
0.0
 20
0.0
 30
0.0
210
0.0
220
0.0
230
1.0
  2
SOLID
 70
     1
 71
     0
 91
        1
 92
        1
 93
        3
 72
     1
 10
-1.0
 20
0.0
 11
0.0000000000000009
 21
0.0
 72
     1
 10
0.0
 20
0.0
 11
0.0
 21
1.000000000000001
 72
     2
 10
0.0
 20
0.0
 40
1.0
 50
90.0
 51
180.0
 73
     1
 97
        0
 75
     0
 76
     1
 98
        0
  0
HATCH
  5
16D
330
16B
100
AcDbEntity
  8
SK2
  6
Continuous
 62
     7
100
AcDbHatch
 10
0.0
 20
0.0
 30
0.0
210
0.0
220
0.0
230
1.0
  2
SOLID
 70
     1
 71
     0
 91
        1
 92
        1
 93
        3
 72
     2
 10
0.0
 20
0.0
 40
1.0
 50
270.0
 51
360.0
 73
     1
 72
     1
 10
1.0
 20
0.0
 11
-0.0000000000000009
 21
0.0
 72
     1
 10
0.0
 20
0.0
 11
0.0
 21
-1.000000000000001
 97
        0
 75
     0
 76
     1
 98
        0
  0
CIRCLE
  5
16E
330
16B
100
AcDbEntity
  8
SK2
  6
Continuous
 62
     7
100
AcDbCircle
 10
0.0
 20
0.0
 30
0.0
 40
1.0
  0
LINE
  5
16F
330
16B
100
AcDbEntity
  8
SK1
  6
Continuous
100
AcDbLine
 10
-1.0
 20
0.0
 30
0.0
 11
1.0
 21
0.0
 31
0.0
  0
LINE
  5
170
330
16B
100
AcDbEntity
  8
SK1
  6
Continuous
100
AcDbLine
 10
0.0
 20
1.0
 30
0.0
 11
0.0
 21
-1.0
 31
0.0
  0
POINT
  5
171
330
16B
100
AcDbEntity
  8
SK1
  6
Continuous
100
AcDbPoint
 10
0.0
 20
0.0
 30
0.0
  0
POINT
  5
172
330
16B
100
AcDbEntity
  8
SK1
  6
Continuous
100
AcDbPoint
 10
0.0
 20
0.0
 30
0.0
  0
ENDBLK
  5
174
330
16B
100
AcDbEntity
  8
0
100
AcDbBlockEnd
  0
BLOCK
  5
17E
330
176
100
AcDbEntity
  8
0
100
AcDbBlockBegin
  2
Einfügepunkt
 70
     0
 10
0.0
 20
0.0
 30
0.0
  3
Einfügepunkt
  1

  0
HATCH
  5
177
330
176
100
AcDbEntity
  8
SK2
  6
Continuous
 62
     7
100
AcDbHatch
 10
0.0
 20
0.0
 30
0.0
210
0.0
220
0.0
230
1.0
  2
SOLID
 70
     1
 71
     0
 91
        1
 92
        1
 93
        3
 72
     1
 10
-0.4502381196756744
 20
-0.0000000000000018
 11
0.0000000000000033
 21
-0.0000000000000018
 72
     1
 10
0.0
 20
-0.0000000000000018
 11
0.0
 21
0.4502381196756812
 72
     2
 10
0.0
 20
-0.0000000000000018
 40
0.4502381196756812
 50
90.0
 51
180.0
 73
     1
 97
        0
 75
     0
 76
     1
 98
        0
  0
HATCH
  5
178
330
176
100
AcDbEntity
  8
SK2
  6
Continuous
 62
     7
100
AcDbHatch
 10
0.0
 20
0.0
 30
0.0
210
0.0
220
0.0
230
1.0
  2
SOLID
 70
     1
 71
     0
 91
        1
 92
        1
 93
        3
 72
     2
 10
0.0
 20
-0.0000000000000018
 40
0.4502381196756812
 50
270.0
 51
360.0
 73
     1
 72
     1
 10
0.4502381196756815
 20
-0.0000000000000018
 11
0.0000000000000038
 21
-0.0000000000000018
 72
     1
 10
0.0
 20
-0.0000000000000018
 11
0.0
 21
-0.4502381196756812
 97
        0
 75
     0
 76
     1
 98
        0
  0
CIRCLE
  5
179
330
176
100
AcDbEntity
  8
SK2
  6
Continuous
 62
     7
100
AcDbCircle
 10
0.0
 20
0.0
 30
0.0
 40
0.4502381196756812
  0
LINE
  5
17A
330
176
100
AcDbEntity
  8
SK1
  6
Continuous
100
AcDbLine
 10
-0.4502381197
 20
0.0
 30
0.0
 11
0.4502381197
 21
0.0
 31
0.0
  0
LINE
  5
17B
330
176
100
AcDbEntity
  8
SK1
  6
Continuous
100
AcDbLine
 10
0.0
 20
0.4502381197
 30
0.0
 11
0.0
 21
-0.4502381197
 31
0.0
  0
POINT
  5
17C
330
176
100
AcDbEntity
  8
SK2
  6
Continuous
 62
     7
100
AcDbPoint
 10
0.0
 20
0.0
 30
0.0
  0
POINT
  5
17D
330
176
100
AcDbEntity
  8
SK2
  6
Continuous
 62
     7
100
AcDbPoint
 10
0.0
 20
0.0
 30
0.0
  0
ENDBLK
  5
17F
330
176
100
AcDbEntity
  8
0
100
AcDbBlockEnd
  0
ENDSEC
  0
SECTION
  2
ENTITIES
  0
LINE
  5
40
330
1F
100
AcDbEntity
  8
SK1
  6
Continuous
100
AcDbLine
 10
3.7602354154
 20
6.4835456525
 30
0.0
 11
3.7602354154
 21
6.9
 31
0.0
  0
LINE
  5
41
330
1F
100
AcDbEntity
  8
SK1
  6
Continuous
100
AcDbLine
 10
6.0602354154
 20
6.9
 30
0.0
 11
6.0602354154
 21
6.4835456525
 31
0.0
  0
LINE
  5
42
330
1F
100
AcDbEntity
  8
SK1
  6
Continuous
100
AcDbLine
 10
10.2602354154
 20
5.8095662974
 30
0.0
 11
10.2602354154
 21
6.1712613559
 31
0.0
  0
LINE
  5
43
330
1F
100
AcDbEntity
  8
SK1
  6
Continuous
100
AcDbLine
 10
10.1352354154
 20
6.0098208121
 30
0.0
 11
10.1352354154
 21
6.3877677069
 31
0.0
  0
LINE
  5
44
330
1F
100
AcDbEntity
  8
SK1
  6
Continuous
100
AcDbLine
 10
3.5602354154
 20
7.3078774026
 30
0.0
 11
3.5602354154
 21
3.3517395924
 31
0.0
  0
LINE
  5
45
330
1F
100
AcDbEntity
  8
SK1
  6
Continuous
100
AcDbLine
 10
3.104566175
 20
-7.9036858695
 30
0.0
 11
3.104566175
 21
-8.4359598646
 31
0.0
  0
LINE
  5
46
330
1F
100
AcDbEntity
  8
SK1
  6
Continuous
100
AcDbLine
 10
6.4767417663
 20
8.5
 30
0.0
 11
6.4767417663
 21
7.962888405
 31
0.0
  0
LINE
  5
47
330
1F
100
AcDbEntity
  8
SK1
  6
Continuous
100
AcDbLine
 10
6.2602354154
 20
8.5
 30
0.0
 11
6.2602354154
 21
7.962888405
 31
0.0
  0
LINE
  5
48
330
1F
100
AcDbEntity
  8
SK1
  6
Continuous
100
AcDbLine
 10
6.4767417663
 20
-8.5
 30
0.0
 11
6.4767417663
 21
-7.962888405
 31
0.0
  0
LINE
  5
49
330
1F
100
AcDbEntity
  8
SK1
  6
Continuous
100
AcDbLine
 10
6.2602354154
 20
-8.5
 30
0.0
 11
6.2602354154
 21
-7.962888405
 31
0.0
  0
LINE
  5
4A
330
1F
100
AcDbEntity
  8
SK1
  6
Continuous
100
AcDbLine
 10
6.4767417663
 20
7.962888405
 30
0.0
 11
6.2602354154
 21
7.962888405
 31
0.0
  0
LINE
  5
4B
330
1F
100
AcDbEntity
  8
SK1
  6
Continuous
100
AcDbLine
 10
6.4767417663
 20
7.7332783456
 30
0.0
 11
6.2602354154
 21
7.7332783456
 31
0.0
  0
LINE
  5
4C
330
1F
100
AcDbEntity
  8
SK1
  6
Continuous
100
AcDbLine
 10
3.104566175
 20
7.9036858695
 30
0.0
 11
3.104566175
 21
8.4359598646
 31
0.0
  0
LINE
  5
4D
330
1F
100
AcDbEntity
  8
SK1
  6
Continuous
100
AcDbLine
 10
10.2602354154
 20
-6.1712613559
 30
0.0
 11
10.2602354154
 21
-5.8095662974
 31
0.0
  0
LINE
  5
4E
330
1F
100
AcDbEntity
  8
SK1
  6
Continuous
100
AcDbLine
 10
10.1352354154
 20
-6.0098208121
 30
0.0
 11
10.1352354154
 21
-6.3877677069
 31
0.0
  0
LINE
  5
4F
330
1F
100
AcDbEntity
  8
SK1
  6
Continuous
100
AcDbLine
 10
3.7602354154
 20
-6.4835456525
 30
0.0
 11
3.7602354154
 21
-6.9
 31
0.0
  0
LINE
  5
50
330
1F
100
AcDbEntity
  8
SK1
  6
Continuous
100
AcDbLine
 10
6.0602354154
 20
-6.9
 30
0.0
 11
6.0602354154
 21
-6.4835456525
 31
0.0
  0
ARC
  5
51
330
1F
100
AcDbEntity
  8
SK1
  6
Continuous
100
AcDbCircle
 10
3.7529860075
 20
6.4467087859
 30
0.0
 40
0.1929094548823013
100
AcDbArc
 50
182.3254217845
 51
272.1536440521
  0
LINE
  5
52
330
1F
100
AcDbEntity
  8
SK1
  6
Continuous
100
AcDbLine
 10
3.7602354154
 20
6.2539355931
 30
0.0
 11
6.0602354154
 21
6.2539355931
 31
0.0
  0
ARC
  5
53
330
1F
100
AcDbEntity
  8
SK1
  6
Continuous
100
AcDbCircle
 10
6.0674904343
 20
6.4467027182
 30
0.0
 40
0.1929036023480863
100
AcDbArc
 50
267.8446228207
 51
357.6763113501
  0
LINE
  5
56
330
1F
100
AcDbEntity
  8
SK3
100
AcDbLine
 10
9.8602354154
 20
3.5415830061
 30
0.0
 11
-12.1299813923
 21
3.5415830061
 31
0.0
  0
ARC
  5
57
330
1F
100
AcDbEntity
  8
SK3
100
AcDbCircle
 10
9.8744179733
 20
4.157055084
 30
0.0
 40
0.3861225741450715
100
AcDbArc
 50
267.8950115957
 51
357.7220323459
  0
LINE
  5
58
330
1F
100
AcDbEntity
  8
SK1
  6
Continuous
100
AcDbLine
 10
10.2602354154
 20
5.5799562379
 30
0.0
 11
10.2602354154
 21
5.8095662974
 31
0.0
  0
ARC
  5
59
330
1F
100
AcDbEntity
  8
SK1
  6
Continuous
100
AcDbCircle
 10
10.0316067778
 20
5.8059951202
 30
0.0
 40
0.2286565267324207
100
AcDbArc
 50
0.8948867718
 51
63.0503997066
  0
SPLINE
  5
5A
330
1F
100
AcDbEntity
  8
SK1
  6
Continuous
100
AcDbSpline
210
0.0
220
0.0
230
1.0
 70
     8
 71
     3
 72
    11
 73
     7
 74
     0
 42
0.0000000024112808
 43
0.0000000001
 12
1.0
 22
0.0
 32
0.0
 13
1.0
 23
0.0
 33
0.0
 40
0.0
 40
0.0
 40
0.0
 40
0.0
 40
0.4999749398417524
 40
0.4999749398417524
 40
0.4999749398417524
 40
1.0
 40
1.0
 40
1.0
 40
1.0
 10
10.13523541538321
 20
6.009820812094897
 30
0.0
 10
9.52555894662976
 20
6.335382761305339
 30
0.0
 10
8.915855144273884
 20
6.660901020732845
 30
0.0
 10
8.306134213890031
 20
6.986391890320092
 30
0.0
 10
7.696352155829334
 20
7.311915392050504
 30
0.0
 10
7.086552753804213
 20
7.637411163054246
 30
0.0
 10
6.4767417663293
 20
7.962888404980885
 30
0.0
  0
ARC
  5
5B
330
1F
100
AcDbEntity
  8
SK1
  6
Continuous
100
AcDbCircle
 10
3.1701066003
 20
7.5186402045
 30
0.0
 40
0.3905838085417678
100
AcDbArc
 50
2.7658284791
 51
99.6599997464
  0
SPLINE
  5
5C
330
1F
100
AcDbEntity
  8
SK1
  6
Continuous
100
AcDbSpline
210
0.0
220
0.0
230
1.0
 70
     8
 71
     3
 72
    14
 73
    10
 74
     0
 42
0.0000000006593864
 43
0.0000000001
 12
1.0
 22
0.0
 32
0.0
 13
1.0
 23
0.0
 33
0.0
 40
0.0
 40
0.0
 40
0.0
 40
0.0
 40
0.16058820789887
 40
0.16058820789887
 40
0.16058820789887
 40
0.9127718409957111
 40
0.9127718409957111
 40
0.9127718409957111
 40
1.0
 40
1.0
 40
1.0
 40
1.0
 10
3.104566174999047
 20
7.903685869515089
 30
0.0
 10
2.299525742333554
 20
7.799091005720579
 30
0.0
 10
1.494485706668647
 20
7.694493533754175
 30
0.0
 10
0.6894461202291745
 20
7.589893110755397
 30
0.0
 10
-3.081301487970495
 20
7.099952241407885
 30
0.0
 10
-6.852039818417309
 20
6.609950410537328
 30
0.0
 10
-10.62275983781292
 20
6.119828338153846
 30
0.0
 10
-11.06003732042046
 20
6.062990560519909
 30
0.0
 10
-11.49731454709378
 20
6.006151102198907
 30
0.0
 10
-11.9345914946927
 20
5.949309811405936
 30
0.0
  0
ARC
  5
5D
330
1F
100
AcDbEntity
  8
SK1
  6
Continuous
100
AcDbCircle
 10
3.1701066003
 20
7.2890301451
 30
0.0
 40
0.3905838085417684
100
AcDbArc
 50
2.7658284791
 51
99.6599997464
  0
SPLINE
  5
5E
330
1F
100
AcDbEntity
  8
SK1
  6
Continuous
100
AcDbSpline
210
0.0
220
0.0
230
1.0
 70
     8
 71
     3
 72
    14
 73
    10
 74
     0
 42
0.0000000006593864
 43
0.0000000001
 12
1.0
 22
0.0
 32
0.0
 13
1.0
 23
0.0
 33
0.0
 40
0.0
 40
0.0
 40
0.0
 40
0.0
 40
0.16058820789887
 40
0.16058820789887
 40
0.16058820789887
 40
0.9127718409957111
 40
0.9127718409957111
 40
0.9127718409957111
 40
1.0
 40
1.0
 40
1.0
 40
1.0
 10
3.104566174999047
 20
7.674075810096036
 30
0.0
 10
2.299525742333554
 20
7.569480946301525
 30
0.0
 10
1.494485706668647
 20
7.464883474335122
 30
0.0
 10
0.6894461202291745
 20
7.360283051336344
 30
0.0
 10
-3.081301487970495
 20
6.870342181988832
 30
0.0
 10
-6.852039818417309
 20
6.380340351118273
 30
0.0
 10
-10.62275983781292
 20
5.890218278734792
 30
0.0
 10
-11.06003732042046
 20
5.833380501100856
 30
0.0
 10
-11.49731454709378
 20
5.776541042779852
 30
0.0
 10
-11.9345914946927
 20
5.719699751986883
 30
0.0
  0
ARC
  5
5F
330
1F
100
AcDbEntity
  8
SK3
100
AcDbCircle
 10
9.8744179733
 20
3.9274450246
 30
0.0
 40
0.3861225741450717
100
AcDbArc
 50
267.8950115957
 51
357.7220323459
  0
ARC
  5
60
330
1F
100
AcDbEntity
  8
SK1
  6
Continuous
100
AcDbCircle
 10
10.0316067778
 20
5.5763850607
 30
0.0
 40
0.2286565267324205
100
AcDbArc
 50
0.8948867718
 51
63.0503997066
  0
SPLINE
  5
61
330
1F
100
AcDbEntity
  8
SK1
  6
Continuous
100
AcDbSpline
210
0.0
220
0.0
230
1.0
 70
     8
 71
     3
 72
    11
 73
     7
 74
     0
 42
0.0000000024112808
 43
0.0000000001
 12
1.0
 22
0.0
 32
0.0
 13
1.0
 23
0.0
 33
0.0
 40
0.0
 40
0.0
 40
0.0
 40
0.0
 40
0.4999749398417524
 40
0.4999749398417524
 40
0.4999749398417524
 40
1.0
 40
1.0
 40
1.0
 40
1.0
 10
10.13523541538321
 20
5.780210752675843
 30
0.0
 10
9.52555894662976
 20
6.105772701886286
 30
0.0
 10
8.915855144273884
 20
6.43129096131379
 30
0.0
 10
8.306134213890031
 20
6.756781830901037
 30
0.0
 10
7.696352155829334
 20
7.082305332631449
 30
0.0
 10
7.086552753804213
 20
7.407801103635191
 30
0.0
 10
6.4767417663293
 20
7.73327834556183
 30
0.0
  0
LINE
  5
62
330
1F
100
AcDbEntity
  8
SK1
  6
Continuous
100
AcDbLine
 10
3.5602354154
 20
7.537487462
 30
0.0
 11
3.5602354154
 21
7.3078774026
 31
0.0
  0
ARC
  5
63
330
1F
100
AcDbEntity
  8
SK1
  6
Continuous
100
AcDbCircle
 10
3.7529860075
 20
6.6763188454
 30
0.0
 40
0.1929094548823007
100
AcDbArc
 50
182.3254217845
 51
272.1536440521
  0
LINE
  5
64
330
1F
100
AcDbEntity
  8
SK1
  6
Continuous
100
AcDbLine
 10
3.7602354154
 20
6.4835456525
 30
0.0
 11
6.0602354154
 21
6.4835456525
 31
0.0
  0
ARC
  5
65
330
1F
100
AcDbEntity
  8
SK1
  6
Continuous
100
AcDbCircle
 10
6.0674904343
 20
6.6763127776
 30
0.0
 40
0.1929036023480861
100
AcDbArc
 50
267.8446228207
 51
357.6763113501
  0
LINE
  5
66
330
1F
100
AcDbEntity
  8
SK1
  6
Continuous
100
AcDbLine
 10
6.2602354154
 20
7.7332783456
 30
0.0
 11
6.2602354154
 21
7.962888405
 31
0.0
  0
LINE
  5
67
330
1F
100
AcDbEntity
  8
SK3
100
AcDbLine
 10
9.8602354154
 20
3.7711930655
 30
0.0
 11
-12.1299813923
 21
3.7711930655
 31
0.0
  0
LINE
  5
68
330
1F
100
AcDbEntity
  8
SK1
  6
Continuous
100
AcDbLine
 10
-17.0675992048
 20
-5.5929067778
 30
0.0
 11
-17.0675992048
 21
-4.1669143435
 31
0.0
  0
LINE
  5
69
330
1F
100
AcDbEntity
  8
SK1
  6
Continuous
100
AcDbLine
 10
-17.2397645846
 20
-5.3945579902
 30
0.0
 11
-17.2397645846
 21
-4.0266605707
 31
0.0
  0
ARC
  5
6A
330
1F
100
AcDbEntity
  8
SK1
  6
Continuous
100
AcDbCircle
 10
-17.0395679339
 20
-5.394682253
 30
0.0
 40
0.2001966892801554
100
AcDbArc
 50
179.9644363108
 51
261.9510743428
  0
ARC
  5
6B
330
1F
100
AcDbEntity
  8
SK1
  6
Continuous
100
AcDbCircle
 10
-17.0395680302
 20
5.3946823366
 30
0.0
 40
0.2001965930065329
100
AcDbArc
 50
98.0489017111
 51
180.0355876352
  0
LINE
  5
6C
330
1F
100
AcDbEntity
  8
SK3
100
AcDbLine
 10
-16.7798532269
 20
3.9576458912
 30
0.0
 11
-16.7798532269
 21
3.0106102815
 31
0.0
  0
LINE
  5
6D
330
1F
100
AcDbEntity
  8
SK3
100
AcDbLine
 10
-17.2397645846
 20
-4.2238896606
 30
0.0
 11
-16.7798532269
 21
-3.9576458912
 31
0.0
  0
LINE
  5
6E
330
1F
100
AcDbEntity
  8
SK3
100
AcDbLine
 10
-16.7798532269
 20
-3.9576458912
 30
0.0
 11
-2.7002099481
 21
-3.9576458912
 31
0.0
  0
LINE
  5
6F
330
1F
100
AcDbEntity
  8
SK3
100
AcDbLine
 10
-16.7798532269
 20
3.9576458912
 30
0.0
 11
-17.2397645846
 21
4.2238896606
 31
0.0
  0
SPLINE
  5
70
330
1F
100
AcDbEntity
  8
SK1
  6
Continuous
100
AcDbSpline
210
0.0
220
0.0
230
1.0
 70
     8
 71
     3
 72
    11
 73
     7
 74
     0
 42
0.0000000007057356
 43
0.0000000001
 12
1.0
 22
0.0
 32
0.0
 13
1.0
 23
0.0
 33
0.0
 40
0.0
 40
0.0
 40
0.0
 40
0.0
 40
0.6939571910621137
 40
0.6939571910621137
 40
0.6939571910621137
 40
1.0
 40
1.0
 40
1.0
 40
1.0
 10
-17.06759920480881
 20
-5.592906777842072
 30
0.0
 10
-13.82188668965978
 20
-6.049717673294627
 30
0.0
 10
-10.57615287310602
 20
-6.506377223444139
 30
0.0
 10
-7.330408270403729
 20
-6.962960073788029
 30
0.0
 10
-5.898998943549081
 20
-7.164318168913565
 30
0.0
 10
-4.467587398432645
 20
-7.365660495286905
 30
0.0
 10
-3.03617412735064
 20
-7.566990549797825
 30
0.0
  0
LINE
  5
71
330
1F
100
AcDbEntity
  8
SK1
  6
Continuous
100
AcDbLine
 10
3.5602354154
 20
7.537487462
 30
0.0
 11
3.5602354154
 21
8.0398526371
 31
0.0
  0
LINE
  5
72
330
1F
100
AcDbEntity
  8
SK1
  6
Continuous
100
AcDbLine
 10
6.2602354154
 20
-7.7332783456
 30
0.0
 11
6.2602354154
 21
-3.5279464324
 31
0.0
  0
LINE
  5
73
330
1F
100
AcDbEntity
  8
SK1
  6
Continuous
100
AcDbLine
 10
6.4767417663
 20
-7.7332783456
 30
0.0
 11
6.4767417663
 21
-3.5279464324
 31
0.0
  0
LINE
  5
74
330
1F
100
AcDbEntity
  8
SK1
  6
Continuous
100
AcDbLine
 10
3.104566175
 20
-7.6740758101
 30
0.0
 11
3.104566175
 21
-3.5034239393
 31
0.0
  0
LINE
  5
75
330
1F
100
AcDbEntity
  8
SK1
  6
Continuous
100
AcDbLine
 10
3.5602354154
 20
-7.537487462
 30
0.0
 11
3.5602354154
 21
-8.0398526371
 31
0.0
  0
LINE
  5
76
330
1F
100
AcDbEntity
  8
SK1
  6
Continuous
100
AcDbLine
 10
10.1352354154
 20
-5.7802107527
 30
0.0
 11
10.1352354154
 21
-2.7189593472
 31
0.0
  0
LINE
  5
77
330
1F
100
AcDbEntity
  8
SK1
  6
Continuous
100
AcDbLine
 10
10.2602354154
 20
-5.5799562379
 30
0.0
 11
10.2602354154
 21
-2.6360112113
 31
0.0
  0
LINE
  5
78
330
1F
100
AcDbEntity
  8
SK1
  6
Continuous
100
AcDbLine
 10
3.7602354154
 20
-6.2539355931
 30
0.0
 11
3.7602354154
 21
-2.915182601
 31
0.0
  0
LINE
  5
79
330
1F
100
AcDbEntity
  8
SK1
  6
Continuous
100
AcDbLine
 10
6.0602354154
 20
-6.2539355931
 30
0.0
 11
6.0602354154
 21
-2.915182601
 31
0.0
  0
ARC
  5
7A
330
1F
100
AcDbEntity
  8
SK1
  6
Continuous
100
AcDbCircle
 10
6.0674837652
 20
-6.4467099301
 30
0.0
 40
0.1929105584737903
100
AcDbArc
 50
2.3257485766
 51
92.1533172599
  0
LINE
  5
7B
330
1F
100
AcDbEntity
  8
SK1
  6
Continuous
100
AcDbLine
 10
6.0602354154
 20
-6.2539355931
 30
0.0
 11
3.7602354154
 21
-6.2539355931
 31
0.0
  0
ARC
  5
7C
330
1F
100
AcDbEntity
  8
SK1
  6
Continuous
100
AcDbCircle
 10
3.7529874297
 20
-6.4467103239
 30
0.0
 40
0.1929109383187625
100
AcDbArc
 50
87.8467952167
 51
177.6741389463
  0
ARC
  5
7D
330
1F
100
AcDbEntity
  8
SK1
  6
Continuous
100
AcDbCircle
 10
3.1700944059
 20
-7.2890149713
 30
0.0
 40
0.3905967211536582
100
AcDbArc
 50
260.342137145
 51
357.2320346267
  0
LINE
  5
7E
330
1F
100
AcDbEntity
  8
SK1
  6
Continuous
100
AcDbLine
 10
6.2602354154
 20
-7.7332783456
 30
0.0
 11
6.4767417663
 21
-7.7332783456
 31
0.0
  0
LINE
  5
7F
330
1F
100
AcDbEntity
  8
SK1
  6
Continuous
100
AcDbLine
 10
6.4767417663
 20
-7.7332783456
 30
0.0
 11
10.1352354154
 21
-5.7802107527
 31
0.0
  0
ARC
  5
80
330
1F
100
AcDbEntity
  8
SK1
  6
Continuous
100
AcDbCircle
 10
10.028755192
 20
-5.5746050848
 30
0.0
 40
0.2315420666815599
100
AcDbArc
 50
297.3789903439
 51
358.6757231777
  0
ARC
  5
81
330
1F
100
AcDbEntity
  8
SK3
100
AcDbCircle
 10
9.874422101
 20
-3.9274405683
 30
0.0
 40
0.3861182725601517
100
AcDbArc
 50
2.2773312661
 51
92.1056247924
  0
ARC
  5
82
330
1F
100
AcDbEntity
  8
SK1
  6
Continuous
100
AcDbCircle
 10
3.1700944059
 20
-7.5186250308
 30
0.0
 40
0.3905967211536585
100
AcDbArc
 50
260.342137145
 51
357.2320346267
  0
LINE
  5
83
330
1F
100
AcDbEntity
  8
SK1
  6
Continuous
100
AcDbLine
 10
6.2602354154
 20
-7.962888405
 30
0.0
 11
6.4767417663
 21
-7.962888405
 31
0.0
  0
LINE
  5
84
330
1F
100
AcDbEntity
  8
SK1
  6
Continuous
100
AcDbLine
 10
6.4767417663
 20
-7.962888405
 30
0.0
 11
10.1352354154
 21
-6.0098208121
 31
0.0
  0
ARC
  5
85
330
1F
100
AcDbEntity
  8
SK1
  6
Continuous
100
AcDbCircle
 10
10.028755192
 20
-5.8042151442
 30
0.0
 40
0.2315420666815595
100
AcDbArc
 50
297.3789903439
 51
358.6757231777
  0
LINE
  5
86
330
1F
100
AcDbEntity
  8
SK1
  6
Continuous
100
AcDbLine
 10
10.2602354154
 20
-5.8095662974
 30
0.0
 11
10.2602354154
 21
-5.5799562379
 31
0.0
  0
ARC
  5
87
330
1F
100
AcDbEntity
  8
SK3
100
AcDbCircle
 10
9.874422101
 20
-4.1570506278
 30
0.0
 40
0.386118272560152
100
AcDbArc
 50
2.2773312661
 51
92.1056247924
  0
LINE
  5
88
330
1F
100
AcDbEntity
  8
SK1
  6
Continuous
100
AcDbLine
 10
6.2602354154
 20
-7.962888405
 30
0.0
 11
6.2602354154
 21
-7.7332783456
 31
0.0
  0
ARC
  5
89
330
1F
100
AcDbEntity
  8
SK1
  6
Continuous
100
AcDbCircle
 10
6.0674837652
 20
-6.6763199895
 30
0.0
 40
0.1929105584737923
100
AcDbArc
 50
2.3257485766
 51
92.1533172599
  0
LINE
  5
8A
330
1F
100
AcDbEntity
  8
SK1
  6
Continuous
100
AcDbLine
 10
6.0602354154
 20
-6.4835456525
 30
0.0
 11
3.7602354154
 21
-6.4835456525
 31
0.0
  0
ARC
  5
8B
330
1F
100
AcDbEntity
  8
SK1
  6
Continuous
100
AcDbCircle
 10
3.7529874297
 20
-6.6763203833
 30
0.0
 40
0.1929109383187639
100
AcDbArc
 50
87.8467952167
 51
177.6741389463
  0
LINE
  5
8C
330
1F
100
AcDbEntity
  8
SK1
  6
Continuous
100
AcDbLine
 10
3.5602354154
 20
-7.3078774026
 30
0.0
 11
3.5602354154
 21
-7.537487462
 31
0.0
  0
LINE
  5
8D
330
1F
100
AcDbEntity
  8
SK1
  6
Continuous
100
AcDbLine
 10
-17.0675992048
 20
-3.7426502748
 30
0.0
 11
-17.0675992048
 21
-0.3
 31
0.0
  0
LINE
  5
8E
330
1F
100
AcDbEntity
  8
SK1
  6
Continuous
100
AcDbLine
 10
-17.2397645846
 20
-3.602396502
 30
0.0
 11
-17.2397645846
 21
-0.3
 31
0.0
  0
LINE
  5
8F
330
1F
100
AcDbEntity
  8
SK3
100
AcDbLine
 10
-16.7798532269
 20
-3.0106102815
 30
0.0
 11
-16.7798532269
 21
-3.9576458912
 31
0.0
  0
LINE
  5
90
330
1F
100
AcDbEntity
  8
SK3
100
AcDbLine
 10
-17.2397645846
 20
-2.7746089876
 30
0.0
 11
-16.7798532269
 21
-2.5863462128
 31
0.0
  0
LINE
  5
91
330
1F
100
AcDbEntity
  8
SK3
100
AcDbLine
 10
-16.7798532269
 20
-2.5863462128
 30
0.0
 11
-2.7002099481
 21
-2.5863462128
 31
0.0
  0
SPLINE
  5
92
330
1F
100
AcDbEntity
  8
SK1
  6
Continuous
100
AcDbSpline
210
0.0
220
0.0
230
1.0
 70
     8
 71
     3
 72
    10
 73
     6
 74
     0
 42
0.0000000403600054
 43
0.0000000001
 12
1.0
 22
0.0
 32
0.0
 13
1.0
 23
0.0
 33
0.0
 40
0.0
 40
0.0
 40
0.0
 40
0.0
 40
0.5
 40
0.5
 40
1.0
 40
1.0
 40
1.0
 40
1.0
 10
-17.2397645846169
 20
-3.602396502036344
 30
0.0
 10
-17.2397645846168
 20
-3.636098372796642
 30
0.0
 10
-17.22195172063031
 20
-3.669819173484865
 30
0.0
 10
-17.15968957725041
 20
-3.720629108528623
 30
0.0
 10
-17.1153000432649
 20
-3.737903076009035
 30
0.0
 10
-17.06759920480881
 20
-3.742650274800368
 30
0.0
  0
SPLINE
  5
93
330
1F
100
AcDbEntity
  8
SK1
  6
Continuous
100
AcDbSpline
210
0.0
220
0.0
230
1.0
 70
     8
 71
     3
 72
    11
 73
     7
 74
     0
 42
0.0000000007091853
 43
0.0000000001
 12
1.0
 22
0.0
 32
0.0
 13
1.0
 23
0.0
 33
0.0
 40
0.0
 40
0.0
 40
0.0
 40
0.0
 40
0.6939571910621134
 40
0.6939571910621134
 40
0.6939571910621134
 40
1.0
 40
1.0
 40
1.0
 40
1.0
 10
-17.06759920480881
 20
-3.742650274800368
 30
0.0
 10
-13.82188668965978
 20
-4.065664356694766
 30
0.0
 10
-10.57615287310602
 20
-4.388571421299085
 30
0.0
 10
-7.330408270403734
 20
-4.711424250950731
 30
0.0
 10
-5.898998943549085
 20
-4.853805925460804
 30
0.0
 10
-4.467587398432649
 20
-4.996176449779269
 30
0.0
 10
-3.036174127350642
 20
-5.138538296580597
 30
0.0
  0
SPLINE
  5
94
330
1F
100
AcDbEntity
  8
SK1
  6
Continuous
100
AcDbSpline
210
0.0
220
0.0
230
1.0
 70
     8
 71
     3
 72
    10
 73
     6
 74
     0
 42
0.0000000403600054
 43
0.0000000001
 12
1.0
 22
0.0
 32
0.0
 13
1.0
 23
0.0
 33
0.0
 40
0.0
 40
0.0
 40
0.0
 40
0.0
 40
0.5
 40
0.5
 40
1.0
 40
1.0
 40
1.0
 40
1.0
 10
-17.23976458461679
 20
-4.026660570748279
 30
0.0
 10
-17.2397645846168
 20
-4.060362441508638
 30
0.0
 10
-17.22195172063032
 20
-4.094083242196787
 30
0.0
 10
-17.15968957725035
 20
-4.144893177240585
 30
0.0
 10
-17.1153000432649
 20
-4.162167144720964
 30
0.0
 10
-17.06759920480881
 20
-4.166914343512296
 30
0.0
  0
SPLINE
  5
95
330
1F
100
AcDbEntity
  8
SK1
  6
Continuous
100
AcDbSpline
210
0.0
220
0.0
230
1.0
 70
     8
 71
     3
 72
    11
 73
     7
 74
     0
 42
0.0000000007091853
 43
0.0000000001
 12
1.0
 22
0.0
 32
0.0
 13
1.0
 23
0.0
 33
0.0
 40
0.0
 40
0.0
 40
0.0
 40
0.0
 40
0.6939571910621131
 40
0.6939571910621131
 40
0.6939571910621131
 40
1.0
 40
1.0
 40
1.0
 40
1.0
 10
-17.06759920480881
 20
-4.166914343512296
 30
0.0
 10
-13.82188668965978
 20
-4.489928425406695
 30
0.0
 10
-10.57615287310602
 20
-4.812835490011014
 30
0.0
 10
-7.330408270403734
 20
-5.13568831966266
 30
0.0
 10
-5.898998943549083
 20
-5.278069994172734
 30
0.0
 10
-4.467587398432645
 20
-5.420440518491199
 30
0.0
 10
-3.036174127350637
 20
-5.562802365292527
 30
0.0
  0
LINE
  5
96
330
1F
100
AcDbEntity
  8
SK1
  6
Continuous
100
AcDbLine
 10
-17.2397645846
 20
-3.602396502
 30
0.0
 11
-17.2397645846
 21
-4.0266605707
 31
0.0
  0
LINE
  5
97
330
1F
100
AcDbEntity
  8
SK3
100
AcDbLine
 10
-17.2397645846
 20
-3.1988730564
 30
0.0
 11
-16.7798532269
 21
-3.0106102815
 31
0.0
  0
LINE
  5
98
330
1F
100
AcDbEntity
  8
SK3
100
AcDbLine
 10
-16.7798532269
 20
-3.0106102815
 30
0.0
 11
-2.7002099481
 21
-3.0106102815
 31
0.0
  0
LINE
  5
99
330
1F
100
AcDbEntity
  8
SK1
  6
Continuous
100
AcDbLine
 10
6.2602354154
 20
-2.9736187129
 30
0.0
 11
6.2602354154
 21
2.9736187129
 31
0.0
  0
LINE
  5
9A
330
1F
100
AcDbEntity
  8
SK1
  6
Continuous
100
AcDbLine
 10
6.4767417663
 20
-2.9736187129
 30
0.0
 11
6.4767417663
 21
2.9736187129
 31
0.0
  0
LINE
  5
9B
330
1F
100
AcDbEntity
  8
SK1
  6
Continuous
100
AcDbLine
 10
3.104566175
 20
-2.9490962198
 30
0.0
 11
3.104566175
 21
2.9490962198
 31
0.0
  0
LINE
  5
9C
330
1F
100
AcDbEntity
  8
SK1
  6
Continuous
100
AcDbLine
 10
3.5602354154
 20
-3.3517395924
 30
0.0
 11
3.5602354154
 21
-7.3078774026
 31
0.0
  0
LINE
  5
9D
330
1F
100
AcDbEntity
  8
SK1
  6
Continuous
100
AcDbLine
 10
10.1352354154
 20
-2.1646316277
 30
0.0
 11
10.1352354154
 21
2.1646316277
 31
0.0
  0
LINE
  5
9E
330
1F
100
AcDbEntity
  8
SK1
  6
Continuous
100
AcDbLine
 10
10.2602354154
 20
-2.0816834918
 30
0.0
 11
10.2602354154
 21
2.0816834918
 31
0.0
  0
LINE
  5
9F
330
1F
100
AcDbEntity
  8
SK1
  6
Continuous
100
AcDbLine
 10
3.7602354154
 20
-2.3608548815
 30
0.0
 11
3.7602354154
 21
2.3608548815
 31
0.0
  0
LINE
  5
A0
330
1F
100
AcDbEntity
  8
SK1
  6
Continuous
100
AcDbLine
 10
6.0602354154
 20
-2.3608548815
 30
0.0
 11
6.0602354154
 21
2.3608548815
 31
0.0
  0
SPLINE
  5
A1
330
1F
100
AcDbEntity
  8
SK1
  6
Continuous
100
AcDbSpline
210
0.0
220
0.0
230
1.0
 70
     8
 71
     3
 72
    10
 73
     6
 74
     0
 42
0.0000000427804606
 43
0.0000000001
 12
1.0
 22
0.0
 32
0.0
 13
1.0
 23
0.0
 33
0.0
 40
0.0
 40
0.0
 40
0.0
 40
0.0
 40
0.5
 40
0.5
 40
1.0
 40
1.0
 40
1.0
 40
1.0
 10
6.260235415383189
 20
-2.437461968118008
 30
0.0
 10
6.2602354153832
 20
-2.417493208289636
 30
0.0
 10
6.238910971397654
 20
-2.397555374696398
 30
0.0
 10
6.164328692850914
 20
-2.369002328718472
 30
0.0
 10
6.112389910804666
 20
-2.360854881462831
 30
0.0
 10
6.060235415383721
 20
-2.360854881461129
 30
0.0
  0
LINE
  5
A2
330
1F
100
AcDbEntity
  8
SK1
  6
Continuous
100
AcDbLine
 10
6.0602354154
 20
-2.3608548815
 30
0.0
 11
3.7602354154
 21
-2.3608548815
 31
0.0
  0
SPLINE
  5
A3
330
1F
100
AcDbEntity
  8
SK1
  6
Continuous
100
AcDbSpline
210
0.0
220
0.0
230
1.0
 70
     8
 71
     3
 72
    10
 73
     6
 74
     0
 42
0.0000000427875695
 43
0.0000000001
 12
1.0
 22
0.0
 32
0.0
 13
1.0
 23
0.0
 33
0.0
 40
0.0
 40
0.0
 40
0.0
 40
0.0
 40
0.5
 40
0.5
 40
1.0
 40
1.0
 40
1.0
 40
1.0
 10
3.760235415383194
 20
-2.360854881462761
 30
0.0
 10
3.707967736890123
 20
-2.360854881462758
 30
0.0
 10
3.655793910619877
 20
-2.369150910787724
 30
0.0
 10
3.582061068790467
 20
-2.397348256670475
 30
0.0
 10
3.560235415383216
 20
-2.417477940889952
 30
0.0
 10
3.560235415382631
 20
-2.437461968117987
 30
0.0
  0
SPLINE
  5
A4
330
1F
100
AcDbEntity
  8
SK1
  6
Continuous
100
AcDbSpline
210
0.0
220
0.0
230
1.0
 70
     8
 71
     3
 72
    10
 73
     6
 74
     0
 42
0.0000000190345564
 43
0.0000000001
 12
1.0
 22
0.0
 32
0.0
 13
1.0
 23
0.0
 33
0.0
 40
0.0
 40
0.0
 40
0.0
 40
0.0
 40
0.5
 40
0.5
 40
1.0
 40
1.0
 40
1.0
 40
1.0
 10
3.104566174999099
 20
-2.949096219804106
 30
0.0
 10
3.21694400618752
 20
-2.95514402265978
 30
0.0
 10
3.337380010654968
 20
-2.941448672744879
 30
0.0
 10
3.508419637598397
 20
-2.884421701139268
 30
0.0
 10
3.560235415383193
 20
-2.841332556229671
 30
0.0
 10
3.560235415383195
 20
-2.7974118728917
 30
0.0
  0
LINE
  5
A5
330
1F
100
AcDbEntity
  8
SK1
  6
Continuous
100
AcDbLine
 10
6.2602354154
 20
-2.9736187129
 30
0.0
 11
6.4767417663
 21
-2.9736187129
 31
0.0
  0
SPLINE
  5
A6
330
1F
100
AcDbEntity
  8
SK1
  6
Continuous
100
AcDbSpline
210
0.0
220
0.0
230
1.0
 70
     8
 71
     3
 72
     8
 73
     4
 74
     0
 42
0.0000000026688942
 43
0.0000000001
 12
1.0
 22
0.0
 32
0.0
 13
1.0
 23
0.0
 33
0.0
 40
0.0
 40
0.0
 40
0.0
 40
0.0
 40
1.0
 40
1.0
 40
1.0
 40
1.0
 10
6.4767417663293
 20
-2.973618712918824
 30
0.0
 10
7.696302642140263
 20
-2.703998045024326
 30
0.0
 10
8.915821426615889
 20
-2.434349480936906
 30
0.0
 10
10.13523541538321
 20
-2.164631627714073
 30
0.0
  0
SPLINE
  5
A7
330
1F
100
AcDbEntity
  8
SK1
  6
Continuous
100
AcDbSpline
210
0.0
220
0.0
230
1.0
 70
     8
 71
     3
 72
    10
 73
     6
 74
     0
 42
0.0000000616089256
 43
0.0000000001
 12
1.0
 22
0.0
 32
0.0
 13
1.0
 23
0.0
 33
0.0
 40
0.0
 40
0.0
 40
0.0
 40
0.0
 40
0.5
 40
0.5
 40
1.0
 40
1.0
 40
1.0
 40
1.0
 10
10.13523541538321
 20
-2.164631627714073
 30
0.0
 10
10.17292922329811
 20
-2.156294268093593
 30
0.0
 10
10.20512896529415
 20
-2.143952051783945
 30
0.0
 10
10.24862314880558
 20
-2.115018334655606
 30
0.0
 10
10.26023541538321
 20
-2.098379385012328
 30
0.0
 10
10.26023541538325
 20
-2.081683491783803
 30
0.0
  0
SPLINE
  5
A8
330
1F
100
AcDbEntity
  8
SK3
100
AcDbSpline
210
0.0
220
0.0
230
1.0
 70
     8
 71
     3
 72
    10
 73
     6
 74
     0
 42
0.0000000213811003
 43
0.0000000001
 12
1.0
 22
0.0
 32
0.0
 13
1.0
 23
0.0
 33
0.0
 40
0.0
 40
0.0
 40
0.0
 40
0.0
 40
0.5
 40
0.5
 40
1.0
 40
1.0
 40
1.0
 40
1.0
 10
10.26023541538321
 20
-1.390833821124228
 30
0.0
 10
10.26023541538321
 20
-1.350505716572101
 30
0.0
 10
10.2171125400926
 20
-1.310757805933963
 30
0.0
 10
10.06932923620372
 20
-1.253993266289753
 30
0.0
 10
9.965498227558385
 20
-1.237361653970231
 30
0.0
 10
9.860235415383208
 20
-1.237361653970231
 30
0.0
  0
SPLINE
  5
A9
330
1F
100
AcDbEntity
  8
SK1
  6
Continuous
100
AcDbSpline
210
0.0
220
0.0
230
1.0
 70
     8
 71
     3
 72
    10
 73
     6
 74
     0
 42
0.0000000190345564
 43
0.0000000001
 12
1.0
 22
0.0
 32
0.0
 13
1.0
 23
0.0
 33
0.0
 40
0.0
 40
0.0
 40
0.0
 40
0.0
 40
0.5
 40
0.5
 40
1.0
 40
1.0
 40
1.0
 40
1.0
 10
3.104566174999099
 20
-3.503423939310879
 30
0.0
 10
3.21694400618752
 20
-3.509471742166552
 30
0.0
 10
3.337380010654968
 20
-3.495776392251651
 30
0.0
 10
3.508419637598397
 20
-3.43874942064604
 30
0.0
 10
3.560235415383193
 20
-3.395660275736443
 30
0.0
 10
3.560235415383195
 20
-3.351739592398473
 30
0.0
  0
LINE
  5
AA
330
1F
100
AcDbEntity
  8
SK1
  6
Continuous
100
AcDbLine
 10
6.2602354154
 20
-3.5279464324
 30
0.0
 11
6.4767417663
 21
-3.5279464324
 31
0.0
  0
SPLINE
  5
AB
330
1F
100
AcDbEntity
  8
SK1
  6
Continuous
100
AcDbSpline
210
0.0
220
0.0
230
1.0
 70
     8
 71
     3
 72
     8
 73
     4
 74
     0
 42
0.0000000026688942
 43
0.0000000001
 12
1.0
 22
0.0
 32
0.0
 13
1.0
 23
0.0
 33
0.0
 40
0.0
 40
0.0
 40
0.0
 40
0.0
 40
1.0
 40
1.0
 40
1.0
 40
1.0
 10
6.4767417663293
 20
-3.527946432425596
 30
0.0
 10
7.696302642140263
 20
-3.258325764531099
 30
0.0
 10
8.915821426615889
 20
-2.988677200443677
 30
0.0
 10
10.13523541538321
 20
-2.718959347220845
 30
0.0
  0
SPLINE
  5
AC
330
1F
100
AcDbEntity
  8
SK1
  6
Continuous
100
AcDbSpline
210
0.0
220
0.0
230
1.0
 70
     8
 71
     3
 72
    10
 73
     6
 74
     0
 42
0.0000000616089256
 43
0.0000000001
 12
1.0
 22
0.0
 32
0.0
 13
1.0
 23
0.0
 33
0.0
 40
0.0
 40
0.0
 40
0.0
 40
0.0
 40
0.5
 40
0.5
 40
1.0
 40
1.0
 40
1.0
 40
1.0
 10
10.13523541538321
 20
-2.718959347220845
 30
0.0
 10
10.17292922329811
 20
-2.710621987600365
 30
0.0
 10
10.20512896529415
 20
-2.698279771290717
 30
0.0
 10
10.24862314880558
 20
-2.669346054162379
 30
0.0
 10
10.26023541538321
 20
-2.652707104519101
 30
0.0
 10
10.26023541538325
 20
-2.636011211290576
 30
0.0
  0
LINE
  5
AD
330
1F
100
AcDbEntity
  8
SK1
  6
Continuous
100
AcDbLine
 10
10.2602354154
 20
-2.6360112113
 30
0.0
 11
10.2602354154
 21
-2.0816834918
 31
0.0
  0
SPLINE
  5
AE
330
1F
100
AcDbEntity
  8
SK3
100
AcDbSpline
210
0.0
220
0.0
230
1.0
 70
     8
 71
     3
 72
    10
 73
     6
 74
     0
 42
0.0000000213811003
 43
0.0000000001
 12
1.0
 22
0.0
 32
0.0
 13
1.0
 23
0.0
 33
0.0
 40
0.0
 40
0.0
 40
0.0
 40
0.0
 40
0.5
 40
0.5
 40
1.0
 40
1.0
 40
1.0
 40
1.0
 10
10.26023541538321
 20
-1.945161540631001
 30
0.0
 10
10.26023541538321
 20
-1.904833436078873
 30
0.0
 10
10.2171125400926
 20
-1.865085525440735
 30
0.0
 10
10.06932923620372
 20
-1.808320985796525
 30
0.0
 10
9.965498227558385
 20
-1.791689373477004
 30
0.0
 10
9.860235415383208
 20
-1.791689373477003
 30
0.0
  0
LINE
  5
AF
330
1F
100
AcDbEntity
  8
SK1
  6
Continuous
100
AcDbLine
 10
6.2602354154
 20
-3.5279464324
 30
0.0
 11
6.2602354154
 21
-2.9917896876
 31
0.0
  0
SPLINE
  5
B0
330
1F
100
AcDbEntity
  8
SK1
  6
Continuous
100
AcDbSpline
210
0.0
220
0.0
230
1.0
 70
     8
 71
     3
 72
    10
 73
     6
 74
     0
 42
0.0000000427804606
 43
0.0000000001
 12
1.0
 22
0.0
 32
0.0
 13
1.0
 23
0.0
 33
0.0
 40
0.0
 40
0.0
 40
0.0
 40
0.0
 40
0.5
 40
0.5
 40
1.0
 40
1.0
 40
1.0
 40
1.0
 10
6.260235415383189
 20
-2.99178968762478
 30
0.0
 10
6.2602354153832
 20
-2.971820927796408
 30
0.0
 10
6.238910971397654
 20
-2.95188309420317
 30
0.0
 10
6.164328692850914
 20
-2.923330048225244
 30
0.0
 10
6.112389910804666
 20
-2.915182600969603
 30
0.0
 10
6.060235415383721
 20
-2.9151826009679
 30
0.0
  0
LINE
  5
B1
330
1F
100
AcDbEntity
  8
SK1
  6
Continuous
100
AcDbLine
 10
6.0602354154
 20
-2.915182601
 30
0.0
 11
3.7602354154
 21
-2.915182601
 31
0.0
  0
SPLINE
  5
B2
330
1F
100
AcDbEntity
  8
SK1
  6
Continuous
100
AcDbSpline
210
0.0
220
0.0
230
1.0
 70
     8
 71
     3
 72
    10
 73
     6
 74
     0
 42
0.0000000427875695
 43
0.0000000001
 12
1.0
 22
0.0
 32
0.0
 13
1.0
 23
0.0
 33
0.0
 40
0.0
 40
0.0
 40
0.0
 40
0.0
 40
0.5
 40
0.5
 40
1.0
 40
1.0
 40
1.0
 40
1.0
 10
3.760235415383194
 20
-2.915182600969533
 30
0.0
 10
3.707967736890123
 20
-2.915182600969531
 30
0.0
 10
3.655793910619876
 20
-2.923478630294496
 30
0.0
 10
3.582061068790466
 20
-2.951675976177247
 30
0.0
 10
3.560235415383216
 20
-2.971805660396725
 30
0.0
 10
3.560235415382631
 20
-2.991789687624759
 30
0.0
  0
LINE
  5
B3
330
1F
100
AcDbEntity
  8
SK1
  6
Continuous
100
AcDbLine
 10
3.5602354154
 20
-2.9917896876
 30
0.0
 11
3.5602354154
 21
-3.3517395924
 31
0.0
  0
LINE
  5
B4
330
1F
100
AcDbEntity
  8
SK1
  6
Continuous
100
AcDbLine
 10
-17.2397645846
 20
0.3
 30
0.0
 11
-17.2397645846
 21
3.602396502
 31
0.0
  0
LINE
  5
B5
330
1F
100
AcDbEntity
  8
SK1
  6
Continuous
100
AcDbLine
 10
-17.0675992048
 20
0.3
 30
0.0
 11
-17.0675992048
 21
3.7426502748
 31
0.0
  0
LINE
  5
B6
330
1F
100
AcDbEntity
  8
SK3
100
AcDbLine
 10
-16.7798532269
 20
-0.3
 30
0.0
 11
-16.7798532269
 21
-2.5863462128
 31
0.0
  0
LINE
  5
B7
330
1F
100
AcDbEntity
  8
SK1
  6
Continuous
100
AcDbLine
 10
-17.2397645846
 20
0.3
 30
0.0
 11
-17.0675992048
 21
0.3
 31
0.0
  0
LINE
  5
B8
330
1F
100
AcDbEntity
  8
SK1
  6
Continuous
100
AcDbLine
 10
-17.0675992048
 20
0.3
 30
0.0
 11
-3.0361741274
 21
0.3
 31
0.0
  0
LINE
  5
B9
330
1F
100
AcDbEntity
  8
SK1
  6
Continuous
100
AcDbLine
 10
-17.2397645846
 20
-0.3
 30
0.0
 11
-17.0675992048
 21
-0.3
 31
0.0
  0
LINE
  5
BA
330
1F
100
AcDbEntity
  8
SK1
  6
Continuous
100
AcDbLine
 10
-17.0675992048
 20
-0.3
 30
0.0
 11
-3.0361741274
 21
-0.3
 31
0.0
  0
LINE
  5
BB
330
1F
100
AcDbEntity
  8
SK1
  6
Continuous
100
AcDbLine
 10
6.2602354154
 20
3.5279464324
 30
0.0
 11
6.2602354154
 21
7.7332783456
 31
0.0
  0
LINE
  5
BC
330
1F
100
AcDbEntity
  8
SK1
  6
Continuous
100
AcDbLine
 10
6.4767417663
 20
3.5279464324
 30
0.0
 11
6.4767417663
 21
7.7332783456
 31
0.0
  0
LINE
  5
BD
330
1F
100
AcDbEntity
  8
SK1
  6
Continuous
100
AcDbLine
 10
3.104566175
 20
3.5034239393
 30
0.0
 11
3.104566175
 21
7.6740758101
 31
0.0
  0
LINE
  5
BE
330
1F
100
AcDbEntity
  8
SK1
  6
Continuous
100
AcDbLine
 10
3.5602354154
 20
2.7974118729
 30
0.0
 11
3.5602354154
 21
-2.7974118729
 31
0.0
  0
LINE
  5
BF
330
1F
100
AcDbEntity
  8
SK1
  6
Continuous
100
AcDbLine
 10
10.1352354154
 20
2.7189593472
 30
0.0
 11
10.1352354154
 21
5.7802107527
 31
0.0
  0
LINE
  5
C0
330
1F
100
AcDbEntity
  8
SK1
  6
Continuous
100
AcDbLine
 10
10.2602354154
 20
2.6360112113
 30
0.0
 11
10.2602354154
 21
5.5799562379
 31
0.0
  0
LINE
  5
C1
330
1F
100
AcDbEntity
  8
SK1
  6
Continuous
100
AcDbLine
 10
3.7602354154
 20
2.915182601
 30
0.0
 11
3.7602354154
 21
6.2539355931
 31
0.0
  0
LINE
  5
C2
330
1F
100
AcDbEntity
  8
SK1
  6
Continuous
100
AcDbLine
 10
6.0602354154
 20
2.915182601
 30
0.0
 11
6.0602354154
 21
6.2539355931
 31
0.0
  0
LINE
  5
C3
330
1F
100
AcDbEntity
  8
SK1
  6
Continuous
100
AcDbLine
 10
6.2602354154
 20
3.5279464324
 30
0.0
 11
6.2602354154
 21
2.9917896876
 31
0.0
  0
SPLINE
  5
C4
330
1F
100
AcDbEntity
  8
SK1
  6
Continuous
100
AcDbSpline
210
0.0
220
0.0
230
1.0
 70
     8
 71
     3
 72
    10
 73
     6
 74
     0
 42
0.0000000427782015
 43
0.0000000001
 12
1.0
 22
0.0
 32
0.0
 13
1.0
 23
0.0
 33
0.0
 40
0.0
 40
0.0
 40
0.0
 40
0.0
 40
0.5
 40
0.5
 40
1.0
 40
1.0
 40
1.0
 40
1.0
 10
6.260235415383189
 20
2.991789687624784
 30
0.0
 10
6.260235415383201
 20
2.971822947928051
 30
0.0
 10
6.239041523760887
 20
2.951958054993677
 30
0.0
 10
6.164444880891828
 20
2.923349631873717
 30
0.0
 10
6.113081944862254
 20
2.915182600969231
 30
0.0
 10
6.060235415383197
 20
2.915182600969537
 30
0.0
  0
LINE
  5
C5
330
1F
100
AcDbEntity
  8
SK1
  6
Continuous
100
AcDbLine
 10
6.0602354154
 20
2.915182601
 30
0.0
 11
3.7602354154
 21
2.915182601
 31
0.0
  0
SPLINE
  5
C6
330
1F
100
AcDbEntity
  8
SK1
  6
Continuous
100
AcDbSpline
210
0.0
220
0.0
230
1.0
 70
     8
 71
     3
 72
    10
 73
     6
 74
     0
 42
0.000000042784668
 43
0.0000000001
 12
1.0
 22
0.0
 32
0.0
 13
1.0
 23
0.0
 33
0.0
 40
0.0
 40
0.0
 40
0.0
 40
0.0
 40
0.5
 40
0.5
 40
1.0
 40
1.0
 40
1.0
 40
1.0
 10
3.760235415383194
 20
2.915182600969537
 30
0.0
 10
3.707349634228778
 20
2.915182600969537
 30
0.0
 10
3.65562335626621
 20
2.923505035743494
 30
0.0
 10
3.581841949667817
 20
2.951798797366449
 30
0.0
 10
3.560235415383089
 20
2.971805793902821
 30
0.0
 10
3.560235415380908
 20
2.991789687624886
 30
0.0
  0
LINE
  5
C7
330
1F
100
AcDbEntity
  8
SK1
  6
Continuous
100
AcDbLine
 10
3.5602354154
 20
2.9917896876
 30
0.0
 11
3.5602354154
 21
3.3517395924
 31
0.0
  0
SPLINE
  5
C8
330
1F
100
AcDbEntity
  8
SK1
  6
Continuous
100
AcDbSpline
210
0.0
220
0.0
230
1.0
 70
     8
 71
     3
 72
    10
 73
     6
 74
     0
 42
0.0000000190338767
 43
0.0000000001
 12
1.0
 22
0.0
 32
0.0
 13
1.0
 23
0.0
 33
0.0
 40
0.0
 40
0.0
 40
0.0
 40
0.0
 40
0.5
 40
0.5
 40
1.0
 40
1.0
 40
1.0
 40
1.0
 10
3.104566174999168
 20
3.50342393930103
 30
0.0
 10
3.218579857971846
 20
3.509559778294842
 30
0.0
 10
3.337021073745857
 20
3.495852164154292
 30
0.0
 10
3.508319363370215
 20
3.438826638498643
 30
0.0
 10
3.560235415383193
 20
3.395631201415513
 30
0.0
 10
3.560235415383195
 20
3.351739592398475
 30
0.0
  0
LINE
  5
C9
330
1F
100
AcDbEntity
  8
SK1
  6
Continuous
100
AcDbLine
 10
6.2602354154
 20
3.5279464324
 30
0.0
 11
6.4767417663
 21
3.5279464324
 31
0.0
  0
LINE
  5
CA
330
1F
100
AcDbEntity
  8
SK1
  6
Continuous
100
AcDbLine
 10
6.4767417663
 20
3.5279464324
 30
0.0
 11
10.1352354154
 21
2.7189593472
 31
0.0
  0
SPLINE
  5
CB
330
1F
100
AcDbEntity
  8
SK1
  6
Continuous
100
AcDbSpline
210
0.0
220
0.0
230
1.0
 70
     8
 71
     3
 72
     8
 73
     4
 74
     0
 42
0.0000000587350374
 43
0.0000000001
 12
1.0
 22
0.0
 32
0.0
 13
1.0
 23
0.0
 33
0.0
 40
0.0
 40
0.0
 40
0.0
 40
0.0
 40
1.0
 40
1.0
 40
1.0
 40
1.0
 10
10.13523541538321
 20
2.71895934722085
 30
0.0
 10
10.21154780215434
 20
2.702080081176816
 30
0.0
 10
10.26023541538321
 20
2.669562357695099
 30
0.0
 10
10.26023541538321
 20
2.63601121129058
 30
0.0
  0
LINE
  5
CC
330
1F
100
AcDbEntity
  8
SK1
  6
Continuous
100
AcDbLine
 10
10.2602354154
 20
2.6360112113
 30
0.0
 11
10.2602354154
 21
2.0816834918
 31
0.0
  0
SPLINE
  5
CD
330
1F
100
AcDbEntity
  8
SK3
100
AcDbSpline
210
0.0
220
0.0
230
1.0
 70
     8
 71
     3
 72
    10
 73
     6
 74
     0
 42
0.000000021382801
 43
0.0000000001
 12
1.0
 22
0.0
 32
0.0
 13
1.0
 23
0.0
 33
0.0
 40
0.0
 40
0.0
 40
0.0
 40
0.0
 40
0.5
 40
0.5
 40
1.0
 40
1.0
 40
1.0
 40
1.0
 10
10.26023541538321
 20
1.945161540631003
 30
0.0
 10
10.26023541538322
 20
1.905192757545786
 30
0.0
 10
10.21791490500518
 20
1.865422349221043
 30
0.0
 10
10.06880908469768
 20
1.808092616166707
 30
0.0
 10
9.966023368073628
 20
1.791689373476859
 30
0.0
 10
9.860235415383208
 20
1.791689373477007
 30
0.0
  0
SPLINE
  5
CE
330
1F
100
AcDbEntity
  8
SK1
  6
Continuous
100
AcDbSpline
210
0.0
220
0.0
230
1.0
 70
     8
 71
     3
 72
    10
 73
     6
 74
     0
 42
0.0000000190338767
 43
0.0000000001
 12
1.0
 22
0.0
 32
0.0
 13
1.0
 23
0.0
 33
0.0
 40
0.0
 40
0.0
 40
0.0
 40
0.0
 40
0.5
 40
0.5
 40
1.0
 40
1.0
 40
1.0
 40
1.0
 10
3.104566174999168
 20
2.949096219794258
 30
0.0
 10
3.218579857971846
 20
2.955232058788073
 30
0.0
 10
3.337021073745857
 20
2.941524444647518
 30
0.0
 10
3.508319363370215
 20
2.88449891899187
 30
0.0
 10
3.560235415383194
 20
2.841303481908742
 30
0.0
 10
3.560235415383195
 20
2.797411872891704
 30
0.0
  0
LINE
  5
CF
330
1F
100
AcDbEntity
  8
SK1
  6
Continuous
100
AcDbLine
 10
6.2602354154
 20
2.9736187129
 30
0.0
 11
6.4767417663
 21
2.9736187129
 31
0.0
  0
LINE
  5
D0
330
1F
100
AcDbEntity
  8
SK1
  6
Continuous
100
AcDbLine
 10
6.4767417663
 20
2.9736187129
 30
0.0
 11
10.1352354154
 21
2.1646316277
 31
0.0
  0
SPLINE
  5
D1
330
1F
100
AcDbEntity
  8
SK1
  6
Continuous
100
AcDbSpline
210
0.0
220
0.0
230
1.0
 70
     8
 71
     3
 72
     8
 73
     4
 74
     0
 42
0.0000000587350374
 43
0.0000000001
 12
1.0
 22
0.0
 32
0.0
 13
1.0
 23
0.0
 33
0.0
 40
0.0
 40
0.0
 40
0.0
 40
0.0
 40
1.0
 40
1.0
 40
1.0
 40
1.0
 10
10.13523541538321
 20
2.164631627714078
 30
0.0
 10
10.21154780215434
 20
2.147752361670043
 30
0.0
 10
10.26023541538321
 20
2.115234638188329
 30
0.0
 10
10.26023541538321
 20
2.081683491783809
 30
0.0
  0
SPLINE
  5
D2
330
1F
100
AcDbEntity
  8
SK3
100
AcDbSpline
210
0.0
220
0.0
230
1.0
 70
     8
 71
     3
 72
    10
 73
     6
 74
     0
 42
0.000000021382801
 43
0.0000000001
 12
1.0
 22
0.0
 32
0.0
 13
1.0
 23
0.0
 33
0.0
 40
0.0
 40
0.0
 40
0.0
 40
0.0
 40
0.5
 40
0.5
 40
1.0
 40
1.0
 40
1.0
 40
1.0
 10
10.26023541538321
 20
1.390833821124231
 30
0.0
 10
10.26023541538322
 20
1.350865038039015
 30
0.0
 10
10.21791490500518
 20
1.311094629714271
 30
0.0
 10
10.06880908469768
 20
1.253764896659934
 30
0.0
 10
9.966023368073628
 20
1.237361653970086
 30
0.0
 10
9.860235415383208
 20
1.237361653970234
 30
0.0
  0
SPLINE
  5
D3
330
1F
100
AcDbEntity
  8
SK1
  6
Continuous
100
AcDbSpline
210
0.0
220
0.0
230
1.0
 70
     8
 71
     3
 72
    10
 73
     6
 74
     0
 42
0.0000000427782015
 43
0.0000000001
 12
1.0
 22
0.0
 32
0.0
 13
1.0
 23
0.0
 33
0.0
 40
0.0
 40
0.0
 40
0.0
 40
0.0
 40
0.5
 40
0.5
 40
1.0
 40
1.0
 40
1.0
 40
1.0
 10
6.260235415383189
 20
2.437461968118013
 30
0.0
 10
6.2602354153832
 20
2.417495228421279
 30
0.0
 10
6.239041523760887
 20
2.397630335486906
 30
0.0
 10
6.164444880891828
 20
2.369021912366946
 30
0.0
 10
6.113081944862254
 20
2.36085488146246
 30
0.0
 10
6.060235415383197
 20
2.360854881462765
 30
0.0
  0
LINE
  5
D4
330
1F
100
AcDbEntity
  8
SK1
  6
Continuous
100
AcDbLine
 10
6.0602354154
 20
2.3608548815
 30
0.0
 11
3.7602354154
 21
2.3608548815
 31
0.0
  0
SPLINE
  5
D5
330
1F
100
AcDbEntity
  8
SK1
  6
Continuous
100
AcDbSpline
210
0.0
220
0.0
230
1.0
 70
     8
 71
     3
 72
    10
 73
     6
 74
     0
 42
0.000000042784668
 43
0.0000000001
 12
1.0
 22
0.0
 32
0.0
 13
1.0
 23
0.0
 33
0.0
 40
0.0
 40
0.0
 40
0.0
 40
0.0
 40
0.5
 40
0.5
 40
1.0
 40
1.0
 40
1.0
 40
1.0
 10
3.760235415383194
 20
2.360854881462765
 30
0.0
 10
3.707349634228777
 20
2.360854881462766
 30
0.0
 10
3.655623356266209
 20
2.369177316236724
 30
0.0
 10
3.581841949667816
 20
2.397471077859679
 30
0.0
 10
3.560235415383089
 20
2.41747807439605
 30
0.0
 10
3.560235415380908
 20
2.437461968118114
 30
0.0
  0
LINE
  5
D6
330
1F
100
AcDbEntity
  8
SK1
  6
Continuous
100
AcDbLine
 10
-17.2397645846
 20
4.0266605707
 30
0.0
 11
-17.2397645846
 21
5.3945579902
 31
0.0
  0
LINE
  5
D7
330
1F
100
AcDbEntity
  8
SK1
  6
Continuous
100
AcDbLine
 10
-17.0675992048
 20
4.1669143435
 30
0.0
 11
-17.0675992048
 21
5.5929067778
 31
0.0
  0
LINE
  5
D8
330
1F
100
AcDbEntity
  8
SK3
100
AcDbLine
 10
-16.7798532269
 20
2.5863462128
 30
0.0
 11
-16.7798532269
 21
0.3
 31
0.0
  0
LINE
  5
D9
330
1F
100
AcDbEntity
  8
SK3
100
AcDbLine
 10
-17.2397645846
 20
3.1988730564
 30
0.0
 11
-16.7798532269
 21
3.0106102815
 31
0.0
  0
LINE
  5
DA
330
1F
100
AcDbEntity
  8
SK3
100
AcDbLine
 10
-16.7798532269
 20
3.0106102815
 30
0.0
 11
-2.7002099481
 21
3.0106102815
 31
0.0
  0
SPLINE
  5
DB
330
1F
100
AcDbEntity
  8
SK1
  6
Continuous
100
AcDbSpline
210
0.0
220
0.0
230
1.0
 70
     8
 71
     3
 72
    10
 73
     6
 74
     0
 42
0.0000000403600054
 43
0.0000000001
 12
1.0
 22
0.0
 32
0.0
 13
1.0
 23
0.0
 33
0.0
 40
0.0
 40
0.0
 40
0.0
 40
0.0
 40
0.5
 40
0.5
 40
1.0
 40
1.0
 40
1.0
 40
1.0
 10
-17.2397645846169
 20
4.026660570748279
 30
0.0
 10
-17.23976458461681
 20
4.060362441508629
 30
0.0
 10
-17.22195172063032
 20
4.094083242196784
 30
0.0
 10
-17.15968957725035
 20
4.144893177240587
 30
0.0
 10
-17.1153000432649
 20
4.162167144720968
 30
0.0
 10
-17.06759920480881
 20
4.166914343512299
 30
0.0
  0
SPLINE
  5
DC
330
1F
100
AcDbEntity
  8
SK1
  6
Continuous
100
AcDbSpline
210
0.0
220
0.0
230
1.0
 70
     8
 71
     3
 72
    11
 73
     7
 74
     0
 42
0.0000000007091853
 43
0.0000000001
 12
1.0
 22
0.0
 32
0.0
 13
1.0
 23
0.0
 33
0.0
 40
0.0
 40
0.0
 40
0.0
 40
0.0
 40
0.6939571910621131
 40
0.6939571910621131
 40
0.6939571910621131
 40
1.0
 40
1.0
 40
1.0
 40
1.0
 10
-17.06759920480881
 20
4.166914343512299
 30
0.0
 10
-13.82188668965978
 20
4.4899284254067
 30
0.0
 10
-10.57615287310602
 20
4.812835490011019
 30
0.0
 10
-7.330408270403734
 20
5.135688319662665
 30
0.0
 10
-5.898998943549083
 20
5.278069994172739
 30
0.0
 10
-4.467587398432643
 20
5.420440518491202
 30
0.0
 10
-3.036174127350636
 20
5.562802365292531
 30
0.0
  0
LINE
  5
DD
330
1F
100
AcDbEntity
  8
SK1
  6
Continuous
100
AcDbLine
 10
-17.2397645846
 20
3.602396502
 30
0.0
 11
-17.2397645846
 21
4.0266605707
 31
0.0
  0
SPLINE
  5
DE
330
1F
100
AcDbEntity
  8
SK1
  6
Continuous
100
AcDbSpline
210
0.0
220
0.0
230
1.0
 70
     8
 71
     3
 72
    10
 73
     6
 74
     0
 42
0.0000000403600054
 43
0.0000000001
 12
1.0
 22
0.0
 32
0.0
 13
1.0
 23
0.0
 33
0.0
 40
0.0
 40
0.0
 40
0.0
 40
0.0
 40
0.5
 40
0.5
 40
1.0
 40
1.0
 40
1.0
 40
1.0
 10
-17.23976458461679
 20
3.602396502036355
 30
0.0
 10
-17.2397645846168
 20
3.636098372796715
 30
0.0
 10
-17.22195172063033
 20
3.669819173484866
 30
0.0
 10
-17.15968957725035
 20
3.720629108528664
 30
0.0
 10
-17.11530004326489
 20
3.737903076009041
 30
0.0
 10
-17.06759920480881
 20
3.742650274800372
 30
0.0
  0
SPLINE
  5
DF
330
1F
100
AcDbEntity
  8
SK1
  6
Continuous
100
AcDbSpline
210
0.0
220
0.0
230
1.0
 70
     8
 71
     3
 72
    11
 73
     7
 74
     0
 42
0.0000000007091853
 43
0.0000000001
 12
1.0
 22
0.0
 32
0.0
 13
1.0
 23
0.0
 33
0.0
 40
0.0
 40
0.0
 40
0.0
 40
0.0
 40
0.6939571910621131
 40
0.6939571910621131
 40
0.6939571910621131
 40
1.0
 40
1.0
 40
1.0
 40
1.0
 10
-17.06759920480881
 20
3.742650274800372
 30
0.0
 10
-13.82188668965978
 20
4.065664356694771
 30
0.0
 10
-10.57615287310602
 20
4.388571421299091
 30
0.0
 10
-7.330408270403734
 20
4.711424250950737
 30
0.0
 10
-5.898998943549083
 20
4.85380592546081
 30
0.0
 10
-4.467587398432643
 20
4.996176449779274
 30
0.0
 10
-3.036174127350636
 20
5.138538296580601
 30
0.0
  0
LINE
  5
E0
330
1F
100
AcDbEntity
  8
SK3
100
AcDbLine
 10
-17.2397645846
 20
2.7746089876
 30
0.0
 11
-16.7798532269
 21
2.5863462128
 31
0.0
  0
LINE
  5
E1
330
1F
100
AcDbEntity
  8
SK3
100
AcDbLine
 10
-16.7798532269
 20
2.5863462128
 30
0.0
 11
-2.7002099481
 21
2.5863462128
 31
0.0
  0
ELLIPSE
  5
E2
330
1F
100
AcDbEntity
  8
SK1
  6
Continuous
100
AcDbEllipse
 10
49.9439825191
 20
0.1148050568
 30
0.0
 11
-62.1999996508824
 21
-1.843029844901616E-7
 31
0.0
210
0.0
220
0.0
230
1.0
 40
0.9238795351
 41
-0.1017061640550327
 42
-0.0976745556190517
  0
SPLINE
  5
E3
330
1F
100
AcDbEntity
  8
SK3
100
AcDbSpline
210
0.0
220
0.0
230
1.0
 70
     8
 71
     3
 72
    35
 73
    31
 74
     0
 42
0.0000000145479165
 43
0.0000000001
 12
1.0
 22
0.0
 32
0.0
 13
1.0
 23
0.0
 33
0.0
 40
0.0
 40
0.0
 40
0.0
 40
0.0
 40
0.1073113564505001
 40
0.1073113564505001
 40
0.1073113564505001
 40
0.2146308055460792
 40
0.2146308055460792
 40
0.2146308055460792
 40
0.3218595831438715
 40
0.3218595831438715
 40
0.3218595831438715
 40
0.4292099305812582
 40
0.4292099305812582
 40
0.4292099305812582
 40
0.4999971245456282
 40
0.4999971245456282
 40
0.4999971245456282
 40
0.6074291257269906
 40
0.6074291257269906
 40
0.6074291257269906
 40
0.7148612730325812
 40
0.7148612730325812
 40
0.7148612730325812
 40
0.8222845345710889
 40
0.8222845345710889
 40
0.8222845345710889
 40
0.9295971447658313
 40
0.9295971447658313
 40
0.9295971447658313
 40
1.0
 40
1.0
 40
1.0
 40
1.0
 10
-12.12998139225219
 20
3.771193065501168
 30
0.0
 10
-12.16352101733663
 20
3.771193065501168
 30
0.0
 10
-12.19752423717697
 20
3.769402039752722
 30
0.0
 10
-12.22917487291374
 20
3.765897671376997
 30
0.0
 10
-12.26082717149279
 20
3.762393118890849
 30
0.0
 10
-12.2909981106402
 20
3.757072426774651
 30
0.0
 10
-12.3171883670826
 20
3.750211273189231
 30
0.0
 10
-12.34335772203183
 20
3.743355595241479
 30
0.0
 10
-12.36627495293241
 20
3.734764377583654
 30
0.0
 10
-12.38405792598879
 20
3.72495677817408
 30
0.0
 10
-12.40186072686295
 20
3.715138243399912
 30
0.0
 10
-12.41500920716192
 20
3.703821819218323
 30
0.0
 10
-12.42242555899057
 20
3.691807826062156
 30
0.0
 10
-12.42735528836777
 20
3.683821994703582
 30
0.0
 10
-12.42986613126557
 20
3.675412611811204
 30
0.0
 10
-12.42986613126559
 20
3.666877864537558
 30
0.0
 10
-12.42986613126564
 20
3.654028598672801
 30
0.0
 10
-12.42408599630993
 20
3.640586917455669
 30
0.0
 10
-12.41300006083832
 20
3.627729413548782
 30
0.0
 10
-12.40191412358478
 20
3.614871907575219
 30
0.0
 10
-12.38521603779051
 20
3.602249524750609
 30
0.0
 10
-12.36427762416426
 20
3.591070838666343
 30
0.0
 10
-12.3433413125339
 20
3.579893274804261
 30
0.0
 10
-12.31758597678476
 20
3.569859650084958
 30
0.0
 10
-12.2891393127941
 20
3.561994060227533
 30
0.0
 10
-12.26072155367205
 20
3.554136462654946
 30
0.0
 10
-12.22883342067885
 20
3.548234332914963
 30
0.0
 10
-12.19611965911137
 20
3.544908154706242
 30
0.0
 10
-12.17448275547155
 20
3.542708218228668
 30
0.0
 10
-12.15216428790749
 20
3.541583006082114
 30
0.0
 10
-12.12998139225219
 20
3.541583006082114
 30
0.0
  0
SPLINE
  5
E4
330
1F
100
AcDbEntity
  8
SK1
  6
Continuous
100
AcDbSpline
210
0.0
220
0.0
230
1.0
 70
     8
 71
     3
 72
    35
 73
    31
 74
     0
 42
0.000000014285121
 43
0.0000000001
 12
1.0
 22
0.0
 32
0.0
 13
1.0
 23
0.0
 33
0.0
 40
0.0
 40
0.0
 40
0.0
 40
0.0
 40
0.1109282350188725
 40
0.1109282350188725
 40
0.1109282350188725
 40
0.2219835961662484
 40
0.2219835961662484
 40
0.2219835961662484
 40
0.3310796898380999
 40
0.3310796898380999
 40
0.3310796898380999
 40
0.4376166855687321
 40
0.4376166855687321
 40
0.4376166855687321
 40
0.5001075690994083
 40
0.5001075690994083
 40
0.5001075690994083
 40
0.6046394905851209
 40
0.6046394905851209
 40
0.6046394905851209
 40
0.7091265106033512
 40
0.7091265106033512
 40
0.7091265106033512
 40
0.8143265814489737
 40
0.8143265814489737
 40
0.8143265814489737
 40
0.9214452333066642
 40
0.9214452333066642
 40
0.9214452333066642
 40
1.0
 40
1.0
 40
1.0
 40
1.0
 10
-11.9345914946927
 20
5.719699751986883
 30
0.0
 10
-11.96933648488016
 20
5.715183277698245
 30
0.0
 10
-12.00460528049421
 20
5.713148824681572
 30
0.0
 10
-12.0374836224607
 20
5.713771126568203
 30
0.0
 10
-12.07038381517704
 20
5.714393842032952
 30
0.0
 10
-12.10180695320614
 20
5.717698876641299
 30
0.0
 10
-12.12896948560333
 20
5.723354272523719
 30
0.0
 10
-12.1556544968031
 20
5.728910245739126
 30
0.0
 10
-12.17897890888901
 20
5.736890299785814
 30
0.0
 10
-12.19681635379685
 20
5.746516397709375
 30
0.0
 10
-12.21424215769514
 20
5.755920350774865
 30
0.0
 10
-12.22692106153266
 20
5.767155362841907
 30
0.0
 10
-12.23370477007153
 20
5.779192673603422
 30
0.0
 10
-12.23772238767427
 20
5.786321710962248
 30
0.0
 10
-12.2397645846168
 20
5.793822546544328
 30
0.0
 10
-12.2397645846168
 20
5.801459775861214
 30
0.0
 10
-12.2397645846168
 20
5.814118101254489
 30
0.0
 10
-12.23405061495205
 20
5.827437990704369
 30
0.0
 10
-12.22312730320487
 20
5.840348956594429
 30
0.0
 10
-12.21220659079782
 20
5.853256850156922
 30
0.0
 10
-12.19578599138677
 20
5.866112454350151
 30
0.0
 10
-12.17528248502588
 20
5.877970253508516
 30
0.0
 10
-12.15463596615426
 20
5.889910761136329
 30
0.0
 10
-12.12930152955736
 20
5.901167178456315
 30
0.0
 10
-12.10139350068017
 20
5.91097704806401
 30
0.0
 10
-12.07297823457903
 20
5.920965215144772
 30
0.0
 10
-12.04114279634225
 20
5.929727338227813
 30
0.0
 10
-12.00846379513291
 20
5.936691085753256
 30
0.0
 10
-11.98434560043336
 20
5.941830564086186
 30
0.0
 10
-11.95937106705468
 20
5.946088734040464
 30
0.0
 10
-11.9345914946927
 20
5.949309811405936
 30
0.0
  0
SPLINE
  5
E5
330
1F
100
AcDbEntity
  8
SK3
100
AcDbSpline
210
0.0
220
0.0
230
1.0
 70
     8
 71
     3
 72
    11
 73
     7
 74
     0
 42
0.0000003224478685
 43
0.0000000001
 12
1.0
 22
0.0
 32
0.0
 13
1.0
 23
0.0
 33
0.0
 40
0.0
 40
0.0
 40
0.0
 40
0.0
 40
0.2257619273476692
 40
0.2257619273476692
 40
0.2257619273476692
 40
1.0
 40
1.0
 40
1.0
 40
1.0
 10
-12.41815739964446
 20
-3.697863170881768
 30
0.0
 10
-12.41974185311082
 20
-3.695867444386404
 30
0.0
 10
-12.42116633147132
 20
-3.693847690290253
 30
0.0
 10
-12.42242555899057
 20
-3.691807826062153
 30
0.0
 10
-12.42677876818376
 20
-3.684755918781768
 30
0.0
 10
-12.4292457744929
 20
-3.677373733858591
 30
0.0
 10
-12.42976325784254
 20
-3.66986659935279
 30
0.0
  0
ARC
  5
E6
330
1F
100
AcDbEntity
  8
SK3
100
AcDbCircle
 10
-2.7001773464
 20
-7.9227399564
 30
0.0
 40
3.965094065384002
100
AcDbArc
 50
85.6629832438
 51
90.0004710961
  0
SPLINE
  5
E7
330
1F
100
AcDbEntity
  8
SK1
  6
Continuous
100
AcDbSpline
210
0.0
220
0.0
230
1.0
 70
     8
 71
     3
 72
    23
 73
    19
 74
     0
 42
0.0000000327476852
 43
0.0000000001
 12
1.0
 22
0.0
 32
0.0
 13
1.0
 23
0.0
 33
0.0
 40
0.0
 40
0.0
 40
0.0
 40
0.0
 40
0.1923208162009666
 40
0.1923208162009666
 40
0.1923208162009666
 40
0.3846323453494708
 40
0.3846323453494708
 40
0.3846323453494708
 40
0.5770729487212064
 40
0.5770729487212064
 40
0.5770729487212064
 40
0.7694962031974674
 40
0.7694962031974674
 40
0.7694962031974674
 40
0.8947898157672098
 40
0.8947898157672098
 40
0.8947898157672098
 40
1.0
 40
1.0
 40
1.0
 40
1.0
 10
-3.03617412735064
 20
-7.566990549797825
 30
0.0
 10
-3.00291468197151
 20
-7.571668532101372
 30
0.0
 10
-2.969229324567702
 20
-7.576642199273304
 30
0.0
 10
-2.93790295464851
 20
-7.581462848354028
 30
0.0
 10
-2.906577493931811
 20
-7.586283357522402
 30
0.0
 10
-2.876746256111973
 20
-7.591080522490891
 30
0.0
 10
-2.850861753125391
 20
-7.595366813213638
 30
0.0
 10
-2.824960437876459
 20
-7.599655887928188
 30
0.0
 10
-2.802295638948108
 20
-7.603546794588368
 30
0.0
 10
-2.784731791375343
 20
-7.606611286284441
 30
0.0
 10
-2.767169931243222
 20
-7.609675431217352
 30
0.0
 10
-2.754222939251716
 20
-7.611993320542075
 30
0.0
 10
-2.746960319665042
 20
-7.613297298888466
 30
0.0
 10
-2.742192420483931
 20
-7.61415335877371
 30
0.0
 10
-2.739764584615431
 20
-7.614592741375194
 30
0.0
 10
-2.739764584615408
 20
-7.614592741375196
 30
0.0
 10
-2.739764584615389
 20
-7.614592741375199
 30
0.0
 10
-2.741475571575294
 20
-7.614282135788134
 30
0.0
 10
-2.744820175381078
 20
-7.613680821401297
 30
0.0
  0
SPLINE
  5
E8
330
1F
100
AcDbEntity
  8
SK1
  6
Continuous
100
AcDbSpline
210
0.0
220
0.0
230
1.0
 70
     8
 71
     3
 72
    20
 73
    16
 74
     0
 42
0.0000000333080568
 43
0.0000000001
 12
1.0
 22
0.0
 32
0.0
 13
1.0
 23
0.0
 33
0.0
 40
0.0
 40
0.0
 40
0.0
 40
0.0
 40
0.2146620896316403
 40
0.2146620896316403
 40
0.2146620896316403
 40
0.4293109030727369
 40
0.4293109030727369
 40
0.4293109030727369
 40
0.644163233981948
 40
0.644163233981948
 40
0.644163233981948
 40
0.859249296104655
 40
0.859249296104655
 40
0.859249296104655
 40
1.0
 40
1.0
 40
1.0
 40
1.0
 10
-2.739764584615409
 20
7.614592741375197
 30
0.0
 10
-2.739764584615373
 20
7.614592741375204
 30
0.0
 10
-2.745467242067095
 20
7.613557504224289
 30
0.0
 10
-2.756401775766626
 20
7.611608097773972
 30
0.0
 10
-2.767335927694329
 20
7.609658759385858
 30
0.0
 10
-2.783802259325149
 20
7.606744905458927
 30
0.0
 10
-2.804447768485127
 20
7.603197395577382
 30
0.0
 10
-2.825112711481599
 20
7.599646546387203
 30
0.0
 10
-2.850534397542783
 20
7.595367970078256
 30
0.0
 10
-2.878626642166816
 20
7.590820965064757
 30
0.0
 10
-2.906748406810003
 20
7.586269181946951
 30
0.0
 10
-2.938323370379122
 20
7.581327394180114
 30
0.0
 10
-2.970747924883389
 20
7.576481118453201
 30
0.0
 10
-2.992139388992024
 20
7.57328388305991
 30
0.0
 10
-3.014216702650492
 20
7.570078888854835
 30
0.0
 10
-3.03617412735064
 20
7.566990549797828
 30
0.0
  0
ARC
  5
E9
330
1F
100
AcDbEntity
  8
SK3
100
AcDbCircle
 10
-2.7001773464
 20
7.9227399564
 30
0.0
 40
3.965094065384159
100
AcDbArc
 50
269.9995289039
 51
274.2605675804
  0
LINE
  5
EA
330
1F
100
AcDbEntity
  8
SK1
  6
Continuous
100
AcDbLine
 10
-3.0361741274
 20
7.5669905498
 30
0.0
 11
-17.0675992048
 21
5.5929067778
 31
0.0
  0
LINE
  5
EB
330
1F
100
AcDbEntity
  8
SK3
100
AcDbLine
 10
-2.7002099481
 20
3.9576458912
 30
0.0
 11
-16.7798532269
 21
3.9576458912
 31
0.0
  0
SPLINE
  5
EC
330
1F
100
AcDbEntity
  8
SK3
100
AcDbSpline
210
0.0
220
0.0
230
1.0
 70
     8
 71
     3
 72
    11
 73
     7
 74
     0
 42
0.0000003494417232
 43
0.0000000001
 12
1.0
 22
0.0
 32
0.0
 13
1.0
 23
0.0
 33
0.0
 40
0.0
 40
0.0
 40
0.0
 40
0.0
 40
0.2942391301132805
 40
0.2942391301132805
 40
0.2942391301132805
 40
1.0
 40
1.0
 40
1.0
 40
1.0
 10
-12.22910660431567
 20
5.83248152420177
 30
0.0
 10
-12.23085502492997
 20
5.82991016190031
 30
0.0
 10
-12.23239053011494
 20
5.827339955845109
 30
0.0
 10
-12.23370477007153
 20
5.82477864854428
 30
0.0
 10
-12.23688762623867
 20
5.818575616367744
 30
0.0
 10
-12.23883066873178
 20
5.812358861352426
 30
0.0
 10
-12.2395006953034
 20
5.806245920274384
 30
0.0
  0
SPLINE
  5
ED
330
1F
100
AcDbEntity
  8
SK1
  6
Continuous
100
AcDbSpline
210
0.0
220
0.0
230
1.0
 70
     8
 71
     3
 72
    11
 73
     7
 74
     0
 42
0.0000000006593864
 43
0.0000000001
 12
1.0
 22
0.0
 32
0.0
 13
1.0
 23
0.0
 33
0.0
 40
0.0
 40
0.0
 40
0.0
 40
0.0
 40
0.6794373012482287
 40
0.6794373012482287
 40
0.6794373012482287
 40
1.0
 40
1.0
 40
1.0
 40
1.0
 10
-11.9345914946927
 20
-5.719699751986881
 30
0.0
 10
-8.528555273798595
 20
-6.162447754931707
 30
0.0
 10
-5.122502689937771
 20
-6.605088315849418
 30
0.0
 10
-1.716441426071414
 20
-7.047671846979234
 30
0.0
 10
-0.1094407666117608
 20
-7.256485479880318
 30
0.0
 10
1.497561917903066
 20
-7.465285810795525
 30
0.0
 10
3.104566174999167
 20
-7.674075810077287
 30
0.0
  0
LINE
  5
EE
330
1F
100
AcDbEntity
  8
SK3
100
AcDbLine
 10
-12.1299813923
 20
-3.5415830061
 30
0.0
 11
9.8602354154
 21
-3.5415830061
 31
0.0
  0
SPLINE
  5
EF
330
1F
100
AcDbEntity
  8
SK1
  6
Continuous
100
AcDbSpline
210
0.0
220
0.0
230
1.0
 70
     8
 71
     3
 72
    35
 73
    31
 74
     0
 42
0.0000000142844881
 43
0.0000000001
 12
1.0
 22
0.0
 32
0.0
 13
1.0
 23
0.0
 33
0.0
 40
0.0
 40
0.0
 40
0.0
 40
0.0
 40
0.110928235018865
 40
0.110928235018865
 40
0.110928235018865
 40
0.2219835961662431
 40
0.2219835961662431
 40
0.2219835961662431
 40
0.3310796898380912
 40
0.3310796898380912
 40
0.3310796898380912
 40
0.4376166855687227
 40
0.4376166855687227
 40
0.4376166855687227
 40
0.5001075690994063
 40
0.5001075690994063
 40
0.5001075690994063
 40
0.6046394905851206
 40
0.6046394905851206
 40
0.6046394905851206
 40
0.7091265106033522
 40
0.7091265106033522
 40
0.7091265106033522
 40
0.8143265814489762
 40
0.8143265814489762
 40
0.8143265814489762
 40
0.9214452333066598
 40
0.9214452333066598
 40
0.9214452333066598
 40
1.0
 40
1.0
 40
1.0
 40
1.0
 10
-11.9345914946927
 20
-5.949309811405932
 30
0.0
 10
-11.96933648488016
 20
-5.944793337117295
 30
0.0
 10
-12.00460528049421
 20
-5.938196353998797
 30
0.0
 10
-12.03748362246069
 20
-5.929983640076965
 30
0.0
 10
-12.07038381517704
 20
-5.921765468034471
 30
0.0
 10
-12.10180695320614
 20
-5.911690187872487
 30
0.0
 10
-12.12896948560333
 20
-5.900474640974323
 30
0.0
 10
-12.1556544968031
 20
-5.88945626499183
 30
0.0
 10
-12.17897890888901
 20
-5.877015668608959
 30
0.0
 10
-12.19681635379685
 20
-5.864087219057478
 30
0.0
 10
-12.21424215769514
 20
-5.85145712389772
 30
0.0
 10
-12.22692106153265
 20
-5.837999340945432
 30
0.0
 10
-12.23370477007153
 20
-5.824778648544276
 30
0.0
 10
-12.23772238767426
 20
-5.816948759302011
 30
0.0
 10
-12.2397645846168
 20
-5.809097005178097
 30
0.0
 10
-12.2397645846168
 20
-5.80145977586121
 30
0.0
 10
-12.2397645846168
 20
-5.788801450467933
 30
0.0
 10
-12.23405061495205
 20
-5.776455708096508
 30
0.0
 10
-12.22312730320487
 20
-5.765483784432727
 30
0.0
 10
-12.21220659079782
 20
-5.754514471676901
 30
0.0
 10
-12.19578599138677
 20
-5.744621347505904
 30
0.0
 10
-12.17528248502588
 20
-5.73668708723046
 30
0.0
 10
-12.15463596615426
 20
-5.728697485275262
 30
0.0
 10
-12.12930152955736
 20
-5.722482084549077
 30
0.0
 10
-12.10139350068017
 20
-5.718605807365288
 30
0.0
 10
-12.07297823457903
 20
-5.714659077621534
 30
0.0
 10
-12.04114279634226
 20
-5.713032904242613
 30
0.0
 10
-12.00846379513291
 20
-5.71388301158072
 30
0.0
 10
-11.98434560043336
 20
-5.714510419198371
 30
0.0
 10
-11.95937106705469
 20
-5.71647867462141
 30
0.0
 10
-11.9345914946927
 20
-5.719699751986881
 30
0.0
  0
SPLINE
  5
F0
330
1F
100
AcDbEntity
  8
SK3
100
AcDbSpline
210
0.0
220
0.0
230
1.0
 70
     8
 71
     3
 72
    35
 73
    31
 74
     0
 42
0.0000000145465579
 43
0.0000000001
 12
1.0
 22
0.0
 32
0.0
 13
1.0
 23
0.0
 33
0.0
 40
0.0
 40
0.0
 40
0.0
 40
0.0
 40
0.1073113564504933
 40
0.1073113564504933
 40
0.1073113564504933
 40
0.2146308055460763
 40
0.2146308055460763
 40
0.2146308055460763
 40
0.3218595831438792
 40
0.3218595831438792
 40
0.3218595831438792
 40
0.4292099305812542
 40
0.4292099305812542
 40
0.4292099305812542
 40
0.4999971245456202
 40
0.4999971245456202
 40
0.4999971245456202
 40
0.6074291257269894
 40
0.6074291257269894
 40
0.6074291257269894
 40
0.7148612730325878
 40
0.7148612730325878
 40
0.7148612730325878
 40
0.8222845345710923
 40
0.8222845345710923
 40
0.8222845345710923
 40
0.9295971447658347
 40
0.9295971447658347
 40
0.9295971447658347
 40
1.0
 40
1.0
 40
1.0
 40
1.0
 10
-12.12998139225219
 20
-3.541583006082111
 30
0.0
 10
-12.16352101733663
 20
-3.541583006082112
 30
0.0
 10
-12.19752423717698
 20
-3.544202038596771
 30
0.0
 10
-12.22917487291374
 20
-3.549169313041097
 30
0.0
 10
-12.2608271714928
 20
-3.554136848453136
 30
0.0
 10
-12.29099811064021
 20
-3.561584226311845
 30
0.0
 10
-12.3171883670826
 20
-3.570733009726879
 30
0.0
 10
-12.34335772203184
 20
-3.579874491829902
 30
0.0
 10
-12.36627495293242
 20
-3.590956961410311
 30
0.0
 10
-12.3840579259888
 20
-3.602874083814267
 30
0.0
 10
-12.40186072686295
 20
-3.614804493677566
 30
0.0
 10
-12.41500920716194
 20
-3.627891886110469
 30
0.0
 10
-12.42242555899058
 20
-3.640918763360637
 30
0.0
 10
-12.42735528836777
 20
-3.649577869745702
 30
0.0
 10
-12.42986613126557
 20
-3.658343117263622
 30
0.0
 10
-12.4298661312656
 20
-3.666877864537271
 30
0.0
 10
-12.42986613126564
 20
-3.679727130402035
 30
0.0
 10
-12.42408599630993
 20
-3.692338345901726
 30
0.0
 10
-12.41300006083832
 20
-3.703730671856554
 30
0.0
 10
-12.40191412358478
 20
-3.715122999642551
 30
0.0
 10
-12.3852160377905
 20
-3.725616482661929
 30
0.0
 10
-12.36427762416425
 20
-3.734505086022192
 30
0.0
 10
-12.34334131253389
 20
-3.743392797060425
 30
0.0
 10
-12.31758597678475
 20
-3.75093023960364
 30
0.0
 10
-12.2891393127941
 20
-3.75668416777081
 30
0.0
 10
-12.26072155367205
 20
-3.762432249328422
 30
0.0
 10
-12.22883342067884
 20
-3.76656729683669
 30
0.0
 10
-12.19611965911137
 20
-3.768885932881726
 30
0.0
 10
-12.17448275547155
 20
-3.770419480302704
 30
0.0
 10
-12.15216428790749
 20
-3.771193065501165
 30
0.0
 10
-12.12998139225219
 20
-3.771193065501165
 30
0.0
  0
LINE
  5
F1
330
1F
100
AcDbEntity
  8
SK3
100
AcDbLine
 10
-12.1299813923
 20
-3.7711930655
 30
0.0
 11
9.8602354154
 21
-3.7711930655
 31
0.0
  0
SPLINE
  5
F2
330
1F
100
AcDbEntity
  8
SK1
  6
Continuous
100
AcDbSpline
210
0.0
220
0.0
230
1.0
 70
     8
 71
     3
 72
    11
 73
     7
 74
     0
 42
0.0000000006593864
 43
0.0000000001
 12
1.0
 22
0.0
 32
0.0
 13
1.0
 23
0.0
 33
0.0
 40
0.0
 40
0.0
 40
0.0
 40
0.0
 40
0.6794373012482287
 40
0.6794373012482287
 40
0.6794373012482287
 40
1.0
 40
1.0
 40
1.0
 40
1.0
 10
-11.9345914946927
 20
-5.949309811405932
 30
0.0
 10
-8.528555273798595
 20
-6.392057814350761
 30
0.0
 10
-5.122502689937771
 20
-6.834698375268474
 30
0.0
 10
-1.716441426071414
 20
-7.277281906398287
 30
0.0
 10
-0.1094407666117608
 20
-7.486095539299372
 30
0.0
 10
1.497561917903066
 20
-7.694895870214581
 30
0.0
 10
3.104566174999167
 20
-7.903685869496342
 30
0.0
  0
ELLIPSE
  5
F3
330
1F
100
AcDbEntity
  8
SK1
  6
Continuous
100
AcDbEllipse
 10
49.9439825203
 20
-0.114805056
 30
0.0
 11
-62.19999965221791
 21
1.789307941927747E-7
 31
0.0
210
0.0
220
0.0
230
1.0
 40
0.9238795351
 41
0.0976561481786466
 42
0.1017061639742714
  0
ELLIPSE
  5
F4
330
1F
100
AcDbEntity
  8
SK1
  6
Continuous
100
AcDbEllipse
 10
-64.77417421
 20
-0.2121320342
 30
0.0
 11
62.20000000149339
 21
-2.255258657313469E-10
 31
0.0
210
0.0
220
0.0
230
1.0
 40
0.7071067812
 41
-0.121957899991993
 42
-0.1125736773429429
  0
SPLINE
  5
F5
330
1F
100
AcDbEntity
  8
SK3
100
AcDbSpline
210
0.0
220
0.0
230
1.0
 70
     8
 71
     3
 72
    35
 73
    31
 74
     0
 42
0.0000000122867198
 43
0.0000000001
 12
1.0
 22
0.0
 32
0.0
 13
1.0
 23
0.0
 33
0.0
 40
0.0
 40
0.0
 40
0.0
 40
0.0
 40
0.1073113564504997
 40
0.1073113564504997
 40
0.1073113564504997
 40
0.2146308055460886
 40
0.2146308055460886
 40
0.2146308055460886
 40
0.3218595831438761
 40
0.3218595831438761
 40
0.3218595831438761
 40
0.4292099305812641
 40
0.4292099305812641
 40
0.4292099305812641
 40
0.4999971245456258
 40
0.4999971245456258
 40
0.4999971245456258
 40
0.6074291257269868
 40
0.6074291257269868
 40
0.6074291257269868
 40
0.7148612730325797
 40
0.7148612730325797
 40
0.7148612730325797
 40
0.8222845345710916
 40
0.8222845345710916
 40
0.8222845345710916
 40
0.9295971447658289
 40
0.9295971447658289
 40
0.9295971447658289
 40
1.0
 40
1.0
 40
1.0
 40
1.0
 10
-2.70020994810552
 20
-3.010610281546749
 30
0.0
 10
-2.666670323021073
 20
-3.010610281546749
 30
0.0
 10
-2.632667103180722
 20
-3.006852783451599
 30
0.0
 10
-2.601016467443958
 20
-2.999585835958967
 30
0.0
 10
-2.5693641688649
 20
-2.992318506679764
 30
0.0
 10
-2.539193229717488
 20
-2.981336195559782
 30
0.0
 10
-2.513002973275094
 20
-2.967420380483444
 30
0.0
 10
-2.48683361832586
 20
-2.95351567111408
 30
0.0
 10
-2.463916387425279
 20
-2.936292914982267
 30
0.0
 10
-2.446133414368907
 20
-2.917029168649391
 30
0.0
 10
-2.428330613494752
 20
-2.897743943452948
 30
0.0
 10
-2.415182133195771
 20
-2.87587547697668
 30
0.0
 10
-2.407765781367127
 20
-2.853128343293679
 30
0.0
 10
-2.402836051989931
 20
-2.838008077190471
 30
0.0
 10
-2.400325209092134
 20
-2.82227697117231
 30
0.0
 10
-2.400325209092107
 20
-2.806506814529754
 30
0.0
 10
-2.400325209092067
 20
-2.782764467049261
 30
0.0
 10
-2.406105344047771
 20
-2.758376923538748
 30
0.0
 10
-2.417191279519384
 20
-2.735412302734911
 30
0.0
 10
-2.428277216772917
 20
-2.712447678239807
 30
0.0
 10
-2.444975302567195
 20
-2.690276708225644
 30
0.0
 10
-2.465913716193448
 20
-2.670860573517643
 30
0.0
 10
-2.486850027823806
 20
-2.651446387984786
 30
0.0
 10
-2.512605363572953
 20
-2.634257591013614
 30
0.0
 10
-2.541052027563607
 20
-2.620866699124402
 30
0.0
 10
-2.569469786685659
 20
-2.607489413820856
 30
0.0
 10
-2.60135791967886
 20
-2.597540038103303
 30
0.0
 10
-2.634071681246333
 20
-2.591939340055978
 30
0.0
 10
-2.655708584886152
 20
-2.588235034645676
 30
0.0
 10
-2.678027052450217
 20
-2.58634621283482
 30
0.0
 10
-2.70020994810552
 20
-2.58634621283482
 30
0.0
  0
SPLINE
  5
F6
330
1F
100
AcDbEntity
  8
SK1
  6
Continuous
100
AcDbSpline
210
0.0
220
0.0
230
1.0
 70
     8
 71
     3
 72
    35
 73
    31
 74
     0
 42
0.0000000123399522
 43
0.0000000001
 12
1.0
 22
0.0
 32
0.0
 13
1.0
 23
0.0
 33
0.0
 40
0.0
 40
0.0
 40
0.0
 40
0.0
 40
0.1074674443062707
 40
0.1074674443062707
 40
0.1074674443062707
 40
0.2149296990765753
 40
0.2149296990765753
 40
0.2149296990765753
 40
0.3224640795645798
 40
0.3224640795645798
 40
0.3224640795645798
 40
0.429988765618588
 40
0.429988765618588
 40
0.429988765618588
 40
0.5000019061450287
 40
0.5000019061450287
 40
0.5000019061450287
 40
0.6073325417835037
 40
0.6073325417835037
 40
0.6073325417835037
 40
0.7146565393523562
 40
0.7146565393523562
 40
0.7146565393523562
 40
0.8220822952673326
 40
0.8220822952673326
 40
0.8220822952673326
 40
0.929624916343534
 40
0.929624916343534
 40
0.929624916343534
 40
1.0
 40
1.0
 40
1.0
 40
1.0
 10
-3.036174127350642
 20
-5.138538296580597
 30
0.0
 10
-3.002914681971514
 20
-5.141846129589704
 30
0.0
 10
-2.969229324567707
 20
-5.149463316357616
 30
0.0
 10
-2.937902954648516
 20
-5.160729959621508
 30
0.0
 10
-2.906577493931817
 20
-5.171996275887406
 30
0.0
 10
-2.87674625611198
 20
-5.187219665377516
 30
0.0
 10
-2.850861753125399
 20
-5.20507667242215
 30
0.0
 10
-2.824960437876466
 20
-5.22294527778441
 30
0.0
 10
-2.802295638948118
 20
-5.243940720636104
 30
0.0
 10
-2.784731791375352
 20
-5.266252055591226
 30
0.0
 10
-2.76716993124323
 20
-5.28856086590283
 30
0.0
 10
-2.754222939251719
 20
-5.31279875053839
 30
0.0
 10
-2.746960319665044
 20
-5.33690240000026
 30
0.0
 10
-2.74219242048392
 20
-5.352726410766593
 30
0.0
 10
-2.739764584616803
 20
-5.368730765200415
 30
0.0
 10
-2.739764584616803
 20
-5.384330163400085
 30
0.0
 10
-2.739764584616803
 20
-5.408049589077359
 30
0.0
 10
-2.745467242067156
 20
-5.431364028551658
 30
0.0
 10
-2.756401775766627
 20
-5.452367034312125
 30
0.0
 10
-2.76733592769433
 20
-5.473369306767008
 30
0.0
 10
-2.783802259325145
 20
-5.492641630714215
 30
0.0
 10
-2.804447768485123
 20
-5.508657765826952
 30
0.0
 10
-2.825112711481593
 20
-5.524688977097351
 30
0.0
 10
-2.850534397542781
 20
-5.537903409630235
 30
0.0
 10
-2.878626642166813
 20
-5.547286078106757
 30
0.0
 10
-2.90674840681
 20
-5.55667860612127
 30
0.0
 10
-2.938323370379119
 20
-5.562493376627196
 30
0.0
 10
-2.970747924883387
 20
-5.564300813233627
 30
0.0
 10
-2.992139388992021
 20
-5.565493234097572
 30
0.0
 10
-3.014216702650489
 20
-5.564986150782341
 30
0.0
 10
-3.036174127350637
 20
-5.562802365292527
 30
0.0
  0
LINE
  5
F7
330
1F
100
AcDbEntity
  8
SK1
  6
Continuous
100
AcDbLine
 10
-11.9345914947
 20
-2.1395671506
 30
0.0
 11
3.104566175
 21
-2.9490962198
 31
0.0
  0
LINE
  5
F8
330
1F
100
AcDbEntity
  8
SK3
100
AcDbLine
 10
-12.1299813923
 20
-1.237361654
 30
0.0
 11
9.8602354154
 21
-1.237361654
 31
0.0
  0
SPLINE
  5
F9
330
1F
100
AcDbEntity
  8
SK1
  6
Continuous
100
AcDbSpline
210
0.0
220
0.0
230
1.0
 70
     8
 71
     3
 72
    35
 73
    31
 74
     0
 42
0.0000000108719605
 43
0.0000000001
 12
1.0
 22
0.0
 32
0.0
 13
1.0
 23
0.0
 33
0.0
 40
0.0
 40
0.0
 40
0.0
 40
0.0
 40
0.1109282350188726
 40
0.1109282350188726
 40
0.1109282350188726
 40
0.22198359616625
 40
0.22198359616625
 40
0.22198359616625
 40
0.3310796898381013
 40
0.3310796898381013
 40
0.3310796898381013
 40
0.4376166855687333
 40
0.4376166855687333
 40
0.4376166855687333
 40
0.5001075690994093
 40
0.5001075690994093
 40
0.5001075690994093
 40
0.6046394905851217
 40
0.6046394905851217
 40
0.6046394905851217
 40
0.7091265106033517
 40
0.7091265106033517
 40
0.7091265106033517
 40
0.8143265814489741
 40
0.8143265814489741
 40
0.8143265814489741
 40
0.9214452333066643
 40
0.9214452333066643
 40
0.9214452333066643
 40
1.0
 40
1.0
 40
1.0
 40
1.0
 10
-11.9345914946927
 20
-2.69389487006271
 30
0.0
 10
-11.96933648488016
 20
-2.692024085158248
 30
0.0
 10
-12.00460528049421
 20
-2.684728995177993
 30
0.0
 10
-12.03748362246069
 20
-2.672492161879216
 30
0.0
 10
-12.07038381517704
 20
-2.660247196054057
 30
0.0
 10
-12.10180695320614
 20
-2.642693563595923
 30
0.0
 10
-12.12896948560333
 20
-2.621176989180689
 30
0.0
 10
-12.1556544968031
 20
-2.600038679215512
 30
0.0
 10
-12.17897890888901
 20
-2.57446496504016
 30
0.0
 10
-12.19681635379685
 20
-2.546555278420435
 30
0.0
 10
-12.21424215769514
 20
-2.519289673485952
 30
0.0
 10
-12.22692106153266
 20
-2.48902248224831
 30
0.0
 10
-12.23370477007153
 20
-2.458288288989121
 30
0.0
 10
-12.23772238767427
 20
-2.440086116072001
 30
0.0
 10
-12.2397645846168
 20
-2.421481223319466
 30
0.0
 10
-12.2397645846168
 20
-2.403043320723688
 30
0.0
 10
-12.2397645846168
 20
-2.372483419882311
 30
0.0
 10
-12.23405061495205
 20
-2.341704014133194
 30
0.0
 10
-12.22312730320487
 20
-2.313276404992493
 30
0.0
 10
-12.21220659079782
 20
-2.284855560560801
 30
0.0
 10
-12.19578599138677
 20
-2.258008965990704
 30
0.0
 10
-12.17528248502588
 20
-2.234930428343409
 30
0.0
 10
-12.15463596615426
 20
-2.211690917272592
 30
0.0
 10
-12.12930152955736
 20
-2.191644595950054
 30
0.0
 10
-12.10139350068017
 20
-2.176352842577523
 30
0.0
 10
-12.07297823457903
 20
-2.160783156766124
 30
0.0
 10
-12.04114279634225
 20
-2.149721277235844
 30
0.0
 10
-12.00846379513291
 20
-2.143959763037424
 30
0.0
 10
-11.98434560043336
 20
-2.139707573066515
 30
0.0
 10
-11.95937106705468
 20
-2.138232936625708
 30
0.0
 10
-11.9345914946927
 20
-2.139567150555938
 30
0.0
  0
SPLINE
  5
FA
330
1F
100
AcDbEntity
  8
SK3
100
AcDbSpline
210
0.0
220
0.0
230
1.0
 70
     8
 71
     3
 72
    35
 73
    31
 74
     0
 42
0.0000000109784035
 43
0.0000000001
 12
1.0
 22
0.0
 32
0.0
 13
1.0
 23
0.0
 33
0.0
 40
0.0
 40
0.0
 40
0.0
 40
0.0
 40
0.1073113564505001
 40
0.1073113564505001
 40
0.1073113564505001
 40
0.2146308055460792
 40
0.2146308055460792
 40
0.2146308055460792
 40
0.3218595831438715
 40
0.3218595831438715
 40
0.3218595831438715
 40
0.4292099305812581
 40
0.4292099305812581
 40
0.4292099305812581
 40
0.4999971245456281
 40
0.4999971245456281
 40
0.4999971245456281
 40
0.6074291257269905
 40
0.6074291257269905
 40
0.6074291257269905
 40
0.714861273032581
 40
0.714861273032581
 40
0.714861273032581
 40
0.8222845345710887
 40
0.8222845345710887
 40
0.8222845345710887
 40
0.9295971447658311
 40
0.9295971447658311
 40
0.9295971447658311
 40
1.0
 40
1.0
 40
1.0
 40
1.0
 10
-12.12998139225219
 20
-1.237361653970231
 30
0.0
 10
-12.16352101733663
 20
-1.237361653970231
 30
0.0
 10
-12.19752423717697
 20
-1.242856551021205
 30
0.0
 10
-12.22917487291374
 20
-1.253385706284125
 30
0.0
 10
-12.26082717149279
 20
-1.263915414721547
 30
0.0
 10
-12.2909981106402
 20
-1.279768289609646
 30
0.0
 10
-12.3171883670826
 20
-1.29956777677982
 30
0.0
 10
-12.34335772203183
 20
-1.319351462697857
 30
0.0
 10
-12.36627495293241
 20
-1.343615659140882
 30
0.0
 10
-12.38405792598879
 20
-1.370276614678588
 30
0.0
 10
-12.40186072686295
 20
-1.396967296886103
 30
0.0
 10
-12.41500920716192
 20
-1.426792088942409
 30
0.0
 10
-12.42242555899057
 20
-1.457228868581134
 30
0.0
 10
-12.42735528836777
 20
-1.477460525627498
 30
0.0
 10
-12.42986613126557
 20
-1.49826584043728
 30
0.0
 10
-12.42986613126559
 20
-1.518870543056748
 30
0.0
 10
-12.42986613126564
 20
-1.54989141497399
 30
0.0
 10
-12.42408599630993
 20
-1.581168048188792
 30
0.0
 10
-12.41300006083832
 20
-1.610136733967971
 30
0.0
 10
-12.40191412358478
 20
-1.639105424403491
 30
0.0
 10
-12.38521603779051
 20
-1.666567833230636
 30
0.0
 10
-12.36427762416426
 20
-1.690316902737543
 30
0.0
 10
-12.3433413125339
 20
-1.714063588088347
 30
0.0
 10
-12.31758597678476
 20
-1.734756766277874
 30
0.0
 10
-12.2891393127941
 20
-1.750759639386231
 30
0.0
 10
-12.26072155367205
 20
-1.766746251855221
 30
0.0
 10
-12.22883342067885
 20
-1.77849622186245
 30
0.0
 10
-12.19611965911137
 20
-1.785101446612271
 30
0.0
 10
-12.17448275547155
 20
-1.789470146651134
 30
0.0
 10
-12.15216428790749
 20
-1.791689373477003
 30
0.0
 10
-12.12998139225219
 20
-1.791689373477003
 30
0.0
  0
LINE
  5
FB
330
1F
100
AcDbEntity
  8
SK3
100
AcDbLine
 10
-12.1299813923
 20
-1.7916893735
 30
0.0
 11
9.8602354154
 21
-1.7916893735
 31
0.0
  0
LINE
  5
FC
330
1F
100
AcDbEntity
  8
SK1
  6
Continuous
100
AcDbLine
 10
-11.9345914947
 20
-2.6938948701
 30
0.0
 11
3.104566175
 21
-3.5034239393
 31
0.0
  0
ELLIPSE
  5
FD
330
1F
100
AcDbEntity
  8
SK1
  6
Continuous
100
AcDbEllipse
 10
49.9439825214
 20
-0.2771638706
 30
0.0
 11
-62.19999965330643
 21
1.267803869600406E-8
 31
0.0
210
0.0
220
0.0
230
1.0
 40
0.3826834334
 41
0.0791649679847772
 42
0.1017061613936301
  0
LINE
  5
FE
330
1F
100
AcDbEntity
  8
SK3
100
AcDbLine
 10
-3.0361741274
 20
-0.3
 30
0.0
 11
-2.7002099481
 21
-0.3
 31
0.0
  0
ARC
  5
FF
330
1F
100
AcDbEntity
  8
SK3
100
AcDbCircle
 10
-2.7002957403
 20
0.0
 30
0.0
 40
0.3000000122671578
100
AcDbArc
 50
270.0163850952
 51
89.9836149048
  0
ARC
  5
100
330
1F
100
AcDbEntity
  8
SK1
  6
Continuous
100
AcDbCircle
 10
-3.0397735368
 20
0.0
 30
0.0
 40
0.300021592137468
100
AcDbArc
 50
270.6874035924
 51
89.3125964076
  0
LINE
  5
101
330
1F
100
AcDbEntity
  8
SK3
100
AcDbLine
 10
-2.7002099481
 20
0.3
 30
0.0
 11
-3.0361741274
 21
0.3
 31
0.0
  0
SPLINE
  5
102
330
1F
100
AcDbEntity
  8
SK3
100
AcDbSpline
210
0.0
220
0.0
230
1.0
 70
     8
 71
     3
 72
     8
 73
     4
 74
     0
 42
0.000000149436589
 43
0.0000000001
 12
1.0
 22
0.0
 32
0.0
 13
1.0
 23
0.0
 33
0.0
 40
0.0
 40
0.0
 40
0.0
 40
0.0
 40
1.0
 40
1.0
 40
1.0
 40
1.0
 10
-12.2397645846168
 20
-2.403043320723689
 30
0.0
 10
-12.2397645846168
 20
-2.425033337523788
 30
0.0
 10
-12.23680599198564
 20
-2.447345937821539
 30
0.0
 10
-12.23107682144065
 20
-2.46902167534645
 30
0.0
  0
LINE
  5
103
330
1F
100
AcDbEntity
  8
SK1
  6
Continuous
100
AcDbLine
 10
-11.9345914947
 20
2.6938948701
 30
0.0
 11
3.104566175
 21
3.5034239393
 31
0.0
  0
LINE
  5
104
330
1F
100
AcDbEntity
  8
SK3
100
AcDbLine
 10
-12.1299813923
 20
1.7916893735
 30
0.0
 11
9.8602354154
 21
1.7916893735
 31
0.0
  0
ELLIPSE
  5
105
330
1F
100
AcDbEntity
  8
SK1
  6
Continuous
100
AcDbEllipse
 10
49.9439825196
 20
0.277163871
 30
0.0
 11
-62.1999996514546
 21
-1.307538156932417E-8
 31
0.0
210
0.0
220
0.0
230
1.0
 40
0.3826834334
 41
-0.10170616139757
 42
-0.0791143844797153
  0
SPLINE
  5
106
330
1F
100
AcDbEntity
  8
SK1
  6
Continuous
100
AcDbSpline
210
0.0
220
0.0
230
1.0
 70
     8
 71
     3
 72
    35
 73
    31
 74
     0
 42
0.0000000108716644
 43
0.0000000001
 12
1.0
 22
0.0
 32
0.0
 13
1.0
 23
0.0
 33
0.0
 40
0.0
 40
0.0
 40
0.0
 40
0.0
 40
0.1109282350188697
 40
0.1109282350188697
 40
0.1109282350188697
 40
0.2219835961662447
 40
0.2219835961662447
 40
0.2219835961662447
 40
0.3310796898380918
 40
0.3310796898380918
 40
0.3310796898380918
 40
0.4376166855687228
 40
0.4376166855687228
 40
0.4376166855687228
 40
0.5001075690994052
 40
0.5001075690994052
 40
0.5001075690994052
 40
0.6046394905851171
 40
0.6046394905851171
 40
0.6046394905851171
 40
0.7091265106033473
 40
0.7091265106033473
 40
0.7091265106033473
 40
0.8143265814489673
 40
0.8143265814489673
 40
0.8143265814489673
 40
0.9214452333066556
 40
0.9214452333066556
 40
0.9214452333066556
 40
1.0
 40
1.0
 40
1.0
 40
1.0
 10
-11.9345914946927
 20
2.139567150555942
 30
0.0
 10
-11.96933648488016
 20
2.137696365651479
 30
0.0
 10
-12.00460528049421
 20
2.14141619772179
 30
0.0
 10
-12.0374836224607
 20
2.150508979411585
 30
0.0
 10
-12.07038381517704
 20
2.159607804109827
 30
0.0
 10
-12.10180695320614
 20
2.174357109039048
 30
0.0
 10
-12.12896948560333
 20
2.193570593494719
 30
0.0
 10
-12.1556544968031
 20
2.212446302150621
 30
0.0
 10
-12.17897890888901
 20
2.236172399194785
 30
0.0
 10
-12.19681635379685
 20
2.262714206982499
 30
0.0
 10
-12.21424215769514
 20
2.288643500107393
 30
0.0
 10
-12.22692106153265
 20
2.31798998949832
 30
0.0
 10
-12.23370477007153
 20
2.348234010032906
 30
0.0
 10
-12.23772238767426
 20
2.366145880594692
 30
0.0
 10
-12.2397645846168
 20
2.384605418127912
 30
0.0
 10
-12.2397645846168
 20
2.403043320723691
 30
0.0
 10
-12.2397645846168
 20
2.433603221565069
 30
0.0
 10
-12.23405061495205
 20
2.46478613224583
 30
0.0
 10
-12.22312730320487
 20
2.494016918974668
 30
0.0
 10
-12.21220659079782
 20
2.523240749868238
 30
0.0
 10
-12.19578599138677
 20
2.551314443841803
 30
0.0
 10
-12.17528248502589
 20
2.576018164506902
 30
0.0
 10
-12.15463596615427
 20
2.600894194290973
 30
0.0
 10
-12.12930152955736
 20
2.62302857305481
 30
0.0
 10
-12.10139350068017
 20
2.640778100882916
 30
0.0
 10
-12.07297823457903
 20
2.658850231975531
 30
0.0
 10
-12.04114279634226
 20
2.672867918653671
 30
0.0
 10
-12.00846379513291
 20
2.681866037510989
 30
0.0
 10
-11.98434560043336
 20
2.688506949855288
 30
0.0
 10
-11.95937106705468
 20
2.692560656132483
 30
0.0
 10
-11.93459149469269
 20
2.693894870062714
 30
0.0
  0
SPLINE
  5
107
330
1F
100
AcDbEntity
  8
SK3
100
AcDbSpline
210
0.0
220
0.0
230
1.0
 70
     8
 71
     3
 72
    35
 73
    31
 74
     0
 42
0.0000000109786648
 43
0.0000000001
 12
1.0
 22
0.0
 32
0.0
 13
1.0
 23
0.0
 33
0.0
 40
0.0
 40
0.0
 40
0.0
 40
0.0
 40
0.1073113564504933
 40
0.1073113564504933
 40
0.1073113564504933
 40
0.2146308055460759
 40
0.2146308055460759
 40
0.2146308055460759
 40
0.321859583143879
 40
0.321859583143879
 40
0.321859583143879
 40
0.4292099305812539
 40
0.4292099305812539
 40
0.4292099305812539
 40
0.4999971245456189
 40
0.4999971245456189
 40
0.4999971245456189
 40
0.6074291257269891
 40
0.6074291257269891
 40
0.6074291257269891
 40
0.7148612730325876
 40
0.7148612730325876
 40
0.7148612730325876
 40
0.8222845345710922
 40
0.8222845345710922
 40
0.8222845345710922
 40
0.9295971447658347
 40
0.9295971447658347
 40
0.9295971447658347
 40
1.0
 40
1.0
 40
1.0
 40
1.0
 10
-12.12998139225219
 20
1.791689373477007
 30
0.0
 10
-12.16352101733663
 20
1.791689373477007
 30
0.0
 10
-12.19752423717698
 20
1.786537448058336
 30
0.0
 10
-12.22917487291374
 20
1.776614248329508
 30
0.0
 10
-12.2608271714928
 20
1.766690527261508
 30
0.0
 10
-12.29099811064021
 20
1.75171855445086
 30
0.0
 10
-12.3171883670826
 20
1.7328666345818
 30
0.0
 10
-12.34335772203184
 20
1.714029759745803
 30
0.0
 10
-12.36627495293242
 20
1.690797473636395
 30
0.0
 10
-12.3840579259888
 20
1.665010311133097
 30
0.0
 10
-12.40186072686295
 20
1.639194396229539
 30
0.0
 10
-12.41500920716194
 20
1.610103163241468
 30
0.0
 10
-12.42242555899058
 20
1.580085933931593
 30
0.0
 10
-12.42735528836777
 20
1.56013315653241
 30
0.0
 10
-12.42986613126557
 20
1.539475245676899
 30
0.0
 10
-12.4298661312656
 20
1.518870543057434
 30
0.0
 10
-12.42986613126564
 20
1.487849671140192
 30
0.0
 10
-12.42408599630993
 20
1.456229047762138
 30
0.0
 10
-12.41300006083832
 20
1.426653465403925
 30
0.0
 10
-12.40191412358478
 20
1.39707787829182
 30
0.0
 10
-12.3852160377905
 20
1.368733650292416
 30
0.0
 10
-12.36427762416425
 20
1.344035997462272
 30
0.0
 10
-12.34334131253389
 20
1.319340824015993
 30
0.0
 10
-12.31758597678475
 20
1.297613693314979
 30
0.0
 10
-12.2891393127941
 20
1.280736141295375
 30
0.0
 10
-12.26072155367205
 20
1.263875738682942
 30
0.0
 10
-12.22883342067884
 20
1.251393819249502
 30
0.0
 10
-12.19611965911137
 20
1.244371256870823
 30
0.0
 10
-12.17448275547155
 20
1.239726529446901
 30
0.0
 10
-12.15216428790749
 20
1.237361653970235
 30
0.0
 10
-12.12998139225219
 20
1.237361653970234
 30
0.0
  0
LINE
  5
108
330
1F
100
AcDbEntity
  8
SK3
100
AcDbLine
 10
-12.1299813923
 20
1.237361654
 30
0.0
 11
9.8602354154
 21
1.237361654
 31
0.0
  0
LINE
  5
109
330
1F
100
AcDbEntity
  8
SK1
  6
Continuous
100
AcDbLine
 10
-11.9345914947
 20
2.1395671506
 30
0.0
 11
3.104566175
 21
2.9490962198
 31
0.0
  0
SPLINE
  5
10A
330
1F
100
AcDbEntity
  8
SK3
100
AcDbSpline
210
0.0
220
0.0
230
1.0
 70
     8
 71
     3
 72
    35
 73
    31
 74
     0
 42
0.0000000122861565
 43
0.0000000001
 12
1.0
 22
0.0
 32
0.0
 13
1.0
 23
0.0
 33
0.0
 40
0.0
 40
0.0
 40
0.0
 40
0.0
 40
0.1073113564504997
 40
0.1073113564504997
 40
0.1073113564504997
 40
0.2146308055460891
 40
0.2146308055460891
 40
0.2146308055460891
 40
0.3218595831438767
 40
0.3218595831438767
 40
0.3218595831438767
 40
0.4292099305812647
 40
0.4292099305812647
 40
0.4292099305812647
 40
0.4999971245456242
 40
0.4999971245456242
 40
0.4999971245456242
 40
0.6074291257269887
 40
0.6074291257269887
 40
0.6074291257269887
 40
0.7148612730325805
 40
0.7148612730325805
 40
0.7148612730325805
 40
0.8222845345710907
 40
0.8222845345710907
 40
0.8222845345710907
 40
0.9295971447658282
 40
0.9295971447658282
 40
0.9295971447658282
 40
1.0
 40
1.0
 40
1.0
 40
1.0
 10
-2.70020994810552
 20
2.586346212834824
 30
0.0
 10
-2.666670323021073
 20
2.586346212834824
 30
0.0
 10
-2.632667103180722
 20
2.590737439872606
 30
0.0
 10
-2.601016467443958
 20
2.599124047196359
 30
0.0
 10
-2.5693641688649
 20
2.607511095130703
 30
0.0
 10
-2.539193229717488
 20
2.620121101049698
 30
0.0
 10
-2.513002973275094
 20
2.635787792196392
 30
0.0
 10
-2.48683361832586
 20
2.651441980325463
 30
0.0
 10
-2.463916387425279
 20
2.670571458130514
 30
0.0
 10
-2.446133414368907
 20
2.691449763463676
 30
0.0
 10
-2.428330613494753
 20
2.712351347875789
 30
0.0
 10
-2.415182133195772
 20
2.735575254770104
 30
0.0
 10
-2.407765781367129
 20
2.759097616376467
 30
0.0
 10
-2.402836051989933
 20
2.774733184875801
 30
0.0
 10
-2.400325209092136
 20
2.79073665788668
 30
0.0
 10
-2.400325209092109
 20
2.806506814529238
 30
0.0
 10
-2.400325209092068
 20
2.830249162009736
 30
0.0
 10
-2.406105344047771
 20
2.854001094577826
 30
0.0
 10
-2.417191279519384
 20
2.875844316726226
 30
0.0
 10
-2.428277216772918
 20
2.89768754238564
 30
0.0
 10
-2.44497530256719
 20
2.918229123030551
 30
0.0
 10
-2.465913716193444
 20
2.93589250430411
 30
0.0
 10
-2.486850027823803
 20
2.953554112360483
 30
0.0
 10
-2.512605363572952
 20
2.968832414205745
 30
0.0
 10
-2.541052027563605
 20
2.980607110207717
 30
0.0
 10
-2.569469786685657
 20
2.992369841852783
 30
0.0
 10
-2.601357919678859
 20
3.000966751382927
 30
0.0
 10
-2.634071681246332
 20
3.005796310043351
 30
0.0
 10
-2.655708584886151
 20
3.008990583350714
 30
0.0
 10
-2.678027052450216
 20
3.010610281546753
 30
0.0
 10
-2.70020994810552
 20
3.010610281546753
 30
0.0
  0
SPLINE
  5
10B
330
1F
100
AcDbEntity
  8
SK1
  6
Continuous
100
AcDbSpline
210
0.0
220
0.0
230
1.0
 70
     8
 71
     3
 72
    35
 73
    31
 74
     0
 42
0.0000000123404959
 43
0.0000000001
 12
1.0
 22
0.0
 32
0.0
 13
1.0
 23
0.0
 33
0.0
 40
0.0
 40
0.0
 40
0.0
 40
0.0
 40
0.1074674443062806
 40
0.1074674443062806
 40
0.1074674443062806
 40
0.2149296990765917
 40
0.2149296990765917
 40
0.2149296990765917
 40
0.3224640795646004
 40
0.3224640795646004
 40
0.3224640795646004
 40
0.4299887656186115
 40
0.4299887656186115
 40
0.4299887656186115
 40
0.5000019061450258
 40
0.5000019061450258
 40
0.5000019061450258
 40
0.6073325417834998
 40
0.6073325417834998
 40
0.6073325417834998
 40
0.7146565393523522
 40
0.7146565393523522
 40
0.7146565393523522
 40
0.8220822952673292
 40
0.8220822952673292
 40
0.8220822952673292
 40
0.9296249163435369
 40
0.9296249163435369
 40
0.9296249163435369
 40
1.0
 40
1.0
 40
1.0
 40
1.0
 10
-3.036174127350636
 20
5.562802365292531
 30
0.0
 10
-3.002914681971505
 20
5.566110198301638
 30
0.0
 10
-2.969229324567696
 20
5.565526839103005
 30
0.0
 10
-2.937902954648503
 20
5.561077623148513
 30
0.0
 10
-2.906577493931803
 20
5.55662853632607
 30
0.0
 10
-2.876746256111963
 20
5.548189362595338
 30
0.0
 10
-2.850861753125382
 20
5.536394086023086
 30
0.0
 10
-2.824960437876449
 20
5.524591148292172
 30
0.0
 10
-2.802295638948099
 20
5.50909827840923
 30
0.0
 10
-2.784731791375335
 20
5.491120789172474
 30
0.0
 10
-2.767169931243215
 20
5.473145334182066
 30
0.0
 10
-2.754222939251716
 20
5.452185440065605
 30
0.0
 10
-2.746960319665043
 20
5.429925894466241
 30
0.0
 10
-2.742192420483924
 20
5.415312535199835
 30
0.0
 10
-2.739764584616805
 20
5.399929561599751
 30
0.0
 10
-2.739764584616805
 20
5.384330163400088
 30
0.0
 10
-2.739764584616805
 20
5.360610737722814
 30
0.0
 10
-2.745467242067152
 20
5.335832251829768
 30
0.0
 10
-2.756401775766622
 20
5.312072369028699
 30
0.0
 10
-2.767335927694326
 20
5.288313315787692
 30
0.0
 10
-2.783802259325144
 20
5.264920180098247
 30
0.0
 10
-2.804447768485121
 20
5.243887108398376
 30
0.0
 10
-2.825112711481592
 20
5.222834238045285
 30
0.0
 10
-2.850534397542779
 20
5.203568984868641
 30
0.0
 10
-2.878626642166811
 20
5.187755880233849
 30
0.0
 10
-2.906748406809998
 20
5.171926158801151
 30
0.0
 10
-2.93832337037912
 20
5.159122645012995
 30
0.0
 10
-2.97074792488339
 20
5.150461539546567
 30
0.0
 10
-2.992139388992023
 20
5.144747545027327
 30
0.0
 10
-3.01421670265049
 20
5.140722082070415
 30
0.0
 10
-3.036174127350636
 20
5.138538296580601
 30
0.0
  0
ELLIPSE
  5
10C
330
1F
100
AcDbEntity
  8
SK1
  6
Continuous
100
AcDbEllipse
 10
-64.7741742097
 20
0.2121320343
 30
0.0
 11
62.20000000125987
 21
1.386648008123843E-10
 31
0.0
210
0.0
220
0.0
230
1.0
 40
0.7071067812
 41
0.1125209187730721
 42
0.121957899993224
  0
LINE
  5
10D
330
1F
100
AcDbEntity
  8
SK1
  6
Continuous
100
AcDbLine
 10
3.104566175
 20
8.4359598646
 30
0.0
 11
-2.7397645846
 21
7.6145927414
 31
0.0
  0
LINE
  5
10E
330
1F
100
AcDbEntity
  8
SK1
  6
Continuous
100
AcDbLine
 10
-2.7397645846
 20
-7.6145927414
 30
0.0
 11
3.104566175
 21
-8.4359598646
 31
0.0
  0
LINE
  5
10F
330
1F
100
AcDbEntity
  8
SK3
100
AcDbLine
 10
-2.4003252091
 20
-3.969
 30
0.0
 11
9.8602354154
 21
-3.969
 31
0.0
  0
LINE
  5
110
330
1F
100
AcDbEntity
  8
SK3
100
AcDbLine
 10
9.8602354154
 20
3.969
 30
0.0
 11
-2.4003252091
 21
3.969
 31
0.0
  0
LINE
  5
111
330
1F
100
AcDbEntity
  8
SK1
  6
Continuous
100
AcDbLine
 10
6.2602354154
 20
-8.5
 30
0.0
 11
6.4767417663
 21
-8.5
 31
0.0
  0
ARC
  5
112
330
1F
100
AcDbEntity
  8
SK3
100
AcDbCircle
 10
9.8602354154
 20
-4.369
 30
0.0
 40
0.3999999999999998
100
AcDbArc
 50
0.0
 51
90.0
  0
ARC
  5
113
330
1F
100
AcDbEntity
  8
SK1
  6
Continuous
100
AcDbCircle
 10
3.1602354154
 20
-8.0398526371
 30
0.0
 40
0.4000000000000008
100
AcDbArc
 50
262.0
 51
0.0
  0
ARC
  5
114
330
1F
100
AcDbEntity
  8
SK1
  6
Continuous
100
AcDbCircle
 10
10.0102354154
 20
-6.1712613559
 30
0.0
 40
0.2499999999999996
100
AcDbArc
 50
300.0
 51
0.0
  0
ARC
  5
115
330
1F
100
AcDbEntity
  8
SK1
  6
Continuous
100
AcDbCircle
 10
3.7602354154
 20
-7.1
 30
0.0
 40
0.2000000000000001
100
AcDbArc
 50
90.0
 51
180.0
  0
LINE
  5
116
330
1F
100
AcDbEntity
  8
SK1
  6
Continuous
100
AcDbLine
 10
3.7602354154
 20
-6.9
 30
0.0
 11
6.0602354154
 21
-6.9
 31
0.0
  0
ARC
  5
117
330
1F
100
AcDbEntity
  8
SK1
  6
Continuous
100
AcDbCircle
 10
6.0602354154
 20
-7.1
 30
0.0
 40
0.1999999999999994
100
AcDbArc
 50
0.0
 51
90.0
  0
LINE
  5
118
330
1F
100
AcDbEntity
  8
SK1
  6
Continuous
100
AcDbLine
 10
6.4767417663
 20
-8.5
 30
0.0
 11
10.1352354154
 21
-6.3877677069
 31
0.0
  0
LINE
  5
119
330
1F
100
AcDbEntity
  8
SK1
  6
Continuous
100
AcDbLine
 10
6.4767417663
 20
8.5
 30
0.0
 11
6.2602354154
 21
8.5
 31
0.0
  0
ARC
  5
11A
330
1F
100
AcDbEntity
  8
SK3
100
AcDbCircle
 10
9.8602354154
 20
4.369
 30
0.0
 40
0.3999999999999993
100
AcDbArc
 50
270.0
 51
0.0
  0
ARC
  5
11B
330
1F
100
AcDbEntity
  8
SK1
  6
Continuous
100
AcDbCircle
 10
3.1602354154
 20
8.0398526371
 30
0.0
 40
0.4000000000000006
100
AcDbArc
 50
0.0
 51
98.0
  0
ARC
  5
11C
330
1F
100
AcDbEntity
  8
SK1
  6
Continuous
100
AcDbCircle
 10
10.0102354154
 20
6.1712613559
 30
0.0
 40
0.2499999999999994
100
AcDbArc
 50
0.0
 51
60.0
  0
ARC
  5
11D
330
1F
100
AcDbEntity
  8
SK1
  6
Continuous
100
AcDbCircle
 10
3.7602354154
 20
7.1
 30
0.0
 40
0.2000000000000005
100
AcDbArc
 50
180.0
 51
270.0
  0
LINE
  5
11E
330
1F
100
AcDbEntity
  8
SK1
  6
Continuous
100
AcDbLine
 10
6.0602354154
 20
6.9
 30
0.0
 11
3.7602354154
 21
6.9
 31
0.0
  0
ARC
  5
11F
330
1F
100
AcDbEntity
  8
SK1
  6
Continuous
100
AcDbCircle
 10
6.0602354154
 20
7.1
 30
0.0
 40
0.1999999999999971
100
AcDbArc
 50
270.0
 51
360.0
  0
LINE
  5
120
330
1F
100
AcDbEntity
  8
SK1
  6
Continuous
100
AcDbLine
 10
10.1352354154
 20
6.3877677069
 30
0.0
 11
6.4767417663
 21
8.5
 31
0.0
  0
ARC
  5
121
330
1F
100
AcDbEntity
  8
SK3
100
AcDbCircle
 10
40.0873002917
 20
0.0623037975
 30
0.0
 40
52.64082863017291
100
AcDbArc
 50
173.7353228875
 51
176.0850758916
  0
ARC
  5
122
330
1F
100
AcDbEntity
  8
SK3
100
AcDbCircle
 10
-64.7741742085
 20
0.0
 30
0.0
 40
62.49999999999999
100
AcDbArc
 50
353.002075969
 51
356.3590551477
  0
ARC
  5
123
330
1F
100
AcDbEntity
  8
SK3
100
AcDbCircle
 10
-64.7741742085
 20
0.0
 30
0.0
 40
62.49999999999999
100
AcDbArc
 50
3.6409570816
 51
6.9979052529
  0
ARC
  5
124
330
1F
100
AcDbEntity
  8
SK3
100
AcDbCircle
 10
39.4423487771
 20
-0.1141581612
 30
0.0
 40
51.99384229639585
100
AcDbArc
 50
183.9064398078
 51
186.2852742958
  0
ARC
  5
125
330
1F
100
AcDbEntity
  8
SK3
100
AcDbCircle
 10
-34.0062424814
 20
0.0249779247
 30
0.0
 40
31.73305869910832
100
AcDbArc
 50
350.139071432
 51
354.8564988929
  0
ARC
  5
126
330
1F
100
AcDbEntity
  8
SK3
100
AcDbCircle
 10
-2.8695503596
 20
0.0247619536
 30
0.0
 40
9.687494296843479
100
AcDbArc
 50
189.3855075133
 51
194.9158680652
  0
ARC
  5
127
330
1F
100
AcDbEntity
  8
SK3
100
AcDbCircle
 10
-2.7607100267
 20
-0.0456936924
 30
0.0
 40
9.798291535048335
100
AcDbArc
 50
165.1292010035
 51
170.597521535
  0
ARC
  5
128
330
1F
100
AcDbEntity
  8
SK3
100
AcDbCircle
 10
-34.0039953485
 20
-0.0233977324
 30
0.0
 40
31.73062655778311
100
AcDbArc
 50
5.1410251945
 51
9.8589652241
  0
LINE
  5
129
330
1F
100
AcDbEntity
  8
SK1
  6
Continuous
100
AcDbLine
 10
0.0
 20
7.999641543
 30
0.0
 11
0.0
 21
-7.999641543
 31
0.0
  0
LINE
  5
12B
330
1F
100
AcDbEntity
  8
SK4
  6
Continuous
100
AcDbLine
 10
10.2602354154
 20
0.0
 30
0.0
 11
-17.2397645846
 21
0.0
 31
0.0
  0
DIMENSION
  5
141
330
1F
100
AcDbEntity
  8
SK2
  6
Continuous
 62
   136
100
AcDbDimension
  2
DMBLK103
 10
10.2602354154
 20
16.1127574147
 30
0.0
 11
-3.4897646591
 21
16.1127574147
 31
0.0
 70
   160
  1
\A1;<>
 71
     5
 42
-1.0
  3
DIN
100
AcDbAlignedDimension
 13
-17.2397645846
 23
5.3945579902
 33
0.0
 14
10.2602354154
 24
2.6360112113
 34
0.0
100
AcDbRotatedDimension
  0
DIMENSION
  5
14B
330
1F
100
AcDbEntity
  8
SK2
  6
Continuous
 62
   136
100
AcDbDimension
  2
DMBLK104
 10
20.3158940747
 20
-3.969
 30
0.0
 11
20.3158940747
 21
8.0875164834
 31
0.0
 70
   161
  1
\A1;ø <>
 71
     5
 42
-1.0
  3
DIN
100
AcDbAlignedDimension
 13
9.8602354154
 23
-3.969
 33
0.0
 14
9.8602354154
 24
3.969
 34
0.0
  0
DIMENSION
  5
156
330
1F
100
AcDbEntity
  8
SK2
  6
Continuous
 62
   136
100
AcDbDimension
  2
DMBLK105
 10
10.2602354154
 20
-16.3622337409
 30
0.0
 11
5.1301177591
 21
-16.3622337409
 31
0.0
 70
   160
  1
\A1;<>
 71
     5
 42
-1.0
  3
DIN
100
AcDbAlignedDimension
 13
0.0
 23
-7.999641543
 33
0.0
 14
10.2602354154
 24
-5.5799562379
 34
0.0
100
AcDbRotatedDimension
  0
DIMENSION
  5
160
330
1F
100
AcDbEntity
  8
SK2
  6
Continuous
 62
   136
100
AcDbDimension
  2
DMBLK106
 10
-22.9914728552
 20
7.999641543
 30
0.0
 11
-22.9914728552
 21
-0.0000002778
 31
0.0
 70
   161
  1
\A1;ø <>
 71
     5
 42
-1.0
  3
DIN
100
AcDbAlignedDimension
 13
0.0
 23
7.999641543
 33
0.0
 14
0.0
 24
-7.999641543
 34
0.0
  0
INSERT
  5
175
330
1F
100
AcDbEntity
  8
SK2
 62
     7
100
AcDbBlockReference
  2
Nullpunkt
 10
0.0
 20
0.0000000998
 30
0.0
  0
INSERT
  5
180
330
1F
100
AcDbEntity
  8
SK2
 62
     7
100
AcDbBlockReference
  2
Einfügepunkt
 10
10.2602354154
 20
0.0
 30
0.0
  0
ENDSEC
  0
SECTION
  2
OBJECTS
  0
DICTIONARY
  5
C
330
0
100
AcDbDictionary
281
     1
  3
ACAD_GROUP
350
D
  3
ACAD_LAYOUT
350
1A
  3
ACAD_MATERIAL
350
3B
  3
ACAD_MLEADERSTYLE
350
183
  3
ACAD_MLINESTYLE
350
17
  3
ACAD_PLOTSETTINGS
350
19
  3
ACAD_PLOTSTYLENAME
350
E
  3
ACAD_VISUALSTYLE
350
2A
  3
AcDbVariableDictionary
350
181
  0
DICTIONARY
  5
D
102
{ACAD_REACTORS
330
C
102
}
330
C
100
AcDbDictionary
281
     1
  0
DICTIONARY
  5
1A
102
{ACAD_REACTORS
330
C
102
}
330
C
100
AcDbDictionary
281
     1
  3
Layout1
350
1E
  3
Model
350
22
  0
DICTIONARY
  5
3B
102
{ACAD_REACTORS
330
C
102
}
330
C
100
AcDbDictionary
281
     1
  3
ByBlock
350
3D
  3
ByLayer
350
3C
  3
Global
350
3E
  0
DICTIONARY
  5
183
102
{ACAD_REACTORS
330
C
102
}
330
C
100
AcDbDictionary
281
     1
  0
DICTIONARY
  5
17
102
{ACAD_REACTORS
330
C
102
}
330
C
100
AcDbDictionary
281
     1
  3
Standard
350
18
  0
DICTIONARY
  5
19
102
{ACAD_REACTORS
330
C
102
}
330
C
100
AcDbDictionary
281
     1
  0
ACDBDICTIONARYWDFLT
  5
E
102
{ACAD_REACTORS
330
C
102
}
330
C
100
AcDbDictionary
281
     1
  3
Normal
350
F
100
AcDbDictionaryWithDefault
340
F
  0
DICTIONARY
  5
2A
102
{ACAD_REACTORS
330
C
102
}
330
C
100
AcDbDictionary
281
     1
  3
2dWireframe
350
2F
  3
3D Hidden
350
31
  3
3dWireframe
350
30
  3
Basic
350
32
  3
Brighten
350
36
  3
ColorChange
350
3A
  3
Conceptual
350
34
  3
Dim
350
35
  3
Facepattern
350
39
  3
Flat
350
2B
  3
FlatWithEdges
350
2C
  3
Gouraud
350
2D
  3
GouraudWithEdges
350
2E
  3
Linepattern
350
38
  3
Realistic
350
33
  3
Thicken
350
37
  0
DICTIONARY
  5
181
102
{ACAD_REACTORS
330
C
102
}
330
C
100
AcDbDictionary
281
     1
  3
DIMASSOC
350
186
  3
HIDETEXT
350
187
  3
PSOLHEIGHT
350
185
  3
PSOLWIDTH
350
184
  0
LAYOUT
  5
1E
102
{ACAD_REACTORS
330
1A
102
}
330
1A
100
AcDbPlotSettings
  1

  2
none_device
  4

  6

 40
0.0
 41
0.0
 42
0.0
 43
0.0
 44
0.0
 45
0.0
 46
0.0
 47
0.0
 48
0.0
 49
0.0
140
0.0
141
0.0
142
1.0
143
1.0
 70
   688
 72
     0
 73
     0
 74
     5
  7

 75
    16
147
1.0
148
0.0
149
0.0
100
AcDbLayout
  1
Layout1
 70
     1
 71
     1
 10
0.0
 20
0.0
 11
210.0
 21
297.0
 12
0.0
 22
0.0
 32
0.0
 14
0.0
 24
0.0
 34
0.0
 15
210.0
 25
297.0
 35
0.0
146
0.0
 13
0.0
 23
0.0
 33
0.0
 16
1.0
 26
0.0
 36
0.0
 17
0.0
 27
1.0
 37
0.0
 76
     0
330
1B
  0
LAYOUT
  5
22
102
{ACAD_REACTORS
330
1A
102
}
330
1A
100
AcDbPlotSettings
  1

  2
none_device
  4

  6

 40
0.0
 41
0.0
 42
0.0
 43
0.0
 44
0.0
 45
0.0
 46
0.0
 47
0.0
 48
0.0
 49
0.0
140
0.0
141
0.0
142
1.0
143
1.0
 70
  1712
 72
     0
 73
     0
 74
     0
  7

 75
     0
147
1.0
148
0.0
149
0.0
100
AcDbLayout
  1
Model
 70
     1
 71
     0
 10
0.0
 20
0.0
 11
210.0
 21
297.0
 12
0.0
 22
0.0
 32
0.0
 14
0.0
 24
0.0
 34
0.0
 15
210.0
 25
297.0
 35
0.0
146
0.0
 13
0.0
 23
0.0
 33
0.0
 16
1.0
 26
0.0
 36
0.0
 17
0.0
 27
1.0
 37
0.0
 76
     0
330
1F
331
29
  0
MATERIAL
  5
3D
102
{ACAD_REACTORS
330
3B
102
}
102
{ACAD_XDICTIONARY
360
1AA
102
}
330
3B
100
AcDbMaterial
  1
ByBlock
  0
MATERIAL
  5
3C
102
{ACAD_REACTORS
330
3B
102
}
102
{ACAD_XDICTIONARY
360
1A8
102
}
330
3B
100
AcDbMaterial
  1
ByLayer
  0
MATERIAL
  5
3E
102
{ACAD_REACTORS
330
3B
102
}
102
{ACAD_XDICTIONARY
360
1AC
102
}
330
3B
100
AcDbMaterial
  1
Global
  0
MLINESTYLE
  5
18
102
{ACAD_REACTORS
330
17
102
}
330
17
100
AcDbMlineStyle
  2
Standard
 70
     0
  3

 62
   256
 51
90.0
 52
90.0
 71
     2
 49
0.5
 62
   256
  6
BYLAYER
 49
-0.5
 62
   256
  6
BYLAYER
  0
ACDBPLACEHOLDER
  5
F
102
{ACAD_REACTORS
330
E
102
}
330
E
  0
VISUALSTYLE
  5
2F
102
{ACAD_REACTORS
330
2A
102
}
102
{ACAD_XDICTIONARY
360
190
102
}
330
2A
100
AcDbVisualStyle
  2
2dWireframe
 70
     4
 71
     0
 72
     2
 73
     0
 90
        0
 40
-0.6
 41
-30.0
 62
     5
 63
     7
 74
     1
 91
        4
 64
     7
 65
   257
 75
     1
175
     1
 42
1.0
 92
        0
 66
   257
 43
1.0
 76
     1
 77
     6
 78
     2
 67
     7
 79
     5
170
     0
171
     0
290
     0
174
     0
 93
        1
 44
0.0
173
     0
291
     0
 45
0.0
1001
ACAD
1000
AcDbSavedByObjectVersion
1070
     0
  0
VISUALSTYLE
  5
31
102
{ACAD_REACTORS
330
2A
102
}
102
{ACAD_XDICTIONARY
360
194
102
}
330
2A
100
AcDbVisualStyle
  2
3D Hidden
 70
     6
 71
     1
 72
     2
 73
     2
 90
        0
 40
-0.6
 41
-30.0
 62
     5
 63
     7
 74
     2
 91
        2
 64
     7
 65
   257
 75
     2
175
     1
 42
40.0
 92
        0
 66
   257
 43
1.0
 76
     1
 77
     6
 78
     2
 67
     7
 79
     3
170
     0
171
     0
290
     0
174
     0
 93
        1
 44
0.0
173
     0
291
     0
 45
0.0
1001
ACAD
1000
AcDbSavedByObjectVersion
1070
     0
  0
VISUALSTYLE
  5
30
102
{ACAD_REACTORS
330
2A
102
}
102
{ACAD_XDICTIONARY
360
192
102
}
330
2A
100
AcDbVisualStyle
  2
3dWireframe
 70
     5
 71
     0
 72
     2
 73
     0
 90
        0
 40
-0.6
 41
-30.0
 62
     5
 63
     7
 74
     1
 91
        4
 64
     7
 65
   257
 75
     1
175
     1
 42
1.0
 92
        0
 66
   257
 43
1.0
 76
     1
 77
     6
 78
     2
 67
     7
 79
     5
170
     0
171
     0
290
     0
174
     0
 93
        1
 44
0.0
173
     0
291
     0
 45
0.0
1001
ACAD
1000
AcDbSavedByObjectVersion
1070
     0
  0
VISUALSTYLE
  5
32
102
{ACAD_REACTORS
330
2A
102
}
102
{ACAD_XDICTIONARY
360
196
102
}
330
2A
100
AcDbVisualStyle
  2
Basic
 70
     7
 71
     1
 72
     0
 73
     1
 90
        0
 40
-0.6
 41
-30.0
 62
     5
 63
     7
 74
     0
 91
        4
 64
     7
 65
   257
 75
     1
175
     1
 42
1.0
 92
        8
 66
     7
 43
1.0
 76
     1
 77
     6
 78
     2
 67
     7
 79
     5
170
     0
171
     0
290
     0
174
     0
 93
        1
 44
0.0
173
     0
291
     1
 45
0.0
1001
ACAD
1000
AcDbSavedByObjectVersion
1070
     0
  0
VISUALSTYLE
  5
36
102
{ACAD_REACTORS
330
2A
102
}
102
{ACAD_XDICTIONARY
360
19E
102
}
330
2A
100
AcDbVisualStyle
  2
Brighten
 70
    12
 71
     2
 72
     2
 73
     0
 90
        0
 40
-0.6
 41
-30.0
 62
     5
 63
     7
 74
     1
 91
        4
 64
     7
 65
   257
 75
     1
175
     1
 42
1.0
 92
        8
 66
     7
 43
1.0
 76
     1
 77
     6
 78
     2
 67
     7
 79
     5
170
     0
171
     0
290
     0
174
     0
 93
        1
 44
50.0
173
     0
291
     1
 45
0.0
1001
ACAD
1000
AcDbSavedByObjectVersion
1070
     0
  0
VISUALSTYLE
  5
3A
102
{ACAD_REACTORS
330
2A
102
}
102
{ACAD_XDICTIONARY
360
1A6
102
}
330
2A
100
AcDbVisualStyle
  2
ColorChange
 70
    16
 71
     2
 72
     2
 73
     3
 90
        0
 40
-0.6
 41
-30.0
 62
     5
 63
     8
 74
     1
 91
        4
 64
     7
 65
   257
 75
     1
175
     1
 42
1.0
 92
        8
 66
     8
 43
1.0
 76
     1
 77
     6
 78
     2
 67
     7
 79
     5
170
     0
171
     0
290
     0
174
     0
 93
        1
 44
0.0
173
     0
291
     1
 45
0.0
1001
ACAD
1000
AcDbSavedByObjectVersion
1070
     0
  0
VISUALSTYLE
  5
34
102
{ACAD_REACTORS
330
2A
102
}
102
{ACAD_XDICTIONARY
360
19A
102
}
330
2A
100
AcDbVisualStyle
  2
Conceptual
 70
     9
 71
     3
 72
     2
 73
     0
 90
        0
 40
-0.6
 41
-30.0
 62
     5
 63
     7
 74
     2
 91
        2
 64
     7
 65
   257
 75
     1
175
     1
 42
40.0
 92
        8
 66
     7
 43
1.0
 76
     1
 77
     6
 78
     2
 67
     7
 79
     3
170
     0
171
     0
290
     0
174
     0
 93
        1
 44
0.0
173
     0
291
     0
 45
0.0
1001
ACAD
1000
AcDbSavedByObjectVersion
1070
     0
  0
VISUALSTYLE
  5
35
102
{ACAD_REACTORS
330
2A
102
}
102
{ACAD_XDICTIONARY
360
19C
102
}
330
2A
100
AcDbVisualStyle
  2
Dim
 70
    11
 71
     2
 72
     2
 73
     0
 90
        0
 40
-0.6
 41
-30.0
 62
     5
 63
     7
 74
     1
 91
        4
 64
     7
 65
   257
 75
     1
175
     1
 42
1.0
 92
        8
 66
     7
 43
1.0
 76
     1
 77
     6
 78
     2
 67
     7
 79
     5
170
     0
171
     0
290
     0
174
     0
 93
        1
 44
-50.0
173
     0
291
     1
 45
0.0
1001
ACAD
1000
AcDbSavedByObjectVersion
1070
     0
  0
VISUALSTYLE
  5
39
102
{ACAD_REACTORS
330
2A
102
}
102
{ACAD_XDICTIONARY
360
1A4
102
}
330
2A
100
AcDbVisualStyle
  2
Facepattern
 70
    15
 71
     2
 72
     2
 73
     0
 90
        0
 40
-0.6
 41
-30.0
 62
     5
 63
     7
 74
     1
 91
        4
 64
     7
 65
   257
 75
     1
175
     1
 42
1.0
 92
        8
 66
     7
 43
1.0
 76
     1
 77
     6
 78
     2
 67
     7
 79
     5
170
     0
171
     0
290
     0
174
     0
 93
        1
 44
0.0
173
     0
291
     1
 45
0.0
1001
ACAD
1000
AcDbSavedByObjectVersion
1070
     0
  0
VISUALSTYLE
  5
2B
102
{ACAD_REACTORS
330
2A
102
}
102
{ACAD_XDICTIONARY
360
188
102
}
330
2A
100
AcDbVisualStyle
  2
Flat
 70
     0
 71
     2
 72
     1
 73
     1
 90
        2
 40
-0.6
 41
30.0
 62
     5
 63
     7
 74
     0
 91
        4
 64
     7
 65
   257
 75
     1
175
     1
 42
1.0
 92
        8
 66
     7
 43
1.0
 76
     1
 77
     6
 78
     2
 67
     7
 79
     5
170
     0
171
     0
290
     0
174
     0
 93
       13
 44
0.0
173
     0
291
     1
 45
0.0
1001
ACAD
1000
AcDbSavedByObjectVersion
1070
     0
  0
VISUALSTYLE
  5
2C
102
{ACAD_REACTORS
330
2A
102
}
102
{ACAD_XDICTIONARY
360
18A
102
}
330
2A
100
AcDbVisualStyle
  2
FlatWithEdges
 70
     1
 71
     2
 72
     1
 73
     1
 90
        2
 40
-0.6
 41
30.0
 62
     5
 63
     7
 74
     1
 91
        4
 64
     7
 65
   257
 75
     1
175
     1
 42
1.0
 92
        0
 66
   257
 43
1.0
 76
     1
 77
     6
 78
     2
 67
     7
 79
     5
170
     0
171
     0
290
     0
174
     0
 93
       13
 44
0.0
173
     0
291
     1
 45
0.0
1001
ACAD
1000
AcDbSavedByObjectVersion
1070
     0
  0
VISUALSTYLE
  5
2D
102
{ACAD_REACTORS
330
2A
102
}
102
{ACAD_XDICTIONARY
360
18C
102
}
330
2A
100
AcDbVisualStyle
  2
Gouraud
 70
     2
 71
     2
 72
     2
 73
     1
 90
        2
 40
-0.6
 41
30.0
 62
     5
 63
     7
 74
     0
 91
        4
 64
     7
 65
   257
 75
     1
175
     1
 42
1.0
 92
        0
 66
     7
 43
1.0
 76
     1
 77
     6
 78
     2
 67
     7
 79
     5
170
     0
171
     0
290
     0
174
     0
 93
       13
 44
0.0
173
     0
291
     1
 45
0.0
1001
ACAD
1000
AcDbSavedByObjectVersion
1070
     0
  0
VISUALSTYLE
  5
2E
102
{ACAD_REACTORS
330
2A
102
}
102
{ACAD_XDICTIONARY
360
18E
102
}
330
2A
100
AcDbVisualStyle
  2
GouraudWithEdges
 70
     3
 71
     2
 72
     2
 73
     1
 90
        2
 40
-0.6
 41
30.0
 62
     5
 63
     7
 74
     1
 91
        4
 64
     7
 65
   257
 75
     1
175
     1
 42
1.0
 92
        0
 66
   257
 43
1.0
 76
     1
 77
     6
 78
     2
 67
     7
 79
     5
170
     0
171
     0
290
     0
174
     0
 93
       13
 44
0.0
173
     0
291
     1
 45
0.0
1001
ACAD
1000
AcDbSavedByObjectVersion
1070
     0
  0
VISUALSTYLE
  5
38
102
{ACAD_REACTORS
330
2A
102
}
102
{ACAD_XDICTIONARY
360
1A2
102
}
330
2A
100
AcDbVisualStyle
  2
Linepattern
 70
    14
 71
     2
 72
     2
 73
     0
 90
        0
 40
-0.6
 41
-30.0
 62
     5
 63
     7
 74
     1
 91
        4
 64
     7
 65
   257
 75
     7
175
     7
 42
1.0
 92
        8
 66
     7
 43
1.0
 76
     1
 77
     6
 78
     2
 67
     7
 79
     5
170
     0
171
     0
290
     0
174
     0
 93
        1
 44
0.0
173
     0
291
     1
 45
0.0
1001
ACAD
1000
AcDbSavedByObjectVersion
1070
     0
  0
VISUALSTYLE
  5
33
102
{ACAD_REACTORS
330
2A
102
}
102
{ACAD_XDICTIONARY
360
198
102
}
330
2A
100
AcDbVisualStyle
  2
Realistic
 70
     8
 71
     2
 72
     2
 73
     0
 90
        0
 40
-0.6
 41
-30.0
 62
     5
 63
     7
 74
     1
 91
        0
 64
     7
 65
   257
 75
     1
175
     1
 42
1.0
 92
        8
 66
     8
 43
1.0
 76
     1
 77
     6
 78
     2
 67
     7
 79
     5
170
     0
171
     0
290
     0
174
     0
 93
       13
 44
0.0
173
     0
291
     0
 45
0.0
1001
ACAD
1000
AcDbSavedByObjectVersion
1070
     0
  0
VISUALSTYLE
  5
37
102
{ACAD_REACTORS
330
2A
102
}
102
{ACAD_XDICTIONARY
360
1A0
102
}
330
2A
100
AcDbVisualStyle
  2
Thicken
 70
    13
 71
     2
 72
     2
 73
     0
 90
        0
 40
-0.6
 41
-30.0
 62
     5
 63
     7
 74
     1
 91
        4
 64
     7
 65
   257
 75
     1
175
     1
 42
1.0
 92
       12
 66
     7
 43
1.0
 76
     1
 77
     6
 78
     2
 67
     7
 79
     5
170
     0
171
     0
290
     0
174
     0
 93
        1
 44
0.0
173
     0
291
     1
 45
0.0
1001
ACAD
1000
AcDbSavedByObjectVersion
1070
     0
  0
DICTIONARYVAR
  5
186
102
{ACAD_REACTORS
330
181
102
}
330
181
100
DictionaryVariables
280
     0
  1
2
  0
DICTIONARYVAR
  5
187
102
{ACAD_REACTORS
330
181
102
}
330
181
100
DictionaryVariables
280
     0
  1
1
  0
DICTIONARYVAR
  5
185
102
{ACAD_REACTORS
330
181
102
}
330
181
100
DictionaryVariables
280
     0
  1
80.000000
  0
DICTIONARYVAR
  5
184
102
{ACAD_REACTORS
330
181
102
}
330
181
100
DictionaryVariables
280
     0
  1
5.000000
  0
DICTIONARY
  5
1AA
330
3D
100
AcDbDictionary
280
     1
281
     1
  3
ACAD_XREC_ROUNDTRIP
360
1AB
  0
DICTIONARY
  5
1A8
330
3C
100
AcDbDictionary
280
     1
281
     1
  3
ACAD_XREC_ROUNDTRIP
360
1A9
  0
DICTIONARY
  5
1AC
330
3E
100
AcDbDictionary
280
     1
281
     1
  3
ACAD_XREC_ROUNDTRIP
360
1AD
  0
DICTIONARY
  5
190
330
2F
100
AcDbDictionary
280
     1
281
     1
  3
ACAD_XREC_ROUNDTRIP
360
191
  0
DICTIONARY
  5
194
330
31
100
AcDbDictionary
280
     1
281
     1
  3
ACAD_XREC_ROUNDTRIP
360
195
  0
DICTIONARY
  5
192
330
30
100
AcDbDictionary
280
     1
281
     1
  3
ACAD_XREC_ROUNDTRIP
360
193
  0
DICTIONARY
  5
196
330
32
100
AcDbDictionary
280
     1
281
     1
  3
ACAD_XREC_ROUNDTRIP
360
197
  0
DICTIONARY
  5
19E
330
36
100
AcDbDictionary
280
     1
281
     1
  3
ACAD_XREC_ROUNDTRIP
360
19F
  0
DICTIONARY
  5
1A6
330
3A
100
AcDbDictionary
280
     1
281
     1
  3
ACAD_XREC_ROUNDTRIP
360
1A7
  0
DICTIONARY
  5
19A
330
34
100
AcDbDictionary
280
     1
281
     1
  3
ACAD_XREC_ROUNDTRIP
360
19B
  0
DICTIONARY
  5
19C
330
35
100
AcDbDictionary
280
     1
281
     1
  3
ACAD_XREC_ROUNDTRIP
360
19D
  0
DICTIONARY
  5
1A4
330
39
100
AcDbDictionary
280
     1
281
     1
  3
ACAD_XREC_ROUNDTRIP
360
1A5
  0
DICTIONARY
  5
188
330
2B
100
AcDbDictionary
280
     1
281
     1
  3
ACAD_XREC_ROUNDTRIP
360
189
  0
DICTIONARY
  5
18A
330
2C
100
AcDbDictionary
280
     1
281
     1
  3
ACAD_XREC_ROUNDTRIP
360
18B
  0
DICTIONARY
  5
18C
330
2D
100
AcDbDictionary
280
     1
281
     1
  3
ACAD_XREC_ROUNDTRIP
360
18D
  0
DICTIONARY
  5
18E
330
2E
100
AcDbDictionary
280
     1
281
     1
  3
ACAD_XREC_ROUNDTRIP
360
18F
  0
DICTIONARY
  5
1A2
330
38
100
AcDbDictionary
280
     1
281
     1
  3
ACAD_XREC_ROUNDTRIP
360
1A3
  0
DICTIONARY
  5
198
330
33
100
AcDbDictionary
280
     1
281
     1
  3
ACAD_XREC_ROUNDTRIP
360
199
  0
DICTIONARY
  5
1A0
330
37
100
AcDbDictionary
280
     1
281
     1
  3
ACAD_XREC_ROUNDTRIP
360
1A1
  0
XRECORD
  5
1AB
102
{ACAD_REACTORS
330
1AA
102
}
330
1AA
100
AcDbXrecord
280
     1
102
MATERIAL
148
0.0
149
0.0
149
0.0
 93
        0
 94
      127
282
     0
 72
     1
 77
     1
171
     1
175
     1
179
     1
273
     0
  0
XRECORD
  5
1A9
102
{ACAD_REACTORS
330
1A8
102
}
330
1A8
100
AcDbXrecord
280
     1
102
MATERIAL
148
0.0
149
0.0
149
0.0
 93
        0
 94
      127
282
     0
 72
     1
 77
     1
171
     1
175
     1
179
     1
273
     0
  0
XRECORD
  5
1AD
102
{ACAD_REACTORS
330
1AC
102
}
330
1AC
100
AcDbXrecord
280
     1
102
MATERIAL
148
0.0
149
0.0
149
0.0
 93
        0
 94
      127
282
     0
 72
     1
 77
     1
171
     1
175
     1
179
     1
273
     0
  0
XRECORD
  5
191
102
{ACAD_REACTORS
330
190
102
}
330
190
100
AcDbXrecord
280
     1
102
RTVSPropertyOp0
 70
     1
102
RTVSPropertyOp1
 70
     1
102
RTVSPropertyOp2
 70
     1
102
RTVSPropertyOp3
 70
     1
102
RTVSPropertyOp4
 70
     1
102
RTVSPropertyOp5
 70
     1
102
RTVSPropertyOp6
 70
     1
102
RTVSPropertyOp7
 70
     1
102
RTVSPropertyOp8
 70
     1
102
RTVSPropertyOp9
 70
     1
102
RTVSPropertyOp10
 70
     1
102
RTVSPropertyOp11
 70
     1
102
RTVSPropertyOp12
 70
     1
102
RTVSPropertyOp13
 70
     1
102
RTVSPropertyOp14
 70
     1
102
RTVSPropertyOp15
 70
     1
102
RTVSPropertyOp16
 70
     1
102
RTVSPropertyOp17
 70
     1
102
RTVSPropertyOp18
 70
     1
102
RTVSPropertyOp19
 70
     1
102
RTVSPropertyOp20
 70
     1
102
RTVSPropertyOp21
 70
     1
102
RTVSPropertyOp22
 70
     1
102
RTVSPropertyOp23
 70
     1
102
RTVSPropertyOp24
 70
     1
102
RTVSPropertyOp25
 70
     1
102
RTVSPropertyOp26
 70
     1
102
RTVSPropertyOp27
 70
     1
102
RTVSPropertyOp28
 70
     1
102
RTVSPropertyOp29
 70
     1
102
RTVSPropertyOp30
 70
     1
102
RTVSPropertyOp31
 70
     1
102
RTVSPropertyOp32
 70
     1
  0
XRECORD
  5
195
102
{ACAD_REACTORS
330
194
102
}
330
194
100
AcDbXrecord
280
     1
102
RTVSPropertyOp0
 70
     1
102
RTVSPropertyOp1
 70
     1
102
RTVSPropertyOp2
 70
     1
102
RTVSPropertyOp3
 70
     1
102
RTVSPropertyOp4
 70
     1
102
RTVSPropertyOp5
 70
     1
102
RTVSPropertyOp6
 70
     1
102
RTVSPropertyOp7
 70
     1
102
RTVSPropertyOp8
 70
     1
102
RTVSPropertyOp9
 70
     1
102
RTVSPropertyOp10
 70
     1
102
RTVSPropertyOp11
 70
     1
102
RTVSPropertyOp12
 70
     1
102
RTVSPropertyOp13
 70
     1
102
RTVSPropertyOp14
 70
     1
102
RTVSPropertyOp15
 70
     1
102
RTVSPropertyOp16
 70
     1
102
RTVSPropertyOp17
 70
     1
102
RTVSPropertyOp18
 70
     1
102
RTVSPropertyOp19
 70
     1
102
RTVSPropertyOp20
 70
     1
102
RTVSPropertyOp21
 70
     1
102
RTVSPropertyOp22
 70
     1
102
RTVSPropertyOp23
 70
     1
102
RTVSPropertyOp24
 70
     1
102
RTVSPropertyOp25
 70
     1
102
RTVSPropertyOp26
 70
     1
102
RTVSPropertyOp27
 70
     1
102
RTVSPropertyOp28
 70
     1
102
RTVSPropertyOp29
 70
     1
102
RTVSPropertyOp30
 70
     1
102
RTVSPropertyOp31
 70
     1
102
RTVSPropertyOp32
 70
     1
  0
XRECORD
  5
193
102
{ACAD_REACTORS
330
192
102
}
330
192
100
AcDbXrecord
280
     1
102
RTVSPropertyOp0
 70
     1
102
RTVSPropertyOp1
 70
     1
102
RTVSPropertyOp2
 70
     1
102
RTVSPropertyOp3
 70
     1
102
RTVSPropertyOp4
 70
     1
102
RTVSPropertyOp5
 70
     1
102
RTVSPropertyOp6
 70
     1
102
RTVSPropertyOp7
 70
     1
102
RTVSPropertyOp8
 70
     1
102
RTVSPropertyOp9
 70
     1
102
RTVSPropertyOp10
 70
     1
102
RTVSPropertyOp11
 70
     1
102
RTVSPropertyOp12
 70
     1
102
RTVSPropertyOp13
 70
     1
102
RTVSPropertyOp14
 70
     1
102
RTVSPropertyOp15
 70
     1
102
RTVSPropertyOp16
 70
     1
102
RTVSPropertyOp17
 70
     1
102
RTVSPropertyOp18
 70
     1
102
RTVSPropertyOp19
 70
     1
102
RTVSPropertyOp20
 70
     1
102
RTVSPropertyOp21
 70
     1
102
RTVSPropertyOp22
 70
     1
102
RTVSPropertyOp23
 70
     1
102
RTVSPropertyOp24
 70
     1
102
RTVSPropertyOp25
 70
     1
102
RTVSPropertyOp26
 70
     1
102
RTVSPropertyOp27
 70
     1
102
RTVSPropertyOp28
 70
     1
102
RTVSPropertyOp29
 70
     1
102
RTVSPropertyOp30
 70
     1
102
RTVSPropertyOp31
 70
     1
102
RTVSPropertyOp32
 70
     1
  0
XRECORD
  5
197
102
{ACAD_REACTORS
330
196
102
}
330
196
100
AcDbXrecord
280
     1
102
RTVSPropertyOp0
 70
     1
102
RTVSPropertyOp1
 70
     1
102
RTVSPropertyOp2
 70
     1
102
RTVSPropertyOp3
 70
     1
102
RTVSPropertyOp4
 70
     1
102
RTVSPropertyOp5
 70
     1
102
RTVSPropertyOp6
 70
     1
102
RTVSPropertyOp7
 70
     1
102
RTVSPropertyOp8
 70
     1
102
RTVSPropertyOp9
 70
     1
102
RTVSPropertyOp10
 70
     1
102
RTVSPropertyOp11
 70
     1
102
RTVSPropertyOp12
 70
     1
102
RTVSPropertyOp13
 70
     1
102
RTVSPropertyOp14
 70
     1
102
RTVSPropertyOp15
 70
     1
102
RTVSPropertyOp16
 70
     1
102
RTVSPropertyOp17
 70
     1
102
RTVSPropertyOp18
 70
     1
102
RTVSPropertyOp19
 70
     1
102
RTVSPropertyOp20
 70
     1
102
RTVSPropertyOp21
 70
     1
102
RTVSPropertyOp22
 70
     1
102
RTVSPropertyOp23
 70
     1
102
RTVSPropertyOp24
 70
     1
102
RTVSPropertyOp25
 70
     1
102
RTVSPropertyOp26
 70
     1
102
RTVSPropertyOp27
 70
     1
102
RTVSPropertyOp28
 70
     1
102
RTVSPropertyOp29
 70
     1
102
RTVSPropertyOp30
 70
     1
102
RTVSPropertyOp31
 70
     1
102
RTVSPropertyOp32
 70
     1
  0
XRECORD
  5
19F
102
{ACAD_REACTORS
330
19E
102
}
330
19E
100
AcDbXrecord
280
     1
102
RTVSPropertyOp0
 70
     1
102
RTVSPropertyOp1
 70
     1
102
RTVSPropertyOp2
 70
     1
102
RTVSPropertyOp3
 70
     1
102
RTVSPropertyOp4
 70
     1
102
RTVSPropertyOp5
 70
     1
102
RTVSPropertyOp6
 70
     1
102
RTVSPropertyOp7
 70
     1
102
RTVSPropertyOp8
 70
     1
102
RTVSPropertyOp9
 70
     1
102
RTVSPropertyOp10
 70
     1
102
RTVSPropertyOp11
 70
     1
102
RTVSPropertyOp12
 70
     1
102
RTVSPropertyOp13
 70
     1
102
RTVSPropertyOp14
 70
     1
102
RTVSPropertyOp15
 70
     1
102
RTVSPropertyOp16
 70
     1
102
RTVSPropertyOp17
 70
     1
102
RTVSPropertyOp18
 70
     1
102
RTVSPropertyOp19
 70
     1
102
RTVSPropertyOp20
 70
     1
102
RTVSPropertyOp21
 70
     1
102
RTVSPropertyOp22
 70
     1
102
RTVSPropertyOp23
 70
     1
102
RTVSPropertyOp24
 70
     1
102
RTVSPropertyOp25
 70
     1
102
RTVSPropertyOp26
 70
     1
102
RTVSPropertyOp27
 70
     1
102
RTVSPropertyOp28
 70
     1
102
RTVSPropertyOp29
 70
     1
102
RTVSPropertyOp30
 70
     1
102
RTVSPropertyOp31
 70
     1
102
RTVSPropertyOp32
 70
     1
  0
XRECORD
  5
1A7
102
{ACAD_REACTORS
330
1A6
102
}
330
1A6
100
AcDbXrecord
280
     1
102
RTVSPropertyOp0
 70
     1
102
RTVSPropertyOp1
 70
     1
102
RTVSPropertyOp2
 70
     1
102
RTVSPropertyOp3
 70
     1
102
RTVSPropertyOp4
 70
     1
102
RTVSPropertyOp5
 70
     1
102
RTVSPropertyOp6
 70
     1
102
RTVSPropertyOp7
 70
     1
102
RTVSPropertyOp8
 70
     1
102
RTVSPropertyOp9
 70
     1
102
RTVSPropertyOp10
 70
     1
102
RTVSPropertyOp11
 70
     1
102
RTVSPropertyOp12
 70
     1
102
RTVSPropertyOp13
 70
     1
102
RTVSPropertyOp14
 70
     1
102
RTVSPropertyOp15
 70
     1
102
RTVSPropertyOp16
 70
     1
102
RTVSPropertyOp17
 70
     1
102
RTVSPropertyOp18
 70
     1
102
RTVSPropertyOp19
 70
     1
102
RTVSPropertyOp20
 70
     1
102
RTVSPropertyOp21
 70
     1
102
RTVSPropertyOp22
 70
     1
102
RTVSPropertyOp23
 70
     1
102
RTVSPropertyOp24
 70
     1
102
RTVSPropertyOp25
 70
     1
102
RTVSPropertyOp26
 70
     1
102
RTVSPropertyOp27
 70
     1
102
RTVSPropertyOp28
 70
     1
102
RTVSPropertyOp29
 70
     1
102
RTVSPropertyOp30
 70
     1
102
RTVSPropertyOp31
 70
     1
102
RTVSPropertyOp32
 70
     1
  0
XRECORD
  5
19B
102
{ACAD_REACTORS
330
19A
102
}
330
19A
100
AcDbXrecord
280
     1
102
RTVSPropertyOp0
 70
     1
102
RTVSPropertyOp1
 70
     1
102
RTVSPropertyOp2
 70
     1
102
RTVSPropertyOp3
 70
     1
102
RTVSPropertyOp4
 70
     1
102
RTVSPropertyOp5
 70
     1
102
RTVSPropertyOp6
 70
     1
102
RTVSPropertyOp7
 70
     1
102
RTVSPropertyOp8
 70
     1
102
RTVSPropertyOp9
 70
     1
102
RTVSPropertyOp10
 70
     1
102
RTVSPropertyOp11
 70
     1
102
RTVSPropertyOp12
 70
     1
102
RTVSPropertyOp13
 70
     1
102
RTVSPropertyOp14
 70
     1
102
RTVSPropertyOp15
 70
     1
102
RTVSPropertyOp16
 70
     1
102
RTVSPropertyOp17
 70
     1
102
RTVSPropertyOp18
 70
     1
102
RTVSPropertyOp19
 70
     1
102
RTVSPropertyOp20
 70
     1
102
RTVSPropertyOp21
 70
     1
102
RTVSPropertyOp22
 70
     1
102
RTVSPropertyOp23
 70
     1
102
RTVSPropertyOp24
 70
     1
102
RTVSPropertyOp25
 70
     1
102
RTVSPropertyOp26
 70
     1
102
RTVSPropertyOp27
 70
     1
102
RTVSPropertyOp28
 70
     1
102
RTVSPropertyOp29
 70
     1
102
RTVSPropertyOp30
 70
     1
102
RTVSPropertyOp31
 70
     1
102
RTVSPropertyOp32
 70
     1
  0
XRECORD
  5
19D
102
{ACAD_REACTORS
330
19C
102
}
330
19C
100
AcDbXrecord
280
     1
102
RTVSPropertyOp0
 70
     1
102
RTVSPropertyOp1
 70
     1
102
RTVSPropertyOp2
 70
     1
102
RTVSPropertyOp3
 70
     1
102
RTVSPropertyOp4
 70
     1
102
RTVSPropertyOp5
 70
     1
102
RTVSPropertyOp6
 70
     1
102
RTVSPropertyOp7
 70
     1
102
RTVSPropertyOp8
 70
     1
102
RTVSPropertyOp9
 70
     1
102
RTVSPropertyOp10
 70
     1
102
RTVSPropertyOp11
 70
     1
102
RTVSPropertyOp12
 70
     1
102
RTVSPropertyOp13
 70
     1
102
RTVSPropertyOp14
 70
     1
102
RTVSPropertyOp15
 70
     1
102
RTVSPropertyOp16
 70
     1
102
RTVSPropertyOp17
 70
     1
102
RTVSPropertyOp18
 70
     1
102
RTVSPropertyOp19
 70
     1
102
RTVSPropertyOp20
 70
     1
102
RTVSPropertyOp21
 70
     1
102
RTVSPropertyOp22
 70
     1
102
RTVSPropertyOp23
 70
     1
102
RTVSPropertyOp24
 70
     1
102
RTVSPropertyOp25
 70
     1
102
RTVSPropertyOp26
 70
     1
102
RTVSPropertyOp27
 70
     1
102
RTVSPropertyOp28
 70
     1
102
RTVSPropertyOp29
 70
     1
102
RTVSPropertyOp30
 70
     1
102
RTVSPropertyOp31
 70
     1
102
RTVSPropertyOp32
 70
     1
  0
XRECORD
  5
1A5
102
{ACAD_REACTORS
330
1A4
102
}
330
1A4
100
AcDbXrecord
280
     1
102
RTVSPropertyOp0
 70
     1
102
RTVSPropertyOp1
 70
     1
102
RTVSPropertyOp2
 70
     1
102
RTVSPropertyOp3
 70
     1
102
RTVSPropertyOp4
 70
     1
102
RTVSPropertyOp5
 70
     1
102
RTVSPropertyOp6
 70
     1
102
RTVSPropertyOp7
 70
     1
102
RTVSPropertyOp8
 70
     1
102
RTVSPropertyOp9
 70
     1
102
RTVSPropertyOp10
 70
     1
102
RTVSPropertyOp11
 70
     1
102
RTVSPropertyOp12
 70
     1
102
RTVSPropertyOp13
 70
     1
102
RTVSPropertyOp14
 70
     1
102
RTVSPropertyOp15
 70
     1
102
RTVSPropertyOp16
 70
     1
102
RTVSPropertyOp17
 70
     1
102
RTVSPropertyOp18
 70
     1
102
RTVSPropertyOp19
 70
     1
102
RTVSPropertyOp20
 70
     1
102
RTVSPropertyOp21
 70
     1
102
RTVSPropertyOp22
 70
     1
102
RTVSPropertyOp23
 70
     1
102
RTVSPropertyOp24
 70
     1
102
RTVSPropertyOp25
 70
     1
102
RTVSPropertyOp26
 70
     1
102
RTVSPropertyOp27
 70
     1
102
RTVSPropertyOp28
 70
     1
102
RTVSPropertyOp29
 70
     1
102
RTVSPropertyOp30
 70
     1
102
RTVSPropertyOp31
 70
     1
102
RTVSPropertyOp32
 70
     1
  0
XRECORD
  5
189
102
{ACAD_REACTORS
330
188
102
}
330
188
100
AcDbXrecord
280
     1
102
RTVSPropertyOp0
 70
     1
102
RTVSPropertyOp1
 70
     1
102
RTVSPropertyOp2
 70
     1
102
RTVSPropertyOp3
 70
     1
102
RTVSPropertyOp4
 70
     1
102
RTVSPropertyOp5
 70
     1
102
RTVSPropertyOp6
 70
     1
102
RTVSPropertyOp7
 70
     1
102
RTVSPropertyOp8
 70
     1
102
RTVSPropertyOp9
 70
     1
102
RTVSPropertyOp10
 70
     1
102
RTVSPropertyOp11
 70
     1
102
RTVSPropertyOp12
 70
     1
102
RTVSPropertyOp13
 70
     1
102
RTVSPropertyOp14
 70
     1
102
RTVSPropertyOp15
 70
     1
102
RTVSPropertyOp16
 70
     1
102
RTVSPropertyOp17
 70
     1
102
RTVSPropertyOp18
 70
     1
102
RTVSPropertyOp19
 70
     1
102
RTVSPropertyOp20
 70
     1
102
RTVSPropertyOp21
 70
     1
102
RTVSPropertyOp22
 70
     1
102
RTVSPropertyOp23
 70
     1
102
RTVSPropertyOp24
 70
     1
102
RTVSPropertyOp25
 70
     1
102
RTVSPropertyOp26
 70
     1
102
RTVSPropertyOp27
 70
     1
102
RTVSPropertyOp28
 70
     1
102
RTVSPropertyOp29
 70
     1
102
RTVSPropertyOp30
 70
     1
102
RTVSPropertyOp31
 70
     1
102
RTVSPropertyOp32
 70
     1
  0
XRECORD
  5
18B
102
{ACAD_REACTORS
330
18A
102
}
330
18A
100
AcDbXrecord
280
     1
102
RTVSPropertyOp0
 70
     1
102
RTVSPropertyOp1
 70
     1
102
RTVSPropertyOp2
 70
     1
102
RTVSPropertyOp3
 70
     1
102
RTVSPropertyOp4
 70
     1
102
RTVSPropertyOp5
 70
     1
102
RTVSPropertyOp6
 70
     1
102
RTVSPropertyOp7
 70
     1
102
RTVSPropertyOp8
 70
     1
102
RTVSPropertyOp9
 70
     1
102
RTVSPropertyOp10
 70
     1
102
RTVSPropertyOp11
 70
     1
102
RTVSPropertyOp12
 70
     1
102
RTVSPropertyOp13
 70
     1
102
RTVSPropertyOp14
 70
     1
102
RTVSPropertyOp15
 70
     1
102
RTVSPropertyOp16
 70
     1
102
RTVSPropertyOp17
 70
     1
102
RTVSPropertyOp18
 70
     1
102
RTVSPropertyOp19
 70
     1
102
RTVSPropertyOp20
 70
     1
102
RTVSPropertyOp21
 70
     1
102
RTVSPropertyOp22
 70
     1
102
RTVSPropertyOp23
 70
     1
102
RTVSPropertyOp24
 70
     1
102
RTVSPropertyOp25
 70
     1
102
RTVSPropertyOp26
 70
     1
102
RTVSPropertyOp27
 70
     1
102
RTVSPropertyOp28
 70
     1
102
RTVSPropertyOp29
 70
     1
102
RTVSPropertyOp30
 70
     1
102
RTVSPropertyOp31
 70
     1
102
RTVSPropertyOp32
 70
     1
  0
XRECORD
  5
18D
102
{ACAD_REACTORS
330
18C
102
}
330
18C
100
AcDbXrecord
280
     1
102
RTVSPropertyOp0
 70
     1
102
RTVSPropertyOp1
 70
     1
102
RTVSPropertyOp2
 70
     1
102
RTVSPropertyOp3
 70
     1
102
RTVSPropertyOp4
 70
     1
102
RTVSPropertyOp5
 70
     1
102
RTVSPropertyOp6
 70
     1
102
RTVSPropertyOp7
 70
     1
102
RTVSPropertyOp8
 70
     1
102
RTVSPropertyOp9
 70
     1
102
RTVSPropertyOp10
 70
     1
102
RTVSPropertyOp11
 70
     1
102
RTVSPropertyOp12
 70
     1
102
RTVSPropertyOp13
 70
     1
102
RTVSPropertyOp14
 70
     1
102
RTVSPropertyOp15
 70
     1
102
RTVSPropertyOp16
 70
     1
102
RTVSPropertyOp17
 70
     1
102
RTVSPropertyOp18
 70
     1
102
RTVSPropertyOp19
 70
     1
102
RTVSPropertyOp20
 70
     1
102
RTVSPropertyOp21
 70
     1
102
RTVSPropertyOp22
 70
     1
102
RTVSPropertyOp23
 70
     1
102
RTVSPropertyOp24
 70
     1
102
RTVSPropertyOp25
 70
     1
102
RTVSPropertyOp26
 70
     1
102
RTVSPropertyOp27
 70
     1
102
RTVSPropertyOp28
 70
     1
102
RTVSPropertyOp29
 70
     1
102
RTVSPropertyOp30
 70
     1
102
RTVSPropertyOp31
 70
     1
102
RTVSPropertyOp32
 70
     1
  0
XRECORD
  5
18F
102
{ACAD_REACTORS
330
18E
102
}
330
18E
100
AcDbXrecord
280
     1
102
RTVSPropertyOp0
 70
     1
102
RTVSPropertyOp1
 70
     1
102
RTVSPropertyOp2
 70
     1
102
RTVSPropertyOp3
 70
     1
102
RTVSPropertyOp4
 70
     1
102
RTVSPropertyOp5
 70
     1
102
RTVSPropertyOp6
 70
     1
102
RTVSPropertyOp7
 70
     1
102
RTVSPropertyOp8
 70
     1
102
RTVSPropertyOp9
 70
     1
102
RTVSPropertyOp10
 70
     1
102
RTVSPropertyOp11
 70
     1
102
RTVSPropertyOp12
 70
     1
102
RTVSPropertyOp13
 70
     1
102
RTVSPropertyOp14
 70
     1
102
RTVSPropertyOp15
 70
     1
102
RTVSPropertyOp16
 70
     1
102
RTVSPropertyOp17
 70
     1
102
RTVSPropertyOp18
 70
     1
102
RTVSPropertyOp19
 70
     1
102
RTVSPropertyOp20
 70
     1
102
RTVSPropertyOp21
 70
     1
102
RTVSPropertyOp22
 70
     1
102
RTVSPropertyOp23
 70
     1
102
RTVSPropertyOp24
 70
     1
102
RTVSPropertyOp25
 70
     1
102
RTVSPropertyOp26
 70
     1
102
RTVSPropertyOp27
 70
     1
102
RTVSPropertyOp28
 70
     1
102
RTVSPropertyOp29
 70
     1
102
RTVSPropertyOp30
 70
     1
102
RTVSPropertyOp31
 70
     1
102
RTVSPropertyOp32
 70
     1
  0
XRECORD
  5
1A3
102
{ACAD_REACTORS
330
1A2
102
}
330
1A2
100
AcDbXrecord
280
     1
102
RTVSPropertyOp0
 70
     1
102
RTVSPropertyOp1
 70
     1
102
RTVSPropertyOp2
 70
     1
102
RTVSPropertyOp3
 70
     1
102
RTVSPropertyOp4
 70
     1
102
RTVSPropertyOp5
 70
     1
102
RTVSPropertyOp6
 70
     1
102
RTVSPropertyOp7
 70
     1
102
RTVSPropertyOp8
 70
     1
102
RTVSPropertyOp9
 70
     1
102
RTVSPropertyOp10
 70
     1
102
RTVSPropertyOp11
 70
     1
102
RTVSPropertyOp12
 70
     1
102
RTVSPropertyOp13
 70
     1
102
RTVSPropertyOp14
 70
     1
102
RTVSPropertyOp15
 70
     1
102
RTVSPropertyOp16
 70
     1
102
RTVSPropertyOp17
 70
     1
102
RTVSPropertyOp18
 70
     1
102
RTVSPropertyOp19
 70
     1
102
RTVSPropertyOp20
 70
     1
102
RTVSPropertyOp21
 70
     1
102
RTVSPropertyOp22
 70
     1
102
RTVSPropertyOp23
 70
     1
102
RTVSPropertyOp24
 70
     1
102
RTVSPropertyOp25
 70
     1
102
RTVSPropertyOp26
 70
     1
102
RTVSPropertyOp27
 70
     1
102
RTVSPropertyOp28
 70
     1
102
RTVSPropertyOp29
 70
     1
102
RTVSPropertyOp30
 70
     1
102
RTVSPropertyOp31
 70
     1
102
RTVSPropertyOp32
 70
     1
  0
XRECORD
  5
199
102
{ACAD_REACTORS
330
198
102
}
330
198
100
AcDbXrecord
280
     1
102
RTVSPropertyOp0
 70
     1
102
RTVSPropertyOp1
 70
     1
102
RTVSPropertyOp2
 70
     1
102
RTVSPropertyOp3
 70
     1
102
RTVSPropertyOp4
 70
     1
102
RTVSPropertyOp5
 70
     1
102
RTVSPropertyOp6
 70
     1
102
RTVSPropertyOp7
 70
     1
102
RTVSPropertyOp8
 70
     1
102
RTVSPropertyOp9
 70
     1
102
RTVSPropertyOp10
 70
     1
102
RTVSPropertyOp11
 70
     1
102
RTVSPropertyOp12
 70
     1
102
RTVSPropertyOp13
 70
     1
102
RTVSPropertyOp14
 70
     1
102
RTVSPropertyOp15
 70
     1
102
RTVSPropertyOp16
 70
     1
102
RTVSPropertyOp17
 70
     1
102
RTVSPropertyOp18
 70
     1
102
RTVSPropertyOp19
 70
     1
102
RTVSPropertyOp20
 70
     1
102
RTVSPropertyOp21
 70
     1
102
RTVSPropertyOp22
 70
     1
102
RTVSPropertyOp23
 70
     1
102
RTVSPropertyOp24
 70
     1
102
RTVSPropertyOp25
 70
     1
102
RTVSPropertyOp26
 70
     1
102
RTVSPropertyOp27
 70
     1
102
RTVSPropertyOp28
 70
     1
102
RTVSPropertyOp29
 70
     1
102
RTVSPropertyOp30
 70
     1
102
RTVSPropertyOp31
 70
     1
102
RTVSPropertyOp32
 70
     1
  0
XRECORD
  5
1A1
102
{ACAD_REACTORS
330
1A0
102
}
330
1A0
100
AcDbXrecord
280
     1
102
RTVSPropertyOp0
 70
     1
102
RTVSPropertyOp1
 70
     1
102
RTVSPropertyOp2
 70
     1
102
RTVSPropertyOp3
 70
     1
102
RTVSPropertyOp4
 70
     1
102
RTVSPropertyOp5
 70
     1
102
RTVSPropertyOp6
 70
     1
102
RTVSPropertyOp7
 70
     1
102
RTVSPropertyOp8
 70
     1
102
RTVSPropertyOp9
 70
     1
102
RTVSPropertyOp10
 70
     1
102
RTVSPropertyOp11
 70
     1
102
RTVSPropertyOp12
 70
     1
102
RTVSPropertyOp13
 70
     1
102
RTVSPropertyOp14
 70
     1
102
RTVSPropertyOp15
 70
     1
102
RTVSPropertyOp16
 70
     1
102
RTVSPropertyOp17
 70
     1
102
RTVSPropertyOp18
 70
     1
102
RTVSPropertyOp19
 70
     1
102
RTVSPropertyOp20
 70
     1
102
RTVSPropertyOp21
 70
     1
102
RTVSPropertyOp22
 70
     1
102
RTVSPropertyOp23
 70
     1
102
RTVSPropertyOp24
 70
     1
102
RTVSPropertyOp25
 70
     1
102
RTVSPropertyOp26
 70
     1
102
RTVSPropertyOp27
 70
     1
102
RTVSPropertyOp28
 70
     1
102
RTVSPropertyOp29
 70
     1
102
RTVSPropertyOp30
 70
     1
102
RTVSPropertyOp31
 70
     1
102
RTVSPropertyOp32
 70
     1
  0
ENDSEC
  0
EOF
