  0
SECTION
  2
HEADER
  9
$ACADVER
  1
AC1015
  9
$ACADMAINTVER
 70
     6
  9
$DWGCODEPAGE
  3
ANSI_1252
  9
$INSBASE
 10
0.0
 20
0.0
 30
0.0
  9
$EXTMIN
 10
0.0
 20
0.0
 30
0.0
  9
$EXTMAX
 10
210.0
 20
297.0
 30
0.0
  9
$LIMMIN
 10
0.0
 20
0.0
  9
$LIMMAX
 10
210.0
 20
297.0
  9
$ORTHOMODE
 70
     0
  9
$REGENMODE
 70
     1
  9
$FILLMODE
 70
     1
  9
$QTEXTMODE
 70
     0
  9
$MIRRTEXT
 70
     1
  9
$LTSCALE
 40
1.0
  9
$ATTMODE
 70
     1
  9
$TEXTSIZE
 40
2.5
  9
$TRACEWID
 40
1.0
  9
$TEXTSTYLE
  7
Standard
  9
$CLAYER
  8
0
  9
$CELTYPE
  6
ByLayer
  9
$CECOLOR
 62
   256
  9
$CELTSCALE
 40
1.0
  9
$DISPSILH
 70
     0
  9
$DIMSCALE
 40
1.0
  9
$DIMASZ
 40
2.5
  9
$DIMEXO
 40
0.625
  9
$DIMDLI
 40
3.75
  9
$DIMRND
 40
0.0
  9
$DIMDLE
 40
0.0
  9
$DIMEXE
 40
1.25
  9
$DIMTP
 40
0.0
  9
$DIMTM
 40
0.0
  9
$DIMTXT
 40
2.5
  9
$DIMCEN
 40
2.5
  9
$DIMTSZ
 40
0.0
  9
$DIMTOL
 70
     0
  9
$DIMLIM
 70
     0
  9
$DIMTIH
 70
     0
  9
$DIMTOH
 70
     0
  9
$DIMSE1
 70
     0
  9
$DIMSE2
 70
     0
  9
$DIMTAD
 70
     1
  9
$DIMZIN
 70
     8
  9
$DIMBLK
  1

  9
$DIMASO
 70
     1
  9
$DIMSHO
 70
     1
  9
$DIMPOST
  1

  9
$DIMAPOST
  1

  9
$DIMALT
 70
     0
  9
$DIMALTD
 70
     3
  9
$DIMALTF
 40
0.0393700787
  9
$DIMLFAC
 40
1.0
  9
$DIMTOFL
 70
     1
  9
$DIMTVP
 40
0.0
  9
$DIMTIX
 70
     0
  9
$DIMSOXD
 70
     0
  9
$DIMSAH
 70
     0
  9
$DIMBLK1
  1

  9
$DIMBLK2
  1

  9
$DIMSTYLE
  2
ISO-25
  9
$DIMCLRD
 70
     0
  9
$DIMCLRE
 70
     0
  9
$DIMCLRT
 70
     0
  9
$DIMTFAC
 40
1.0
  9
$DIMGAP
 40
0.625
  9
$DIMJUST
 70
     0
  9
$DIMSD1
 70
     0
  9
$DIMSD2
 70
     0
  9
$DIMTOLJ
 70
     0
  9
$DIMTZIN
 70
     8
  9
$DIMALTZ
 70
     0
  9
$DIMALTTZ
 70
     0
  9
$DIMUPT
 70
     0
  9
$DIMDEC
 70
     2
  9
$DIMTDEC
 70
     2
  9
$DIMALTU
 70
     2
  9
$DIMALTTD
 70
     3
  9
$DIMTXSTY
  7
Standard
  9
$DIMAUNIT
 70
     0
  9
$DIMADEC
 70
     0
  9
$DIMALTRND
 40
0.0
  9
$DIMAZIN
 70
     0
  9
$DIMDSEP
 70
    44
  9
$DIMATFIT
 70
     3
  9
$DIMFRAC
 70
     0
  9
$DIMLDRBLK
  1

  9
$DIMLUNIT
 70
     2
  9
$DIMLWD
 70
    -2
  9
$DIMLWE
 70
    -2
  9
$DIMTMOVE
 70
     0
  9
$LUNITS
 70
     2
  9
$LUPREC
 70
     4
  9
$SKETCHINC
 40
1.0
  9
$FILLETRAD
 40
10.0
  9
$AUNITS
 70
     0
  9
$AUPREC
 70
     0
  9
$MENU
  1
.
  9
$ELEVATION
 40
0.0
  9
$PELEVATION
 40
0.0
  9
$THICKNESS
 40
0.0
  9
$LIMCHECK
 70
     0
  9
$CHAMFERA
 40
10.0
  9
$CHAMFERB
 40
10.0
  9
$CHAMFERC
 40
20.0
  9
$CHAMFERD
 40
0.0
  9
$SKPOLY
 70
     0
  9
$TDCREATE
 40
2457564.423093379
  9
$TDUCREATE
 40
2457564.339760046
  9
$TDUPDATE
 40
2457564.423095845
  9
$TDUUPDATE
 40
2457564.339762512
  9
$TDINDWG
 40
0.0000000116
  9
$TDUSRTIMER
 40
0.0000000116
  9
$USRTIMER
 70
     1
  9
$ANGBASE
 50
0.0
  9
$ANGDIR
 70
     0
  9
$PDMODE
 70
     0
  9
$PDSIZE
 40
0.0
  9
$PLINEWID
 40
0.0
  9
$SPLFRAME
 70
     0
  9
$SPLINETYPE
 70
     6
  9
$SPLINESEGS
 70
     8
  9
$HANDSEED
  5
1B2
  9
$SURFTAB1
 70
     6
  9
$SURFTAB2
 70
     6
  9
$SURFTYPE
 70
     6
  9
$SURFU
 70
     6
  9
$SURFV
 70
     6
  9
$UCSBASE
  2

  9
$UCSNAME
  2

  9
$UCSORG
 10
0.0
 20
0.0
 30
0.0
  9
$UCSXDIR
 10
1.0
 20
0.0
 30
0.0
  9
$UCSYDIR
 10
0.0
 20
1.0
 30
0.0
  9
$UCSORTHOREF
  2

  9
$UCSORTHOVIEW
 70
     0
  9
$UCSORGTOP
 10
0.0
 20
0.0
 30
0.0
  9
$UCSORGBOTTOM
 10
0.0
 20
0.0
 30
0.0
  9
$UCSORGLEFT
 10
0.0
 20
0.0
 30
0.0
  9
$UCSORGRIGHT
 10
0.0
 20
0.0
 30
0.0
  9
$UCSORGFRONT
 10
0.0
 20
0.0
 30
0.0
  9
$UCSORGBACK
 10
0.0
 20
0.0
 30
0.0
  9
$PUCSBASE
  2

  9
$PUCSNAME
  2

  9
$PUCSORG
 10
0.0
 20
0.0
 30
0.0
  9
$PUCSXDIR
 10
1.0
 20
0.0
 30
0.0
  9
$PUCSYDIR
 10
0.0
 20
1.0
 30
0.0
  9
$PUCSORTHOREF
  2

  9
$PUCSORTHOVIEW
 70
     0
  9
$PUCSORGTOP
 10
0.0
 20
0.0
 30
0.0
  9
$PUCSORGBOTTOM
 10
0.0
 20
0.0
 30
0.0
  9
$PUCSORGLEFT
 10
0.0
 20
0.0
 30
0.0
  9
$PUCSORGRIGHT
 10
0.0
 20
0.0
 30
0.0
  9
$PUCSORGFRONT
 10
0.0
 20
0.0
 30
0.0
  9
$PUCSORGBACK
 10
0.0
 20
0.0
 30
0.0
  9
$USERI1
 70
     0
  9
$USERI2
 70
     0
  9
$USERI3
 70
     0
  9
$USERI4
 70
     0
  9
$USERI5
 70
     0
  9
$USERR1
 40
0.0
  9
$USERR2
 40
0.0
  9
$USERR3
 40
0.0
  9
$USERR4
 40
0.0
  9
$USERR5
 40
0.0
  9
$WORLDVIEW
 70
     1
  9
$SHADEDGE
 70
     3
  9
$SHADEDIF
 70
    70
  9
$TILEMODE
 70
     1
  9
$MAXACTVP
 70
    64
  9
$PINSBASE
 10
0.0
 20
0.0
 30
0.0
  9
$PLIMCHECK
 70
     0
  9
$PEXTMIN
 10
0.0
 20
0.0
 30
0.0
  9
$PEXTMAX
 10
210.0
 20
297.0
 30
0.0
  9
$PLIMMIN
 10
0.0
 20
0.0
  9
$PLIMMAX
 10
210.0
 20
297.0
  9
$UNITMODE
 70
     0
  9
$VISRETAIN
 70
     1
  9
$PLINEGEN
 70
     0
  9
$PSLTSCALE
 70
     1
  9
$TREEDEPTH
 70
  3020
  9
$CMLSTYLE
  2
Standard
  9
$CMLJUST
 70
     0
  9
$CMLSCALE
 40
20.0
  9
$PROXYGRAPHICS
 70
     1
  9
$MEASUREMENT
 70
     1
  9
$CELWEIGHT
370
    -1
  9
$ENDCAPS
280
     0
  9
$JOINSTYLE
280
     0
  9
$LWDISPLAY
290
     0
  9
$INSUNITS
 70
     4
  9
$HYPERLINKBASE
  1

  9
$STYLESHEET
  1

  9
$XEDIT
290
     1
  9
$CEPSNTYPE
380
     0
  9
$PSTYLEMODE
290
     1
  9
$FINGERPRINTGUID
  2
{E06F2330-BCE9-4BAB-9BF4-697EABE33DD6}
  9
$VERSIONGUID
  2
{FAEB1C32-E019-11D5-929B-00C0DF256EC4}
  9
$EXTNAMES
290
     1
  9
$PSVPSCALE
 40
0.0
  9
$OLESTARTUP
290
     0
  0
ENDSEC
  0
SECTION
  2
CLASSES
  0
CLASS
  1
ACDBDICTIONARYWDFLT
  2
AcDbDictionaryWithDefault
  3
ObjectDBX Classes
 90
        0
280
     0
281
     0
  0
CLASS
  1
VISUALSTYLE
  2
AcDbVisualStyle
  3
ObjectDBX Classes
 90
     4095
280
     0
281
     0
  0
CLASS
  1
MATERIAL
  2
AcDbMaterial
  3
ObjectDBX Classes
 90
     1153
280
     0
281
     0
  0
CLASS
  1
DICTIONARYVAR
  2
AcDbDictionaryVar
  3
ObjectDBX Classes
 90
        0
280
     0
281
     0
  0
CLASS
  1
ACDBPLACEHOLDER
  2
AcDbPlaceHolder
  3
ObjectDBX Classes
 90
        0
280
     0
281
     0
  0
CLASS
  1
LAYOUT
  2
AcDbLayout
  3
ObjectDBX Classes
 90
        0
280
     0
281
     0
  0
ENDSEC
  0
SECTION
  2
TABLES
  0
TABLE
  2
VPORT
  5
8
330
0
100
AcDbSymbolTable
 70
     1
  0
VPORT
  5
29
330
8
100
AcDbSymbolTableRecord
100
AcDbViewportTableRecord
  2
*Active
 70
     0
 10
0.0
 20
0.0
 11
1.0
 21
1.0
 12
344.1869158879
 22
148.5
 13
0.0
 23
0.0
 14
10.0
 24
10.0
 15
10.0
 25
10.0
 16
0.0
 26
0.0
 36
1.0
 17
0.0
 27
0.0
 37
0.0
 40
297.0
 41
1.9729729729
 42
50.0
 43
0.0
 44
0.0
 50
0.0
 51
0.0
 71
     0
 72
   100
 73
     1
 74
     3
 75
     0
 76
     0
 77
     0
 78
     0
281
     0
 65
     1
110
0.0
120
0.0
130
0.0
111
1.0
121
0.0
131
0.0
112
0.0
122
1.0
132
0.0
 79
     0
146
0.0
  0
ENDTAB
  0
TABLE
  2
LTYPE
  5
5
330
0
100
AcDbSymbolTable
 70
     2
  0
LTYPE
  5
14
330
5
100
AcDbSymbolTableRecord
100
AcDbLinetypeTableRecord
  2
ByBlock
 70
     0
  3

 72
    65
 73
     0
 40
0.0
  0
LTYPE
  5
15
330
5
100
AcDbSymbolTableRecord
100
AcDbLinetypeTableRecord
  2
ByLayer
 70
     0
  3

 72
    65
 73
     0
 40
0.0
  0
LTYPE
  5
16
330
5
100
AcDbSymbolTableRecord
100
AcDbLinetypeTableRecord
  2
Continuous
 70
     0
  3
Solid line
 72
    65
 73
     0
 40
0.0
  0
LTYPE
  5
55
330
5
100
AcDbSymbolTableRecord
100
AcDbLinetypeTableRecord
  2
HIDDEN2
 70
     0
  3
Hidden (.5x) _ _ _ _ _ _ _ _ _ _ _ _ _ _ _ _ _ 
 72
    65
 73
     2
 40
4.7625
 49
3.175
 74
     4
 75
     0
340
0
 46
0.0
 50
0.0
 44
0.0
 45
0.0
 49
-1.5875
 74
     4
 75
     0
340
0
 46
0.0
 50
0.0
 44
0.0
 45
0.0
  0
ENDTAB
  0
TABLE
  2
LAYER
  5
2
330
0
100
AcDbSymbolTable
 70
     5
  0
LAYER
  5
10
330
2
100
AcDbSymbolTableRecord
100
AcDbLayerTableRecord
  2
0
 70
     0
 62
     7
  6
Continuous
370
    -3
390
F
  0
LAYER
  5
3F
330
2
100
AcDbSymbolTableRecord
100
AcDbLayerTableRecord
  2
SK1
 70
     0
 62
     4
  6
Continuous
370
    18
390
F
  0
LAYER
  5
54
330
2
100
AcDbSymbolTableRecord
100
AcDbLayerTableRecord
  2
SK3
 70
     0
 62
     1
  6
HIDDEN2
370
    15
390
F
  0
LAYER
  5
12E
330
2
100
AcDbSymbolTableRecord
100
AcDbLayerTableRecord
  2
SK4
 70
     0
 62
     2
  6
Continuous
370
    13
390
F
  0
LAYER
  5
130
330
2
100
AcDbSymbolTableRecord
100
AcDbLayerTableRecord
  2
SK2
 70
     0
 62
     7
  6
Continuous
370
    15
390
F
  0
ENDTAB
  0
TABLE
  2
STYLE
  5
3
330
0
100
AcDbSymbolTable
 70
     2
  0
STYLE
  5
11
330
3
100
AcDbSymbolTableRecord
100
AcDbTextStyleTableRecord
  2
Standard
 70
     0
 40
0.0
 41
1.0
 50
0.0
 71
     0
 42
2.5
  3
txt
  4

  0
STYLE
  5
143
330
3
100
AcDbSymbolTableRecord
100
AcDbTextStyleTableRecord
  2
SEACAD_Solid_Edge_ISO
 70
     0
 40
0.0
 41
1.0
 50
0.0
 71
     0
 42
0.2
  3
seiso.ttf
  4

1001
ACAD
1000
Solid Edge ISO
1071
        0
  0
ENDTAB
  0
TABLE
  2
VIEW
  5
6
330
0
100
AcDbSymbolTable
 70
     0
  0
ENDTAB
  0
TABLE
  2
UCS
  5
7
330
0
100
AcDbSymbolTable
 70
     0
  0
ENDTAB
  0
TABLE
  2
APPID
  5
9
330
0
100
AcDbSymbolTable
 70
     1
  0
APPID
  5
12
330
9
100
AcDbSymbolTableRecord
100
AcDbRegAppTableRecord
  2
ACAD
 70
     0
  0
ENDTAB
  0
TABLE
  2
DIMSTYLE
  5
A
330
0
100
AcDbSymbolTable
 70
     3
100
AcDbDimStyleTable
  0
DIMSTYLE
105
27
330
A
100
AcDbSymbolTableRecord
100
AcDbDimStyleTableRecord
  2
ISO-25
 70
     0
 41
2.5
 42
0.625
 43
3.75
 44
1.25
 73
     0
 74
     0
 77
     1
 78
     8
140
2.5
141
2.5
143
0.0393700787
147
0.625
171
     3
172
     1
178
     0
271
     2
272
     2
274
     3
278
    44
283
     0
284
     8
340
11
  0
DIMSTYLE
105
131
330
A
100
AcDbSymbolTableRecord
100
AcDbDimStyleTableRecord
  2
Standard
 70
     0
178
     0
340
11
  0
DIMSTYLE
105
144
102
{ACAD_REACTORS
330
145
330
14F
330
15A
330
164
102
}
330
A
100
AcDbSymbolTableRecord
100
AcDbDimStyleTableRecord
  2
DIN
 70
     0
 41
3.5
 42
0.0
 44
1.75
 73
     0
 74
     0
 77
     1
 78
     8
140
3.5
141
1.75
147
1.75
172
     1
173
     1
178
     0
179
     3
271
     2
272
     2
278
    44
284
     8
340
143
343
13E
344
13E
  0
ENDTAB
  0
TABLE
  2
BLOCK_RECORD
  5
1
330
0
100
AcDbSymbolTable
 70
    10
  0
BLOCK_RECORD
  5
1F
330
1
100
AcDbSymbolTableRecord
100
AcDbBlockTableRecord
  2
*Model_Space
340
22
  0
BLOCK_RECORD
  5
1B
330
1
100
AcDbSymbolTableRecord
100
AcDbBlockTableRecord
  2
*Paper_Space
340
1E
  0
BLOCK_RECORD
  5
132
330
1
100
AcDbSymbolTableRecord
100
AcDbBlockTableRecord
  2
_OBLIQUE
340
0
  0
BLOCK_RECORD
  5
136
330
1
100
AcDbSymbolTableRecord
100
AcDbBlockTableRecord
  2
_DOT
340
0
  0
BLOCK_RECORD
  5
13E
330
1
100
AcDbSymbolTableRecord
100
AcDbBlockTableRecord
  2
_SE_FILLED
340
0
  0
BLOCK_RECORD
  5
146
330
1
100
AcDbSymbolTableRecord
100
AcDbBlockTableRecord
  2
DMBLK115
340
0
  0
BLOCK_RECORD
  5
150
330
1
100
AcDbSymbolTableRecord
100
AcDbBlockTableRecord
  2
DMBLK116
340
0
  0
BLOCK_RECORD
  5
15B
330
1
100
AcDbSymbolTableRecord
100
AcDbBlockTableRecord
  2
DMBLK117
340
0
  0
BLOCK_RECORD
  5
165
330
1
100
AcDbSymbolTableRecord
100
AcDbBlockTableRecord
  2
DMBLK118
340
0
  0
BLOCK_RECORD
  5
16F
330
1
100
AcDbSymbolTableRecord
100
AcDbBlockTableRecord
  2
Nullpunkt
340
0
102
{BLKREFS
331
179
102
}
  0
BLOCK_RECORD
  5
17A
330
1
100
AcDbSymbolTableRecord
100
AcDbBlockTableRecord
  2
Einfügepunkt
340
0
102
{BLKREFS
331
184
102
}
  0
ENDTAB
  0
ENDSEC
  0
SECTION
  2
BLOCKS
  0
BLOCK
  5
20
330
1F
100
AcDbEntity
  8
0
100
AcDbBlockBegin
  2
*Model_Space
 70
     0
 10
0.0
 20
0.0
 30
0.0
  3
*Model_Space
  1

  0
ENDBLK
  5
21
330
1F
100
AcDbEntity
  8
0
100
AcDbBlockEnd
  0
BLOCK
  5
1C
330
1B
100
AcDbEntity
 67
     1
  8
0
100
AcDbBlockBegin
  2
*Paper_Space
 70
     0
 10
0.0
 20
0.0
 30
0.0
  3
*Paper_Space
  1

  0
ENDBLK
  5
1D
330
1B
100
AcDbEntity
 67
     1
  8
0
100
AcDbBlockEnd
  0
BLOCK
  5
133
330
132
100
AcDbEntity
  8
0
100
AcDbBlockBegin
  2
_OBLIQUE
 70
     0
 10
0.0
 20
0.0
 30
0.0
  3
_OBLIQUE
  1

  0
LINE
  5
135
330
132
100
AcDbEntity
  8
0
  6
ByBlock
 62
     0
370
    -2
100
AcDbLine
 10
-0.5
 20
-0.5
 30
0.0
 11
0.5
 21
0.5
 31
0.0
  0
ENDBLK
  5
134
330
132
100
AcDbEntity
  8
0
100
AcDbBlockEnd
  0
BLOCK
  5
137
330
136
100
AcDbEntity
  8
0
100
AcDbBlockBegin
  2
_DOT
 70
     0
 10
0.0
 20
0.0
 30
0.0
  3
_DOT
  1

  0
POLYLINE
  5
139
330
136
100
AcDbEntity
  8
0
  6
ByBlock
 62
     0
100
AcDb2dPolyline
 66
     1
 10
0.0
 20
0.0
 30
0.0
 70
     1
 40
0.5
 41
0.5
  0
VERTEX
  5
13B
330
139
100
AcDbEntity
  8
0
  6
ByBlock
 62
     0
100
AcDbVertex
100
AcDb2dVertex
 10
-0.25
 20
0.0
 30
0.0
 42
1.0
  0
VERTEX
  5
13C
330
139
100
AcDbEntity
  8
0
  6
ByBlock
 62
     0
100
AcDbVertex
100
AcDb2dVertex
 10
0.25
 20
0.0
 30
0.0
 42
1.0
  0
SEQEND
  5
13D
330
139
100
AcDbEntity
  8
0
  6
ByBlock
 62
     0
  0
LINE
  5
13A
330
136
100
AcDbEntity
  8
0
  6
ByBlock
 62
     0
370
    -2
100
AcDbLine
 10
-0.5
 20
0.0
 30
0.0
 11
-1.0
 21
0.0
 31
0.0
  0
ENDBLK
  5
138
330
136
100
AcDbEntity
  8
0
100
AcDbBlockEnd
  0
BLOCK
  5
141
330
13E
100
AcDbEntity
  8
0
100
AcDbBlockBegin
  2
_SE_FILLED
 70
     0
 10
0.0
 20
0.0
 30
0.0
  3
_SE_FILLED
  1

  0
SOLID
  5
13F
330
13E
100
AcDbEntity
  8
0
 62
     0
100
AcDbTrace
 10
0.0
 20
0.0
 30
0.0
 11
-1.0
 21
-0.1665
 31
0.0
 12
-1.0
 22
0.1665
 32
0.0
 13
0.0
 23
0.0
 33
0.0
  0
LINE
  5
140
330
13E
100
AcDbEntity
  8
0
 62
     0
100
AcDbLine
 10
0.0
 20
0.0
 30
0.0
 11
-1.0
 21
0.0
 31
0.0
  0
ENDBLK
  5
142
330
13E
100
AcDbEntity
  8
0
100
AcDbBlockEnd
  0
BLOCK
  5
14D
330
146
100
AcDbEntity
  8
0
100
AcDbBlockBegin
  2
DMBLK115
 70
     0
 10
0.0
 20
0.0
 30
0.0
  3
DMBLK115
  1

  0
HATCH
  5
147
330
146
100
AcDbEntity
  8
SK2
  6
Continuous
 62
   136
100
AcDbHatch
 10
0.0
 20
0.0
 30
0.0
210
0.0
220
0.0
230
1.0
  2
SOLID
 70
     1
 71
     0
 91
        1
 92
        1
 93
        3
 72
     1
 10
-13.74365857683712
 20
15.98115633499328
 11
-17.24365868487054
 21
15.39782298365438
 72
     1
 10
-17.24365868487054
 20
15.39782298365438
 11
-13.74365857683712
 21
14.81448963231548
 72
     1
 10
-13.74365857683712
 20
14.81448963231548
 11
-13.74365857683712
 21
15.98115633499328
 97
        0
 75
     0
 76
     1
 98
        0
  0
HATCH
  5
148
330
146
100
AcDbEntity
  8
SK2
  6
Continuous
 62
   136
100
AcDbHatch
 10
0.0
 20
0.0
 30
0.0
210
0.0
220
0.0
230
1.0
  2
SOLID
 70
     1
 71
     0
 91
        1
 92
        1
 93
        3
 72
     1
 10
6.756341058084432
 20
15.98115633499328
 11
6.756341058084432
 21
14.81448963231548
 72
     1
 10
6.756341058084432
 20
14.81448963231548
 11
10.25634116611785
 21
15.39782298365438
 72
     1
 10
10.25634116611785
 20
15.39782298365438
 11
6.756341058084432
 21
15.98115633499328
 97
        0
 75
     0
 76
     1
 98
        0
  0
LINE
  5
149
330
146
100
AcDbEntity
  8
SK2
  6
Continuous
 62
   136
100
AcDbLine
 10
-17.2436586849
 20
5.3945579902
 30
0.0
 11
-17.2436586849
 21
17.1478230377
 31
0.0
  0
LINE
  5
14A
330
146
100
AcDbEntity
  8
SK2
  6
Continuous
 62
   136
100
AcDbLine
 10
10.2563413151
 20
5.5799562379
 30
0.0
 11
10.2563413151
 21
17.1478230377
 31
0.0
  0
LINE
  5
14B
330
146
100
AcDbEntity
  8
SK2
  6
Continuous
 62
   136
100
AcDbLine
 10
-17.2436586849
 20
15.3978229837
 30
0.0
 11
10.2563411661
 21
15.3978229837
 31
0.0
  0
TEXT
  5
14C
330
146
100
AcDbEntity
  8
SK2
  6
Continuous
 62
   136
100
AcDbText
 10
-6.9936587594
 20
16.2728229837
 30
0.0
 40
3.5
  1
27,5
  7
SEACAD_Solid_Edge_ISO
 11
-6.9936587594
 21
19.7728229837
 31
0.0
100
AcDbText
 73
     3
  0
ENDBLK
  5
14E
330
146
100
AcDbEntity
  8
0
100
AcDbBlockEnd
  0
BLOCK
  5
158
330
150
100
AcDbEntity
  8
0
100
AcDbBlockBegin
  2
DMBLK116
 70
     0
 10
0.0
 20
0.0
 30
0.0
  3
DMBLK116
  1

  0
HATCH
  5
151
330
150
100
AcDbEntity
  8
SK2
  6
Continuous
 62
   136
100
AcDbHatch
 10
0.0
 20
0.0
 30
0.0
210
0.0
220
0.0
230
1.0
  2
SOLID
 70
     1
 71
     0
 91
        1
 92
        1
 93
        3
 72
     1
 10
22.01743174189741
 20
-8.262500108033425
 11
21.43409839055851
 21
-4.762500000000006
 72
     1
 10
21.43409839055851
 20
-4.762500000000006
 11
20.8507650392196
 21
-8.262500108033425
 72
     1
 10
20.8507650392196
 20
-8.262500108033425
 11
22.01743174189741
 21
-8.262500108033425
 97
        0
 75
     0
 76
     1
 98
        0
  0
HATCH
  5
152
330
150
100
AcDbEntity
  8
SK2
  6
Continuous
 62
   136
100
AcDbHatch
 10
0.0
 20
0.0
 30
0.0
210
0.0
220
0.0
230
1.0
  2
SOLID
 70
     1
 71
     0
 91
        1
 92
        1
 93
        3
 72
     1
 10
22.01743174189741
 20
8.262500108033421
 11
20.8507650392196
 21
8.262500108033421
 72
     1
 10
20.8507650392196
 20
8.262500108033421
 11
21.43409839055851
 21
4.762500000000003
 72
     1
 10
21.43409839055851
 20
4.762500000000003
 11
22.01743174189741
 21
8.262500108033421
 97
        0
 75
     0
 76
     1
 98
        0
  0
LINE
  5
153
330
150
100
AcDbEntity
  8
SK2
  6
Continuous
 62
   136
100
AcDbLine
 10
9.8563413151
 20
-4.7625
 30
0.0
 11
23.1840984446
 21
-4.7625
 31
0.0
  0
LINE
  5
154
330
150
100
AcDbEntity
  8
SK2
  6
Continuous
 62
   136
100
AcDbLine
 10
9.8563413151
 20
4.7625
 30
0.0
 11
23.1840984446
 21
4.7625
 31
0.0
  0
LINE
  5
155
330
150
100
AcDbEntity
  8
SK2
  6
Continuous
 62
   136
100
AcDbLine
 10
21.4340983906
 20
-11.7625002161
 30
0.0
 11
21.4340983906
 21
23.1249989599
 31
0.0
  0
TEXT
  5
156
330
150
100
AcDbEntity
  8
SK2
  6
Continuous
 62
   136
100
AcDbText
 10
20.5590983906
 20
15.2977275737
 30
0.0
 40
3.5
  1
9,53
 50
90.0
  7
SEACAD_Solid_Edge_ISO
 11
17.0590983906
 21
15.2977275737
 31
0.0
100
AcDbText
 73
     3
  0
TEXT
  5
157
330
150
100
AcDbEntity
  8
SK2
  6
Continuous
 62
   136
100
AcDbText
 10
20.5590983906
 20
11.225000301
 30
0.0
 40
3.5
  1
ø
 50
90.0
  7
SEACAD_Solid_Edge_ISO
 11
17.0590983906
 21
11.225000301
 31
0.0
100
AcDbText
 73
     3
  0
ENDBLK
  5
159
330
150
100
AcDbEntity
  8
0
100
AcDbBlockEnd
  0
BLOCK
  5
162
330
15B
100
AcDbEntity
  8
0
100
AcDbBlockBegin
  2
DMBLK117
 70
     0
 10
0.0
 20
0.0
 30
0.0
  3
DMBLK117
  1

  0
HATCH
  5
15C
330
15B
100
AcDbEntity
  8
SK2
  6
Continuous
 62
   136
100
AcDbHatch
 10
0.0
 20
0.0
 30
0.0
210
0.0
220
0.0
230
1.0
  2
SOLID
 70
     1
 71
     0
 91
        1
 92
        1
 93
        3
 72
     1
 10
-3.500000108033417
 20
-17.05174125350125
 11
0.0000000000000013
 21
-16.46840790216235
 72
     1
 10
0.0000000000000013
 20
-16.46840790216235
 11
-3.500000108033417
 21
-15.88507455082344
 72
     1
 10
-3.500000108033417
 20
-15.88507455082344
 11
-3.500000108033417
 21
-17.05174125350126
 97
        0
 75
     0
 76
     1
 98
        0
  0
HATCH
  5
15D
330
15B
100
AcDbEntity
  8
SK2
  6
Continuous
 62
   136
100
AcDbHatch
 10
0.0
 20
0.0
 30
0.0
210
0.0
220
0.0
230
1.0
  2
SOLID
 70
     1
 71
     0
 91
        1
 92
        1
 93
        3
 72
     1
 10
13.75634142316296
 20
-17.05174125350125
 11
13.75634142316296
 21
-15.88507455082344
 72
     1
 10
13.75634142316296
 20
-15.88507455082344
 11
10.25634131512954
 21
-16.46840790216235
 72
     1
 10
10.25634131512954
 20
-16.46840790216235
 11
13.75634142316296
 21
-17.05174125350125
 97
        0
 75
     0
 76
     1
 98
        0
  0
LINE
  5
15E
330
15B
100
AcDbEntity
  8
SK2
  6
Continuous
 62
   136
100
AcDbLine
 10
0.0
 20
-8.0001888231
 30
0.0
 11
0.0
 21
-18.2184079562
 31
0.0
  0
LINE
  5
15F
330
15B
100
AcDbEntity
  8
SK2
  6
Continuous
 62
   136
100
AcDbLine
 10
10.2563413151
 20
-5.5799563286
 30
0.0
 11
10.2563413151
 21
-18.2184079562
 31
0.0
  0
LINE
  5
160
330
15B
100
AcDbEntity
  8
SK2
  6
Continuous
 62
   136
100
AcDbLine
 10
-7.0000002161
 20
-16.4684079022
 30
0.0
 11
17.2563418746
 21
-16.4684079022
 31
0.0
  0
TEXT
  5
161
330
15B
100
AcDbEntity
  8
SK2
  6
Continuous
 62
   136
100
AcDbText
 10
0.9122617384
 20
-15.5934079022
 30
0.0
 40
3.5
  1
10,26
  7
SEACAD_Solid_Edge_ISO
 11
0.9122617384
 21
-12.0934079022
 31
0.0
100
AcDbText
 73
     3
  0
ENDBLK
  5
163
330
15B
100
AcDbEntity
  8
0
100
AcDbBlockEnd
  0
BLOCK
  5
16D
330
165
100
AcDbEntity
  8
0
100
AcDbBlockBegin
  2
DMBLK118
 70
     0
 10
0.0
 20
0.0
 30
0.0
  3
DMBLK118
  1

  0
HATCH
  5
166
330
165
100
AcDbEntity
  8
SK2
  6
Continuous
 62
   136
100
AcDbHatch
 10
0.0
 20
0.0
 30
0.0
210
0.0
220
0.0
230
1.0
  2
SOLID
 70
     1
 71
     0
 91
        1
 92
        1
 93
        3
 72
     1
 10
-23.04412742766241
 20
4.500188715051685
 11
-21.8774607249846
 21
4.500188715051685
 72
     1
 10
-21.8774607249846
 20
4.500188715051685
 11
-22.46079407632351
 21
8.000188823085104
 72
     1
 10
-22.46079407632351
 20
8.000188823085104
 11
-23.04412742766241
 21
4.500188715051685
 97
        0
 75
     0
 76
     1
 98
        0
  0
HATCH
  5
167
330
165
100
AcDbEntity
  8
SK2
  6
Continuous
 62
   136
100
AcDbHatch
 10
0.0
 20
0.0
 30
0.0
210
0.0
220
0.0
230
1.0
  2
SOLID
 70
     1
 71
     0
 91
        1
 92
        1
 93
        3
 72
     1
 10
-23.04412742766241
 20
-4.500188083160843
 11
-22.46079407632351
 21
-8.000188191194262
 72
     1
 10
-22.46079407632351
 20
-8.000188191194262
 11
-21.8774607249846
 21
-4.500188083160843
 72
     1
 10
-21.8774607249846
 20
-4.500188083160843
 11
-23.04412742766241
 21
-4.500188083160843
 97
        0
 75
     0
 76
     1
 98
        0
  0
LINE
  5
168
330
165
100
AcDbEntity
  8
SK2
  6
Continuous
 62
   136
100
AcDbLine
 10
0.0
 20
8.0001888231
 30
0.0
 11
-24.2107941303
 21
8.0001888231
 31
0.0
  0
LINE
  5
169
330
165
100
AcDbEntity
  8
SK2
  6
Continuous
 62
   136
100
AcDbLine
 10
0.0
 20
-8.0001888231
 30
0.0
 11
-24.2107941303
 21
-8.0001888231
 31
0.0
  0
LINE
  5
16A
330
165
100
AcDbEntity
  8
SK2
  6
Continuous
 62
   136
100
AcDbLine
 10
-22.4607940763
 20
8.0001888231
 30
0.0
 11
-22.4607940763
 21
-8.0001881912
 31
0.0
  0
TEXT
  5
16B
330
165
100
AcDbEntity
  8
SK2
  6
Continuous
 62
   136
100
AcDbText
 10
-23.3357940763
 20
0.246591225
 30
0.0
 40
3.5
  1
16
 50
90.0
  7
SEACAD_Solid_Edge_ISO
 11
-26.8357940763
 21
0.246591225
 31
0.0
100
AcDbText
 73
     3
  0
TEXT
  5
16C
330
165
100
AcDbEntity
  8
SK2
  6
Continuous
 62
   136
100
AcDbText
 10
-23.3357940763
 20
-3.8261360477
 30
0.0
 40
3.5
  1
ø
 50
90.0
  7
SEACAD_Solid_Edge_ISO
 11
-26.8357940763
 21
-3.8261360477
 31
0.0
100
AcDbText
 73
     3
  0
ENDBLK
  5
16E
330
165
100
AcDbEntity
  8
0
100
AcDbBlockEnd
  0
BLOCK
  5
177
330
16F
100
AcDbEntity
  8
0
100
AcDbBlockBegin
  2
Nullpunkt
 70
     0
 10
0.0
 20
0.0
 30
0.0
  3
Nullpunkt
  1

  0
HATCH
  5
170
330
16F
100
AcDbEntity
  8
SK2
  6
Continuous
 62
     7
100
AcDbHatch
 10
0.0
 20
0.0
 30
0.0
210
0.0
220
0.0
230
1.0
  2
SOLID
 70
     1
 71
     0
 91
        1
 92
        1
 93
        3
 72
     1
 10
-1.0
 20
0.0
 11
0.0000000000000009
 21
0.0
 72
     1
 10
0.0
 20
0.0
 11
0.0
 21
1.000000000000001
 72
     2
 10
0.0
 20
0.0
 40
1.0
 50
90.0
 51
180.0
 73
     1
 97
        0
 75
     0
 76
     1
 98
        0
  0
HATCH
  5
171
330
16F
100
AcDbEntity
  8
SK2
  6
Continuous
 62
     7
100
AcDbHatch
 10
0.0
 20
0.0
 30
0.0
210
0.0
220
0.0
230
1.0
  2
SOLID
 70
     1
 71
     0
 91
        1
 92
        1
 93
        3
 72
     2
 10
0.0
 20
0.0
 40
1.0
 50
270.0
 51
360.0
 73
     1
 72
     1
 10
1.0
 20
0.0
 11
-0.0000000000000009
 21
0.0
 72
     1
 10
0.0
 20
0.0
 11
0.0
 21
-1.000000000000001
 97
        0
 75
     0
 76
     1
 98
        0
  0
CIRCLE
  5
172
330
16F
100
AcDbEntity
  8
SK2
  6
Continuous
 62
     7
100
AcDbCircle
 10
0.0
 20
0.0
 30
0.0
 40
1.0
  0
LINE
  5
173
330
16F
100
AcDbEntity
  8
SK1
  6
Continuous
100
AcDbLine
 10
-1.0
 20
0.0
 30
0.0
 11
1.0
 21
0.0
 31
0.0
  0
LINE
  5
174
330
16F
100
AcDbEntity
  8
SK1
  6
Continuous
100
AcDbLine
 10
0.0
 20
1.0
 30
0.0
 11
0.0
 21
-1.0
 31
0.0
  0
POINT
  5
175
330
16F
100
AcDbEntity
  8
SK1
  6
Continuous
100
AcDbPoint
 10
0.0
 20
0.0
 30
0.0
  0
POINT
  5
176
330
16F
100
AcDbEntity
  8
SK1
  6
Continuous
100
AcDbPoint
 10
0.0
 20
0.0
 30
0.0
  0
ENDBLK
  5
178
330
16F
100
AcDbEntity
  8
0
100
AcDbBlockEnd
  0
BLOCK
  5
182
330
17A
100
AcDbEntity
  8
0
100
AcDbBlockBegin
  2
Einfügepunkt
 70
     0
 10
0.0
 20
0.0
 30
0.0
  3
Einfügepunkt
  1

  0
HATCH
  5
17B
330
17A
100
AcDbEntity
  8
SK2
  6
Continuous
 62
     7
100
AcDbHatch
 10
0.0
 20
0.0
 30
0.0
210
0.0
220
0.0
230
1.0
  2
SOLID
 70
     1
 71
     0
 91
        1
 92
        1
 93
        3
 72
     1
 10
-0.4502381196756744
 20
-0.0000000000000018
 11
0.0000000000000033
 21
-0.0000000000000018
 72
     1
 10
0.0
 20
-0.0000000000000018
 11
0.0
 21
0.4502381196756812
 72
     2
 10
0.0
 20
-0.0000000000000018
 40
0.4502381196756812
 50
90.0
 51
180.0
 73
     1
 97
        0
 75
     0
 76
     1
 98
        0
  0
HATCH
  5
17C
330
17A
100
AcDbEntity
  8
SK2
  6
Continuous
 62
     7
100
AcDbHatch
 10
0.0
 20
0.0
 30
0.0
210
0.0
220
0.0
230
1.0
  2
SOLID
 70
     1
 71
     0
 91
        1
 92
        1
 93
        3
 72
     2
 10
0.0
 20
-0.0000000000000018
 40
0.4502381196756812
 50
270.0
 51
360.0
 73
     1
 72
     1
 10
0.4502381196756815
 20
-0.0000000000000018
 11
0.0000000000000038
 21
-0.0000000000000018
 72
     1
 10
0.0
 20
-0.0000000000000018
 11
0.0
 21
-0.4502381196756812
 97
        0
 75
     0
 76
     1
 98
        0
  0
CIRCLE
  5
17D
330
17A
100
AcDbEntity
  8
SK2
  6
Continuous
 62
     7
100
AcDbCircle
 10
0.0
 20
0.0
 30
0.0
 40
0.4502381196756812
  0
LINE
  5
17E
330
17A
100
AcDbEntity
  8
SK1
  6
Continuous
100
AcDbLine
 10
-0.4502381197
 20
0.0
 30
0.0
 11
0.4502381197
 21
0.0
 31
0.0
  0
LINE
  5
17F
330
17A
100
AcDbEntity
  8
SK1
  6
Continuous
100
AcDbLine
 10
0.0
 20
0.4502381197
 30
0.0
 11
0.0
 21
-0.4502381197
 31
0.0
  0
POINT
  5
180
330
17A
100
AcDbEntity
  8
SK2
  6
Continuous
 62
     7
100
AcDbPoint
 10
0.0
 20
0.0
 30
0.0
  0
POINT
  5
181
330
17A
100
AcDbEntity
  8
SK2
  6
Continuous
 62
     7
100
AcDbPoint
 10
0.0
 20
0.0
 30
0.0
  0
ENDBLK
  5
183
330
17A
100
AcDbEntity
  8
0
100
AcDbBlockEnd
  0
ENDSEC
  0
SECTION
  2
ENTITIES
  0
LINE
  5
40
330
1F
100
AcDbEntity
  8
SK1
  6
Continuous
100
AcDbLine
 10
3.7563413151
 20
6.4835456525
 30
0.0
 11
3.7563413151
 21
6.9
 31
0.0
  0
LINE
  5
41
330
1F
100
AcDbEntity
  8
SK1
  6
Continuous
100
AcDbLine
 10
6.0563413151
 20
6.9
 30
0.0
 11
6.0563413151
 21
6.4835456525
 31
0.0
  0
LINE
  5
42
330
1F
100
AcDbEntity
  8
SK1
  6
Continuous
100
AcDbLine
 10
10.2563413151
 20
5.8095662974
 30
0.0
 11
10.2563413151
 21
6.1712613559
 31
0.0
  0
LINE
  5
43
330
1F
100
AcDbEntity
  8
SK1
  6
Continuous
100
AcDbLine
 10
10.1313413151
 20
6.0098208121
 30
0.0
 11
10.1313413151
 21
6.3877677069
 31
0.0
  0
LINE
  5
44
330
1F
100
AcDbEntity
  8
SK1
  6
Continuous
100
AcDbLine
 10
3.5563413151
 20
7.3078774026
 30
0.0
 11
3.5563413151
 21
3.3517395924
 31
0.0
  0
LINE
  5
45
330
1F
100
AcDbEntity
  8
SK1
  6
Continuous
100
AcDbLine
 10
3.1006720747
 20
-7.9036858695
 30
0.0
 11
3.1006720747
 21
-8.4359598646
 31
0.0
  0
LINE
  5
46
330
1F
100
AcDbEntity
  8
SK1
  6
Continuous
100
AcDbLine
 10
6.4728476661
 20
8.5
 30
0.0
 11
6.4728476661
 21
7.962888405
 31
0.0
  0
LINE
  5
47
330
1F
100
AcDbEntity
  8
SK1
  6
Continuous
100
AcDbLine
 10
6.2563413151
 20
8.5
 30
0.0
 11
6.2563413151
 21
7.962888405
 31
0.0
  0
LINE
  5
48
330
1F
100
AcDbEntity
  8
SK1
  6
Continuous
100
AcDbLine
 10
6.4728476661
 20
-8.5
 30
0.0
 11
6.4728476661
 21
-7.962888405
 31
0.0
  0
LINE
  5
49
330
1F
100
AcDbEntity
  8
SK1
  6
Continuous
100
AcDbLine
 10
6.2563413151
 20
-8.5
 30
0.0
 11
6.2563413151
 21
-7.962888405
 31
0.0
  0
LINE
  5
4A
330
1F
100
AcDbEntity
  8
SK1
  6
Continuous
100
AcDbLine
 10
6.4728476661
 20
7.962888405
 30
0.0
 11
6.2563413151
 21
7.962888405
 31
0.0
  0
LINE
  5
4B
330
1F
100
AcDbEntity
  8
SK1
  6
Continuous
100
AcDbLine
 10
6.4728476661
 20
7.7332783456
 30
0.0
 11
6.2563413151
 21
7.7332783456
 31
0.0
  0
LINE
  5
4C
330
1F
100
AcDbEntity
  8
SK1
  6
Continuous
100
AcDbLine
 10
3.1006720747
 20
7.9036858695
 30
0.0
 11
3.1006720747
 21
8.4359598646
 31
0.0
  0
LINE
  5
4D
330
1F
100
AcDbEntity
  8
SK1
  6
Continuous
100
AcDbLine
 10
10.2563413151
 20
-6.1712613559
 30
0.0
 11
10.2563413151
 21
-5.8095662974
 31
0.0
  0
LINE
  5
4E
330
1F
100
AcDbEntity
  8
SK1
  6
Continuous
100
AcDbLine
 10
10.1313413151
 20
-6.0098208121
 30
0.0
 11
10.1313413151
 21
-6.3877677069
 31
0.0
  0
LINE
  5
4F
330
1F
100
AcDbEntity
  8
SK1
  6
Continuous
100
AcDbLine
 10
3.7563413151
 20
-6.4835456525
 30
0.0
 11
3.7563413151
 21
-6.9
 31
0.0
  0
LINE
  5
50
330
1F
100
AcDbEntity
  8
SK1
  6
Continuous
100
AcDbLine
 10
6.0563413151
 20
-6.9
 30
0.0
 11
6.0563413151
 21
-6.4835456525
 31
0.0
  0
ARC
  5
51
330
1F
100
AcDbEntity
  8
SK1
  6
Continuous
100
AcDbCircle
 10
3.7490919072
 20
6.4467087859
 30
0.0
 40
0.1929094548823013
100
AcDbArc
 50
182.3254217845
 51
272.1536440521
  0
LINE
  5
52
330
1F
100
AcDbEntity
  8
SK1
  6
Continuous
100
AcDbLine
 10
3.7563413151
 20
6.2539355931
 30
0.0
 11
6.0563413151
 21
6.2539355931
 31
0.0
  0
ARC
  5
53
330
1F
100
AcDbEntity
  8
SK1
  6
Continuous
100
AcDbCircle
 10
6.0635963341
 20
6.4467027182
 30
0.0
 40
0.1929036023480863
100
AcDbArc
 50
267.8446228207
 51
357.6763113501
  0
LINE
  5
56
330
1F
100
AcDbEntity
  8
SK3
100
AcDbLine
 10
9.8563413151
 20
4.2764329965
 30
0.0
 11
-12.0780424016
 21
4.2764329965
 31
0.0
  0
ARC
  5
57
330
1F
100
AcDbEntity
  8
SK3
100
AcDbCircle
 10
9.8706787255
 20
4.8917496743
 30
0.0
 40
0.3859730000737345
100
AcDbArc
 50
267.8711927032
 51
357.7019659386
  0
LINE
  5
58
330
1F
100
AcDbEntity
  8
SK1
  6
Continuous
100
AcDbLine
 10
10.2563413151
 20
5.5799562379
 30
0.0
 11
10.2563413151
 21
5.8095662974
 31
0.0
  0
ARC
  5
59
330
1F
100
AcDbEntity
  8
SK1
  6
Continuous
100
AcDbCircle
 10
10.0277126776
 20
5.8059951202
 30
0.0
 40
0.2286565267324207
100
AcDbArc
 50
0.8948867718
 51
63.0503997066
  0
SPLINE
  5
5A
330
1F
100
AcDbEntity
  8
SK1
  6
Continuous
100
AcDbSpline
210
0.0
220
0.0
230
1.0
 70
     8
 71
     3
 72
    11
 73
     7
 74
     0
 42
0.0000000024112808
 43
0.0000000001
 12
1.0
 22
0.0
 32
0.0
 13
1.0
 23
0.0
 33
0.0
 40
0.0
 40
0.0
 40
0.0
 40
0.0
 40
0.4999749398417524
 40
0.4999749398417524
 40
0.4999749398417524
 40
1.0
 40
1.0
 40
1.0
 40
1.0
 10
10.13134131512954
 20
6.009820812094894
 30
0.0
 10
9.521664846376096
 20
6.335382761305335
 30
0.0
 10
8.91196104402022
 20
6.660901020732841
 30
0.0
 10
8.302240113636367
 20
6.986391890320088
 30
0.0
 10
7.69245805557567
 20
7.3119153920505
 30
0.0
 10
7.082658653550549
 20
7.637411163054242
 30
0.0
 10
6.472847666075636
 20
7.962888404980882
 30
0.0
  0
ARC
  5
5B
330
1F
100
AcDbEntity
  8
SK1
  6
Continuous
100
AcDbCircle
 10
3.1662125
 20
7.5186402045
 30
0.0
 40
0.3905838085417678
100
AcDbArc
 50
2.7658284791
 51
99.6599997464
  0
SPLINE
  5
5C
330
1F
100
AcDbEntity
  8
SK1
  6
Continuous
100
AcDbSpline
210
0.0
220
0.0
230
1.0
 70
     8
 71
     3
 72
    14
 73
    10
 74
     0
 42
0.0000000006593864
 43
0.0000000001
 12
1.0
 22
0.0
 32
0.0
 13
1.0
 23
0.0
 33
0.0
 40
0.0
 40
0.0
 40
0.0
 40
0.0
 40
0.16058820789887
 40
0.16058820789887
 40
0.16058820789887
 40
0.9127718409957111
 40
0.9127718409957111
 40
0.9127718409957111
 40
1.0
 40
1.0
 40
1.0
 40
1.0
 10
3.100672074745383
 20
7.903685869515085
 30
0.0
 10
2.29563164207989
 20
7.799091005720576
 30
0.0
 10
1.490591606414984
 20
7.694493533754171
 30
0.0
 10
0.6855520199755107
 20
7.589893110755393
 30
0.0
 10
-3.085195588224159
 20
7.099952241407881
 30
0.0
 10
-6.855933918670972
 20
6.609950410537325
 30
0.0
 10
-10.62665393806659
 20
6.119828338153843
 30
0.0
 10
-11.06393142067413
 20
6.062990560519905
 30
0.0
 10
-11.50120864734744
 20
6.006151102198904
 30
0.0
 10
-11.93848559494636
 20
5.949309811405932
 30
0.0
  0
ARC
  5
5D
330
1F
100
AcDbEntity
  8
SK1
  6
Continuous
100
AcDbCircle
 10
3.1662125
 20
7.2890301451
 30
0.0
 40
0.3905838085417684
100
AcDbArc
 50
2.7658284791
 51
99.6599997464
  0
SPLINE
  5
5E
330
1F
100
AcDbEntity
  8
SK1
  6
Continuous
100
AcDbSpline
210
0.0
220
0.0
230
1.0
 70
     8
 71
     3
 72
    14
 73
    10
 74
     0
 42
0.0000000006593864
 43
0.0000000001
 12
1.0
 22
0.0
 32
0.0
 13
1.0
 23
0.0
 33
0.0
 40
0.0
 40
0.0
 40
0.0
 40
0.0
 40
0.16058820789887
 40
0.16058820789887
 40
0.16058820789887
 40
0.9127718409957111
 40
0.9127718409957111
 40
0.9127718409957111
 40
1.0
 40
1.0
 40
1.0
 40
1.0
 10
3.100672074745383
 20
7.674075810096032
 30
0.0
 10
2.29563164207989
 20
7.569480946301521
 30
0.0
 10
1.490591606414984
 20
7.464883474335118
 30
0.0
 10
0.6855520199755107
 20
7.36028305133634
 30
0.0
 10
-3.085195588224159
 20
6.870342181988828
 30
0.0
 10
-6.855933918670972
 20
6.38034035111827
 30
0.0
 10
-10.62665393806659
 20
5.890218278734788
 30
0.0
 10
-11.06393142067413
 20
5.833380501100852
 30
0.0
 10
-11.50120864734744
 20
5.776541042779849
 30
0.0
 10
-11.93848559494636
 20
5.719699751986879
 30
0.0
  0
ARC
  5
5F
330
1F
100
AcDbEntity
  8
SK3
100
AcDbCircle
 10
9.8706787255
 20
4.6621396149
 30
0.0
 40
0.385973000073735
100
AcDbArc
 50
267.8711927032
 51
357.7019659386
  0
ARC
  5
60
330
1F
100
AcDbEntity
  8
SK1
  6
Continuous
100
AcDbCircle
 10
10.0277126776
 20
5.5763850607
 30
0.0
 40
0.2286565267324205
100
AcDbArc
 50
0.8948867718
 51
63.0503997066
  0
SPLINE
  5
61
330
1F
100
AcDbEntity
  8
SK1
  6
Continuous
100
AcDbSpline
210
0.0
220
0.0
230
1.0
 70
     8
 71
     3
 72
    11
 73
     7
 74
     0
 42
0.0000000024112808
 43
0.0000000001
 12
1.0
 22
0.0
 32
0.0
 13
1.0
 23
0.0
 33
0.0
 40
0.0
 40
0.0
 40
0.0
 40
0.0
 40
0.4999749398417524
 40
0.4999749398417524
 40
0.4999749398417524
 40
1.0
 40
1.0
 40
1.0
 40
1.0
 10
10.13134131512954
 20
5.780210752675839
 30
0.0
 10
9.521664846376096
 20
6.105772701886282
 30
0.0
 10
8.91196104402022
 20
6.431290961313787
 30
0.0
 10
8.302240113636367
 20
6.756781830901033
 30
0.0
 10
7.69245805557567
 20
7.082305332631446
 30
0.0
 10
7.082658653550549
 20
7.407801103635188
 30
0.0
 10
6.472847666075636
 20
7.733278345561827
 30
0.0
  0
LINE
  5
62
330
1F
100
AcDbEntity
  8
SK1
  6
Continuous
100
AcDbLine
 10
3.5563413151
 20
7.537487462
 30
0.0
 11
3.5563413151
 21
7.3078774026
 31
0.0
  0
ARC
  5
63
330
1F
100
AcDbEntity
  8
SK1
  6
Continuous
100
AcDbCircle
 10
3.7490919072
 20
6.6763188454
 30
0.0
 40
0.1929094548823007
100
AcDbArc
 50
182.3254217845
 51
272.1536440521
  0
LINE
  5
64
330
1F
100
AcDbEntity
  8
SK1
  6
Continuous
100
AcDbLine
 10
3.7563413151
 20
6.4835456525
 30
0.0
 11
6.0563413151
 21
6.4835456525
 31
0.0
  0
ARC
  5
65
330
1F
100
AcDbEntity
  8
SK1
  6
Continuous
100
AcDbCircle
 10
6.0635963341
 20
6.6763127776
 30
0.0
 40
0.1929036023480861
100
AcDbArc
 50
267.8446228207
 51
357.6763113501
  0
LINE
  5
66
330
1F
100
AcDbEntity
  8
SK1
  6
Continuous
100
AcDbLine
 10
6.2563413151
 20
7.7332783456
 30
0.0
 11
6.2563413151
 21
7.962888405
 31
0.0
  0
LINE
  5
67
330
1F
100
AcDbEntity
  8
SK3
100
AcDbLine
 10
9.8563413151
 20
4.5060430559
 30
0.0
 11
-12.0780424016
 21
4.5060430559
 31
0.0
  0
LINE
  5
68
330
1F
100
AcDbEntity
  8
SK1
  6
Continuous
100
AcDbLine
 10
-17.0714933051
 20
-5.5929067778
 30
0.0
 11
-17.0714933051
 21
-4.1669143435
 31
0.0
  0
LINE
  5
69
330
1F
100
AcDbEntity
  8
SK1
  6
Continuous
100
AcDbLine
 10
-17.2436586849
 20
-5.3945579902
 30
0.0
 11
-17.2436586849
 21
-4.0266605707
 31
0.0
  0
ARC
  5
6A
330
1F
100
AcDbEntity
  8
SK1
  6
Continuous
100
AcDbCircle
 10
-17.0434620342
 20
-5.394682253
 30
0.0
 40
0.2001966892801554
100
AcDbArc
 50
179.9644363108
 51
261.9510743428
  0
ARC
  5
6B
330
1F
100
AcDbEntity
  8
SK1
  6
Continuous
100
AcDbCircle
 10
-17.0434621305
 20
5.3946823366
 30
0.0
 40
0.2001965930065329
100
AcDbArc
 50
98.0489017111
 51
180.0355876352
  0
LINE
  5
6C
330
1F
100
AcDbEntity
  8
SK3
100
AcDbLine
 10
-16.7724889969
 20
4.7530417892
 30
0.0
 11
-16.7724889969
 21
3.5730401148
 31
0.0
  0
LINE
  5
6D
330
1F
100
AcDbEntity
  8
SK3
100
AcDbLine
 10
-17.2436586849
 20
-5.0255837252
 30
0.0
 11
-16.7724889969
 21
-4.7530417892
 31
0.0
  0
LINE
  5
6E
330
1F
100
AcDbEntity
  8
SK3
100
AcDbLine
 10
-16.7724889969
 20
-4.7530417892
 30
0.0
 11
-2.7599371393
 21
-4.7530417892
 31
0.0
  0
LINE
  5
6F
330
1F
100
AcDbEntity
  8
SK3
100
AcDbLine
 10
-16.7724889969
 20
4.7530417892
 30
0.0
 11
-17.2436586849
 21
5.0255837252
 31
0.0
  0
SPLINE
  5
70
330
1F
100
AcDbEntity
  8
SK1
  6
Continuous
100
AcDbSpline
210
0.0
220
0.0
230
1.0
 70
     8
 71
     3
 72
    11
 73
     7
 74
     0
 42
0.0000000007057356
 43
0.0000000001
 12
1.0
 22
0.0
 32
0.0
 13
1.0
 23
0.0
 33
0.0
 40
0.0
 40
0.0
 40
0.0
 40
0.0
 40
0.6939571910621137
 40
0.6939571910621137
 40
0.6939571910621137
 40
1.0
 40
1.0
 40
1.0
 40
1.0
 10
-17.07149330506248
 20
-5.592906777842075
 30
0.0
 10
-13.82578078991344
 20
-6.04971767329463
 30
0.0
 10
-10.58004697335968
 20
-6.506377223444142
 30
0.0
 10
-7.334302370657393
 20
-6.962960073788032
 30
0.0
 10
-5.902893043802745
 20
-7.164318168913568
 30
0.0
 10
-4.471481498686309
 20
-7.365660495286908
 30
0.0
 10
-3.040068227604303
 20
-7.566990549797828
 30
0.0
  0
LINE
  5
71
330
1F
100
AcDbEntity
  8
SK1
  6
Continuous
100
AcDbLine
 10
3.5563413151
 20
7.537487462
 30
0.0
 11
3.5563413151
 21
8.0398526371
 31
0.0
  0
LINE
  5
72
330
1F
100
AcDbEntity
  8
SK1
  6
Continuous
100
AcDbLine
 10
6.2563413151
 20
-7.7332783456
 30
0.0
 11
6.2563413151
 21
-3.5279464324
 31
0.0
  0
LINE
  5
73
330
1F
100
AcDbEntity
  8
SK1
  6
Continuous
100
AcDbLine
 10
6.4728476661
 20
-7.7332783456
 30
0.0
 11
6.4728476661
 21
-3.5279464324
 31
0.0
  0
LINE
  5
74
330
1F
100
AcDbEntity
  8
SK1
  6
Continuous
100
AcDbLine
 10
3.1006720747
 20
-7.6740758101
 30
0.0
 11
3.1006720747
 21
-3.5034239393
 31
0.0
  0
LINE
  5
75
330
1F
100
AcDbEntity
  8
SK1
  6
Continuous
100
AcDbLine
 10
3.5563413151
 20
-7.537487462
 30
0.0
 11
3.5563413151
 21
-8.0398526371
 31
0.0
  0
LINE
  5
76
330
1F
100
AcDbEntity
  8
SK1
  6
Continuous
100
AcDbLine
 10
10.1313413151
 20
-5.7802107527
 30
0.0
 11
10.1313413151
 21
-2.7189593472
 31
0.0
  0
LINE
  5
77
330
1F
100
AcDbEntity
  8
SK1
  6
Continuous
100
AcDbLine
 10
10.2563413151
 20
-5.5799562379
 30
0.0
 11
10.2563413151
 21
-2.6360112113
 31
0.0
  0
LINE
  5
78
330
1F
100
AcDbEntity
  8
SK1
  6
Continuous
100
AcDbLine
 10
3.7563413151
 20
-6.2539355931
 30
0.0
 11
3.7563413151
 21
-2.915182601
 31
0.0
  0
LINE
  5
79
330
1F
100
AcDbEntity
  8
SK1
  6
Continuous
100
AcDbLine
 10
6.0563413151
 20
-6.2539355931
 30
0.0
 11
6.0563413151
 21
-2.915182601
 31
0.0
  0
ARC
  5
7A
330
1F
100
AcDbEntity
  8
SK1
  6
Continuous
100
AcDbCircle
 10
6.063589665
 20
-6.4467099301
 30
0.0
 40
0.1929105584737903
100
AcDbArc
 50
2.3257485766
 51
92.1533172599
  0
LINE
  5
7B
330
1F
100
AcDbEntity
  8
SK1
  6
Continuous
100
AcDbLine
 10
6.0563413151
 20
-6.2539355931
 30
0.0
 11
3.7563413151
 21
-6.2539355931
 31
0.0
  0
ARC
  5
7C
330
1F
100
AcDbEntity
  8
SK1
  6
Continuous
100
AcDbCircle
 10
3.7490933294
 20
-6.4467103239
 30
0.0
 40
0.1929109383187625
100
AcDbArc
 50
87.8467952167
 51
177.6741389463
  0
ARC
  5
7D
330
1F
100
AcDbEntity
  8
SK1
  6
Continuous
100
AcDbCircle
 10
3.1662003057
 20
-7.2890149713
 30
0.0
 40
0.3905967211536582
100
AcDbArc
 50
260.342137145
 51
357.2320346267
  0
LINE
  5
7E
330
1F
100
AcDbEntity
  8
SK1
  6
Continuous
100
AcDbLine
 10
6.2563413151
 20
-7.7332783456
 30
0.0
 11
6.4728476661
 21
-7.7332783456
 31
0.0
  0
LINE
  5
7F
330
1F
100
AcDbEntity
  8
SK1
  6
Continuous
100
AcDbLine
 10
6.4728476661
 20
-7.7332783456
 30
0.0
 11
10.1313413151
 21
-5.7802107527
 31
0.0
  0
ARC
  5
80
330
1F
100
AcDbEntity
  8
SK1
  6
Continuous
100
AcDbCircle
 10
10.0248610918
 20
-5.5746050848
 30
0.0
 40
0.2315420666815599
100
AcDbArc
 50
297.3789903439
 51
358.6757231777
  0
ARC
  5
81
330
1F
100
AcDbEntity
  8
SK3
100
AcDbCircle
 10
9.8706698032
 20
-4.6621492547
 30
0.0
 40
0.3859823019099816
100
AcDbArc
 50
2.2994107509
 51
92.1274306072
  0
ARC
  5
82
330
1F
100
AcDbEntity
  8
SK1
  6
Continuous
100
AcDbCircle
 10
3.1662003057
 20
-7.5186250308
 30
0.0
 40
0.3905967211536585
100
AcDbArc
 50
260.342137145
 51
357.2320346267
  0
LINE
  5
83
330
1F
100
AcDbEntity
  8
SK1
  6
Continuous
100
AcDbLine
 10
6.2563413151
 20
-7.962888405
 30
0.0
 11
6.4728476661
 21
-7.962888405
 31
0.0
  0
LINE
  5
84
330
1F
100
AcDbEntity
  8
SK1
  6
Continuous
100
AcDbLine
 10
6.4728476661
 20
-7.962888405
 30
0.0
 11
10.1313413151
 21
-6.0098208121
 31
0.0
  0
ARC
  5
85
330
1F
100
AcDbEntity
  8
SK1
  6
Continuous
100
AcDbCircle
 10
10.0248610918
 20
-5.8042151442
 30
0.0
 40
0.2315420666815595
100
AcDbArc
 50
297.3789903439
 51
358.6757231777
  0
LINE
  5
86
330
1F
100
AcDbEntity
  8
SK1
  6
Continuous
100
AcDbLine
 10
10.2563413151
 20
-5.8095662974
 30
0.0
 11
10.2563413151
 21
-5.5799562379
 31
0.0
  0
ARC
  5
87
330
1F
100
AcDbEntity
  8
SK3
100
AcDbCircle
 10
9.8706698032
 20
-4.8917593141
 30
0.0
 40
0.3859823019099795
100
AcDbArc
 50
2.2994107509
 51
92.1274306072
  0
LINE
  5
88
330
1F
100
AcDbEntity
  8
SK1
  6
Continuous
100
AcDbLine
 10
6.2563413151
 20
-7.962888405
 30
0.0
 11
6.2563413151
 21
-7.7332783456
 31
0.0
  0
ARC
  5
89
330
1F
100
AcDbEntity
  8
SK1
  6
Continuous
100
AcDbCircle
 10
6.063589665
 20
-6.6763199895
 30
0.0
 40
0.1929105584737923
100
AcDbArc
 50
2.3257485766
 51
92.1533172599
  0
LINE
  5
8A
330
1F
100
AcDbEntity
  8
SK1
  6
Continuous
100
AcDbLine
 10
6.0563413151
 20
-6.4835456525
 30
0.0
 11
3.7563413151
 21
-6.4835456525
 31
0.0
  0
ARC
  5
8B
330
1F
100
AcDbEntity
  8
SK1
  6
Continuous
100
AcDbCircle
 10
3.7490933294
 20
-6.6763203833
 30
0.0
 40
0.1929109383187639
100
AcDbArc
 50
87.8467952167
 51
177.6741389463
  0
LINE
  5
8C
330
1F
100
AcDbEntity
  8
SK1
  6
Continuous
100
AcDbLine
 10
3.5563413151
 20
-7.3078774026
 30
0.0
 11
3.5563413151
 21
-7.537487462
 31
0.0
  0
LINE
  5
8D
330
1F
100
AcDbEntity
  8
SK1
  6
Continuous
100
AcDbLine
 10
-17.0714933051
 20
-3.7426502748
 30
0.0
 11
-17.0714933051
 21
-0.3
 31
0.0
  0
LINE
  5
8E
330
1F
100
AcDbEntity
  8
SK1
  6
Continuous
100
AcDbLine
 10
-17.2436586849
 20
-3.602396502
 30
0.0
 11
-17.2436586849
 21
-0.3
 31
0.0
  0
LINE
  5
8F
330
1F
100
AcDbEntity
  8
SK3
100
AcDbLine
 10
-16.7724889969
 20
-3.5730401148
 30
0.0
 11
-16.7724889969
 21
-4.7530417892
 31
0.0
  0
LINE
  5
90
330
1F
100
AcDbEntity
  8
SK3
100
AcDbLine
 10
-17.2436586849
 20
-3.3414922971
 30
0.0
 11
-16.7724889969
 21
-3.1487760461
 31
0.0
  0
LINE
  5
91
330
1F
100
AcDbEntity
  8
SK3
100
AcDbLine
 10
-16.7724889969
 20
-3.1487760461
 30
0.0
 11
-2.7599371393
 21
-3.1487760461
 31
0.0
  0
SPLINE
  5
92
330
1F
100
AcDbEntity
  8
SK1
  6
Continuous
100
AcDbSpline
210
0.0
220
0.0
230
1.0
 70
     8
 71
     3
 72
    10
 73
     6
 74
     0
 42
0.0000000403600054
 43
0.0000000001
 12
1.0
 22
0.0
 32
0.0
 13
1.0
 23
0.0
 33
0.0
 40
0.0
 40
0.0
 40
0.0
 40
0.0
 40
0.5
 40
0.5
 40
1.0
 40
1.0
 40
1.0
 40
1.0
 10
-17.24365868487056
 20
-3.602396502036348
 30
0.0
 10
-17.24365868487047
 20
-3.636098372796646
 30
0.0
 10
-17.22584582088398
 20
-3.669819173484868
 30
0.0
 10
-17.16358367750407
 20
-3.720629108528627
 30
0.0
 10
-17.11919414351856
 20
-3.737903076009039
 30
0.0
 10
-17.07149330506248
 20
-3.742650274800371
 30
0.0
  0
SPLINE
  5
93
330
1F
100
AcDbEntity
  8
SK1
  6
Continuous
100
AcDbSpline
210
0.0
220
0.0
230
1.0
 70
     8
 71
     3
 72
    11
 73
     7
 74
     0
 42
0.0000000007091853
 43
0.0000000001
 12
1.0
 22
0.0
 32
0.0
 13
1.0
 23
0.0
 33
0.0
 40
0.0
 40
0.0
 40
0.0
 40
0.0
 40
0.6939571910621134
 40
0.6939571910621134
 40
0.6939571910621134
 40
1.0
 40
1.0
 40
1.0
 40
1.0
 10
-17.07149330506248
 20
-3.742650274800371
 30
0.0
 10
-13.82578078991345
 20
-4.06566435669477
 30
0.0
 10
-10.58004697335969
 20
-4.388571421299089
 30
0.0
 10
-7.334302370657398
 20
-4.711424250950735
 30
0.0
 10
-5.902893043802749
 20
-4.853805925460808
 30
0.0
 10
-4.471481498686313
 20
-4.996176449779273
 30
0.0
 10
-3.040068227604305
 20
-5.138538296580601
 30
0.0
  0
SPLINE
  5
94
330
1F
100
AcDbEntity
  8
SK1
  6
Continuous
100
AcDbSpline
210
0.0
220
0.0
230
1.0
 70
     8
 71
     3
 72
    10
 73
     6
 74
     0
 42
0.0000000403600054
 43
0.0000000001
 12
1.0
 22
0.0
 32
0.0
 13
1.0
 23
0.0
 33
0.0
 40
0.0
 40
0.0
 40
0.0
 40
0.0
 40
0.5
 40
0.5
 40
1.0
 40
1.0
 40
1.0
 40
1.0
 10
-17.24365868487045
 20
-4.026660570748283
 30
0.0
 10
-17.24365868487046
 20
-4.060362441508642
 30
0.0
 10
-17.22584582088398
 20
-4.09408324219679
 30
0.0
 10
-17.16358367750402
 20
-4.144893177240589
 30
0.0
 10
-17.11919414351856
 20
-4.162167144720968
 30
0.0
 10
-17.07149330506248
 20
-4.166914343512299
 30
0.0
  0
SPLINE
  5
95
330
1F
100
AcDbEntity
  8
SK1
  6
Continuous
100
AcDbSpline
210
0.0
220
0.0
230
1.0
 70
     8
 71
     3
 72
    11
 73
     7
 74
     0
 42
0.0000000007091853
 43
0.0000000001
 12
1.0
 22
0.0
 32
0.0
 13
1.0
 23
0.0
 33
0.0
 40
0.0
 40
0.0
 40
0.0
 40
0.0
 40
0.6939571910621131
 40
0.6939571910621131
 40
0.6939571910621131
 40
1.0
 40
1.0
 40
1.0
 40
1.0
 10
-17.07149330506248
 20
-4.166914343512299
 30
0.0
 10
-13.82578078991345
 20
-4.489928425406698
 30
0.0
 10
-10.58004697335969
 20
-4.812835490011017
 30
0.0
 10
-7.334302370657398
 20
-5.135688319662663
 30
0.0
 10
-5.902893043802747
 20
-5.278069994172737
 30
0.0
 10
-4.471481498686309
 20
-5.420440518491202
 30
0.0
 10
-3.040068227604301
 20
-5.562802365292531
 30
0.0
  0
LINE
  5
96
330
1F
100
AcDbEntity
  8
SK1
  6
Continuous
100
AcDbLine
 10
-17.2436586849
 20
-3.7657563659
 30
0.0
 11
-17.2436586849
 21
-4.0266605707
 31
0.0
  0
LINE
  5
97
330
1F
100
AcDbEntity
  8
SK1
  6
Continuous
100
AcDbLine
 10
-17.2436586849
 20
-3.7657563659
 30
0.0
 11
-17.14125863
 21
-3.7238730376
 31
0.0
  0
LINE
  5
98
330
1F
100
AcDbEntity
  8
SK3
100
AcDbLine
 10
-17.14125863
 20
-3.7238730376
 30
0.0
 11
-16.7724889969
 21
-3.5730401148
 31
0.0
  0
LINE
  5
99
330
1F
100
AcDbEntity
  8
SK3
100
AcDbLine
 10
-16.7724889969
 20
-3.5730401148
 30
0.0
 11
-2.7599371393
 21
-3.5730401148
 31
0.0
  0
LINE
  5
9A
330
1F
100
AcDbEntity
  8
SK1
  6
Continuous
100
AcDbLine
 10
6.2563413151
 20
-2.9736187129
 30
0.0
 11
6.2563413151
 21
2.9736187129
 31
0.0
  0
LINE
  5
9B
330
1F
100
AcDbEntity
  8
SK1
  6
Continuous
100
AcDbLine
 10
6.4728476661
 20
-2.9736187129
 30
0.0
 11
6.4728476661
 21
2.9736187129
 31
0.0
  0
LINE
  5
9C
330
1F
100
AcDbEntity
  8
SK1
  6
Continuous
100
AcDbLine
 10
3.1006720747
 20
-2.9490962198
 30
0.0
 11
3.1006720747
 21
2.9490962198
 31
0.0
  0
LINE
  5
9D
330
1F
100
AcDbEntity
  8
SK1
  6
Continuous
100
AcDbLine
 10
3.5563413151
 20
-3.3517395924
 30
0.0
 11
3.5563413151
 21
-7.3078774026
 31
0.0
  0
LINE
  5
9E
330
1F
100
AcDbEntity
  8
SK1
  6
Continuous
100
AcDbLine
 10
10.1313413151
 20
-2.1646316277
 30
0.0
 11
10.1313413151
 21
2.1646316277
 31
0.0
  0
LINE
  5
9F
330
1F
100
AcDbEntity
  8
SK1
  6
Continuous
100
AcDbLine
 10
10.2563413151
 20
-2.0816834918
 30
0.0
 11
10.2563413151
 21
2.0816834918
 31
0.0
  0
LINE
  5
A0
330
1F
100
AcDbEntity
  8
SK1
  6
Continuous
100
AcDbLine
 10
3.7563413151
 20
-2.3608548815
 30
0.0
 11
3.7563413151
 21
2.3608548815
 31
0.0
  0
LINE
  5
A1
330
1F
100
AcDbEntity
  8
SK1
  6
Continuous
100
AcDbLine
 10
6.0563413151
 20
-2.3608548815
 30
0.0
 11
6.0563413151
 21
2.3608548815
 31
0.0
  0
SPLINE
  5
A2
330
1F
100
AcDbEntity
  8
SK1
  6
Continuous
100
AcDbSpline
210
0.0
220
0.0
230
1.0
 70
     8
 71
     3
 72
    10
 73
     6
 74
     0
 42
0.0000000427804606
 43
0.0000000001
 12
1.0
 22
0.0
 32
0.0
 13
1.0
 23
0.0
 33
0.0
 40
0.0
 40
0.0
 40
0.0
 40
0.0
 40
0.5
 40
0.5
 40
1.0
 40
1.0
 40
1.0
 40
1.0
 10
6.256341315129525
 20
-2.437461968118012
 30
0.0
 10
6.256341315129536
 20
-2.41749320828964
 30
0.0
 10
6.23501687114399
 20
-2.397555374696402
 30
0.0
 10
6.16043459259725
 20
-2.369002328718476
 30
0.0
 10
6.108495810551002
 20
-2.360854881462835
 30
0.0
 10
6.056341315130057
 20
-2.360854881461132
 30
0.0
  0
LINE
  5
A3
330
1F
100
AcDbEntity
  8
SK1
  6
Continuous
100
AcDbLine
 10
6.0563413151
 20
-2.3608548815
 30
0.0
 11
3.7563413151
 21
-2.3608548815
 31
0.0
  0
SPLINE
  5
A4
330
1F
100
AcDbEntity
  8
SK1
  6
Continuous
100
AcDbSpline
210
0.0
220
0.0
230
1.0
 70
     8
 71
     3
 72
    10
 73
     6
 74
     0
 42
0.0000000427875695
 43
0.0000000001
 12
1.0
 22
0.0
 32
0.0
 13
1.0
 23
0.0
 33
0.0
 40
0.0
 40
0.0
 40
0.0
 40
0.0
 40
0.5
 40
0.5
 40
1.0
 40
1.0
 40
1.0
 40
1.0
 10
3.75634131512953
 20
-2.360854881462764
 30
0.0
 10
3.704073636636459
 20
-2.360854881462762
 30
0.0
 10
3.651899810366213
 20
-2.369150910787727
 30
0.0
 10
3.578166968536803
 20
-2.397348256670479
 30
0.0
 10
3.556341315129552
 20
-2.417477940889956
 30
0.0
 10
3.556341315128967
 20
-2.437461968117991
 30
0.0
  0
SPLINE
  5
A5
330
1F
100
AcDbEntity
  8
SK1
  6
Continuous
100
AcDbSpline
210
0.0
220
0.0
230
1.0
 70
     8
 71
     3
 72
    10
 73
     6
 74
     0
 42
0.0000000190345564
 43
0.0000000001
 12
1.0
 22
0.0
 32
0.0
 13
1.0
 23
0.0
 33
0.0
 40
0.0
 40
0.0
 40
0.0
 40
0.0
 40
0.5
 40
0.5
 40
1.0
 40
1.0
 40
1.0
 40
1.0
 10
3.100672074745435
 20
-2.94909621980411
 30
0.0
 10
3.213049905933856
 20
-2.955144022659784
 30
0.0
 10
3.333485910401305
 20
-2.941448672744882
 30
0.0
 10
3.504525537344733
 20
-2.884421701139272
 30
0.0
 10
3.556341315129529
 20
-2.841332556229674
 30
0.0
 10
3.556341315129531
 20
-2.797411872891703
 30
0.0
  0
LINE
  5
A6
330
1F
100
AcDbEntity
  8
SK1
  6
Continuous
100
AcDbLine
 10
6.2563413151
 20
-2.9736187129
 30
0.0
 11
6.4728476661
 21
-2.9736187129
 31
0.0
  0
SPLINE
  5
A7
330
1F
100
AcDbEntity
  8
SK1
  6
Continuous
100
AcDbSpline
210
0.0
220
0.0
230
1.0
 70
     8
 71
     3
 72
     8
 73
     4
 74
     0
 42
0.0000000026688942
 43
0.0000000001
 12
1.0
 22
0.0
 32
0.0
 13
1.0
 23
0.0
 33
0.0
 40
0.0
 40
0.0
 40
0.0
 40
0.0
 40
1.0
 40
1.0
 40
1.0
 40
1.0
 10
6.472847666075636
 20
-2.973618712918828
 30
0.0
 10
7.692408541886599
 20
-2.703998045024329
 30
0.0
 10
8.911927326362225
 20
-2.434349480936909
 30
0.0
 10
10.13134131512954
 20
-2.164631627714077
 30
0.0
  0
SPLINE
  5
A8
330
1F
100
AcDbEntity
  8
SK1
  6
Continuous
100
AcDbSpline
210
0.0
220
0.0
230
1.0
 70
     8
 71
     3
 72
    10
 73
     6
 74
     0
 42
0.0000000616089256
 43
0.0000000001
 12
1.0
 22
0.0
 32
0.0
 13
1.0
 23
0.0
 33
0.0
 40
0.0
 40
0.0
 40
0.0
 40
0.0
 40
0.5
 40
0.5
 40
1.0
 40
1.0
 40
1.0
 40
1.0
 10
10.13134131512954
 20
-2.164631627714077
 30
0.0
 10
10.16903512304445
 20
-2.156294268093597
 30
0.0
 10
10.20123486504049
 20
-2.143952051783948
 30
0.0
 10
10.24472904855192
 20
-2.11501833465561
 30
0.0
 10
10.25634131512955
 20
-2.098379385012331
 30
0.0
 10
10.25634131512958
 20
-2.081683491783807
 30
0.0
  0
SPLINE
  5
A9
330
1F
100
AcDbEntity
  8
SK3
100
AcDbSpline
210
0.0
220
0.0
230
1.0
 70
     8
 71
     3
 72
    10
 73
     6
 74
     0
 42
0.0000000213889218
 43
0.0000000001
 12
1.0
 22
0.0
 32
0.0
 13
1.0
 23
0.0
 33
0.0
 40
0.0
 40
0.0
 40
0.0
 40
0.0
 40
0.5
 40
0.5
 40
1.0
 40
1.0
 40
1.0
 40
1.0
 10
10.25634131512954
 20
-1.695100799562685
 30
0.0
 10
10.25634131512955
 20
-1.65501699506224
 30
0.0
 10
10.21271926567256
 20
-1.614833963760711
 30
0.0
 10
10.06536997696883
 20
-1.558394605210222
 30
0.0
 10
9.961185558980072
 20
-1.541746486317148
 30
0.0
 10
9.856341315129544
 20
-1.541746486317147
 30
0.0
  0
SPLINE
  5
AA
330
1F
100
AcDbEntity
  8
SK1
  6
Continuous
100
AcDbSpline
210
0.0
220
0.0
230
1.0
 70
     8
 71
     3
 72
    10
 73
     6
 74
     0
 42
0.0000000190345564
 43
0.0000000001
 12
1.0
 22
0.0
 32
0.0
 13
1.0
 23
0.0
 33
0.0
 40
0.0
 40
0.0
 40
0.0
 40
0.0
 40
0.5
 40
0.5
 40
1.0
 40
1.0
 40
1.0
 40
1.0
 10
3.100672074745435
 20
-3.503423939310883
 30
0.0
 10
3.213049905933856
 20
-3.509471742166556
 30
0.0
 10
3.333485910401305
 20
-3.495776392251654
 30
0.0
 10
3.504525537344733
 20
-3.438749420646043
 30
0.0
 10
3.556341315129529
 20
-3.395660275736446
 30
0.0
 10
3.556341315129531
 20
-3.351739592398476
 30
0.0
  0
LINE
  5
AB
330
1F
100
AcDbEntity
  8
SK1
  6
Continuous
100
AcDbLine
 10
6.2563413151
 20
-3.5279464324
 30
0.0
 11
6.4728476661
 21
-3.5279464324
 31
0.0
  0
SPLINE
  5
AC
330
1F
100
AcDbEntity
  8
SK1
  6
Continuous
100
AcDbSpline
210
0.0
220
0.0
230
1.0
 70
     8
 71
     3
 72
     8
 73
     4
 74
     0
 42
0.0000000026688942
 43
0.0000000001
 12
1.0
 22
0.0
 32
0.0
 13
1.0
 23
0.0
 33
0.0
 40
0.0
 40
0.0
 40
0.0
 40
0.0
 40
1.0
 40
1.0
 40
1.0
 40
1.0
 10
6.472847666075636
 20
-3.527946432425599
 30
0.0
 10
7.692408541886599
 20
-3.258325764531102
 30
0.0
 10
8.911927326362225
 20
-2.988677200443681
 30
0.0
 10
10.13134131512954
 20
-2.718959347220849
 30
0.0
  0
SPLINE
  5
AD
330
1F
100
AcDbEntity
  8
SK1
  6
Continuous
100
AcDbSpline
210
0.0
220
0.0
230
1.0
 70
     8
 71
     3
 72
    10
 73
     6
 74
     0
 42
0.0000000616089256
 43
0.0000000001
 12
1.0
 22
0.0
 32
0.0
 13
1.0
 23
0.0
 33
0.0
 40
0.0
 40
0.0
 40
0.0
 40
0.0
 40
0.5
 40
0.5
 40
1.0
 40
1.0
 40
1.0
 40
1.0
 10
10.13134131512954
 20
-2.718959347220849
 30
0.0
 10
10.16903512304445
 20
-2.710621987600368
 30
0.0
 10
10.20123486504049
 20
-2.69827977129072
 30
0.0
 10
10.24472904855192
 20
-2.669346054162383
 30
0.0
 10
10.25634131512955
 20
-2.652707104519104
 30
0.0
 10
10.25634131512958
 20
-2.63601121129058
 30
0.0
  0
LINE
  5
AE
330
1F
100
AcDbEntity
  8
SK1
  6
Continuous
100
AcDbLine
 10
10.2563413151
 20
-2.6360112113
 30
0.0
 11
10.2563413151
 21
-2.2494285191
 31
0.0
  0
SPLINE
  5
AF
330
1F
100
AcDbEntity
  8
SK1
  6
Continuous
100
AcDbSpline
210
0.0
220
0.0
230
1.0
 70
     8
 71
     3
 72
     8
 73
     4
 74
     0
 42
0.0000000693471269
 43
0.0000000001
 12
1.0
 22
0.0
 32
0.0
 13
1.0
 23
0.0
 33
0.0
 40
0.0
 40
0.0
 40
0.0
 40
0.0
 40
1.0
 40
1.0
 40
1.0
 40
1.0
 10
10.25634131512954
 20
-2.249428519069459
 30
0.0
 10
10.25634131512955
 20
-2.214886340230802
 30
0.0
 10
10.22394708583295
 20
-2.180270474442848
 30
0.0
 10
10.16784232642098
 20
-2.153300303896472
 30
0.0
  0
SPLINE
  5
B0
330
1F
100
AcDbEntity
  8
SK3
100
AcDbSpline
210
0.0
220
0.0
230
1.0
 70
     8
 71
     3
 72
    10
 73
     6
 74
     0
 42
0.0000000311915378
 43
0.0000000001
 12
1.0
 22
0.0
 32
0.0
 13
1.0
 23
0.0
 33
0.0
 40
0.0
 40
0.0
 40
0.0
 40
0.0
 40
0.121459143334877
 40
0.121459143334877
 40
1.0
 40
1.0
 40
1.0
 40
1.0
 10
10.16784232642098
 20
-2.153300303896472
 30
0.0
 10
10.15884140103181
 20
-2.14897346076649
 30
0.0
 10
10.14923021385244
 20
-2.144843402594196
 30
0.0
 10
10.06536997696883
 20
-2.112722324716994
 30
0.0
 10
9.961185558980072
 20
-2.09607420582392
 30
0.0
 10
9.856341315129544
 20
-2.096074205823919
 30
0.0
  0
LINE
  5
B1
330
1F
100
AcDbEntity
  8
SK1
  6
Continuous
100
AcDbLine
 10
6.2563413151
 20
-3.5279464324
 30
0.0
 11
6.2563413151
 21
-2.9917896876
 31
0.0
  0
SPLINE
  5
B2
330
1F
100
AcDbEntity
  8
SK1
  6
Continuous
100
AcDbSpline
210
0.0
220
0.0
230
1.0
 70
     8
 71
     3
 72
    10
 73
     6
 74
     0
 42
0.0000000427804606
 43
0.0000000001
 12
1.0
 22
0.0
 32
0.0
 13
1.0
 23
0.0
 33
0.0
 40
0.0
 40
0.0
 40
0.0
 40
0.0
 40
0.5
 40
0.5
 40
1.0
 40
1.0
 40
1.0
 40
1.0
 10
6.256341315129525
 20
-2.991789687624784
 30
0.0
 10
6.256341315129536
 20
-2.971820927796411
 30
0.0
 10
6.23501687114399
 20
-2.951883094203173
 30
0.0
 10
6.16043459259725
 20
-2.923330048225247
 30
0.0
 10
6.108495810551002
 20
-2.915182600969606
 30
0.0
 10
6.056341315130057
 20
-2.915182600967904
 30
0.0
  0
LINE
  5
B3
330
1F
100
AcDbEntity
  8
SK1
  6
Continuous
100
AcDbLine
 10
6.0563413151
 20
-2.915182601
 30
0.0
 11
3.7563413151
 21
-2.915182601
 31
0.0
  0
SPLINE
  5
B4
330
1F
100
AcDbEntity
  8
SK1
  6
Continuous
100
AcDbSpline
210
0.0
220
0.0
230
1.0
 70
     8
 71
     3
 72
    10
 73
     6
 74
     0
 42
0.0000000427875695
 43
0.0000000001
 12
1.0
 22
0.0
 32
0.0
 13
1.0
 23
0.0
 33
0.0
 40
0.0
 40
0.0
 40
0.0
 40
0.0
 40
0.5
 40
0.5
 40
1.0
 40
1.0
 40
1.0
 40
1.0
 10
3.75634131512953
 20
-2.915182600969536
 30
0.0
 10
3.704073636636459
 20
-2.915182600969535
 30
0.0
 10
3.651899810366212
 20
-2.9234786302945
 30
0.0
 10
3.578166968536802
 20
-2.95167597617725
 30
0.0
 10
3.556341315129552
 20
-2.971805660396728
 30
0.0
 10
3.556341315128967
 20
-2.991789687624763
 30
0.0
  0
LINE
  5
B5
330
1F
100
AcDbEntity
  8
SK1
  6
Continuous
100
AcDbLine
 10
3.5563413151
 20
-2.9917896876
 30
0.0
 11
3.5563413151
 21
-3.3517395924
 31
0.0
  0
LINE
  5
B6
330
1F
100
AcDbEntity
  8
SK1
  6
Continuous
100
AcDbLine
 10
-17.2436586849
 20
0.3
 30
0.0
 11
-17.2436586849
 21
3.602396502
 31
0.0
  0
LINE
  5
B7
330
1F
100
AcDbEntity
  8
SK1
  6
Continuous
100
AcDbLine
 10
-17.0714933051
 20
0.3
 30
0.0
 11
-17.0714933051
 21
3.7426502748
 31
0.0
  0
LINE
  5
B8
330
1F
100
AcDbEntity
  8
SK3
100
AcDbLine
 10
-16.7724889969
 20
-0.3
 30
0.0
 11
-16.7724889969
 21
-3.1487760461
 31
0.0
  0
LINE
  5
B9
330
1F
100
AcDbEntity
  8
SK1
  6
Continuous
100
AcDbLine
 10
-17.2436586849
 20
0.3
 30
0.0
 11
-17.0714933051
 21
0.3
 31
0.0
  0
LINE
  5
BA
330
1F
100
AcDbEntity
  8
SK1
  6
Continuous
100
AcDbLine
 10
-17.0714933051
 20
0.3
 30
0.0
 11
-3.0400682276
 21
0.3
 31
0.0
  0
LINE
  5
BB
330
1F
100
AcDbEntity
  8
SK1
  6
Continuous
100
AcDbLine
 10
-17.2436586849
 20
-0.3
 30
0.0
 11
-17.0714933051
 21
-0.3
 31
0.0
  0
LINE
  5
BC
330
1F
100
AcDbEntity
  8
SK1
  6
Continuous
100
AcDbLine
 10
-17.0714933051
 20
-0.3
 30
0.0
 11
-3.0400682276
 21
-0.3
 31
0.0
  0
LINE
  5
BD
330
1F
100
AcDbEntity
  8
SK1
  6
Continuous
100
AcDbLine
 10
6.2563413151
 20
3.5279464324
 30
0.0
 11
6.2563413151
 21
7.7332783456
 31
0.0
  0
LINE
  5
BE
330
1F
100
AcDbEntity
  8
SK1
  6
Continuous
100
AcDbLine
 10
6.4728476661
 20
3.5279464324
 30
0.0
 11
6.4728476661
 21
7.7332783456
 31
0.0
  0
LINE
  5
BF
330
1F
100
AcDbEntity
  8
SK1
  6
Continuous
100
AcDbLine
 10
3.1006720747
 20
3.5034239393
 30
0.0
 11
3.1006720747
 21
7.6740758101
 31
0.0
  0
LINE
  5
C0
330
1F
100
AcDbEntity
  8
SK1
  6
Continuous
100
AcDbLine
 10
3.5563413151
 20
2.7974118729
 30
0.0
 11
3.5563413151
 21
-2.7974118729
 31
0.0
  0
LINE
  5
C1
330
1F
100
AcDbEntity
  8
SK1
  6
Continuous
100
AcDbLine
 10
10.1313413151
 20
2.7189593472
 30
0.0
 11
10.1313413151
 21
5.7802107527
 31
0.0
  0
LINE
  5
C2
330
1F
100
AcDbEntity
  8
SK1
  6
Continuous
100
AcDbLine
 10
10.2563413151
 20
2.6360112113
 30
0.0
 11
10.2563413151
 21
5.5799562379
 31
0.0
  0
LINE
  5
C3
330
1F
100
AcDbEntity
  8
SK1
  6
Continuous
100
AcDbLine
 10
3.7563413151
 20
2.915182601
 30
0.0
 11
3.7563413151
 21
6.2539355931
 31
0.0
  0
LINE
  5
C4
330
1F
100
AcDbEntity
  8
SK1
  6
Continuous
100
AcDbLine
 10
6.0563413151
 20
2.915182601
 30
0.0
 11
6.0563413151
 21
6.2539355931
 31
0.0
  0
LINE
  5
C5
330
1F
100
AcDbEntity
  8
SK1
  6
Continuous
100
AcDbLine
 10
6.2563413151
 20
3.5279464324
 30
0.0
 11
6.2563413151
 21
2.9917896876
 31
0.0
  0
SPLINE
  5
C6
330
1F
100
AcDbEntity
  8
SK1
  6
Continuous
100
AcDbSpline
210
0.0
220
0.0
230
1.0
 70
     8
 71
     3
 72
    10
 73
     6
 74
     0
 42
0.0000000427782015
 43
0.0000000001
 12
1.0
 22
0.0
 32
0.0
 13
1.0
 23
0.0
 33
0.0
 40
0.0
 40
0.0
 40
0.0
 40
0.0
 40
0.5
 40
0.5
 40
1.0
 40
1.0
 40
1.0
 40
1.0
 10
6.256341315129525
 20
2.99178968762478
 30
0.0
 10
6.256341315129538
 20
2.971822947928047
 30
0.0
 10
6.235147423507224
 20
2.951958054993673
 30
0.0
 10
6.160550780638165
 20
2.923349631873714
 30
0.0
 10
6.10918784460859
 20
2.915182600969228
 30
0.0
 10
6.056341315129534
 20
2.915182600969533
 30
0.0
  0
LINE
  5
C7
330
1F
100
AcDbEntity
  8
SK1
  6
Continuous
100
AcDbLine
 10
6.0563413151
 20
2.915182601
 30
0.0
 11
3.7563413151
 21
2.915182601
 31
0.0
  0
SPLINE
  5
C8
330
1F
100
AcDbEntity
  8
SK1
  6
Continuous
100
AcDbSpline
210
0.0
220
0.0
230
1.0
 70
     8
 71
     3
 72
    10
 73
     6
 74
     0
 42
0.000000042784668
 43
0.0000000001
 12
1.0
 22
0.0
 32
0.0
 13
1.0
 23
0.0
 33
0.0
 40
0.0
 40
0.0
 40
0.0
 40
0.0
 40
0.5
 40
0.5
 40
1.0
 40
1.0
 40
1.0
 40
1.0
 10
3.75634131512953
 20
2.915182600969533
 30
0.0
 10
3.703455533975114
 20
2.915182600969533
 30
0.0
 10
3.651729256012546
 20
2.923505035743491
 30
0.0
 10
3.577947849414153
 20
2.951798797366446
 30
0.0
 10
3.556341315129425
 20
2.971805793902818
 30
0.0
 10
3.556341315127244
 20
2.991789687624882
 30
0.0
  0
LINE
  5
C9
330
1F
100
AcDbEntity
  8
SK1
  6
Continuous
100
AcDbLine
 10
3.5563413151
 20
2.9917896876
 30
0.0
 11
3.5563413151
 21
3.3517395924
 31
0.0
  0
SPLINE
  5
CA
330
1F
100
AcDbEntity
  8
SK1
  6
Continuous
100
AcDbSpline
210
0.0
220
0.0
230
1.0
 70
     8
 71
     3
 72
    10
 73
     6
 74
     0
 42
0.0000000190338767
 43
0.0000000001
 12
1.0
 22
0.0
 32
0.0
 13
1.0
 23
0.0
 33
0.0
 40
0.0
 40
0.0
 40
0.0
 40
0.0
 40
0.5
 40
0.5
 40
1.0
 40
1.0
 40
1.0
 40
1.0
 10
3.100672074745505
 20
3.503423939301026
 30
0.0
 10
3.214685757718182
 20
3.509559778294839
 30
0.0
 10
3.333126973492194
 20
3.495852164154289
 30
0.0
 10
3.504425263116552
 20
3.438826638498639
 30
0.0
 10
3.556341315129529
 20
3.395631201415509
 30
0.0
 10
3.556341315129531
 20
3.351739592398472
 30
0.0
  0
LINE
  5
CB
330
1F
100
AcDbEntity
  8
SK1
  6
Continuous
100
AcDbLine
 10
6.2563413151
 20
3.5279464324
 30
0.0
 11
6.4728476661
 21
3.5279464324
 31
0.0
  0
LINE
  5
CC
330
1F
100
AcDbEntity
  8
SK1
  6
Continuous
100
AcDbLine
 10
6.4728476661
 20
3.5279464324
 30
0.0
 11
10.1313413151
 21
2.7189593472
 31
0.0
  0
SPLINE
  5
CD
330
1F
100
AcDbEntity
  8
SK1
  6
Continuous
100
AcDbSpline
210
0.0
220
0.0
230
1.0
 70
     8
 71
     3
 72
     8
 73
     4
 74
     0
 42
0.0000000587350374
 43
0.0000000001
 12
1.0
 22
0.0
 32
0.0
 13
1.0
 23
0.0
 33
0.0
 40
0.0
 40
0.0
 40
0.0
 40
0.0
 40
1.0
 40
1.0
 40
1.0
 40
1.0
 10
10.13134131512954
 20
2.718959347220847
 30
0.0
 10
10.20765370190067
 20
2.702080081176813
 30
0.0
 10
10.25634131512954
 20
2.669562357695096
 30
0.0
 10
10.25634131512954
 20
2.636011211290577
 30
0.0
  0
LINE
  5
CE
330
1F
100
AcDbEntity
  8
SK1
  6
Continuous
100
AcDbLine
 10
10.2563413151
 20
2.6360112113
 30
0.0
 11
10.2563413151
 21
2.2494285191
 31
0.0
  0
SPLINE
  5
CF
330
1F
100
AcDbEntity
  8
SK1
  6
Continuous
100
AcDbSpline
210
0.0
220
0.0
230
1.0
 70
     8
 71
     3
 72
     8
 73
     4
 74
     0
 42
0.0000000695214963
 43
0.0000000001
 12
1.0
 22
0.0
 32
0.0
 13
1.0
 23
0.0
 33
0.0
 40
0.0
 40
0.0
 40
0.0
 40
0.0
 40
1.0
 40
1.0
 40
1.0
 40
1.0
 10
10.25634131512954
 20
2.249428519069454
 30
0.0
 10
10.25634131512955
 20
2.214952544700541
 30
0.0
 10
10.2248027487717
 20
2.180624810819312
 30
0.0
 10
10.16823958662499
 20
2.153459706145022
 30
0.0
  0
SPLINE
  5
D0
330
1F
100
AcDbEntity
  8
SK3
100
AcDbSpline
210
0.0
220
0.0
230
1.0
 70
     8
 71
     3
 72
    10
 73
     6
 74
     0
 42
0.0000000311462583
 43
0.0000000001
 12
1.0
 22
0.0
 32
0.0
 13
1.0
 23
0.0
 33
0.0
 40
0.0
 40
0.0
 40
0.0
 40
0.0
 40
0.1205461581971074
 40
0.1205461581971074
 40
1.0
 40
1.0
 40
1.0
 40
1.0
 10
10.16823958662499
 20
2.153459706145022
 30
0.0
 10
10.15925499990968
 20
2.149144755754812
 30
0.0
 10
10.1496390257819
 20
2.145010523325432
 30
0.0
 10
10.06484780746816
 20
2.112447038211804
 30
0.0
 10
9.962087311505515
 20
2.096074205823771
 30
0.0
 10
9.856341315129544
 20
2.096074205823919
 30
0.0
  0
SPLINE
  5
D1
330
1F
100
AcDbEntity
  8
SK1
  6
Continuous
100
AcDbSpline
210
0.0
220
0.0
230
1.0
 70
     8
 71
     3
 72
    10
 73
     6
 74
     0
 42
0.0000000190338767
 43
0.0000000001
 12
1.0
 22
0.0
 32
0.0
 13
1.0
 23
0.0
 33
0.0
 40
0.0
 40
0.0
 40
0.0
 40
0.0
 40
0.5
 40
0.5
 40
1.0
 40
1.0
 40
1.0
 40
1.0
 10
3.100672074745505
 20
2.949096219794254
 30
0.0
 10
3.214685757718182
 20
2.955232058788069
 30
0.0
 10
3.333126973492194
 20
2.941524444647515
 30
0.0
 10
3.504425263116552
 20
2.884498918991867
 30
0.0
 10
3.55634131512953
 20
2.841303481908738
 30
0.0
 10
3.556341315129531
 20
2.797411872891701
 30
0.0
  0
LINE
  5
D2
330
1F
100
AcDbEntity
  8
SK1
  6
Continuous
100
AcDbLine
 10
6.2563413151
 20
2.9736187129
 30
0.0
 11
6.4728476661
 21
2.9736187129
 31
0.0
  0
LINE
  5
D3
330
1F
100
AcDbEntity
  8
SK1
  6
Continuous
100
AcDbLine
 10
6.4728476661
 20
2.9736187129
 30
0.0
 11
10.1313413151
 21
2.1646316277
 31
0.0
  0
SPLINE
  5
D4
330
1F
100
AcDbEntity
  8
SK1
  6
Continuous
100
AcDbSpline
210
0.0
220
0.0
230
1.0
 70
     8
 71
     3
 72
     8
 73
     4
 74
     0
 42
0.0000000587350374
 43
0.0000000001
 12
1.0
 22
0.0
 32
0.0
 13
1.0
 23
0.0
 33
0.0
 40
0.0
 40
0.0
 40
0.0
 40
0.0
 40
1.0
 40
1.0
 40
1.0
 40
1.0
 10
10.13134131512954
 20
2.164631627714075
 30
0.0
 10
10.20765370190068
 20
2.14775236167004
 30
0.0
 10
10.25634131512954
 20
2.115234638188326
 30
0.0
 10
10.25634131512954
 20
2.081683491783806
 30
0.0
  0
SPLINE
  5
D5
330
1F
100
AcDbEntity
  8
SK3
100
AcDbSpline
210
0.0
220
0.0
230
1.0
 70
     8
 71
     3
 72
    10
 73
     6
 74
     0
 42
0.0000000213856977
 43
0.0000000001
 12
1.0
 22
0.0
 32
0.0
 13
1.0
 23
0.0
 33
0.0
 40
0.0
 40
0.0
 40
0.0
 40
0.0
 40
0.5
 40
0.5
 40
1.0
 40
1.0
 40
1.0
 40
1.0
 10
10.25634131512954
 20
1.695100799562682
 30
0.0
 10
10.25634131512955
 20
1.65514860410647
 30
0.0
 10
10.21398773286249
 20
1.615395482876373
 30
0.0
 10
10.06484780746816
 20
1.558119318705032
 30
0.0
 10
9.962087311505515
 20
1.541746486316999
 30
0.0
 10
9.856341315129544
 20
1.541746486317146
 30
0.0
  0
SPLINE
  5
D6
330
1F
100
AcDbEntity
  8
SK1
  6
Continuous
100
AcDbSpline
210
0.0
220
0.0
230
1.0
 70
     8
 71
     3
 72
    10
 73
     6
 74
     0
 42
0.0000000427782015
 43
0.0000000001
 12
1.0
 22
0.0
 32
0.0
 13
1.0
 23
0.0
 33
0.0
 40
0.0
 40
0.0
 40
0.0
 40
0.0
 40
0.5
 40
0.5
 40
1.0
 40
1.0
 40
1.0
 40
1.0
 10
6.256341315129525
 20
2.437461968118009
 30
0.0
 10
6.256341315129536
 20
2.417495228421275
 30
0.0
 10
6.235147423507224
 20
2.397630335486902
 30
0.0
 10
6.160550780638165
 20
2.369021912366942
 30
0.0
 10
6.10918784460859
 20
2.360854881462456
 30
0.0
 10
6.056341315129534
 20
2.360854881462761
 30
0.0
  0
LINE
  5
D7
330
1F
100
AcDbEntity
  8
SK1
  6
Continuous
100
AcDbLine
 10
6.0563413151
 20
2.3608548815
 30
0.0
 11
3.7563413151
 21
2.3608548815
 31
0.0
  0
SPLINE
  5
D8
330
1F
100
AcDbEntity
  8
SK1
  6
Continuous
100
AcDbSpline
210
0.0
220
0.0
230
1.0
 70
     8
 71
     3
 72
    10
 73
     6
 74
     0
 42
0.000000042784668
 43
0.0000000001
 12
1.0
 22
0.0
 32
0.0
 13
1.0
 23
0.0
 33
0.0
 40
0.0
 40
0.0
 40
0.0
 40
0.0
 40
0.5
 40
0.5
 40
1.0
 40
1.0
 40
1.0
 40
1.0
 10
3.75634131512953
 20
2.360854881462761
 30
0.0
 10
3.703455533975113
 20
2.360854881462763
 30
0.0
 10
3.651729256012546
 20
2.36917731623672
 30
0.0
 10
3.577947849414152
 20
2.397471077859676
 30
0.0
 10
3.556341315129425
 20
2.417478074396047
 30
0.0
 10
3.556341315127244
 20
2.437461968118111
 30
0.0
  0
LINE
  5
D9
330
1F
100
AcDbEntity
  8
SK1
  6
Continuous
100
AcDbLine
 10
-17.2436586849
 20
4.0266605707
 30
0.0
 11
-17.2436586849
 21
5.3945579902
 31
0.0
  0
LINE
  5
DA
330
1F
100
AcDbEntity
  8
SK1
  6
Continuous
100
AcDbLine
 10
-17.0714933051
 20
4.1669143435
 30
0.0
 11
-17.0714933051
 21
5.5929067778
 31
0.0
  0
LINE
  5
DB
330
1F
100
AcDbEntity
  8
SK3
100
AcDbLine
 10
-16.7724889969
 20
3.1487760461
 30
0.0
 11
-16.7724889969
 21
0.3
 31
0.0
  0
LINE
  5
DC
330
1F
100
AcDbEntity
  8
SK1
  6
Continuous
100
AcDbLine
 10
-17.2436586849
 20
3.7657563659
 30
0.0
 11
-17.14125863
 21
3.7238730376
 31
0.0
  0
LINE
  5
DD
330
1F
100
AcDbEntity
  8
SK3
100
AcDbLine
 10
-17.14125863
 20
3.7238730376
 30
0.0
 11
-16.7724889969
 21
3.5730401148
 31
0.0
  0
LINE
  5
DE
330
1F
100
AcDbEntity
  8
SK3
100
AcDbLine
 10
-16.7724889969
 20
3.5730401148
 30
0.0
 11
-2.7599371393
 21
3.5730401148
 31
0.0
  0
SPLINE
  5
DF
330
1F
100
AcDbEntity
  8
SK1
  6
Continuous
100
AcDbSpline
210
0.0
220
0.0
230
1.0
 70
     8
 71
     3
 72
    10
 73
     6
 74
     0
 42
0.0000000403600054
 43
0.0000000001
 12
1.0
 22
0.0
 32
0.0
 13
1.0
 23
0.0
 33
0.0
 40
0.0
 40
0.0
 40
0.0
 40
0.0
 40
0.5
 40
0.5
 40
1.0
 40
1.0
 40
1.0
 40
1.0
 10
-17.24365868487056
 20
4.026660570748275
 30
0.0
 10
-17.24365868487047
 20
4.060362441508627
 30
0.0
 10
-17.22584582088399
 20
4.09408324219678
 30
0.0
 10
-17.16358367750402
 20
4.144893177240584
 30
0.0
 10
-17.11919414351857
 20
4.162167144720964
 30
0.0
 10
-17.07149330506248
 20
4.166914343512296
 30
0.0
  0
SPLINE
  5
E0
330
1F
100
AcDbEntity
  8
SK1
  6
Continuous
100
AcDbSpline
210
0.0
220
0.0
230
1.0
 70
     8
 71
     3
 72
    11
 73
     7
 74
     0
 42
0.0000000007091853
 43
0.0000000001
 12
1.0
 22
0.0
 32
0.0
 13
1.0
 23
0.0
 33
0.0
 40
0.0
 40
0.0
 40
0.0
 40
0.0
 40
0.6939571910621131
 40
0.6939571910621131
 40
0.6939571910621131
 40
1.0
 40
1.0
 40
1.0
 40
1.0
 10
-17.07149330506248
 20
4.166914343512296
 30
0.0
 10
-13.82578078991345
 20
4.489928425406696
 30
0.0
 10
-10.58004697335969
 20
4.812835490011016
 30
0.0
 10
-7.334302370657398
 20
5.135688319662662
 30
0.0
 10
-5.902893043802747
 20
5.278069994172736
 30
0.0
 10
-4.471481498686307
 20
5.420440518491199
 30
0.0
 10
-3.0400682276043
 20
5.562802365292527
 30
0.0
  0
LINE
  5
E1
330
1F
100
AcDbEntity
  8
SK1
  6
Continuous
100
AcDbLine
 10
-17.2436586849
 20
3.7657563659
 30
0.0
 11
-17.2436586849
 21
4.0266605707
 31
0.0
  0
SPLINE
  5
E2
330
1F
100
AcDbEntity
  8
SK1
  6
Continuous
100
AcDbSpline
210
0.0
220
0.0
230
1.0
 70
     8
 71
     3
 72
    10
 73
     6
 74
     0
 42
0.0000000403600054
 43
0.0000000001
 12
1.0
 22
0.0
 32
0.0
 13
1.0
 23
0.0
 33
0.0
 40
0.0
 40
0.0
 40
0.0
 40
0.0
 40
0.5
 40
0.5
 40
1.0
 40
1.0
 40
1.0
 40
1.0
 10
-17.24365868487045
 20
3.602396502036352
 30
0.0
 10
-17.24365868487046
 20
3.636098372796712
 30
0.0
 10
-17.22584582088399
 20
3.669819173484862
 30
0.0
 10
-17.16358367750401
 20
3.72062910852866
 30
0.0
 10
-17.11919414351855
 20
3.737903076009037
 30
0.0
 10
-17.07149330506248
 20
3.742650274800368
 30
0.0
  0
SPLINE
  5
E3
330
1F
100
AcDbEntity
  8
SK1
  6
Continuous
100
AcDbSpline
210
0.0
220
0.0
230
1.0
 70
     8
 71
     3
 72
    11
 73
     7
 74
     0
 42
0.0000000007091853
 43
0.0000000001
 12
1.0
 22
0.0
 32
0.0
 13
1.0
 23
0.0
 33
0.0
 40
0.0
 40
0.0
 40
0.0
 40
0.0
 40
0.6939571910621131
 40
0.6939571910621131
 40
0.6939571910621131
 40
1.0
 40
1.0
 40
1.0
 40
1.0
 10
-17.07149330506248
 20
3.742650274800368
 30
0.0
 10
-13.82578078991345
 20
4.065664356694768
 30
0.0
 10
-10.58004697335969
 20
4.388571421299087
 30
0.0
 10
-7.334302370657398
 20
4.711424250950733
 30
0.0
 10
-5.902893043802747
 20
4.853805925460806
 30
0.0
 10
-4.471481498686307
 20
4.996176449779271
 30
0.0
 10
-3.0400682276043
 20
5.138538296580599
 30
0.0
  0
LINE
  5
E4
330
1F
100
AcDbEntity
  8
SK3
100
AcDbLine
 10
-17.2436586849
 20
3.3414922971
 30
0.0
 11
-16.7724889969
 21
3.1487760461
 31
0.0
  0
LINE
  5
E5
330
1F
100
AcDbEntity
  8
SK3
100
AcDbLine
 10
-16.7724889969
 20
3.1487760461
 30
0.0
 11
-2.7599371393
 21
3.1487760461
 31
0.0
  0
ELLIPSE
  5
E6
330
1F
100
AcDbEntity
  8
SK1
  6
Continuous
100
AcDbEllipse
 10
49.9400898822
 20
0.1148049374
 30
0.0
 11
-62.20000111424225
 21
6.278571517805086E-7
 31
0.0
210
0.0
220
0.0
230
1.0
 40
0.9238795243
 41
-0.1017061507958061
 42
-0.0976720267532745
  0
SPLINE
  5
E7
330
1F
100
AcDbEntity
  8
SK3
100
AcDbSpline
210
0.0
220
0.0
230
1.0
 70
     8
 71
     3
 72
    35
 73
    31
 74
     0
 42
0.0000000145393839
 43
0.0000000001
 12
1.0
 22
0.0
 32
0.0
 13
1.0
 23
0.0
 33
0.0
 40
0.0
 40
0.0
 40
0.0
 40
0.0
 40
0.1074963562485373
 40
0.1074963562485373
 40
0.1074963562485373
 40
0.2150075823423591
 40
0.2150075823423591
 40
0.2150075823423591
 40
0.3223241866788475
 40
0.3223241866788475
 40
0.3223241866788475
 40
0.4296294314692282
 40
0.4296294314692282
 40
0.4296294314692282
 40
0.5000013151650006
 40
0.5000013151650006
 40
0.5000013151650006
 40
0.607377252824123
 40
0.607377252824123
 40
0.607377252824123
 40
0.7147546653561256
 40
0.7147546653561256
 40
0.7147546653561256
 40
0.8221056559674106
 40
0.8221056559674106
 40
0.8221056559674106
 40
0.9293966782560125
 40
0.9293966782560125
 40
0.9293966782560125
 40
1.0
 40
1.0
 40
1.0
 40
1.0
 10
-12.07804240155835
 20
4.506043055933748
 30
0.0
 10
-12.11165096076973
 20
4.506043055933748
 30
0.0
 10
-12.14572416599047
 20
4.504178643179986
 30
0.0
 10
-12.17744111582073
 20
4.50054272410481
 30
0.0
 10
-12.20916085692901
 20
4.496906485047385
 30
0.0
 10
-12.23939777718781
 20
4.49139272375596
 30
0.0
 10
-12.26563767365684
 20
4.484319073948837
 30
0.0
 10
-12.29183141477238
 20
4.477257866523402
 30
0.0
 10
-12.31476555620987
 20
4.46844014105008
 30
0.0
 10
-12.33254732182583
 20
4.458436398898048
 30
0.0
 10
-12.35032744225342
 20
4.448433582303165
 30
0.0
 10
-12.36344735297409
 20
4.436962468304118
 30
0.0
 10
-12.37082968726881
 20
4.424859447875403
 30
0.0
 10
-12.37571041626858
 20
4.416857702027426
 30
0.0
 10
-12.37819581818546
 20
4.408464442069819
 30
0.0
 10
-12.37819581818548
 20
4.399976273585223
 30
0.0
 10
-12.37819581818552
 20
4.387129255198984
 30
0.0
 10
-12.37241251740441
 20
4.373759128016654
 30
0.0
 10
-12.36132067106046
 20
4.361025959400426
 30
0.0
 10
-12.35022874170497
 20
4.348292695488983
 30
0.0
 10
-12.33352141867631
 20
4.335849899994434
 30
0.0
 10
-12.31257430278962
 20
4.324864653215061
 30
0.0
 10
-12.29163241495251
 20
4.31388214816945
 30
0.0
 10
-12.26587404701975
 20
4.304061147410044
 30
0.0
 10
-12.23743027466776
 20
4.296374020547625
 30
0.0
 10
-12.2090016009352
 20
4.288690974191886
 30
0.0
 10
-12.17710757645217
 20
4.282934825006161
 30
0.0
 10
-12.14438930458638
 20
4.279687759880821
 30
0.0
 10
-12.1226846703553
 20
4.277533723104089
 30
0.0
 10
-12.10029542620791
 20
4.276432996514695
 30
0.0
 10
-12.07804240155835
 20
4.276432996514694
 30
0.0
  0
SPLINE
  5
E8
330
1F
100
AcDbEntity
  8
SK1
  6
Continuous
100
AcDbSpline
210
0.0
220
0.0
230
1.0
 70
     8
 71
     3
 72
    35
 73
    31
 74
     0
 42
0.000000014285121
 43
0.0000000001
 12
1.0
 22
0.0
 32
0.0
 13
1.0
 23
0.0
 33
0.0
 40
0.0
 40
0.0
 40
0.0
 40
0.0
 40
0.1109282350188725
 40
0.1109282350188725
 40
0.1109282350188725
 40
0.2219835961662484
 40
0.2219835961662484
 40
0.2219835961662484
 40
0.3310796898380999
 40
0.3310796898380999
 40
0.3310796898380999
 40
0.4376166855687321
 40
0.4376166855687321
 40
0.4376166855687321
 40
0.5001075690994083
 40
0.5001075690994083
 40
0.5001075690994083
 40
0.6046394905851209
 40
0.6046394905851209
 40
0.6046394905851209
 40
0.7091265106033512
 40
0.7091265106033512
 40
0.7091265106033512
 40
0.8143265814489737
 40
0.8143265814489737
 40
0.8143265814489737
 40
0.9214452333066642
 40
0.9214452333066642
 40
0.9214452333066642
 40
1.0
 40
1.0
 40
1.0
 40
1.0
 10
-11.93848559494636
 20
5.719699751986879
 30
0.0
 10
-11.97323058513382
 20
5.715183277698242
 30
0.0
 10
-12.00849938074787
 20
5.713148824681569
 30
0.0
 10
-12.04137772271436
 20
5.7137711265682
 30
0.0
 10
-12.0742779154307
 20
5.714393842032949
 30
0.0
 10
-12.1057010534598
 20
5.717698876641296
 30
0.0
 10
-12.132863585857
 20
5.723354272523715
 30
0.0
 10
-12.15954859705676
 20
5.728910245739122
 30
0.0
 10
-12.18287300914267
 20
5.73689029978581
 30
0.0
 10
-12.20071045405052
 20
5.746516397709371
 30
0.0
 10
-12.2181362579488
 20
5.755920350774861
 30
0.0
 10
-12.23081516178632
 20
5.767155362841904
 30
0.0
 10
-12.2375988703252
 20
5.779192673603418
 30
0.0
 10
-12.24161648792793
 20
5.786321710962245
 30
0.0
 10
-12.24365868487046
 20
5.793822546544324
 30
0.0
 10
-12.24365868487046
 20
5.80145977586121
 30
0.0
 10
-12.24365868487046
 20
5.814118101254485
 30
0.0
 10
-12.23794471520571
 20
5.827437990704365
 30
0.0
 10
-12.22702140345853
 20
5.840348956594426
 30
0.0
 10
-12.21610069105148
 20
5.853256850156918
 30
0.0
 10
-12.19968009164043
 20
5.866112454350148
 30
0.0
 10
-12.17917658527955
 20
5.877970253508512
 30
0.0
 10
-12.15853006640793
 20
5.889910761136326
 30
0.0
 10
-12.13319562981103
 20
5.901167178456311
 30
0.0
 10
-12.10528760093383
 20
5.910977048064007
 30
0.0
 10
-12.07687233483269
 20
5.920965215144768
 30
0.0
 10
-12.04503689659592
 20
5.92972733822781
 30
0.0
 10
-12.01235789538657
 20
5.936691085753252
 30
0.0
 10
-11.98823970068702
 20
5.941830564086183
 30
0.0
 10
-11.96326516730834
 20
5.946088734040461
 30
0.0
 10
-11.93848559494636
 20
5.949309811405932
 30
0.0
  0
SPLINE
  5
E9
330
1F
100
AcDbEntity
  8
SK3
100
AcDbSpline
210
0.0
220
0.0
230
1.0
 70
     8
 71
     3
 72
    11
 73
     7
 74
     0
 42
0.0000003287049934
 43
0.0000000001
 12
1.0
 22
0.0
 32
0.0
 13
1.0
 23
0.0
 33
0.0
 40
0.0
 40
0.0
 40
0.0
 40
0.0
 40
0.2333754930231297
 40
0.2333754930231297
 40
0.2333754930231297
 40
1.0
 40
1.0
 40
1.0
 40
1.0
 10
-12.3665316059403
 20
-4.43102525318904
 30
0.0
 10
-12.36812936635922
 20
-4.428991374022598
 30
0.0
 10
-12.3695638705318
 20
-4.426934700121576
 30
0.0
 10
-12.37082968726881
 20
-4.424859447875407
 30
0.0
 10
-12.3750215885249
 20
-4.417987005567594
 30
0.0
 10
-12.37744656718752
 20
-4.410825761312479
 30
0.0
 10
-12.37804755658827
 20
-4.403563628777985
 30
0.0
  0
ARC
  5
EA
330
1F
100
AcDbEntity
  8
SK3
100
AcDbCircle
 10
-2.7598053354
 20
-9.5162264187
 30
0.0
 40
4.76318463128702
100
AcDbArc
 50
86.3886851886
 51
90.0015854532
  0
SPLINE
  5
EB
330
1F
100
AcDbEntity
  8
SK1
  6
Continuous
100
AcDbSpline
210
0.0
220
0.0
230
1.0
 70
     8
 71
     3
 72
    23
 73
    19
 74
     0
 42
0.0000000327476852
 43
0.0000000001
 12
1.0
 22
0.0
 32
0.0
 13
1.0
 23
0.0
 33
0.0
 40
0.0
 40
0.0
 40
0.0
 40
0.0
 40
0.1923208162009666
 40
0.1923208162009666
 40
0.1923208162009666
 40
0.3846323453494708
 40
0.3846323453494708
 40
0.3846323453494708
 40
0.5770729487212064
 40
0.5770729487212064
 40
0.5770729487212064
 40
0.7694962031974674
 40
0.7694962031974674
 40
0.7694962031974674
 40
0.8947898157672098
 40
0.8947898157672098
 40
0.8947898157672098
 40
1.0
 40
1.0
 40
1.0
 40
1.0
 10
-3.040068227604303
 20
-7.566990549797828
 30
0.0
 10
-3.006808782225173
 20
-7.571668532101375
 30
0.0
 10
-2.973123424821366
 20
-7.576642199273308
 30
0.0
 10
-2.941797054902173
 20
-7.581462848354032
 30
0.0
 10
-2.910471594185475
 20
-7.586283357522405
 30
0.0
 10
-2.880640356365637
 20
-7.591080522490894
 30
0.0
 10
-2.854755853379055
 20
-7.595366813213642
 30
0.0
 10
-2.828854538130122
 20
-7.599655887928192
 30
0.0
 10
-2.806189739201772
 20
-7.603546794588372
 30
0.0
 10
-2.788625891629007
 20
-7.606611286284445
 30
0.0
 10
-2.771064031496886
 20
-7.609675431217355
 30
0.0
 10
-2.75811703950538
 20
-7.611993320542078
 30
0.0
 10
-2.750854419918705
 20
-7.61329729888847
 30
0.0
 10
-2.746086520737594
 20
-7.614153358773714
 30
0.0
 10
-2.743658684869095
 20
-7.614592741375197
 30
0.0
 10
-2.743658684869072
 20
-7.614592741375199
 30
0.0
 10
-2.743658684869053
 20
-7.614592741375202
 30
0.0
 10
-2.745369671828958
 20
-7.614282135788137
 30
0.0
 10
-2.748714275634742
 20
-7.6136808214013
 30
0.0
  0
SPLINE
  5
EC
330
1F
100
AcDbEntity
  8
SK1
  6
Continuous
100
AcDbSpline
210
0.0
220
0.0
230
1.0
 70
     8
 71
     3
 72
    20
 73
    16
 74
     0
 42
0.0000000333080568
 43
0.0000000001
 12
1.0
 22
0.0
 32
0.0
 13
1.0
 23
0.0
 33
0.0
 40
0.0
 40
0.0
 40
0.0
 40
0.0
 40
0.2146620896316419
 40
0.2146620896316419
 40
0.2146620896316419
 40
0.4293109030727377
 40
0.4293109030727377
 40
0.4293109030727377
 40
0.6441632339819486
 40
0.6441632339819486
 40
0.6441632339819486
 40
0.8592492961046552
 40
0.8592492961046552
 40
0.8592492961046552
 40
1.0
 40
1.0
 40
1.0
 40
1.0
 10
-2.743658684869072
 20
7.614592741375194
 30
0.0
 10
-2.743658684869037
 20
7.614592741375202
 30
0.0
 10
-2.749361342320759
 20
7.613557504224286
 30
0.0
 10
-2.760295876020289
 20
7.611608097773968
 30
0.0
 10
-2.771230027947993
 20
7.609658759385854
 30
0.0
 10
-2.787696359578813
 20
7.606744905458924
 30
0.0
 10
-2.808341868738791
 20
7.603197395577379
 30
0.0
 10
-2.829006811735263
 20
7.599646546387199
 30
0.0
 10
-2.854428497796447
 20
7.595367970078253
 30
0.0
 10
-2.88252074242048
 20
7.590820965064753
 30
0.0
 10
-2.910642507063667
 20
7.586269181946947
 30
0.0
 10
-2.942217470632786
 20
7.581327394180111
 30
0.0
 10
-2.974642025137053
 20
7.576481118453198
 30
0.0
 10
-2.996033489245688
 20
7.573283883059907
 30
0.0
 10
-3.018110802904156
 20
7.570078888854831
 30
0.0
 10
-3.040068227604303
 20
7.566990549797825
 30
0.0
  0
ARC
  5
ED
330
1F
100
AcDbEntity
  8
SK3
100
AcDbCircle
 10
-2.7598053354
 20
9.5162264187
 30
0.0
 40
4.763184631284692
100
AcDbArc
 50
269.9984145468
 51
273.6113148114
  0
LINE
  5
EE
330
1F
100
AcDbEntity
  8
SK1
  6
Continuous
100
AcDbLine
 10
-3.0400682276
 20
7.5669905498
 30
0.0
 11
-17.0714933051
 21
5.5929067778
 31
0.0
  0
LINE
  5
EF
330
1F
100
AcDbEntity
  8
SK3
100
AcDbLine
 10
-2.7599371393
 20
4.7530417892
 30
0.0
 11
-16.7724889969
 21
4.7530417892
 31
0.0
  0
SPLINE
  5
F0
330
1F
100
AcDbEntity
  8
SK3
100
AcDbSpline
210
0.0
220
0.0
230
1.0
 70
     8
 71
     3
 72
    11
 73
     7
 74
     0
 42
0.0000003494348769
 43
0.0000000001
 12
1.0
 22
0.0
 32
0.0
 13
1.0
 23
0.0
 33
0.0
 40
0.0
 40
0.0
 40
0.0
 40
0.0
 40
0.2942329351428826
 40
0.2942329351428826
 40
0.2942329351428826
 40
0.9999999999999999
 40
0.9999999999999999
 40
0.9999999999999999
 40
0.9999999999999999
 10
-12.23300070456933
 20
5.832481524201768
 30
0.0
 10
-12.23474912518364
 20
5.829910161900308
 30
0.0
 10
-12.23628463036861
 20
5.827339955845106
 30
0.0
 10
-12.23759887032519
 20
5.824778648544276
 30
0.0
 10
-12.24078182144505
 20
5.818575431315474
 30
0.0
 10
-12.24272488491617
 20
5.812358490429101
 30
0.0
 10
-12.24339485551947
 20
5.806245373180797
 30
0.0
  0
SPLINE
  5
F1
330
1F
100
AcDbEntity
  8
SK1
  6
Continuous
100
AcDbSpline
210
0.0
220
0.0
230
1.0
 70
     8
 71
     3
 72
    11
 73
     7
 74
     0
 42
0.0000000006593864
 43
0.0000000001
 12
1.0
 22
0.0
 32
0.0
 13
1.0
 23
0.0
 33
0.0
 40
0.0
 40
0.0
 40
0.0
 40
0.0
 40
0.6794373012482287
 40
0.6794373012482287
 40
0.6794373012482287
 40
1.0
 40
1.0
 40
1.0
 40
1.0
 10
-11.93848559494637
 20
-5.719699751986884
 30
0.0
 10
-8.53244937405226
 20
-6.16244775493171
 30
0.0
 10
-5.126396790191435
 20
-6.605088315849422
 30
0.0
 10
-1.720335526325078
 20
-7.047671846979237
 30
0.0
 10
-0.1133348668654246
 20
-7.256485479880321
 30
0.0
 10
1.493667817649402
 20
-7.465285810795528
 30
0.0
 10
3.100672074745504
 20
-7.674075810077291
 30
0.0
  0
LINE
  5
F2
330
1F
100
AcDbEntity
  8
SK3
100
AcDbLine
 10
-12.0780424016
 20
-4.2764329965
 30
0.0
 11
9.8563413151
 21
-4.2764329965
 31
0.0
  0
SPLINE
  5
F3
330
1F
100
AcDbEntity
  8
SK1
  6
Continuous
100
AcDbSpline
210
0.0
220
0.0
230
1.0
 70
     8
 71
     3
 72
    35
 73
    31
 74
     0
 42
0.0000000142844881
 43
0.0000000001
 12
1.0
 22
0.0
 32
0.0
 13
1.0
 23
0.0
 33
0.0
 40
0.0
 40
0.0
 40
0.0
 40
0.0
 40
0.110928235018865
 40
0.110928235018865
 40
0.110928235018865
 40
0.2219835961662431
 40
0.2219835961662431
 40
0.2219835961662431
 40
0.3310796898380912
 40
0.3310796898380912
 40
0.3310796898380912
 40
0.4376166855687227
 40
0.4376166855687227
 40
0.4376166855687227
 40
0.5001075690994063
 40
0.5001075690994063
 40
0.5001075690994063
 40
0.6046394905851206
 40
0.6046394905851206
 40
0.6046394905851206
 40
0.7091265106033522
 40
0.7091265106033522
 40
0.7091265106033522
 40
0.8143265814489762
 40
0.8143265814489762
 40
0.8143265814489762
 40
0.9214452333066598
 40
0.9214452333066598
 40
0.9214452333066598
 40
1.0
 40
1.0
 40
1.0
 40
1.0
 10
-11.93848559494637
 20
-5.949309811405936
 30
0.0
 10
-11.97323058513382
 20
-5.944793337117298
 30
0.0
 10
-12.00849938074787
 20
-5.938196353998801
 30
0.0
 10
-12.04137772271436
 20
-5.929983640076968
 30
0.0
 10
-12.0742779154307
 20
-5.921765468034475
 30
0.0
 10
-12.1057010534598
 20
-5.911690187872491
 30
0.0
 10
-12.132863585857
 20
-5.900474640974327
 30
0.0
 10
-12.15954859705676
 20
-5.889456264991834
 30
0.0
 10
-12.18287300914267
 20
-5.877015668608963
 30
0.0
 10
-12.20071045405052
 20
-5.864087219057481
 30
0.0
 10
-12.2181362579488
 20
-5.851457123897723
 30
0.0
 10
-12.23081516178632
 20
-5.837999340945435
 30
0.0
 10
-12.23759887032519
 20
-5.82477864854428
 30
0.0
 10
-12.24161648792793
 20
-5.816948759302014
 30
0.0
 10
-12.24365868487046
 20
-5.8090970051781
 30
0.0
 10
-12.24365868487046
 20
-5.801459775861214
 30
0.0
 10
-12.24365868487046
 20
-5.788801450467937
 30
0.0
 10
-12.23794471520571
 20
-5.776455708096512
 30
0.0
 10
-12.22702140345853
 20
-5.765483784432731
 30
0.0
 10
-12.21610069105148
 20
-5.754514471676905
 30
0.0
 10
-12.19968009164043
 20
-5.744621347505908
 30
0.0
 10
-12.17917658527955
 20
-5.736687087230463
 30
0.0
 10
-12.15853006640793
 20
-5.728697485275266
 30
0.0
 10
-12.13319562981103
 20
-5.722482084549081
 30
0.0
 10
-12.10528760093383
 20
-5.718605807365291
 30
0.0
 10
-12.07687233483269
 20
-5.714659077621538
 30
0.0
 10
-12.04503689659592
 20
-5.713032904242616
 30
0.0
 10
-12.01235789538658
 20
-5.713883011580724
 30
0.0
 10
-11.98823970068703
 20
-5.714510419198374
 30
0.0
 10
-11.96326516730835
 20
-5.716478674621413
 30
0.0
 10
-11.93848559494637
 20
-5.719699751986884
 30
0.0
  0
SPLINE
  5
F4
330
1F
100
AcDbEntity
  8
SK3
100
AcDbSpline
210
0.0
220
0.0
230
1.0
 70
     8
 71
     3
 72
    35
 73
    31
 74
     0
 42
0.0000000145382466
 43
0.0000000001
 12
1.0
 22
0.0
 32
0.0
 13
1.0
 23
0.0
 33
0.0
 40
0.0
 40
0.0
 40
0.0
 40
0.0
 40
0.1074963562485377
 40
0.1074963562485377
 40
0.1074963562485377
 40
0.21500758234236
 40
0.21500758234236
 40
0.21500758234236
 40
0.3223241866788513
 40
0.3223241866788513
 40
0.3223241866788513
 40
0.4296294314692236
 40
0.4296294314692236
 40
0.4296294314692236
 40
0.5000013151650025
 40
0.5000013151650025
 40
0.5000013151650025
 40
0.6073772528241246
 40
0.6073772528241246
 40
0.6073772528241246
 40
0.714754665356127
 40
0.714754665356127
 40
0.714754665356127
 40
0.8221056559674155
 40
0.8221056559674155
 40
0.8221056559674155
 40
0.9293966782560236
 40
0.9293966782560236
 40
0.9293966782560236
 40
1.0
 40
1.0
 40
1.0
 40
1.0
 10
-12.07804240155835
 20
-4.276432996514697
 30
0.0
 10
-12.11165096076973
 20
-4.276432996514697
 30
0.0
 10
-12.14572416599047
 20
-4.278988407839069
 30
0.0
 10
-12.17744111582073
 20
-4.283845427168125
 30
0.0
 10
-12.20916085692901
 20
-4.288702873943435
 30
0.0
 10
-12.23939777718781
 20
-4.295992205892412
 30
0.0
 10
-12.26563767365684
 20
-4.304975468350958
 30
0.0
 10
-12.29183141477238
 20
-4.313942929464606
 30
0.0
 10
-12.31476555620987
 20
-4.324837815981773
 30
0.0
 10
-12.33254732182583
 20
-4.336598872730094
 30
0.0
 10
-12.35032744225341
 20
-4.348358841332596
 30
0.0
 10
-12.36344735297409
 20
-4.361301947565174
 30
0.0
 10
-12.37082968726881
 20
-4.374244667986328
 30
0.0
 10
-12.37571041626858
 20
-4.382801569959807
 30
0.0
 10
-12.37819581818546
 20
-4.391488105100366
 30
0.0
 10
-12.37819581818548
 20
-4.399976273584967
 30
0.0
 10
-12.37819581818552
 20
-4.412823291971213
 30
0.0
 10
-12.3724125174044
 20
-4.425501539879008
 30
0.0
 10
-12.36132067106046
 20
-4.437014178792276
 30
0.0
 10
-12.35022874170497
 20
-4.448526903866296
 30
0.0
 10
-12.33352141867631
 20
-4.459196369791824
 30
0.0
 10
-12.31257430278962
 20
-4.46827444772943
 30
0.0
 10
-12.29163241495251
 20
-4.4773502599307
 30
0.0
 10
-12.26587404701975
 20
-4.485093284350641
 30
0.0
 10
-12.23743027466776
 20
-4.491022479748441
 30
0.0
 10
-12.2090016009352
 20
-4.49694852779069
 30
0.0
 10
-12.17710757645217
 20
-4.501232953579158
 30
0.0
 10
-12.14438930458637
 20
-4.503639793319442
 30
0.0
 10
-12.12268467035529
 20
-4.505236441713035
 30
0.0
 10
-12.1002954262079
 20
-4.506043055933752
 30
0.0
 10
-12.07804240155835
 20
-4.506043055933752
 30
0.0
  0
LINE
  5
F5
330
1F
100
AcDbEntity
  8
SK3
100
AcDbLine
 10
-12.0780424016
 20
-4.5060430559
 30
0.0
 11
9.8563413151
 21
-4.5060430559
 31
0.0
  0
SPLINE
  5
F6
330
1F
100
AcDbEntity
  8
SK1
  6
Continuous
100
AcDbSpline
210
0.0
220
0.0
230
1.0
 70
     8
 71
     3
 72
    11
 73
     7
 74
     0
 42
0.0000000006593864
 43
0.0000000001
 12
1.0
 22
0.0
 32
0.0
 13
1.0
 23
0.0
 33
0.0
 40
0.0
 40
0.0
 40
0.0
 40
0.0
 40
0.6794373012482287
 40
0.6794373012482287
 40
0.6794373012482287
 40
1.0
 40
1.0
 40
1.0
 40
1.0
 10
-11.93848559494637
 20
-5.949309811405936
 30
0.0
 10
-8.53244937405226
 20
-6.392057814350765
 30
0.0
 10
-5.126396790191435
 20
-6.834698375268478
 30
0.0
 10
-1.720335526325078
 20
-7.27728190639829
 30
0.0
 10
-0.1133348668654246
 20
-7.486095539299376
 30
0.0
 10
1.493667817649402
 20
-7.694895870214585
 30
0.0
 10
3.100672074745504
 20
-7.903685869496345
 30
0.0
  0
ELLIPSE
  5
F7
330
1F
100
AcDbEntity
  8
SK1
  6
Continuous
100
AcDbEllipse
 10
49.9400898871
 20
-0.1148049377
 30
0.0
 11
-62.20000111907889
 21
-6.256805049743528E-7
 31
0.0
210
0.0
220
0.0
230
1.0
 40
0.9238795243
 41
0.0976637248115716
 42
0.1017061508240313
  0
ELLIPSE
  5
F8
330
1F
100
AcDbEntity
  8
SK1
  6
Continuous
100
AcDbEllipse
 10
-64.7780683126
 20
-0.2121320342
 30
0.0
 11
62.20000000389158
 21
-3.670742889436299E-10
 31
0.0
210
0.0
220
0.0
230
1.0
 40
0.7071067812
 41
-0.1219578999880078
 42
-0.1125736773381432
  0
SPLINE
  5
F9
330
1F
100
AcDbEntity
  8
SK3
100
AcDbSpline
210
0.0
220
0.0
230
1.0
 70
     8
 71
     3
 72
    35
 73
    31
 74
     0
 42
0.0000000122803383
 43
0.0000000001
 12
1.0
 22
0.0
 32
0.0
 13
1.0
 23
0.0
 33
0.0
 40
0.0
 40
0.0
 40
0.0
 40
0.0
 40
0.1074963562485331
 40
0.1074963562485331
 40
0.1074963562485331
 40
0.2150075823423602
 40
0.2150075823423602
 40
0.2150075823423602
 40
0.3223241866788468
 40
0.3223241866788468
 40
0.3223241866788468
 40
0.429629431469226
 40
0.429629431469226
 40
0.429629431469226
 40
0.5000013151649931
 40
0.5000013151649931
 40
0.5000013151649931
 40
0.6073772528241166
 40
0.6073772528241166
 40
0.6073772528241166
 40
0.7147546653561195
 40
0.7147546653561195
 40
0.7147546653561195
 40
0.8221056559674066
 40
0.8221056559674066
 40
0.8221056559674066
 40
0.9293966782560146
 40
0.9293966782560146
 40
0.9293966782560146
 40
1.0
 40
1.0
 40
1.0
 40
1.0
 10
-2.759937139306688
 20
-3.57304011477114
 30
0.0
 10
-2.7263285800953
 20
-3.57304011477114
 30
0.0
 10
-2.692255374874561
 20
-3.569221163472814
 30
0.0
 10
-2.660538425044299
 20
-3.561842006346682
 30
0.0
 10
-2.628818683936013
 20
-3.554462199811345
 30
0.0
 10
-2.598581763677214
 20
-3.543313165487342
 30
0.0
 10
-2.572341867208187
 20
-3.529209290013696
 30
0.0
 10
-2.546148126092646
 20
-3.515130222921392
 30
0.0
 10
-2.523213984655159
 20
-3.497713039288877
 30
0.0
 10
-2.505432219039199
 20
-3.478277482237069
 30
0.0
 10
-2.487652098611615
 20
-3.458843723384227
 30
0.0
 10
-2.474532187890941
 20
-3.436851232050349
 30
0.0
 10
-2.467149853596214
 20
-3.414033323977834
 30
0.0
 10
-2.462269124596447
 20
-3.398947577221135
 30
0.0
 10
-2.459783722679577
 20
-3.383280135664096
 30
0.0
 10
-2.459783722679552
 20
-3.367596045401245
 30
0.0
 10
-2.459783722679513
 20
-3.343857850719553
 30
0.0
 10
-2.465567023460623
 20
-3.319527519383053
 30
0.0
 10
-2.476658869804573
 20
-3.29666023756131
 30
0.0
 10
-2.487750799160059
 20
-3.273792784600504
 30
0.0
 10
-2.504458122188718
 20
-3.251761215478258
 30
0.0
 10
-2.52540523807541
 20
-3.232495278499647
 30
0.0
 10
-2.54634712591252
 20
-3.213234149976496
 30
0.0
 10
-2.572105493845276
 20
-3.196211899486825
 30
0.0
 10
-2.60054926619727
 20
-3.182959326795789
 30
0.0
 10
-2.62897793992983
 20
-3.169713788880207
 30
0.0
 10
-2.660871964412862
 20
-3.159874303005749
 30
0.0
 10
-2.693590236278661
 20
-3.15432923568732
 30
0.0
 10
-2.715294870509738
 20
-3.150650751125946
 30
0.0
 10
-2.737684114657126
 20
-3.148776046059212
 30
0.0
 10
-2.759937139306688
 20
-3.148776046059212
 30
0.0
  0
SPLINE
  5
FA
330
1F
100
AcDbEntity
  8
SK1
  6
Continuous
100
AcDbSpline
210
0.0
220
0.0
230
1.0
 70
     8
 71
     3
 72
    35
 73
    31
 74
     0
 42
0.0000000123399522
 43
0.0000000001
 12
1.0
 22
0.0
 32
0.0
 13
1.0
 23
0.0
 33
0.0
 40
0.0
 40
0.0
 40
0.0
 40
0.0
 40
0.1074674443062707
 40
0.1074674443062707
 40
0.1074674443062707
 40
0.2149296990765753
 40
0.2149296990765753
 40
0.2149296990765753
 40
0.3224640795645798
 40
0.3224640795645798
 40
0.3224640795645798
 40
0.429988765618588
 40
0.429988765618588
 40
0.429988765618588
 40
0.5000019061450287
 40
0.5000019061450287
 40
0.5000019061450287
 40
0.6073325417835037
 40
0.6073325417835037
 40
0.6073325417835037
 40
0.7146565393523562
 40
0.7146565393523562
 40
0.7146565393523562
 40
0.8220822952673326
 40
0.8220822952673326
 40
0.8220822952673326
 40
0.929624916343534
 40
0.929624916343534
 40
0.929624916343534
 40
1.0
 40
1.0
 40
1.0
 40
1.0
 10
-3.040068227604305
 20
-5.138538296580601
 30
0.0
 10
-3.006808782225177
 20
-5.141846129589707
 30
0.0
 10
-2.973123424821371
 20
-5.149463316357619
 30
0.0
 10
-2.941797054902179
 20
-5.160729959621512
 30
0.0
 10
-2.910471594185481
 20
-5.17199627588741
 30
0.0
 10
-2.880640356365644
 20
-5.18721966537752
 30
0.0
 10
-2.854755853379062
 20
-5.205076672422154
 30
0.0
 10
-2.82885453813013
 20
-5.222945277784413
 30
0.0
 10
-2.806189739201781
 20
-5.243940720636107
 30
0.0
 10
-2.788625891629016
 20
-5.26625205559123
 30
0.0
 10
-2.771064031496894
 20
-5.288560865902833
 30
0.0
 10
-2.758117039505383
 20
-5.312798750538394
 30
0.0
 10
-2.750854419918708
 20
-5.336902400000263
 30
0.0
 10
-2.746086520737584
 20
-5.352726410766596
 30
0.0
 10
-2.743658684870466
 20
-5.368730765200419
 30
0.0
 10
-2.743658684870466
 20
-5.384330163400088
 30
0.0
 10
-2.743658684870466
 20
-5.408049589077363
 30
0.0
 10
-2.74936134232082
 20
-5.431364028551662
 30
0.0
 10
-2.76029587602029
 20
-5.452367034312129
 30
0.0
 10
-2.771230027947994
 20
-5.473369306767012
 30
0.0
 10
-2.787696359578808
 20
-5.492641630714219
 30
0.0
 10
-2.808341868738786
 20
-5.508657765826956
 30
0.0
 10
-2.829006811735257
 20
-5.524688977097354
 30
0.0
 10
-2.854428497796444
 20
-5.537903409630238
 30
0.0
 10
-2.882520742420477
 20
-5.547286078106761
 30
0.0
 10
-2.910642507063664
 20
-5.556678606121274
 30
0.0
 10
-2.942217470632783
 20
-5.5624933766272
 30
0.0
 10
-2.974642025137051
 20
-5.564300813233631
 30
0.0
 10
-2.996033489245685
 20
-5.565493234097576
 30
0.0
 10
-3.018110802904153
 20
-5.564986150782344
 30
0.0
 10
-3.040068227604301
 20
-5.562802365292531
 30
0.0
  0
LINE
  5
FB
330
1F
100
AcDbEntity
  8
SK1
  6
Continuous
100
AcDbLine
 10
-11.9384855949
 20
-2.1395671506
 30
0.0
 11
3.1006720747
 21
-2.9490962198
 31
0.0
  0
LINE
  5
FC
330
1F
100
AcDbEntity
  8
SK3
100
AcDbLine
 10
-12.0780424016
 20
-1.5417464863
 30
0.0
 11
9.8563413151
 21
-1.5417464863
 31
0.0
  0
SPLINE
  5
FD
330
1F
100
AcDbEntity
  8
SK1
  6
Continuous
100
AcDbSpline
210
0.0
220
0.0
230
1.0
 70
     8
 71
     3
 72
    35
 73
    31
 74
     0
 42
0.0000000108719605
 43
0.0000000001
 12
1.0
 22
0.0
 32
0.0
 13
1.0
 23
0.0
 33
0.0
 40
0.0
 40
0.0
 40
0.0
 40
0.0
 40
0.1109282350188726
 40
0.1109282350188726
 40
0.1109282350188726
 40
0.22198359616625
 40
0.22198359616625
 40
0.22198359616625
 40
0.3310796898381013
 40
0.3310796898381013
 40
0.3310796898381013
 40
0.4376166855687333
 40
0.4376166855687333
 40
0.4376166855687333
 40
0.5001075690994093
 40
0.5001075690994093
 40
0.5001075690994093
 40
0.6046394905851217
 40
0.6046394905851217
 40
0.6046394905851217
 40
0.7091265106033517
 40
0.7091265106033517
 40
0.7091265106033517
 40
0.8143265814489741
 40
0.8143265814489741
 40
0.8143265814489741
 40
0.9214452333066643
 40
0.9214452333066643
 40
0.9214452333066643
 40
1.0
 40
1.0
 40
1.0
 40
1.0
 10
-11.93848559494636
 20
-2.693894870062714
 30
0.0
 10
-11.97323058513382
 20
-2.692024085158251
 30
0.0
 10
-12.00849938074787
 20
-2.684728995177997
 30
0.0
 10
-12.04137772271436
 20
-2.67249216187922
 30
0.0
 10
-12.0742779154307
 20
-2.66024719605406
 30
0.0
 10
-12.1057010534598
 20
-2.642693563595927
 30
0.0
 10
-12.132863585857
 20
-2.621176989180692
 30
0.0
 10
-12.15954859705676
 20
-2.600038679215515
 30
0.0
 10
-12.18287300914267
 20
-2.574464965040164
 30
0.0
 10
-12.20071045405052
 20
-2.546555278420439
 30
0.0
 10
-12.2181362579488
 20
-2.519289673485956
 30
0.0
 10
-12.23081516178632
 20
-2.489022482248314
 30
0.0
 10
-12.2375988703252
 20
-2.458288288989124
 30
0.0
 10
-12.24161648792793
 20
-2.440086116072004
 30
0.0
 10
-12.24365868487046
 20
-2.421481223319469
 30
0.0
 10
-12.24365868487046
 20
-2.403043320723691
 30
0.0
 10
-12.24365868487046
 20
-2.372483419882315
 30
0.0
 10
-12.23794471520571
 20
-2.341704014133198
 30
0.0
 10
-12.22702140345853
 20
-2.313276404992497
 30
0.0
 10
-12.21610069105148
 20
-2.284855560560804
 30
0.0
 10
-12.19968009164043
 20
-2.258008965990708
 30
0.0
 10
-12.17917658527955
 20
-2.234930428343412
 30
0.0
 10
-12.15853006640793
 20
-2.211690917272595
 30
0.0
 10
-12.13319562981103
 20
-2.191644595950058
 30
0.0
 10
-12.10528760093383
 20
-2.176352842577527
 30
0.0
 10
-12.07687233483269
 20
-2.160783156766127
 30
0.0
 10
-12.04503689659592
 20
-2.149721277235847
 30
0.0
 10
-12.01235789538657
 20
-2.143959763037427
 30
0.0
 10
-11.98823970068702
 20
-2.139707573066518
 30
0.0
 10
-11.96326516730834
 20
-2.138232936625711
 30
0.0
 10
-11.93848559494636
 20
-2.139567150555942
 30
0.0
  0
SPLINE
  5
FE
330
1F
100
AcDbEntity
  8
SK3
100
AcDbSpline
210
0.0
220
0.0
230
1.0
 70
     8
 71
     3
 72
    35
 73
    31
 74
     0
 42
0.0000000109733021
 43
0.0000000001
 12
1.0
 22
0.0
 32
0.0
 13
1.0
 23
0.0
 33
0.0
 40
0.0
 40
0.0
 40
0.0
 40
0.0
 40
0.1074963562485373
 40
0.1074963562485373
 40
0.1074963562485373
 40
0.2150075823423591
 40
0.2150075823423591
 40
0.2150075823423591
 40
0.3223241866788474
 40
0.3223241866788474
 40
0.3223241866788474
 40
0.4296294314692278
 40
0.4296294314692278
 40
0.4296294314692278
 40
0.5000013151650022
 40
0.5000013151650022
 40
0.5000013151650022
 40
0.607377252824126
 40
0.607377252824126
 40
0.607377252824126
 40
0.7147546653561313
 40
0.7147546653561313
 40
0.7147546653561313
 40
0.822105655967421
 40
0.822105655967421
 40
0.822105655967421
 40
0.9293966782560271
 40
0.9293966782560271
 40
0.9293966782560271
 40
1.0
 40
1.0
 40
1.0
 40
1.0
 10
-12.07804240155835
 20
-1.54174648631715
 30
0.0
 10
-12.11165096076973
 20
-1.54174648631715
 30
0.0
 10
-12.14572416599047
 20
-1.547224796423279
 30
0.0
 10
-12.17744111582073
 20
-1.557729578106316
 30
0.0
 10
-12.20916085692901
 20
-1.56823528427189
 30
0.0
 10
-12.23939777718781
 20
-1.584057717666196
 30
0.0
 10
-12.26563767365684
 20
-1.603835619076551
 30
0.0
 10
-12.29183141477238
 20
-1.623578731628961
 30
0.0
 10
-12.31476555620987
 20
-1.647804153375373
 30
0.0
 10
-12.33254732182583
 20
-1.674440541488719
 30
0.0
 10
-12.35032744225342
 20
-1.701074465174346
 30
0.0
 10
-12.36344735297408
 20
-1.730849895546742
 30
0.0
 10
-12.37082968726881
 20
-1.76125668672906
 30
0.0
 10
-12.37571041626858
 20
-1.781359719399828
 30
0.0
 10
-12.37819581818545
 20
-1.802037595163242
 30
0.0
 10
-12.37819581818548
 20
-1.822529846638467
 30
0.0
 10
-12.37819581818551
 20
-1.853545292662594
 30
0.0
 10
-12.37241251740441
 20
-1.884845169983253
 30
0.0
 10
-12.36132067106046
 20
-1.913859668689329
 30
0.0
 10
-12.35022874170497
 20
-1.942874384540328
 30
0.0
 10
-12.33352141867631
 20
-1.970406083450036
 30
0.0
 10
-12.31257430278962
 20
-1.99422967116905
 30
0.0
 10
-12.29163241495251
 20
-2.01804731291925
 30
0.0
 10
-12.26587404701975
 20
-2.038818603827125
 30
0.0
 10
-12.23743027466776
 20
-2.054890879235072
 30
0.0
 10
-12.20900160093519
 20
-2.070954623103433
 30
0.0
 10
-12.17710757645216
 20
-2.082769865346189
 30
0.0
 10
-12.14438930458636
 20
-2.089420715874696
 30
0.0
 10
-12.12268467035529
 20
-2.093832754463987
 30
0.0
 10
-12.1002954262079
 20
-2.096074205823922
 30
0.0
 10
-12.07804240155835
 20
-2.096074205823922
 30
0.0
  0
LINE
  5
FF
330
1F
100
AcDbEntity
  8
SK3
100
AcDbLine
 10
-12.0780424016
 20
-2.0960742058
 30
0.0
 11
9.8563413151
 21
-2.0960742058
 31
0.0
  0
LINE
  5
100
330
1F
100
AcDbEntity
  8
SK1
  6
Continuous
100
AcDbLine
 10
-11.9384855949
 20
-2.6938948701
 30
0.0
 11
3.1006720747
 21
-3.5034239393
 31
0.0
  0
ELLIPSE
  5
101
330
1F
100
AcDbEntity
  8
SK1
  6
Continuous
100
AcDbEllipse
 10
49.9400898806
 20
-0.2771638219
 30
0.0
 11
-62.20000111269499
 21
-4.422412827749065E-8
 31
0.0
210
0.0
220
0.0
230
1.0
 40
0.382683429
 41
0.0792509397358292
 42
0.1017061598509588
  0
LINE
  5
102
330
1F
100
AcDbEntity
  8
SK3
100
AcDbLine
 10
-3.0400682276
 20
-0.3
 30
0.0
 11
-2.7599371393
 21
-0.3
 31
0.0
  0
ARC
  5
103
330
1F
100
AcDbEntity
  8
SK3
100
AcDbCircle
 10
-2.7597530882
 20
0.0
 30
0.0
 40
0.3000000564580067
100
AcDbArc
 50
269.9648488337
 51
90.0351511663
  0
ARC
  5
104
330
1F
100
AcDbEntity
  8
SK1
  6
Continuous
100
AcDbCircle
 10
-3.0436676371
 20
0.0
 30
0.0
 40
0.300021592137468
100
AcDbArc
 50
270.6874035924
 51
89.3125964076
  0
LINE
  5
105
330
1F
100
AcDbEntity
  8
SK3
100
AcDbLine
 10
-2.7599371393
 20
0.3
 30
0.0
 11
-3.0400682276
 21
0.3
 31
0.0
  0
SPLINE
  5
106
330
1F
100
AcDbEntity
  8
SK3
100
AcDbSpline
210
0.0
220
0.0
230
1.0
 70
     8
 71
     3
 72
     8
 73
     4
 74
     0
 42
0.0000001495875715
 43
0.0000000001
 12
1.0
 22
0.0
 32
0.0
 13
1.0
 23
0.0
 33
0.0
 40
0.0
 40
0.0
 40
0.0
 40
0.0
 40
1.0
 40
1.0
 40
1.0
 40
1.0
 10
-12.24365868487046
 20
-2.403043320723692
 30
0.0
 10
-12.24365868487046
 20
-2.425011434534496
 30
0.0
 10
-12.24070598307154
 20
-2.447301489549301
 30
0.0
 10
-12.23498803293853
 20
-2.468956903590481
 30
0.0
  0
LINE
  5
107
330
1F
100
AcDbEntity
  8
SK1
  6
Continuous
100
AcDbLine
 10
-11.9384855949
 20
2.6938948701
 30
0.0
 11
3.1006720747
 21
3.5034239393
 31
0.0
  0
LINE
  5
108
330
1F
100
AcDbEntity
  8
SK3
100
AcDbLine
 10
-12.0780424016
 20
2.0960742058
 30
0.0
 11
9.8563413151
 21
2.0960742058
 31
0.0
  0
ELLIPSE
  5
109
330
1F
100
AcDbEntity
  8
SK1
  6
Continuous
100
AcDbEllipse
 10
49.9400898823
 20
0.2771638215
 30
0.0
 11
-62.20000111444467
 21
4.463183549439486E-8
 31
0.0
210
0.0
220
0.0
230
1.0
 40
0.382683429
 41
-0.1017061598470317
 42
-0.0792146451380606
  0
SPLINE
  5
10A
330
1F
100
AcDbEntity
  8
SK1
  6
Continuous
100
AcDbSpline
210
0.0
220
0.0
230
1.0
 70
     8
 71
     3
 72
    35
 73
    31
 74
     0
 42
0.0000000108716644
 43
0.0000000001
 12
1.0
 22
0.0
 32
0.0
 13
1.0
 23
0.0
 33
0.0
 40
0.0
 40
0.0
 40
0.0
 40
0.0
 40
0.1109282350188697
 40
0.1109282350188697
 40
0.1109282350188697
 40
0.2219835961662447
 40
0.2219835961662447
 40
0.2219835961662447
 40
0.3310796898380918
 40
0.3310796898380918
 40
0.3310796898380918
 40
0.4376166855687228
 40
0.4376166855687228
 40
0.4376166855687228
 40
0.5001075690994052
 40
0.5001075690994052
 40
0.5001075690994052
 40
0.6046394905851171
 40
0.6046394905851171
 40
0.6046394905851171
 40
0.7091265106033473
 40
0.7091265106033473
 40
0.7091265106033473
 40
0.8143265814489673
 40
0.8143265814489673
 40
0.8143265814489673
 40
0.9214452333066556
 40
0.9214452333066556
 40
0.9214452333066556
 40
1.0
 40
1.0
 40
1.0
 40
1.0
 10
-11.93848559494636
 20
2.139567150555938
 30
0.0
 10
-11.97323058513382
 20
2.137696365651475
 30
0.0
 10
-12.00849938074787
 20
2.141416197721786
 30
0.0
 10
-12.04137772271436
 20
2.150508979411581
 30
0.0
 10
-12.0742779154307
 20
2.159607804109823
 30
0.0
 10
-12.1057010534598
 20
2.174357109039045
 30
0.0
 10
-12.132863585857
 20
2.193570593494715
 30
0.0
 10
-12.15954859705676
 20
2.212446302150618
 30
0.0
 10
-12.18287300914267
 20
2.236172399194782
 30
0.0
 10
-12.20071045405052
 20
2.262714206982495
 30
0.0
 10
-12.2181362579488
 20
2.28864350010739
 30
0.0
 10
-12.23081516178632
 20
2.317989989498316
 30
0.0
 10
-12.23759887032519
 20
2.348234010032903
 30
0.0
 10
-12.24161648792793
 20
2.366145880594689
 30
0.0
 10
-12.24365868487046
 20
2.384605418127908
 30
0.0
 10
-12.24365868487046
 20
2.403043320723688
 30
0.0
 10
-12.24365868487046
 20
2.433603221565066
 30
0.0
 10
-12.23794471520572
 20
2.464786132245826
 30
0.0
 10
-12.22702140345853
 20
2.494016918974664
 30
0.0
 10
-12.21610069105149
 20
2.523240749868234
 30
0.0
 10
-12.19968009164043
 20
2.551314443841799
 30
0.0
 10
-12.17917658527955
 20
2.576018164506898
 30
0.0
 10
-12.15853006640793
 20
2.600894194290969
 30
0.0
 10
-12.13319562981103
 20
2.623028573054806
 30
0.0
 10
-12.10528760093383
 20
2.640778100882913
 30
0.0
 10
-12.0768723348327
 20
2.658850231975528
 30
0.0
 10
-12.04503689659592
 20
2.672867918653667
 30
0.0
 10
-12.01235789538658
 20
2.681866037510985
 30
0.0
 10
-11.98823970068702
 20
2.688506949855284
 30
0.0
 10
-11.96326516730834
 20
2.69256065613248
 30
0.0
 10
-11.93848559494636
 20
2.693894870062711
 30
0.0
  0
SPLINE
  5
10B
330
1F
100
AcDbEntity
  8
SK3
100
AcDbSpline
210
0.0
220
0.0
230
1.0
 70
     8
 71
     3
 72
    35
 73
    31
 74
     0
 42
0.0000000109735208
 43
0.0000000001
 12
1.0
 22
0.0
 32
0.0
 13
1.0
 23
0.0
 33
0.0
 40
0.0
 40
0.0
 40
0.0
 40
0.0
 40
0.1074963562485376
 40
0.1074963562485376
 40
0.1074963562485376
 40
0.21500758234236
 40
0.21500758234236
 40
0.21500758234236
 40
0.3223241866788489
 40
0.3223241866788489
 40
0.3223241866788489
 40
0.4296294314692247
 40
0.4296294314692247
 40
0.4296294314692247
 40
0.5000013151650017
 40
0.5000013151650017
 40
0.5000013151650017
 40
0.6073772528241248
 40
0.6073772528241248
 40
0.6073772528241248
 40
0.7147546653561269
 40
0.7147546653561269
 40
0.7147546653561269
 40
0.8221056559674157
 40
0.8221056559674157
 40
0.8221056559674157
 40
0.9293966782560233
 40
0.9293966782560233
 40
0.9293966782560233
 40
1.0
 40
1.0
 40
1.0
 40
1.0
 10
-12.07804240155835
 20
2.096074205823918
 30
0.0
 10
-12.11165096076973
 20
2.096074205823918
 30
0.0
 10
-12.14572416599047
 20
2.090882116697316
 30
0.0
 10
-12.17744111582073
 20
2.080883131300454
 30
0.0
 10
-12.20916085692901
 20
2.070883265934102
 30
0.0
 10
-12.23939777718781
 20
2.055796297987105
 30
0.0
 10
-12.26563767365684
 20
2.036809384035849
 30
0.0
 10
-12.29183141477238
 20
2.017855867614421
 30
0.0
 10
-12.31476555620987
 20
1.994490834143603
 30
0.0
 10
-12.33254732182583
 20
1.968582349569394
 30
0.0
 10
-12.35032744225342
 20
1.942676262076475
 30
0.0
 10
-12.36344735297409
 20
1.913510550850919
 30
0.0
 10
-12.37082968726881
 20
1.883451574793795
 30
0.0
 10
-12.37571041626858
 20
1.863578495319444
 30
0.0
 10
-12.37819581818546
 20
1.843022098114315
 30
0.0
 10
-12.37819581818548
 20
1.82252984663909
 30
0.0
 10
-12.37819581818552
 20
1.791514400614966
 30
0.0
 10
-12.3724125174044
 20
1.759927937515271
 30
0.0
 10
-12.36132067106046
 20
1.73040787885295
 30
0.0
 10
-12.35022874170497
 20
1.700887599262088
 30
0.0
 10
-12.33352141867631
 20
1.672621363194335
 30
0.0
 10
-12.31257430278962
 20
1.648007800275325
 30
0.0
 10
-12.29163241495251
 20
1.623400380489719
 30
0.0
 10
-12.26587404701975
 20
1.601768363599749
 30
0.0
 10
-12.23743027466776
 20
1.584967929137433
 30
0.0
 10
-12.2090016009352
 20
1.568176412738556
 30
0.0
 10
-12.17710757645217
 20
1.555751562704594
 30
0.0
 10
-12.14438930458637
 20
1.548752679426146
 30
0.0
 10
-12.12268467035529
 20
1.544109763009051
 30
0.0
 10
-12.1002954262079
 20
1.541746486317146
 30
0.0
 10
-12.07804240155835
 20
1.541746486317146
 30
0.0
  0
LINE
  5
10C
330
1F
100
AcDbEntity
  8
SK3
100
AcDbLine
 10
-12.0780424016
 20
1.5417464863
 30
0.0
 11
9.8563413151
 21
1.5417464863
 31
0.0
  0
LINE
  5
10D
330
1F
100
AcDbEntity
  8
SK1
  6
Continuous
100
AcDbLine
 10
-11.9384855949
 20
2.1395671506
 30
0.0
 11
3.1006720747
 21
2.9490962198
 31
0.0
  0
SPLINE
  5
10E
330
1F
100
AcDbEntity
  8
SK3
100
AcDbSpline
210
0.0
220
0.0
230
1.0
 70
     8
 71
     3
 72
    35
 73
    31
 74
     0
 42
0.0000000122798664
 43
0.0000000001
 12
1.0
 22
0.0
 32
0.0
 13
1.0
 23
0.0
 33
0.0
 40
0.0
 40
0.0
 40
0.0
 40
0.0
 40
0.107496356248533
 40
0.107496356248533
 40
0.107496356248533
 40
0.2150075823423599
 40
0.2150075823423599
 40
0.2150075823423599
 40
0.3223241866788468
 40
0.3223241866788468
 40
0.3223241866788468
 40
0.4296294314692259
 40
0.4296294314692259
 40
0.4296294314692259
 40
0.5000013151649935
 40
0.5000013151649935
 40
0.5000013151649935
 40
0.6073772528241156
 40
0.6073772528241156
 40
0.6073772528241156
 40
0.7147546653561183
 40
0.7147546653561183
 40
0.7147546653561183
 40
0.8221056559674054
 40
0.8221056559674054
 40
0.8221056559674054
 40
0.9293966782560186
 40
0.9293966782560186
 40
0.9293966782560186
 40
1.0
 40
1.0
 40
1.0
 40
1.0
 10
-2.759937139306688
 20
3.148776046059209
 30
0.0
 10
-2.7263285800953
 20
3.148776046059209
 30
0.0
 10
-2.692255374874561
 20
3.153123864767058
 30
0.0
 10
-2.660538425044299
 20
3.161437611566025
 30
0.0
 10
-2.628818683936013
 20
3.16975209002358
 30
0.0
 10
-2.598581763677213
 20
3.182260087294861
 30
0.0
 10
-2.572341867208187
 20
3.197825517016377
 30
0.0
 10
-2.546148126092646
 20
3.213363567517408
 30
0.0
 10
-2.523213984655159
 20
3.232370541385591
 30
0.0
 10
-2.505432219039199
 20
3.253151088800303
 30
0.0
 10
-2.487652098611615
 20
3.273929713576072
 30
0.0
 10
-2.474532187890941
 20
3.297048818990636
 30
0.0
 10
-2.467149853596214
 20
3.320509405613677
 30
0.0
 10
-2.462269124596447
 20
3.336020050473587
 30
0.0
 10
-2.459783722679577
 20
3.351911955137907
 30
0.0
 10
-2.459783722679552
 20
3.367596045400761
 30
0.0
 10
-2.459783722679513
 20
3.391334240082456
 30
0.0
 10
-2.465567023460623
 20
3.415135029947836
 30
0.0
 10
-2.476658869804573
 20
3.437068158777513
 30
0.0
 10
-2.487750799160058
 20
3.459001451755039
 30
0.0
 10
-2.504458122188718
 20
3.47967577318491
 30
0.0
 10
-2.525405238075409
 20
3.497482026326587
 30
0.0
 10
-2.546347125912519
 20
3.515283835325461
 30
0.0
 10
-2.572105493845276
 20
3.530715671579212
 30
0.0
 10
-2.600549266197269
 20
3.542622781776764
 30
0.0
 10
-2.62897793992983
 20
3.554523571401814
 30
0.0
 10
-2.660871964412864
 20
3.563236648953962
 30
0.0
 10
-2.693590236278665
 20
3.568138635603765
 30
0.0
 10
-2.715294870509741
 20
3.571390513565901
 30
0.0
 10
-2.737684114657127
 20
3.573040114771139
 30
0.0
 10
-2.759937139306688
 20
3.573040114771138
 30
0.0
  0
SPLINE
  5
10F
330
1F
100
AcDbEntity
  8
SK1
  6
Continuous
100
AcDbSpline
210
0.0
220
0.0
230
1.0
 70
     8
 71
     3
 72
    35
 73
    31
 74
     0
 42
0.0000000123404959
 43
0.0000000001
 12
1.0
 22
0.0
 32
0.0
 13
1.0
 23
0.0
 33
0.0
 40
0.0
 40
0.0
 40
0.0
 40
0.0
 40
0.1074674443062806
 40
0.1074674443062806
 40
0.1074674443062806
 40
0.2149296990765917
 40
0.2149296990765917
 40
0.2149296990765917
 40
0.3224640795646004
 40
0.3224640795646004
 40
0.3224640795646004
 40
0.4299887656186115
 40
0.4299887656186115
 40
0.4299887656186115
 40
0.5000019061450258
 40
0.5000019061450258
 40
0.5000019061450258
 40
0.6073325417834998
 40
0.6073325417834998
 40
0.6073325417834998
 40
0.7146565393523522
 40
0.7146565393523522
 40
0.7146565393523522
 40
0.8220822952673292
 40
0.8220822952673292
 40
0.8220822952673292
 40
0.9296249163435369
 40
0.9296249163435369
 40
0.9296249163435369
 40
1.0
 40
1.0
 40
1.0
 40
1.0
 10
-3.0400682276043
 20
5.562802365292527
 30
0.0
 10
-3.006808782225169
 20
5.566110198301635
 30
0.0
 10
-2.97312342482136
 20
5.565526839103001
 30
0.0
 10
-2.941797054902167
 20
5.56107762314851
 30
0.0
 10
-2.910471594185467
 20
5.556628536326066
 30
0.0
 10
-2.880640356365627
 20
5.548189362595334
 30
0.0
 10
-2.854755853379046
 20
5.536394086023082
 30
0.0
 10
-2.828854538130113
 20
5.524591148292169
 30
0.0
 10
-2.806189739201763
 20
5.509098278409227
 30
0.0
 10
-2.788625891628999
 20
5.491120789172471
 30
0.0
 10
-2.771064031496879
 20
5.473145334182063
 30
0.0
 10
-2.75811703950538
 20
5.452185440065602
 30
0.0
 10
-2.750854419918707
 20
5.429925894466238
 30
0.0
 10
-2.746086520737588
 20
5.415312535199831
 30
0.0
 10
-2.743658684870469
 20
5.399929561599747
 30
0.0
 10
-2.743658684870469
 20
5.384330163400085
 30
0.0
 10
-2.743658684870469
 20
5.36061073772281
 30
0.0
 10
-2.749361342320816
 20
5.335832251829764
 30
0.0
 10
-2.760295876020286
 20
5.312072369028696
 30
0.0
 10
-2.77123002794799
 20
5.288313315787689
 30
0.0
 10
-2.787696359578808
 20
5.264920180098243
 30
0.0
 10
-2.808341868738785
 20
5.243887108398373
 30
0.0
 10
-2.829006811735256
 20
5.222834238045282
 30
0.0
 10
-2.854428497796443
 20
5.203568984868637
 30
0.0
 10
-2.882520742420474
 20
5.187755880233846
 30
0.0
 10
-2.910642507063662
 20
5.171926158801148
 30
0.0
 10
-2.942217470632784
 20
5.159122645012991
 30
0.0
 10
-2.974642025137054
 20
5.150461539546564
 30
0.0
 10
-2.996033489245687
 20
5.144747545027323
 30
0.0
 10
-3.018110802904154
 20
5.140722082070411
 30
0.0
 10
-3.0400682276043
 20
5.138538296580599
 30
0.0
  0
ELLIPSE
  5
110
330
1F
100
AcDbEntity
  8
SK1
  6
Continuous
100
AcDbEllipse
 10
-64.7780683118
 20
0.212132034
 30
0.0
 11
62.20000000307206
 21
6.128040044243690E-10
 31
0.0
210
0.0
220
0.0
230
1.0
 40
0.7071067812
 41
0.1125416094958387
 42
0.1219578999860574
  0
LINE
  5
111
330
1F
100
AcDbEntity
  8
SK1
  6
Continuous
100
AcDbLine
 10
3.1006720747
 20
8.4359598646
 30
0.0
 11
-2.7436586849
 21
7.6145927414
 31
0.0
  0
LINE
  5
112
330
1F
100
AcDbEntity
  8
SK1
  6
Continuous
100
AcDbLine
 10
-2.7436586849
 20
-7.6145927414
 30
0.0
 11
3.1006720747
 21
-8.4359598646
 31
0.0
  0
LINE
  5
113
330
1F
100
AcDbEntity
  8
SK3
100
AcDbLine
 10
-2.4597837227
 20
-4.7625
 30
0.0
 11
9.8563413151
 21
-4.7625
 31
0.0
  0
LINE
  5
114
330
1F
100
AcDbEntity
  8
SK3
100
AcDbLine
 10
9.8563413151
 20
4.7625
 30
0.0
 11
-2.4597837227
 21
4.7625
 31
0.0
  0
LINE
  5
115
330
1F
100
AcDbEntity
  8
SK1
  6
Continuous
100
AcDbLine
 10
6.2563413151
 20
-8.5
 30
0.0
 11
6.4728476661
 21
-8.5
 31
0.0
  0
ARC
  5
116
330
1F
100
AcDbEntity
  8
SK3
100
AcDbCircle
 10
9.8563413151
 20
-5.1625
 30
0.0
 40
0.4000000000000007
100
AcDbArc
 50
0.0
 51
90.0
  0
ARC
  5
117
330
1F
100
AcDbEntity
  8
SK1
  6
Continuous
100
AcDbCircle
 10
3.1563413151
 20
-8.0398526371
 30
0.0
 40
0.4000000000000008
100
AcDbArc
 50
262.0
 51
0.0
  0
ARC
  5
118
330
1F
100
AcDbEntity
  8
SK1
  6
Continuous
100
AcDbCircle
 10
10.0063413151
 20
-6.1712613559
 30
0.0
 40
0.2499999999999996
100
AcDbArc
 50
300.0
 51
0.0
  0
ARC
  5
119
330
1F
100
AcDbEntity
  8
SK1
  6
Continuous
100
AcDbCircle
 10
3.7563413151
 20
-7.1
 30
0.0
 40
0.2000000000000001
100
AcDbArc
 50
90.0
 51
180.0
  0
LINE
  5
11A
330
1F
100
AcDbEntity
  8
SK1
  6
Continuous
100
AcDbLine
 10
3.7563413151
 20
-6.9
 30
0.0
 11
6.0563413151
 21
-6.9
 31
0.0
  0
ARC
  5
11B
330
1F
100
AcDbEntity
  8
SK1
  6
Continuous
100
AcDbCircle
 10
6.0563413151
 20
-7.1
 30
0.0
 40
0.1999999999999994
100
AcDbArc
 50
0.0
 51
90.0
  0
LINE
  5
11C
330
1F
100
AcDbEntity
  8
SK1
  6
Continuous
100
AcDbLine
 10
6.4728476661
 20
-8.5
 30
0.0
 11
10.1313413151
 21
-6.3877677069
 31
0.0
  0
LINE
  5
11D
330
1F
100
AcDbEntity
  8
SK1
  6
Continuous
100
AcDbLine
 10
6.4728476661
 20
8.5
 30
0.0
 11
6.2563413151
 21
8.5
 31
0.0
  0
ARC
  5
11E
330
1F
100
AcDbEntity
  8
SK3
100
AcDbCircle
 10
9.8563413151
 20
5.1625
 30
0.0
 40
0.3999999999999993
100
AcDbArc
 50
270.0
 51
0.0
  0
ARC
  5
11F
330
1F
100
AcDbEntity
  8
SK1
  6
Continuous
100
AcDbCircle
 10
3.1563413151
 20
8.0398526371
 30
0.0
 40
0.4000000000000006
100
AcDbArc
 50
0.0
 51
98.0
  0
ARC
  5
120
330
1F
100
AcDbEntity
  8
SK1
  6
Continuous
100
AcDbCircle
 10
10.0063413151
 20
6.1712613559
 30
0.0
 40
0.2499999999999994
100
AcDbArc
 50
0.0
 51
60.0
  0
ARC
  5
121
330
1F
100
AcDbEntity
  8
SK1
  6
Continuous
100
AcDbCircle
 10
3.7563413151
 20
7.1
 30
0.0
 40
0.2000000000000005
100
AcDbArc
 50
180.0
 51
270.0
  0
LINE
  5
122
330
1F
100
AcDbEntity
  8
SK1
  6
Continuous
100
AcDbLine
 10
6.0563413151
 20
6.9
 30
0.0
 11
3.7563413151
 21
6.9
 31
0.0
  0
ARC
  5
123
330
1F
100
AcDbEntity
  8
SK1
  6
Continuous
100
AcDbCircle
 10
6.0563413151
 20
7.1
 30
0.0
 40
0.1999999999999971
100
AcDbArc
 50
270.0
 51
360.0
  0
LINE
  5
124
330
1F
100
AcDbEntity
  8
SK1
  6
Continuous
100
AcDbLine
 10
10.1313413151
 20
6.3877677069
 30
0.0
 11
6.4728476661
 21
8.5
 31
0.0
  0
ARC
  5
125
330
1F
100
AcDbEntity
  8
SK3
100
AcDbCircle
 10
38.4589287695
 20
0.221110377
 30
0.0
 40
51.00874058732604
100
AcDbArc
 50
173.7135241951
 51
175.3066446397
  0
ARC
  5
126
330
1F
100
AcDbEntity
  8
SK3
100
AcDbCircle
 10
-64.7780683087
 20
0.0
 30
0.0
 40
62.49999999999999
100
AcDbArc
 50
353.002075969
 51
355.6298098441
  0
ARC
  5
127
330
1F
100
AcDbEntity
  8
SK3
100
AcDbCircle
 10
-64.7780683087
 20
0.0
 30
0.0
 40
62.5
100
AcDbArc
 50
4.3701909704
 51
6.9979052529
  0
ARC
  5
128
330
1F
100
AcDbEntity
  8
SK3
100
AcDbCircle
 10
40.8568858847
 20
0.0003039581
 30
0.0
 40
53.41677944185138
100
AcDbArc
 50
184.719595918
 51
186.2407387519
  0
ARC
  5
129
330
1F
100
AcDbEntity
  8
SK3
100
AcDbCircle
 10
-34.0577327729
 20
0.0318901302
 30
0.0
 40
31.78115410665108
100
AcDbArc
 50
350.1414924674
 51
353.8525328242
  0
ARC
  5
12A
330
1F
100
AcDbEntity
  8
SK3
100
AcDbCircle
 10
-2.5687025781
 20
0.0865869678
 30
0.0
 40
9.99837326856199
100
AcDbArc
 50
191.2780344899
 51
194.8081347693
  0
ARC
  5
12B
330
1F
100
AcDbEntity
  8
SK3
100
AcDbCircle
 10
-2.9466790715
 20
-0.002649503
 30
0.0
 40
9.611283613098966
100
AcDbArc
 50
165.0986663152
 51
168.7720146699
  0
ARC
  5
12C
330
1F
100
AcDbEntity
  8
SK3
100
AcDbCircle
 10
-34.1364949754
 20
-0.0418310599
 30
0.0
 40
31.86052797776486
100
AcDbArc
 50
6.1500734861
 51
9.8744448047
  0
LINE
  5
12D
330
1F
100
AcDbEntity
  8
SK1
  6
Continuous
100
AcDbLine
 10
0.0
 20
8.0001888231
 30
0.0
 11
0.0
 21
-8.0001888231
 31
0.0
  0
LINE
  5
12F
330
1F
100
AcDbEntity
  8
SK4
  6
Continuous
100
AcDbLine
 10
10.2563413151
 20
0.0
 30
0.0
 11
-17.2436586849
 21
0.0
 31
0.0
  0
DIMENSION
  5
145
330
1F
100
AcDbEntity
  8
SK2
  6
Continuous
 62
   136
100
AcDbDimension
  2
DMBLK115
 10
10.2563413151
 20
15.3978229837
 30
0.0
 11
-3.4936587594
 21
15.3978229837
 31
0.0
 70
   160
  1
\A1;<>
 71
     5
 42
-1.0
  3
DIN
100
AcDbAlignedDimension
 13
-17.2436586849
 23
5.3945579902
 33
0.0
 14
10.2563413151
 24
5.5799562379
 34
0.0
100
AcDbRotatedDimension
  0
DIMENSION
  5
14F
330
1F
100
AcDbEntity
  8
SK2
  6
Continuous
 62
   136
100
AcDbDimension
  2
DMBLK116
 10
21.4340983906
 20
-4.7625
 30
0.0
 11
21.4340983906
 21
10.000000301
 31
0.0
 70
   161
  1
\A1;ø <>
 71
     5
 42
-1.0
  3
DIN
100
AcDbAlignedDimension
 13
9.8563413151
 23
-4.7625
 33
0.0
 14
9.8563413151
 24
4.7625
 34
0.0
  0
DIMENSION
  5
15A
330
1F
100
AcDbEntity
  8
SK2
  6
Continuous
 62
   136
100
AcDbDimension
  2
DMBLK117
 10
10.2563413151
 20
-16.4684079022
 30
0.0
 11
5.1281708293
 21
-16.4684079022
 31
0.0
 70
   160
  1
\A1;<>
 71
     5
 42
-1.0
  3
DIN
100
AcDbAlignedDimension
 13
0.0
 23
-8.0001888231
 33
0.0
 14
10.2563413151
 24
-2.6360112113
 34
0.0
100
AcDbRotatedDimension
  0
DIMENSION
  5
164
330
1F
100
AcDbEntity
  8
SK2
  6
Continuous
 62
   136
100
AcDbDimension
  2
DMBLK118
 10
-22.4607940763
 20
8.0001888231
 30
0.0
 11
-22.4607940763
 21
0.0000003159
 31
0.0
 70
   161
  1
\A1;ø <>
 71
     5
 42
-1.0
  3
DIN
100
AcDbAlignedDimension
 13
0.0
 23
8.0001888231
 33
0.0
 14
0.0
 24
-8.0001888231
 34
0.0
  0
INSERT
  5
179
330
1F
100
AcDbEntity
  8
SK2
 62
     7
100
AcDbBlockReference
  2
Nullpunkt
 10
0.0
 20
0.0000000998
 30
0.0
  0
INSERT
  5
184
330
1F
100
AcDbEntity
  8
SK2
 62
     7
100
AcDbBlockReference
  2
Einfügepunkt
 10
10.2563413151
 20
0.0
 30
0.0
  0
ENDSEC
  0
SECTION
  2
OBJECTS
  0
DICTIONARY
  5
C
330
0
100
AcDbDictionary
281
     1
  3
ACAD_GROUP
350
D
  3
ACAD_LAYOUT
350
1A
  3
ACAD_MATERIAL
350
3B
  3
ACAD_MLEADERSTYLE
350
187
  3
ACAD_MLINESTYLE
350
17
  3
ACAD_PLOTSETTINGS
350
19
  3
ACAD_PLOTSTYLENAME
350
E
  3
ACAD_VISUALSTYLE
350
2A
  3
AcDbVariableDictionary
350
185
  0
DICTIONARY
  5
D
102
{ACAD_REACTORS
330
C
102
}
330
C
100
AcDbDictionary
281
     1
  0
DICTIONARY
  5
1A
102
{ACAD_REACTORS
330
C
102
}
330
C
100
AcDbDictionary
281
     1
  3
Layout1
350
1E
  3
Model
350
22
  0
DICTIONARY
  5
3B
102
{ACAD_REACTORS
330
C
102
}
330
C
100
AcDbDictionary
281
     1
  3
ByBlock
350
3D
  3
ByLayer
350
3C
  3
Global
350
3E
  0
DICTIONARY
  5
187
102
{ACAD_REACTORS
330
C
102
}
330
C
100
AcDbDictionary
281
     1
  0
DICTIONARY
  5
17
102
{ACAD_REACTORS
330
C
102
}
330
C
100
AcDbDictionary
281
     1
  3
Standard
350
18
  0
DICTIONARY
  5
19
102
{ACAD_REACTORS
330
C
102
}
330
C
100
AcDbDictionary
281
     1
  0
ACDBDICTIONARYWDFLT
  5
E
102
{ACAD_REACTORS
330
C
102
}
330
C
100
AcDbDictionary
281
     1
  3
Normal
350
F
100
AcDbDictionaryWithDefault
340
F
  0
DICTIONARY
  5
2A
102
{ACAD_REACTORS
330
C
102
}
330
C
100
AcDbDictionary
281
     1
  3
2dWireframe
350
2F
  3
3D Hidden
350
31
  3
3dWireframe
350
30
  3
Basic
350
32
  3
Brighten
350
36
  3
ColorChange
350
3A
  3
Conceptual
350
34
  3
Dim
350
35
  3
Facepattern
350
39
  3
Flat
350
2B
  3
FlatWithEdges
350
2C
  3
Gouraud
350
2D
  3
GouraudWithEdges
350
2E
  3
Linepattern
350
38
  3
Realistic
350
33
  3
Thicken
350
37
  0
DICTIONARY
  5
185
102
{ACAD_REACTORS
330
C
102
}
330
C
100
AcDbDictionary
281
     1
  3
DIMASSOC
350
18A
  3
HIDETEXT
350
18B
  3
PSOLHEIGHT
350
189
  3
PSOLWIDTH
350
188
  0
LAYOUT
  5
1E
102
{ACAD_REACTORS
330
1A
102
}
330
1A
100
AcDbPlotSettings
  1

  2
none_device
  4

  6

 40
0.0
 41
0.0
 42
0.0
 43
0.0
 44
0.0
 45
0.0
 46
0.0
 47
0.0
 48
0.0
 49
0.0
140
0.0
141
0.0
142
1.0
143
1.0
 70
   688
 72
     0
 73
     0
 74
     5
  7

 75
    16
147
1.0
148
0.0
149
0.0
100
AcDbLayout
  1
Layout1
 70
     1
 71
     1
 10
0.0
 20
0.0
 11
210.0
 21
297.0
 12
0.0
 22
0.0
 32
0.0
 14
0.0
 24
0.0
 34
0.0
 15
210.0
 25
297.0
 35
0.0
146
0.0
 13
0.0
 23
0.0
 33
0.0
 16
1.0
 26
0.0
 36
0.0
 17
0.0
 27
1.0
 37
0.0
 76
     0
330
1B
  0
LAYOUT
  5
22
102
{ACAD_REACTORS
330
1A
102
}
330
1A
100
AcDbPlotSettings
  1

  2
none_device
  4

  6

 40
0.0
 41
0.0
 42
0.0
 43
0.0
 44
0.0
 45
0.0
 46
0.0
 47
0.0
 48
0.0
 49
0.0
140
0.0
141
0.0
142
1.0
143
1.0
 70
  1712
 72
     0
 73
     0
 74
     0
  7

 75
     0
147
1.0
148
0.0
149
0.0
100
AcDbLayout
  1
Model
 70
     1
 71
     0
 10
0.0
 20
0.0
 11
210.0
 21
297.0
 12
0.0
 22
0.0
 32
0.0
 14
0.0
 24
0.0
 34
0.0
 15
210.0
 25
297.0
 35
0.0
146
0.0
 13
0.0
 23
0.0
 33
0.0
 16
1.0
 26
0.0
 36
0.0
 17
0.0
 27
1.0
 37
0.0
 76
     0
330
1F
331
29
  0
MATERIAL
  5
3D
102
{ACAD_REACTORS
330
3B
102
}
102
{ACAD_XDICTIONARY
360
1AE
102
}
330
3B
100
AcDbMaterial
  1
ByBlock
  0
MATERIAL
  5
3C
102
{ACAD_REACTORS
330
3B
102
}
102
{ACAD_XDICTIONARY
360
1AC
102
}
330
3B
100
AcDbMaterial
  1
ByLayer
  0
MATERIAL
  5
3E
102
{ACAD_REACTORS
330
3B
102
}
102
{ACAD_XDICTIONARY
360
1B0
102
}
330
3B
100
AcDbMaterial
  1
Global
  0
MLINESTYLE
  5
18
102
{ACAD_REACTORS
330
17
102
}
330
17
100
AcDbMlineStyle
  2
Standard
 70
     0
  3

 62
   256
 51
90.0
 52
90.0
 71
     2
 49
0.5
 62
   256
  6
BYLAYER
 49
-0.5
 62
   256
  6
BYLAYER
  0
ACDBPLACEHOLDER
  5
F
102
{ACAD_REACTORS
330
E
102
}
330
E
  0
VISUALSTYLE
  5
2F
102
{ACAD_REACTORS
330
2A
102
}
102
{ACAD_XDICTIONARY
360
194
102
}
330
2A
100
AcDbVisualStyle
  2
2dWireframe
 70
     4
 71
     0
 72
     2
 73
     0
 90
        0
 40
-0.6
 41
-30.0
 62
     5
 63
     7
 74
     1
 91
        4
 64
     7
 65
   257
 75
     1
175
     1
 42
1.0
 92
        0
 66
   257
 43
1.0
 76
     1
 77
     6
 78
     2
 67
     7
 79
     5
170
     0
171
     0
290
     0
174
     0
 93
        1
 44
0.0
173
     0
291
     0
 45
0.0
1001
ACAD
1000
AcDbSavedByObjectVersion
1070
     0
  0
VISUALSTYLE
  5
31
102
{ACAD_REACTORS
330
2A
102
}
102
{ACAD_XDICTIONARY
360
198
102
}
330
2A
100
AcDbVisualStyle
  2
3D Hidden
 70
     6
 71
     1
 72
     2
 73
     2
 90
        0
 40
-0.6
 41
-30.0
 62
     5
 63
     7
 74
     2
 91
        2
 64
     7
 65
   257
 75
     2
175
     1
 42
40.0
 92
        0
 66
   257
 43
1.0
 76
     1
 77
     6
 78
     2
 67
     7
 79
     3
170
     0
171
     0
290
     0
174
     0
 93
        1
 44
0.0
173
     0
291
     0
 45
0.0
1001
ACAD
1000
AcDbSavedByObjectVersion
1070
     0
  0
VISUALSTYLE
  5
30
102
{ACAD_REACTORS
330
2A
102
}
102
{ACAD_XDICTIONARY
360
196
102
}
330
2A
100
AcDbVisualStyle
  2
3dWireframe
 70
     5
 71
     0
 72
     2
 73
     0
 90
        0
 40
-0.6
 41
-30.0
 62
     5
 63
     7
 74
     1
 91
        4
 64
     7
 65
   257
 75
     1
175
     1
 42
1.0
 92
        0
 66
   257
 43
1.0
 76
     1
 77
     6
 78
     2
 67
     7
 79
     5
170
     0
171
     0
290
     0
174
     0
 93
        1
 44
0.0
173
     0
291
     0
 45
0.0
1001
ACAD
1000
AcDbSavedByObjectVersion
1070
     0
  0
VISUALSTYLE
  5
32
102
{ACAD_REACTORS
330
2A
102
}
102
{ACAD_XDICTIONARY
360
19A
102
}
330
2A
100
AcDbVisualStyle
  2
Basic
 70
     7
 71
     1
 72
     0
 73
     1
 90
        0
 40
-0.6
 41
-30.0
 62
     5
 63
     7
 74
     0
 91
        4
 64
     7
 65
   257
 75
     1
175
     1
 42
1.0
 92
        8
 66
     7
 43
1.0
 76
     1
 77
     6
 78
     2
 67
     7
 79
     5
170
     0
171
     0
290
     0
174
     0
 93
        1
 44
0.0
173
     0
291
     1
 45
0.0
1001
ACAD
1000
AcDbSavedByObjectVersion
1070
     0
  0
VISUALSTYLE
  5
36
102
{ACAD_REACTORS
330
2A
102
}
102
{ACAD_XDICTIONARY
360
1A2
102
}
330
2A
100
AcDbVisualStyle
  2
Brighten
 70
    12
 71
     2
 72
     2
 73
     0
 90
        0
 40
-0.6
 41
-30.0
 62
     5
 63
     7
 74
     1
 91
        4
 64
     7
 65
   257
 75
     1
175
     1
 42
1.0
 92
        8
 66
     7
 43
1.0
 76
     1
 77
     6
 78
     2
 67
     7
 79
     5
170
     0
171
     0
290
     0
174
     0
 93
        1
 44
50.0
173
     0
291
     1
 45
0.0
1001
ACAD
1000
AcDbSavedByObjectVersion
1070
     0
  0
VISUALSTYLE
  5
3A
102
{ACAD_REACTORS
330
2A
102
}
102
{ACAD_XDICTIONARY
360
1AA
102
}
330
2A
100
AcDbVisualStyle
  2
ColorChange
 70
    16
 71
     2
 72
     2
 73
     3
 90
        0
 40
-0.6
 41
-30.0
 62
     5
 63
     8
 74
     1
 91
        4
 64
     7
 65
   257
 75
     1
175
     1
 42
1.0
 92
        8
 66
     8
 43
1.0
 76
     1
 77
     6
 78
     2
 67
     7
 79
     5
170
     0
171
     0
290
     0
174
     0
 93
        1
 44
0.0
173
     0
291
     1
 45
0.0
1001
ACAD
1000
AcDbSavedByObjectVersion
1070
     0
  0
VISUALSTYLE
  5
34
102
{ACAD_REACTORS
330
2A
102
}
102
{ACAD_XDICTIONARY
360
19E
102
}
330
2A
100
AcDbVisualStyle
  2
Conceptual
 70
     9
 71
     3
 72
     2
 73
     0
 90
        0
 40
-0.6
 41
-30.0
 62
     5
 63
     7
 74
     2
 91
        2
 64
     7
 65
   257
 75
     1
175
     1
 42
40.0
 92
        8
 66
     7
 43
1.0
 76
     1
 77
     6
 78
     2
 67
     7
 79
     3
170
     0
171
     0
290
     0
174
     0
 93
        1
 44
0.0
173
     0
291
     0
 45
0.0
1001
ACAD
1000
AcDbSavedByObjectVersion
1070
     0
  0
VISUALSTYLE
  5
35
102
{ACAD_REACTORS
330
2A
102
}
102
{ACAD_XDICTIONARY
360
1A0
102
}
330
2A
100
AcDbVisualStyle
  2
Dim
 70
    11
 71
     2
 72
     2
 73
     0
 90
        0
 40
-0.6
 41
-30.0
 62
     5
 63
     7
 74
     1
 91
        4
 64
     7
 65
   257
 75
     1
175
     1
 42
1.0
 92
        8
 66
     7
 43
1.0
 76
     1
 77
     6
 78
     2
 67
     7
 79
     5
170
     0
171
     0
290
     0
174
     0
 93
        1
 44
-50.0
173
     0
291
     1
 45
0.0
1001
ACAD
1000
AcDbSavedByObjectVersion
1070
     0
  0
VISUALSTYLE
  5
39
102
{ACAD_REACTORS
330
2A
102
}
102
{ACAD_XDICTIONARY
360
1A8
102
}
330
2A
100
AcDbVisualStyle
  2
Facepattern
 70
    15
 71
     2
 72
     2
 73
     0
 90
        0
 40
-0.6
 41
-30.0
 62
     5
 63
     7
 74
     1
 91
        4
 64
     7
 65
   257
 75
     1
175
     1
 42
1.0
 92
        8
 66
     7
 43
1.0
 76
     1
 77
     6
 78
     2
 67
     7
 79
     5
170
     0
171
     0
290
     0
174
     0
 93
        1
 44
0.0
173
     0
291
     1
 45
0.0
1001
ACAD
1000
AcDbSavedByObjectVersion
1070
     0
  0
VISUALSTYLE
  5
2B
102
{ACAD_REACTORS
330
2A
102
}
102
{ACAD_XDICTIONARY
360
18C
102
}
330
2A
100
AcDbVisualStyle
  2
Flat
 70
     0
 71
     2
 72
     1
 73
     1
 90
        2
 40
-0.6
 41
30.0
 62
     5
 63
     7
 74
     0
 91
        4
 64
     7
 65
   257
 75
     1
175
     1
 42
1.0
 92
        8
 66
     7
 43
1.0
 76
     1
 77
     6
 78
     2
 67
     7
 79
     5
170
     0
171
     0
290
     0
174
     0
 93
       13
 44
0.0
173
     0
291
     1
 45
0.0
1001
ACAD
1000
AcDbSavedByObjectVersion
1070
     0
  0
VISUALSTYLE
  5
2C
102
{ACAD_REACTORS
330
2A
102
}
102
{ACAD_XDICTIONARY
360
18E
102
}
330
2A
100
AcDbVisualStyle
  2
FlatWithEdges
 70
     1
 71
     2
 72
     1
 73
     1
 90
        2
 40
-0.6
 41
30.0
 62
     5
 63
     7
 74
     1
 91
        4
 64
     7
 65
   257
 75
     1
175
     1
 42
1.0
 92
        0
 66
   257
 43
1.0
 76
     1
 77
     6
 78
     2
 67
     7
 79
     5
170
     0
171
     0
290
     0
174
     0
 93
       13
 44
0.0
173
     0
291
     1
 45
0.0
1001
ACAD
1000
AcDbSavedByObjectVersion
1070
     0
  0
VISUALSTYLE
  5
2D
102
{ACAD_REACTORS
330
2A
102
}
102
{ACAD_XDICTIONARY
360
190
102
}
330
2A
100
AcDbVisualStyle
  2
Gouraud
 70
     2
 71
     2
 72
     2
 73
     1
 90
        2
 40
-0.6
 41
30.0
 62
     5
 63
     7
 74
     0
 91
        4
 64
     7
 65
   257
 75
     1
175
     1
 42
1.0
 92
        0
 66
     7
 43
1.0
 76
     1
 77
     6
 78
     2
 67
     7
 79
     5
170
     0
171
     0
290
     0
174
     0
 93
       13
 44
0.0
173
     0
291
     1
 45
0.0
1001
ACAD
1000
AcDbSavedByObjectVersion
1070
     0
  0
VISUALSTYLE
  5
2E
102
{ACAD_REACTORS
330
2A
102
}
102
{ACAD_XDICTIONARY
360
192
102
}
330
2A
100
AcDbVisualStyle
  2
GouraudWithEdges
 70
     3
 71
     2
 72
     2
 73
     1
 90
        2
 40
-0.6
 41
30.0
 62
     5
 63
     7
 74
     1
 91
        4
 64
     7
 65
   257
 75
     1
175
     1
 42
1.0
 92
        0
 66
   257
 43
1.0
 76
     1
 77
     6
 78
     2
 67
     7
 79
     5
170
     0
171
     0
290
     0
174
     0
 93
       13
 44
0.0
173
     0
291
     1
 45
0.0
1001
ACAD
1000
AcDbSavedByObjectVersion
1070
     0
  0
VISUALSTYLE
  5
38
102
{ACAD_REACTORS
330
2A
102
}
102
{ACAD_XDICTIONARY
360
1A6
102
}
330
2A
100
AcDbVisualStyle
  2
Linepattern
 70
    14
 71
     2
 72
     2
 73
     0
 90
        0
 40
-0.6
 41
-30.0
 62
     5
 63
     7
 74
     1
 91
        4
 64
     7
 65
   257
 75
     7
175
     7
 42
1.0
 92
        8
 66
     7
 43
1.0
 76
     1
 77
     6
 78
     2
 67
     7
 79
     5
170
     0
171
     0
290
     0
174
     0
 93
        1
 44
0.0
173
     0
291
     1
 45
0.0
1001
ACAD
1000
AcDbSavedByObjectVersion
1070
     0
  0
VISUALSTYLE
  5
33
102
{ACAD_REACTORS
330
2A
102
}
102
{ACAD_XDICTIONARY
360
19C
102
}
330
2A
100
AcDbVisualStyle
  2
Realistic
 70
     8
 71
     2
 72
     2
 73
     0
 90
        0
 40
-0.6
 41
-30.0
 62
     5
 63
     7
 74
     1
 91
        0
 64
     7
 65
   257
 75
     1
175
     1
 42
1.0
 92
        8
 66
     8
 43
1.0
 76
     1
 77
     6
 78
     2
 67
     7
 79
     5
170
     0
171
     0
290
     0
174
     0
 93
       13
 44
0.0
173
     0
291
     0
 45
0.0
1001
ACAD
1000
AcDbSavedByObjectVersion
1070
     0
  0
VISUALSTYLE
  5
37
102
{ACAD_REACTORS
330
2A
102
}
102
{ACAD_XDICTIONARY
360
1A4
102
}
330
2A
100
AcDbVisualStyle
  2
Thicken
 70
    13
 71
     2
 72
     2
 73
     0
 90
        0
 40
-0.6
 41
-30.0
 62
     5
 63
     7
 74
     1
 91
        4
 64
     7
 65
   257
 75
     1
175
     1
 42
1.0
 92
       12
 66
     7
 43
1.0
 76
     1
 77
     6
 78
     2
 67
     7
 79
     5
170
     0
171
     0
290
     0
174
     0
 93
        1
 44
0.0
173
     0
291
     1
 45
0.0
1001
ACAD
1000
AcDbSavedByObjectVersion
1070
     0
  0
DICTIONARYVAR
  5
18A
102
{ACAD_REACTORS
330
185
102
}
330
185
100
DictionaryVariables
280
     0
  1
2
  0
DICTIONARYVAR
  5
18B
102
{ACAD_REACTORS
330
185
102
}
330
185
100
DictionaryVariables
280
     0
  1
1
  0
DICTIONARYVAR
  5
189
102
{ACAD_REACTORS
330
185
102
}
330
185
100
DictionaryVariables
280
     0
  1
80.000000
  0
DICTIONARYVAR
  5
188
102
{ACAD_REACTORS
330
185
102
}
330
185
100
DictionaryVariables
280
     0
  1
5.000000
  0
DICTIONARY
  5
1AE
330
3D
100
AcDbDictionary
280
     1
281
     1
  3
ACAD_XREC_ROUNDTRIP
360
1AF
  0
DICTIONARY
  5
1AC
330
3C
100
AcDbDictionary
280
     1
281
     1
  3
ACAD_XREC_ROUNDTRIP
360
1AD
  0
DICTIONARY
  5
1B0
330
3E
100
AcDbDictionary
280
     1
281
     1
  3
ACAD_XREC_ROUNDTRIP
360
1B1
  0
DICTIONARY
  5
194
330
2F
100
AcDbDictionary
280
     1
281
     1
  3
ACAD_XREC_ROUNDTRIP
360
195
  0
DICTIONARY
  5
198
330
31
100
AcDbDictionary
280
     1
281
     1
  3
ACAD_XREC_ROUNDTRIP
360
199
  0
DICTIONARY
  5
196
330
30
100
AcDbDictionary
280
     1
281
     1
  3
ACAD_XREC_ROUNDTRIP
360
197
  0
DICTIONARY
  5
19A
330
32
100
AcDbDictionary
280
     1
281
     1
  3
ACAD_XREC_ROUNDTRIP
360
19B
  0
DICTIONARY
  5
1A2
330
36
100
AcDbDictionary
280
     1
281
     1
  3
ACAD_XREC_ROUNDTRIP
360
1A3
  0
DICTIONARY
  5
1AA
330
3A
100
AcDbDictionary
280
     1
281
     1
  3
ACAD_XREC_ROUNDTRIP
360
1AB
  0
DICTIONARY
  5
19E
330
34
100
AcDbDictionary
280
     1
281
     1
  3
ACAD_XREC_ROUNDTRIP
360
19F
  0
DICTIONARY
  5
1A0
330
35
100
AcDbDictionary
280
     1
281
     1
  3
ACAD_XREC_ROUNDTRIP
360
1A1
  0
DICTIONARY
  5
1A8
330
39
100
AcDbDictionary
280
     1
281
     1
  3
ACAD_XREC_ROUNDTRIP
360
1A9
  0
DICTIONARY
  5
18C
330
2B
100
AcDbDictionary
280
     1
281
     1
  3
ACAD_XREC_ROUNDTRIP
360
18D
  0
DICTIONARY
  5
18E
330
2C
100
AcDbDictionary
280
     1
281
     1
  3
ACAD_XREC_ROUNDTRIP
360
18F
  0
DICTIONARY
  5
190
330
2D
100
AcDbDictionary
280
     1
281
     1
  3
ACAD_XREC_ROUNDTRIP
360
191
  0
DICTIONARY
  5
192
330
2E
100
AcDbDictionary
280
     1
281
     1
  3
ACAD_XREC_ROUNDTRIP
360
193
  0
DICTIONARY
  5
1A6
330
38
100
AcDbDictionary
280
     1
281
     1
  3
ACAD_XREC_ROUNDTRIP
360
1A7
  0
DICTIONARY
  5
19C
330
33
100
AcDbDictionary
280
     1
281
     1
  3
ACAD_XREC_ROUNDTRIP
360
19D
  0
DICTIONARY
  5
1A4
330
37
100
AcDbDictionary
280
     1
281
     1
  3
ACAD_XREC_ROUNDTRIP
360
1A5
  0
XRECORD
  5
1AF
102
{ACAD_REACTORS
330
1AE
102
}
330
1AE
100
AcDbXrecord
280
     1
102
MATERIAL
148
0.0
149
0.0
149
0.0
 93
        0
 94
      127
282
     0
 72
     1
 77
     1
171
     1
175
     1
179
     1
273
     0
  0
XRECORD
  5
1AD
102
{ACAD_REACTORS
330
1AC
102
}
330
1AC
100
AcDbXrecord
280
     1
102
MATERIAL
148
0.0
149
0.0
149
0.0
 93
        0
 94
      127
282
     0
 72
     1
 77
     1
171
     1
175
     1
179
     1
273
     0
  0
XRECORD
  5
1B1
102
{ACAD_REACTORS
330
1B0
102
}
330
1B0
100
AcDbXrecord
280
     1
102
MATERIAL
148
0.0
149
0.0
149
0.0
 93
        0
 94
      127
282
     0
 72
     1
 77
     1
171
     1
175
     1
179
     1
273
     0
  0
XRECORD
  5
195
102
{ACAD_REACTORS
330
194
102
}
330
194
100
AcDbXrecord
280
     1
102
RTVSPropertyOp0
 70
     1
102
RTVSPropertyOp1
 70
     1
102
RTVSPropertyOp2
 70
     1
102
RTVSPropertyOp3
 70
     1
102
RTVSPropertyOp4
 70
     1
102
RTVSPropertyOp5
 70
     1
102
RTVSPropertyOp6
 70
     1
102
RTVSPropertyOp7
 70
     1
102
RTVSPropertyOp8
 70
     1
102
RTVSPropertyOp9
 70
     1
102
RTVSPropertyOp10
 70
     1
102
RTVSPropertyOp11
 70
     1
102
RTVSPropertyOp12
 70
     1
102
RTVSPropertyOp13
 70
     1
102
RTVSPropertyOp14
 70
     1
102
RTVSPropertyOp15
 70
     1
102
RTVSPropertyOp16
 70
     1
102
RTVSPropertyOp17
 70
     1
102
RTVSPropertyOp18
 70
     1
102
RTVSPropertyOp19
 70
     1
102
RTVSPropertyOp20
 70
     1
102
RTVSPropertyOp21
 70
     1
102
RTVSPropertyOp22
 70
     1
102
RTVSPropertyOp23
 70
     1
102
RTVSPropertyOp24
 70
     1
102
RTVSPropertyOp25
 70
     1
102
RTVSPropertyOp26
 70
     1
102
RTVSPropertyOp27
 70
     1
102
RTVSPropertyOp28
 70
     1
102
RTVSPropertyOp29
 70
     1
102
RTVSPropertyOp30
 70
     1
102
RTVSPropertyOp31
 70
     1
102
RTVSPropertyOp32
 70
     1
  0
XRECORD
  5
199
102
{ACAD_REACTORS
330
198
102
}
330
198
100
AcDbXrecord
280
     1
102
RTVSPropertyOp0
 70
     1
102
RTVSPropertyOp1
 70
     1
102
RTVSPropertyOp2
 70
     1
102
RTVSPropertyOp3
 70
     1
102
RTVSPropertyOp4
 70
     1
102
RTVSPropertyOp5
 70
     1
102
RTVSPropertyOp6
 70
     1
102
RTVSPropertyOp7
 70
     1
102
RTVSPropertyOp8
 70
     1
102
RTVSPropertyOp9
 70
     1
102
RTVSPropertyOp10
 70
     1
102
RTVSPropertyOp11
 70
     1
102
RTVSPropertyOp12
 70
     1
102
RTVSPropertyOp13
 70
     1
102
RTVSPropertyOp14
 70
     1
102
RTVSPropertyOp15
 70
     1
102
RTVSPropertyOp16
 70
     1
102
RTVSPropertyOp17
 70
     1
102
RTVSPropertyOp18
 70
     1
102
RTVSPropertyOp19
 70
     1
102
RTVSPropertyOp20
 70
     1
102
RTVSPropertyOp21
 70
     1
102
RTVSPropertyOp22
 70
     1
102
RTVSPropertyOp23
 70
     1
102
RTVSPropertyOp24
 70
     1
102
RTVSPropertyOp25
 70
     1
102
RTVSPropertyOp26
 70
     1
102
RTVSPropertyOp27
 70
     1
102
RTVSPropertyOp28
 70
     1
102
RTVSPropertyOp29
 70
     1
102
RTVSPropertyOp30
 70
     1
102
RTVSPropertyOp31
 70
     1
102
RTVSPropertyOp32
 70
     1
  0
XRECORD
  5
197
102
{ACAD_REACTORS
330
196
102
}
330
196
100
AcDbXrecord
280
     1
102
RTVSPropertyOp0
 70
     1
102
RTVSPropertyOp1
 70
     1
102
RTVSPropertyOp2
 70
     1
102
RTVSPropertyOp3
 70
     1
102
RTVSPropertyOp4
 70
     1
102
RTVSPropertyOp5
 70
     1
102
RTVSPropertyOp6
 70
     1
102
RTVSPropertyOp7
 70
     1
102
RTVSPropertyOp8
 70
     1
102
RTVSPropertyOp9
 70
     1
102
RTVSPropertyOp10
 70
     1
102
RTVSPropertyOp11
 70
     1
102
RTVSPropertyOp12
 70
     1
102
RTVSPropertyOp13
 70
     1
102
RTVSPropertyOp14
 70
     1
102
RTVSPropertyOp15
 70
     1
102
RTVSPropertyOp16
 70
     1
102
RTVSPropertyOp17
 70
     1
102
RTVSPropertyOp18
 70
     1
102
RTVSPropertyOp19
 70
     1
102
RTVSPropertyOp20
 70
     1
102
RTVSPropertyOp21
 70
     1
102
RTVSPropertyOp22
 70
     1
102
RTVSPropertyOp23
 70
     1
102
RTVSPropertyOp24
 70
     1
102
RTVSPropertyOp25
 70
     1
102
RTVSPropertyOp26
 70
     1
102
RTVSPropertyOp27
 70
     1
102
RTVSPropertyOp28
 70
     1
102
RTVSPropertyOp29
 70
     1
102
RTVSPropertyOp30
 70
     1
102
RTVSPropertyOp31
 70
     1
102
RTVSPropertyOp32
 70
     1
  0
XRECORD
  5
19B
102
{ACAD_REACTORS
330
19A
102
}
330
19A
100
AcDbXrecord
280
     1
102
RTVSPropertyOp0
 70
     1
102
RTVSPropertyOp1
 70
     1
102
RTVSPropertyOp2
 70
     1
102
RTVSPropertyOp3
 70
     1
102
RTVSPropertyOp4
 70
     1
102
RTVSPropertyOp5
 70
     1
102
RTVSPropertyOp6
 70
     1
102
RTVSPropertyOp7
 70
     1
102
RTVSPropertyOp8
 70
     1
102
RTVSPropertyOp9
 70
     1
102
RTVSPropertyOp10
 70
     1
102
RTVSPropertyOp11
 70
     1
102
RTVSPropertyOp12
 70
     1
102
RTVSPropertyOp13
 70
     1
102
RTVSPropertyOp14
 70
     1
102
RTVSPropertyOp15
 70
     1
102
RTVSPropertyOp16
 70
     1
102
RTVSPropertyOp17
 70
     1
102
RTVSPropertyOp18
 70
     1
102
RTVSPropertyOp19
 70
     1
102
RTVSPropertyOp20
 70
     1
102
RTVSPropertyOp21
 70
     1
102
RTVSPropertyOp22
 70
     1
102
RTVSPropertyOp23
 70
     1
102
RTVSPropertyOp24
 70
     1
102
RTVSPropertyOp25
 70
     1
102
RTVSPropertyOp26
 70
     1
102
RTVSPropertyOp27
 70
     1
102
RTVSPropertyOp28
 70
     1
102
RTVSPropertyOp29
 70
     1
102
RTVSPropertyOp30
 70
     1
102
RTVSPropertyOp31
 70
     1
102
RTVSPropertyOp32
 70
     1
  0
XRECORD
  5
1A3
102
{ACAD_REACTORS
330
1A2
102
}
330
1A2
100
AcDbXrecord
280
     1
102
RTVSPropertyOp0
 70
     1
102
RTVSPropertyOp1
 70
     1
102
RTVSPropertyOp2
 70
     1
102
RTVSPropertyOp3
 70
     1
102
RTVSPropertyOp4
 70
     1
102
RTVSPropertyOp5
 70
     1
102
RTVSPropertyOp6
 70
     1
102
RTVSPropertyOp7
 70
     1
102
RTVSPropertyOp8
 70
     1
102
RTVSPropertyOp9
 70
     1
102
RTVSPropertyOp10
 70
     1
102
RTVSPropertyOp11
 70
     1
102
RTVSPropertyOp12
 70
     1
102
RTVSPropertyOp13
 70
     1
102
RTVSPropertyOp14
 70
     1
102
RTVSPropertyOp15
 70
     1
102
RTVSPropertyOp16
 70
     1
102
RTVSPropertyOp17
 70
     1
102
RTVSPropertyOp18
 70
     1
102
RTVSPropertyOp19
 70
     1
102
RTVSPropertyOp20
 70
     1
102
RTVSPropertyOp21
 70
     1
102
RTVSPropertyOp22
 70
     1
102
RTVSPropertyOp23
 70
     1
102
RTVSPropertyOp24
 70
     1
102
RTVSPropertyOp25
 70
     1
102
RTVSPropertyOp26
 70
     1
102
RTVSPropertyOp27
 70
     1
102
RTVSPropertyOp28
 70
     1
102
RTVSPropertyOp29
 70
     1
102
RTVSPropertyOp30
 70
     1
102
RTVSPropertyOp31
 70
     1
102
RTVSPropertyOp32
 70
     1
  0
XRECORD
  5
1AB
102
{ACAD_REACTORS
330
1AA
102
}
330
1AA
100
AcDbXrecord
280
     1
102
RTVSPropertyOp0
 70
     1
102
RTVSPropertyOp1
 70
     1
102
RTVSPropertyOp2
 70
     1
102
RTVSPropertyOp3
 70
     1
102
RTVSPropertyOp4
 70
     1
102
RTVSPropertyOp5
 70
     1
102
RTVSPropertyOp6
 70
     1
102
RTVSPropertyOp7
 70
     1
102
RTVSPropertyOp8
 70
     1
102
RTVSPropertyOp9
 70
     1
102
RTVSPropertyOp10
 70
     1
102
RTVSPropertyOp11
 70
     1
102
RTVSPropertyOp12
 70
     1
102
RTVSPropertyOp13
 70
     1
102
RTVSPropertyOp14
 70
     1
102
RTVSPropertyOp15
 70
     1
102
RTVSPropertyOp16
 70
     1
102
RTVSPropertyOp17
 70
     1
102
RTVSPropertyOp18
 70
     1
102
RTVSPropertyOp19
 70
     1
102
RTVSPropertyOp20
 70
     1
102
RTVSPropertyOp21
 70
     1
102
RTVSPropertyOp22
 70
     1
102
RTVSPropertyOp23
 70
     1
102
RTVSPropertyOp24
 70
     1
102
RTVSPropertyOp25
 70
     1
102
RTVSPropertyOp26
 70
     1
102
RTVSPropertyOp27
 70
     1
102
RTVSPropertyOp28
 70
     1
102
RTVSPropertyOp29
 70
     1
102
RTVSPropertyOp30
 70
     1
102
RTVSPropertyOp31
 70
     1
102
RTVSPropertyOp32
 70
     1
  0
XRECORD
  5
19F
102
{ACAD_REACTORS
330
19E
102
}
330
19E
100
AcDbXrecord
280
     1
102
RTVSPropertyOp0
 70
     1
102
RTVSPropertyOp1
 70
     1
102
RTVSPropertyOp2
 70
     1
102
RTVSPropertyOp3
 70
     1
102
RTVSPropertyOp4
 70
     1
102
RTVSPropertyOp5
 70
     1
102
RTVSPropertyOp6
 70
     1
102
RTVSPropertyOp7
 70
     1
102
RTVSPropertyOp8
 70
     1
102
RTVSPropertyOp9
 70
     1
102
RTVSPropertyOp10
 70
     1
102
RTVSPropertyOp11
 70
     1
102
RTVSPropertyOp12
 70
     1
102
RTVSPropertyOp13
 70
     1
102
RTVSPropertyOp14
 70
     1
102
RTVSPropertyOp15
 70
     1
102
RTVSPropertyOp16
 70
     1
102
RTVSPropertyOp17
 70
     1
102
RTVSPropertyOp18
 70
     1
102
RTVSPropertyOp19
 70
     1
102
RTVSPropertyOp20
 70
     1
102
RTVSPropertyOp21
 70
     1
102
RTVSPropertyOp22
 70
     1
102
RTVSPropertyOp23
 70
     1
102
RTVSPropertyOp24
 70
     1
102
RTVSPropertyOp25
 70
     1
102
RTVSPropertyOp26
 70
     1
102
RTVSPropertyOp27
 70
     1
102
RTVSPropertyOp28
 70
     1
102
RTVSPropertyOp29
 70
     1
102
RTVSPropertyOp30
 70
     1
102
RTVSPropertyOp31
 70
     1
102
RTVSPropertyOp32
 70
     1
  0
XRECORD
  5
1A1
102
{ACAD_REACTORS
330
1A0
102
}
330
1A0
100
AcDbXrecord
280
     1
102
RTVSPropertyOp0
 70
     1
102
RTVSPropertyOp1
 70
     1
102
RTVSPropertyOp2
 70
     1
102
RTVSPropertyOp3
 70
     1
102
RTVSPropertyOp4
 70
     1
102
RTVSPropertyOp5
 70
     1
102
RTVSPropertyOp6
 70
     1
102
RTVSPropertyOp7
 70
     1
102
RTVSPropertyOp8
 70
     1
102
RTVSPropertyOp9
 70
     1
102
RTVSPropertyOp10
 70
     1
102
RTVSPropertyOp11
 70
     1
102
RTVSPropertyOp12
 70
     1
102
RTVSPropertyOp13
 70
     1
102
RTVSPropertyOp14
 70
     1
102
RTVSPropertyOp15
 70
     1
102
RTVSPropertyOp16
 70
     1
102
RTVSPropertyOp17
 70
     1
102
RTVSPropertyOp18
 70
     1
102
RTVSPropertyOp19
 70
     1
102
RTVSPropertyOp20
 70
     1
102
RTVSPropertyOp21
 70
     1
102
RTVSPropertyOp22
 70
     1
102
RTVSPropertyOp23
 70
     1
102
RTVSPropertyOp24
 70
     1
102
RTVSPropertyOp25
 70
     1
102
RTVSPropertyOp26
 70
     1
102
RTVSPropertyOp27
 70
     1
102
RTVSPropertyOp28
 70
     1
102
RTVSPropertyOp29
 70
     1
102
RTVSPropertyOp30
 70
     1
102
RTVSPropertyOp31
 70
     1
102
RTVSPropertyOp32
 70
     1
  0
XRECORD
  5
1A9
102
{ACAD_REACTORS
330
1A8
102
}
330
1A8
100
AcDbXrecord
280
     1
102
RTVSPropertyOp0
 70
     1
102
RTVSPropertyOp1
 70
     1
102
RTVSPropertyOp2
 70
     1
102
RTVSPropertyOp3
 70
     1
102
RTVSPropertyOp4
 70
     1
102
RTVSPropertyOp5
 70
     1
102
RTVSPropertyOp6
 70
     1
102
RTVSPropertyOp7
 70
     1
102
RTVSPropertyOp8
 70
     1
102
RTVSPropertyOp9
 70
     1
102
RTVSPropertyOp10
 70
     1
102
RTVSPropertyOp11
 70
     1
102
RTVSPropertyOp12
 70
     1
102
RTVSPropertyOp13
 70
     1
102
RTVSPropertyOp14
 70
     1
102
RTVSPropertyOp15
 70
     1
102
RTVSPropertyOp16
 70
     1
102
RTVSPropertyOp17
 70
     1
102
RTVSPropertyOp18
 70
     1
102
RTVSPropertyOp19
 70
     1
102
RTVSPropertyOp20
 70
     1
102
RTVSPropertyOp21
 70
     1
102
RTVSPropertyOp22
 70
     1
102
RTVSPropertyOp23
 70
     1
102
RTVSPropertyOp24
 70
     1
102
RTVSPropertyOp25
 70
     1
102
RTVSPropertyOp26
 70
     1
102
RTVSPropertyOp27
 70
     1
102
RTVSPropertyOp28
 70
     1
102
RTVSPropertyOp29
 70
     1
102
RTVSPropertyOp30
 70
     1
102
RTVSPropertyOp31
 70
     1
102
RTVSPropertyOp32
 70
     1
  0
XRECORD
  5
18D
102
{ACAD_REACTORS
330
18C
102
}
330
18C
100
AcDbXrecord
280
     1
102
RTVSPropertyOp0
 70
     1
102
RTVSPropertyOp1
 70
     1
102
RTVSPropertyOp2
 70
     1
102
RTVSPropertyOp3
 70
     1
102
RTVSPropertyOp4
 70
     1
102
RTVSPropertyOp5
 70
     1
102
RTVSPropertyOp6
 70
     1
102
RTVSPropertyOp7
 70
     1
102
RTVSPropertyOp8
 70
     1
102
RTVSPropertyOp9
 70
     1
102
RTVSPropertyOp10
 70
     1
102
RTVSPropertyOp11
 70
     1
102
RTVSPropertyOp12
 70
     1
102
RTVSPropertyOp13
 70
     1
102
RTVSPropertyOp14
 70
     1
102
RTVSPropertyOp15
 70
     1
102
RTVSPropertyOp16
 70
     1
102
RTVSPropertyOp17
 70
     1
102
RTVSPropertyOp18
 70
     1
102
RTVSPropertyOp19
 70
     1
102
RTVSPropertyOp20
 70
     1
102
RTVSPropertyOp21
 70
     1
102
RTVSPropertyOp22
 70
     1
102
RTVSPropertyOp23
 70
     1
102
RTVSPropertyOp24
 70
     1
102
RTVSPropertyOp25
 70
     1
102
RTVSPropertyOp26
 70
     1
102
RTVSPropertyOp27
 70
     1
102
RTVSPropertyOp28
 70
     1
102
RTVSPropertyOp29
 70
     1
102
RTVSPropertyOp30
 70
     1
102
RTVSPropertyOp31
 70
     1
102
RTVSPropertyOp32
 70
     1
  0
XRECORD
  5
18F
102
{ACAD_REACTORS
330
18E
102
}
330
18E
100
AcDbXrecord
280
     1
102
RTVSPropertyOp0
 70
     1
102
RTVSPropertyOp1
 70
     1
102
RTVSPropertyOp2
 70
     1
102
RTVSPropertyOp3
 70
     1
102
RTVSPropertyOp4
 70
     1
102
RTVSPropertyOp5
 70
     1
102
RTVSPropertyOp6
 70
     1
102
RTVSPropertyOp7
 70
     1
102
RTVSPropertyOp8
 70
     1
102
RTVSPropertyOp9
 70
     1
102
RTVSPropertyOp10
 70
     1
102
RTVSPropertyOp11
 70
     1
102
RTVSPropertyOp12
 70
     1
102
RTVSPropertyOp13
 70
     1
102
RTVSPropertyOp14
 70
     1
102
RTVSPropertyOp15
 70
     1
102
RTVSPropertyOp16
 70
     1
102
RTVSPropertyOp17
 70
     1
102
RTVSPropertyOp18
 70
     1
102
RTVSPropertyOp19
 70
     1
102
RTVSPropertyOp20
 70
     1
102
RTVSPropertyOp21
 70
     1
102
RTVSPropertyOp22
 70
     1
102
RTVSPropertyOp23
 70
     1
102
RTVSPropertyOp24
 70
     1
102
RTVSPropertyOp25
 70
     1
102
RTVSPropertyOp26
 70
     1
102
RTVSPropertyOp27
 70
     1
102
RTVSPropertyOp28
 70
     1
102
RTVSPropertyOp29
 70
     1
102
RTVSPropertyOp30
 70
     1
102
RTVSPropertyOp31
 70
     1
102
RTVSPropertyOp32
 70
     1
  0
XRECORD
  5
191
102
{ACAD_REACTORS
330
190
102
}
330
190
100
AcDbXrecord
280
     1
102
RTVSPropertyOp0
 70
     1
102
RTVSPropertyOp1
 70
     1
102
RTVSPropertyOp2
 70
     1
102
RTVSPropertyOp3
 70
     1
102
RTVSPropertyOp4
 70
     1
102
RTVSPropertyOp5
 70
     1
102
RTVSPropertyOp6
 70
     1
102
RTVSPropertyOp7
 70
     1
102
RTVSPropertyOp8
 70
     1
102
RTVSPropertyOp9
 70
     1
102
RTVSPropertyOp10
 70
     1
102
RTVSPropertyOp11
 70
     1
102
RTVSPropertyOp12
 70
     1
102
RTVSPropertyOp13
 70
     1
102
RTVSPropertyOp14
 70
     1
102
RTVSPropertyOp15
 70
     1
102
RTVSPropertyOp16
 70
     1
102
RTVSPropertyOp17
 70
     1
102
RTVSPropertyOp18
 70
     1
102
RTVSPropertyOp19
 70
     1
102
RTVSPropertyOp20
 70
     1
102
RTVSPropertyOp21
 70
     1
102
RTVSPropertyOp22
 70
     1
102
RTVSPropertyOp23
 70
     1
102
RTVSPropertyOp24
 70
     1
102
RTVSPropertyOp25
 70
     1
102
RTVSPropertyOp26
 70
     1
102
RTVSPropertyOp27
 70
     1
102
RTVSPropertyOp28
 70
     1
102
RTVSPropertyOp29
 70
     1
102
RTVSPropertyOp30
 70
     1
102
RTVSPropertyOp31
 70
     1
102
RTVSPropertyOp32
 70
     1
  0
XRECORD
  5
193
102
{ACAD_REACTORS
330
192
102
}
330
192
100
AcDbXrecord
280
     1
102
RTVSPropertyOp0
 70
     1
102
RTVSPropertyOp1
 70
     1
102
RTVSPropertyOp2
 70
     1
102
RTVSPropertyOp3
 70
     1
102
RTVSPropertyOp4
 70
     1
102
RTVSPropertyOp5
 70
     1
102
RTVSPropertyOp6
 70
     1
102
RTVSPropertyOp7
 70
     1
102
RTVSPropertyOp8
 70
     1
102
RTVSPropertyOp9
 70
     1
102
RTVSPropertyOp10
 70
     1
102
RTVSPropertyOp11
 70
     1
102
RTVSPropertyOp12
 70
     1
102
RTVSPropertyOp13
 70
     1
102
RTVSPropertyOp14
 70
     1
102
RTVSPropertyOp15
 70
     1
102
RTVSPropertyOp16
 70
     1
102
RTVSPropertyOp17
 70
     1
102
RTVSPropertyOp18
 70
     1
102
RTVSPropertyOp19
 70
     1
102
RTVSPropertyOp20
 70
     1
102
RTVSPropertyOp21
 70
     1
102
RTVSPropertyOp22
 70
     1
102
RTVSPropertyOp23
 70
     1
102
RTVSPropertyOp24
 70
     1
102
RTVSPropertyOp25
 70
     1
102
RTVSPropertyOp26
 70
     1
102
RTVSPropertyOp27
 70
     1
102
RTVSPropertyOp28
 70
     1
102
RTVSPropertyOp29
 70
     1
102
RTVSPropertyOp30
 70
     1
102
RTVSPropertyOp31
 70
     1
102
RTVSPropertyOp32
 70
     1
  0
XRECORD
  5
1A7
102
{ACAD_REACTORS
330
1A6
102
}
330
1A6
100
AcDbXrecord
280
     1
102
RTVSPropertyOp0
 70
     1
102
RTVSPropertyOp1
 70
     1
102
RTVSPropertyOp2
 70
     1
102
RTVSPropertyOp3
 70
     1
102
RTVSPropertyOp4
 70
     1
102
RTVSPropertyOp5
 70
     1
102
RTVSPropertyOp6
 70
     1
102
RTVSPropertyOp7
 70
     1
102
RTVSPropertyOp8
 70
     1
102
RTVSPropertyOp9
 70
     1
102
RTVSPropertyOp10
 70
     1
102
RTVSPropertyOp11
 70
     1
102
RTVSPropertyOp12
 70
     1
102
RTVSPropertyOp13
 70
     1
102
RTVSPropertyOp14
 70
     1
102
RTVSPropertyOp15
 70
     1
102
RTVSPropertyOp16
 70
     1
102
RTVSPropertyOp17
 70
     1
102
RTVSPropertyOp18
 70
     1
102
RTVSPropertyOp19
 70
     1
102
RTVSPropertyOp20
 70
     1
102
RTVSPropertyOp21
 70
     1
102
RTVSPropertyOp22
 70
     1
102
RTVSPropertyOp23
 70
     1
102
RTVSPropertyOp24
 70
     1
102
RTVSPropertyOp25
 70
     1
102
RTVSPropertyOp26
 70
     1
102
RTVSPropertyOp27
 70
     1
102
RTVSPropertyOp28
 70
     1
102
RTVSPropertyOp29
 70
     1
102
RTVSPropertyOp30
 70
     1
102
RTVSPropertyOp31
 70
     1
102
RTVSPropertyOp32
 70
     1
  0
XRECORD
  5
19D
102
{ACAD_REACTORS
330
19C
102
}
330
19C
100
AcDbXrecord
280
     1
102
RTVSPropertyOp0
 70
     1
102
RTVSPropertyOp1
 70
     1
102
RTVSPropertyOp2
 70
     1
102
RTVSPropertyOp3
 70
     1
102
RTVSPropertyOp4
 70
     1
102
RTVSPropertyOp5
 70
     1
102
RTVSPropertyOp6
 70
     1
102
RTVSPropertyOp7
 70
     1
102
RTVSPropertyOp8
 70
     1
102
RTVSPropertyOp9
 70
     1
102
RTVSPropertyOp10
 70
     1
102
RTVSPropertyOp11
 70
     1
102
RTVSPropertyOp12
 70
     1
102
RTVSPropertyOp13
 70
     1
102
RTVSPropertyOp14
 70
     1
102
RTVSPropertyOp15
 70
     1
102
RTVSPropertyOp16
 70
     1
102
RTVSPropertyOp17
 70
     1
102
RTVSPropertyOp18
 70
     1
102
RTVSPropertyOp19
 70
     1
102
RTVSPropertyOp20
 70
     1
102
RTVSPropertyOp21
 70
     1
102
RTVSPropertyOp22
 70
     1
102
RTVSPropertyOp23
 70
     1
102
RTVSPropertyOp24
 70
     1
102
RTVSPropertyOp25
 70
     1
102
RTVSPropertyOp26
 70
     1
102
RTVSPropertyOp27
 70
     1
102
RTVSPropertyOp28
 70
     1
102
RTVSPropertyOp29
 70
     1
102
RTVSPropertyOp30
 70
     1
102
RTVSPropertyOp31
 70
     1
102
RTVSPropertyOp32
 70
     1
  0
XRECORD
  5
1A5
102
{ACAD_REACTORS
330
1A4
102
}
330
1A4
100
AcDbXrecord
280
     1
102
RTVSPropertyOp0
 70
     1
102
RTVSPropertyOp1
 70
     1
102
RTVSPropertyOp2
 70
     1
102
RTVSPropertyOp3
 70
     1
102
RTVSPropertyOp4
 70
     1
102
RTVSPropertyOp5
 70
     1
102
RTVSPropertyOp6
 70
     1
102
RTVSPropertyOp7
 70
     1
102
RTVSPropertyOp8
 70
     1
102
RTVSPropertyOp9
 70
     1
102
RTVSPropertyOp10
 70
     1
102
RTVSPropertyOp11
 70
     1
102
RTVSPropertyOp12
 70
     1
102
RTVSPropertyOp13
 70
     1
102
RTVSPropertyOp14
 70
     1
102
RTVSPropertyOp15
 70
     1
102
RTVSPropertyOp16
 70
     1
102
RTVSPropertyOp17
 70
     1
102
RTVSPropertyOp18
 70
     1
102
RTVSPropertyOp19
 70
     1
102
RTVSPropertyOp20
 70
     1
102
RTVSPropertyOp21
 70
     1
102
RTVSPropertyOp22
 70
     1
102
RTVSPropertyOp23
 70
     1
102
RTVSPropertyOp24
 70
     1
102
RTVSPropertyOp25
 70
     1
102
RTVSPropertyOp26
 70
     1
102
RTVSPropertyOp27
 70
     1
102
RTVSPropertyOp28
 70
     1
102
RTVSPropertyOp29
 70
     1
102
RTVSPropertyOp30
 70
     1
102
RTVSPropertyOp31
 70
     1
102
RTVSPropertyOp32
 70
     1
  0
ENDSEC
  0
EOF
