  0
SECTION
  2
HEADER
  9
$ACADVER
  1
AC1015
  9
$ACADMAINTVER
 70
     6
  9
$DWGCODEPAGE
  3
ANSI_1252
  9
$INSBASE
 10
0.0
 20
0.0
 30
0.0
  9
$EXTMIN
 10
0.0
 20
0.0
 30
0.0
  9
$EXTMAX
 10
210.0
 20
297.0
 30
0.0
  9
$LIMMIN
 10
0.0
 20
0.0
  9
$LIMMAX
 10
210.0
 20
297.0
  9
$ORTHOMODE
 70
     0
  9
$REGENMODE
 70
     1
  9
$FILLMODE
 70
     1
  9
$QTEXTMODE
 70
     0
  9
$MIRRTEXT
 70
     1
  9
$LTSCALE
 40
1.0
  9
$ATTMODE
 70
     1
  9
$TEXTSIZE
 40
2.5
  9
$TRACEWID
 40
1.0
  9
$TEXTSTYLE
  7
Standard
  9
$CLAYER
  8
0
  9
$CELTYPE
  6
ByLayer
  9
$CECOLOR
 62
   256
  9
$CELTSCALE
 40
1.0
  9
$DISPSILH
 70
     0
  9
$DIMSCALE
 40
1.0
  9
$DIMASZ
 40
2.5
  9
$DIMEXO
 40
0.625
  9
$DIMDLI
 40
3.75
  9
$DIMRND
 40
0.0
  9
$DIMDLE
 40
0.0
  9
$DIMEXE
 40
1.25
  9
$DIMTP
 40
0.0
  9
$DIMTM
 40
0.0
  9
$DIMTXT
 40
2.5
  9
$DIMCEN
 40
2.5
  9
$DIMTSZ
 40
0.0
  9
$DIMTOL
 70
     0
  9
$DIMLIM
 70
     0
  9
$DIMTIH
 70
     0
  9
$DIMTOH
 70
     0
  9
$DIMSE1
 70
     0
  9
$DIMSE2
 70
     0
  9
$DIMTAD
 70
     1
  9
$DIMZIN
 70
     8
  9
$DIMBLK
  1

  9
$DIMASO
 70
     1
  9
$DIMSHO
 70
     1
  9
$DIMPOST
  1

  9
$DIMAPOST
  1

  9
$DIMALT
 70
     0
  9
$DIMALTD
 70
     3
  9
$DIMALTF
 40
0.0393700787
  9
$DIMLFAC
 40
1.0
  9
$DIMTOFL
 70
     1
  9
$DIMTVP
 40
0.0
  9
$DIMTIX
 70
     0
  9
$DIMSOXD
 70
     0
  9
$DIMSAH
 70
     0
  9
$DIMBLK1
  1

  9
$DIMBLK2
  1

  9
$DIMSTYLE
  2
ISO-25
  9
$DIMCLRD
 70
     0
  9
$DIMCLRE
 70
     0
  9
$DIMCLRT
 70
     0
  9
$DIMTFAC
 40
1.0
  9
$DIMGAP
 40
0.625
  9
$DIMJUST
 70
     0
  9
$DIMSD1
 70
     0
  9
$DIMSD2
 70
     0
  9
$DIMTOLJ
 70
     0
  9
$DIMTZIN
 70
     8
  9
$DIMALTZ
 70
     0
  9
$DIMALTTZ
 70
     0
  9
$DIMUPT
 70
     0
  9
$DIMDEC
 70
     2
  9
$DIMTDEC
 70
     2
  9
$DIMALTU
 70
     2
  9
$DIMALTTD
 70
     3
  9
$DIMTXSTY
  7
Standard
  9
$DIMAUNIT
 70
     0
  9
$DIMADEC
 70
     0
  9
$DIMALTRND
 40
0.0
  9
$DIMAZIN
 70
     0
  9
$DIMDSEP
 70
    44
  9
$DIMATFIT
 70
     3
  9
$DIMFRAC
 70
     0
  9
$DIMLDRBLK
  1

  9
$DIMLUNIT
 70
     2
  9
$DIMLWD
 70
    -2
  9
$DIMLWE
 70
    -2
  9
$DIMTMOVE
 70
     0
  9
$LUNITS
 70
     2
  9
$LUPREC
 70
     4
  9
$SKETCHINC
 40
1.0
  9
$FILLETRAD
 40
10.0
  9
$AUNITS
 70
     0
  9
$AUPREC
 70
     0
  9
$MENU
  1
.
  9
$ELEVATION
 40
0.0
  9
$PELEVATION
 40
0.0
  9
$THICKNESS
 40
0.0
  9
$LIMCHECK
 70
     0
  9
$CHAMFERA
 40
10.0
  9
$CHAMFERB
 40
10.0
  9
$CHAMFERC
 40
20.0
  9
$CHAMFERD
 40
0.0
  9
$SKPOLY
 70
     0
  9
$TDCREATE
 40
2457564.395373553
  9
$TDUCREATE
 40
2457564.31204022
  9
$TDUPDATE
 40
2457564.395412766
  9
$TDUUPDATE
 40
2457564.312079433
  9
$TDINDWG
 40
0.0000000116
  9
$TDUSRTIMER
 40
0.0000000116
  9
$USRTIMER
 70
     1
  9
$ANGBASE
 50
0.0
  9
$ANGDIR
 70
     0
  9
$PDMODE
 70
     0
  9
$PDSIZE
 40
0.0
  9
$PLINEWID
 40
0.0
  9
$SPLFRAME
 70
     0
  9
$SPLINETYPE
 70
     6
  9
$SPLINESEGS
 70
     8
  9
$HANDSEED
  5
158
  9
$SURFTAB1
 70
     6
  9
$SURFTAB2
 70
     6
  9
$SURFTYPE
 70
     6
  9
$SURFU
 70
     6
  9
$SURFV
 70
     6
  9
$UCSBASE
  2

  9
$UCSNAME
  2

  9
$UCSORG
 10
0.0
 20
0.0
 30
0.0
  9
$UCSXDIR
 10
1.0
 20
0.0
 30
0.0
  9
$UCSYDIR
 10
0.0
 20
1.0
 30
0.0
  9
$UCSORTHOREF
  2

  9
$UCSORTHOVIEW
 70
     0
  9
$UCSORGTOP
 10
0.0
 20
0.0
 30
0.0
  9
$UCSORGBOTTOM
 10
0.0
 20
0.0
 30
0.0
  9
$UCSORGLEFT
 10
0.0
 20
0.0
 30
0.0
  9
$UCSORGRIGHT
 10
0.0
 20
0.0
 30
0.0
  9
$UCSORGFRONT
 10
0.0
 20
0.0
 30
0.0
  9
$UCSORGBACK
 10
0.0
 20
0.0
 30
0.0
  9
$PUCSBASE
  2

  9
$PUCSNAME
  2

  9
$PUCSORG
 10
0.0
 20
0.0
 30
0.0
  9
$PUCSXDIR
 10
1.0
 20
0.0
 30
0.0
  9
$PUCSYDIR
 10
0.0
 20
1.0
 30
0.0
  9
$PUCSORTHOREF
  2

  9
$PUCSORTHOVIEW
 70
     0
  9
$PUCSORGTOP
 10
0.0
 20
0.0
 30
0.0
  9
$PUCSORGBOTTOM
 10
0.0
 20
0.0
 30
0.0
  9
$PUCSORGLEFT
 10
0.0
 20
0.0
 30
0.0
  9
$PUCSORGRIGHT
 10
0.0
 20
0.0
 30
0.0
  9
$PUCSORGFRONT
 10
0.0
 20
0.0
 30
0.0
  9
$PUCSORGBACK
 10
0.0
 20
0.0
 30
0.0
  9
$USERI1
 70
     0
  9
$USERI2
 70
     0
  9
$USERI3
 70
     0
  9
$USERI4
 70
     0
  9
$USERI5
 70
     0
  9
$USERR1
 40
0.0
  9
$USERR2
 40
0.0
  9
$USERR3
 40
0.0
  9
$USERR4
 40
0.0
  9
$USERR5
 40
0.0
  9
$WORLDVIEW
 70
     1
  9
$SHADEDGE
 70
     3
  9
$SHADEDIF
 70
    70
  9
$TILEMODE
 70
     1
  9
$MAXACTVP
 70
    64
  9
$PINSBASE
 10
0.0
 20
0.0
 30
0.0
  9
$PLIMCHECK
 70
     0
  9
$PEXTMIN
 10
0.0
 20
0.0
 30
0.0
  9
$PEXTMAX
 10
210.0
 20
297.0
 30
0.0
  9
$PLIMMIN
 10
0.0
 20
0.0
  9
$PLIMMAX
 10
210.0
 20
297.0
  9
$UNITMODE
 70
     0
  9
$VISRETAIN
 70
     1
  9
$PLINEGEN
 70
     0
  9
$PSLTSCALE
 70
     1
  9
$TREEDEPTH
 70
  3020
  9
$CMLSTYLE
  2
Standard
  9
$CMLJUST
 70
     0
  9
$CMLSCALE
 40
20.0
  9
$PROXYGRAPHICS
 70
     1
  9
$MEASUREMENT
 70
     1
  9
$CELWEIGHT
370
    -1
  9
$ENDCAPS
280
     0
  9
$JOINSTYLE
280
     0
  9
$LWDISPLAY
290
     0
  9
$INSUNITS
 70
     4
  9
$HYPERLINKBASE
  1

  9
$STYLESHEET
  1

  9
$XEDIT
290
     1
  9
$CEPSNTYPE
380
     0
  9
$PSTYLEMODE
290
     1
  9
$FINGERPRINTGUID
  2
{1587A939-E75D-473C-A73B-97B2C73FEF8A}
  9
$VERSIONGUID
  2
{FAEB1C32-E019-11D5-929B-00C0DF256EC4}
  9
$EXTNAMES
290
     1
  9
$PSVPSCALE
 40
0.0
  9
$OLESTARTUP
290
     0
  0
ENDSEC
  0
SECTION
  2
CLASSES
  0
CLASS
  1
ACDBDICTIONARYWDFLT
  2
AcDbDictionaryWithDefault
  3
ObjectDBX Classes
 90
        0
280
     0
281
     0
  0
CLASS
  1
VISUALSTYLE
  2
AcDbVisualStyle
  3
ObjectDBX Classes
 90
     4095
280
     0
281
     0
  0
CLASS
  1
MATERIAL
  2
AcDbMaterial
  3
ObjectDBX Classes
 90
     1153
280
     0
281
     0
  0
CLASS
  1
DICTIONARYVAR
  2
AcDbDictionaryVar
  3
ObjectDBX Classes
 90
        0
280
     0
281
     0
  0
CLASS
  1
ACDBPLACEHOLDER
  2
AcDbPlaceHolder
  3
ObjectDBX Classes
 90
        0
280
     0
281
     0
  0
CLASS
  1
LAYOUT
  2
AcDbLayout
  3
ObjectDBX Classes
 90
        0
280
     0
281
     0
  0
ENDSEC
  0
SECTION
  2
TABLES
  0
TABLE
  2
VPORT
  5
8
330
0
100
AcDbSymbolTable
 70
     1
  0
VPORT
  5
29
330
8
100
AcDbSymbolTableRecord
100
AcDbViewportTableRecord
  2
*Active
 70
     0
 10
0.0
 20
0.0
 11
1.0
 21
1.0
 12
344.1869158879
 22
148.5
 13
0.0
 23
0.0
 14
10.0
 24
10.0
 15
10.0
 25
10.0
 16
0.0
 26
0.0
 36
1.0
 17
0.0
 27
0.0
 37
0.0
 40
297.0
 41
1.9729729729
 42
50.0
 43
0.0
 44
0.0
 50
0.0
 51
0.0
 71
     0
 72
   100
 73
     1
 74
     3
 75
     0
 76
     0
 77
     0
 78
     0
281
     0
 65
     1
110
0.0
120
0.0
130
0.0
111
1.0
121
0.0
131
0.0
112
0.0
122
1.0
132
0.0
 79
     0
146
0.0
  0
ENDTAB
  0
TABLE
  2
LTYPE
  5
5
330
0
100
AcDbSymbolTable
 70
     2
  0
LTYPE
  5
14
330
5
100
AcDbSymbolTableRecord
100
AcDbLinetypeTableRecord
  2
ByBlock
 70
     0
  3

 72
    65
 73
     0
 40
0.0
  0
LTYPE
  5
15
330
5
100
AcDbSymbolTableRecord
100
AcDbLinetypeTableRecord
  2
ByLayer
 70
     0
  3

 72
    65
 73
     0
 40
0.0
  0
LTYPE
  5
16
330
5
100
AcDbSymbolTableRecord
100
AcDbLinetypeTableRecord
  2
Continuous
 70
     0
  3
Solid line
 72
    65
 73
     0
 40
0.0
  0
LTYPE
  5
53
330
5
100
AcDbSymbolTableRecord
100
AcDbLinetypeTableRecord
  2
HIDDEN2
 70
     0
  3
Hidden (.5x) _ _ _ _ _ _ _ _ _ _ _ _ _ _ _ _ _ 
 72
    65
 73
     2
 40
4.7625
 49
3.175
 74
     4
 75
     0
340
0
 46
0.0
 50
0.0
 44
0.0
 45
0.0
 49
-1.5875
 74
     4
 75
     0
340
0
 46
0.0
 50
0.0
 44
0.0
 45
0.0
  0
ENDTAB
  0
TABLE
  2
LAYER
  5
2
330
0
100
AcDbSymbolTable
 70
     5
  0
LAYER
  5
10
330
2
100
AcDbSymbolTableRecord
100
AcDbLayerTableRecord
  2
0
 70
     0
 62
     7
  6
Continuous
370
    -3
390
F
  0
LAYER
  5
3F
330
2
100
AcDbSymbolTableRecord
100
AcDbLayerTableRecord
  2
SK1
 70
     0
 62
     4
  6
Continuous
370
    18
390
F
  0
LAYER
  5
52
330
2
100
AcDbSymbolTableRecord
100
AcDbLayerTableRecord
  2
SK3
 70
     0
 62
     1
  6
HIDDEN2
370
    15
390
F
  0
LAYER
  5
D6
330
2
100
AcDbSymbolTableRecord
100
AcDbLayerTableRecord
  2
SK4
 70
     0
 62
     2
  6
Continuous
370
    13
390
F
  0
LAYER
  5
D8
330
2
100
AcDbSymbolTableRecord
100
AcDbLayerTableRecord
  2
SK2
 70
     0
 62
     7
  6
Continuous
370
    15
390
F
  0
ENDTAB
  0
TABLE
  2
STYLE
  5
3
330
0
100
AcDbSymbolTable
 70
     2
  0
STYLE
  5
11
330
3
100
AcDbSymbolTableRecord
100
AcDbTextStyleTableRecord
  2
Standard
 70
     0
 40
0.0
 41
1.0
 50
0.0
 71
     0
 42
2.5
  3
txt
  4

  0
STYLE
  5
EB
330
3
100
AcDbSymbolTableRecord
100
AcDbTextStyleTableRecord
  2
SEACAD_Solid_Edge_ISO
 70
     0
 40
0.0
 41
1.0
 50
0.0
 71
     0
 42
0.2
  3
seiso.ttf
  4

1001
ACAD
1000
Solid Edge ISO
1071
        0
  0
ENDTAB
  0
TABLE
  2
VIEW
  5
6
330
0
100
AcDbSymbolTable
 70
     0
  0
ENDTAB
  0
TABLE
  2
UCS
  5
7
330
0
100
AcDbSymbolTable
 70
     0
  0
ENDTAB
  0
TABLE
  2
APPID
  5
9
330
0
100
AcDbSymbolTable
 70
     1
  0
APPID
  5
12
330
9
100
AcDbSymbolTableRecord
100
AcDbRegAppTableRecord
  2
ACAD
 70
     0
  0
ENDTAB
  0
TABLE
  2
DIMSTYLE
  5
A
330
0
100
AcDbSymbolTable
 70
     3
100
AcDbDimStyleTable
  0
DIMSTYLE
105
27
330
A
100
AcDbSymbolTableRecord
100
AcDbDimStyleTableRecord
  2
ISO-25
 70
     0
 41
2.5
 42
0.625
 43
3.75
 44
1.25
 73
     0
 74
     0
 77
     1
 78
     8
140
2.5
141
2.5
143
0.0393700787
147
0.625
171
     3
172
     1
178
     0
271
     2
272
     2
274
     3
278
    44
283
     0
284
     8
340
11
  0
DIMSTYLE
105
D9
330
A
100
AcDbSymbolTableRecord
100
AcDbDimStyleTableRecord
  2
Standard
 70
     0
178
     0
340
11
  0
DIMSTYLE
105
EC
102
{ACAD_REACTORS
330
ED
330
F7
330
101
330
10B
102
}
330
A
100
AcDbSymbolTableRecord
100
AcDbDimStyleTableRecord
  2
DIN
 70
     0
 41
3.5
 42
0.0
 44
1.75
 73
     0
 74
     0
 77
     1
 78
     8
140
3.5
141
1.75
147
1.75
172
     1
173
     1
178
     0
179
     3
271
     2
272
     2
278
    44
284
     8
340
EB
343
E6
344
E6
  0
ENDTAB
  0
TABLE
  2
BLOCK_RECORD
  5
1
330
0
100
AcDbSymbolTable
 70
    10
  0
BLOCK_RECORD
  5
1F
330
1
100
AcDbSymbolTableRecord
100
AcDbBlockTableRecord
  2
*Model_Space
340
22
  0
BLOCK_RECORD
  5
1B
330
1
100
AcDbSymbolTableRecord
100
AcDbBlockTableRecord
  2
*Paper_Space
340
1E
  0
BLOCK_RECORD
  5
DA
330
1
100
AcDbSymbolTableRecord
100
AcDbBlockTableRecord
  2
_OBLIQUE
340
0
  0
BLOCK_RECORD
  5
DE
330
1
100
AcDbSymbolTableRecord
100
AcDbBlockTableRecord
  2
_DOT
340
0
  0
BLOCK_RECORD
  5
E6
330
1
100
AcDbSymbolTableRecord
100
AcDbBlockTableRecord
  2
_SE_FILLED
340
0
  0
BLOCK_RECORD
  5
EE
330
1
100
AcDbSymbolTableRecord
100
AcDbBlockTableRecord
  2
DMBLK83
340
0
  0
BLOCK_RECORD
  5
F8
330
1
100
AcDbSymbolTableRecord
100
AcDbBlockTableRecord
  2
DMBLK84
340
0
  0
BLOCK_RECORD
  5
102
330
1
100
AcDbSymbolTableRecord
100
AcDbBlockTableRecord
  2
DMBLK85
340
0
  0
BLOCK_RECORD
  5
10C
330
1
100
AcDbSymbolTableRecord
100
AcDbBlockTableRecord
  2
DMBLK86
340
0
  0
BLOCK_RECORD
  5
115
330
1
100
AcDbSymbolTableRecord
100
AcDbBlockTableRecord
  2
Nullpunkt
340
0
102
{BLKREFS
331
11F
102
}
  0
BLOCK_RECORD
  5
120
330
1
100
AcDbSymbolTableRecord
100
AcDbBlockTableRecord
  2
Einfügepunkt
340
0
102
{BLKREFS
331
12A
102
}
  0
ENDTAB
  0
ENDSEC
  0
SECTION
  2
BLOCKS
  0
BLOCK
  5
20
330
1F
100
AcDbEntity
  8
0
100
AcDbBlockBegin
  2
*Model_Space
 70
     0
 10
0.0
 20
0.0
 30
0.0
  3
*Model_Space
  1

  0
ENDBLK
  5
21
330
1F
100
AcDbEntity
  8
0
100
AcDbBlockEnd
  0
BLOCK
  5
1C
330
1B
100
AcDbEntity
 67
     1
  8
0
100
AcDbBlockBegin
  2
*Paper_Space
 70
     0
 10
0.0
 20
0.0
 30
0.0
  3
*Paper_Space
  1

  0
ENDBLK
  5
1D
330
1B
100
AcDbEntity
 67
     1
  8
0
100
AcDbBlockEnd
  0
BLOCK
  5
DB
330
DA
100
AcDbEntity
  8
0
100
AcDbBlockBegin
  2
_OBLIQUE
 70
     0
 10
0.0
 20
0.0
 30
0.0
  3
_OBLIQUE
  1

  0
LINE
  5
DD
330
DA
100
AcDbEntity
  8
0
  6
ByBlock
 62
     0
370
    -2
100
AcDbLine
 10
-0.5
 20
-0.5
 30
0.0
 11
0.5
 21
0.5
 31
0.0
  0
ENDBLK
  5
DC
330
DA
100
AcDbEntity
  8
0
100
AcDbBlockEnd
  0
BLOCK
  5
DF
330
DE
100
AcDbEntity
  8
0
100
AcDbBlockBegin
  2
_DOT
 70
     0
 10
0.0
 20
0.0
 30
0.0
  3
_DOT
  1

  0
POLYLINE
  5
E1
330
DE
100
AcDbEntity
  8
0
  6
ByBlock
 62
     0
100
AcDb2dPolyline
 66
     1
 10
0.0
 20
0.0
 30
0.0
 70
     1
 40
0.5
 41
0.5
  0
VERTEX
  5
E3
330
E1
100
AcDbEntity
  8
0
  6
ByBlock
 62
     0
100
AcDbVertex
100
AcDb2dVertex
 10
-0.25
 20
0.0
 30
0.0
 42
1.0
  0
VERTEX
  5
E4
330
E1
100
AcDbEntity
  8
0
  6
ByBlock
 62
     0
100
AcDbVertex
100
AcDb2dVertex
 10
0.25
 20
0.0
 30
0.0
 42
1.0
  0
SEQEND
  5
E5
330
E1
100
AcDbEntity
  8
0
  6
ByBlock
 62
     0
  0
LINE
  5
E2
330
DE
100
AcDbEntity
  8
0
  6
ByBlock
 62
     0
370
    -2
100
AcDbLine
 10
-0.5
 20
0.0
 30
0.0
 11
-1.0
 21
0.0
 31
0.0
  0
ENDBLK
  5
E0
330
DE
100
AcDbEntity
  8
0
100
AcDbBlockEnd
  0
BLOCK
  5
E9
330
E6
100
AcDbEntity
  8
0
100
AcDbBlockBegin
  2
_SE_FILLED
 70
     0
 10
0.0
 20
0.0
 30
0.0
  3
_SE_FILLED
  1

  0
SOLID
  5
E7
330
E6
100
AcDbEntity
  8
0
 62
     0
100
AcDbTrace
 10
0.0
 20
0.0
 30
0.0
 11
-1.0
 21
-0.1665
 31
0.0
 12
-1.0
 22
0.1665
 32
0.0
 13
0.0
 23
0.0
 33
0.0
  0
LINE
  5
E8
330
E6
100
AcDbEntity
  8
0
 62
     0
100
AcDbLine
 10
0.0
 20
0.0
 30
0.0
 11
-1.0
 21
0.0
 31
0.0
  0
ENDBLK
  5
EA
330
E6
100
AcDbEntity
  8
0
100
AcDbBlockEnd
  0
BLOCK
  5
F5
330
EE
100
AcDbEntity
  8
0
100
AcDbBlockBegin
  2
DMBLK83
 70
     0
 10
0.0
 20
0.0
 30
0.0
  3
DMBLK83
  1

  0
HATCH
  5
EF
330
EE
100
AcDbEntity
  8
SK2
  6
Continuous
 62
   136
100
AcDbHatch
 10
0.0
 20
0.0
 30
0.0
210
0.0
220
0.0
230
1.0
  2
SOLID
 70
     1
 71
     0
 91
        1
 92
        1
 93
        3
 72
     1
 10
-13.74290350780902
 20
16.97217156636751
 11
-17.24290361584244
 21
16.38883821502861
 72
     1
 10
-17.24290361584244
 20
16.38883821502861
 11
-13.74290350780902
 21
15.8055048636897
 72
     1
 10
-13.74290350780902
 20
15.8055048636897
 11
-13.74290350780902
 21
16.97217156636751
 97
        0
 75
     0
 76
     1
 98
        0
  0
HATCH
  5
F0
330
EE
100
AcDbEntity
  8
SK2
  6
Continuous
 62
   136
100
AcDbHatch
 10
0.0
 20
0.0
 30
0.0
210
0.0
220
0.0
230
1.0
  2
SOLID
 70
     1
 71
     0
 91
        1
 92
        1
 93
        3
 72
     1
 10
6.757096127112533
 20
16.97217156636751
 11
6.757096127112533
 21
15.8055048636897
 72
     1
 10
6.757096127112533
 20
15.8055048636897
 11
10.25709623514595
 21
16.38883821502861
 72
     1
 10
10.25709623514595
 20
16.38883821502861
 11
6.757096127112533
 21
16.97217156636751
 97
        0
 75
     0
 76
     1
 98
        0
  0
LINE
  5
F1
330
EE
100
AcDbEntity
  8
SK2
  6
Continuous
 62
   136
100
AcDbLine
 10
-17.2429036158
 20
5.3100828438
 30
0.0
 11
-17.2429036158
 21
18.138838269
 31
0.0
  0
LINE
  5
F2
330
EE
100
AcDbEntity
  8
SK2
  6
Continuous
 62
   136
100
AcDbLine
 10
10.2570963842
 20
5.3540983454
 30
0.0
 11
10.2570963842
 21
18.138838269
 31
0.0
  0
LINE
  5
F3
330
EE
100
AcDbEntity
  8
SK2
  6
Continuous
 62
   136
100
AcDbLine
 10
-17.2429036158
 20
16.388838215
 30
0.0
 11
10.2570962351
 21
16.388838215
 31
0.0
  0
TEXT
  5
F4
330
EE
100
AcDbEntity
  8
SK2
  6
Continuous
 62
   136
100
AcDbText
 10
-6.9929036903
 20
17.263838215
 30
0.0
 40
3.5
  1
27,5
  7
SEACAD_Solid_Edge_ISO
 11
-6.9929036903
 21
20.763838215
 31
0.0
100
AcDbText
 73
     3
  0
ENDBLK
  5
F6
330
EE
100
AcDbEntity
  8
0
100
AcDbBlockEnd
  0
BLOCK
  5
FF
330
F8
100
AcDbEntity
  8
0
100
AcDbBlockBegin
  2
DMBLK84
 70
     0
 10
0.0
 20
0.0
 30
0.0
  3
DMBLK84
  1

  0
HATCH
  5
F9
330
F8
100
AcDbEntity
  8
SK2
  6
Continuous
 62
   136
100
AcDbHatch
 10
0.0
 20
0.0
 30
0.0
210
0.0
220
0.0
230
1.0
  2
SOLID
 70
     1
 71
     0
 91
        1
 92
        1
 93
        3
 72
     1
 10
20.5833335104732
 20
-5.880000108033395
 11
20.00000015913429
 21
-2.379999999999975
 72
     1
 10
20.00000015913429
 20
-2.379999999999975
 11
19.41666680779539
 21
-5.880000108033395
 72
     1
 10
19.41666680779539
 20
-5.880000108033395
 11
20.5833335104732
 21
-5.880000108033395
 97
        0
 75
     0
 76
     1
 98
        0
  0
HATCH
  5
FA
330
F8
100
AcDbEntity
  8
SK2
  6
Continuous
 62
   136
100
AcDbHatch
 10
0.0
 20
0.0
 30
0.0
210
0.0
220
0.0
230
1.0
  2
SOLID
 70
     1
 71
     0
 91
        1
 92
        1
 93
        3
 72
     1
 10
20.5833335104732
 20
5.880000108033426
 11
19.41666680779539
 21
5.880000108033426
 72
     1
 10
19.41666680779539
 20
5.880000108033426
 11
20.00000015913429
 21
2.380000000000007
 72
     1
 10
20.00000015913429
 20
2.380000000000007
 11
20.5833335104732
 21
5.880000108033426
 97
        0
 75
     0
 76
     1
 98
        0
  0
LINE
  5
FB
330
F8
100
AcDbEntity
  8
SK2
  6
Continuous
 62
   136
100
AcDbLine
 10
9.8570963842
 20
-2.38
 30
0.0
 11
21.7500002132
 21
-2.38
 31
0.0
  0
LINE
  5
FC
330
F8
100
AcDbEntity
  8
SK2
  6
Continuous
 62
   136
100
AcDbLine
 10
9.8570963842
 20
2.38
 30
0.0
 11
21.7500002132
 21
2.38
 31
0.0
  0
LINE
  5
FD
330
F8
100
AcDbEntity
  8
SK2
  6
Continuous
 62
   136
100
AcDbLine
 10
20.0000001591
 20
-9.3800002161
 30
0.0
 11
20.0000001591
 21
17.5861236256
 31
0.0
  0
TEXT
  5
FE
330
F8
100
AcDbEntity
  8
SK2
  6
Continuous
 62
   136
100
AcDbText
 10
19.1250001591
 20
9.2815767911
 30
0.0
 40
3.5
  1
4,76
 50
90.0
  7
SEACAD_Solid_Edge_ISO
 11
15.6250001591
 21
9.2815767911
 31
0.0
100
AcDbText
 73
     3
  0
ENDBLK
  5
100
330
F8
100
AcDbEntity
  8
0
100
AcDbBlockEnd
  0
BLOCK
  5
109
330
102
100
AcDbEntity
  8
0
100
AcDbBlockBegin
  2
DMBLK85
 70
     0
 10
0.0
 20
0.0
 30
0.0
  3
DMBLK85
  1

  0
HATCH
  5
103
330
102
100
AcDbEntity
  8
SK2
  6
Continuous
 62
   136
100
AcDbHatch
 10
0.0
 20
0.0
 30
0.0
210
0.0
220
0.0
230
1.0
  2
SOLID
 70
     1
 71
     0
 91
        1
 92
        1
 93
        3
 72
     1
 10
-3.500000108033416
 20
-16.62105583822522
 11
0.0000000000000022
 21
-16.03772248688632
 72
     1
 10
0.0000000000000022
 20
-16.03772248688632
 11
-3.500000108033416
 21
-15.45438913554741
 72
     1
 10
-3.500000108033416
 20
-15.45438913554741
 11
-3.500000108033416
 21
-16.62105583822522
 97
        0
 75
     0
 76
     1
 98
        0
  0
HATCH
  5
104
330
102
100
AcDbEntity
  8
SK2
  6
Continuous
 62
   136
100
AcDbHatch
 10
0.0
 20
0.0
 30
0.0
210
0.0
220
0.0
230
1.0
  2
SOLID
 70
     1
 71
     0
 91
        1
 92
        1
 93
        3
 72
     1
 10
13.75709649219504
 20
-16.62105583822522
 11
13.75709649219504
 21
-15.45438913554741
 72
     1
 10
13.75709649219504
 20
-15.45438913554741
 11
10.25709638416163
 21
-16.03772248688632
 72
     1
 10
10.25709638416163
 20
-16.03772248688632
 11
13.75709649219504
 21
-16.62105583822522
 97
        0
 75
     0
 76
     1
 98
        0
  0
LINE
  5
105
330
102
100
AcDbEntity
  8
SK2
  6
Continuous
 62
   136
100
AcDbLine
 10
0.0
 20
-8.0000827051
 30
0.0
 11
0.0
 21
-17.7877225409
 31
0.0
  0
LINE
  5
106
330
102
100
AcDbEntity
  8
SK2
  6
Continuous
 62
   136
100
AcDbLine
 10
10.2570963842
 20
-4.3601586395
 30
0.0
 11
10.2570963842
 21
-17.7877225409
 31
0.0
  0
LINE
  5
107
330
102
100
AcDbEntity
  8
SK2
  6
Continuous
 62
   136
100
AcDbLine
 10
-7.0000002161
 20
-16.0377224869
 30
0.0
 11
17.2570962459
 21
-16.0377224869
 31
0.0
  0
TEXT
  5
108
330
102
100
AcDbEntity
  8
SK2
  6
Continuous
 62
   136
100
AcDbText
 10
0.912638924
 20
-15.1627224869
 30
0.0
 40
3.5
  1
10,26
  7
SEACAD_Solid_Edge_ISO
 11
0.912638924
 21
-11.6627224869
 31
0.0
100
AcDbText
 73
     3
  0
ENDBLK
  5
10A
330
102
100
AcDbEntity
  8
0
100
AcDbBlockEnd
  0
BLOCK
  5
113
330
10C
100
AcDbEntity
  8
0
100
AcDbBlockBegin
  2
DMBLK86
 70
     0
 10
0.0
 20
0.0
 30
0.0
  3
DMBLK86
  1

  0
HATCH
  5
10D
330
10C
100
AcDbEntity
  8
SK2
  6
Continuous
 62
   136
100
AcDbHatch
 10
0.0
 20
0.0
 30
0.0
210
0.0
220
0.0
230
1.0
  2
SOLID
 70
     1
 71
     0
 91
        1
 92
        1
 93
        3
 72
     1
 10
-24.3211662552009
 20
4.500082597020234
 11
-23.1544995525231
 21
4.500082597020234
 72
     1
 10
-23.1544995525231
 20
4.500082597020234
 11
-23.737832903862
 21
8.000082705053654
 72
     1
 10
-23.737832903862
 20
8.000082705053654
 11
-24.3211662552009
 21
4.500082597020235
 97
        0
 75
     0
 76
     1
 98
        0
  0
HATCH
  5
10E
330
10C
100
AcDbEntity
  8
SK2
  6
Continuous
 62
   136
100
AcDbHatch
 10
0.0
 20
0.0
 30
0.0
210
0.0
220
0.0
230
1.0
  2
SOLID
 70
     1
 71
     0
 91
        1
 92
        1
 93
        3
 72
     1
 10
-24.3211662552009
 20
-4.500081859645282
 11
-23.737832903862
 21
-8.0000819676787
 72
     1
 10
-23.737832903862
 20
-8.0000819676787
 11
-23.1544995525231
 21
-4.500081859645281
 72
     1
 10
-23.1544995525231
 20
-4.500081859645282
 11
-24.3211662552009
 21
-4.500081859645282
 97
        0
 75
     0
 76
     1
 98
        0
  0
LINE
  5
10F
330
10C
100
AcDbEntity
  8
SK2
  6
Continuous
 62
   136
100
AcDbLine
 10
0.0
 20
8.0000827051
 30
0.0
 11
-25.4878329579
 21
8.0000827051
 31
0.0
  0
LINE
  5
110
330
10C
100
AcDbEntity
  8
SK2
  6
Continuous
 62
   136
100
AcDbLine
 10
0.0
 20
-8.0000827051
 30
0.0
 11
-25.4878329579
 21
-8.0000827051
 31
0.0
  0
LINE
  5
111
330
10C
100
AcDbEntity
  8
SK2
  6
Continuous
 62
   136
100
AcDbLine
 10
-23.7378329039
 20
8.0000827051
 30
0.0
 11
-23.7378329039
 21
-8.0000819677
 31
0.0
  0
TEXT
  5
112
330
10C
100
AcDbEntity
  8
SK2
  6
Continuous
 62
   136
100
AcDbText
 10
-24.6128329039
 20
-1.7897723586
 30
0.0
 40
3.5
  1
16
 50
90.0
  7
SEACAD_Solid_Edge_ISO
 11
-28.1128329039
 21
-1.7897723586
 31
0.0
100
AcDbText
 73
     3
  0
ENDBLK
  5
114
330
10C
100
AcDbEntity
  8
0
100
AcDbBlockEnd
  0
BLOCK
  5
11D
330
115
100
AcDbEntity
  8
0
100
AcDbBlockBegin
  2
Nullpunkt
 70
     0
 10
0.0
 20
0.0
 30
0.0
  3
Nullpunkt
  1

  0
HATCH
  5
116
330
115
100
AcDbEntity
  8
SK2
  6
Continuous
 62
     7
100
AcDbHatch
 10
0.0
 20
0.0
 30
0.0
210
0.0
220
0.0
230
1.0
  2
SOLID
 70
     1
 71
     0
 91
        1
 92
        1
 93
        3
 72
     1
 10
-1.0
 20
0.0
 11
0.0000000000000009
 21
0.0
 72
     1
 10
0.0
 20
0.0
 11
0.0
 21
1.000000000000001
 72
     2
 10
0.0
 20
0.0
 40
1.0
 50
90.0
 51
180.0
 73
     1
 97
        0
 75
     0
 76
     1
 98
        0
  0
HATCH
  5
117
330
115
100
AcDbEntity
  8
SK2
  6
Continuous
 62
     7
100
AcDbHatch
 10
0.0
 20
0.0
 30
0.0
210
0.0
220
0.0
230
1.0
  2
SOLID
 70
     1
 71
     0
 91
        1
 92
        1
 93
        3
 72
     2
 10
0.0
 20
0.0
 40
1.0
 50
270.0
 51
360.0
 73
     1
 72
     1
 10
1.0
 20
0.0
 11
-0.0000000000000009
 21
0.0
 72
     1
 10
0.0
 20
0.0
 11
0.0
 21
-1.000000000000001
 97
        0
 75
     0
 76
     1
 98
        0
  0
CIRCLE
  5
118
330
115
100
AcDbEntity
  8
SK2
  6
Continuous
 62
     7
100
AcDbCircle
 10
0.0
 20
0.0
 30
0.0
 40
1.0
  0
LINE
  5
119
330
115
100
AcDbEntity
  8
SK1
  6
Continuous
100
AcDbLine
 10
-1.0
 20
0.0
 30
0.0
 11
1.0
 21
0.0
 31
0.0
  0
LINE
  5
11A
330
115
100
AcDbEntity
  8
SK1
  6
Continuous
100
AcDbLine
 10
0.0
 20
1.0
 30
0.0
 11
0.0
 21
-1.0
 31
0.0
  0
POINT
  5
11B
330
115
100
AcDbEntity
  8
SK1
  6
Continuous
100
AcDbPoint
 10
0.0
 20
0.0
 30
0.0
  0
POINT
  5
11C
330
115
100
AcDbEntity
  8
SK1
  6
Continuous
100
AcDbPoint
 10
0.0
 20
0.0
 30
0.0
  0
ENDBLK
  5
11E
330
115
100
AcDbEntity
  8
0
100
AcDbBlockEnd
  0
BLOCK
  5
128
330
120
100
AcDbEntity
  8
0
100
AcDbBlockBegin
  2
Einfügepunkt
 70
     0
 10
0.0
 20
0.0
 30
0.0
  3
Einfügepunkt
  1

  0
HATCH
  5
121
330
120
100
AcDbEntity
  8
SK2
  6
Continuous
 62
     7
100
AcDbHatch
 10
0.0
 20
0.0
 30
0.0
210
0.0
220
0.0
230
1.0
  2
SOLID
 70
     1
 71
     0
 91
        1
 92
        1
 93
        3
 72
     1
 10
-0.4502381196756744
 20
-0.0000000000000018
 11
0.0000000000000033
 21
-0.0000000000000018
 72
     1
 10
0.0
 20
-0.0000000000000018
 11
0.0
 21
0.4502381196756812
 72
     2
 10
0.0
 20
-0.0000000000000018
 40
0.4502381196756812
 50
90.0
 51
180.0
 73
     1
 97
        0
 75
     0
 76
     1
 98
        0
  0
HATCH
  5
122
330
120
100
AcDbEntity
  8
SK2
  6
Continuous
 62
     7
100
AcDbHatch
 10
0.0
 20
0.0
 30
0.0
210
0.0
220
0.0
230
1.0
  2
SOLID
 70
     1
 71
     0
 91
        1
 92
        1
 93
        3
 72
     2
 10
0.0
 20
-0.0000000000000018
 40
0.4502381196756812
 50
270.0
 51
360.0
 73
     1
 72
     1
 10
0.4502381196756815
 20
-0.0000000000000018
 11
0.0000000000000038
 21
-0.0000000000000018
 72
     1
 10
0.0
 20
-0.0000000000000018
 11
0.0
 21
-0.4502381196756812
 97
        0
 75
     0
 76
     1
 98
        0
  0
CIRCLE
  5
123
330
120
100
AcDbEntity
  8
SK2
  6
Continuous
 62
     7
100
AcDbCircle
 10
0.0
 20
0.0
 30
0.0
 40
0.4502381196756812
  0
LINE
  5
124
330
120
100
AcDbEntity
  8
SK1
  6
Continuous
100
AcDbLine
 10
-0.4502381197
 20
0.0
 30
0.0
 11
0.4502381197
 21
0.0
 31
0.0
  0
LINE
  5
125
330
120
100
AcDbEntity
  8
SK1
  6
Continuous
100
AcDbLine
 10
0.0
 20
0.4502381197
 30
0.0
 11
0.0
 21
-0.4502381197
 31
0.0
  0
POINT
  5
126
330
120
100
AcDbEntity
  8
SK2
  6
Continuous
 62
     7
100
AcDbPoint
 10
0.0
 20
0.0
 30
0.0
  0
POINT
  5
127
330
120
100
AcDbEntity
  8
SK2
  6
Continuous
 62
     7
100
AcDbPoint
 10
0.0
 20
0.0
 30
0.0
  0
ENDBLK
  5
129
330
120
100
AcDbEntity
  8
0
100
AcDbBlockEnd
  0
ENDSEC
  0
SECTION
  2
ENTITIES
  0
LINE
  5
40
330
1F
100
AcDbEntity
  8
SK1
  6
Continuous
100
AcDbLine
 10
10.2570963842
 20
6.1712613559
 30
0.0
 11
10.2570963842
 21
4.5369353348
 31
0.0
  0
LINE
  5
41
330
1F
100
AcDbEntity
  8
SK1
  6
Continuous
100
AcDbLine
 10
10.1677932866
 20
6.3627724667
 30
0.0
 11
10.1677932866
 21
4.6724620415
 31
0.0
  0
LINE
  5
42
330
1F
100
AcDbEntity
  8
SK1
  6
Continuous
100
AcDbLine
 10
6.0570963842
 20
6.9
 30
0.0
 11
6.0570963842
 21
5.0526099574
 31
0.0
  0
LINE
  5
43
330
1F
100
AcDbEntity
  8
SK1
  6
Continuous
100
AcDbLine
 10
3.7570963842
 20
6.9
 30
0.0
 11
3.7570963842
 21
5.0526099574
 31
0.0
  0
LINE
  5
44
330
1F
100
AcDbEntity
  8
SK1
  6
Continuous
100
AcDbLine
 10
3.2153444539
 20
6.1506069224
 30
0.0
 11
3.2153444539
 21
8.4519698985
 31
0.0
  0
LINE
  5
45
330
1F
100
AcDbEntity
  8
SK1
  6
Continuous
100
AcDbLine
 10
6.2570963842
 20
8.37
 30
0.0
 11
6.2570963842
 21
6.0926198305
 31
0.0
  0
LINE
  5
46
330
1F
100
AcDbEntity
  8
SK1
  6
Continuous
100
AcDbLine
 10
6.6987693401
 20
8.37
 30
0.0
 11
6.6987693401
 21
6.0926198305
 31
0.0
  0
LINE
  5
47
330
1F
100
AcDbEntity
  8
SK1
  6
Continuous
100
AcDbLine
 10
6.6987693401
 20
-8.37
 30
0.0
 11
6.6987693401
 21
-6.0926198305
 31
0.0
  0
LINE
  5
48
330
1F
100
AcDbEntity
  8
SK1
  6
Continuous
100
AcDbLine
 10
6.2570963842
 20
-8.37
 30
0.0
 11
6.2570963842
 21
-6.0926198305
 31
0.0
  0
LINE
  5
49
330
1F
100
AcDbEntity
  8
SK1
  6
Continuous
100
AcDbLine
 10
6.6987693401
 20
6.0926198305
 30
0.0
 11
6.2570963842
 21
6.0926198305
 31
0.0
  0
LINE
  5
4A
330
1F
100
AcDbEntity
  8
SK1
  6
Continuous
100
AcDbLine
 10
6.6987693401
 20
5.7390664399
 30
0.0
 11
6.2570963842
 21
5.7390664399
 31
0.0
  0
LINE
  5
4B
330
1F
100
AcDbEntity
  8
SK1
  6
Continuous
100
AcDbLine
 10
3.5570963842
 20
5.586890644
 30
0.0
 11
3.5570963842
 21
-5.586890644
 31
0.0
  0
LINE
  5
4C
330
1F
100
AcDbEntity
  8
SK1
  6
Continuous
100
AcDbLine
 10
3.2153444539
 20
-8.4519698985
 30
0.0
 11
3.2153444539
 21
-6.1506069224
 31
0.0
  0
LINE
  5
4D
330
1F
100
AcDbEntity
  8
SK1
  6
Continuous
100
AcDbLine
 10
10.1677932866
 20
-4.6724620415
 30
0.0
 11
10.1677932866
 21
-6.3627724667
 31
0.0
  0
LINE
  5
4E
330
1F
100
AcDbEntity
  8
SK1
  6
Continuous
100
AcDbLine
 10
10.1510382354
 20
4.3288576419
 30
0.0
 11
10.1510382354
 21
-4.3288576419
 31
0.0
  0
LINE
  5
4F
330
1F
100
AcDbEntity
  8
SK1
  6
Continuous
100
AcDbLine
 10
10.2570963842
 20
-6.1712613559
 30
0.0
 11
10.2570963842
 21
-4.5369353348
 31
0.0
  0
LINE
  5
50
330
1F
100
AcDbEntity
  8
SK1
  6
Continuous
100
AcDbLine
 10
6.0570963842
 20
-6.9
 30
0.0
 11
6.0570963842
 21
-5.0526099574
 31
0.0
  0
LINE
  5
51
330
1F
100
AcDbEntity
  8
SK1
  6
Continuous
100
AcDbLine
 10
3.7570963842
 20
-6.9
 30
0.0
 11
3.7570963842
 21
-5.0526099574
 31
0.0
  0
SPLINE
  5
54
330
1F
100
AcDbEntity
  8
SK3
100
AcDbSpline
210
0.0
220
0.0
230
1.0
 70
     8
 71
     3
 72
    10
 73
     6
 74
     0
 42
0.0000000180267387
 43
0.0000000001
 12
1.0
 22
0.0
 32
0.0
 13
1.0
 23
0.0
 33
0.0
 40
0.0
 40
0.0
 40
0.0
 40
0.0
 40
0.5
 40
0.5
 40
1.0
 40
1.0
 40
1.0
 40
1.0
 10
9.857096384157561
 20
1.850380591085613
 30
0.0
 10
9.961484696408618
 20
1.850380591085643
 30
0.0
 10
10.06671984827521
 20
1.881414207514706
 30
0.0
 10
10.21430822662909
 20
1.98672938240365
 30
0.0
 10
10.25709638415756
 20
2.060749384241043
 30
0.0
 10
10.25709638415756
 20
2.134568819093249
 30
0.0
  0
LINE
  5
55
330
1F
100
AcDbEntity
  8
SK1
  6
Continuous
100
AcDbLine
 10
10.2570963842
 20
4.1833819442
 30
0.0
 11
10.2570963842
 21
4.5369353348
 31
0.0
  0
ARC
  5
56
330
1F
100
AcDbEntity
  8
SK1
  6
Continuous
100
AcDbCircle
 10
10.094719863
 20
4.527125751
 30
0.0
 40
0.1626725624471725
100
AcDbArc
 50
3.4571838191
 51
63.3072734582
  0
LINE
  5
57
330
1F
100
AcDbEntity
  8
SK1
  6
Continuous
100
AcDbLine
 10
10.1677932866
 20
4.6724620415
 30
0.0
 11
10.1510382354
 21
4.6824110324
 31
0.0
  0
LINE
  5
58
330
1F
100
AcDbEntity
  8
SK1
  6
Continuous
100
AcDbLine
 10
10.1510382354
 20
4.6824110324
 30
0.0
 11
6.6987693401
 21
6.0926198305
 31
0.0
  0
LINE
  5
59
330
1F
100
AcDbEntity
  8
SK1
  6
Continuous
100
AcDbLine
 10
6.2570963842
 20
6.0926198305
 30
0.0
 11
6.2570963842
 21
5.7390664399
 31
0.0
  0
SPLINE
  5
5A
330
1F
100
AcDbEntity
  8
SK1
  6
Continuous
100
AcDbSpline
210
0.0
220
0.0
230
1.0
 70
     8
 71
     3
 72
    10
 73
     6
 74
     0
 42
0.000000036096425
 43
0.0000000001
 12
1.0
 22
0.0
 32
0.0
 13
1.0
 23
0.0
 33
0.0
 40
0.0
 40
0.0
 40
0.0
 40
0.0
 40
0.5
 40
0.5
 40
1.0
 40
1.0
 40
1.0
 40
1.0
 10
6.257096384157555
 20
5.194121610687662
 30
0.0
 10
6.257096384157556
 20
5.156786305144336
 30
0.0
 10
6.23545572728329
 20
5.120226452215813
 30
0.0
 10
6.161753922076755
 20
5.068013457172062
 30
0.0
 10
6.109811050826399
 20
5.052609957417089
 30
0.0
 10
6.057096384157556
 20
5.052609957417089
 30
0.0
  0
LINE
  5
5B
330
1F
100
AcDbEntity
  8
SK1
  6
Continuous
100
AcDbLine
 10
6.0570963842
 20
5.0526099574
 30
0.0
 11
3.7570963842
 21
5.0526099574
 31
0.0
  0
SPLINE
  5
5C
330
1F
100
AcDbEntity
  8
SK1
  6
Continuous
100
AcDbSpline
210
0.0
220
0.0
230
1.0
 70
     8
 71
     3
 72
    10
 73
     6
 74
     0
 42
0.0000000361072764
 43
0.0000000001
 12
1.0
 22
0.0
 32
0.0
 13
1.0
 23
0.0
 33
0.0
 40
0.0
 40
0.0
 40
0.0
 40
0.0
 40
0.5
 40
0.5
 40
1.0
 40
1.0
 40
1.0
 40
1.0
 10
3.75709638415756
 20
5.052609957417091
 30
0.0
 10
3.704987347448552
 20
5.052609957417087
 30
0.0
 10
3.652374309623943
 20
5.068028753627681
 30
0.0
 10
3.578636909469113
 20
5.120327880584013
 30
0.0
 10
3.557096384157196
 20
5.157261174517868
 30
0.0
 10
3.557096384149475
 20
5.194121610688415
 30
0.0
  0
LINE
  5
5D
330
1F
100
AcDbEntity
  8
SK1
  6
Continuous
100
AcDbLine
 10
3.5570963842
 20
5.586890644
 30
0.0
 11
3.5570963842
 21
5.9404440346
 31
0.0
  0
SPLINE
  5
5E
330
1F
100
AcDbEntity
  8
SK1
  6
Continuous
100
AcDbSpline
210
0.0
220
0.0
230
1.0
 70
     8
 71
     3
 72
    10
 73
     6
 74
     0
 42
0.0000000217507907
 43
0.0000000001
 12
1.0
 22
0.0
 32
0.0
 13
1.0
 23
0.0
 33
0.0
 40
0.0
 40
0.0
 40
0.0
 40
0.0
 40
0.5
 40
0.5
 40
1.0
 40
1.0
 40
1.0
 40
1.0
 10
3.557096384157564
 20
5.940444034573044
 30
0.0
 10
3.557096384157574
 20
6.000788763221371
 30
0.0
 10
3.518663691367188
 20
6.060743533383711
 30
0.0
 10
3.389468213262852
 20
6.140300292752699
 30
0.0
 10
3.299742005498716
 20
6.158997801164495
 30
0.0
 10
3.215344453869426
 20
6.150606922400937
 30
0.0
  0
LINE
  5
5F
330
1F
100
AcDbEntity
  8
SK1
  6
Continuous
100
AcDbLine
 10
3.2153444539
 20
6.1506069224
 30
0.0
 11
-9.9865395406
 21
4.8379023287
 31
0.0
  0
SPLINE
  5
60
330
1F
100
AcDbEntity
  8
SK3
100
AcDbSpline
210
0.0
220
0.0
230
1.0
 70
     8
 71
     3
 72
    10
 73
     6
 74
     0
 42
0.0000000180267387
 43
0.0000000001
 12
1.0
 22
0.0
 32
0.0
 13
1.0
 23
0.0
 33
0.0
 40
0.0
 40
0.0
 40
0.0
 40
0.0
 40
0.5
 40
0.5
 40
1.0
 40
1.0
 40
1.0
 40
1.0
 10
9.857096384157561
 20
1.496827200492339
 30
0.0
 10
9.961484696408618
 20
1.49682720049237
 30
0.0
 10
10.06671984827521
 20
1.527860816921432
 30
0.0
 10
10.21430822662909
 20
1.633175991810376
 30
0.0
 10
10.25709638415756
 20
1.70719599364777
 30
0.0
 10
10.25709638415756
 20
1.781015428499975
 30
0.0
  0
ARC
  5
61
330
1F
100
AcDbEntity
  8
SK1
  6
Continuous
100
AcDbCircle
 10
10.094719863
 20
4.1735723604
 30
0.0
 40
0.1626725624471725
100
AcDbArc
 50
3.4571838191
 51
63.3072734582
  0
LINE
  5
62
330
1F
100
AcDbEntity
  8
SK1
  6
Continuous
100
AcDbLine
 10
10.1677932866
 20
4.3189086509
 30
0.0
 11
10.1510382354
 21
4.3288576419
 31
0.0
  0
LINE
  5
63
330
1F
100
AcDbEntity
  8
SK1
  6
Continuous
100
AcDbLine
 10
10.1510382354
 20
4.3288576419
 30
0.0
 11
6.6987693401
 21
5.7390664399
 31
0.0
  0
SPLINE
  5
64
330
1F
100
AcDbEntity
  8
SK1
  6
Continuous
100
AcDbSpline
210
0.0
220
0.0
230
1.0
 70
     8
 71
     3
 72
    10
 73
     6
 74
     0
 42
0.000000036096425
 43
0.0000000001
 12
1.0
 22
0.0
 32
0.0
 13
1.0
 23
0.0
 33
0.0
 40
0.0
 40
0.0
 40
0.0
 40
0.0
 40
0.5
 40
0.5
 40
1.0
 40
1.0
 40
1.0
 40
1.0
 10
6.257096384157555
 20
4.84056822009439
 30
0.0
 10
6.257096384157556
 20
4.803232914551062
 30
0.0
 10
6.23545572728329
 20
4.766673061622539
 30
0.0
 10
6.161753922076755
 20
4.714460066578788
 30
0.0
 10
6.109811050826399
 20
4.699056566823814
 30
0.0
 10
6.057096384157556
 20
4.699056566823815
 30
0.0
  0
LINE
  5
65
330
1F
100
AcDbEntity
  8
SK1
  6
Continuous
100
AcDbLine
 10
6.0570963842
 20
4.6990565668
 30
0.0
 11
3.7570963842
 21
4.6990565668
 31
0.0
  0
SPLINE
  5
66
330
1F
100
AcDbEntity
  8
SK1
  6
Continuous
100
AcDbSpline
210
0.0
220
0.0
230
1.0
 70
     8
 71
     3
 72
    10
 73
     6
 74
     0
 42
0.0000000361072764
 43
0.0000000001
 12
1.0
 22
0.0
 32
0.0
 13
1.0
 23
0.0
 33
0.0
 40
0.0
 40
0.0
 40
0.0
 40
0.0
 40
0.5
 40
0.5
 40
1.0
 40
1.0
 40
1.0
 40
1.0
 10
3.75709638415756
 20
4.699056566823816
 30
0.0
 10
3.704987347448552
 20
4.699056566823814
 30
0.0
 10
3.652374309623943
 20
4.714475363034408
 30
0.0
 10
3.578636909469113
 20
4.766774489990739
 30
0.0
 10
3.557096384157196
 20
4.803707783924596
 30
0.0
 10
3.557096384149475
 20
4.840568220095141
 30
0.0
  0
SPLINE
  5
67
330
1F
100
AcDbEntity
  8
SK1
  6
Continuous
100
AcDbSpline
210
0.0
220
0.0
230
1.0
 70
     8
 71
     3
 72
    10
 73
     6
 74
     0
 42
0.0000000217507907
 43
0.0000000001
 12
1.0
 22
0.0
 32
0.0
 13
1.0
 23
0.0
 33
0.0
 40
0.0
 40
0.0
 40
0.0
 40
0.0
 40
0.5
 40
0.5
 40
1.0
 40
1.0
 40
1.0
 40
1.0
 10
3.557096384157564
 20
5.58689064397977
 30
0.0
 10
3.557096384157574
 20
5.647235372628097
 30
0.0
 10
3.518663691367188
 20
5.707190142790437
 30
0.0
 10
3.389468213262852
 20
5.786746902159427
 30
0.0
 10
3.299742005498716
 20
5.805444410571221
 30
0.0
 10
3.215344453869426
 20
5.797053531807663
 30
0.0
  0
LINE
  5
68
330
1F
100
AcDbEntity
  8
SK1
  6
Continuous
100
AcDbLine
 10
3.2153444539
 20
5.7970535318
 30
0.0
 11
-9.9865395406
 21
4.4843489381
 31
0.0
  0
LINE
  5
69
330
1F
100
AcDbEntity
  8
SK1
  6
Continuous
100
AcDbLine
 10
3.5570963842
 20
5.9404440346
 30
0.0
 11
3.5570963842
 21
8.1548894778
 31
0.0
  0
LINE
  5
6A
330
1F
100
AcDbEntity
  8
SK1
  6
Continuous
100
AcDbLine
 10
10.1510382354
 20
4.6824110324
 30
0.0
 11
10.1510382354
 21
6.3768316239
 31
0.0
  0
LINE
  5
6B
330
1F
100
AcDbEntity
  8
SK1
  6
Continuous
100
AcDbLine
 10
6.2570963842
 20
-5.7390664399
 30
0.0
 11
6.2570963842
 21
5.7390664399
 31
0.0
  0
LINE
  5
6C
330
1F
100
AcDbEntity
  8
SK1
  6
Continuous
100
AcDbLine
 10
6.6987693401
 20
-5.7390664399
 30
0.0
 11
6.6987693401
 21
5.7390664399
 31
0.0
  0
LINE
  5
6D
330
1F
100
AcDbEntity
  8
SK1
  6
Continuous
100
AcDbLine
 10
3.2153444539
 20
-5.7970535318
 30
0.0
 11
3.2153444539
 21
5.7970535318
 31
0.0
  0
LINE
  5
6E
330
1F
100
AcDbEntity
  8
SK1
  6
Continuous
100
AcDbLine
 10
3.5570963842
 20
-5.9404440346
 30
0.0
 11
3.5570963842
 21
-8.1548894778
 31
0.0
  0
LINE
  5
6F
330
1F
100
AcDbEntity
  8
SK1
  6
Continuous
100
AcDbLine
 10
10.1510382354
 20
-4.6824110324
 30
0.0
 11
10.1510382354
 21
-6.3768316239
 31
0.0
  0
LINE
  5
70
330
1F
100
AcDbEntity
  8
SK1
  6
Continuous
100
AcDbLine
 10
10.1677932866
 20
-4.3189086509
 30
0.0
 11
10.1677932866
 21
4.3189086509
 31
0.0
  0
LINE
  5
71
330
1F
100
AcDbEntity
  8
SK1
  6
Continuous
100
AcDbLine
 10
10.2570963842
 20
-4.1833819442
 30
0.0
 11
10.2570963842
 21
4.1833819442
 31
0.0
  0
LINE
  5
72
330
1F
100
AcDbEntity
  8
SK1
  6
Continuous
100
AcDbLine
 10
6.0570963842
 20
-4.6990565668
 30
0.0
 11
6.0570963842
 21
4.6990565668
 31
0.0
  0
LINE
  5
73
330
1F
100
AcDbEntity
  8
SK1
  6
Continuous
100
AcDbLine
 10
3.7570963842
 20
-4.6990565668
 30
0.0
 11
3.7570963842
 21
4.6990565668
 31
0.0
  0
SPLINE
  5
74
330
1F
100
AcDbEntity
  8
SK3
100
AcDbSpline
210
0.0
220
0.0
230
1.0
 70
     8
 71
     3
 72
    10
 73
     6
 74
     0
 42
0.0000000180265255
 43
0.0000000001
 12
1.0
 22
0.0
 32
0.0
 13
1.0
 23
0.0
 33
0.0
 40
0.0
 40
0.0
 40
0.0
 40
0.0
 40
0.5
 40
0.5
 40
1.0
 40
1.0
 40
1.0
 40
1.0
 10
10.25709638415756
 20
-1.781015428499943
 30
0.0
 10
10.25709638415756
 20
-1.706893396704398
 30
0.0
 10
10.21359406077778
 20
-1.632463945528465
 30
0.0
 10
10.06633854783719
 20
-1.527792680411086
 30
0.0
 10
9.961988908353861
 20
-1.496827200492305
 30
0.0
 10
9.85709638415756
 20
-1.496827200492281
 30
0.0
  0
LINE
  5
75
330
1F
100
AcDbEntity
  8
SK3
100
AcDbLine
 10
9.8570963842
 20
-1.4968272005
 30
0.0
 11
-10.3688462265
 21
-1.4968272005
 31
0.0
  0
SPLINE
  5
76
330
1F
100
AcDbEntity
  8
SK1
  6
Continuous
100
AcDbSpline
210
0.0
220
0.0
230
1.0
 70
     8
 71
     3
 72
    10
 73
     6
 74
     0
 42
0.0000000217510525
 43
0.0000000001
 12
1.0
 22
0.0
 32
0.0
 13
1.0
 23
0.0
 33
0.0
 40
0.0
 40
0.0
 40
0.0
 40
0.0
 40
0.5
 40
0.5
 40
1.0
 40
1.0
 40
1.0
 40
1.0
 10
3.215344453869539
 20
-5.79705353180259
 30
0.0
 10
3.2995988371311
 20
-5.805430176646471
 30
0.0
 10
3.389951747245045
 20
-5.78647311111337
 30
0.0
 10
3.518316058480215
 20
-5.707380222472876
 30
0.0
 10
3.557096384157565
 20
-5.647701762203443
 30
0.0
 10
3.557096384157564
 20
-5.586890643979737
 30
0.0
  0
SPLINE
  5
77
330
1F
100
AcDbEntity
  8
SK1
  6
Continuous
100
AcDbSpline
210
0.0
220
0.0
230
1.0
 70
     8
 71
     3
 72
    10
 73
     6
 74
     0
 42
0.0000000360964285
 43
0.0000000001
 12
1.0
 22
0.0
 32
0.0
 13
1.0
 23
0.0
 33
0.0
 40
0.0
 40
0.0
 40
0.0
 40
0.0
 40
0.5
 40
0.5
 40
1.0
 40
1.0
 40
1.0
 40
1.0
 10
3.557096384157283
 20
-4.840568220094374
 30
0.0
 10
3.557096384157544
 20
-4.803628615218893
 30
0.0
 10
3.578385234368433
 20
-4.766884066890868
 30
0.0
 10
3.652995591903284
 20
-4.714103980375826
 30
0.0
 10
3.704893339607584
 20
-4.69905656682378
 30
0.0
 10
3.75709638415756
 20
-4.699056566823783
 30
0.0
  0
LINE
  5
78
330
1F
100
AcDbEntity
  8
SK1
  6
Continuous
100
AcDbLine
 10
3.7570963842
 20
-4.6990565668
 30
0.0
 11
6.0570963842
 21
-4.6990565668
 31
0.0
  0
SPLINE
  5
79
330
1F
100
AcDbEntity
  8
SK1
  6
Continuous
100
AcDbSpline
210
0.0
220
0.0
230
1.0
 70
     8
 71
     3
 72
    10
 73
     6
 74
     0
 42
0.0000000361076875
 43
0.0000000001
 12
1.0
 22
0.0
 32
0.0
 13
1.0
 23
0.0
 33
0.0
 40
0.0
 40
0.0
 40
0.0
 40
0.0
 40
0.5
 40
0.5
 40
1.0
 40
1.0
 40
1.0
 40
1.0
 10
6.057096384157426
 20
-4.699056566822931
 30
0.0
 10
6.109284407231529
 20
-4.699056566823741
 30
0.0
 10
6.161492666792348
 20
-4.714354315826856
 30
0.0
 10
6.235288309949801
 20
-4.766475585203064
 30
0.0
 10
6.257096384157563
 20
-4.803689647415649
 30
0.0
 10
6.257096384157555
 20
-4.840568220094355
 30
0.0
  0
LINE
  5
7A
330
1F
100
AcDbEntity
  8
SK1
  6
Continuous
100
AcDbLine
 10
6.2570963842
 20
-5.7390664399
 30
0.0
 11
6.6987693401
 21
-5.7390664399
 31
0.0
  0
SPLINE
  5
7B
330
1F
100
AcDbEntity
  8
SK1
  6
Continuous
100
AcDbSpline
210
0.0
220
0.0
230
1.0
 70
     8
 71
     3
 72
     8
 73
     4
 74
     0
 42
0.0000000026815483
 43
0.0000000001
 12
1.0
 22
0.0
 32
0.0
 13
1.0
 23
0.0
 33
0.0
 40
0.0
 40
0.0
 40
0.0
 40
0.0
 40
1.0
 40
1.0
 40
1.0
 40
1.0
 10
6.69876934008763
 20
-5.739066439878585
 30
0.0
 10
7.849565840882776
 20
-5.269046028858268
 30
0.0
 10
9.00033473694384
 20
-4.798991811870708
 30
0.0
 10
10.15103823544671
 20
-4.328857641852888
 30
0.0
  0
LINE
  5
7C
330
1F
100
AcDbEntity
  8
SK1
  6
Continuous
100
AcDbLine
 10
10.1510382354
 20
-4.3288576419
 30
0.0
 11
10.1677932866
 21
-4.3189086509
 31
0.0
  0
ARC
  5
7D
330
1F
100
AcDbEntity
  8
SK1
  6
Continuous
100
AcDbCircle
 10
10.0947346596
 20
-4.1735821104
 30
0.0
 40
0.1626572050204099
100
AcDbArc
 50
296.6896126694
 51
356.5459300535
  0
SPLINE
  5
7E
330
1F
100
AcDbEntity
  8
SK3
100
AcDbSpline
210
0.0
220
0.0
230
1.0
 70
     8
 71
     3
 72
    10
 73
     6
 74
     0
 42
0.0000000180265255
 43
0.0000000001
 12
1.0
 22
0.0
 32
0.0
 13
1.0
 23
0.0
 33
0.0
 40
0.0
 40
0.0
 40
0.0
 40
0.0
 40
0.5
 40
0.5
 40
1.0
 40
1.0
 40
1.0
 40
1.0
 10
10.25709638415756
 20
-2.134568819093216
 30
0.0
 10
10.25709638415756
 20
-2.060446787297671
 30
0.0
 10
10.21359406077778
 20
-1.986017336121738
 30
0.0
 10
10.06633854783719
 20
-1.88134607100436
 30
0.0
 10
9.961988908353861
 20
-1.850380591085578
 30
0.0
 10
9.85709638415756
 20
-1.850380591085555
 30
0.0
  0
LINE
  5
7F
330
1F
100
AcDbEntity
  8
SK3
100
AcDbLine
 10
9.8570963842
 20
-1.8503805911
 30
0.0
 11
-10.3688462265
 21
-1.8503805911
 31
0.0
  0
SPLINE
  5
80
330
1F
100
AcDbEntity
  8
SK1
  6
Continuous
100
AcDbSpline
210
0.0
220
0.0
230
1.0
 70
     8
 71
     3
 72
    10
 73
     6
 74
     0
 42
0.0000000217510525
 43
0.0000000001
 12
1.0
 22
0.0
 32
0.0
 13
1.0
 23
0.0
 33
0.0
 40
0.0
 40
0.0
 40
0.0
 40
0.0
 40
0.5
 40
0.5
 40
1.0
 40
1.0
 40
1.0
 40
1.0
 10
3.215344453869539
 20
-6.150606922395864
 30
0.0
 10
3.2995988371311
 20
-6.158983567239743
 30
0.0
 10
3.389951747245045
 20
-6.140026501706642
 30
0.0
 10
3.518316058480215
 20
-6.06093361306615
 30
0.0
 10
3.557096384157565
 20
-6.001255152796718
 30
0.0
 10
3.557096384157564
 20
-5.940444034573011
 30
0.0
  0
LINE
  5
81
330
1F
100
AcDbEntity
  8
SK1
  6
Continuous
100
AcDbLine
 10
3.5570963842
 20
-5.9404440346
 30
0.0
 11
3.5570963842
 21
-5.586890644
 31
0.0
  0
SPLINE
  5
82
330
1F
100
AcDbEntity
  8
SK1
  6
Continuous
100
AcDbSpline
210
0.0
220
0.0
230
1.0
 70
     8
 71
     3
 72
    10
 73
     6
 74
     0
 42
0.0000000360964285
 43
0.0000000001
 12
1.0
 22
0.0
 32
0.0
 13
1.0
 23
0.0
 33
0.0
 40
0.0
 40
0.0
 40
0.0
 40
0.0
 40
0.5
 40
0.5
 40
1.0
 40
1.0
 40
1.0
 40
1.0
 10
3.557096384157283
 20
-5.194121610687647
 30
0.0
 10
3.557096384157544
 20
-5.157182005812166
 30
0.0
 10
3.578385234368433
 20
-5.120437457484142
 30
0.0
 10
3.652995591903284
 20
-5.0676573709691
 30
0.0
 10
3.704893339607584
 20
-5.052609957417054
 30
0.0
 10
3.75709638415756
 20
-5.052609957417057
 30
0.0
  0
LINE
  5
83
330
1F
100
AcDbEntity
  8
SK1
  6
Continuous
100
AcDbLine
 10
3.7570963842
 20
-5.0526099574
 30
0.0
 11
6.0570963842
 21
-5.0526099574
 31
0.0
  0
SPLINE
  5
84
330
1F
100
AcDbEntity
  8
SK1
  6
Continuous
100
AcDbSpline
210
0.0
220
0.0
230
1.0
 70
     8
 71
     3
 72
    10
 73
     6
 74
     0
 42
0.0000000361076875
 43
0.0000000001
 12
1.0
 22
0.0
 32
0.0
 13
1.0
 23
0.0
 33
0.0
 40
0.0
 40
0.0
 40
0.0
 40
0.0
 40
0.5
 40
0.5
 40
1.0
 40
1.0
 40
1.0
 40
1.0
 10
6.057096384157426
 20
-5.052609957416206
 30
0.0
 10
6.109284407231529
 20
-5.052609957417015
 30
0.0
 10
6.161492666792348
 20
-5.067907706420129
 30
0.0
 10
6.235288309949801
 20
-5.120028975796339
 30
0.0
 10
6.257096384157563
 20
-5.157243038008923
 30
0.0
 10
6.257096384157555
 20
-5.194121610687629
 30
0.0
  0
LINE
  5
85
330
1F
100
AcDbEntity
  8
SK1
  6
Continuous
100
AcDbLine
 10
6.2570963842
 20
-5.7390664399
 30
0.0
 11
6.2570963842
 21
-6.0926198305
 31
0.0
  0
LINE
  5
86
330
1F
100
AcDbEntity
  8
SK1
  6
Continuous
100
AcDbLine
 10
6.2570963842
 20
-6.0926198305
 30
0.0
 11
6.6987693401
 21
-6.0926198305
 31
0.0
  0
SPLINE
  5
87
330
1F
100
AcDbEntity
  8
SK1
  6
Continuous
100
AcDbSpline
210
0.0
220
0.0
230
1.0
 70
     8
 71
     3
 72
     8
 73
     4
 74
     0
 42
0.0000000026815483
 43
0.0000000001
 12
1.0
 22
0.0
 32
0.0
 13
1.0
 23
0.0
 33
0.0
 40
0.0
 40
0.0
 40
0.0
 40
0.0
 40
1.0
 40
1.0
 40
1.0
 40
1.0
 10
6.69876934008763
 20
-6.092619830471859
 30
0.0
 10
7.849565840882776
 20
-5.622599419451543
 30
0.0
 10
9.00033473694384
 20
-5.152545202463982
 30
0.0
 10
10.15103823544671
 20
-4.682411032446162
 30
0.0
  0
LINE
  5
88
330
1F
100
AcDbEntity
  8
SK1
  6
Continuous
100
AcDbLine
 10
10.1510382354
 20
-4.6824110324
 30
0.0
 11
10.1677932866
 21
-4.6724620415
 31
0.0
  0
ARC
  5
89
330
1F
100
AcDbEntity
  8
SK1
  6
Continuous
100
AcDbCircle
 10
10.0947346596
 20
-4.527135501
 30
0.0
 40
0.1626572050204123
100
AcDbArc
 50
296.6896126694
 51
356.5459300535
  0
LINE
  5
8A
330
1F
100
AcDbEntity
  8
SK1
  6
Continuous
100
AcDbLine
 10
10.2570963842
 20
-4.5369353348
 30
0.0
 11
10.2570963842
 21
-4.1833819442
 31
0.0
  0
LINE
  5
8B
330
1F
100
AcDbEntity
  8
SK3
100
AcDbLine
 10
-10.3688462265
 20
1.8503805911
 30
0.0
 11
9.8570963842
 21
1.8503805911
 31
0.0
  0
ELLIPSE
  5
8C
330
1F
100
AcDbEntity
  8
SK1
  6
Continuous
100
AcDbEllipse
 10
39.3248213735
 20
0.1767766956
 30
0.0
 11
-49.7499999953803
 21
-6.295210198391826E-10
 31
0.0
210
0.0
220
0.0
230
1.0
 40
0.7071067812
 41
-0.1328898242388563
 42
-0.122814998734726
  0
SPLINE
  5
8D
330
1F
100
AcDbEntity
  8
SK3
100
AcDbSpline
210
0.0
220
0.0
230
1.0
 70
     8
 71
     3
 72
    35
 73
    31
 74
     0
 42
0.0000000147512129
 43
0.0000000001
 12
1.0
 22
0.0
 32
0.0
 13
1.0
 23
0.0
 33
0.0
 40
0.0
 40
0.0
 40
0.0
 40
0.0
 40
0.1069870755301005
 40
0.1069870755301005
 40
0.1069870755301005
 40
0.2139679471032232
 40
0.2139679471032232
 40
0.2139679471032232
 40
0.321075383608436
 40
0.321075383608436
 40
0.321075383608436
 40
0.4285293642209659
 40
0.4285293642209659
 40
0.4285293642209659
 40
0.4999919417828079
 40
0.4999919417828079
 40
0.4999919417828079
 40
0.6073663166423539
 40
0.6073663166423539
 40
0.6073663166423539
 40
0.7147321506289268
 40
0.7147321506289268
 40
0.7147321506289268
 40
0.8222168420405392
 40
0.8222168420405392
 40
0.8222168420405392
 40
0.9296080335954457
 40
0.9296080335954457
 40
0.9296080335954457
 40
1.0
 40
1.0
 40
1.0
 40
1.0
 10
-10.36884622648549
 20
1.850380591085612
 30
0.0
 10
-10.39670745021525
 20
1.850380591085612
 30
0.0
 10
-10.424953628919
 20
1.847366379868093
 30
0.0
 10
-10.45124338984281
 20
1.841522563133756
 30
0.0
 10
-10.47753255706462
 20
1.835678878370407
 30
0.0
 10
-10.50258844937308
 20
1.826840613699412
 30
0.0
 10
-10.52435178578469
 20
1.815593825607498
 30
0.0
 10
-10.54614147100543
 20
1.804333421061423
 30
0.0
 10
-10.56523158336257
 20
1.790341954686776
 30
0.0
 10
-10.58006693080219
 20
1.774601115079029
 30
0.0
 10
-10.59494885278926
 20
1.758810858193774
 30
0.0
 10
-10.60595942720132
 20
1.740816806739698
 30
0.0
 10
-10.61219377793009
 20
1.721986434356714
 30
0.0
 10
-10.61637290582219
 20
1.709363702998167
 30
0.0
 10
-10.61850250002365
 20
1.696177592013252
 30
0.0
 10
-10.61850250002368
 20
1.682914139224366
 30
0.0
 10
-10.61850250002372
 20
1.663142709185853
 30
0.0
 10
-10.61369736327292
 20
1.642731249488139
 30
0.0
 10
-10.60448344151104
 20
1.623426831485913
 30
0.0
 10
-10.59526994487404
 20
1.604123304178092
 30
0.0
 10
-10.58139485200172
 20
1.585399236035149
 30
0.0
 10
-10.56399413301598
 20
1.568942653851715
 30
0.0
 10
-10.54657501950909
 20
1.552468675206136
 30
0.0
 10
-10.52513995982782
 20
1.537819767611193
 30
0.0
 10
-10.50145124582696
 20
1.526381546073416
 30
0.0
 10
-10.47778416336799
 20
1.514953769440687
 30
0.0
 10
-10.45121073321994
 20
1.506423403581009
 30
0.0
 10
-10.42394067904174
 20
1.501621073730024
 30
0.0
 10
-10.40591938062146
 20
1.498447474631481
 30
0.0
 10
-10.38732593914885
 20
1.496827200492339
 30
0.0
 10
-10.36884622648549
 20
1.496827200492339
 30
0.0
  0
SPLINE
  5
8E
330
1F
100
AcDbEntity
  8
SK1
  6
Continuous
100
AcDbSpline
210
0.0
220
0.0
230
1.0
 70
     8
 71
     3
 72
    35
 73
    31
 74
     0
 42
0.0000000144798034
 43
0.0000000001
 12
1.0
 22
0.0
 32
0.0
 13
1.0
 23
0.0
 33
0.0
 40
0.0
 40
0.0
 40
0.0
 40
0.0
 40
0.1121859067527125
 40
0.1121859067527125
 40
0.1121859067527125
 40
0.2245268140661581
 40
0.2245268140661581
 40
0.2245268140661581
 40
0.3344161427818531
 40
0.3344161427818531
 40
0.3344161427818531
 40
0.4407808148148269
 40
0.4407808148148269
 40
0.4407808148148269
 40
0.5001515774490931
 40
0.5001515774490931
 40
0.5001515774490931
 40
0.6035484910140853
 40
0.6035484910140853
 40
0.6035484910140853
 40
0.7068759051535327
 40
0.7068759051535327
 40
0.7068759051535327
 40
0.8112977769422177
 40
0.8112977769422177
 40
0.8112977769422177
 40
0.9184972697620453
 40
0.9184972697620453
 40
0.9184972697620453
 40
1.0
 40
1.0
 40
1.0
 40
1.0
 10
-9.986539540596828
 20
4.484348938125322
 30
0.0
 10
-10.01594765622176
 20
4.481424335671385
 30
0.0
 10
-10.04579261644006
 20
4.482158170821685
 30
0.0
 10
-10.07361062724311
 20
4.486545588632804
 30
0.0
 10
-10.10145068782755
 20
4.490936484104649
 30
0.0
 10
-10.12804084284583
 20
4.499122398295325
 30
0.0
 10
-10.15098907844203
 20
4.510447009273188
 30
0.0
 10
-10.17343682570764
 20
4.521524636746842
 30
0.0
 10
-10.1930370828039
 20
4.535929257397802
 30
0.0
 10
-10.20794081871328
 20
4.552400346497887
 30
0.0
 10
-10.22237376990292
 20
4.568351140746197
 30
0.0
 10
-10.2328101107877
 20
4.586693527882809
 30
0.0
 10
-10.23826484655457
 20
4.605819439030332
 30
0.0
 10
-10.24134107576926
 20
4.616605605243328
 30
0.0
 10
-10.24290361584243
 20
4.627772464572647
 30
0.0
 10
-10.24290361584243
 20
4.638999834012501
 30
0.0
 10
-10.24290361584243
 20
4.658365516402173
 30
0.0
 10
-10.23816360868868
 20
4.678341139273182
 30
0.0
 10
-10.22911547890471
 20
4.697280812220577
 30
0.0
 10
-10.22007072796048
 20
4.716213412532956
 30
0.0
 10
-10.20648253463584
 20
4.734628572522322
 30
0.0
 10
-10.18954072162248
 20
4.751108177082853
 30
0.0
 10
-10.17241610646654
 20
4.767765596557308
 30
0.0
 10
-10.15141810994909
 20
4.782895214252674
 30
0.0
 10
-10.12829356627107
 20
4.795425861578438
 30
0.0
 10
-10.10455735017015
 20
4.808287959829991
 30
0.0
 10
-10.07795943722824
 20
4.818759105081421
 30
0.0
 10
-10.05063015207585
 20
4.82614724090012
 30
0.0
 10
-10.0297315020589
 20
4.831796933670774
 30
0.0
 10
-10.00804860563326
 20
4.835763277540012
 30
0.0
 10
-9.986539540596828
 20
4.837902328718594
 30
0.0
  0
SPLINE
  5
8F
330
1F
100
AcDbEntity
  8
SK3
100
AcDbSpline
210
0.0
220
0.0
230
1.0
 70
     8
 71
     3
 72
     8
 73
     4
 74
     0
 42
0.0000004296257808
 43
0.0000000001
 12
1.0
 22
0.0
 32
0.0
 13
1.0
 23
0.0
 33
0.0
 40
0.0
 40
0.0
 40
0.0
 40
0.0
 40
1.0
 40
1.0
 40
1.0
 40
1.0
 10
-10.24290361584243
 20
-4.638999834012468
 30
0.0
 10
-10.24290361584243
 20
-4.646640668933063
 30
0.0
 10
-10.24216572007163
 20
-4.654376455714915
 30
0.0
 10
-10.24071645574628
 20
-4.662106100458372
 30
0.0
  0
LINE
  5
90
330
1F
100
AcDbEntity
  8
SK3
100
AcDbLine
 10
-10.3688462265
 20
1.4968272005
 30
0.0
 11
9.8570963842
 21
1.4968272005
 31
0.0
  0
SPLINE
  5
91
330
1F
100
AcDbEntity
  8
SK3
100
AcDbSpline
210
0.0
220
0.0
230
1.0
 70
     8
 71
     3
 72
    11
 73
     7
 74
     0
 42
0.0000004238914852
 43
0.0000000001
 12
1.0
 22
0.0
 32
0.0
 13
1.0
 23
0.0
 33
0.0
 40
0.0
 40
0.0
 40
0.0
 40
0.0
 40
0.5343814275038528
 40
0.5343814275038528
 40
0.5343814275038528
 40
1.0
 40
1.0
 40
1.0
 40
1.0
 10
-10.23436611980286
 20
4.684894084700169
 30
0.0
 10
-10.23586281287555
 20
4.680893744919926
 30
0.0
 10
-10.23716507933645
 20
4.67687782466912
 30
0.0
 10
-10.23826484655458
 20
4.672860017857575
 30
0.0
 10
-10.23923301173995
 20
4.66932299601117
 30
0.0
 10
-10.24005124357894
 20
4.665770533438013
 30
0.0
 10
-10.2407180191934
 20
4.662212695166049
 30
0.0
  0
LINE
  5
92
330
1F
100
AcDbEntity
  8
SK1
  6
Continuous
100
AcDbLine
 10
-9.9865395406
 20
-4.4843489381
 30
0.0
 11
3.2153444539
 21
-5.7970535318
 31
0.0
  0
SPLINE
  5
93
330
1F
100
AcDbEntity
  8
SK1
  6
Continuous
100
AcDbSpline
210
0.0
220
0.0
230
1.0
 70
     8
 71
     3
 72
    35
 73
    31
 74
     0
 42
0.0000000144803281
 43
0.0000000001
 12
1.0
 22
0.0
 32
0.0
 13
1.0
 23
0.0
 33
0.0
 40
0.0
 40
0.0
 40
0.0
 40
0.0
 40
0.1121859067527219
 40
0.1121859067527219
 40
0.1121859067527219
 40
0.2245268140661753
 40
0.2245268140661753
 40
0.2245268140661753
 40
0.3344161427818613
 40
0.3344161427818613
 40
0.3344161427818613
 40
0.4407808148148394
 40
0.4407808148148394
 40
0.4407808148148394
 40
0.500151577449095
 40
0.500151577449095
 40
0.500151577449095
 40
0.6035484910140824
 40
0.6035484910140824
 40
0.6035484910140824
 40
0.7068759051535224
 40
0.7068759051535224
 40
0.7068759051535224
 40
0.8112977769422061
 40
0.8112977769422061
 40
0.8112977769422061
 40
0.9184972697620318
 40
0.9184972697620318
 40
0.9184972697620318
 40
1.0
 40
1.0
 40
1.0
 40
1.0
 10
-9.986539540596828
 20
-4.837902328718561
 30
0.0
 10
-10.01594765622176
 20
-4.834977726264627
 30
0.0
 10
-10.04579261644006
 20
-4.828585624754955
 30
0.0
 10
-10.07361062724312
 20
-4.819159453551952
 30
0.0
 10
-10.10145068782756
 20
-4.809725810750212
 30
0.0
 10
-10.12804084284584
 20
-4.796973606121972
 30
0.0
 10
-10.15098907844204
 20
-4.7818582423446
 30
0.0
 10
-10.17343682570764
 20
-4.767072536294142
 30
0.0
 10
-10.19303708280391
 20
-4.749590375975411
 30
0.0
 10
-10.20794081871328
 20
-4.730833665950555
 30
0.0
 10
-10.22237376990292
 20
-4.712669449816222
 30
0.0
 10
-10.23281011078771
 20
-4.692787939110391
 30
0.0
 10
-10.23826484655458
 20
-4.67286001785754
 30
0.0
 10
-10.24134107576926
 20
-4.661621553490811
 30
0.0
 10
-10.24290361584243
 20
-4.650227203452319
 30
0.0
 10
-10.24290361584243
 20
-4.638999834012467
 30
0.0
 10
-10.24290361584243
 20
-4.619634151622797
 30
0.0
 10
-10.23816360868868
 20
-4.600344651841366
 30
0.0
 10
-10.22911547890471
 20
-4.582752623962427
 30
0.0
 10
-10.22007072796048
 20
-4.565167165467908
 30
0.0
 10
-10.20648253463584
 20
-4.548799443229884
 30
0.0
 10
-10.18954072162249
 20
-4.534982901331019
 30
0.0
 10
-10.17241610646654
 20
-4.521017278961233
 30
0.0
 10
-10.15141810994909
 20
-4.50928393302376
 30
0.0
 10
-10.12829356627108
 20
-4.50068166394847
 30
0.0
 10
-10.10455735017015
 20
-4.491851854349952
 30
0.0
 10
-10.07795943722825
 20
-4.486083692026954
 30
0.0
 10
-10.05063015207586
 20
-4.483774431116583
 30
0.0
 10
-10.0297315020589
 20
-4.482008543889949
 30
0.0
 10
-10.00804860563327
 20
-4.482209886946706
 30
0.0
 10
-9.986539540596828
 20
-4.484348938125289
 30
0.0
  0
SPLINE
  5
94
330
1F
100
AcDbEntity
  8
SK3
100
AcDbSpline
210
0.0
220
0.0
230
1.0
 70
     8
 71
     3
 72
    35
 73
    31
 74
     0
 42
0.0000000147502927
 43
0.0000000001
 12
1.0
 22
0.0
 32
0.0
 13
1.0
 23
0.0
 33
0.0
 40
0.0
 40
0.0
 40
0.0
 40
0.0
 40
0.1069870755301005
 40
0.1069870755301005
 40
0.1069870755301005
 40
0.2139679471032232
 40
0.2139679471032232
 40
0.2139679471032232
 40
0.3210753836084358
 40
0.3210753836084358
 40
0.3210753836084358
 40
0.4285293642209658
 40
0.4285293642209658
 40
0.4285293642209658
 40
0.4999919417828105
 40
0.4999919417828105
 40
0.4999919417828105
 40
0.6073663166423521
 40
0.6073663166423521
 40
0.6073663166423521
 40
0.7147321506289248
 40
0.7147321506289248
 40
0.7147321506289248
 40
0.8222168420405428
 40
0.8222168420405428
 40
0.8222168420405428
 40
0.9296080335954497
 40
0.9296080335954497
 40
0.9296080335954497
 40
1.0
 40
1.0
 40
1.0
 40
1.0
 10
-10.36884622648549
 20
-1.496827200492307
 30
0.0
 10
-10.39670745021525
 20
-1.496827200492307
 30
0.0
 10
-10.424953628919
 20
-1.500574075076377
 30
0.0
 10
-10.45124338984281
 20
-1.507711726249172
 30
0.0
 10
-10.47753255706462
 20
-1.5148492162323
 30
0.0
 10
-10.50258844937308
 20
-1.525567416424019
 30
0.0
 10
-10.52435178578469
 20
-1.538836918070238
 30
0.0
 10
-10.54614147100543
 20
-1.552122485064129
 30
0.0
 10
-10.56523158336257
 20
-1.568321934788123
 30
0.0
 10
-10.58006693080219
 20
-1.585935333599778
 30
0.0
 10
-10.59494885278926
 20
-1.603604028459079
 30
0.0
 10
-10.60595942720132
 20
-1.623176196485189
 30
0.0
 10
-10.61219377793009
 20
-1.642912876537104
 30
0.0
 10
-10.61637290582219
 20
-1.656143141193476
 30
0.0
 10
-10.61850250002365
 20
-1.669650686434934
 30
0.0
 10
-10.61850250002368
 20
-1.682914139223825
 30
0.0
 10
-10.61850250002372
 20
-1.702685569262343
 30
0.0
 10
-10.61369736327293
 20
-1.722362030611569
 30
0.0
 10
-10.60448344151104
 20
-1.740369306443771
 30
0.0
 10
-10.59526994487404
 20
-1.75837575143094
 30
0.0
 10
-10.58139485200172
 20
-1.775214979687188
 30
0.0
 10
-10.56399413301598
 20
-1.789642128729845
 30
0.0
 10
-10.54657501950909
 20
-1.804084528895088
 30
0.0
 10
-10.52513995982781
 20
-1.816516613627167
 30
0.0
 10
-10.50145124582695
 20
-1.826077593041019
 30
0.0
 10
-10.47778416336799
 20
-1.835629841768741
 30
0.0
 10
-10.45121073321994
 20
-1.842586997570298
 30
0.0
 10
-10.42394067904173
 20
-1.846492391246129
 30
0.0
 10
-10.40591938062146
 20
-1.849073253917719
 30
0.0
 10
-10.38732593914884
 20
-1.850380591085581
 30
0.0
 10
-10.36884622648549
 20
-1.85038059108558
 30
0.0
  0
LINE
  5
95
330
1F
100
AcDbEntity
  8
SK1
  6
Continuous
100
AcDbLine
 10
-9.9865395406
 20
-4.8379023287
 30
0.0
 11
3.2153444539
 21
-6.1506069224
 31
0.0
  0
ELLIPSE
  5
96
330
1F
100
AcDbEntity
  8
SK1
  6
Continuous
100
AcDbEllipse
 10
39.3248213736
 20
-0.1767766956
 30
0.0
 11
-49.74999999540582
 21
5.450662218075414E-10
 31
0.0
210
0.0
220
0.0
230
1.0
 40
0.7071067812
 41
0.1227478700310272
 42
0.132889824237615
  0
LINE
  5
97
330
1F
100
AcDbEntity
  8
SK3
100
AcDbLine
 10
-16.7429036158
 20
0.25
 30
0.0
 11
-16.7429036158
 21
3.7416573868
 31
0.0
  0
LINE
  5
98
330
1F
100
AcDbEntity
  8
SK3
100
AcDbLine
 10
-12.2429036158
 20
0.25
 30
0.0
 11
-12.2429036158
 21
2.9393876913
 31
0.0
  0
LINE
  5
99
330
1F
100
AcDbEntity
  8
SK3
100
AcDbLine
 10
-11.8964934543
 20
0.25
 30
0.0
 11
-11.8964934543
 21
2.3668333275
 31
0.0
  0
LINE
  5
9A
330
1F
100
AcDbEntity
  8
SK1
  6
Continuous
100
AcDbLine
 10
-16.9846555461
 20
0.25
 30
0.0
 11
-16.9846555461
 21
5.6074748856
 31
0.0
  0
LINE
  5
9B
330
1F
100
AcDbEntity
  8
SK1
  6
Continuous
100
AcDbLine
 10
-17.2429036158
 20
0.25
 30
0.0
 11
-17.2429036158
 21
5.3100828438
 31
0.0
  0
LINE
  5
9C
330
1F
100
AcDbEntity
  8
SK1
  6
Continuous
100
AcDbLine
 10
-16.9846555461
 20
-0.25
 30
0.0
 11
-17.2429036158
 21
-0.25
 31
0.0
  0
LINE
  5
9D
330
1F
100
AcDbEntity
  8
SK1
  6
Continuous
100
AcDbLine
 10
-16.9846555461
 20
0.25
 30
0.0
 11
-17.2429036158
 21
0.25
 31
0.0
  0
LINE
  5
9E
330
1F
100
AcDbEntity
  8
SK3
100
AcDbLine
 10
-16.7429036158
 20
3.7416573868
 30
0.0
 11
-17.2429036158
 21
4.0309300221
 31
0.0
  0
LINE
  5
9F
330
1F
100
AcDbEntity
  8
SK3
100
AcDbLine
 10
-16.7429036158
 20
-3.7416573868
 30
0.0
 11
-16.7429036158
 21
-0.25
 31
0.0
  0
LINE
  5
A0
330
1F
100
AcDbEntity
  8
SK3
100
AcDbLine
 10
-12.2429036158
 20
-2.9393876913
 30
0.0
 11
-12.2429036158
 21
-0.25
 31
0.0
  0
LINE
  5
A1
330
1F
100
AcDbEntity
  8
SK3
100
AcDbLine
 10
-11.8964934543
 20
-2.3668333275
 30
0.0
 11
-11.8964934543
 21
-0.25
 31
0.0
  0
LINE
  5
A2
330
1F
100
AcDbEntity
  8
SK1
  6
Continuous
100
AcDbLine
 10
-17.2429036158
 20
-5.3100828438
 30
0.0
 11
-17.2429036158
 21
-0.25
 31
0.0
  0
LINE
  5
A3
330
1F
100
AcDbEntity
  8
SK1
  6
Continuous
100
AcDbLine
 10
-16.9846555461
 20
-5.6074748856
 30
0.0
 11
-16.9846555461
 21
-0.25
 31
0.0
  0
ARC
  5
A4
330
1F
100
AcDbEntity
  8
SK1
  6
Continuous
100
AcDbCircle
 10
-16.9426987251
 20
-5.3102163796
 30
0.0
 40
0.3002049204166367
100
AcDbArc
 50
179.9745139479
 51
261.966006325
  0
LINE
  5
A5
330
1F
100
AcDbEntity
  8
SK3
100
AcDbLine
 10
-17.2429036158
 20
-4.0309300221
 30
0.0
 11
-16.7429036158
 21
-3.7416573868
 31
0.0
  0
LINE
  5
A6
330
1F
100
AcDbEntity
  8
SK3
100
AcDbLine
 10
-16.7429036158
 20
-3.7416573868
 30
0.0
 11
-13.0429036158
 21
-3.7416573868
 31
0.0
  0
SPLINE
  5
A7
330
1F
100
AcDbEntity
  8
SK3
100
AcDbSpline
210
0.0
220
0.0
230
1.0
 70
     8
 71
     3
 72
    20
 73
    16
 74
     0
 42
0.0000000079120924
 43
0.0000000001
 12
1.0
 22
0.0
 32
0.0
 13
1.0
 23
0.0
 33
0.0
 40
0.0
 40
0.0
 40
0.0
 40
0.0
 40
0.2138955458590422
 40
0.2138955458590422
 40
0.2138955458590422
 40
0.4279372048282655
 40
0.4279372048282655
 40
0.4279372048282655
 40
0.6421595378041547
 40
0.6421595378041547
 40
0.6421595378041547
 40
0.8568469621908055
 40
0.8568469621908055
 40
0.8568469621908055
 40
1.0
 40
1.0
 40
1.0
 40
1.0
 10
-13.04290361584243
 20
-3.741657386773929
 30
0.0
 10
-12.95358768964324
 20
-3.741657386773929
 30
0.0
 10
-12.8630419124244
 20
-3.726240026188297
 30
0.0
 10
-12.77875614901999
 20
-3.69668931113509
 30
0.0
 10
-12.69441082833904
 20
-3.667117715211408
 30
0.0
 10
-12.61401131463168
 20
-3.622579539401475
 30
0.0
 10
-12.54419148555117
 20
-3.566778071021019
 30
0.0
 10
-12.47431149356263
 20
-3.51092851918555
 30
0.0
 10
-12.41310637769655
 20
-3.44226273492182
 30
0.0
 10
-12.3655942484328
 20
-3.366467066883553
 30
0.0
 10
-12.31797931972365
 20
-3.290507403824225
 30
0.0
 10
-12.28280639074686
 20
-3.205302036414257
 30
0.0
 10
-12.26293233335189
 20
-3.117883081428932
 30
0.0
 10
-12.2496595842058
 20
-3.059500948527024
 30
0.0
 10
-12.24290361584231
 20
-2.999259548768022
 30
0.0
 10
-12.24290361583424
 20
-2.939387691338867
 30
0.0
  0
LINE
  5
A8
330
1F
100
AcDbEntity
  8
SK3
100
AcDbLine
 10
-12.2429036158
 20
-2.5678590304
 30
0.0
 11
-11.8964934543
 21
-2.3668333275
 31
0.0
  0
LINE
  5
A9
330
1F
100
AcDbEntity
  8
SK3
100
AcDbLine
 10
-11.8964934543
 20
-2.3668333275
 30
0.0
 11
-1.9551352362
 21
-2.3668333275
 31
0.0
  0
LINE
  5
AA
330
1F
100
AcDbEntity
  8
SK3
100
AcDbLine
 10
-11.8964934543
 20
2.3668333275
 30
0.0
 11
-12.2429036158
 21
2.5678590304
 31
0.0
  0
SPLINE
  5
AB
330
1F
100
AcDbEntity
  8
SK3
100
AcDbSpline
210
0.0
220
0.0
230
1.0
 70
     8
 71
     3
 72
    23
 73
    19
 74
     0
 42
0.0000000079134795
 43
0.0000000001
 12
1.0
 22
0.0
 32
0.0
 13
1.0
 23
0.0
 33
0.0
 40
0.0
 40
0.0
 40
0.0
 40
0.0
 40
0.071583144690993
 40
0.071583144690993
 40
0.071583144690993
 40
0.287829568756634
 40
0.287829568756634
 40
0.287829568756634
 40
0.5035712391785468
 40
0.5035712391785468
 40
0.5035712391785468
 40
0.718678924109984
 40
0.718678924109984
 40
0.718678924109984
 40
0.9332439708924166
 40
0.9332439708924166
 40
0.9332439708924166
 40
1.0
 40
1.0
 40
1.0
 40
1.0
 10
-12.24290361583488
 20
2.93938769134069
 30
0.0
 10
-12.24290361584246
 20
2.96944258586869
 30
0.0
 10
-12.2445903837676
 20
2.999544477670581
 30
0.0
 10
-12.24794935622569
 20
3.029411080910475
 30
0.0
 10
-12.25803165746487
 20
3.119058761745118
 30
0.0
 10
-12.28374996750387
 20
3.208209478600149
 30
0.0
 10
-12.32300466083714
 20
3.289434034792342
 30
0.0
 10
-12.36216814563448
 20
3.370469865198578
 30
0.0
 10
-12.41589254644381
 20
3.445859229346239
 30
0.0
 10
-12.47973625708738
 20
3.509298688378927
 30
0.0
 10
-12.54339467943708
 20
3.572554032343594
 30
0.0
 10
-12.61887679451146
 20
3.625678583427626
 30
0.0
 10
-12.69991792980036
 20
3.664226834584162
 30
0.0
 10
-12.78075807786485
 20
3.702679483600156
 30
0.0
 10
-12.86936439010039
 20
3.727690800242904
 30
0.0
 10
-12.95838059559551
 20
3.737169772480826
 30
0.0
 10
-12.9864360029124
 20
3.740157278245661
 30
0.0
 10
-13.01468959325769
 20
3.741657386774161
 30
0.0
 10
-13.04290361584243
 20
3.741657386773963
 30
0.0
  0
LINE
  5
AC
330
1F
100
AcDbEntity
  8
SK3
100
AcDbLine
 10
-13.0429036158
 20
3.7416573868
 30
0.0
 11
-16.7429036158
 21
3.7416573868
 31
0.0
  0
ARC
  5
AD
330
1F
100
AcDbEntity
  8
SK1
  6
Continuous
100
AcDbCircle
 10
-16.9426986232
 20
5.310216291
 30
0.0
 40
0.3002050223243973
100
AcDbArc
 50
98.0340105797
 51
180.0254691473
  0
SPLINE
  5
AE
330
1F
100
AcDbEntity
  8
SK1
  6
Continuous
100
AcDbSpline
210
0.0
220
0.0
230
1.0
 70
     8
 71
     3
 72
    11
 73
     7
 74
     0
 42
0.0000000006831798
 43
0.0000000001
 12
1.0
 22
0.0
 32
0.0
 13
1.0
 23
0.0
 33
0.0
 40
0.0
 40
0.0
 40
0.0
 40
0.0
 40
0.6732288776721553
 40
0.6732288776721553
 40
0.6732288776721553
 40
1.0
 40
1.0
 40
1.0
 40
1.0
 10
-16.98465554613046
 20
5.607474885600707
 30
0.0
 10
-13.73190404322453
 20
6.065073398583924
 30
0.0
 10
-10.4791378044926
 20
6.522567166919236
 30
0.0
 10
-7.226364098445901
 20
6.980007825357521
 30
0.0
 10
-5.647536228664788
 20
7.20203988955271
 30
0.0
 10
-4.068706501284483
 20
7.424058744936088
 30
0.0
 10
-2.489875363075674
 20
7.646067566721687
 30
0.0
  0
LINE
  5
AF
330
1F
100
AcDbEntity
  8
SK1
  6
Continuous
100
AcDbLine
 10
-2.4898753631
 20
-0.25
 30
0.0
 11
-16.9846555461
 21
-0.25
 31
0.0
  0
LINE
  5
B0
330
1F
100
AcDbEntity
  8
SK3
100
AcDbLine
 10
-2.4898753631
 20
-0.25
 30
0.0
 11
-1.9551352362
 21
-0.25
 31
0.0
  0
ARC
  5
B1
330
1F
100
AcDbEntity
  8
SK1
  6
Continuous
100
AcDbCircle
 10
-2.4929102693
 20
0.0
 30
0.0
 40
0.250018420633256
100
AcDbArc
 50
270.6955151132
 51
89.3044848879
  0
ARC
  5
B2
330
1F
100
AcDbEntity
  8
SK3
100
AcDbCircle
 10
-1.9554545776
 20
0.0
 30
0.0
 40
0.2500002039577488
100
AcDbArc
 50
270.073187613
 51
89.926812387
  0
LINE
  5
B3
330
1F
100
AcDbEntity
  8
SK1
  6
Continuous
100
AcDbLine
 10
-2.4898753631
 20
0.25
 30
0.0
 11
-16.9846555461
 21
0.25
 31
0.0
  0
LINE
  5
B4
330
1F
100
AcDbEntity
  8
SK3
100
AcDbLine
 10
-1.9551352362
 20
0.25
 30
0.0
 11
-2.4898753631
 21
0.25
 31
0.0
  0
ARC
  5
B5
330
1F
100
AcDbEntity
  8
SK3
100
AcDbCircle
 10
-1.9553473539
 20
4.7443333759
 30
0.0
 40
2.377500057924791
100
AcDbArc
 50
270.0051118591
 51
276.0327616565
  0
SPLINE
  5
B6
330
1F
100
AcDbEntity
  8
SK1
  6
Continuous
100
AcDbSpline
210
0.0
220
0.0
230
1.0
 70
     8
 71
     3
 72
    20
 73
    16
 74
     0
 42
0.0000000399981231
 43
0.0000000001
 12
1.0
 22
0.0
 32
0.0
 13
1.0
 23
0.0
 33
0.0
 40
0.0
 40
0.0
 40
0.0
 40
0.0
 40
0.2149223877893278
 40
0.2149223877893278
 40
0.2149223877893278
 40
0.4298431822597463
 40
0.4298431822597463
 40
0.4298431822597463
 40
0.6447861082664024
 40
0.6447861082664024
 40
0.6447861082664024
 40
0.8597112829820983
 40
0.8597112829820983
 40
0.8597112829820983
 40
1.0
 40
1.0
 40
1.0
 40
1.0
 10
-2.242903615841245
 20
7.684863158726351
 30
0.0
 10
-2.242903615841216
 20
7.684863158726356
 30
0.0
 10
-2.247662936894086
 20
7.68403311697063
 30
0.0
 10
-2.256790989355965
 20
7.682465812358894
 30
0.0
 10
-2.265919002554117
 20
7.680898514488817
 30
0.0
 10
-2.279667693043491
 20
7.678552908602308
 30
0.0
 10
-2.296908431659143
 20
7.67568487079361
 30
0.0
 10
-2.314150865029967
 20
7.672816551058365
 30
0.0
 10
-2.335362304801676
 20
7.669349955516498
 30
0.0
 10
-2.358797643942449
 20
7.665644876092815
 30
0.0
 10
-2.382230954034869
 20
7.661940117457545
 30
0.0
 10
-2.408534918387398
 20
7.657897869899487
 30
0.0
 10
-2.435537782656368
 20
7.653905164008581
 30
0.0
 10
-2.453307857031186
 20
7.65127763976036
 30
0.0
 10
-2.471642090874809
 20
7.648631455399669
 30
0.0
 10
-2.489875363075674
 20
7.646067566721687
 30
0.0
  0
SPLINE
  5
B7
330
1F
100
AcDbEntity
  8
SK1
  6
Continuous
100
AcDbSpline
210
0.0
220
0.0
230
1.0
 70
     8
 71
     3
 72
    23
 73
    19
 74
     0
 42
0.0000000393200242
 43
0.0000000001
 12
1.0
 22
0.0
 32
0.0
 13
1.0
 23
0.0
 33
0.0
 40
0.0
 40
0.0
 40
0.0
 40
0.0
 40
0.1921523986831727
 40
0.1921523986831727
 40
0.1921523986831727
 40
0.3843037138349682
 40
0.3843037138349682
 40
0.3843037138349682
 40
0.5764769283116837
 40
0.5764769283116837
 40
0.5764769283116837
 40
0.7687080580170405
 40
0.7687080580170405
 40
0.7687080580170405
 40
0.8943560553563518
 40
0.8943560553563518
 40
0.8943560553563518
 40
1.0
 40
1.0
 40
1.0
 40
1.0
 10
-2.489875363080417
 20
-7.646067566720988
 30
0.0
 10
-2.462178161730671
 20
-7.649962234674842
 30
0.0
 10
-2.434121249322695
 20
-7.654069332497683
 30
0.0
 10
-2.408024738135197
 20
-7.65802378681698
 30
0.0
 10
-2.381928285407082
 20
-7.661978232277812
 30
0.0
 10
-2.357072325149654
 20
-7.665886823133849
 30
0.0
 10
-2.335504924292553
 20
-7.669363590656411
 30
0.0
 10
-2.313935012005403
 20
-7.672840763033433
 30
0.0
 10
-2.295059018939607
 20
-7.675978478670967
 30
0.0
 10
-2.28042747653872
 20
-7.678444628301043
 30
0.0
 10
-2.265791656439454
 20
-7.680911498938104
 30
0.0
 10
-2.254998682866523
 20
-7.682771317527033
 30
0.0
 10
-2.248934488230249
 20
-7.683818904018885
 30
0.0
 10
-2.24493836372021
 20
-7.684509232464388
 30
0.0
 10
-2.242903615842441
 20
-7.684863158726111
 30
0.0
 10
-2.242903615842441
 20
-7.684863158726111
 30
0.0
 10
-2.242903615842441
 20
-7.684863158726111
 30
0.0
 10
-2.244341246471045
 20
-7.684612431061851
 30
0.0
 10
-2.247151663071826
 20
-7.684126378640139
 30
0.0
  0
ARC
  5
B8
330
1F
100
AcDbEntity
  8
SK3
100
AcDbCircle
 10
-1.9553473539
 20
-4.7443333759
 30
0.0
 40
2.377500057925301
100
AcDbArc
 50
83.9672383435
 51
89.9948881409
  0
SPLINE
  5
B9
330
1F
100
AcDbEntity
  8
SK1
  6
Continuous
100
AcDbSpline
210
0.0
220
0.0
230
1.0
 70
     8
 71
     3
 72
    11
 73
     7
 74
     0
 42
0.0000000006831798
 43
0.0000000001
 12
1.0
 22
0.0
 32
0.0
 13
1.0
 23
0.0
 33
0.0
 40
0.0
 40
0.0
 40
0.0
 40
0.0
 40
0.8737249549639965
 40
0.8737249549639965
 40
0.8737249549639965
 40
1.0
 40
1.0
 40
1.0
 40
1.0
 10
-2.489875363080417
 20
-7.646067566720988
 30
0.0
 10
-6.711374971132516
 20
-7.052457438651632
 30
0.0
 10
-10.93286534109199
 20
-6.45878159559705
 30
0.0
 10
-15.15433437263045
 20
-5.864954061129093
 30
0.0
 10
-15.76444192339612
 20
-5.77913117342703
 30
0.0
 10
-16.37454900388418
 20
-5.693304942475238
 30
0.0
 10
-16.98465554613046
 20
-5.607474885600674
 30
0.0
  0
LINE
  5
BA
330
1F
100
AcDbEntity
  8
SK3
100
AcDbLine
 10
-1.9551352362
 20
2.3668333275
 30
0.0
 11
-11.8964934543
 21
2.3668333275
 31
0.0
  0
LINE
  5
BB
330
1F
100
AcDbEntity
  8
SK1
  6
Continuous
100
AcDbLine
 10
3.2153444539
 20
8.4519698985
 30
0.0
 11
-2.2429036158
 21
7.6848631587
 31
0.0
  0
LINE
  5
BC
330
1F
100
AcDbEntity
  8
SK1
  6
Continuous
100
AcDbLine
 10
-2.2429036158
 20
-7.6848631587
 30
0.0
 11
3.2153444539
 21
-8.4519698985
 31
0.0
  0
LINE
  5
BD
330
1F
100
AcDbEntity
  8
SK3
100
AcDbLine
 10
-1.7054789627
 20
-2.38
 30
0.0
 11
9.8570963842
 21
-2.38
 31
0.0
  0
LINE
  5
BE
330
1F
100
AcDbEntity
  8
SK3
100
AcDbLine
 10
9.8570963842
 20
2.38
 30
0.0
 11
-1.7054789627
 21
2.38
 31
0.0
  0
LINE
  5
BF
330
1F
100
AcDbEntity
  8
SK1
  6
Continuous
100
AcDbLine
 10
6.2570963842
 20
-8.37
 30
0.0
 11
6.6987693401
 21
-8.37
 31
0.0
  0
ARC
  5
C0
330
1F
100
AcDbEntity
  8
SK3
100
AcDbCircle
 10
9.8570963842
 20
-2.78
 30
0.0
 40
0.4000000000000003
100
AcDbArc
 50
0.0
 51
90.0
  0
ARC
  5
C1
330
1F
100
AcDbEntity
  8
SK1
  6
Continuous
100
AcDbCircle
 10
3.2570963842
 20
-8.1548894778
 30
0.0
 40
0.3000000000000005
100
AcDbArc
 50
262.0
 51
0.0
  0
LINE
  5
C2
330
1F
100
AcDbEntity
  8
SK1
  6
Continuous
100
AcDbLine
 10
10.1510382354
 20
-6.3768316239
 30
0.0
 11
10.1677932866
 21
-6.3627724667
 31
0.0
  0
ARC
  5
C3
330
1F
100
AcDbEntity
  8
SK1
  6
Continuous
100
AcDbCircle
 10
10.0070963842
 20
-6.1712613559
 30
0.0
 40
0.2499999999999993
100
AcDbArc
 50
310.0
 51
0.0
  0
LINE
  5
C4
330
1F
100
AcDbEntity
  8
SK1
  6
Continuous
100
AcDbLine
 10
6.6987693401
 20
-8.37
 30
0.0
 11
10.1510382354
 21
-6.3768316239
 31
0.0
  0
ARC
  5
C5
330
1F
100
AcDbEntity
  8
SK1
  6
Continuous
100
AcDbCircle
 10
6.0570963842
 20
-7.1
 30
0.0
 40
0.2000000000000003
100
AcDbArc
 50
0.0
 51
90.0
  0
LINE
  5
C6
330
1F
100
AcDbEntity
  8
SK1
  6
Continuous
100
AcDbLine
 10
3.7570963842
 20
-6.9
 30
0.0
 11
6.0570963842
 21
-6.9
 31
0.0
  0
ARC
  5
C7
330
1F
100
AcDbEntity
  8
SK1
  6
Continuous
100
AcDbCircle
 10
3.7570963842
 20
-7.1
 30
0.0
 40
0.1999999999999988
100
AcDbArc
 50
90.0
 51
180.0
  0
LINE
  5
C8
330
1F
100
AcDbEntity
  8
SK1
  6
Continuous
100
AcDbLine
 10
6.6987693401
 20
8.37
 30
0.0
 11
6.2570963842
 21
8.37
 31
0.0
  0
ARC
  5
C9
330
1F
100
AcDbEntity
  8
SK3
100
AcDbCircle
 10
9.8570963842
 20
2.78
 30
0.0
 40
0.4000000000000001
100
AcDbArc
 50
270.0
 51
360.0
  0
ARC
  5
CA
330
1F
100
AcDbEntity
  8
SK1
  6
Continuous
100
AcDbCircle
 10
3.2570963842
 20
8.1548894778
 30
0.0
 40
0.299999999999999
100
AcDbArc
 50
0.0
 51
98.0
  0
LINE
  5
CB
330
1F
100
AcDbEntity
  8
SK1
  6
Continuous
100
AcDbLine
 10
10.1677932866
 20
6.3627724667
 30
0.0
 11
10.1510382354
 21
6.3768316239
 31
0.0
  0
ARC
  5
CC
330
1F
100
AcDbEntity
  8
SK1
  6
Continuous
100
AcDbCircle
 10
10.0070963842
 20
6.1712613559
 30
0.0
 40
0.2500000000000001
100
AcDbArc
 50
0.0
 51
50.0
  0
LINE
  5
CD
330
1F
100
AcDbEntity
  8
SK1
  6
Continuous
100
AcDbLine
 10
10.1510382354
 20
6.3768316239
 30
0.0
 11
6.6987693401
 21
8.37
 31
0.0
  0
ARC
  5
CE
330
1F
100
AcDbEntity
  8
SK1
  6
Continuous
100
AcDbCircle
 10
6.0570963842
 20
7.1
 30
0.0
 40
0.1999999999999988
100
AcDbArc
 50
270.0
 51
0.0
  0
LINE
  5
CF
330
1F
100
AcDbEntity
  8
SK1
  6
Continuous
100
AcDbLine
 10
6.0570963842
 20
6.9
 30
0.0
 11
3.7570963842
 21
6.9
 31
0.0
  0
ARC
  5
D0
330
1F
100
AcDbEntity
  8
SK1
  6
Continuous
100
AcDbCircle
 10
3.7570963842
 20
7.1
 30
0.0
 40
0.2000000000000003
100
AcDbArc
 50
180.0
 51
270.0
  0
ARC
  5
D1
330
1F
100
AcDbEntity
  8
SK3
100
AcDbCircle
 10
14.6504393987
 20
-0.0127296862
 30
0.0
 40
25.32601118408385
100
AcDbArc
 50
169.361704566
 51
176.1421094784
  0
ARC
  5
D2
330
1F
100
AcDbEntity
  8
SK3
100
AcDbCircle
 10
14.7093465034
 20
0.0169350998
 30
0.0
 40
25.38497137996757
100
AcDbArc
 50
183.8583775399
 51
190.6221657805
  0
ARC
  5
D3
330
1F
100
AcDbEntity
  8
SK3
100
AcDbCircle
 10
-51.6488028409
 20
0.0
 30
0.0
 40
50.0
100
AcDbArc
 50
2.7282758063
 51
8.8412352036
  0
ARC
  5
D4
330
1F
100
AcDbEntity
  8
SK3
100
AcDbCircle
 10
-51.6488028409
 20
0.0
 30
0.0
 40
50.0
100
AcDbArc
 50
351.1587286693
 51
357.2717142549
  0
LINE
  5
D5
330
1F
100
AcDbEntity
  8
SK1
  6
Continuous
100
AcDbLine
 10
0.0
 20
8.0000827051
 30
0.0
 11
0.0
 21
-8.0000827051
 31
0.0
  0
LINE
  5
D7
330
1F
100
AcDbEntity
  8
SK4
  6
Continuous
100
AcDbLine
 10
10.2570963842
 20
0.0
 30
0.0
 11
-17.2429036158
 21
0.0
 31
0.0
  0
DIMENSION
  5
ED
330
1F
100
AcDbEntity
  8
SK2
  6
Continuous
 62
   136
100
AcDbDimension
  2
DMBLK83
 10
-17.2429036158
 20
16.388838215
 30
0.0
 11
-3.4929036903
 21
16.388838215
 31
0.0
 70
   161
  1
\A1;<>
 71
     5
 42
-1.0
  3
DIN
100
AcDbAlignedDimension
 13
-17.2429036158
 23
5.3100828438
 33
0.0
 14
10.2570963842
 24
5.3540983454
 34
0.0
  0
DIMENSION
  5
F7
330
1F
100
AcDbEntity
  8
SK2
  6
Continuous
 62
   136
100
AcDbDimension
  2
DMBLK84
 10
20.0000001591
 20
-2.38
 30
0.0
 11
20.0000001591
 21
8.0565767911
 31
0.0
 70
   161
  1
\A1;<>
 71
     5
 42
-1.0
  3
DIN
100
AcDbAlignedDimension
 13
9.8570963842
 23
-2.38
 33
0.0
 14
9.8570963842
 24
2.38
 34
0.0
  0
DIMENSION
  5
101
330
1F
100
AcDbEntity
  8
SK2
  6
Continuous
 62
   136
100
AcDbDimension
  2
DMBLK85
 10
10.2570963842
 20
-16.0377224869
 30
0.0
 11
5.1285480149
 21
-16.0377224869
 31
0.0
 70
   160
  1
\A1;<>
 71
     5
 42
-1.0
  3
DIN
100
AcDbAlignedDimension
 13
0.0
 23
-8.0000827051
 33
0.0
 14
10.2570963842
 24
-4.3601586395
 34
0.0
100
AcDbRotatedDimension
  0
DIMENSION
  5
10B
330
1F
100
AcDbEntity
  8
SK2
  6
Continuous
 62
   136
100
AcDbDimension
  2
DMBLK86
 10
-23.7378329039
 20
8.0000827051
 30
0.0
 11
-23.7378329039
 21
0.0000003687
 31
0.0
 70
   161
  1
\A1;<>
 71
     5
 42
-1.0
  3
DIN
100
AcDbAlignedDimension
 13
0.0
 23
8.0000827051
 33
0.0
 14
0.0
 24
-8.0000827051
 34
0.0
  0
INSERT
  5
11F
330
1F
100
AcDbEntity
  8
SK2
 62
     7
100
AcDbBlockReference
  2
Nullpunkt
 10
0.0
 20
0.0000000998
 30
0.0
  0
INSERT
  5
12A
330
1F
100
AcDbEntity
  8
SK2
 62
     7
100
AcDbBlockReference
  2
Einfügepunkt
 10
10.2570963842
 20
0.0
 30
0.0
  0
ENDSEC
  0
SECTION
  2
OBJECTS
  0
DICTIONARY
  5
C
330
0
100
AcDbDictionary
281
     1
  3
ACAD_GROUP
350
D
  3
ACAD_LAYOUT
350
1A
  3
ACAD_MATERIAL
350
3B
  3
ACAD_MLEADERSTYLE
350
12D
  3
ACAD_MLINESTYLE
350
17
  3
ACAD_PLOTSETTINGS
350
19
  3
ACAD_PLOTSTYLENAME
350
E
  3
ACAD_VISUALSTYLE
350
2A
  3
AcDbVariableDictionary
350
12B
  0
DICTIONARY
  5
D
102
{ACAD_REACTORS
330
C
102
}
330
C
100
AcDbDictionary
281
     1
  0
DICTIONARY
  5
1A
102
{ACAD_REACTORS
330
C
102
}
330
C
100
AcDbDictionary
281
     1
  3
Layout1
350
1E
  3
Model
350
22
  0
DICTIONARY
  5
3B
102
{ACAD_REACTORS
330
C
102
}
330
C
100
AcDbDictionary
281
     1
  3
ByBlock
350
3D
  3
ByLayer
350
3C
  3
Global
350
3E
  0
DICTIONARY
  5
12D
102
{ACAD_REACTORS
330
C
102
}
330
C
100
AcDbDictionary
281
     1
  0
DICTIONARY
  5
17
102
{ACAD_REACTORS
330
C
102
}
330
C
100
AcDbDictionary
281
     1
  3
Standard
350
18
  0
DICTIONARY
  5
19
102
{ACAD_REACTORS
330
C
102
}
330
C
100
AcDbDictionary
281
     1
  0
ACDBDICTIONARYWDFLT
  5
E
102
{ACAD_REACTORS
330
C
102
}
330
C
100
AcDbDictionary
281
     1
  3
Normal
350
F
100
AcDbDictionaryWithDefault
340
F
  0
DICTIONARY
  5
2A
102
{ACAD_REACTORS
330
C
102
}
330
C
100
AcDbDictionary
281
     1
  3
2dWireframe
350
2F
  3
3D Hidden
350
31
  3
3dWireframe
350
30
  3
Basic
350
32
  3
Brighten
350
36
  3
ColorChange
350
3A
  3
Conceptual
350
34
  3
Dim
350
35
  3
Facepattern
350
39
  3
Flat
350
2B
  3
FlatWithEdges
350
2C
  3
Gouraud
350
2D
  3
GouraudWithEdges
350
2E
  3
Linepattern
350
38
  3
Realistic
350
33
  3
Thicken
350
37
  0
DICTIONARY
  5
12B
102
{ACAD_REACTORS
330
C
102
}
330
C
100
AcDbDictionary
281
     1
  3
DIMASSOC
350
130
  3
HIDETEXT
350
131
  3
PSOLHEIGHT
350
12F
  3
PSOLWIDTH
350
12E
  0
LAYOUT
  5
1E
102
{ACAD_REACTORS
330
1A
102
}
330
1A
100
AcDbPlotSettings
  1

  2
none_device
  4

  6

 40
0.0
 41
0.0
 42
0.0
 43
0.0
 44
0.0
 45
0.0
 46
0.0
 47
0.0
 48
0.0
 49
0.0
140
0.0
141
0.0
142
1.0
143
1.0
 70
   688
 72
     0
 73
     0
 74
     5
  7

 75
    16
147
1.0
148
0.0
149
0.0
100
AcDbLayout
  1
Layout1
 70
     1
 71
     1
 10
0.0
 20
0.0
 11
210.0
 21
297.0
 12
0.0
 22
0.0
 32
0.0
 14
0.0
 24
0.0
 34
0.0
 15
210.0
 25
297.0
 35
0.0
146
0.0
 13
0.0
 23
0.0
 33
0.0
 16
1.0
 26
0.0
 36
0.0
 17
0.0
 27
1.0
 37
0.0
 76
     0
330
1B
  0
LAYOUT
  5
22
102
{ACAD_REACTORS
330
1A
102
}
330
1A
100
AcDbPlotSettings
  1

  2
none_device
  4

  6

 40
0.0
 41
0.0
 42
0.0
 43
0.0
 44
0.0
 45
0.0
 46
0.0
 47
0.0
 48
0.0
 49
0.0
140
0.0
141
0.0
142
1.0
143
1.0
 70
  1712
 72
     0
 73
     0
 74
     0
  7

 75
     0
147
1.0
148
0.0
149
0.0
100
AcDbLayout
  1
Model
 70
     1
 71
     0
 10
0.0
 20
0.0
 11
210.0
 21
297.0
 12
0.0
 22
0.0
 32
0.0
 14
0.0
 24
0.0
 34
0.0
 15
210.0
 25
297.0
 35
0.0
146
0.0
 13
0.0
 23
0.0
 33
0.0
 16
1.0
 26
0.0
 36
0.0
 17
0.0
 27
1.0
 37
0.0
 76
     0
330
1F
331
29
  0
MATERIAL
  5
3D
102
{ACAD_REACTORS
330
3B
102
}
102
{ACAD_XDICTIONARY
360
154
102
}
330
3B
100
AcDbMaterial
  1
ByBlock
  0
MATERIAL
  5
3C
102
{ACAD_REACTORS
330
3B
102
}
102
{ACAD_XDICTIONARY
360
152
102
}
330
3B
100
AcDbMaterial
  1
ByLayer
  0
MATERIAL
  5
3E
102
{ACAD_REACTORS
330
3B
102
}
102
{ACAD_XDICTIONARY
360
156
102
}
330
3B
100
AcDbMaterial
  1
Global
  0
MLINESTYLE
  5
18
102
{ACAD_REACTORS
330
17
102
}
330
17
100
AcDbMlineStyle
  2
Standard
 70
     0
  3

 62
   256
 51
90.0
 52
90.0
 71
     2
 49
0.5
 62
   256
  6
BYLAYER
 49
-0.5
 62
   256
  6
BYLAYER
  0
ACDBPLACEHOLDER
  5
F
102
{ACAD_REACTORS
330
E
102
}
330
E
  0
VISUALSTYLE
  5
2F
102
{ACAD_REACTORS
330
2A
102
}
102
{ACAD_XDICTIONARY
360
13A
102
}
330
2A
100
AcDbVisualStyle
  2
2dWireframe
 70
     4
 71
     0
 72
     2
 73
     0
 90
        0
 40
-0.6
 41
-30.0
 62
     5
 63
     7
 74
     1
 91
        4
 64
     7
 65
   257
 75
     1
175
     1
 42
1.0
 92
        0
 66
   257
 43
1.0
 76
     1
 77
     6
 78
     2
 67
     7
 79
     5
170
     0
171
     0
290
     0
174
     0
 93
        1
 44
0.0
173
     0
291
     0
 45
0.0
1001
ACAD
1000
AcDbSavedByObjectVersion
1070
     0
  0
VISUALSTYLE
  5
31
102
{ACAD_REACTORS
330
2A
102
}
102
{ACAD_XDICTIONARY
360
13E
102
}
330
2A
100
AcDbVisualStyle
  2
3D Hidden
 70
     6
 71
     1
 72
     2
 73
     2
 90
        0
 40
-0.6
 41
-30.0
 62
     5
 63
     7
 74
     2
 91
        2
 64
     7
 65
   257
 75
     2
175
     1
 42
40.0
 92
        0
 66
   257
 43
1.0
 76
     1
 77
     6
 78
     2
 67
     7
 79
     3
170
     0
171
     0
290
     0
174
     0
 93
        1
 44
0.0
173
     0
291
     0
 45
0.0
1001
ACAD
1000
AcDbSavedByObjectVersion
1070
     0
  0
VISUALSTYLE
  5
30
102
{ACAD_REACTORS
330
2A
102
}
102
{ACAD_XDICTIONARY
360
13C
102
}
330
2A
100
AcDbVisualStyle
  2
3dWireframe
 70
     5
 71
     0
 72
     2
 73
     0
 90
        0
 40
-0.6
 41
-30.0
 62
     5
 63
     7
 74
     1
 91
        4
 64
     7
 65
   257
 75
     1
175
     1
 42
1.0
 92
        0
 66
   257
 43
1.0
 76
     1
 77
     6
 78
     2
 67
     7
 79
     5
170
     0
171
     0
290
     0
174
     0
 93
        1
 44
0.0
173
     0
291
     0
 45
0.0
1001
ACAD
1000
AcDbSavedByObjectVersion
1070
     0
  0
VISUALSTYLE
  5
32
102
{ACAD_REACTORS
330
2A
102
}
102
{ACAD_XDICTIONARY
360
140
102
}
330
2A
100
AcDbVisualStyle
  2
Basic
 70
     7
 71
     1
 72
     0
 73
     1
 90
        0
 40
-0.6
 41
-30.0
 62
     5
 63
     7
 74
     0
 91
        4
 64
     7
 65
   257
 75
     1
175
     1
 42
1.0
 92
        8
 66
     7
 43
1.0
 76
     1
 77
     6
 78
     2
 67
     7
 79
     5
170
     0
171
     0
290
     0
174
     0
 93
        1
 44
0.0
173
     0
291
     1
 45
0.0
1001
ACAD
1000
AcDbSavedByObjectVersion
1070
     0
  0
VISUALSTYLE
  5
36
102
{ACAD_REACTORS
330
2A
102
}
102
{ACAD_XDICTIONARY
360
148
102
}
330
2A
100
AcDbVisualStyle
  2
Brighten
 70
    12
 71
     2
 72
     2
 73
     0
 90
        0
 40
-0.6
 41
-30.0
 62
     5
 63
     7
 74
     1
 91
        4
 64
     7
 65
   257
 75
     1
175
     1
 42
1.0
 92
        8
 66
     7
 43
1.0
 76
     1
 77
     6
 78
     2
 67
     7
 79
     5
170
     0
171
     0
290
     0
174
     0
 93
        1
 44
50.0
173
     0
291
     1
 45
0.0
1001
ACAD
1000
AcDbSavedByObjectVersion
1070
     0
  0
VISUALSTYLE
  5
3A
102
{ACAD_REACTORS
330
2A
102
}
102
{ACAD_XDICTIONARY
360
150
102
}
330
2A
100
AcDbVisualStyle
  2
ColorChange
 70
    16
 71
     2
 72
     2
 73
     3
 90
        0
 40
-0.6
 41
-30.0
 62
     5
 63
     8
 74
     1
 91
        4
 64
     7
 65
   257
 75
     1
175
     1
 42
1.0
 92
        8
 66
     8
 43
1.0
 76
     1
 77
     6
 78
     2
 67
     7
 79
     5
170
     0
171
     0
290
     0
174
     0
 93
        1
 44
0.0
173
     0
291
     1
 45
0.0
1001
ACAD
1000
AcDbSavedByObjectVersion
1070
     0
  0
VISUALSTYLE
  5
34
102
{ACAD_REACTORS
330
2A
102
}
102
{ACAD_XDICTIONARY
360
144
102
}
330
2A
100
AcDbVisualStyle
  2
Conceptual
 70
     9
 71
     3
 72
     2
 73
     0
 90
        0
 40
-0.6
 41
-30.0
 62
     5
 63
     7
 74
     2
 91
        2
 64
     7
 65
   257
 75
     1
175
     1
 42
40.0
 92
        8
 66
     7
 43
1.0
 76
     1
 77
     6
 78
     2
 67
     7
 79
     3
170
     0
171
     0
290
     0
174
     0
 93
        1
 44
0.0
173
     0
291
     0
 45
0.0
1001
ACAD
1000
AcDbSavedByObjectVersion
1070
     0
  0
VISUALSTYLE
  5
35
102
{ACAD_REACTORS
330
2A
102
}
102
{ACAD_XDICTIONARY
360
146
102
}
330
2A
100
AcDbVisualStyle
  2
Dim
 70
    11
 71
     2
 72
     2
 73
     0
 90
        0
 40
-0.6
 41
-30.0
 62
     5
 63
     7
 74
     1
 91
        4
 64
     7
 65
   257
 75
     1
175
     1
 42
1.0
 92
        8
 66
     7
 43
1.0
 76
     1
 77
     6
 78
     2
 67
     7
 79
     5
170
     0
171
     0
290
     0
174
     0
 93
        1
 44
-50.0
173
     0
291
     1
 45
0.0
1001
ACAD
1000
AcDbSavedByObjectVersion
1070
     0
  0
VISUALSTYLE
  5
39
102
{ACAD_REACTORS
330
2A
102
}
102
{ACAD_XDICTIONARY
360
14E
102
}
330
2A
100
AcDbVisualStyle
  2
Facepattern
 70
    15
 71
     2
 72
     2
 73
     0
 90
        0
 40
-0.6
 41
-30.0
 62
     5
 63
     7
 74
     1
 91
        4
 64
     7
 65
   257
 75
     1
175
     1
 42
1.0
 92
        8
 66
     7
 43
1.0
 76
     1
 77
     6
 78
     2
 67
     7
 79
     5
170
     0
171
     0
290
     0
174
     0
 93
        1
 44
0.0
173
     0
291
     1
 45
0.0
1001
ACAD
1000
AcDbSavedByObjectVersion
1070
     0
  0
VISUALSTYLE
  5
2B
102
{ACAD_REACTORS
330
2A
102
}
102
{ACAD_XDICTIONARY
360
132
102
}
330
2A
100
AcDbVisualStyle
  2
Flat
 70
     0
 71
     2
 72
     1
 73
     1
 90
        2
 40
-0.6
 41
30.0
 62
     5
 63
     7
 74
     0
 91
        4
 64
     7
 65
   257
 75
     1
175
     1
 42
1.0
 92
        8
 66
     7
 43
1.0
 76
     1
 77
     6
 78
     2
 67
     7
 79
     5
170
     0
171
     0
290
     0
174
     0
 93
       13
 44
0.0
173
     0
291
     1
 45
0.0
1001
ACAD
1000
AcDbSavedByObjectVersion
1070
     0
  0
VISUALSTYLE
  5
2C
102
{ACAD_REACTORS
330
2A
102
}
102
{ACAD_XDICTIONARY
360
134
102
}
330
2A
100
AcDbVisualStyle
  2
FlatWithEdges
 70
     1
 71
     2
 72
     1
 73
     1
 90
        2
 40
-0.6
 41
30.0
 62
     5
 63
     7
 74
     1
 91
        4
 64
     7
 65
   257
 75
     1
175
     1
 42
1.0
 92
        0
 66
   257
 43
1.0
 76
     1
 77
     6
 78
     2
 67
     7
 79
     5
170
     0
171
     0
290
     0
174
     0
 93
       13
 44
0.0
173
     0
291
     1
 45
0.0
1001
ACAD
1000
AcDbSavedByObjectVersion
1070
     0
  0
VISUALSTYLE
  5
2D
102
{ACAD_REACTORS
330
2A
102
}
102
{ACAD_XDICTIONARY
360
136
102
}
330
2A
100
AcDbVisualStyle
  2
Gouraud
 70
     2
 71
     2
 72
     2
 73
     1
 90
        2
 40
-0.6
 41
30.0
 62
     5
 63
     7
 74
     0
 91
        4
 64
     7
 65
   257
 75
     1
175
     1
 42
1.0
 92
        0
 66
     7
 43
1.0
 76
     1
 77
     6
 78
     2
 67
     7
 79
     5
170
     0
171
     0
290
     0
174
     0
 93
       13
 44
0.0
173
     0
291
     1
 45
0.0
1001
ACAD
1000
AcDbSavedByObjectVersion
1070
     0
  0
VISUALSTYLE
  5
2E
102
{ACAD_REACTORS
330
2A
102
}
102
{ACAD_XDICTIONARY
360
138
102
}
330
2A
100
AcDbVisualStyle
  2
GouraudWithEdges
 70
     3
 71
     2
 72
     2
 73
     1
 90
        2
 40
-0.6
 41
30.0
 62
     5
 63
     7
 74
     1
 91
        4
 64
     7
 65
   257
 75
     1
175
     1
 42
1.0
 92
        0
 66
   257
 43
1.0
 76
     1
 77
     6
 78
     2
 67
     7
 79
     5
170
     0
171
     0
290
     0
174
     0
 93
       13
 44
0.0
173
     0
291
     1
 45
0.0
1001
ACAD
1000
AcDbSavedByObjectVersion
1070
     0
  0
VISUALSTYLE
  5
38
102
{ACAD_REACTORS
330
2A
102
}
102
{ACAD_XDICTIONARY
360
14C
102
}
330
2A
100
AcDbVisualStyle
  2
Linepattern
 70
    14
 71
     2
 72
     2
 73
     0
 90
        0
 40
-0.6
 41
-30.0
 62
     5
 63
     7
 74
     1
 91
        4
 64
     7
 65
   257
 75
     7
175
     7
 42
1.0
 92
        8
 66
     7
 43
1.0
 76
     1
 77
     6
 78
     2
 67
     7
 79
     5
170
     0
171
     0
290
     0
174
     0
 93
        1
 44
0.0
173
     0
291
     1
 45
0.0
1001
ACAD
1000
AcDbSavedByObjectVersion
1070
     0
  0
VISUALSTYLE
  5
33
102
{ACAD_REACTORS
330
2A
102
}
102
{ACAD_XDICTIONARY
360
142
102
}
330
2A
100
AcDbVisualStyle
  2
Realistic
 70
     8
 71
     2
 72
     2
 73
     0
 90
        0
 40
-0.6
 41
-30.0
 62
     5
 63
     7
 74
     1
 91
        0
 64
     7
 65
   257
 75
     1
175
     1
 42
1.0
 92
        8
 66
     8
 43
1.0
 76
     1
 77
     6
 78
     2
 67
     7
 79
     5
170
     0
171
     0
290
     0
174
     0
 93
       13
 44
0.0
173
     0
291
     0
 45
0.0
1001
ACAD
1000
AcDbSavedByObjectVersion
1070
     0
  0
VISUALSTYLE
  5
37
102
{ACAD_REACTORS
330
2A
102
}
102
{ACAD_XDICTIONARY
360
14A
102
}
330
2A
100
AcDbVisualStyle
  2
Thicken
 70
    13
 71
     2
 72
     2
 73
     0
 90
        0
 40
-0.6
 41
-30.0
 62
     5
 63
     7
 74
     1
 91
        4
 64
     7
 65
   257
 75
     1
175
     1
 42
1.0
 92
       12
 66
     7
 43
1.0
 76
     1
 77
     6
 78
     2
 67
     7
 79
     5
170
     0
171
     0
290
     0
174
     0
 93
        1
 44
0.0
173
     0
291
     1
 45
0.0
1001
ACAD
1000
AcDbSavedByObjectVersion
1070
     0
  0
DICTIONARYVAR
  5
130
102
{ACAD_REACTORS
330
12B
102
}
330
12B
100
DictionaryVariables
280
     0
  1
2
  0
DICTIONARYVAR
  5
131
102
{ACAD_REACTORS
330
12B
102
}
330
12B
100
DictionaryVariables
280
     0
  1
1
  0
DICTIONARYVAR
  5
12F
102
{ACAD_REACTORS
330
12B
102
}
330
12B
100
DictionaryVariables
280
     0
  1
80.000000
  0
DICTIONARYVAR
  5
12E
102
{ACAD_REACTORS
330
12B
102
}
330
12B
100
DictionaryVariables
280
     0
  1
5.000000
  0
DICTIONARY
  5
154
330
3D
100
AcDbDictionary
280
     1
281
     1
  3
ACAD_XREC_ROUNDTRIP
360
155
  0
DICTIONARY
  5
152
330
3C
100
AcDbDictionary
280
     1
281
     1
  3
ACAD_XREC_ROUNDTRIP
360
153
  0
DICTIONARY
  5
156
330
3E
100
AcDbDictionary
280
     1
281
     1
  3
ACAD_XREC_ROUNDTRIP
360
157
  0
DICTIONARY
  5
13A
330
2F
100
AcDbDictionary
280
     1
281
     1
  3
ACAD_XREC_ROUNDTRIP
360
13B
  0
DICTIONARY
  5
13E
330
31
100
AcDbDictionary
280
     1
281
     1
  3
ACAD_XREC_ROUNDTRIP
360
13F
  0
DICTIONARY
  5
13C
330
30
100
AcDbDictionary
280
     1
281
     1
  3
ACAD_XREC_ROUNDTRIP
360
13D
  0
DICTIONARY
  5
140
330
32
100
AcDbDictionary
280
     1
281
     1
  3
ACAD_XREC_ROUNDTRIP
360
141
  0
DICTIONARY
  5
148
330
36
100
AcDbDictionary
280
     1
281
     1
  3
ACAD_XREC_ROUNDTRIP
360
149
  0
DICTIONARY
  5
150
330
3A
100
AcDbDictionary
280
     1
281
     1
  3
ACAD_XREC_ROUNDTRIP
360
151
  0
DICTIONARY
  5
144
330
34
100
AcDbDictionary
280
     1
281
     1
  3
ACAD_XREC_ROUNDTRIP
360
145
  0
DICTIONARY
  5
146
330
35
100
AcDbDictionary
280
     1
281
     1
  3
ACAD_XREC_ROUNDTRIP
360
147
  0
DICTIONARY
  5
14E
330
39
100
AcDbDictionary
280
     1
281
     1
  3
ACAD_XREC_ROUNDTRIP
360
14F
  0
DICTIONARY
  5
132
330
2B
100
AcDbDictionary
280
     1
281
     1
  3
ACAD_XREC_ROUNDTRIP
360
133
  0
DICTIONARY
  5
134
330
2C
100
AcDbDictionary
280
     1
281
     1
  3
ACAD_XREC_ROUNDTRIP
360
135
  0
DICTIONARY
  5
136
330
2D
100
AcDbDictionary
280
     1
281
     1
  3
ACAD_XREC_ROUNDTRIP
360
137
  0
DICTIONARY
  5
138
330
2E
100
AcDbDictionary
280
     1
281
     1
  3
ACAD_XREC_ROUNDTRIP
360
139
  0
DICTIONARY
  5
14C
330
38
100
AcDbDictionary
280
     1
281
     1
  3
ACAD_XREC_ROUNDTRIP
360
14D
  0
DICTIONARY
  5
142
330
33
100
AcDbDictionary
280
     1
281
     1
  3
ACAD_XREC_ROUNDTRIP
360
143
  0
DICTIONARY
  5
14A
330
37
100
AcDbDictionary
280
     1
281
     1
  3
ACAD_XREC_ROUNDTRIP
360
14B
  0
XRECORD
  5
155
102
{ACAD_REACTORS
330
154
102
}
330
154
100
AcDbXrecord
280
     1
102
MATERIAL
148
0.0
149
0.0
149
0.0
 93
        0
 94
      127
282
     0
 72
     1
 77
     1
171
     1
175
     1
179
     1
273
     0
  0
XRECORD
  5
153
102
{ACAD_REACTORS
330
152
102
}
330
152
100
AcDbXrecord
280
     1
102
MATERIAL
148
0.0
149
0.0
149
0.0
 93
        0
 94
      127
282
     0
 72
     1
 77
     1
171
     1
175
     1
179
     1
273
     0
  0
XRECORD
  5
157
102
{ACAD_REACTORS
330
156
102
}
330
156
100
AcDbXrecord
280
     1
102
MATERIAL
148
0.0
149
0.0
149
0.0
 93
        0
 94
      127
282
     0
 72
     1
 77
     1
171
     1
175
     1
179
     1
273
     0
  0
XRECORD
  5
13B
102
{ACAD_REACTORS
330
13A
102
}
330
13A
100
AcDbXrecord
280
     1
102
RTVSPropertyOp0
 70
     1
102
RTVSPropertyOp1
 70
     1
102
RTVSPropertyOp2
 70
     1
102
RTVSPropertyOp3
 70
     1
102
RTVSPropertyOp4
 70
     1
102
RTVSPropertyOp5
 70
     1
102
RTVSPropertyOp6
 70
     1
102
RTVSPropertyOp7
 70
     1
102
RTVSPropertyOp8
 70
     1
102
RTVSPropertyOp9
 70
     1
102
RTVSPropertyOp10
 70
     1
102
RTVSPropertyOp11
 70
     1
102
RTVSPropertyOp12
 70
     1
102
RTVSPropertyOp13
 70
     1
102
RTVSPropertyOp14
 70
     1
102
RTVSPropertyOp15
 70
     1
102
RTVSPropertyOp16
 70
     1
102
RTVSPropertyOp17
 70
     1
102
RTVSPropertyOp18
 70
     1
102
RTVSPropertyOp19
 70
     1
102
RTVSPropertyOp20
 70
     1
102
RTVSPropertyOp21
 70
     1
102
RTVSPropertyOp22
 70
     1
102
RTVSPropertyOp23
 70
     1
102
RTVSPropertyOp24
 70
     1
102
RTVSPropertyOp25
 70
     1
102
RTVSPropertyOp26
 70
     1
102
RTVSPropertyOp27
 70
     1
102
RTVSPropertyOp28
 70
     1
102
RTVSPropertyOp29
 70
     1
102
RTVSPropertyOp30
 70
     1
102
RTVSPropertyOp31
 70
     1
102
RTVSPropertyOp32
 70
     1
  0
XRECORD
  5
13F
102
{ACAD_REACTORS
330
13E
102
}
330
13E
100
AcDbXrecord
280
     1
102
RTVSPropertyOp0
 70
     1
102
RTVSPropertyOp1
 70
     1
102
RTVSPropertyOp2
 70
     1
102
RTVSPropertyOp3
 70
     1
102
RTVSPropertyOp4
 70
     1
102
RTVSPropertyOp5
 70
     1
102
RTVSPropertyOp6
 70
     1
102
RTVSPropertyOp7
 70
     1
102
RTVSPropertyOp8
 70
     1
102
RTVSPropertyOp9
 70
     1
102
RTVSPropertyOp10
 70
     1
102
RTVSPropertyOp11
 70
     1
102
RTVSPropertyOp12
 70
     1
102
RTVSPropertyOp13
 70
     1
102
RTVSPropertyOp14
 70
     1
102
RTVSPropertyOp15
 70
     1
102
RTVSPropertyOp16
 70
     1
102
RTVSPropertyOp17
 70
     1
102
RTVSPropertyOp18
 70
     1
102
RTVSPropertyOp19
 70
     1
102
RTVSPropertyOp20
 70
     1
102
RTVSPropertyOp21
 70
     1
102
RTVSPropertyOp22
 70
     1
102
RTVSPropertyOp23
 70
     1
102
RTVSPropertyOp24
 70
     1
102
RTVSPropertyOp25
 70
     1
102
RTVSPropertyOp26
 70
     1
102
RTVSPropertyOp27
 70
     1
102
RTVSPropertyOp28
 70
     1
102
RTVSPropertyOp29
 70
     1
102
RTVSPropertyOp30
 70
     1
102
RTVSPropertyOp31
 70
     1
102
RTVSPropertyOp32
 70
     1
  0
XRECORD
  5
13D
102
{ACAD_REACTORS
330
13C
102
}
330
13C
100
AcDbXrecord
280
     1
102
RTVSPropertyOp0
 70
     1
102
RTVSPropertyOp1
 70
     1
102
RTVSPropertyOp2
 70
     1
102
RTVSPropertyOp3
 70
     1
102
RTVSPropertyOp4
 70
     1
102
RTVSPropertyOp5
 70
     1
102
RTVSPropertyOp6
 70
     1
102
RTVSPropertyOp7
 70
     1
102
RTVSPropertyOp8
 70
     1
102
RTVSPropertyOp9
 70
     1
102
RTVSPropertyOp10
 70
     1
102
RTVSPropertyOp11
 70
     1
102
RTVSPropertyOp12
 70
     1
102
RTVSPropertyOp13
 70
     1
102
RTVSPropertyOp14
 70
     1
102
RTVSPropertyOp15
 70
     1
102
RTVSPropertyOp16
 70
     1
102
RTVSPropertyOp17
 70
     1
102
RTVSPropertyOp18
 70
     1
102
RTVSPropertyOp19
 70
     1
102
RTVSPropertyOp20
 70
     1
102
RTVSPropertyOp21
 70
     1
102
RTVSPropertyOp22
 70
     1
102
RTVSPropertyOp23
 70
     1
102
RTVSPropertyOp24
 70
     1
102
RTVSPropertyOp25
 70
     1
102
RTVSPropertyOp26
 70
     1
102
RTVSPropertyOp27
 70
     1
102
RTVSPropertyOp28
 70
     1
102
RTVSPropertyOp29
 70
     1
102
RTVSPropertyOp30
 70
     1
102
RTVSPropertyOp31
 70
     1
102
RTVSPropertyOp32
 70
     1
  0
XRECORD
  5
141
102
{ACAD_REACTORS
330
140
102
}
330
140
100
AcDbXrecord
280
     1
102
RTVSPropertyOp0
 70
     1
102
RTVSPropertyOp1
 70
     1
102
RTVSPropertyOp2
 70
     1
102
RTVSPropertyOp3
 70
     1
102
RTVSPropertyOp4
 70
     1
102
RTVSPropertyOp5
 70
     1
102
RTVSPropertyOp6
 70
     1
102
RTVSPropertyOp7
 70
     1
102
RTVSPropertyOp8
 70
     1
102
RTVSPropertyOp9
 70
     1
102
RTVSPropertyOp10
 70
     1
102
RTVSPropertyOp11
 70
     1
102
RTVSPropertyOp12
 70
     1
102
RTVSPropertyOp13
 70
     1
102
RTVSPropertyOp14
 70
     1
102
RTVSPropertyOp15
 70
     1
102
RTVSPropertyOp16
 70
     1
102
RTVSPropertyOp17
 70
     1
102
RTVSPropertyOp18
 70
     1
102
RTVSPropertyOp19
 70
     1
102
RTVSPropertyOp20
 70
     1
102
RTVSPropertyOp21
 70
     1
102
RTVSPropertyOp22
 70
     1
102
RTVSPropertyOp23
 70
     1
102
RTVSPropertyOp24
 70
     1
102
RTVSPropertyOp25
 70
     1
102
RTVSPropertyOp26
 70
     1
102
RTVSPropertyOp27
 70
     1
102
RTVSPropertyOp28
 70
     1
102
RTVSPropertyOp29
 70
     1
102
RTVSPropertyOp30
 70
     1
102
RTVSPropertyOp31
 70
     1
102
RTVSPropertyOp32
 70
     1
  0
XRECORD
  5
149
102
{ACAD_REACTORS
330
148
102
}
330
148
100
AcDbXrecord
280
     1
102
RTVSPropertyOp0
 70
     1
102
RTVSPropertyOp1
 70
     1
102
RTVSPropertyOp2
 70
     1
102
RTVSPropertyOp3
 70
     1
102
RTVSPropertyOp4
 70
     1
102
RTVSPropertyOp5
 70
     1
102
RTVSPropertyOp6
 70
     1
102
RTVSPropertyOp7
 70
     1
102
RTVSPropertyOp8
 70
     1
102
RTVSPropertyOp9
 70
     1
102
RTVSPropertyOp10
 70
     1
102
RTVSPropertyOp11
 70
     1
102
RTVSPropertyOp12
 70
     1
102
RTVSPropertyOp13
 70
     1
102
RTVSPropertyOp14
 70
     1
102
RTVSPropertyOp15
 70
     1
102
RTVSPropertyOp16
 70
     1
102
RTVSPropertyOp17
 70
     1
102
RTVSPropertyOp18
 70
     1
102
RTVSPropertyOp19
 70
     1
102
RTVSPropertyOp20
 70
     1
102
RTVSPropertyOp21
 70
     1
102
RTVSPropertyOp22
 70
     1
102
RTVSPropertyOp23
 70
     1
102
RTVSPropertyOp24
 70
     1
102
RTVSPropertyOp25
 70
     1
102
RTVSPropertyOp26
 70
     1
102
RTVSPropertyOp27
 70
     1
102
RTVSPropertyOp28
 70
     1
102
RTVSPropertyOp29
 70
     1
102
RTVSPropertyOp30
 70
     1
102
RTVSPropertyOp31
 70
     1
102
RTVSPropertyOp32
 70
     1
  0
XRECORD
  5
151
102
{ACAD_REACTORS
330
150
102
}
330
150
100
AcDbXrecord
280
     1
102
RTVSPropertyOp0
 70
     1
102
RTVSPropertyOp1
 70
     1
102
RTVSPropertyOp2
 70
     1
102
RTVSPropertyOp3
 70
     1
102
RTVSPropertyOp4
 70
     1
102
RTVSPropertyOp5
 70
     1
102
RTVSPropertyOp6
 70
     1
102
RTVSPropertyOp7
 70
     1
102
RTVSPropertyOp8
 70
     1
102
RTVSPropertyOp9
 70
     1
102
RTVSPropertyOp10
 70
     1
102
RTVSPropertyOp11
 70
     1
102
RTVSPropertyOp12
 70
     1
102
RTVSPropertyOp13
 70
     1
102
RTVSPropertyOp14
 70
     1
102
RTVSPropertyOp15
 70
     1
102
RTVSPropertyOp16
 70
     1
102
RTVSPropertyOp17
 70
     1
102
RTVSPropertyOp18
 70
     1
102
RTVSPropertyOp19
 70
     1
102
RTVSPropertyOp20
 70
     1
102
RTVSPropertyOp21
 70
     1
102
RTVSPropertyOp22
 70
     1
102
RTVSPropertyOp23
 70
     1
102
RTVSPropertyOp24
 70
     1
102
RTVSPropertyOp25
 70
     1
102
RTVSPropertyOp26
 70
     1
102
RTVSPropertyOp27
 70
     1
102
RTVSPropertyOp28
 70
     1
102
RTVSPropertyOp29
 70
     1
102
RTVSPropertyOp30
 70
     1
102
RTVSPropertyOp31
 70
     1
102
RTVSPropertyOp32
 70
     1
  0
XRECORD
  5
145
102
{ACAD_REACTORS
330
144
102
}
330
144
100
AcDbXrecord
280
     1
102
RTVSPropertyOp0
 70
     1
102
RTVSPropertyOp1
 70
     1
102
RTVSPropertyOp2
 70
     1
102
RTVSPropertyOp3
 70
     1
102
RTVSPropertyOp4
 70
     1
102
RTVSPropertyOp5
 70
     1
102
RTVSPropertyOp6
 70
     1
102
RTVSPropertyOp7
 70
     1
102
RTVSPropertyOp8
 70
     1
102
RTVSPropertyOp9
 70
     1
102
RTVSPropertyOp10
 70
     1
102
RTVSPropertyOp11
 70
     1
102
RTVSPropertyOp12
 70
     1
102
RTVSPropertyOp13
 70
     1
102
RTVSPropertyOp14
 70
     1
102
RTVSPropertyOp15
 70
     1
102
RTVSPropertyOp16
 70
     1
102
RTVSPropertyOp17
 70
     1
102
RTVSPropertyOp18
 70
     1
102
RTVSPropertyOp19
 70
     1
102
RTVSPropertyOp20
 70
     1
102
RTVSPropertyOp21
 70
     1
102
RTVSPropertyOp22
 70
     1
102
RTVSPropertyOp23
 70
     1
102
RTVSPropertyOp24
 70
     1
102
RTVSPropertyOp25
 70
     1
102
RTVSPropertyOp26
 70
     1
102
RTVSPropertyOp27
 70
     1
102
RTVSPropertyOp28
 70
     1
102
RTVSPropertyOp29
 70
     1
102
RTVSPropertyOp30
 70
     1
102
RTVSPropertyOp31
 70
     1
102
RTVSPropertyOp32
 70
     1
  0
XRECORD
  5
147
102
{ACAD_REACTORS
330
146
102
}
330
146
100
AcDbXrecord
280
     1
102
RTVSPropertyOp0
 70
     1
102
RTVSPropertyOp1
 70
     1
102
RTVSPropertyOp2
 70
     1
102
RTVSPropertyOp3
 70
     1
102
RTVSPropertyOp4
 70
     1
102
RTVSPropertyOp5
 70
     1
102
RTVSPropertyOp6
 70
     1
102
RTVSPropertyOp7
 70
     1
102
RTVSPropertyOp8
 70
     1
102
RTVSPropertyOp9
 70
     1
102
RTVSPropertyOp10
 70
     1
102
RTVSPropertyOp11
 70
     1
102
RTVSPropertyOp12
 70
     1
102
RTVSPropertyOp13
 70
     1
102
RTVSPropertyOp14
 70
     1
102
RTVSPropertyOp15
 70
     1
102
RTVSPropertyOp16
 70
     1
102
RTVSPropertyOp17
 70
     1
102
RTVSPropertyOp18
 70
     1
102
RTVSPropertyOp19
 70
     1
102
RTVSPropertyOp20
 70
     1
102
RTVSPropertyOp21
 70
     1
102
RTVSPropertyOp22
 70
     1
102
RTVSPropertyOp23
 70
     1
102
RTVSPropertyOp24
 70
     1
102
RTVSPropertyOp25
 70
     1
102
RTVSPropertyOp26
 70
     1
102
RTVSPropertyOp27
 70
     1
102
RTVSPropertyOp28
 70
     1
102
RTVSPropertyOp29
 70
     1
102
RTVSPropertyOp30
 70
     1
102
RTVSPropertyOp31
 70
     1
102
RTVSPropertyOp32
 70
     1
  0
XRECORD
  5
14F
102
{ACAD_REACTORS
330
14E
102
}
330
14E
100
AcDbXrecord
280
     1
102
RTVSPropertyOp0
 70
     1
102
RTVSPropertyOp1
 70
     1
102
RTVSPropertyOp2
 70
     1
102
RTVSPropertyOp3
 70
     1
102
RTVSPropertyOp4
 70
     1
102
RTVSPropertyOp5
 70
     1
102
RTVSPropertyOp6
 70
     1
102
RTVSPropertyOp7
 70
     1
102
RTVSPropertyOp8
 70
     1
102
RTVSPropertyOp9
 70
     1
102
RTVSPropertyOp10
 70
     1
102
RTVSPropertyOp11
 70
     1
102
RTVSPropertyOp12
 70
     1
102
RTVSPropertyOp13
 70
     1
102
RTVSPropertyOp14
 70
     1
102
RTVSPropertyOp15
 70
     1
102
RTVSPropertyOp16
 70
     1
102
RTVSPropertyOp17
 70
     1
102
RTVSPropertyOp18
 70
     1
102
RTVSPropertyOp19
 70
     1
102
RTVSPropertyOp20
 70
     1
102
RTVSPropertyOp21
 70
     1
102
RTVSPropertyOp22
 70
     1
102
RTVSPropertyOp23
 70
     1
102
RTVSPropertyOp24
 70
     1
102
RTVSPropertyOp25
 70
     1
102
RTVSPropertyOp26
 70
     1
102
RTVSPropertyOp27
 70
     1
102
RTVSPropertyOp28
 70
     1
102
RTVSPropertyOp29
 70
     1
102
RTVSPropertyOp30
 70
     1
102
RTVSPropertyOp31
 70
     1
102
RTVSPropertyOp32
 70
     1
  0
XRECORD
  5
133
102
{ACAD_REACTORS
330
132
102
}
330
132
100
AcDbXrecord
280
     1
102
RTVSPropertyOp0
 70
     1
102
RTVSPropertyOp1
 70
     1
102
RTVSPropertyOp2
 70
     1
102
RTVSPropertyOp3
 70
     1
102
RTVSPropertyOp4
 70
     1
102
RTVSPropertyOp5
 70
     1
102
RTVSPropertyOp6
 70
     1
102
RTVSPropertyOp7
 70
     1
102
RTVSPropertyOp8
 70
     1
102
RTVSPropertyOp9
 70
     1
102
RTVSPropertyOp10
 70
     1
102
RTVSPropertyOp11
 70
     1
102
RTVSPropertyOp12
 70
     1
102
RTVSPropertyOp13
 70
     1
102
RTVSPropertyOp14
 70
     1
102
RTVSPropertyOp15
 70
     1
102
RTVSPropertyOp16
 70
     1
102
RTVSPropertyOp17
 70
     1
102
RTVSPropertyOp18
 70
     1
102
RTVSPropertyOp19
 70
     1
102
RTVSPropertyOp20
 70
     1
102
RTVSPropertyOp21
 70
     1
102
RTVSPropertyOp22
 70
     1
102
RTVSPropertyOp23
 70
     1
102
RTVSPropertyOp24
 70
     1
102
RTVSPropertyOp25
 70
     1
102
RTVSPropertyOp26
 70
     1
102
RTVSPropertyOp27
 70
     1
102
RTVSPropertyOp28
 70
     1
102
RTVSPropertyOp29
 70
     1
102
RTVSPropertyOp30
 70
     1
102
RTVSPropertyOp31
 70
     1
102
RTVSPropertyOp32
 70
     1
  0
XRECORD
  5
135
102
{ACAD_REACTORS
330
134
102
}
330
134
100
AcDbXrecord
280
     1
102
RTVSPropertyOp0
 70
     1
102
RTVSPropertyOp1
 70
     1
102
RTVSPropertyOp2
 70
     1
102
RTVSPropertyOp3
 70
     1
102
RTVSPropertyOp4
 70
     1
102
RTVSPropertyOp5
 70
     1
102
RTVSPropertyOp6
 70
     1
102
RTVSPropertyOp7
 70
     1
102
RTVSPropertyOp8
 70
     1
102
RTVSPropertyOp9
 70
     1
102
RTVSPropertyOp10
 70
     1
102
RTVSPropertyOp11
 70
     1
102
RTVSPropertyOp12
 70
     1
102
RTVSPropertyOp13
 70
     1
102
RTVSPropertyOp14
 70
     1
102
RTVSPropertyOp15
 70
     1
102
RTVSPropertyOp16
 70
     1
102
RTVSPropertyOp17
 70
     1
102
RTVSPropertyOp18
 70
     1
102
RTVSPropertyOp19
 70
     1
102
RTVSPropertyOp20
 70
     1
102
RTVSPropertyOp21
 70
     1
102
RTVSPropertyOp22
 70
     1
102
RTVSPropertyOp23
 70
     1
102
RTVSPropertyOp24
 70
     1
102
RTVSPropertyOp25
 70
     1
102
RTVSPropertyOp26
 70
     1
102
RTVSPropertyOp27
 70
     1
102
RTVSPropertyOp28
 70
     1
102
RTVSPropertyOp29
 70
     1
102
RTVSPropertyOp30
 70
     1
102
RTVSPropertyOp31
 70
     1
102
RTVSPropertyOp32
 70
     1
  0
XRECORD
  5
137
102
{ACAD_REACTORS
330
136
102
}
330
136
100
AcDbXrecord
280
     1
102
RTVSPropertyOp0
 70
     1
102
RTVSPropertyOp1
 70
     1
102
RTVSPropertyOp2
 70
     1
102
RTVSPropertyOp3
 70
     1
102
RTVSPropertyOp4
 70
     1
102
RTVSPropertyOp5
 70
     1
102
RTVSPropertyOp6
 70
     1
102
RTVSPropertyOp7
 70
     1
102
RTVSPropertyOp8
 70
     1
102
RTVSPropertyOp9
 70
     1
102
RTVSPropertyOp10
 70
     1
102
RTVSPropertyOp11
 70
     1
102
RTVSPropertyOp12
 70
     1
102
RTVSPropertyOp13
 70
     1
102
RTVSPropertyOp14
 70
     1
102
RTVSPropertyOp15
 70
     1
102
RTVSPropertyOp16
 70
     1
102
RTVSPropertyOp17
 70
     1
102
RTVSPropertyOp18
 70
     1
102
RTVSPropertyOp19
 70
     1
102
RTVSPropertyOp20
 70
     1
102
RTVSPropertyOp21
 70
     1
102
RTVSPropertyOp22
 70
     1
102
RTVSPropertyOp23
 70
     1
102
RTVSPropertyOp24
 70
     1
102
RTVSPropertyOp25
 70
     1
102
RTVSPropertyOp26
 70
     1
102
RTVSPropertyOp27
 70
     1
102
RTVSPropertyOp28
 70
     1
102
RTVSPropertyOp29
 70
     1
102
RTVSPropertyOp30
 70
     1
102
RTVSPropertyOp31
 70
     1
102
RTVSPropertyOp32
 70
     1
  0
XRECORD
  5
139
102
{ACAD_REACTORS
330
138
102
}
330
138
100
AcDbXrecord
280
     1
102
RTVSPropertyOp0
 70
     1
102
RTVSPropertyOp1
 70
     1
102
RTVSPropertyOp2
 70
     1
102
RTVSPropertyOp3
 70
     1
102
RTVSPropertyOp4
 70
     1
102
RTVSPropertyOp5
 70
     1
102
RTVSPropertyOp6
 70
     1
102
RTVSPropertyOp7
 70
     1
102
RTVSPropertyOp8
 70
     1
102
RTVSPropertyOp9
 70
     1
102
RTVSPropertyOp10
 70
     1
102
RTVSPropertyOp11
 70
     1
102
RTVSPropertyOp12
 70
     1
102
RTVSPropertyOp13
 70
     1
102
RTVSPropertyOp14
 70
     1
102
RTVSPropertyOp15
 70
     1
102
RTVSPropertyOp16
 70
     1
102
RTVSPropertyOp17
 70
     1
102
RTVSPropertyOp18
 70
     1
102
RTVSPropertyOp19
 70
     1
102
RTVSPropertyOp20
 70
     1
102
RTVSPropertyOp21
 70
     1
102
RTVSPropertyOp22
 70
     1
102
RTVSPropertyOp23
 70
     1
102
RTVSPropertyOp24
 70
     1
102
RTVSPropertyOp25
 70
     1
102
RTVSPropertyOp26
 70
     1
102
RTVSPropertyOp27
 70
     1
102
RTVSPropertyOp28
 70
     1
102
RTVSPropertyOp29
 70
     1
102
RTVSPropertyOp30
 70
     1
102
RTVSPropertyOp31
 70
     1
102
RTVSPropertyOp32
 70
     1
  0
XRECORD
  5
14D
102
{ACAD_REACTORS
330
14C
102
}
330
14C
100
AcDbXrecord
280
     1
102
RTVSPropertyOp0
 70
     1
102
RTVSPropertyOp1
 70
     1
102
RTVSPropertyOp2
 70
     1
102
RTVSPropertyOp3
 70
     1
102
RTVSPropertyOp4
 70
     1
102
RTVSPropertyOp5
 70
     1
102
RTVSPropertyOp6
 70
     1
102
RTVSPropertyOp7
 70
     1
102
RTVSPropertyOp8
 70
     1
102
RTVSPropertyOp9
 70
     1
102
RTVSPropertyOp10
 70
     1
102
RTVSPropertyOp11
 70
     1
102
RTVSPropertyOp12
 70
     1
102
RTVSPropertyOp13
 70
     1
102
RTVSPropertyOp14
 70
     1
102
RTVSPropertyOp15
 70
     1
102
RTVSPropertyOp16
 70
     1
102
RTVSPropertyOp17
 70
     1
102
RTVSPropertyOp18
 70
     1
102
RTVSPropertyOp19
 70
     1
102
RTVSPropertyOp20
 70
     1
102
RTVSPropertyOp21
 70
     1
102
RTVSPropertyOp22
 70
     1
102
RTVSPropertyOp23
 70
     1
102
RTVSPropertyOp24
 70
     1
102
RTVSPropertyOp25
 70
     1
102
RTVSPropertyOp26
 70
     1
102
RTVSPropertyOp27
 70
     1
102
RTVSPropertyOp28
 70
     1
102
RTVSPropertyOp29
 70
     1
102
RTVSPropertyOp30
 70
     1
102
RTVSPropertyOp31
 70
     1
102
RTVSPropertyOp32
 70
     1
  0
XRECORD
  5
143
102
{ACAD_REACTORS
330
142
102
}
330
142
100
AcDbXrecord
280
     1
102
RTVSPropertyOp0
 70
     1
102
RTVSPropertyOp1
 70
     1
102
RTVSPropertyOp2
 70
     1
102
RTVSPropertyOp3
 70
     1
102
RTVSPropertyOp4
 70
     1
102
RTVSPropertyOp5
 70
     1
102
RTVSPropertyOp6
 70
     1
102
RTVSPropertyOp7
 70
     1
102
RTVSPropertyOp8
 70
     1
102
RTVSPropertyOp9
 70
     1
102
RTVSPropertyOp10
 70
     1
102
RTVSPropertyOp11
 70
     1
102
RTVSPropertyOp12
 70
     1
102
RTVSPropertyOp13
 70
     1
102
RTVSPropertyOp14
 70
     1
102
RTVSPropertyOp15
 70
     1
102
RTVSPropertyOp16
 70
     1
102
RTVSPropertyOp17
 70
     1
102
RTVSPropertyOp18
 70
     1
102
RTVSPropertyOp19
 70
     1
102
RTVSPropertyOp20
 70
     1
102
RTVSPropertyOp21
 70
     1
102
RTVSPropertyOp22
 70
     1
102
RTVSPropertyOp23
 70
     1
102
RTVSPropertyOp24
 70
     1
102
RTVSPropertyOp25
 70
     1
102
RTVSPropertyOp26
 70
     1
102
RTVSPropertyOp27
 70
     1
102
RTVSPropertyOp28
 70
     1
102
RTVSPropertyOp29
 70
     1
102
RTVSPropertyOp30
 70
     1
102
RTVSPropertyOp31
 70
     1
102
RTVSPropertyOp32
 70
     1
  0
XRECORD
  5
14B
102
{ACAD_REACTORS
330
14A
102
}
330
14A
100
AcDbXrecord
280
     1
102
RTVSPropertyOp0
 70
     1
102
RTVSPropertyOp1
 70
     1
102
RTVSPropertyOp2
 70
     1
102
RTVSPropertyOp3
 70
     1
102
RTVSPropertyOp4
 70
     1
102
RTVSPropertyOp5
 70
     1
102
RTVSPropertyOp6
 70
     1
102
RTVSPropertyOp7
 70
     1
102
RTVSPropertyOp8
 70
     1
102
RTVSPropertyOp9
 70
     1
102
RTVSPropertyOp10
 70
     1
102
RTVSPropertyOp11
 70
     1
102
RTVSPropertyOp12
 70
     1
102
RTVSPropertyOp13
 70
     1
102
RTVSPropertyOp14
 70
     1
102
RTVSPropertyOp15
 70
     1
102
RTVSPropertyOp16
 70
     1
102
RTVSPropertyOp17
 70
     1
102
RTVSPropertyOp18
 70
     1
102
RTVSPropertyOp19
 70
     1
102
RTVSPropertyOp20
 70
     1
102
RTVSPropertyOp21
 70
     1
102
RTVSPropertyOp22
 70
     1
102
RTVSPropertyOp23
 70
     1
102
RTVSPropertyOp24
 70
     1
102
RTVSPropertyOp25
 70
     1
102
RTVSPropertyOp26
 70
     1
102
RTVSPropertyOp27
 70
     1
102
RTVSPropertyOp28
 70
     1
102
RTVSPropertyOp29
 70
     1
102
RTVSPropertyOp30
 70
     1
102
RTVSPropertyOp31
 70
     1
102
RTVSPropertyOp32
 70
     1
  0
ENDSEC
  0
EOF
