  0
SECTION
  2
HEADER
  9
$ACADVER
  1
AC1015
  9
$ACADMAINTVER
 70
     6
  9
$DWGCODEPAGE
  3
ANSI_1252
  9
$INSBASE
 10
0.0
 20
0.0
 30
0.0
  9
$EXTMIN
 10
0.0
 20
0.0
 30
0.0
  9
$EXTMAX
 10
210.0
 20
297.0
 30
0.0
  9
$LIMMIN
 10
0.0
 20
0.0
  9
$LIMMAX
 10
210.0
 20
297.0
  9
$ORTHOMODE
 70
     0
  9
$REGENMODE
 70
     1
  9
$FILLMODE
 70
     1
  9
$QTEXTMODE
 70
     0
  9
$MIRRTEXT
 70
     1
  9
$LTSCALE
 40
1.0
  9
$ATTMODE
 70
     1
  9
$TEXTSIZE
 40
2.5
  9
$TRACEWID
 40
1.0
  9
$TEXTSTYLE
  7
Standard
  9
$CLAYER
  8
0
  9
$CELTYPE
  6
ByLayer
  9
$CECOLOR
 62
   256
  9
$CELTSCALE
 40
1.0
  9
$DISPSILH
 70
     0
  9
$DIMSCALE
 40
1.0
  9
$DIMASZ
 40
2.5
  9
$DIMEXO
 40
0.625
  9
$DIMDLI
 40
3.75
  9
$DIMRND
 40
0.0
  9
$DIMDLE
 40
0.0
  9
$DIMEXE
 40
1.25
  9
$DIMTP
 40
0.0
  9
$DIMTM
 40
0.0
  9
$DIMTXT
 40
2.5
  9
$DIMCEN
 40
2.5
  9
$DIMTSZ
 40
0.0
  9
$DIMTOL
 70
     0
  9
$DIMLIM
 70
     0
  9
$DIMTIH
 70
     0
  9
$DIMTOH
 70
     0
  9
$DIMSE1
 70
     0
  9
$DIMSE2
 70
     0
  9
$DIMTAD
 70
     1
  9
$DIMZIN
 70
     8
  9
$DIMBLK
  1

  9
$DIMASO
 70
     1
  9
$DIMSHO
 70
     1
  9
$DIMPOST
  1

  9
$DIMAPOST
  1

  9
$DIMALT
 70
     0
  9
$DIMALTD
 70
     3
  9
$DIMALTF
 40
0.0393700787
  9
$DIMLFAC
 40
1.0
  9
$DIMTOFL
 70
     1
  9
$DIMTVP
 40
0.0
  9
$DIMTIX
 70
     0
  9
$DIMSOXD
 70
     0
  9
$DIMSAH
 70
     0
  9
$DIMBLK1
  1

  9
$DIMBLK2
  1

  9
$DIMSTYLE
  2
ISO-25
  9
$DIMCLRD
 70
     0
  9
$DIMCLRE
 70
     0
  9
$DIMCLRT
 70
     0
  9
$DIMTFAC
 40
1.0
  9
$DIMGAP
 40
0.625
  9
$DIMJUST
 70
     0
  9
$DIMSD1
 70
     0
  9
$DIMSD2
 70
     0
  9
$DIMTOLJ
 70
     0
  9
$DIMTZIN
 70
     8
  9
$DIMALTZ
 70
     0
  9
$DIMALTTZ
 70
     0
  9
$DIMUPT
 70
     0
  9
$DIMDEC
 70
     2
  9
$DIMTDEC
 70
     2
  9
$DIMALTU
 70
     2
  9
$DIMALTTD
 70
     3
  9
$DIMTXSTY
  7
Standard
  9
$DIMAUNIT
 70
     0
  9
$DIMADEC
 70
     0
  9
$DIMALTRND
 40
0.0
  9
$DIMAZIN
 70
     0
  9
$DIMDSEP
 70
    44
  9
$DIMATFIT
 70
     3
  9
$DIMFRAC
 70
     0
  9
$DIMLDRBLK
  1

  9
$DIMLUNIT
 70
     2
  9
$DIMLWD
 70
    -2
  9
$DIMLWE
 70
    -2
  9
$DIMTMOVE
 70
     0
  9
$LUNITS
 70
     2
  9
$LUPREC
 70
     4
  9
$SKETCHINC
 40
1.0
  9
$FILLETRAD
 40
10.0
  9
$AUNITS
 70
     0
  9
$AUPREC
 70
     0
  9
$MENU
  1
.
  9
$ELEVATION
 40
0.0
  9
$PELEVATION
 40
0.0
  9
$THICKNESS
 40
0.0
  9
$LIMCHECK
 70
     0
  9
$CHAMFERA
 40
10.0
  9
$CHAMFERB
 40
10.0
  9
$CHAMFERC
 40
20.0
  9
$CHAMFERD
 40
0.0
  9
$SKPOLY
 70
     0
  9
$TDCREATE
 40
2457564.39173265
  9
$TDUCREATE
 40
2457564.308399317
  9
$TDUPDATE
 40
2457564.391771748
  9
$TDUUPDATE
 40
2457564.308438414
  9
$TDINDWG
 40
0.0000000116
  9
$TDUSRTIMER
 40
0.0000000116
  9
$USRTIMER
 70
     1
  9
$ANGBASE
 50
0.0
  9
$ANGDIR
 70
     0
  9
$PDMODE
 70
     0
  9
$PDSIZE
 40
0.0
  9
$PLINEWID
 40
0.0
  9
$SPLFRAME
 70
     0
  9
$SPLINETYPE
 70
     6
  9
$SPLINESEGS
 70
     8
  9
$HANDSEED
  5
15A
  9
$SURFTAB1
 70
     6
  9
$SURFTAB2
 70
     6
  9
$SURFTYPE
 70
     6
  9
$SURFU
 70
     6
  9
$SURFV
 70
     6
  9
$UCSBASE
  2

  9
$UCSNAME
  2

  9
$UCSORG
 10
0.0
 20
0.0
 30
0.0
  9
$UCSXDIR
 10
1.0
 20
0.0
 30
0.0
  9
$UCSYDIR
 10
0.0
 20
1.0
 30
0.0
  9
$UCSORTHOREF
  2

  9
$UCSORTHOVIEW
 70
     0
  9
$UCSORGTOP
 10
0.0
 20
0.0
 30
0.0
  9
$UCSORGBOTTOM
 10
0.0
 20
0.0
 30
0.0
  9
$UCSORGLEFT
 10
0.0
 20
0.0
 30
0.0
  9
$UCSORGRIGHT
 10
0.0
 20
0.0
 30
0.0
  9
$UCSORGFRONT
 10
0.0
 20
0.0
 30
0.0
  9
$UCSORGBACK
 10
0.0
 20
0.0
 30
0.0
  9
$PUCSBASE
  2

  9
$PUCSNAME
  2

  9
$PUCSORG
 10
0.0
 20
0.0
 30
0.0
  9
$PUCSXDIR
 10
1.0
 20
0.0
 30
0.0
  9
$PUCSYDIR
 10
0.0
 20
1.0
 30
0.0
  9
$PUCSORTHOREF
  2

  9
$PUCSORTHOVIEW
 70
     0
  9
$PUCSORGTOP
 10
0.0
 20
0.0
 30
0.0
  9
$PUCSORGBOTTOM
 10
0.0
 20
0.0
 30
0.0
  9
$PUCSORGLEFT
 10
0.0
 20
0.0
 30
0.0
  9
$PUCSORGRIGHT
 10
0.0
 20
0.0
 30
0.0
  9
$PUCSORGFRONT
 10
0.0
 20
0.0
 30
0.0
  9
$PUCSORGBACK
 10
0.0
 20
0.0
 30
0.0
  9
$USERI1
 70
     0
  9
$USERI2
 70
     0
  9
$USERI3
 70
     0
  9
$USERI4
 70
     0
  9
$USERI5
 70
     0
  9
$USERR1
 40
0.0
  9
$USERR2
 40
0.0
  9
$USERR3
 40
0.0
  9
$USERR4
 40
0.0
  9
$USERR5
 40
0.0
  9
$WORLDVIEW
 70
     1
  9
$SHADEDGE
 70
     3
  9
$SHADEDIF
 70
    70
  9
$TILEMODE
 70
     1
  9
$MAXACTVP
 70
    64
  9
$PINSBASE
 10
0.0
 20
0.0
 30
0.0
  9
$PLIMCHECK
 70
     0
  9
$PEXTMIN
 10
0.0
 20
0.0
 30
0.0
  9
$PEXTMAX
 10
210.0
 20
297.0
 30
0.0
  9
$PLIMMIN
 10
0.0
 20
0.0
  9
$PLIMMAX
 10
210.0
 20
297.0
  9
$UNITMODE
 70
     0
  9
$VISRETAIN
 70
     1
  9
$PLINEGEN
 70
     0
  9
$PSLTSCALE
 70
     1
  9
$TREEDEPTH
 70
  3020
  9
$CMLSTYLE
  2
Standard
  9
$CMLJUST
 70
     0
  9
$CMLSCALE
 40
20.0
  9
$PROXYGRAPHICS
 70
     1
  9
$MEASUREMENT
 70
     1
  9
$CELWEIGHT
370
    -1
  9
$ENDCAPS
280
     0
  9
$JOINSTYLE
280
     0
  9
$LWDISPLAY
290
     0
  9
$INSUNITS
 70
     4
  9
$HYPERLINKBASE
  1

  9
$STYLESHEET
  1

  9
$XEDIT
290
     1
  9
$CEPSNTYPE
380
     0
  9
$PSTYLEMODE
290
     1
  9
$FINGERPRINTGUID
  2
{BABEE24E-D6E4-41E4-AE2C-56C3F3036BE8}
  9
$VERSIONGUID
  2
{FAEB1C32-E019-11D5-929B-00C0DF256EC4}
  9
$EXTNAMES
290
     1
  9
$PSVPSCALE
 40
0.0
  9
$OLESTARTUP
290
     0
  0
ENDSEC
  0
SECTION
  2
CLASSES
  0
CLASS
  1
ACDBDICTIONARYWDFLT
  2
AcDbDictionaryWithDefault
  3
ObjectDBX Classes
 90
        0
280
     0
281
     0
  0
CLASS
  1
VISUALSTYLE
  2
AcDbVisualStyle
  3
ObjectDBX Classes
 90
     4095
280
     0
281
     0
  0
CLASS
  1
MATERIAL
  2
AcDbMaterial
  3
ObjectDBX Classes
 90
     1153
280
     0
281
     0
  0
CLASS
  1
DICTIONARYVAR
  2
AcDbDictionaryVar
  3
ObjectDBX Classes
 90
        0
280
     0
281
     0
  0
CLASS
  1
ACDBPLACEHOLDER
  2
AcDbPlaceHolder
  3
ObjectDBX Classes
 90
        0
280
     0
281
     0
  0
CLASS
  1
LAYOUT
  2
AcDbLayout
  3
ObjectDBX Classes
 90
        0
280
     0
281
     0
  0
ENDSEC
  0
SECTION
  2
TABLES
  0
TABLE
  2
VPORT
  5
8
330
0
100
AcDbSymbolTable
 70
     1
  0
VPORT
  5
29
330
8
100
AcDbSymbolTableRecord
100
AcDbViewportTableRecord
  2
*Active
 70
     0
 10
0.0
 20
0.0
 11
1.0
 21
1.0
 12
344.1869158879
 22
148.5
 13
0.0
 23
0.0
 14
10.0
 24
10.0
 15
10.0
 25
10.0
 16
0.0
 26
0.0
 36
1.0
 17
0.0
 27
0.0
 37
0.0
 40
297.0
 41
1.9729729729
 42
50.0
 43
0.0
 44
0.0
 50
0.0
 51
0.0
 71
     0
 72
   100
 73
     1
 74
     3
 75
     0
 76
     0
 77
     0
 78
     0
281
     0
 65
     1
110
0.0
120
0.0
130
0.0
111
1.0
121
0.0
131
0.0
112
0.0
122
1.0
132
0.0
 79
     0
146
0.0
  0
ENDTAB
  0
TABLE
  2
LTYPE
  5
5
330
0
100
AcDbSymbolTable
 70
     2
  0
LTYPE
  5
14
330
5
100
AcDbSymbolTableRecord
100
AcDbLinetypeTableRecord
  2
ByBlock
 70
     0
  3

 72
    65
 73
     0
 40
0.0
  0
LTYPE
  5
15
330
5
100
AcDbSymbolTableRecord
100
AcDbLinetypeTableRecord
  2
ByLayer
 70
     0
  3

 72
    65
 73
     0
 40
0.0
  0
LTYPE
  5
16
330
5
100
AcDbSymbolTableRecord
100
AcDbLinetypeTableRecord
  2
Continuous
 70
     0
  3
Solid line
 72
    65
 73
     0
 40
0.0
  0
LTYPE
  5
53
330
5
100
AcDbSymbolTableRecord
100
AcDbLinetypeTableRecord
  2
HIDDEN2
 70
     0
  3
Hidden (.5x) _ _ _ _ _ _ _ _ _ _ _ _ _ _ _ _ _ 
 72
    65
 73
     2
 40
4.7625
 49
3.175
 74
     4
 75
     0
340
0
 46
0.0
 50
0.0
 44
0.0
 45
0.0
 49
-1.5875
 74
     4
 75
     0
340
0
 46
0.0
 50
0.0
 44
0.0
 45
0.0
  0
ENDTAB
  0
TABLE
  2
LAYER
  5
2
330
0
100
AcDbSymbolTable
 70
     5
  0
LAYER
  5
10
330
2
100
AcDbSymbolTableRecord
100
AcDbLayerTableRecord
  2
0
 70
     0
 62
     7
  6
Continuous
370
    -3
390
F
  0
LAYER
  5
3F
330
2
100
AcDbSymbolTableRecord
100
AcDbLayerTableRecord
  2
SK1
 70
     0
 62
     4
  6
Continuous
370
    18
390
F
  0
LAYER
  5
52
330
2
100
AcDbSymbolTableRecord
100
AcDbLayerTableRecord
  2
SK3
 70
     0
 62
     1
  6
HIDDEN2
370
    15
390
F
  0
LAYER
  5
D6
330
2
100
AcDbSymbolTableRecord
100
AcDbLayerTableRecord
  2
SK4
 70
     0
 62
     2
  6
Continuous
370
    13
390
F
  0
LAYER
  5
D8
330
2
100
AcDbSymbolTableRecord
100
AcDbLayerTableRecord
  2
SK2
 70
     0
 62
     7
  6
Continuous
370
    15
390
F
  0
ENDTAB
  0
TABLE
  2
STYLE
  5
3
330
0
100
AcDbSymbolTable
 70
     2
  0
STYLE
  5
11
330
3
100
AcDbSymbolTableRecord
100
AcDbTextStyleTableRecord
  2
Standard
 70
     0
 40
0.0
 41
1.0
 50
0.0
 71
     0
 42
2.5
  3
txt
  4

  0
STYLE
  5
EB
330
3
100
AcDbSymbolTableRecord
100
AcDbTextStyleTableRecord
  2
SEACAD_Solid_Edge_ISO
 70
     0
 40
0.0
 41
1.0
 50
0.0
 71
     0
 42
0.2
  3
seiso.ttf
  4

1001
ACAD
1000
Solid Edge ISO
1071
        0
  0
ENDTAB
  0
TABLE
  2
VIEW
  5
6
330
0
100
AcDbSymbolTable
 70
     0
  0
ENDTAB
  0
TABLE
  2
UCS
  5
7
330
0
100
AcDbSymbolTable
 70
     0
  0
ENDTAB
  0
TABLE
  2
APPID
  5
9
330
0
100
AcDbSymbolTable
 70
     1
  0
APPID
  5
12
330
9
100
AcDbSymbolTableRecord
100
AcDbRegAppTableRecord
  2
ACAD
 70
     0
  0
ENDTAB
  0
TABLE
  2
DIMSTYLE
  5
A
330
0
100
AcDbSymbolTable
 70
     3
100
AcDbDimStyleTable
  0
DIMSTYLE
105
27
330
A
100
AcDbSymbolTableRecord
100
AcDbDimStyleTableRecord
  2
ISO-25
 70
     0
 41
2.5
 42
0.625
 43
3.75
 44
1.25
 73
     0
 74
     0
 77
     1
 78
     8
140
2.5
141
2.5
143
0.0393700787
147
0.625
171
     3
172
     1
178
     0
271
     2
272
     2
274
     3
278
    44
283
     0
284
     8
340
11
  0
DIMSTYLE
105
D9
330
A
100
AcDbSymbolTableRecord
100
AcDbDimStyleTableRecord
  2
Standard
 70
     0
178
     0
340
11
  0
DIMSTYLE
105
EC
102
{ACAD_REACTORS
330
ED
330
F7
330
101
330
10C
102
}
330
A
100
AcDbSymbolTableRecord
100
AcDbDimStyleTableRecord
  2
DIN
 70
     0
 41
3.5
 42
0.0
 44
1.75
 73
     0
 74
     0
 77
     1
 78
     8
140
3.5
141
1.75
147
1.75
172
     1
173
     1
178
     0
179
     3
271
     2
272
     2
278
    44
284
     8
340
EB
343
E6
344
E6
  0
ENDTAB
  0
TABLE
  2
BLOCK_RECORD
  5
1
330
0
100
AcDbSymbolTable
 70
    10
  0
BLOCK_RECORD
  5
1F
330
1
100
AcDbSymbolTableRecord
100
AcDbBlockTableRecord
  2
*Model_Space
340
22
  0
BLOCK_RECORD
  5
1B
330
1
100
AcDbSymbolTableRecord
100
AcDbBlockTableRecord
  2
*Paper_Space
340
1E
  0
BLOCK_RECORD
  5
DA
330
1
100
AcDbSymbolTableRecord
100
AcDbBlockTableRecord
  2
_OBLIQUE
340
0
  0
BLOCK_RECORD
  5
DE
330
1
100
AcDbSymbolTableRecord
100
AcDbBlockTableRecord
  2
_DOT
340
0
  0
BLOCK_RECORD
  5
E6
330
1
100
AcDbSymbolTableRecord
100
AcDbBlockTableRecord
  2
_SE_FILLED
340
0
  0
BLOCK_RECORD
  5
EE
330
1
100
AcDbSymbolTableRecord
100
AcDbBlockTableRecord
  2
DMBLK75
340
0
  0
BLOCK_RECORD
  5
F8
330
1
100
AcDbSymbolTableRecord
100
AcDbBlockTableRecord
  2
DMBLK76
340
0
  0
BLOCK_RECORD
  5
102
330
1
100
AcDbSymbolTableRecord
100
AcDbBlockTableRecord
  2
DMBLK77
340
0
  0
BLOCK_RECORD
  5
10D
330
1
100
AcDbSymbolTableRecord
100
AcDbBlockTableRecord
  2
DMBLK78
340
0
  0
BLOCK_RECORD
  5
117
330
1
100
AcDbSymbolTableRecord
100
AcDbBlockTableRecord
  2
Nullpunkt
340
0
102
{BLKREFS
331
121
102
}
  0
BLOCK_RECORD
  5
122
330
1
100
AcDbSymbolTableRecord
100
AcDbBlockTableRecord
  2
Einfügepunkt
340
0
102
{BLKREFS
331
12C
102
}
  0
ENDTAB
  0
ENDSEC
  0
SECTION
  2
BLOCKS
  0
BLOCK
  5
20
330
1F
100
AcDbEntity
  8
0
100
AcDbBlockBegin
  2
*Model_Space
 70
     0
 10
0.0
 20
0.0
 30
0.0
  3
*Model_Space
  1

  0
ENDBLK
  5
21
330
1F
100
AcDbEntity
  8
0
100
AcDbBlockEnd
  0
BLOCK
  5
1C
330
1B
100
AcDbEntity
 67
     1
  8
0
100
AcDbBlockBegin
  2
*Paper_Space
 70
     0
 10
0.0
 20
0.0
 30
0.0
  3
*Paper_Space
  1

  0
ENDBLK
  5
1D
330
1B
100
AcDbEntity
 67
     1
  8
0
100
AcDbBlockEnd
  0
BLOCK
  5
DB
330
DA
100
AcDbEntity
  8
0
100
AcDbBlockBegin
  2
_OBLIQUE
 70
     0
 10
0.0
 20
0.0
 30
0.0
  3
_OBLIQUE
  1

  0
LINE
  5
DD
330
DA
100
AcDbEntity
  8
0
  6
ByBlock
 62
     0
370
    -2
100
AcDbLine
 10
-0.5
 20
-0.5
 30
0.0
 11
0.5
 21
0.5
 31
0.0
  0
ENDBLK
  5
DC
330
DA
100
AcDbEntity
  8
0
100
AcDbBlockEnd
  0
BLOCK
  5
DF
330
DE
100
AcDbEntity
  8
0
100
AcDbBlockBegin
  2
_DOT
 70
     0
 10
0.0
 20
0.0
 30
0.0
  3
_DOT
  1

  0
POLYLINE
  5
E1
330
DE
100
AcDbEntity
  8
0
  6
ByBlock
 62
     0
100
AcDb2dPolyline
 66
     1
 10
0.0
 20
0.0
 30
0.0
 70
     1
 40
0.5
 41
0.5
  0
VERTEX
  5
E3
330
E1
100
AcDbEntity
  8
0
  6
ByBlock
 62
     0
100
AcDbVertex
100
AcDb2dVertex
 10
-0.25
 20
0.0
 30
0.0
 42
1.0
  0
VERTEX
  5
E4
330
E1
100
AcDbEntity
  8
0
  6
ByBlock
 62
     0
100
AcDbVertex
100
AcDb2dVertex
 10
0.25
 20
0.0
 30
0.0
 42
1.0
  0
SEQEND
  5
E5
330
E1
100
AcDbEntity
  8
0
  6
ByBlock
 62
     0
  0
LINE
  5
E2
330
DE
100
AcDbEntity
  8
0
  6
ByBlock
 62
     0
370
    -2
100
AcDbLine
 10
-0.5
 20
0.0
 30
0.0
 11
-1.0
 21
0.0
 31
0.0
  0
ENDBLK
  5
E0
330
DE
100
AcDbEntity
  8
0
100
AcDbBlockEnd
  0
BLOCK
  5
E9
330
E6
100
AcDbEntity
  8
0
100
AcDbBlockBegin
  2
_SE_FILLED
 70
     0
 10
0.0
 20
0.0
 30
0.0
  3
_SE_FILLED
  1

  0
SOLID
  5
E7
330
E6
100
AcDbEntity
  8
0
 62
     0
100
AcDbTrace
 10
0.0
 20
0.0
 30
0.0
 11
-1.0
 21
-0.1665
 31
0.0
 12
-1.0
 22
0.1665
 32
0.0
 13
0.0
 23
0.0
 33
0.0
  0
LINE
  5
E8
330
E6
100
AcDbEntity
  8
0
 62
     0
100
AcDbLine
 10
0.0
 20
0.0
 30
0.0
 11
-1.0
 21
0.0
 31
0.0
  0
ENDBLK
  5
EA
330
E6
100
AcDbEntity
  8
0
100
AcDbBlockEnd
  0
BLOCK
  5
F5
330
EE
100
AcDbEntity
  8
0
100
AcDbBlockBegin
  2
DMBLK75
 70
     0
 10
0.0
 20
0.0
 30
0.0
  3
DMBLK75
  1

  0
HATCH
  5
EF
330
EE
100
AcDbEntity
  8
SK2
  6
Continuous
 62
   136
100
AcDbHatch
 10
0.0
 20
0.0
 30
0.0
210
0.0
220
0.0
230
1.0
  2
SOLID
 70
     1
 71
     0
 91
        1
 92
        1
 93
        3
 72
     1
 10
-13.74021154391802
 20
16.82384830158236
 11
-17.24021165195144
 21
16.24051495024345
 72
     1
 10
-17.24021165195144
 20
16.24051495024345
 11
-13.74021154391802
 21
15.65718159890455
 72
     1
 10
-13.74021154391802
 20
15.65718159890455
 11
-13.74021154391802
 21
16.82384830158236
 97
        0
 75
     0
 76
     1
 98
        0
  0
HATCH
  5
F0
330
EE
100
AcDbEntity
  8
SK2
  6
Continuous
 62
   136
100
AcDbHatch
 10
0.0
 20
0.0
 30
0.0
210
0.0
220
0.0
230
1.0
  2
SOLID
 70
     1
 71
     0
 91
        1
 92
        1
 93
        3
 72
     1
 10
6.759788091003527
 20
16.82384830158236
 11
6.759788091003527
 21
15.65718159890455
 72
     1
 10
6.759788091003527
 20
15.65718159890455
 11
10.25978819903695
 21
16.24051495024345
 72
     1
 10
10.25978819903695
 20
16.24051495024345
 11
6.759788091003527
 21
16.82384830158236
 97
        0
 75
     0
 76
     1
 98
        0
  0
LINE
  5
F1
330
EE
100
AcDbEntity
  8
SK2
  6
Continuous
 62
   136
100
AcDbLine
 10
-17.240211652
 20
5.3100829435
 30
0.0
 11
-17.240211652
 21
17.9905150043
 31
0.0
  0
LINE
  5
F2
330
EE
100
AcDbEntity
  8
SK2
  6
Continuous
 62
   136
100
AcDbLine
 10
10.259788348
 20
6.1712614995
 30
0.0
 11
10.259788348
 21
17.9905150043
 31
0.0
  0
LINE
  5
F3
330
EE
100
AcDbEntity
  8
SK2
  6
Continuous
 62
   136
100
AcDbLine
 10
-17.240211652
 20
16.2405149502
 30
0.0
 11
10.259788199
 21
16.2405149502
 31
0.0
  0
TEXT
  5
F4
330
EE
100
AcDbEntity
  8
SK2
  6
Continuous
 62
   136
100
AcDbText
 10
-6.9902117265
 20
17.1155149502
 30
0.0
 40
3.5
  1
27,5
  7
SEACAD_Solid_Edge_ISO
 11
-6.9902117265
 21
20.6155149502
 31
0.0
100
AcDbText
 73
     3
  0
ENDBLK
  5
F6
330
EE
100
AcDbEntity
  8
0
100
AcDbBlockEnd
  0
BLOCK
  5
FF
330
F8
100
AcDbEntity
  8
0
100
AcDbBlockBegin
  2
DMBLK76
 70
     0
 10
0.0
 20
0.0
 30
0.0
  3
DMBLK76
  1

  0
HATCH
  5
F9
330
F8
100
AcDbEntity
  8
SK2
  6
Continuous
 62
   136
100
AcDbHatch
 10
0.0
 20
0.0
 30
0.0
210
0.0
220
0.0
230
1.0
  2
SOLID
 70
     1
 71
     0
 91
        1
 92
        1
 93
        3
 72
     1
 10
-3.500000108033416
 20
-18.23404755047941
 11
0.0000000000000022
 21
-17.65071419914051
 72
     1
 10
0.0000000000000022
 20
-17.65071419914051
 11
-3.500000108033416
 21
-17.0673808478016
 72
     1
 10
-3.500000108033416
 20
-17.0673808478016
 11
-3.500000108033416
 21
-18.23404755047941
 97
        0
 75
     0
 76
     1
 98
        0
  0
HATCH
  5
FA
330
F8
100
AcDbEntity
  8
SK2
  6
Continuous
 62
   136
100
AcDbHatch
 10
0.0
 20
0.0
 30
0.0
210
0.0
220
0.0
230
1.0
  2
SOLID
 70
     1
 71
     0
 91
        1
 92
        1
 93
        3
 72
     1
 10
13.75978845608243
 20
-18.23404755047941
 11
13.75978845608243
 21
-17.0673808478016
 72
     1
 10
13.75978845608243
 20
-17.0673808478016
 11
10.25978834804901
 21
-17.65071419914051
 72
     1
 10
10.25978834804901
 20
-17.65071419914051
 11
13.75978845608243
 21
-18.23404755047941
 97
        0
 75
     0
 76
     1
 98
        0
  0
LINE
  5
FB
330
F8
100
AcDbEntity
  8
SK2
  6
Continuous
 62
   136
100
AcDbLine
 10
0.0
 20
-7.9997042744
 30
0.0
 11
0.0
 21
-19.4007142532
 31
0.0
  0
LINE
  5
FC
330
F8
100
AcDbEntity
  8
SK2
  6
Continuous
 62
   136
100
AcDbLine
 10
10.259788348
 20
-5.3540982456
 30
0.0
 11
10.259788348
 21
-19.4007142532
 31
0.0
  0
LINE
  5
FD
330
F8
100
AcDbEntity
  8
SK2
  6
Continuous
 62
   136
100
AcDbLine
 10
-7.0000002161
 20
-17.6507141991
 30
0.0
 11
17.2597877681
 21
-17.6507141991
 31
0.0
  0
TEXT
  5
FE
330
F8
100
AcDbEntity
  8
SK2
  6
Continuous
 62
   136
100
AcDbText
 10
0.9139851508
 20
-16.7757141991
 30
0.0
 40
3.5
  1
10,26
  7
SEACAD_Solid_Edge_ISO
 11
0.9139851508
 21
-13.2757141991
 31
0.0
100
AcDbText
 73
     3
  0
ENDBLK
  5
100
330
F8
100
AcDbEntity
  8
0
100
AcDbBlockEnd
  0
BLOCK
  5
10A
330
102
100
AcDbEntity
  8
0
100
AcDbBlockBegin
  2
DMBLK77
 70
     0
 10
0.0
 20
0.0
 30
0.0
  3
DMBLK77
  1

  0
HATCH
  5
103
330
102
100
AcDbEntity
  8
SK2
  6
Continuous
 62
   136
100
AcDbHatch
 10
0.0
 20
0.0
 30
0.0
210
0.0
220
0.0
230
1.0
  2
SOLID
 70
     1
 71
     0
 91
        1
 92
        1
 93
        3
 72
     1
 10
19.31821512221757
 20
-5.087500008262711
 11
18.73488177087866
 21
-1.587499900229292
 72
     1
 10
18.73488177087866
 20
-1.587499900229292
 11
18.15154841953976
 21
-5.087500008262711
 72
     1
 10
18.15154841953976
 20
-5.087500008262711
 11
19.31821512221757
 21
-5.087500008262711
 97
        0
 75
     0
 76
     1
 98
        0
  0
HATCH
  5
104
330
102
100
AcDbEntity
  8
SK2
  6
Continuous
 62
   136
100
AcDbHatch
 10
0.0
 20
0.0
 30
0.0
210
0.0
220
0.0
230
1.0
  2
SOLID
 70
     1
 71
     0
 91
        1
 92
        1
 93
        3
 72
     1
 10
19.31821512221757
 20
5.08750020780411
 11
18.15154841953976
 21
5.08750020780411
 72
     1
 10
18.15154841953976
 20
5.08750020780411
 11
18.73488177087866
 21
1.587500099770692
 72
     1
 10
18.73488177087866
 20
1.587500099770691
 11
19.31821512221757
 21
5.08750020780411
 97
        0
 75
     0
 76
     1
 98
        0
  0
LINE
  5
105
330
102
100
AcDbEntity
  8
SK2
  6
Continuous
 62
   136
100
AcDbLine
 10
9.859788348
 20
-1.5874999002
 30
0.0
 11
20.4848818249
 21
-1.5874999002
 31
0.0
  0
LINE
  5
106
330
102
100
AcDbEntity
  8
SK2
  6
Continuous
 62
   136
100
AcDbLine
 10
9.859788348
 20
1.5875000998
 30
0.0
 11
20.4848818249
 21
1.5875000998
 31
0.0
  0
LINE
  5
107
330
102
100
AcDbEntity
  8
SK2
  6
Continuous
 62
   136
100
AcDbLine
 10
18.7348817709
 20
-8.5875001163
 30
0.0
 11
18.7348817709
 21
19.2832359686
 31
0.0
  0
TEXT
  5
108
330
102
100
AcDbEntity
  8
SK2
  6
Continuous
 62
   136
100
AcDbText
 10
17.8598817709
 20
11.9332357369
 30
0.0
 40
3.5
  1
3,18
 50
90.0
  7
SEACAD_Solid_Edge_ISO
 11
14.3598817709
 21
11.9332357369
 31
0.0
100
AcDbText
 73
     3
  0
TEXT
  5
109
330
102
100
AcDbEntity
  8
SK2
  6
Continuous
 62
   136
100
AcDbText
 10
17.8598817709
 20
7.8605084642
 30
0.0
 40
3.5
  1
ø
 50
90.0
  7
SEACAD_Solid_Edge_ISO
 11
14.3598817709
 21
7.8605084642
 31
0.0
100
AcDbText
 73
     3
  0
ENDBLK
  5
10B
330
102
100
AcDbEntity
  8
0
100
AcDbBlockEnd
  0
BLOCK
  5
115
330
10D
100
AcDbEntity
  8
0
100
AcDbBlockBegin
  2
DMBLK78
 70
     0
 10
0.0
 20
0.0
 30
0.0
  3
DMBLK78
  1

  0
HATCH
  5
10E
330
10D
100
AcDbEntity
  8
SK2
  6
Continuous
 62
   136
100
AcDbHatch
 10
0.0
 20
0.0
 30
0.0
210
0.0
220
0.0
230
1.0
  2
SOLID
 70
     1
 71
     0
 91
        1
 92
        1
 93
        3
 72
     1
 10
-24.56716393741469
 20
4.499704365938686
 11
-23.40049723473688
 21
4.499704365938686
 72
     1
 10
-23.40049723473688
 20
4.499704365938686
 11
-23.98383058607578
 21
7.999704473972105
 72
     1
 10
-23.98383058607578
 20
7.999704473972105
 11
-24.56716393741469
 21
4.499704365938686
 97
        0
 75
     0
 76
     1
 98
        0
  0
HATCH
  5
10F
330
10D
100
AcDbEntity
  8
SK2
  6
Continuous
 62
   136
100
AcDbHatch
 10
0.0
 20
0.0
 30
0.0
210
0.0
220
0.0
230
1.0
  2
SOLID
 70
     1
 71
     0
 91
        1
 92
        1
 93
        3
 72
     1
 10
-24.56716393741469
 20
-4.499703856796242
 11
-23.98383058607578
 21
-7.999703964829661
 72
     1
 10
-23.98383058607578
 20
-7.999703964829661
 11
-23.40049723473688
 21
-4.499703856796242
 72
     1
 10
-23.40049723473688
 20
-4.499703856796242
 11
-24.56716393741469
 21
-4.499703856796242
 97
        0
 75
     0
 76
     1
 98
        0
  0
LINE
  5
110
330
10D
100
AcDbEntity
  8
SK2
  6
Continuous
 62
   136
100
AcDbLine
 10
0.0
 20
7.999704474
 30
0.0
 11
-25.7338306401
 21
7.999704474
 31
0.0
  0
LINE
  5
111
330
10D
100
AcDbEntity
  8
SK2
  6
Continuous
 62
   136
100
AcDbLine
 10
0.0
 20
-7.9997042744
 30
0.0
 11
-25.7338306401
 21
-7.9997042744
 31
0.0
  0
LINE
  5
112
330
10D
100
AcDbEntity
  8
SK2
  6
Continuous
 62
   136
100
AcDbLine
 10
-23.9838305861
 20
7.999704474
 30
0.0
 11
-23.9838305861
 21
-7.9997039648
 31
0.0
  0
TEXT
  5
113
330
10D
100
AcDbEntity
  8
SK2
  6
Continuous
 62
   136
100
AcDbText
 10
-24.8588305861
 20
0.2465911637
 30
0.0
 40
3.5
  1
16
 50
90.0
  7
SEACAD_Solid_Edge_ISO
 11
-28.3588305861
 21
0.2465911637
 31
0.0
100
AcDbText
 73
     3
  0
TEXT
  5
114
330
10D
100
AcDbEntity
  8
SK2
  6
Continuous
 62
   136
100
AcDbText
 10
-24.8588305861
 20
-3.8261361091
 30
0.0
 40
3.5
  1
ø
 50
90.0
  7
SEACAD_Solid_Edge_ISO
 11
-28.3588305861
 21
-3.8261361091
 31
0.0
100
AcDbText
 73
     3
  0
ENDBLK
  5
116
330
10D
100
AcDbEntity
  8
0
100
AcDbBlockEnd
  0
BLOCK
  5
11F
330
117
100
AcDbEntity
  8
0
100
AcDbBlockBegin
  2
Nullpunkt
 70
     0
 10
0.0
 20
0.0
 30
0.0
  3
Nullpunkt
  1

  0
HATCH
  5
118
330
117
100
AcDbEntity
  8
SK2
  6
Continuous
 62
     7
100
AcDbHatch
 10
0.0
 20
0.0
 30
0.0
210
0.0
220
0.0
230
1.0
  2
SOLID
 70
     1
 71
     0
 91
        1
 92
        1
 93
        3
 72
     1
 10
-1.0
 20
0.0
 11
0.0000000000000009
 21
0.0
 72
     1
 10
0.0
 20
0.0
 11
0.0
 21
1.000000000000001
 72
     2
 10
0.0
 20
0.0
 40
1.0
 50
90.0
 51
180.0
 73
     1
 97
        0
 75
     0
 76
     1
 98
        0
  0
HATCH
  5
119
330
117
100
AcDbEntity
  8
SK2
  6
Continuous
 62
     7
100
AcDbHatch
 10
0.0
 20
0.0
 30
0.0
210
0.0
220
0.0
230
1.0
  2
SOLID
 70
     1
 71
     0
 91
        1
 92
        1
 93
        3
 72
     2
 10
0.0
 20
0.0
 40
1.0
 50
270.0
 51
360.0
 73
     1
 72
     1
 10
1.0
 20
0.0
 11
-0.0000000000000009
 21
0.0
 72
     1
 10
0.0
 20
0.0
 11
0.0
 21
-1.000000000000001
 97
        0
 75
     0
 76
     1
 98
        0
  0
CIRCLE
  5
11A
330
117
100
AcDbEntity
  8
SK2
  6
Continuous
 62
     7
100
AcDbCircle
 10
0.0
 20
0.0
 30
0.0
 40
1.0
  0
LINE
  5
11B
330
117
100
AcDbEntity
  8
SK1
  6
Continuous
100
AcDbLine
 10
-1.0
 20
0.0
 30
0.0
 11
1.0
 21
0.0
 31
0.0
  0
LINE
  5
11C
330
117
100
AcDbEntity
  8
SK1
  6
Continuous
100
AcDbLine
 10
0.0
 20
1.0
 30
0.0
 11
0.0
 21
-1.0
 31
0.0
  0
POINT
  5
11D
330
117
100
AcDbEntity
  8
SK1
  6
Continuous
100
AcDbPoint
 10
0.0
 20
0.0
 30
0.0
  0
POINT
  5
11E
330
117
100
AcDbEntity
  8
SK1
  6
Continuous
100
AcDbPoint
 10
0.0
 20
0.0
 30
0.0
  0
ENDBLK
  5
120
330
117
100
AcDbEntity
  8
0
100
AcDbBlockEnd
  0
BLOCK
  5
12A
330
122
100
AcDbEntity
  8
0
100
AcDbBlockBegin
  2
Einfügepunkt
 70
     0
 10
0.0
 20
0.0
 30
0.0
  3
Einfügepunkt
  1

  0
HATCH
  5
123
330
122
100
AcDbEntity
  8
SK2
  6
Continuous
 62
     7
100
AcDbHatch
 10
0.0
 20
0.0
 30
0.0
210
0.0
220
0.0
230
1.0
  2
SOLID
 70
     1
 71
     0
 91
        1
 92
        1
 93
        3
 72
     1
 10
-0.4502381196756744
 20
-0.0000000000000018
 11
0.0000000000000033
 21
-0.0000000000000018
 72
     1
 10
0.0
 20
-0.0000000000000018
 11
0.0
 21
0.4502381196756812
 72
     2
 10
0.0
 20
-0.0000000000000018
 40
0.4502381196756812
 50
90.0
 51
180.0
 73
     1
 97
        0
 75
     0
 76
     1
 98
        0
  0
HATCH
  5
124
330
122
100
AcDbEntity
  8
SK2
  6
Continuous
 62
     7
100
AcDbHatch
 10
0.0
 20
0.0
 30
0.0
210
0.0
220
0.0
230
1.0
  2
SOLID
 70
     1
 71
     0
 91
        1
 92
        1
 93
        3
 72
     2
 10
0.0
 20
-0.0000000000000018
 40
0.4502381196756812
 50
270.0
 51
360.0
 73
     1
 72
     1
 10
0.4502381196756815
 20
-0.0000000000000018
 11
0.0000000000000038
 21
-0.0000000000000018
 72
     1
 10
0.0
 20
-0.0000000000000018
 11
0.0
 21
-0.4502381196756812
 97
        0
 75
     0
 76
     1
 98
        0
  0
CIRCLE
  5
125
330
122
100
AcDbEntity
  8
SK2
  6
Continuous
 62
     7
100
AcDbCircle
 10
0.0
 20
0.0
 30
0.0
 40
0.4502381196756812
  0
LINE
  5
126
330
122
100
AcDbEntity
  8
SK1
  6
Continuous
100
AcDbLine
 10
-0.4502381197
 20
0.0
 30
0.0
 11
0.4502381197
 21
0.0
 31
0.0
  0
LINE
  5
127
330
122
100
AcDbEntity
  8
SK1
  6
Continuous
100
AcDbLine
 10
0.0
 20
0.4502381197
 30
0.0
 11
0.0
 21
-0.4502381197
 31
0.0
  0
POINT
  5
128
330
122
100
AcDbEntity
  8
SK2
  6
Continuous
 62
     7
100
AcDbPoint
 10
0.0
 20
0.0
 30
0.0
  0
POINT
  5
129
330
122
100
AcDbEntity
  8
SK2
  6
Continuous
 62
     7
100
AcDbPoint
 10
0.0
 20
0.0
 30
0.0
  0
ENDBLK
  5
12B
330
122
100
AcDbEntity
  8
0
100
AcDbBlockEnd
  0
ENDSEC
  0
SECTION
  2
ENTITIES
  0
LINE
  5
40
330
1F
100
AcDbEntity
  8
SK1
  6
Continuous
100
AcDbLine
 10
10.2597883481
 20
6.1712614557
 30
0.0
 11
10.259788348
 21
4.5369354346
 31
0.0
  0
LINE
  5
41
330
1F
100
AcDbEntity
  8
SK1
  6
Continuous
100
AcDbLine
 10
10.1704852505
 20
6.3627725665
 30
0.0
 11
10.1704852505
 21
4.6724621412
 31
0.0
  0
LINE
  5
42
330
1F
100
AcDbEntity
  8
SK1
  6
Continuous
100
AcDbLine
 10
6.059788348
 20
6.9000000998
 30
0.0
 11
6.059788348
 21
5.0526100572
 31
0.0
  0
LINE
  5
43
330
1F
100
AcDbEntity
  8
SK1
  6
Continuous
100
AcDbLine
 10
3.759788348
 20
6.9000000998
 30
0.0
 11
3.759788348
 21
5.0526100572
 31
0.0
  0
LINE
  5
44
330
1F
100
AcDbEntity
  8
SK1
  6
Continuous
100
AcDbLine
 10
3.2180364178
 20
6.1506070222
 30
0.0
 11
3.2180364178
 21
8.4519699982
 31
0.0
  0
LINE
  5
45
330
1F
100
AcDbEntity
  8
SK1
  6
Continuous
100
AcDbLine
 10
6.259788348
 20
8.3700000998
 30
0.0
 11
6.259788348
 21
6.0926199302
 31
0.0
  0
LINE
  5
46
330
1F
100
AcDbEntity
  8
SK1
  6
Continuous
100
AcDbLine
 10
6.701461304
 20
8.3700000998
 30
0.0
 11
6.701461304
 21
6.0926199302
 31
0.0
  0
LINE
  5
47
330
1F
100
AcDbEntity
  8
SK1
  6
Continuous
100
AcDbLine
 10
6.701461304
 20
-6.0926197307
 30
0.0
 11
6.701461304
 21
-8.3699999002
 31
0.0
  0
LINE
  5
48
330
1F
100
AcDbEntity
  8
SK1
  6
Continuous
100
AcDbLine
 10
6.259788348
 20
-6.0926197307
 30
0.0
 11
6.259788348
 21
-8.3699999002
 31
0.0
  0
LINE
  5
49
330
1F
100
AcDbEntity
  8
SK1
  6
Continuous
100
AcDbLine
 10
6.701461304
 20
6.0926199302
 30
0.0
 11
6.259788348
 21
6.0926199302
 31
0.0
  0
LINE
  5
4A
330
1F
100
AcDbEntity
  8
SK1
  6
Continuous
100
AcDbLine
 10
6.701461304
 20
5.7390665396
 30
0.0
 11
6.259788348
 21
5.7390665396
 31
0.0
  0
LINE
  5
4B
330
1F
100
AcDbEntity
  8
SK1
  6
Continuous
100
AcDbLine
 10
3.559788348
 20
5.5868907438
 30
0.0
 11
3.559788348
 21
-5.5868905442
 31
0.0
  0
LINE
  5
4C
330
1F
100
AcDbEntity
  8
SK1
  6
Continuous
100
AcDbLine
 10
3.2180364178
 20
-6.1506068226
 30
0.0
 11
3.2180364178
 21
-8.4519697987
 31
0.0
  0
LINE
  5
4D
330
1F
100
AcDbEntity
  8
SK1
  6
Continuous
100
AcDbLine
 10
10.1704852505
 20
-4.6724619417
 30
0.0
 11
10.1704852505
 21
-6.362772367
 31
0.0
  0
LINE
  5
4E
330
1F
100
AcDbEntity
  8
SK1
  6
Continuous
100
AcDbLine
 10
10.1537301993
 20
4.3288577416
 30
0.0
 11
10.1537301993
 21
-4.3288575421
 31
0.0
  0
LINE
  5
4F
330
1F
100
AcDbEntity
  8
SK1
  6
Continuous
100
AcDbLine
 10
10.259788348
 20
-6.1712612562
 30
0.0
 11
10.259788348
 21
-4.536935235
 31
0.0
  0
LINE
  5
50
330
1F
100
AcDbEntity
  8
SK1
  6
Continuous
100
AcDbLine
 10
6.059788348
 20
-6.8999999002
 30
0.0
 11
6.059788348
 21
-5.0526098576
 31
0.0
  0
LINE
  5
51
330
1F
100
AcDbEntity
  8
SK1
  6
Continuous
100
AcDbLine
 10
3.759788348
 20
-5.0526098576
 30
0.0
 11
3.759788348
 21
-6.8999999002
 31
0.0
  0
SPLINE
  5
54
330
1F
100
AcDbEntity
  8
SK3
100
AcDbSpline
210
0.0
220
0.0
230
1.0
 70
     8
 71
     3
 72
    10
 73
     6
 74
     0
 42
0.0000000179891967
 43
0.0000000001
 12
1.0
 22
0.0
 32
0.0
 13
1.0
 23
0.0
 33
0.0
 40
0.0
 40
0.0
 40
0.0
 40
0.0
 40
0.5
 40
0.5
 40
1.0
 40
1.0
 40
1.0
 40
1.0
 10
9.859788348048559
 20
1.285301997757825
 30
0.0
 10
9.965595080173724
 20
1.285301997757825
 30
0.0
 10
10.06945990585217
 20
1.316575012870307
 30
0.0
 10
10.21708104032073
 20
1.422577779361179
 30
0.0
 10
10.25978834804856
 20
1.496405518068019
 30
0.0
 10
10.25978834804856
 20
1.570989162319896
 30
0.0
  0
LINE
  5
55
330
1F
100
AcDbEntity
  8
SK1
  6
Continuous
100
AcDbLine
 10
10.2597883481
 20
4.183382044
 30
0.0
 11
10.2597883481
 21
4.5369354346
 31
0.0
  0
ARC
  5
56
330
1F
100
AcDbEntity
  8
SK1
  6
Continuous
100
AcDbCircle
 10
10.0974118269
 20
4.5271258507
 30
0.0
 40
0.1626725624471733
100
AcDbArc
 50
3.4571838191
 51
63.3072734582
  0
LINE
  5
57
330
1F
100
AcDbEntity
  8
SK1
  6
Continuous
100
AcDbLine
 10
10.1704852505
 20
4.6724621412
 30
0.0
 11
10.1537301993
 21
4.6824111322
 31
0.0
  0
LINE
  5
58
330
1F
100
AcDbEntity
  8
SK1
  6
Continuous
100
AcDbLine
 10
10.1537301993
 20
4.6824111322
 30
0.0
 11
6.701461304
 21
6.0926199302
 31
0.0
  0
LINE
  5
59
330
1F
100
AcDbEntity
  8
SK1
  6
Continuous
100
AcDbLine
 10
6.259788348
 20
6.0926199302
 30
0.0
 11
6.259788348
 21
5.7390665396
 31
0.0
  0
SPLINE
  5
5A
330
1F
100
AcDbEntity
  8
SK1
  6
Continuous
100
AcDbSpline
210
0.0
220
0.0
230
1.0
 70
     8
 71
     3
 72
    10
 73
     6
 74
     0
 42
0.000000036096425
 43
0.0000000001
 12
1.0
 22
0.0
 32
0.0
 13
1.0
 23
0.0
 33
0.0
 40
0.0
 40
0.0
 40
0.0
 40
0.0
 40
0.5
 40
0.5
 40
1.0
 40
1.0
 40
1.0
 40
1.0
 10
6.259788348048552
 20
5.194121710458344
 30
0.0
 10
6.259788348048554
 20
5.156786404915017
 30
0.0
 10
6.238147691174287
 20
5.120226551986494
 30
0.0
 10
6.164445885967751
 20
5.068013556942743
 30
0.0
 10
6.112503014717396
 20
5.05261005718777
 30
0.0
 10
6.059788348048554
 20
5.05261005718777
 30
0.0
  0
LINE
  5
5B
330
1F
100
AcDbEntity
  8
SK1
  6
Continuous
100
AcDbLine
 10
6.059788348
 20
5.0526100572
 30
0.0
 11
3.759788348
 21
5.0526100572
 31
0.0
  0
SPLINE
  5
5C
330
1F
100
AcDbEntity
  8
SK1
  6
Continuous
100
AcDbSpline
210
0.0
220
0.0
230
1.0
 70
     8
 71
     3
 72
    10
 73
     6
 74
     0
 42
0.0000000361072764
 43
0.0000000001
 12
1.0
 22
0.0
 32
0.0
 13
1.0
 23
0.0
 33
0.0
 40
0.0
 40
0.0
 40
0.0
 40
0.0
 40
0.5
 40
0.5
 40
1.0
 40
1.0
 40
1.0
 40
1.0
 10
3.759788348048557
 20
5.052610057187771
 30
0.0
 10
3.707679311339549
 20
5.052610057187768
 30
0.0
 10
3.655066273514941
 20
5.068028853398363
 30
0.0
 10
3.581328873360111
 20
5.120327980354695
 30
0.0
 10
3.559788348048193
 20
5.157261274288549
 30
0.0
 10
3.559788348040473
 20
5.194121710459096
 30
0.0
  0
LINE
  5
5D
330
1F
100
AcDbEntity
  8
SK1
  6
Continuous
100
AcDbLine
 10
3.559788348
 20
5.5868907438
 30
0.0
 11
3.559788348
 21
5.9404441343
 31
0.0
  0
SPLINE
  5
5E
330
1F
100
AcDbEntity
  8
SK1
  6
Continuous
100
AcDbSpline
210
0.0
220
0.0
230
1.0
 70
     8
 71
     3
 72
    10
 73
     6
 74
     0
 42
0.0000000217507907
 43
0.0000000001
 12
1.0
 22
0.0
 32
0.0
 13
1.0
 23
0.0
 33
0.0
 40
0.0
 40
0.0
 40
0.0
 40
0.0
 40
0.5
 40
0.5
 40
1.0
 40
1.0
 40
1.0
 40
1.0
 10
3.559788348048562
 20
5.940444134343726
 30
0.0
 10
3.559788348048571
 20
6.000788862992052
 30
0.0
 10
3.521355655258186
 20
6.060743633154392
 30
0.0
 10
3.39216017715385
 20
6.140300392523381
 30
0.0
 10
3.302433969389714
 20
6.158997900935177
 30
0.0
 10
3.218036417760423
 20
6.150607022171618
 30
0.0
  0
LINE
  5
5F
330
1F
100
AcDbEntity
  8
SK1
  6
Continuous
100
AcDbLine
 10
3.2180364178
 20
6.1506070222
 30
0.0
 11
-9.9838475767
 21
4.8379024285
 31
0.0
  0
SPLINE
  5
60
330
1F
100
AcDbEntity
  8
SK3
100
AcDbSpline
210
0.0
220
0.0
230
1.0
 70
     8
 71
     3
 72
    10
 73
     6
 74
     0
 42
0.0000000179891967
 43
0.0000000001
 12
1.0
 22
0.0
 32
0.0
 13
1.0
 23
0.0
 33
0.0
 40
0.0
 40
0.0
 40
0.0
 40
0.0
 40
0.5
 40
0.5
 40
1.0
 40
1.0
 40
1.0
 40
1.0
 10
9.859788348048559
 20
0.931748607164551
 30
0.0
 10
9.965595080173724
 20
0.9317486071645518
 30
0.0
 10
10.06945990585217
 20
0.9630216222770339
 30
0.0
 10
10.21708104032073
 20
1.069024388767906
 30
0.0
 10
10.25978834804856
 20
1.142852127474745
 30
0.0
 10
10.25978834804856
 20
1.217435771726622
 30
0.0
  0
ARC
  5
61
330
1F
100
AcDbEntity
  8
SK1
  6
Continuous
100
AcDbCircle
 10
10.0974118269
 20
4.1735724601
 30
0.0
 40
0.1626725624471733
100
AcDbArc
 50
3.4571838191
 51
63.3072734582
  0
LINE
  5
62
330
1F
100
AcDbEntity
  8
SK1
  6
Continuous
100
AcDbLine
 10
10.1704852505
 20
4.3189087506
 30
0.0
 11
10.1537301993
 21
4.3288577416
 31
0.0
  0
LINE
  5
63
330
1F
100
AcDbEntity
  8
SK1
  6
Continuous
100
AcDbLine
 10
10.1537301993
 20
4.3288577416
 30
0.0
 11
6.701461304
 21
5.7390665396
 31
0.0
  0
SPLINE
  5
64
330
1F
100
AcDbEntity
  8
SK1
  6
Continuous
100
AcDbSpline
210
0.0
220
0.0
230
1.0
 70
     8
 71
     3
 72
    10
 73
     6
 74
     0
 42
0.000000036096425
 43
0.0000000001
 12
1.0
 22
0.0
 32
0.0
 13
1.0
 23
0.0
 33
0.0
 40
0.0
 40
0.0
 40
0.0
 40
0.0
 40
0.5
 40
0.5
 40
1.0
 40
1.0
 40
1.0
 40
1.0
 10
6.259788348048552
 20
4.840568319865071
 30
0.0
 10
6.259788348048554
 20
4.803233014321743
 30
0.0
 10
6.238147691174287
 20
4.766673161393221
 30
0.0
 10
6.164445885967751
 20
4.714460166349469
 30
0.0
 10
6.112503014717396
 20
4.699056666594496
 30
0.0
 10
6.059788348048554
 20
4.699056666594497
 30
0.0
  0
LINE
  5
65
330
1F
100
AcDbEntity
  8
SK1
  6
Continuous
100
AcDbLine
 10
6.059788348
 20
4.6990566666
 30
0.0
 11
3.759788348
 21
4.6990566666
 31
0.0
  0
SPLINE
  5
66
330
1F
100
AcDbEntity
  8
SK1
  6
Continuous
100
AcDbSpline
210
0.0
220
0.0
230
1.0
 70
     8
 71
     3
 72
    10
 73
     6
 74
     0
 42
0.0000000361072764
 43
0.0000000001
 12
1.0
 22
0.0
 32
0.0
 13
1.0
 23
0.0
 33
0.0
 40
0.0
 40
0.0
 40
0.0
 40
0.0
 40
0.5
 40
0.5
 40
1.0
 40
1.0
 40
1.0
 40
1.0
 10
3.759788348048557
 20
4.699056666594498
 30
0.0
 10
3.707679311339549
 20
4.699056666594496
 30
0.0
 10
3.655066273514941
 20
4.71447546280509
 30
0.0
 10
3.581328873360111
 20
4.766774589761421
 30
0.0
 10
3.559788348048193
 20
4.803707883695276
 30
0.0
 10
3.559788348040473
 20
4.840568319865822
 30
0.0
  0
SPLINE
  5
67
330
1F
100
AcDbEntity
  8
SK1
  6
Continuous
100
AcDbSpline
210
0.0
220
0.0
230
1.0
 70
     8
 71
     3
 72
    10
 73
     6
 74
     0
 42
0.0000000217507907
 43
0.0000000001
 12
1.0
 22
0.0
 32
0.0
 13
1.0
 23
0.0
 33
0.0
 40
0.0
 40
0.0
 40
0.0
 40
0.0
 40
0.5
 40
0.5
 40
1.0
 40
1.0
 40
1.0
 40
1.0
 10
3.559788348048562
 20
5.586890743750452
 30
0.0
 10
3.559788348048571
 20
5.647235472398778
 30
0.0
 10
3.521355655258186
 20
5.707190242561118
 30
0.0
 10
3.39216017715385
 20
5.786747001930106
 30
0.0
 10
3.302433969389714
 20
5.805444510341903
 30
0.0
 10
3.218036417760423
 20
5.797053631578344
 30
0.0
  0
LINE
  5
68
330
1F
100
AcDbEntity
  8
SK1
  6
Continuous
100
AcDbLine
 10
3.2180364178
 20
5.7970536316
 30
0.0
 11
-9.9838475767
 21
4.4843490379
 31
0.0
  0
LINE
  5
69
330
1F
100
AcDbEntity
  8
SK1
  6
Continuous
100
AcDbLine
 10
3.559788348
 20
5.9404441343
 30
0.0
 11
3.559788348
 21
8.1548895776
 31
0.0
  0
LINE
  5
6A
330
1F
100
AcDbEntity
  8
SK1
  6
Continuous
100
AcDbLine
 10
10.1537301993
 20
4.6824111322
 30
0.0
 11
10.1537301993
 21
6.3768317237
 31
0.0
  0
LINE
  5
6B
330
1F
100
AcDbEntity
  8
SK1
  6
Continuous
100
AcDbLine
 10
6.259788348
 20
-5.7390663401
 30
0.0
 11
6.259788348
 21
5.7390665396
 31
0.0
  0
LINE
  5
6C
330
1F
100
AcDbEntity
  8
SK1
  6
Continuous
100
AcDbLine
 10
6.701461304
 20
-5.7390663401
 30
0.0
 11
6.701461304
 21
5.7390665396
 31
0.0
  0
LINE
  5
6D
330
1F
100
AcDbEntity
  8
SK1
  6
Continuous
100
AcDbLine
 10
3.2180364178
 20
-5.797053432
 30
0.0
 11
3.2180364178
 21
5.7970536316
 31
0.0
  0
LINE
  5
6E
330
1F
100
AcDbEntity
  8
SK1
  6
Continuous
100
AcDbLine
 10
3.559788348
 20
-5.9404439348
 30
0.0
 11
3.559788348
 21
-8.1548893781
 31
0.0
  0
LINE
  5
6F
330
1F
100
AcDbEntity
  8
SK1
  6
Continuous
100
AcDbLine
 10
10.1537301993
 20
-6.3768315242
 30
0.0
 11
10.1537301993
 21
-4.6824109327
 31
0.0
  0
LINE
  5
70
330
1F
100
AcDbEntity
  8
SK1
  6
Continuous
100
AcDbLine
 10
10.1704852505
 20
-4.3189085511
 30
0.0
 11
10.1704852505
 21
4.3189087506
 31
0.0
  0
LINE
  5
71
330
1F
100
AcDbEntity
  8
SK1
  6
Continuous
100
AcDbLine
 10
10.2597883481
 20
-4.1833818444
 30
0.0
 11
10.259788348
 21
4.183382044
 31
0.0
  0
LINE
  5
72
330
1F
100
AcDbEntity
  8
SK1
  6
Continuous
100
AcDbLine
 10
6.059788348
 20
-4.6990564671
 30
0.0
 11
6.059788348
 21
4.6990566666
 31
0.0
  0
LINE
  5
73
330
1F
100
AcDbEntity
  8
SK1
  6
Continuous
100
AcDbLine
 10
3.759788348
 20
-4.6990564671
 30
0.0
 11
3.759788348
 21
4.6990566666
 31
0.0
  0
SPLINE
  5
74
330
1F
100
AcDbEntity
  8
SK3
100
AcDbSpline
210
0.0
220
0.0
230
1.0
 70
     8
 71
     3
 72
    10
 73
     6
 74
     0
 42
0.0000000179901068
 43
0.0000000001
 12
1.0
 22
0.0
 32
0.0
 13
1.0
 23
0.0
 33
0.0
 40
0.0
 40
0.0
 40
0.0
 40
0.0
 40
0.5
 40
0.5
 40
1.0
 40
1.0
 40
1.0
 40
1.0
 10
10.25978834804856
 20
-1.217435572185225
 30
0.0
 10
10.25978834804856
 20
-1.143359645412954
 30
0.0
 10
10.21740684607508
 20
-1.069183420514576
 30
0.0
 10
10.06873739251977
 20
-0.9625775261264173
 30
0.0
 10
9.964536981762484
 20
-0.9317484076234976
 30
0.0
 10
9.859788348049705
 20
-0.9317484076131007
 30
0.0
  0
LINE
  5
75
330
1F
100
AcDbEntity
  8
SK3
100
AcDbLine
 10
9.859788348
 20
-0.9317484076
 30
0.0
 11
-10.3977804605
 21
-0.9317484076
 31
0.0
  0
SPLINE
  5
76
330
1F
100
AcDbEntity
  8
SK1
  6
Continuous
100
AcDbSpline
210
0.0
220
0.0
230
1.0
 70
     8
 71
     3
 72
    10
 73
     6
 74
     0
 42
0.0000000217510525
 43
0.0000000001
 12
1.0
 22
0.0
 32
0.0
 13
1.0
 23
0.0
 33
0.0
 40
0.0
 40
0.0
 40
0.0
 40
0.0
 40
0.5
 40
0.5
 40
1.0
 40
1.0
 40
1.0
 40
1.0
 10
3.218036417760537
 20
-5.797053432031909
 30
0.0
 10
3.302290801022098
 20
-5.805430076875788
 30
0.0
 10
3.392643711136042
 20
-5.786473011342687
 30
0.0
 10
3.521008022371213
 20
-5.707380122702195
 30
0.0
 10
3.559788348048563
 20
-5.647701662432762
 30
0.0
 10
3.559788348048562
 20
-5.586890544209055
 30
0.0
  0
SPLINE
  5
77
330
1F
100
AcDbEntity
  8
SK1
  6
Continuous
100
AcDbSpline
210
0.0
220
0.0
230
1.0
 70
     8
 71
     3
 72
    10
 73
     6
 74
     0
 42
0.0000000360964285
 43
0.0000000001
 12
1.0
 22
0.0
 32
0.0
 13
1.0
 23
0.0
 33
0.0
 40
0.0
 40
0.0
 40
0.0
 40
0.0
 40
0.5
 40
0.5
 40
1.0
 40
1.0
 40
1.0
 40
1.0
 10
3.559788348048281
 20
-4.840568120323691
 30
0.0
 10
3.559788348048542
 20
-4.80362851544821
 30
0.0
 10
3.581077198259431
 20
-4.766883967120187
 30
0.0
 10
3.655687555794283
 20
-4.714103880605142
 30
0.0
 10
3.707585303498582
 20
-4.699056467053098
 30
0.0
 10
3.759788348048557
 20
-4.6990564670531
 30
0.0
  0
LINE
  5
78
330
1F
100
AcDbEntity
  8
SK1
  6
Continuous
100
AcDbLine
 10
3.759788348
 20
-4.6990564671
 30
0.0
 11
6.059788348
 21
-4.6990564671
 31
0.0
  0
SPLINE
  5
79
330
1F
100
AcDbEntity
  8
SK1
  6
Continuous
100
AcDbSpline
210
0.0
220
0.0
230
1.0
 70
     8
 71
     3
 72
    10
 73
     6
 74
     0
 42
0.0000000361076875
 43
0.0000000001
 12
1.0
 22
0.0
 32
0.0
 13
1.0
 23
0.0
 33
0.0
 40
0.0
 40
0.0
 40
0.0
 40
0.0
 40
0.5
 40
0.5
 40
1.0
 40
1.0
 40
1.0
 40
1.0
 10
6.059788348048423
 20
-4.699056467052249
 30
0.0
 10
6.111976371122527
 20
-4.699056467053059
 30
0.0
 10
6.164184630683345
 20
-4.714354216056176
 30
0.0
 10
6.237980273840797
 20
-4.766475485432382
 30
0.0
 10
6.259788348048561
 20
-4.803689547644966
 30
0.0
 10
6.259788348048552
 20
-4.840568120323674
 30
0.0
  0
LINE
  5
7A
330
1F
100
AcDbEntity
  8
SK1
  6
Continuous
100
AcDbLine
 10
6.259788348
 20
-5.7390663401
 30
0.0
 11
6.701461304
 21
-5.7390663401
 31
0.0
  0
SPLINE
  5
7B
330
1F
100
AcDbEntity
  8
SK1
  6
Continuous
100
AcDbSpline
210
0.0
220
0.0
230
1.0
 70
     8
 71
     3
 72
     8
 73
     4
 74
     0
 42
0.0000000026815483
 43
0.0000000001
 12
1.0
 22
0.0
 32
0.0
 13
1.0
 23
0.0
 33
0.0
 40
0.0
 40
0.0
 40
0.0
 40
0.0
 40
1.0
 40
1.0
 40
1.0
 40
1.0
 10
6.701461303978627
 20
-5.739066340107904
 30
0.0
 10
7.852257804773774
 20
-5.269045929087586
 30
0.0
 10
9.003026700834837
 20
-4.798991712100026
 30
0.0
 10
10.15373019933771
 20
-4.328857542082207
 30
0.0
  0
LINE
  5
7C
330
1F
100
AcDbEntity
  8
SK1
  6
Continuous
100
AcDbLine
 10
10.1537301993
 20
-4.3288575421
 30
0.0
 11
10.1704852505
 21
-4.3189085511
 31
0.0
  0
ARC
  5
7D
330
1F
100
AcDbEntity
  8
SK1
  6
Continuous
100
AcDbCircle
 10
10.0974266235
 20
-4.1735820106
 30
0.0
 40
0.162657205020409
100
AcDbArc
 50
296.6896126694
 51
356.5459300535
  0
SPLINE
  5
7E
330
1F
100
AcDbEntity
  8
SK3
100
AcDbSpline
210
0.0
220
0.0
230
1.0
 70
     8
 71
     3
 72
    10
 73
     6
 74
     0
 42
0.0000000179901068
 43
0.0000000001
 12
1.0
 22
0.0
 32
0.0
 13
1.0
 23
0.0
 33
0.0
 40
0.0
 40
0.0
 40
0.0
 40
0.0
 40
0.5
 40
0.5
 40
1.0
 40
1.0
 40
1.0
 40
1.0
 10
10.25978834804856
 20
-1.570988962778499
 30
0.0
 10
10.25978834804856
 20
-1.496913036006228
 30
0.0
 10
10.21740684607508
 20
-1.42273681110785
 30
0.0
 10
10.06873739251977
 20
-1.316130916719691
 30
0.0
 10
9.964536981762485
 20
-1.285301798216771
 30
0.0
 10
9.859788348049705
 20
-1.285301798206374
 30
0.0
  0
LINE
  5
7F
330
1F
100
AcDbEntity
  8
SK3
100
AcDbLine
 10
9.859788348
 20
-1.2853017982
 30
0.0
 11
-10.3977804605
 21
-1.2853017982
 31
0.0
  0
SPLINE
  5
80
330
1F
100
AcDbEntity
  8
SK1
  6
Continuous
100
AcDbSpline
210
0.0
220
0.0
230
1.0
 70
     8
 71
     3
 72
    10
 73
     6
 74
     0
 42
0.0000000217510525
 43
0.0000000001
 12
1.0
 22
0.0
 32
0.0
 13
1.0
 23
0.0
 33
0.0
 40
0.0
 40
0.0
 40
0.0
 40
0.0
 40
0.5
 40
0.5
 40
1.0
 40
1.0
 40
1.0
 40
1.0
 10
3.218036417760537
 20
-6.150606822625182
 30
0.0
 10
3.302290801022098
 20
-6.158983467469063
 30
0.0
 10
3.392643711136042
 20
-6.140026401935961
 30
0.0
 10
3.521008022371213
 20
-6.060933513295469
 30
0.0
 10
3.559788348048563
 20
-6.001255053026035
 30
0.0
 10
3.559788348048562
 20
-5.940443934802328
 30
0.0
  0
LINE
  5
81
330
1F
100
AcDbEntity
  8
SK1
  6
Continuous
100
AcDbLine
 10
3.559788348
 20
-5.9404439348
 30
0.0
 11
3.559788348
 21
-5.5868905442
 31
0.0
  0
SPLINE
  5
82
330
1F
100
AcDbEntity
  8
SK1
  6
Continuous
100
AcDbSpline
210
0.0
220
0.0
230
1.0
 70
     8
 71
     3
 72
    10
 73
     6
 74
     0
 42
0.0000000360964285
 43
0.0000000001
 12
1.0
 22
0.0
 32
0.0
 13
1.0
 23
0.0
 33
0.0
 40
0.0
 40
0.0
 40
0.0
 40
0.0
 40
0.5
 40
0.5
 40
1.0
 40
1.0
 40
1.0
 40
1.0
 10
3.559788348048281
 20
-5.194121510916966
 30
0.0
 10
3.559788348048542
 20
-5.157181906041484
 30
0.0
 10
3.581077198259431
 20
-5.12043735771346
 30
0.0
 10
3.655687555794283
 20
-5.067657271198416
 30
0.0
 10
3.707585303498582
 20
-5.052609857646372
 30
0.0
 10
3.759788348048557
 20
-5.052609857646375
 30
0.0
  0
LINE
  5
83
330
1F
100
AcDbEntity
  8
SK1
  6
Continuous
100
AcDbLine
 10
3.759788348
 20
-5.0526098576
 30
0.0
 11
6.059788348
 21
-5.0526098576
 31
0.0
  0
SPLINE
  5
84
330
1F
100
AcDbEntity
  8
SK1
  6
Continuous
100
AcDbSpline
210
0.0
220
0.0
230
1.0
 70
     8
 71
     3
 72
    10
 73
     6
 74
     0
 42
0.0000000361076875
 43
0.0000000001
 12
1.0
 22
0.0
 32
0.0
 13
1.0
 23
0.0
 33
0.0
 40
0.0
 40
0.0
 40
0.0
 40
0.0
 40
0.5
 40
0.5
 40
1.0
 40
1.0
 40
1.0
 40
1.0
 10
6.059788348048423
 20
-5.052609857645523
 30
0.0
 10
6.111976371122527
 20
-5.052609857646333
 30
0.0
 10
6.164184630683345
 20
-5.067907606649449
 30
0.0
 10
6.237980273840797
 20
-5.120028876025656
 30
0.0
 10
6.259788348048561
 20
-5.157242938238241
 30
0.0
 10
6.259788348048552
 20
-5.194121510916947
 30
0.0
  0
LINE
  5
85
330
1F
100
AcDbEntity
  8
SK1
  6
Continuous
100
AcDbLine
 10
6.259788348
 20
-5.7390663401
 30
0.0
 11
6.259788348
 21
-6.0926197307
 31
0.0
  0
LINE
  5
86
330
1F
100
AcDbEntity
  8
SK1
  6
Continuous
100
AcDbLine
 10
6.259788348
 20
-6.0926197307
 30
0.0
 11
6.701461304
 21
-6.0926197307
 31
0.0
  0
SPLINE
  5
87
330
1F
100
AcDbEntity
  8
SK1
  6
Continuous
100
AcDbSpline
210
0.0
220
0.0
230
1.0
 70
     8
 71
     3
 72
     8
 73
     4
 74
     0
 42
0.0000000026815483
 43
0.0000000001
 12
1.0
 22
0.0
 32
0.0
 13
1.0
 23
0.0
 33
0.0
 40
0.0
 40
0.0
 40
0.0
 40
0.0
 40
1.0
 40
1.0
 40
1.0
 40
1.0
 10
6.701461303978627
 20
-6.092619730701176
 30
0.0
 10
7.852257804773774
 20
-5.62259931968086
 30
0.0
 10
9.003026700834837
 20
-5.152545102693301
 30
0.0
 10
10.15373019933771
 20
-4.68241093267548
 30
0.0
  0
LINE
  5
88
330
1F
100
AcDbEntity
  8
SK1
  6
Continuous
100
AcDbLine
 10
10.1537301993
 20
-4.6824109327
 30
0.0
 11
10.1704852505
 21
-4.6724619417
 31
0.0
  0
ARC
  5
89
330
1F
100
AcDbEntity
  8
SK1
  6
Continuous
100
AcDbCircle
 10
10.0974266235
 20
-4.5271354012
 30
0.0
 40
0.1626572050204133
100
AcDbArc
 50
296.6896126694
 51
356.5459300535
  0
LINE
  5
8A
330
1F
100
AcDbEntity
  8
SK1
  6
Continuous
100
AcDbLine
 10
10.2597883481
 20
-4.536935235
 30
0.0
 11
10.2597883481
 21
-4.1833818444
 31
0.0
  0
LINE
  5
8B
330
1F
100
AcDbEntity
  8
SK3
100
AcDbLine
 10
-10.3977804605
 20
1.2853019978
 30
0.0
 11
9.859788348
 21
1.2853019978
 31
0.0
  0
ELLIPSE
  5
8C
330
1F
100
AcDbEntity
  8
SK1
  6
Continuous
100
AcDbEllipse
 10
39.3275133424
 20
0.1767767951
 30
0.0
 11
-49.75000000031755
 21
2.221508333528165E-11
 31
0.0
210
0.0
220
0.0
230
1.0
 40
0.7071067812
 41
-0.1328898242229961
 42
-0.1228149987194618
  0
SPLINE
  5
8D
330
1F
100
AcDbEntity
  8
SK3
100
AcDbSpline
210
0.0
220
0.0
230
1.0
 70
     8
 71
     3
 72
    35
 73
    31
 74
     0
 42
0.0000000147519517
 43
0.0000000001
 12
1.0
 22
0.0
 32
0.0
 13
1.0
 23
0.0
 33
0.0
 40
0.0
 40
0.0
 40
0.0
 40
0.0
 40
0.106397256979343
 40
0.106397256979343
 40
0.106397256979343
 40
0.2127549879693608
 40
0.2127549879693608
 40
0.2127549879693608
 40
0.3197367096933403
 40
0.3197367096933403
 40
0.3197367096933403
 40
0.4274606463105556
 40
0.4274606463105556
 40
0.4274606463105556
 40
0.4999872989802025
 40
0.4999872989802025
 40
0.4999872989802025
 40
0.6069418667681368
 40
0.6069418667681368
 40
0.6069418667681368
 40
0.7138590941838037
 40
0.7138590941838037
 40
0.7138590941838037
 40
0.821327696498357
 40
0.821327696498357
 40
0.821327696498357
 40
0.9289817579294702
 40
0.9289817579294702
 40
0.9289817579294702
 40
1.0
 40
1.0
 40
1.0
 40
1.0
 10
-10.39778046050982
 20
1.285301997757824
 30
0.0
 10
-10.42550371006029
 20
1.285301997757824
 30
0.0
 10
-10.45360956658931
 20
1.282497809537047
 30
0.0
 10
-10.47976357919019
 20
1.277035625225533
 30
0.0
 10
-10.50591234032633
 20
1.271574537666118
 30
0.0
 10
-10.53082808527836
 20
1.263302302611629
 30
0.0
 10
-10.55249924444068
 20
1.25268710225922
 30
0.0
 10
-10.57429671206533
 20
1.242010032136776
 30
0.0
 10
-10.59341271292666
 20
1.228659087736612
 30
0.0
 10
-10.6083102722048
 20
1.213465316836895
 30
0.0
 10
-10.62330695668782
 20
1.198170449802877
 30
0.0
 10
-10.63444119335118
 20
1.180570690463091
 30
0.0
 10
-10.64078154645679
 20
1.161942406213113
 30
0.0
 10
-10.64508371525081
 20
1.149302412532694
 30
0.0
 10
-10.64727874107027
 20
1.135997536577413
 30
0.0
 10
-10.64727874107031
 20
1.122532114904914
 30
0.0
 10
-10.64727874107036
 20
1.102827230214262
 30
0.0
 10
-10.64250741321837
 20
1.082303875201563
 30
0.0
 10
-10.63336724994948
 20
1.062747863784685
 30
0.0
 10
-10.62422890986208
 20
1.043195753190656
 30
0.0
 10
-10.61047696623187
 20
1.024079574314371
 30
0.0
 10
-10.59323276967529
 20
1.007164037236672
 30
0.0
 10
-10.5759016904267
 20
0.9901632733759667
 30
0.0
 10
-10.55456314657396
 20
0.9749267405409469
 30
0.0
 10
-10.53094798572002
 20
0.9629639309054693
 30
0.0
 10
-10.50729736614715
 20
0.9509831588302206
 30
0.0
 10
-10.48069939637424
 20
0.9419677046609292
 30
0.0
 10
-10.45337507904988
 20
0.9368724902340386
 30
0.0
 10
-10.4352020145306
 20
0.9334837263201857
 30
0.0
 10
-10.41643202923014
 20
0.9317486071645504
 30
0.0
 10
-10.39778046050982
 20
0.9317486071645501
 30
0.0
  0
SPLINE
  5
8E
330
1F
100
AcDbEntity
  8
SK1
  6
Continuous
100
AcDbSpline
210
0.0
220
0.0
230
1.0
 70
     8
 71
     3
 72
    35
 73
    31
 74
     0
 42
0.0000000144798034
 43
0.0000000001
 12
1.0
 22
0.0
 32
0.0
 13
1.0
 23
0.0
 33
0.0
 40
0.0
 40
0.0
 40
0.0
 40
0.0
 40
0.1121859067527125
 40
0.1121859067527125
 40
0.1121859067527125
 40
0.2245268140661581
 40
0.2245268140661581
 40
0.2245268140661581
 40
0.3344161427818531
 40
0.3344161427818531
 40
0.3344161427818531
 40
0.4407808148148269
 40
0.4407808148148269
 40
0.4407808148148269
 40
0.5001515774490931
 40
0.5001515774490931
 40
0.5001515774490931
 40
0.6035484910140853
 40
0.6035484910140853
 40
0.6035484910140853
 40
0.7068759051535327
 40
0.7068759051535327
 40
0.7068759051535327
 40
0.8112977769422177
 40
0.8112977769422177
 40
0.8112977769422177
 40
0.9184972697620453
 40
0.9184972697620453
 40
0.9184972697620453
 40
1.0
 40
1.0
 40
1.0
 40
1.0
 10
-9.98384757670583
 20
4.484349037896004
 30
0.0
 10
-10.01325569233076
 20
4.481424435442067
 30
0.0
 10
-10.04310065254906
 20
4.482158270592366
 30
0.0
 10
-10.07091866335211
 20
4.486545688403487
 30
0.0
 10
-10.09875872393655
 20
4.490936583875332
 30
0.0
 10
-10.12534887895484
 20
4.499122498066005
 30
0.0
 10
-10.14829711455104
 20
4.510447109043869
 30
0.0
 10
-10.17074486181664
 20
4.521524736517524
 30
0.0
 10
-10.1903451189129
 20
4.535929357168484
 30
0.0
 10
-10.20524885482228
 20
4.552400446268568
 30
0.0
 10
-10.21968180601192
 20
4.568351240516879
 30
0.0
 10
-10.23011814689671
 20
4.58669362765349
 30
0.0
 10
-10.23557288266358
 20
4.605819538801014
 30
0.0
 10
-10.23864911187826
 20
4.616605705014009
 30
0.0
 10
-10.24021165195143
 20
4.627772564343329
 30
0.0
 10
-10.24021165195143
 20
4.638999933783182
 30
0.0
 10
-10.24021165195143
 20
4.658365616172854
 30
0.0
 10
-10.23547164479768
 20
4.678341239043864
 30
0.0
 10
-10.22642351501371
 20
4.69728091199126
 30
0.0
 10
-10.21737876406948
 20
4.716213512303638
 30
0.0
 10
-10.20379057074484
 20
4.734628672293004
 30
0.0
 10
-10.18684875773149
 20
4.751108276853534
 30
0.0
 10
-10.16972414257554
 20
4.767765696327991
 30
0.0
 10
-10.14872614605809
 20
4.782895314023356
 30
0.0
 10
-10.12560160238008
 20
4.79542596134912
 30
0.0
 10
-10.10186538627915
 20
4.808288059600671
 30
0.0
 10
-10.07526747333724
 20
4.818759204852102
 30
0.0
 10
-10.04793818818485
 20
4.826147340670802
 30
0.0
 10
-10.0270395381679
 20
4.831797033441457
 30
0.0
 10
-10.00535664174227
 20
4.835763377310694
 30
0.0
 10
-9.98384757670583
 20
4.837902428489276
 30
0.0
  0
SPLINE
  5
8F
330
1F
100
AcDbEntity
  8
SK3
100
AcDbSpline
210
0.0
220
0.0
230
1.0
 70
     8
 71
     3
 72
     8
 73
     4
 74
     0
 42
0.0000004280583743
 43
0.0000000001
 12
1.0
 22
0.0
 32
0.0
 13
1.0
 23
0.0
 33
0.0
 40
0.0
 40
0.0
 40
0.0
 40
0.0
 40
1.0
 40
1.0
 40
1.0
 40
1.0
 10
-10.24021165195143
 20
-4.638999734241784
 30
0.0
 10
-10.24021165195143
 20
-4.646668055630475
 30
0.0
 10
-10.23946843774898
 20
-4.654432013252126
 30
0.0
 10
-10.23800882387141
 20
-4.662189418278782
 30
0.0
  0
LINE
  5
90
330
1F
100
AcDbEntity
  8
SK3
100
AcDbLine
 10
-10.3977804605
 20
0.9317486072
 30
0.0
 11
9.859788348
 21
0.9317486072
 31
0.0
  0
SPLINE
  5
91
330
1F
100
AcDbEntity
  8
SK3
100
AcDbSpline
210
0.0
220
0.0
230
1.0
 70
     8
 71
     3
 72
    11
 73
     7
 74
     0
 42
0.0000004239094344
 43
0.0000000001
 12
1.0
 22
0.0
 32
0.0
 13
1.0
 23
0.0
 33
0.0
 40
0.0
 40
0.0
 40
0.0
 40
0.0
 40
0.5344042963292442
 40
0.5344042963292442
 40
0.5344042963292442
 40
1.0
 40
1.0
 40
1.0
 40
1.0
 10
-10.23167415591186
 20
4.684894184470854
 30
0.0
 10
-10.23317084898455
 20
4.68089384469061
 30
0.0
 10
-10.23447311544545
 20
4.676877924439804
 30
0.0
 10
-10.23557288266358
 20
4.672860117628259
 30
0.0
 10
-10.23654095886881
 20
4.669323420855202
 30
0.0
 10
-10.23735912928593
 20
4.665771286193453
 30
0.0
 10
-10.23802587145663
 20
4.662213775896103
 30
0.0
  0
LINE
  5
92
330
1F
100
AcDbEntity
  8
SK1
  6
Continuous
100
AcDbLine
 10
-9.9838475767
 20
-4.4843488384
 30
0.0
 11
3.2180364178
 21
-5.797053432
 31
0.0
  0
SPLINE
  5
93
330
1F
100
AcDbEntity
  8
SK1
  6
Continuous
100
AcDbSpline
210
0.0
220
0.0
230
1.0
 70
     8
 71
     3
 72
    35
 73
    31
 74
     0
 42
0.0000000144803281
 43
0.0000000001
 12
1.0
 22
0.0
 32
0.0
 13
1.0
 23
0.0
 33
0.0
 40
0.0
 40
0.0
 40
0.0
 40
0.0
 40
0.1121859067527219
 40
0.1121859067527219
 40
0.1121859067527219
 40
0.2245268140661753
 40
0.2245268140661753
 40
0.2245268140661753
 40
0.3344161427818613
 40
0.3344161427818613
 40
0.3344161427818613
 40
0.4407808148148394
 40
0.4407808148148394
 40
0.4407808148148394
 40
0.500151577449095
 40
0.500151577449095
 40
0.500151577449095
 40
0.6035484910140824
 40
0.6035484910140824
 40
0.6035484910140824
 40
0.7068759051535224
 40
0.7068759051535224
 40
0.7068759051535224
 40
0.8112977769422061
 40
0.8112977769422061
 40
0.8112977769422061
 40
0.9184972697620318
 40
0.9184972697620318
 40
0.9184972697620318
 40
1.0
 40
1.0
 40
1.0
 40
1.0
 10
-9.98384757670583
 20
-4.837902228947879
 30
0.0
 10
-10.01325569233076
 20
-4.834977626493944
 30
0.0
 10
-10.04310065254906
 20
-4.828585524984272
 30
0.0
 10
-10.07091866335212
 20
-4.819159353781269
 30
0.0
 10
-10.09875872393656
 20
-4.80972571097953
 30
0.0
 10
-10.12534887895484
 20
-4.796973506351289
 30
0.0
 10
-10.14829711455105
 20
-4.781858142573918
 30
0.0
 10
-10.17074486181665
 20
-4.76707243652346
 30
0.0
 10
-10.19034511891291
 20
-4.74959027620473
 30
0.0
 10
-10.20524885482229
 20
-4.730833566179871
 30
0.0
 10
-10.21968180601193
 20
-4.712669350045539
 30
0.0
 10
-10.23011814689671
 20
-4.692787839339708
 30
0.0
 10
-10.23557288266358
 20
-4.672859918086858
 30
0.0
 10
-10.23864911187827
 20
-4.661621453720129
 30
0.0
 10
-10.24021165195143
 20
-4.650227103681637
 30
0.0
 10
-10.24021165195143
 20
-4.638999734241786
 30
0.0
 10
-10.24021165195143
 20
-4.619634051852115
 30
0.0
 10
-10.23547164479768
 20
-4.600344552070682
 30
0.0
 10
-10.22642351501371
 20
-4.582752524191744
 30
0.0
 10
-10.21737876406948
 20
-4.565167065697225
 30
0.0
 10
-10.20379057074484
 20
-4.5487993434592
 30
0.0
 10
-10.18684875773149
 20
-4.534982801560338
 30
0.0
 10
-10.16972414257554
 20
-4.521017179190551
 30
0.0
 10
-10.1487261460581
 20
-4.509283833253078
 30
0.0
 10
-10.12560160238008
 20
-4.500681564177787
 30
0.0
 10
-10.10186538627915
 20
-4.491851754579272
 30
0.0
 10
-10.07526747333725
 20
-4.486083592256271
 30
0.0
 10
-10.04793818818486
 20
-4.4837743313459
 30
0.0
 10
-10.02703953816791
 20
-4.482008444119265
 30
0.0
 10
-10.00535664174227
 20
-4.482209787176022
 30
0.0
 10
-9.98384757670583
 20
-4.484348838354606
 30
0.0
  0
SPLINE
  5
94
330
1F
100
AcDbEntity
  8
SK3
100
AcDbSpline
210
0.0
220
0.0
230
1.0
 70
     8
 71
     3
 72
    35
 73
    31
 74
     0
 42
0.000000014750658
 43
0.0000000001
 12
1.0
 22
0.0
 32
0.0
 13
1.0
 23
0.0
 33
0.0
 40
0.0
 40
0.0
 40
0.0
 40
0.0
 40
0.1063972569793435
 40
0.1063972569793435
 40
0.1063972569793435
 40
0.2127549879693617
 40
0.2127549879693617
 40
0.2127549879693617
 40
0.3197367096933416
 40
0.3197367096933416
 40
0.3197367096933416
 40
0.4274606463105574
 40
0.4274606463105574
 40
0.4274606463105574
 40
0.4999872989802046
 40
0.4999872989802046
 40
0.4999872989802046
 40
0.6069418667681393
 40
0.6069418667681393
 40
0.6069418667681393
 40
0.7138590941838089
 40
0.7138590941838089
 40
0.7138590941838089
 40
0.8213276964983585
 40
0.8213276964983585
 40
0.8213276964983585
 40
0.9289817579294761
 40
0.9289817579294761
 40
0.9289817579294761
 40
1.0
 40
1.0
 40
1.0
 40
1.0
 10
-10.39778046050982
 20
-0.9317484076231537
 30
0.0
 10
-10.42550371006029
 20
-0.9317484076231544
 30
0.0
 10
-10.45360956658931
 20
-0.9356496320384649
 30
0.0
 10
-10.47976357919019
 20
-0.9430463024419785
 30
0.0
 10
-10.50591234032633
 20
-0.9504414876678899
 30
0.0
 10
-10.53082808527836
 20
-0.9615207918944827
 30
0.0
 10
-10.55249924444068
 20
-0.9751570792503557
 30
0.0
 10
-10.57429671206533
 20
-0.9888728445185467
 30
0.0
 10
-10.59341271292666
 20
-1.00553888786541
 30
0.0
 10
-10.6083102722048
 20
-1.02355176358087
 30
0.0
 10
-10.62330695668782
 20
-1.041684493157131
 30
0.0
 10
-10.63444119335118
 20
-1.061676291461417
 30
0.0
 10
-10.64078154645679
 20
-1.081686697088383
 30
0.0
 10
-10.64508371525081
 20
-1.095264512268424
 30
0.0
 10
-10.64727874107027
 20
-1.109066493690317
 30
0.0
 10
-10.64727874107031
 20
-1.122531915362825
 30
0.0
 10
-10.64727874107036
 20
-1.142236800053488
 30
0.0
 10
-10.64250741321837
 20
-1.161665863432509
 30
0.0
 10
-10.63336724994948
 20
-1.179289279509573
 30
0.0
 10
-10.62422890986207
 20
-1.196909180257124
 30
0.0
 10
-10.61047696623187
 20
-1.213217264387116
 30
0.0
 10
-10.59323276967528
 20
-1.227100977185886
 30
0.0
 10
-10.57590169042669
 20
-1.241054641306484
 30
0.0
 10
-10.55456314657396
 20
-1.252956689714245
 30
0.0
 10
-10.53094798572002
 20
-1.262084251580756
 30
0.0
 10
-10.50729736614715
 20
-1.27122551869589
 30
0.0
 10
-10.48069939637424
 20
-1.277846963257687
 30
0.0
 10
-10.45337507904988
 20
-1.281571737461802
 30
0.0
 10
-10.4352020145306
 20
-1.284049038582544
 30
0.0
 10
-10.41643202923014
 20
-1.285301798216426
 30
0.0
 10
-10.39778046050982
 20
-1.285301798216427
 30
0.0
  0
LINE
  5
95
330
1F
100
AcDbEntity
  8
SK1
  6
Continuous
100
AcDbLine
 10
-9.9838475767
 20
-4.8379022289
 30
0.0
 11
3.2180364178
 21
-6.1506068226
 31
0.0
  0
ELLIPSE
  5
96
330
1F
100
AcDbEntity
  8
SK1
  6
Continuous
100
AcDbEllipse
 10
39.3275133424
 20
-0.1767765955
 30
0.0
 11
-49.75000000034566
 21
-5.458474731356769E-11
 31
0.0
210
0.0
220
0.0
230
1.0
 40
0.7071067812
 41
0.1227490773282479
 42
0.1328898242224949
  0
LINE
  5
97
330
1F
100
AcDbEntity
  8
SK3
100
AcDbLine
 10
-16.740211652
 20
0.2500000998
 30
0.0
 11
-16.740211652
 21
3.7416574865
 31
0.0
  0
LINE
  5
98
330
1F
100
AcDbEntity
  8
SK3
100
AcDbLine
 10
-12.2402116519
 20
0.2500000998
 30
0.0
 11
-12.240211652
 21
2.9393877911
 31
0.0
  0
LINE
  5
99
330
1F
100
AcDbEntity
  8
SK3
100
AcDbLine
 10
-11.8938014904
 20
0.2500000998
 30
0.0
 11
-11.8938014904
 21
1.5676914756
 31
0.0
  0
LINE
  5
9A
330
1F
100
AcDbEntity
  8
SK1
  6
Continuous
100
AcDbLine
 10
-16.9819635822
 20
0.2500000998
 30
0.0
 11
-16.9819635822
 21
5.6074749854
 31
0.0
  0
LINE
  5
9B
330
1F
100
AcDbEntity
  8
SK1
  6
Continuous
100
AcDbLine
 10
-17.240211652
 20
0.2500000998
 30
0.0
 11
-17.240211652
 21
5.3100829435
 31
0.0
  0
LINE
  5
9C
330
1F
100
AcDbEntity
  8
SK1
  6
Continuous
100
AcDbLine
 10
-16.9819635822
 20
-0.2499999002
 30
0.0
 11
-17.240211652
 21
-0.2499999002
 31
0.0
  0
LINE
  5
9D
330
1F
100
AcDbEntity
  8
SK1
  6
Continuous
100
AcDbLine
 10
-16.9819635822
 20
0.2500000998
 30
0.0
 11
-17.240211652
 21
0.2500000998
 31
0.0
  0
LINE
  5
9E
330
1F
100
AcDbEntity
  8
SK3
100
AcDbLine
 10
-16.740211652
 20
3.7416574865
 30
0.0
 11
-17.240211652
 21
4.0309301218
 31
0.0
  0
LINE
  5
9F
330
1F
100
AcDbEntity
  8
SK3
100
AcDbLine
 10
-16.740211652
 20
-3.741657287
 30
0.0
 11
-16.740211652
 21
-0.2499999002
 31
0.0
  0
LINE
  5
A0
330
1F
100
AcDbEntity
  8
SK3
100
AcDbLine
 10
-12.2402116519
 20
-2.9393875916
 30
0.0
 11
-12.240211652
 21
-0.2499999002
 31
0.0
  0
LINE
  5
A1
330
1F
100
AcDbEntity
  8
SK3
100
AcDbLine
 10
-11.8938014904
 20
-1.5676912761
 30
0.0
 11
-11.8938014904
 21
-0.2499999002
 31
0.0
  0
LINE
  5
A2
330
1F
100
AcDbEntity
  8
SK1
  6
Continuous
100
AcDbLine
 10
-17.240211652
 20
-5.310082744
 30
0.0
 11
-17.240211652
 21
-0.2499999002
 31
0.0
  0
LINE
  5
A3
330
1F
100
AcDbEntity
  8
SK1
  6
Continuous
100
AcDbLine
 10
-16.9819635822
 20
-5.6074747858
 30
0.0
 11
-16.9819635822
 21
-0.2499999002
 31
0.0
  0
ARC
  5
A4
330
1F
100
AcDbEntity
  8
SK1
  6
Continuous
100
AcDbCircle
 10
-16.9400067612
 20
-5.3102162798
 30
0.0
 40
0.3002049204166357
100
AcDbArc
 50
179.9745139479
 51
261.966006325
  0
LINE
  5
A5
330
1F
100
AcDbEntity
  8
SK3
100
AcDbLine
 10
-17.240211652
 20
-4.0309299223
 30
0.0
 11
-16.740211652
 21
-3.741657287
 31
0.0
  0
LINE
  5
A6
330
1F
100
AcDbEntity
  8
SK3
100
AcDbLine
 10
-16.740211652
 20
-3.741657287
 30
0.0
 11
-13.040211652
 21
-3.741657287
 31
0.0
  0
SPLINE
  5
A7
330
1F
100
AcDbEntity
  8
SK3
100
AcDbSpline
210
0.0
220
0.0
230
1.0
 70
     8
 71
     3
 72
    20
 73
    16
 74
     0
 42
0.0000000079120924
 43
0.0000000001
 12
1.0
 22
0.0
 32
0.0
 13
1.0
 23
0.0
 33
0.0
 40
0.0
 40
0.0
 40
0.0
 40
0.0
 40
0.2138955458590422
 40
0.2138955458590422
 40
0.2138955458590422
 40
0.4279372048282655
 40
0.4279372048282655
 40
0.4279372048282655
 40
0.6421595378041547
 40
0.6421595378041547
 40
0.6421595378041547
 40
0.8568469621908055
 40
0.8568469621908055
 40
0.8568469621908055
 40
1.0
 40
1.0
 40
1.0
 40
1.0
 10
-13.04021165195143
 20
-3.741657287003247
 30
0.0
 10
-12.95089572575224
 20
-3.741657287003247
 30
0.0
 10
-12.8603499485334
 20
-3.726239926417614
 30
0.0
 10
-12.77606418512899
 20
-3.696689211364407
 30
0.0
 10
-12.69171886444804
 20
-3.667117615440724
 30
0.0
 10
-12.61131935074068
 20
-3.622579439630793
 30
0.0
 10
-12.54149952166018
 20
-3.566777971250335
 30
0.0
 10
-12.47161952967163
 20
-3.510928419414867
 30
0.0
 10
-12.41041441380555
 20
-3.442262635151137
 30
0.0
 10
-12.36290228454181
 20
-3.36646696711287
 30
0.0
 10
-12.31528735583265
 20
-3.290507304053542
 30
0.0
 10
-12.28011442685586
 20
-3.205301936643574
 30
0.0
 10
-12.26024036946089
 20
-3.117882981658249
 30
0.0
 10
-12.2469676203148
 20
-3.059500848756341
 30
0.0
 10
-12.24021165195131
 20
-2.999259448997339
 30
0.0
 10
-12.24021165194324
 20
-2.939387591568184
 30
0.0
  0
LINE
  5
A8
330
1F
100
AcDbEntity
  8
SK3
100
AcDbLine
 10
-12.240211652
 20
-1.769931043
 30
0.0
 11
-11.8938014904
 21
-1.5676912761
 31
0.0
  0
LINE
  5
A9
330
1F
100
AcDbEntity
  8
SK3
100
AcDbLine
 10
-11.8938014904
 20
-1.5676912761
 30
0.0
 11
-1.9208170744
 21
-1.5676912761
 31
0.0
  0
LINE
  5
AA
330
1F
100
AcDbEntity
  8
SK3
100
AcDbLine
 10
-11.8938014904
 20
1.5676914756
 30
0.0
 11
-12.240211652
 21
1.7699312425
 31
0.0
  0
SPLINE
  5
AB
330
1F
100
AcDbEntity
  8
SK3
100
AcDbSpline
210
0.0
220
0.0
230
1.0
 70
     8
 71
     3
 72
    23
 73
    19
 74
     0
 42
0.0000000079134795
 43
0.0000000001
 12
1.0
 22
0.0
 32
0.0
 13
1.0
 23
0.0
 33
0.0
 40
0.0
 40
0.0
 40
0.0
 40
0.0
 40
0.071583144690993
 40
0.071583144690993
 40
0.071583144690993
 40
0.287829568756634
 40
0.287829568756634
 40
0.287829568756634
 40
0.5035712391785468
 40
0.5035712391785468
 40
0.5035712391785468
 40
0.718678924109984
 40
0.718678924109984
 40
0.718678924109984
 40
0.9332439708924166
 40
0.9332439708924166
 40
0.9332439708924166
 40
1.0
 40
1.0
 40
1.0
 40
1.0
 10
-12.24021165194388
 20
2.939387791111372
 30
0.0
 10
-12.24021165195146
 20
2.969442685639374
 30
0.0
 10
-12.2418984198766
 20
2.999544577441263
 30
0.0
 10
-12.2452573923347
 20
3.029411180681159
 30
0.0
 10
-12.25533969357388
 20
3.119058861515801
 30
0.0
 10
-12.28105800361287
 20
3.208209578370832
 30
0.0
 10
-12.32031269694614
 20
3.289434134563024
 30
0.0
 10
-12.35947618174348
 20
3.37046996496926
 30
0.0
 10
-12.41320058255281
 20
3.445859329116923
 30
0.0
 10
-12.47704429319638
 20
3.50929878814961
 30
0.0
 10
-12.54070271554609
 20
3.572554132114277
 30
0.0
 10
-12.61618483062046
 20
3.625678683198308
 30
0.0
 10
-12.69722596590936
 20
3.664226934354845
 30
0.0
 10
-12.77806611397386
 20
3.702679583370838
 30
0.0
 10
-12.86667242620939
 20
3.727690900013586
 30
0.0
 10
-12.95568863170451
 20
3.737169872251509
 30
0.0
 10
-12.9837440390214
 20
3.740157378016344
 30
0.0
 10
-13.01199762936669
 20
3.741657486544844
 30
0.0
 10
-13.04021165195143
 20
3.741657486544645
 30
0.0
  0
LINE
  5
AC
330
1F
100
AcDbEntity
  8
SK3
100
AcDbLine
 10
-13.040211652
 20
3.7416574865
 30
0.0
 11
-16.740211652
 21
3.7416574865
 31
0.0
  0
ARC
  5
AD
330
1F
100
AcDbEntity
  8
SK1
  6
Continuous
100
AcDbCircle
 10
-16.9400066593
 20
5.3102163908
 30
0.0
 40
0.3002050223243972
100
AcDbArc
 50
98.0340105797
 51
180.0254691473
  0
SPLINE
  5
AE
330
1F
100
AcDbEntity
  8
SK1
  6
Continuous
100
AcDbSpline
210
0.0
220
0.0
230
1.0
 70
     8
 71
     3
 72
    11
 73
     7
 74
     0
 42
0.0000000006831798
 43
0.0000000001
 12
1.0
 22
0.0
 32
0.0
 13
1.0
 23
0.0
 33
0.0
 40
0.0
 40
0.0
 40
0.0
 40
0.0
 40
0.6732288776721553
 40
0.6732288776721553
 40
0.6732288776721553
 40
1.0
 40
1.0
 40
1.0
 40
1.0
 10
-16.98196358223947
 20
5.607474985371391
 30
0.0
 10
-13.72921207933354
 20
6.065073498354607
 30
0.0
 10
-10.4764458406016
 20
6.522567266689919
 30
0.0
 10
-7.223672134554904
 20
6.980007925128202
 30
0.0
 10
-5.644844264773791
 20
7.202039989323392
 30
0.0
 10
-4.066014537393485
 20
7.424058844706771
 30
0.0
 10
-2.487183399184677
 20
7.64606766649237
 30
0.0
  0
LINE
  5
AF
330
1F
100
AcDbEntity
  8
SK1
  6
Continuous
100
AcDbLine
 10
-2.4871833992
 20
-0.2499999002
 30
0.0
 11
-16.9819635822
 21
-0.2499999002
 31
0.0
  0
LINE
  5
B0
330
1F
100
AcDbEntity
  8
SK3
100
AcDbLine
 10
-2.4871833992
 20
-0.2499999002
 30
0.0
 11
-1.9208170744
 21
-0.2499999002
 31
0.0
  0
ARC
  5
B1
330
1F
100
AcDbEntity
  8
SK1
  6
Continuous
100
AcDbCircle
 10
-2.4902183054
 20
0.0000000998
 30
0.0
 40
0.250018420633256
100
AcDbArc
 50
270.6955151132
 51
89.3044848879
  0
ARC
  5
B2
330
1F
100
AcDbEntity
  8
SK3
100
AcDbCircle
 10
-1.9212952231
 20
0.0000000998
 30
0.0
 40
0.2500004572518431
100
AcDbArc
 50
270.1095834647
 51
89.8904165353
  0
LINE
  5
B3
330
1F
100
AcDbEntity
  8
SK1
  6
Continuous
100
AcDbLine
 10
-2.4871833992
 20
0.2500000998
 30
0.0
 11
-16.9819635822
 21
0.2500000998
 31
0.0
  0
LINE
  5
B4
330
1F
100
AcDbEntity
  8
SK3
100
AcDbLine
 10
-1.9208170744
 20
0.2500000998
 30
0.0
 11
-2.4871833992
 21
0.2500000998
 31
0.0
  0
ARC
  5
B5
330
1F
100
AcDbEntity
  8
SK3
100
AcDbCircle
 10
-1.9216866833
 20
3.1598188504
 30
0.0
 40
1.592127612208755
100
AcDbArc
 50
270.0312945533
 51
279.0475244363
  0
SPLINE
  5
B6
330
1F
100
AcDbEntity
  8
SK1
  6
Continuous
100
AcDbSpline
210
0.0
220
0.0
230
1.0
 70
     8
 71
     3
 72
    20
 73
    16
 74
     0
 42
0.0000000399981231
 43
0.0000000001
 12
1.0
 22
0.0
 32
0.0
 13
1.0
 23
0.0
 33
0.0
 40
0.0
 40
0.0
 40
0.0
 40
0.0
 40
0.2149223877893278
 40
0.2149223877893278
 40
0.2149223877893278
 40
0.4298431822597463
 40
0.4298431822597463
 40
0.4298431822597463
 40
0.6447861082664024
 40
0.6447861082664024
 40
0.6447861082664024
 40
0.8597112829820983
 40
0.8597112829820983
 40
0.8597112829820983
 40
1.0
 40
1.0
 40
1.0
 40
1.0
 10
-2.240211651950248
 20
7.684863258497034
 30
0.0
 10
-2.240211651950218
 20
7.684863258497039
 30
0.0
 10
-2.244970973003089
 20
7.684033216741313
 30
0.0
 10
-2.254099025464968
 20
7.682465912129577
 30
0.0
 10
-2.263227038663119
 20
7.680898614259499
 30
0.0
 10
-2.276975729152494
 20
7.67855300837299
 30
0.0
 10
-2.294216467768146
 20
7.675684970564293
 30
0.0
 10
-2.31145890113897
 20
7.672816650829049
 30
0.0
 10
-2.332670340910679
 20
7.669350055287181
 30
0.0
 10
-2.356105680051451
 20
7.665644975863497
 30
0.0
 10
-2.379538990143872
 20
7.661940217228228
 30
0.0
 10
-2.4058429544964
 20
7.657897969670169
 30
0.0
 10
-2.432845818765371
 20
7.653905263779264
 30
0.0
 10
-2.450615893140188
 20
7.651277739531043
 30
0.0
 10
-2.468950126983811
 20
7.648631555170351
 30
0.0
 10
-2.487183399184677
 20
7.64606766649237
 30
0.0
  0
SPLINE
  5
B7
330
1F
100
AcDbEntity
  8
SK1
  6
Continuous
100
AcDbSpline
210
0.0
220
0.0
230
1.0
 70
     8
 71
     3
 72
    23
 73
    19
 74
     0
 42
0.0000000393200242
 43
0.0000000001
 12
1.0
 22
0.0
 32
0.0
 13
1.0
 23
0.0
 33
0.0
 40
0.0
 40
0.0
 40
0.0
 40
0.0
 40
0.1921523986832201
 40
0.1921523986832201
 40
0.1921523986832201
 40
0.384303713835063
 40
0.384303713835063
 40
0.384303713835063
 40
0.5764769283118258
 40
0.5764769283118258
 40
0.5764769283118258
 40
0.7687080580172301
 40
0.7687080580172301
 40
0.7687080580172301
 40
0.8943560553565724
 40
0.8943560553565724
 40
0.8943560553565724
 40
1.0
 40
1.0
 40
1.0
 40
1.0
 10
-2.48718339918942
 20
-7.646067466950305
 30
0.0
 10
-2.459486197839674
 20
-7.649962134904158
 30
0.0
 10
-2.431429285431698
 20
-7.654069232726999
 30
0.0
 10
-2.405332774244199
 20
-7.658023687046295
 30
0.0
 10
-2.379236321516085
 20
-7.661978132507128
 30
0.0
 10
-2.354380361258656
 20
-7.665886723363164
 30
0.0
 10
-2.332812960401555
 20
-7.669363490885727
 30
0.0
 10
-2.311243048114406
 20
-7.672840663262749
 30
0.0
 10
-2.29236705504861
 20
-7.675978378900283
 30
0.0
 10
-2.277735512647722
 20
-7.678444528530359
 30
0.0
 10
-2.263099692548457
 20
-7.68091139916742
 30
0.0
 10
-2.252306718975526
 20
-7.682771217756349
 30
0.0
 10
-2.246242524339252
 20
-7.683818804248202
 30
0.0
 10
-2.242246399829213
 20
-7.684509132693703
 30
0.0
 10
-2.240211651951443
 20
-7.684863058955428
 30
0.0
 10
-2.240211651951443
 20
-7.684863058955428
 30
0.0
 10
-2.240211651951443
 20
-7.684863058955428
 30
0.0
 10
-2.241649282580041
 20
-7.684612331291167
 30
0.0
 10
-2.24445969918081
 20
-7.684126278869458
 30
0.0
  0
ARC
  5
B8
330
1F
100
AcDbEntity
  8
SK3
100
AcDbCircle
 10
-1.9216866833
 20
-3.1598186508
 30
0.0
 40
1.592127612209131
100
AcDbArc
 50
80.9524755636
 51
89.9687054467
  0
SPLINE
  5
B9
330
1F
100
AcDbEntity
  8
SK1
  6
Continuous
100
AcDbSpline
210
0.0
220
0.0
230
1.0
 70
     8
 71
     3
 72
    11
 73
     7
 74
     0
 42
0.0000000006831798
 43
0.0000000001
 12
1.0
 22
0.0
 32
0.0
 13
1.0
 23
0.0
 33
0.0
 40
0.0
 40
0.0
 40
0.0
 40
0.0
 40
0.8737249549639965
 40
0.8737249549639965
 40
0.8737249549639965
 40
1.0
 40
1.0
 40
1.0
 40
1.0
 10
-2.48718339918942
 20
-7.646067466950305
 30
0.0
 10
-6.708683007241518
 20
-7.052457338880949
 30
0.0
 10
-10.930173377201
 20
-6.458781495826368
 30
0.0
 10
-15.15164240873945
 20
-5.86495396135841
 30
0.0
 10
-15.76174995950513
 20
-5.779131073656345
 30
0.0
 10
-16.37185703999318
 20
-5.693304842704554
 30
0.0
 10
-16.98196358223947
 20
-5.607474785829991
 30
0.0
  0
LINE
  5
BA
330
1F
100
AcDbEntity
  8
SK3
100
AcDbLine
 10
-1.9208170744
 20
1.5676914756
 30
0.0
 11
-11.8938014904
 21
1.5676914756
 31
0.0
  0
LINE
  5
BB
330
1F
100
AcDbEntity
  8
SK1
  6
Continuous
100
AcDbLine
 10
3.2180364178
 20
8.4519699982
 30
0.0
 11
-2.240211652
 21
7.6848632585
 31
0.0
  0
LINE
  5
BC
330
1F
100
AcDbEntity
  8
SK1
  6
Continuous
100
AcDbLine
 10
-2.240211652
 20
-7.684863059
 30
0.0
 11
3.2180364178
 21
-8.4519697987
 31
0.0
  0
LINE
  5
BD
330
1F
100
AcDbEntity
  8
SK3
100
AcDbLine
 10
-1.6713187938
 20
-1.5874999002
 30
0.0
 11
9.859788348
 21
-1.5874999002
 31
0.0
  0
LINE
  5
BE
330
1F
100
AcDbEntity
  8
SK3
100
AcDbLine
 10
9.859788348
 20
1.5875000998
 30
0.0
 11
-1.6713187939
 21
1.5875000998
 31
0.0
  0
LINE
  5
BF
330
1F
100
AcDbEntity
  8
SK1
  6
Continuous
100
AcDbLine
 10
6.259788348
 20
-8.3699999002
 30
0.0
 11
6.701461304
 21
-8.3699999002
 31
0.0
  0
ARC
  5
C0
330
1F
100
AcDbEntity
  8
SK3
100
AcDbCircle
 10
9.859788348
 20
-1.9874999002
 30
0.0
 40
0.4
100
AcDbArc
 50
0.0
 51
90.0
  0
ARC
  5
C1
330
1F
100
AcDbEntity
  8
SK1
  6
Continuous
100
AcDbCircle
 10
3.259788348
 20
-8.1548893781
 30
0.0
 40
0.2999999999999999
100
AcDbArc
 50
262.0
 51
0.0
  0
LINE
  5
C2
330
1F
100
AcDbEntity
  8
SK1
  6
Continuous
100
AcDbLine
 10
10.1537301993
 20
-6.3768315242
 30
0.0
 11
10.1704852505
 21
-6.362772367
 31
0.0
  0
ARC
  5
C3
330
1F
100
AcDbEntity
  8
SK1
  6
Continuous
100
AcDbCircle
 10
10.009788348
 20
-6.1712612562
 30
0.0
 40
0.2499999999999997
100
AcDbArc
 50
310.0
 51
360.0
  0
LINE
  5
C4
330
1F
100
AcDbEntity
  8
SK1
  6
Continuous
100
AcDbLine
 10
6.701461304
 20
-8.3699999002
 30
0.0
 11
10.1537301993
 21
-6.3768315242
 31
0.0
  0
ARC
  5
C5
330
1F
100
AcDbEntity
  8
SK1
  6
Continuous
100
AcDbCircle
 10
6.059788348
 20
-7.0999999002
 30
0.0
 40
0.1999999999999997
100
AcDbArc
 50
0.0
 51
90.0
  0
LINE
  5
C6
330
1F
100
AcDbEntity
  8
SK1
  6
Continuous
100
AcDbLine
 10
3.759788348
 20
-6.8999999002
 30
0.0
 11
6.059788348
 21
-6.8999999002
 31
0.0
  0
ARC
  5
C7
330
1F
100
AcDbEntity
  8
SK1
  6
Continuous
100
AcDbCircle
 10
3.759788348
 20
-7.0999999002
 30
0.0
 40
0.1999999999999988
100
AcDbArc
 50
90.0
 51
180.0
  0
LINE
  5
C8
330
1F
100
AcDbEntity
  8
SK1
  6
Continuous
100
AcDbLine
 10
6.701461304
 20
8.3700000998
 30
0.0
 11
6.259788348
 21
8.3700000998
 31
0.0
  0
ARC
  5
C9
330
1F
100
AcDbEntity
  8
SK3
100
AcDbCircle
 10
9.859788348
 20
1.9875000998
 30
0.0
 40
0.4
100
AcDbArc
 50
270.0
 51
0.0
  0
ARC
  5
CA
330
1F
100
AcDbEntity
  8
SK1
  6
Continuous
100
AcDbCircle
 10
3.259788348
 20
8.1548895776
 30
0.0
 40
0.299999999999999
100
AcDbArc
 50
0.0
 51
98.0
  0
LINE
  5
CB
330
1F
100
AcDbEntity
  8
SK1
  6
Continuous
100
AcDbLine
 10
10.1704852505
 20
6.3627725665
 30
0.0
 11
10.1537301993
 21
6.3768317237
 31
0.0
  0
ARC
  5
CC
330
1F
100
AcDbEntity
  8
SK1
  6
Continuous
100
AcDbCircle
 10
10.009788348
 20
6.1712614557
 30
0.0
 40
0.2500000000000001
100
AcDbArc
 50
0.0
 51
50.0
  0
LINE
  5
CD
330
1F
100
AcDbEntity
  8
SK1
  6
Continuous
100
AcDbLine
 10
10.1537301993
 20
6.3768317237
 30
0.0
 11
6.701461304
 21
8.3700000998
 31
0.0
  0
ARC
  5
CE
330
1F
100
AcDbEntity
  8
SK1
  6
Continuous
100
AcDbCircle
 10
6.059788348
 20
7.1000000998
 30
0.0
 40
0.1999999999999988
100
AcDbArc
 50
270.0
 51
0.0
  0
LINE
  5
CF
330
1F
100
AcDbEntity
  8
SK1
  6
Continuous
100
AcDbLine
 10
6.059788348
 20
6.9000000998
 30
0.0
 11
3.759788348
 21
6.9000000998
 31
0.0
  0
ARC
  5
D0
330
1F
100
AcDbEntity
  8
SK1
  6
Continuous
100
AcDbCircle
 10
3.759788348
 20
7.1000000998
 30
0.0
 40
0.1999999999999997
100
AcDbArc
 50
180.0
 51
270.0
  0
ARC
  5
D1
330
1F
100
AcDbEntity
  8
SK3
100
AcDbCircle
 10
14.5642247802
 20
0.0003381599
 30
0.0
 40
25.23620582941295
100
AcDbArc
 50
169.3535961583
 51
177.4388062283
  0
ARC
  5
D2
330
1F
100
AcDbEntity
  8
SK3
100
AcDbCircle
 10
14.5090664837
 20
-0.0024037072
 30
0.0
 40
25.18120091163185
100
AcDbArc
 50
182.5620202741
 51
190.6641950481
  0
ARC
  5
D3
330
1F
100
AcDbEntity
  8
SK3
100
AcDbCircle
 10
-51.646110877
 20
0.0000000998
 30
0.0
 40
50.0
100
AcDbArc
 50
1.819451757
 51
8.8412352036
  0
ARC
  5
D4
330
1F
100
AcDbEntity
  8
SK3
100
AcDbCircle
 10
-51.646110877
 20
0.0000000998
 30
0.0
 40
50.0
100
AcDbArc
 50
351.1587286693
 51
358.1805636008
  0
LINE
  5
D5
330
1F
100
AcDbEntity
  8
SK1
  6
Continuous
100
AcDbLine
 10
0.0
 20
7.999704474
 30
0.0
 11
0.0
 21
-7.9997042744
 31
0.0
  0
LINE
  5
D7
330
1F
100
AcDbEntity
  8
SK4
  6
Continuous
100
AcDbLine
 10
10.2597883481
 20
0.0000000998
 30
0.0
 11
-17.240211652
 21
0.0000000998
 31
0.0
  0
DIMENSION
  5
ED
330
1F
100
AcDbEntity
  8
SK2
  6
Continuous
 62
   136
100
AcDbDimension
  2
DMBLK75
 10
10.259788348
 20
16.2405149502
 30
0.0
 11
-3.4902117265
 21
16.2405149502
 31
0.0
 70
   160
  1
\A1;<>
 71
     5
 42
-1.0
  3
DIN
100
AcDbAlignedDimension
 13
-17.240211652
 23
5.3100829435
 33
0.0
 14
10.259788348
 24
4.5369354346
 34
0.0
100
AcDbRotatedDimension
  0
DIMENSION
  5
F7
330
1F
100
AcDbEntity
  8
SK2
  6
Continuous
 62
   136
100
AcDbDimension
  2
DMBLK76
 10
10.259788348
 20
-17.6507141991
 30
0.0
 11
5.1298942417
 21
-17.6507141991
 31
0.0
 70
   160
  1
\A1;<>
 71
     5
 42
-1.0
  3
DIN
100
AcDbAlignedDimension
 13
0.0
 23
-7.9997042744
 33
0.0
 14
10.259788348
 24
-5.3540982456
 34
0.0
100
AcDbRotatedDimension
  0
DIMENSION
  5
101
330
1F
100
AcDbEntity
  8
SK2
  6
Continuous
 62
   136
100
AcDbDimension
  2
DMBLK77
 10
18.7348817709
 20
-1.5874999002
 30
0.0
 11
18.7348817709
 21
6.6355084642
 31
0.0
 70
   161
  1
\A1;ø <>
 71
     5
 42
-1.0
  3
DIN
100
AcDbAlignedDimension
 13
9.859788348
 23
-1.5874999002
 33
0.0
 14
9.859788348
 24
1.5875000998
 34
0.0
  0
DIMENSION
  5
10C
330
1F
100
AcDbEntity
  8
SK2
  6
Continuous
 62
   136
100
AcDbDimension
  2
DMBLK78
 10
-23.9838305861
 20
7.999704474
 30
0.0
 11
-23.9838305861
 21
0.0000002546
 31
0.0
 70
   161
  1
\A1;ø <>
 71
     5
 42
-1.0
  3
DIN
100
AcDbAlignedDimension
 13
0.0
 23
7.999704474
 33
0.0
 14
0.0
 24
-7.9997042744
 34
0.0
  0
INSERT
  5
121
330
1F
100
AcDbEntity
  8
SK2
 62
     7
100
AcDbBlockReference
  2
Nullpunkt
 10
0.0
 20
0.0000000998
 30
0.0
  0
INSERT
  5
12C
330
1F
100
AcDbEntity
  8
SK2
 62
     7
100
AcDbBlockReference
  2
Einfügepunkt
 10
10.2597883481
 20
0.0000000998
 30
0.0
  0
ENDSEC
  0
SECTION
  2
OBJECTS
  0
DICTIONARY
  5
C
330
0
100
AcDbDictionary
281
     1
  3
ACAD_GROUP
350
D
  3
ACAD_LAYOUT
350
1A
  3
ACAD_MATERIAL
350
3B
  3
ACAD_MLEADERSTYLE
350
12F
  3
ACAD_MLINESTYLE
350
17
  3
ACAD_PLOTSETTINGS
350
19
  3
ACAD_PLOTSTYLENAME
350
E
  3
ACAD_VISUALSTYLE
350
2A
  3
AcDbVariableDictionary
350
12D
  0
DICTIONARY
  5
D
102
{ACAD_REACTORS
330
C
102
}
330
C
100
AcDbDictionary
281
     1
  0
DICTIONARY
  5
1A
102
{ACAD_REACTORS
330
C
102
}
330
C
100
AcDbDictionary
281
     1
  3
Layout1
350
1E
  3
Model
350
22
  0
DICTIONARY
  5
3B
102
{ACAD_REACTORS
330
C
102
}
330
C
100
AcDbDictionary
281
     1
  3
ByBlock
350
3D
  3
ByLayer
350
3C
  3
Global
350
3E
  0
DICTIONARY
  5
12F
102
{ACAD_REACTORS
330
C
102
}
330
C
100
AcDbDictionary
281
     1
  0
DICTIONARY
  5
17
102
{ACAD_REACTORS
330
C
102
}
330
C
100
AcDbDictionary
281
     1
  3
Standard
350
18
  0
DICTIONARY
  5
19
102
{ACAD_REACTORS
330
C
102
}
330
C
100
AcDbDictionary
281
     1
  0
ACDBDICTIONARYWDFLT
  5
E
102
{ACAD_REACTORS
330
C
102
}
330
C
100
AcDbDictionary
281
     1
  3
Normal
350
F
100
AcDbDictionaryWithDefault
340
F
  0
DICTIONARY
  5
2A
102
{ACAD_REACTORS
330
C
102
}
330
C
100
AcDbDictionary
281
     1
  3
2dWireframe
350
2F
  3
3D Hidden
350
31
  3
3dWireframe
350
30
  3
Basic
350
32
  3
Brighten
350
36
  3
ColorChange
350
3A
  3
Conceptual
350
34
  3
Dim
350
35
  3
Facepattern
350
39
  3
Flat
350
2B
  3
FlatWithEdges
350
2C
  3
Gouraud
350
2D
  3
GouraudWithEdges
350
2E
  3
Linepattern
350
38
  3
Realistic
350
33
  3
Thicken
350
37
  0
DICTIONARY
  5
12D
102
{ACAD_REACTORS
330
C
102
}
330
C
100
AcDbDictionary
281
     1
  3
DIMASSOC
350
132
  3
HIDETEXT
350
133
  3
PSOLHEIGHT
350
131
  3
PSOLWIDTH
350
130
  0
LAYOUT
  5
1E
102
{ACAD_REACTORS
330
1A
102
}
330
1A
100
AcDbPlotSettings
  1

  2
none_device
  4

  6

 40
0.0
 41
0.0
 42
0.0
 43
0.0
 44
0.0
 45
0.0
 46
0.0
 47
0.0
 48
0.0
 49
0.0
140
0.0
141
0.0
142
1.0
143
1.0
 70
   688
 72
     0
 73
     0
 74
     5
  7

 75
    16
147
1.0
148
0.0
149
0.0
100
AcDbLayout
  1
Layout1
 70
     1
 71
     1
 10
0.0
 20
0.0
 11
210.0
 21
297.0
 12
0.0
 22
0.0
 32
0.0
 14
0.0
 24
0.0
 34
0.0
 15
210.0
 25
297.0
 35
0.0
146
0.0
 13
0.0
 23
0.0
 33
0.0
 16
1.0
 26
0.0
 36
0.0
 17
0.0
 27
1.0
 37
0.0
 76
     0
330
1B
  0
LAYOUT
  5
22
102
{ACAD_REACTORS
330
1A
102
}
330
1A
100
AcDbPlotSettings
  1

  2
none_device
  4

  6

 40
0.0
 41
0.0
 42
0.0
 43
0.0
 44
0.0
 45
0.0
 46
0.0
 47
0.0
 48
0.0
 49
0.0
140
0.0
141
0.0
142
1.0
143
1.0
 70
  1712
 72
     0
 73
     0
 74
     0
  7

 75
     0
147
1.0
148
0.0
149
0.0
100
AcDbLayout
  1
Model
 70
     1
 71
     0
 10
0.0
 20
0.0
 11
210.0
 21
297.0
 12
0.0
 22
0.0
 32
0.0
 14
0.0
 24
0.0
 34
0.0
 15
210.0
 25
297.0
 35
0.0
146
0.0
 13
0.0
 23
0.0
 33
0.0
 16
1.0
 26
0.0
 36
0.0
 17
0.0
 27
1.0
 37
0.0
 76
     0
330
1F
331
29
  0
MATERIAL
  5
3D
102
{ACAD_REACTORS
330
3B
102
}
102
{ACAD_XDICTIONARY
360
156
102
}
330
3B
100
AcDbMaterial
  1
ByBlock
  0
MATERIAL
  5
3C
102
{ACAD_REACTORS
330
3B
102
}
102
{ACAD_XDICTIONARY
360
154
102
}
330
3B
100
AcDbMaterial
  1
ByLayer
  0
MATERIAL
  5
3E
102
{ACAD_REACTORS
330
3B
102
}
102
{ACAD_XDICTIONARY
360
158
102
}
330
3B
100
AcDbMaterial
  1
Global
  0
MLINESTYLE
  5
18
102
{ACAD_REACTORS
330
17
102
}
330
17
100
AcDbMlineStyle
  2
Standard
 70
     0
  3

 62
   256
 51
90.0
 52
90.0
 71
     2
 49
0.5
 62
   256
  6
BYLAYER
 49
-0.5
 62
   256
  6
BYLAYER
  0
ACDBPLACEHOLDER
  5
F
102
{ACAD_REACTORS
330
E
102
}
330
E
  0
VISUALSTYLE
  5
2F
102
{ACAD_REACTORS
330
2A
102
}
102
{ACAD_XDICTIONARY
360
13C
102
}
330
2A
100
AcDbVisualStyle
  2
2dWireframe
 70
     4
 71
     0
 72
     2
 73
     0
 90
        0
 40
-0.6
 41
-30.0
 62
     5
 63
     7
 74
     1
 91
        4
 64
     7
 65
   257
 75
     1
175
     1
 42
1.0
 92
        0
 66
   257
 43
1.0
 76
     1
 77
     6
 78
     2
 67
     7
 79
     5
170
     0
171
     0
290
     0
174
     0
 93
        1
 44
0.0
173
     0
291
     0
 45
0.0
1001
ACAD
1000
AcDbSavedByObjectVersion
1070
     0
  0
VISUALSTYLE
  5
31
102
{ACAD_REACTORS
330
2A
102
}
102
{ACAD_XDICTIONARY
360
140
102
}
330
2A
100
AcDbVisualStyle
  2
3D Hidden
 70
     6
 71
     1
 72
     2
 73
     2
 90
        0
 40
-0.6
 41
-30.0
 62
     5
 63
     7
 74
     2
 91
        2
 64
     7
 65
   257
 75
     2
175
     1
 42
40.0
 92
        0
 66
   257
 43
1.0
 76
     1
 77
     6
 78
     2
 67
     7
 79
     3
170
     0
171
     0
290
     0
174
     0
 93
        1
 44
0.0
173
     0
291
     0
 45
0.0
1001
ACAD
1000
AcDbSavedByObjectVersion
1070
     0
  0
VISUALSTYLE
  5
30
102
{ACAD_REACTORS
330
2A
102
}
102
{ACAD_XDICTIONARY
360
13E
102
}
330
2A
100
AcDbVisualStyle
  2
3dWireframe
 70
     5
 71
     0
 72
     2
 73
     0
 90
        0
 40
-0.6
 41
-30.0
 62
     5
 63
     7
 74
     1
 91
        4
 64
     7
 65
   257
 75
     1
175
     1
 42
1.0
 92
        0
 66
   257
 43
1.0
 76
     1
 77
     6
 78
     2
 67
     7
 79
     5
170
     0
171
     0
290
     0
174
     0
 93
        1
 44
0.0
173
     0
291
     0
 45
0.0
1001
ACAD
1000
AcDbSavedByObjectVersion
1070
     0
  0
VISUALSTYLE
  5
32
102
{ACAD_REACTORS
330
2A
102
}
102
{ACAD_XDICTIONARY
360
142
102
}
330
2A
100
AcDbVisualStyle
  2
Basic
 70
     7
 71
     1
 72
     0
 73
     1
 90
        0
 40
-0.6
 41
-30.0
 62
     5
 63
     7
 74
     0
 91
        4
 64
     7
 65
   257
 75
     1
175
     1
 42
1.0
 92
        8
 66
     7
 43
1.0
 76
     1
 77
     6
 78
     2
 67
     7
 79
     5
170
     0
171
     0
290
     0
174
     0
 93
        1
 44
0.0
173
     0
291
     1
 45
0.0
1001
ACAD
1000
AcDbSavedByObjectVersion
1070
     0
  0
VISUALSTYLE
  5
36
102
{ACAD_REACTORS
330
2A
102
}
102
{ACAD_XDICTIONARY
360
14A
102
}
330
2A
100
AcDbVisualStyle
  2
Brighten
 70
    12
 71
     2
 72
     2
 73
     0
 90
        0
 40
-0.6
 41
-30.0
 62
     5
 63
     7
 74
     1
 91
        4
 64
     7
 65
   257
 75
     1
175
     1
 42
1.0
 92
        8
 66
     7
 43
1.0
 76
     1
 77
     6
 78
     2
 67
     7
 79
     5
170
     0
171
     0
290
     0
174
     0
 93
        1
 44
50.0
173
     0
291
     1
 45
0.0
1001
ACAD
1000
AcDbSavedByObjectVersion
1070
     0
  0
VISUALSTYLE
  5
3A
102
{ACAD_REACTORS
330
2A
102
}
102
{ACAD_XDICTIONARY
360
152
102
}
330
2A
100
AcDbVisualStyle
  2
ColorChange
 70
    16
 71
     2
 72
     2
 73
     3
 90
        0
 40
-0.6
 41
-30.0
 62
     5
 63
     8
 74
     1
 91
        4
 64
     7
 65
   257
 75
     1
175
     1
 42
1.0
 92
        8
 66
     8
 43
1.0
 76
     1
 77
     6
 78
     2
 67
     7
 79
     5
170
     0
171
     0
290
     0
174
     0
 93
        1
 44
0.0
173
     0
291
     1
 45
0.0
1001
ACAD
1000
AcDbSavedByObjectVersion
1070
     0
  0
VISUALSTYLE
  5
34
102
{ACAD_REACTORS
330
2A
102
}
102
{ACAD_XDICTIONARY
360
146
102
}
330
2A
100
AcDbVisualStyle
  2
Conceptual
 70
     9
 71
     3
 72
     2
 73
     0
 90
        0
 40
-0.6
 41
-30.0
 62
     5
 63
     7
 74
     2
 91
        2
 64
     7
 65
   257
 75
     1
175
     1
 42
40.0
 92
        8
 66
     7
 43
1.0
 76
     1
 77
     6
 78
     2
 67
     7
 79
     3
170
     0
171
     0
290
     0
174
     0
 93
        1
 44
0.0
173
     0
291
     0
 45
0.0
1001
ACAD
1000
AcDbSavedByObjectVersion
1070
     0
  0
VISUALSTYLE
  5
35
102
{ACAD_REACTORS
330
2A
102
}
102
{ACAD_XDICTIONARY
360
148
102
}
330
2A
100
AcDbVisualStyle
  2
Dim
 70
    11
 71
     2
 72
     2
 73
     0
 90
        0
 40
-0.6
 41
-30.0
 62
     5
 63
     7
 74
     1
 91
        4
 64
     7
 65
   257
 75
     1
175
     1
 42
1.0
 92
        8
 66
     7
 43
1.0
 76
     1
 77
     6
 78
     2
 67
     7
 79
     5
170
     0
171
     0
290
     0
174
     0
 93
        1
 44
-50.0
173
     0
291
     1
 45
0.0
1001
ACAD
1000
AcDbSavedByObjectVersion
1070
     0
  0
VISUALSTYLE
  5
39
102
{ACAD_REACTORS
330
2A
102
}
102
{ACAD_XDICTIONARY
360
150
102
}
330
2A
100
AcDbVisualStyle
  2
Facepattern
 70
    15
 71
     2
 72
     2
 73
     0
 90
        0
 40
-0.6
 41
-30.0
 62
     5
 63
     7
 74
     1
 91
        4
 64
     7
 65
   257
 75
     1
175
     1
 42
1.0
 92
        8
 66
     7
 43
1.0
 76
     1
 77
     6
 78
     2
 67
     7
 79
     5
170
     0
171
     0
290
     0
174
     0
 93
        1
 44
0.0
173
     0
291
     1
 45
0.0
1001
ACAD
1000
AcDbSavedByObjectVersion
1070
     0
  0
VISUALSTYLE
  5
2B
102
{ACAD_REACTORS
330
2A
102
}
102
{ACAD_XDICTIONARY
360
134
102
}
330
2A
100
AcDbVisualStyle
  2
Flat
 70
     0
 71
     2
 72
     1
 73
     1
 90
        2
 40
-0.6
 41
30.0
 62
     5
 63
     7
 74
     0
 91
        4
 64
     7
 65
   257
 75
     1
175
     1
 42
1.0
 92
        8
 66
     7
 43
1.0
 76
     1
 77
     6
 78
     2
 67
     7
 79
     5
170
     0
171
     0
290
     0
174
     0
 93
       13
 44
0.0
173
     0
291
     1
 45
0.0
1001
ACAD
1000
AcDbSavedByObjectVersion
1070
     0
  0
VISUALSTYLE
  5
2C
102
{ACAD_REACTORS
330
2A
102
}
102
{ACAD_XDICTIONARY
360
136
102
}
330
2A
100
AcDbVisualStyle
  2
FlatWithEdges
 70
     1
 71
     2
 72
     1
 73
     1
 90
        2
 40
-0.6
 41
30.0
 62
     5
 63
     7
 74
     1
 91
        4
 64
     7
 65
   257
 75
     1
175
     1
 42
1.0
 92
        0
 66
   257
 43
1.0
 76
     1
 77
     6
 78
     2
 67
     7
 79
     5
170
     0
171
     0
290
     0
174
     0
 93
       13
 44
0.0
173
     0
291
     1
 45
0.0
1001
ACAD
1000
AcDbSavedByObjectVersion
1070
     0
  0
VISUALSTYLE
  5
2D
102
{ACAD_REACTORS
330
2A
102
}
102
{ACAD_XDICTIONARY
360
138
102
}
330
2A
100
AcDbVisualStyle
  2
Gouraud
 70
     2
 71
     2
 72
     2
 73
     1
 90
        2
 40
-0.6
 41
30.0
 62
     5
 63
     7
 74
     0
 91
        4
 64
     7
 65
   257
 75
     1
175
     1
 42
1.0
 92
        0
 66
     7
 43
1.0
 76
     1
 77
     6
 78
     2
 67
     7
 79
     5
170
     0
171
     0
290
     0
174
     0
 93
       13
 44
0.0
173
     0
291
     1
 45
0.0
1001
ACAD
1000
AcDbSavedByObjectVersion
1070
     0
  0
VISUALSTYLE
  5
2E
102
{ACAD_REACTORS
330
2A
102
}
102
{ACAD_XDICTIONARY
360
13A
102
}
330
2A
100
AcDbVisualStyle
  2
GouraudWithEdges
 70
     3
 71
     2
 72
     2
 73
     1
 90
        2
 40
-0.6
 41
30.0
 62
     5
 63
     7
 74
     1
 91
        4
 64
     7
 65
   257
 75
     1
175
     1
 42
1.0
 92
        0
 66
   257
 43
1.0
 76
     1
 77
     6
 78
     2
 67
     7
 79
     5
170
     0
171
     0
290
     0
174
     0
 93
       13
 44
0.0
173
     0
291
     1
 45
0.0
1001
ACAD
1000
AcDbSavedByObjectVersion
1070
     0
  0
VISUALSTYLE
  5
38
102
{ACAD_REACTORS
330
2A
102
}
102
{ACAD_XDICTIONARY
360
14E
102
}
330
2A
100
AcDbVisualStyle
  2
Linepattern
 70
    14
 71
     2
 72
     2
 73
     0
 90
        0
 40
-0.6
 41
-30.0
 62
     5
 63
     7
 74
     1
 91
        4
 64
     7
 65
   257
 75
     7
175
     7
 42
1.0
 92
        8
 66
     7
 43
1.0
 76
     1
 77
     6
 78
     2
 67
     7
 79
     5
170
     0
171
     0
290
     0
174
     0
 93
        1
 44
0.0
173
     0
291
     1
 45
0.0
1001
ACAD
1000
AcDbSavedByObjectVersion
1070
     0
  0
VISUALSTYLE
  5
33
102
{ACAD_REACTORS
330
2A
102
}
102
{ACAD_XDICTIONARY
360
144
102
}
330
2A
100
AcDbVisualStyle
  2
Realistic
 70
     8
 71
     2
 72
     2
 73
     0
 90
        0
 40
-0.6
 41
-30.0
 62
     5
 63
     7
 74
     1
 91
        0
 64
     7
 65
   257
 75
     1
175
     1
 42
1.0
 92
        8
 66
     8
 43
1.0
 76
     1
 77
     6
 78
     2
 67
     7
 79
     5
170
     0
171
     0
290
     0
174
     0
 93
       13
 44
0.0
173
     0
291
     0
 45
0.0
1001
ACAD
1000
AcDbSavedByObjectVersion
1070
     0
  0
VISUALSTYLE
  5
37
102
{ACAD_REACTORS
330
2A
102
}
102
{ACAD_XDICTIONARY
360
14C
102
}
330
2A
100
AcDbVisualStyle
  2
Thicken
 70
    13
 71
     2
 72
     2
 73
     0
 90
        0
 40
-0.6
 41
-30.0
 62
     5
 63
     7
 74
     1
 91
        4
 64
     7
 65
   257
 75
     1
175
     1
 42
1.0
 92
       12
 66
     7
 43
1.0
 76
     1
 77
     6
 78
     2
 67
     7
 79
     5
170
     0
171
     0
290
     0
174
     0
 93
        1
 44
0.0
173
     0
291
     1
 45
0.0
1001
ACAD
1000
AcDbSavedByObjectVersion
1070
     0
  0
DICTIONARYVAR
  5
132
102
{ACAD_REACTORS
330
12D
102
}
330
12D
100
DictionaryVariables
280
     0
  1
2
  0
DICTIONARYVAR
  5
133
102
{ACAD_REACTORS
330
12D
102
}
330
12D
100
DictionaryVariables
280
     0
  1
1
  0
DICTIONARYVAR
  5
131
102
{ACAD_REACTORS
330
12D
102
}
330
12D
100
DictionaryVariables
280
     0
  1
80.000000
  0
DICTIONARYVAR
  5
130
102
{ACAD_REACTORS
330
12D
102
}
330
12D
100
DictionaryVariables
280
     0
  1
5.000000
  0
DICTIONARY
  5
156
330
3D
100
AcDbDictionary
280
     1
281
     1
  3
ACAD_XREC_ROUNDTRIP
360
157
  0
DICTIONARY
  5
154
330
3C
100
AcDbDictionary
280
     1
281
     1
  3
ACAD_XREC_ROUNDTRIP
360
155
  0
DICTIONARY
  5
158
330
3E
100
AcDbDictionary
280
     1
281
     1
  3
ACAD_XREC_ROUNDTRIP
360
159
  0
DICTIONARY
  5
13C
330
2F
100
AcDbDictionary
280
     1
281
     1
  3
ACAD_XREC_ROUNDTRIP
360
13D
  0
DICTIONARY
  5
140
330
31
100
AcDbDictionary
280
     1
281
     1
  3
ACAD_XREC_ROUNDTRIP
360
141
  0
DICTIONARY
  5
13E
330
30
100
AcDbDictionary
280
     1
281
     1
  3
ACAD_XREC_ROUNDTRIP
360
13F
  0
DICTIONARY
  5
142
330
32
100
AcDbDictionary
280
     1
281
     1
  3
ACAD_XREC_ROUNDTRIP
360
143
  0
DICTIONARY
  5
14A
330
36
100
AcDbDictionary
280
     1
281
     1
  3
ACAD_XREC_ROUNDTRIP
360
14B
  0
DICTIONARY
  5
152
330
3A
100
AcDbDictionary
280
     1
281
     1
  3
ACAD_XREC_ROUNDTRIP
360
153
  0
DICTIONARY
  5
146
330
34
100
AcDbDictionary
280
     1
281
     1
  3
ACAD_XREC_ROUNDTRIP
360
147
  0
DICTIONARY
  5
148
330
35
100
AcDbDictionary
280
     1
281
     1
  3
ACAD_XREC_ROUNDTRIP
360
149
  0
DICTIONARY
  5
150
330
39
100
AcDbDictionary
280
     1
281
     1
  3
ACAD_XREC_ROUNDTRIP
360
151
  0
DICTIONARY
  5
134
330
2B
100
AcDbDictionary
280
     1
281
     1
  3
ACAD_XREC_ROUNDTRIP
360
135
  0
DICTIONARY
  5
136
330
2C
100
AcDbDictionary
280
     1
281
     1
  3
ACAD_XREC_ROUNDTRIP
360
137
  0
DICTIONARY
  5
138
330
2D
100
AcDbDictionary
280
     1
281
     1
  3
ACAD_XREC_ROUNDTRIP
360
139
  0
DICTIONARY
  5
13A
330
2E
100
AcDbDictionary
280
     1
281
     1
  3
ACAD_XREC_ROUNDTRIP
360
13B
  0
DICTIONARY
  5
14E
330
38
100
AcDbDictionary
280
     1
281
     1
  3
ACAD_XREC_ROUNDTRIP
360
14F
  0
DICTIONARY
  5
144
330
33
100
AcDbDictionary
280
     1
281
     1
  3
ACAD_XREC_ROUNDTRIP
360
145
  0
DICTIONARY
  5
14C
330
37
100
AcDbDictionary
280
     1
281
     1
  3
ACAD_XREC_ROUNDTRIP
360
14D
  0
XRECORD
  5
157
102
{ACAD_REACTORS
330
156
102
}
330
156
100
AcDbXrecord
280
     1
102
MATERIAL
148
0.0
149
0.0
149
0.0
 93
        0
 94
      127
282
     0
 72
     1
 77
     1
171
     1
175
     1
179
     1
273
     0
  0
XRECORD
  5
155
102
{ACAD_REACTORS
330
154
102
}
330
154
100
AcDbXrecord
280
     1
102
MATERIAL
148
0.0
149
0.0
149
0.0
 93
        0
 94
      127
282
     0
 72
     1
 77
     1
171
     1
175
     1
179
     1
273
     0
  0
XRECORD
  5
159
102
{ACAD_REACTORS
330
158
102
}
330
158
100
AcDbXrecord
280
     1
102
MATERIAL
148
0.0
149
0.0
149
0.0
 93
        0
 94
      127
282
     0
 72
     1
 77
     1
171
     1
175
     1
179
     1
273
     0
  0
XRECORD
  5
13D
102
{ACAD_REACTORS
330
13C
102
}
330
13C
100
AcDbXrecord
280
     1
102
RTVSPropertyOp0
 70
     1
102
RTVSPropertyOp1
 70
     1
102
RTVSPropertyOp2
 70
     1
102
RTVSPropertyOp3
 70
     1
102
RTVSPropertyOp4
 70
     1
102
RTVSPropertyOp5
 70
     1
102
RTVSPropertyOp6
 70
     1
102
RTVSPropertyOp7
 70
     1
102
RTVSPropertyOp8
 70
     1
102
RTVSPropertyOp9
 70
     1
102
RTVSPropertyOp10
 70
     1
102
RTVSPropertyOp11
 70
     1
102
RTVSPropertyOp12
 70
     1
102
RTVSPropertyOp13
 70
     1
102
RTVSPropertyOp14
 70
     1
102
RTVSPropertyOp15
 70
     1
102
RTVSPropertyOp16
 70
     1
102
RTVSPropertyOp17
 70
     1
102
RTVSPropertyOp18
 70
     1
102
RTVSPropertyOp19
 70
     1
102
RTVSPropertyOp20
 70
     1
102
RTVSPropertyOp21
 70
     1
102
RTVSPropertyOp22
 70
     1
102
RTVSPropertyOp23
 70
     1
102
RTVSPropertyOp24
 70
     1
102
RTVSPropertyOp25
 70
     1
102
RTVSPropertyOp26
 70
     1
102
RTVSPropertyOp27
 70
     1
102
RTVSPropertyOp28
 70
     1
102
RTVSPropertyOp29
 70
     1
102
RTVSPropertyOp30
 70
     1
102
RTVSPropertyOp31
 70
     1
102
RTVSPropertyOp32
 70
     1
  0
XRECORD
  5
141
102
{ACAD_REACTORS
330
140
102
}
330
140
100
AcDbXrecord
280
     1
102
RTVSPropertyOp0
 70
     1
102
RTVSPropertyOp1
 70
     1
102
RTVSPropertyOp2
 70
     1
102
RTVSPropertyOp3
 70
     1
102
RTVSPropertyOp4
 70
     1
102
RTVSPropertyOp5
 70
     1
102
RTVSPropertyOp6
 70
     1
102
RTVSPropertyOp7
 70
     1
102
RTVSPropertyOp8
 70
     1
102
RTVSPropertyOp9
 70
     1
102
RTVSPropertyOp10
 70
     1
102
RTVSPropertyOp11
 70
     1
102
RTVSPropertyOp12
 70
     1
102
RTVSPropertyOp13
 70
     1
102
RTVSPropertyOp14
 70
     1
102
RTVSPropertyOp15
 70
     1
102
RTVSPropertyOp16
 70
     1
102
RTVSPropertyOp17
 70
     1
102
RTVSPropertyOp18
 70
     1
102
RTVSPropertyOp19
 70
     1
102
RTVSPropertyOp20
 70
     1
102
RTVSPropertyOp21
 70
     1
102
RTVSPropertyOp22
 70
     1
102
RTVSPropertyOp23
 70
     1
102
RTVSPropertyOp24
 70
     1
102
RTVSPropertyOp25
 70
     1
102
RTVSPropertyOp26
 70
     1
102
RTVSPropertyOp27
 70
     1
102
RTVSPropertyOp28
 70
     1
102
RTVSPropertyOp29
 70
     1
102
RTVSPropertyOp30
 70
     1
102
RTVSPropertyOp31
 70
     1
102
RTVSPropertyOp32
 70
     1
  0
XRECORD
  5
13F
102
{ACAD_REACTORS
330
13E
102
}
330
13E
100
AcDbXrecord
280
     1
102
RTVSPropertyOp0
 70
     1
102
RTVSPropertyOp1
 70
     1
102
RTVSPropertyOp2
 70
     1
102
RTVSPropertyOp3
 70
     1
102
RTVSPropertyOp4
 70
     1
102
RTVSPropertyOp5
 70
     1
102
RTVSPropertyOp6
 70
     1
102
RTVSPropertyOp7
 70
     1
102
RTVSPropertyOp8
 70
     1
102
RTVSPropertyOp9
 70
     1
102
RTVSPropertyOp10
 70
     1
102
RTVSPropertyOp11
 70
     1
102
RTVSPropertyOp12
 70
     1
102
RTVSPropertyOp13
 70
     1
102
RTVSPropertyOp14
 70
     1
102
RTVSPropertyOp15
 70
     1
102
RTVSPropertyOp16
 70
     1
102
RTVSPropertyOp17
 70
     1
102
RTVSPropertyOp18
 70
     1
102
RTVSPropertyOp19
 70
     1
102
RTVSPropertyOp20
 70
     1
102
RTVSPropertyOp21
 70
     1
102
RTVSPropertyOp22
 70
     1
102
RTVSPropertyOp23
 70
     1
102
RTVSPropertyOp24
 70
     1
102
RTVSPropertyOp25
 70
     1
102
RTVSPropertyOp26
 70
     1
102
RTVSPropertyOp27
 70
     1
102
RTVSPropertyOp28
 70
     1
102
RTVSPropertyOp29
 70
     1
102
RTVSPropertyOp30
 70
     1
102
RTVSPropertyOp31
 70
     1
102
RTVSPropertyOp32
 70
     1
  0
XRECORD
  5
143
102
{ACAD_REACTORS
330
142
102
}
330
142
100
AcDbXrecord
280
     1
102
RTVSPropertyOp0
 70
     1
102
RTVSPropertyOp1
 70
     1
102
RTVSPropertyOp2
 70
     1
102
RTVSPropertyOp3
 70
     1
102
RTVSPropertyOp4
 70
     1
102
RTVSPropertyOp5
 70
     1
102
RTVSPropertyOp6
 70
     1
102
RTVSPropertyOp7
 70
     1
102
RTVSPropertyOp8
 70
     1
102
RTVSPropertyOp9
 70
     1
102
RTVSPropertyOp10
 70
     1
102
RTVSPropertyOp11
 70
     1
102
RTVSPropertyOp12
 70
     1
102
RTVSPropertyOp13
 70
     1
102
RTVSPropertyOp14
 70
     1
102
RTVSPropertyOp15
 70
     1
102
RTVSPropertyOp16
 70
     1
102
RTVSPropertyOp17
 70
     1
102
RTVSPropertyOp18
 70
     1
102
RTVSPropertyOp19
 70
     1
102
RTVSPropertyOp20
 70
     1
102
RTVSPropertyOp21
 70
     1
102
RTVSPropertyOp22
 70
     1
102
RTVSPropertyOp23
 70
     1
102
RTVSPropertyOp24
 70
     1
102
RTVSPropertyOp25
 70
     1
102
RTVSPropertyOp26
 70
     1
102
RTVSPropertyOp27
 70
     1
102
RTVSPropertyOp28
 70
     1
102
RTVSPropertyOp29
 70
     1
102
RTVSPropertyOp30
 70
     1
102
RTVSPropertyOp31
 70
     1
102
RTVSPropertyOp32
 70
     1
  0
XRECORD
  5
14B
102
{ACAD_REACTORS
330
14A
102
}
330
14A
100
AcDbXrecord
280
     1
102
RTVSPropertyOp0
 70
     1
102
RTVSPropertyOp1
 70
     1
102
RTVSPropertyOp2
 70
     1
102
RTVSPropertyOp3
 70
     1
102
RTVSPropertyOp4
 70
     1
102
RTVSPropertyOp5
 70
     1
102
RTVSPropertyOp6
 70
     1
102
RTVSPropertyOp7
 70
     1
102
RTVSPropertyOp8
 70
     1
102
RTVSPropertyOp9
 70
     1
102
RTVSPropertyOp10
 70
     1
102
RTVSPropertyOp11
 70
     1
102
RTVSPropertyOp12
 70
     1
102
RTVSPropertyOp13
 70
     1
102
RTVSPropertyOp14
 70
     1
102
RTVSPropertyOp15
 70
     1
102
RTVSPropertyOp16
 70
     1
102
RTVSPropertyOp17
 70
     1
102
RTVSPropertyOp18
 70
     1
102
RTVSPropertyOp19
 70
     1
102
RTVSPropertyOp20
 70
     1
102
RTVSPropertyOp21
 70
     1
102
RTVSPropertyOp22
 70
     1
102
RTVSPropertyOp23
 70
     1
102
RTVSPropertyOp24
 70
     1
102
RTVSPropertyOp25
 70
     1
102
RTVSPropertyOp26
 70
     1
102
RTVSPropertyOp27
 70
     1
102
RTVSPropertyOp28
 70
     1
102
RTVSPropertyOp29
 70
     1
102
RTVSPropertyOp30
 70
     1
102
RTVSPropertyOp31
 70
     1
102
RTVSPropertyOp32
 70
     1
  0
XRECORD
  5
153
102
{ACAD_REACTORS
330
152
102
}
330
152
100
AcDbXrecord
280
     1
102
RTVSPropertyOp0
 70
     1
102
RTVSPropertyOp1
 70
     1
102
RTVSPropertyOp2
 70
     1
102
RTVSPropertyOp3
 70
     1
102
RTVSPropertyOp4
 70
     1
102
RTVSPropertyOp5
 70
     1
102
RTVSPropertyOp6
 70
     1
102
RTVSPropertyOp7
 70
     1
102
RTVSPropertyOp8
 70
     1
102
RTVSPropertyOp9
 70
     1
102
RTVSPropertyOp10
 70
     1
102
RTVSPropertyOp11
 70
     1
102
RTVSPropertyOp12
 70
     1
102
RTVSPropertyOp13
 70
     1
102
RTVSPropertyOp14
 70
     1
102
RTVSPropertyOp15
 70
     1
102
RTVSPropertyOp16
 70
     1
102
RTVSPropertyOp17
 70
     1
102
RTVSPropertyOp18
 70
     1
102
RTVSPropertyOp19
 70
     1
102
RTVSPropertyOp20
 70
     1
102
RTVSPropertyOp21
 70
     1
102
RTVSPropertyOp22
 70
     1
102
RTVSPropertyOp23
 70
     1
102
RTVSPropertyOp24
 70
     1
102
RTVSPropertyOp25
 70
     1
102
RTVSPropertyOp26
 70
     1
102
RTVSPropertyOp27
 70
     1
102
RTVSPropertyOp28
 70
     1
102
RTVSPropertyOp29
 70
     1
102
RTVSPropertyOp30
 70
     1
102
RTVSPropertyOp31
 70
     1
102
RTVSPropertyOp32
 70
     1
  0
XRECORD
  5
147
102
{ACAD_REACTORS
330
146
102
}
330
146
100
AcDbXrecord
280
     1
102
RTVSPropertyOp0
 70
     1
102
RTVSPropertyOp1
 70
     1
102
RTVSPropertyOp2
 70
     1
102
RTVSPropertyOp3
 70
     1
102
RTVSPropertyOp4
 70
     1
102
RTVSPropertyOp5
 70
     1
102
RTVSPropertyOp6
 70
     1
102
RTVSPropertyOp7
 70
     1
102
RTVSPropertyOp8
 70
     1
102
RTVSPropertyOp9
 70
     1
102
RTVSPropertyOp10
 70
     1
102
RTVSPropertyOp11
 70
     1
102
RTVSPropertyOp12
 70
     1
102
RTVSPropertyOp13
 70
     1
102
RTVSPropertyOp14
 70
     1
102
RTVSPropertyOp15
 70
     1
102
RTVSPropertyOp16
 70
     1
102
RTVSPropertyOp17
 70
     1
102
RTVSPropertyOp18
 70
     1
102
RTVSPropertyOp19
 70
     1
102
RTVSPropertyOp20
 70
     1
102
RTVSPropertyOp21
 70
     1
102
RTVSPropertyOp22
 70
     1
102
RTVSPropertyOp23
 70
     1
102
RTVSPropertyOp24
 70
     1
102
RTVSPropertyOp25
 70
     1
102
RTVSPropertyOp26
 70
     1
102
RTVSPropertyOp27
 70
     1
102
RTVSPropertyOp28
 70
     1
102
RTVSPropertyOp29
 70
     1
102
RTVSPropertyOp30
 70
     1
102
RTVSPropertyOp31
 70
     1
102
RTVSPropertyOp32
 70
     1
  0
XRECORD
  5
149
102
{ACAD_REACTORS
330
148
102
}
330
148
100
AcDbXrecord
280
     1
102
RTVSPropertyOp0
 70
     1
102
RTVSPropertyOp1
 70
     1
102
RTVSPropertyOp2
 70
     1
102
RTVSPropertyOp3
 70
     1
102
RTVSPropertyOp4
 70
     1
102
RTVSPropertyOp5
 70
     1
102
RTVSPropertyOp6
 70
     1
102
RTVSPropertyOp7
 70
     1
102
RTVSPropertyOp8
 70
     1
102
RTVSPropertyOp9
 70
     1
102
RTVSPropertyOp10
 70
     1
102
RTVSPropertyOp11
 70
     1
102
RTVSPropertyOp12
 70
     1
102
RTVSPropertyOp13
 70
     1
102
RTVSPropertyOp14
 70
     1
102
RTVSPropertyOp15
 70
     1
102
RTVSPropertyOp16
 70
     1
102
RTVSPropertyOp17
 70
     1
102
RTVSPropertyOp18
 70
     1
102
RTVSPropertyOp19
 70
     1
102
RTVSPropertyOp20
 70
     1
102
RTVSPropertyOp21
 70
     1
102
RTVSPropertyOp22
 70
     1
102
RTVSPropertyOp23
 70
     1
102
RTVSPropertyOp24
 70
     1
102
RTVSPropertyOp25
 70
     1
102
RTVSPropertyOp26
 70
     1
102
RTVSPropertyOp27
 70
     1
102
RTVSPropertyOp28
 70
     1
102
RTVSPropertyOp29
 70
     1
102
RTVSPropertyOp30
 70
     1
102
RTVSPropertyOp31
 70
     1
102
RTVSPropertyOp32
 70
     1
  0
XRECORD
  5
151
102
{ACAD_REACTORS
330
150
102
}
330
150
100
AcDbXrecord
280
     1
102
RTVSPropertyOp0
 70
     1
102
RTVSPropertyOp1
 70
     1
102
RTVSPropertyOp2
 70
     1
102
RTVSPropertyOp3
 70
     1
102
RTVSPropertyOp4
 70
     1
102
RTVSPropertyOp5
 70
     1
102
RTVSPropertyOp6
 70
     1
102
RTVSPropertyOp7
 70
     1
102
RTVSPropertyOp8
 70
     1
102
RTVSPropertyOp9
 70
     1
102
RTVSPropertyOp10
 70
     1
102
RTVSPropertyOp11
 70
     1
102
RTVSPropertyOp12
 70
     1
102
RTVSPropertyOp13
 70
     1
102
RTVSPropertyOp14
 70
     1
102
RTVSPropertyOp15
 70
     1
102
RTVSPropertyOp16
 70
     1
102
RTVSPropertyOp17
 70
     1
102
RTVSPropertyOp18
 70
     1
102
RTVSPropertyOp19
 70
     1
102
RTVSPropertyOp20
 70
     1
102
RTVSPropertyOp21
 70
     1
102
RTVSPropertyOp22
 70
     1
102
RTVSPropertyOp23
 70
     1
102
RTVSPropertyOp24
 70
     1
102
RTVSPropertyOp25
 70
     1
102
RTVSPropertyOp26
 70
     1
102
RTVSPropertyOp27
 70
     1
102
RTVSPropertyOp28
 70
     1
102
RTVSPropertyOp29
 70
     1
102
RTVSPropertyOp30
 70
     1
102
RTVSPropertyOp31
 70
     1
102
RTVSPropertyOp32
 70
     1
  0
XRECORD
  5
135
102
{ACAD_REACTORS
330
134
102
}
330
134
100
AcDbXrecord
280
     1
102
RTVSPropertyOp0
 70
     1
102
RTVSPropertyOp1
 70
     1
102
RTVSPropertyOp2
 70
     1
102
RTVSPropertyOp3
 70
     1
102
RTVSPropertyOp4
 70
     1
102
RTVSPropertyOp5
 70
     1
102
RTVSPropertyOp6
 70
     1
102
RTVSPropertyOp7
 70
     1
102
RTVSPropertyOp8
 70
     1
102
RTVSPropertyOp9
 70
     1
102
RTVSPropertyOp10
 70
     1
102
RTVSPropertyOp11
 70
     1
102
RTVSPropertyOp12
 70
     1
102
RTVSPropertyOp13
 70
     1
102
RTVSPropertyOp14
 70
     1
102
RTVSPropertyOp15
 70
     1
102
RTVSPropertyOp16
 70
     1
102
RTVSPropertyOp17
 70
     1
102
RTVSPropertyOp18
 70
     1
102
RTVSPropertyOp19
 70
     1
102
RTVSPropertyOp20
 70
     1
102
RTVSPropertyOp21
 70
     1
102
RTVSPropertyOp22
 70
     1
102
RTVSPropertyOp23
 70
     1
102
RTVSPropertyOp24
 70
     1
102
RTVSPropertyOp25
 70
     1
102
RTVSPropertyOp26
 70
     1
102
RTVSPropertyOp27
 70
     1
102
RTVSPropertyOp28
 70
     1
102
RTVSPropertyOp29
 70
     1
102
RTVSPropertyOp30
 70
     1
102
RTVSPropertyOp31
 70
     1
102
RTVSPropertyOp32
 70
     1
  0
XRECORD
  5
137
102
{ACAD_REACTORS
330
136
102
}
330
136
100
AcDbXrecord
280
     1
102
RTVSPropertyOp0
 70
     1
102
RTVSPropertyOp1
 70
     1
102
RTVSPropertyOp2
 70
     1
102
RTVSPropertyOp3
 70
     1
102
RTVSPropertyOp4
 70
     1
102
RTVSPropertyOp5
 70
     1
102
RTVSPropertyOp6
 70
     1
102
RTVSPropertyOp7
 70
     1
102
RTVSPropertyOp8
 70
     1
102
RTVSPropertyOp9
 70
     1
102
RTVSPropertyOp10
 70
     1
102
RTVSPropertyOp11
 70
     1
102
RTVSPropertyOp12
 70
     1
102
RTVSPropertyOp13
 70
     1
102
RTVSPropertyOp14
 70
     1
102
RTVSPropertyOp15
 70
     1
102
RTVSPropertyOp16
 70
     1
102
RTVSPropertyOp17
 70
     1
102
RTVSPropertyOp18
 70
     1
102
RTVSPropertyOp19
 70
     1
102
RTVSPropertyOp20
 70
     1
102
RTVSPropertyOp21
 70
     1
102
RTVSPropertyOp22
 70
     1
102
RTVSPropertyOp23
 70
     1
102
RTVSPropertyOp24
 70
     1
102
RTVSPropertyOp25
 70
     1
102
RTVSPropertyOp26
 70
     1
102
RTVSPropertyOp27
 70
     1
102
RTVSPropertyOp28
 70
     1
102
RTVSPropertyOp29
 70
     1
102
RTVSPropertyOp30
 70
     1
102
RTVSPropertyOp31
 70
     1
102
RTVSPropertyOp32
 70
     1
  0
XRECORD
  5
139
102
{ACAD_REACTORS
330
138
102
}
330
138
100
AcDbXrecord
280
     1
102
RTVSPropertyOp0
 70
     1
102
RTVSPropertyOp1
 70
     1
102
RTVSPropertyOp2
 70
     1
102
RTVSPropertyOp3
 70
     1
102
RTVSPropertyOp4
 70
     1
102
RTVSPropertyOp5
 70
     1
102
RTVSPropertyOp6
 70
     1
102
RTVSPropertyOp7
 70
     1
102
RTVSPropertyOp8
 70
     1
102
RTVSPropertyOp9
 70
     1
102
RTVSPropertyOp10
 70
     1
102
RTVSPropertyOp11
 70
     1
102
RTVSPropertyOp12
 70
     1
102
RTVSPropertyOp13
 70
     1
102
RTVSPropertyOp14
 70
     1
102
RTVSPropertyOp15
 70
     1
102
RTVSPropertyOp16
 70
     1
102
RTVSPropertyOp17
 70
     1
102
RTVSPropertyOp18
 70
     1
102
RTVSPropertyOp19
 70
     1
102
RTVSPropertyOp20
 70
     1
102
RTVSPropertyOp21
 70
     1
102
RTVSPropertyOp22
 70
     1
102
RTVSPropertyOp23
 70
     1
102
RTVSPropertyOp24
 70
     1
102
RTVSPropertyOp25
 70
     1
102
RTVSPropertyOp26
 70
     1
102
RTVSPropertyOp27
 70
     1
102
RTVSPropertyOp28
 70
     1
102
RTVSPropertyOp29
 70
     1
102
RTVSPropertyOp30
 70
     1
102
RTVSPropertyOp31
 70
     1
102
RTVSPropertyOp32
 70
     1
  0
XRECORD
  5
13B
102
{ACAD_REACTORS
330
13A
102
}
330
13A
100
AcDbXrecord
280
     1
102
RTVSPropertyOp0
 70
     1
102
RTVSPropertyOp1
 70
     1
102
RTVSPropertyOp2
 70
     1
102
RTVSPropertyOp3
 70
     1
102
RTVSPropertyOp4
 70
     1
102
RTVSPropertyOp5
 70
     1
102
RTVSPropertyOp6
 70
     1
102
RTVSPropertyOp7
 70
     1
102
RTVSPropertyOp8
 70
     1
102
RTVSPropertyOp9
 70
     1
102
RTVSPropertyOp10
 70
     1
102
RTVSPropertyOp11
 70
     1
102
RTVSPropertyOp12
 70
     1
102
RTVSPropertyOp13
 70
     1
102
RTVSPropertyOp14
 70
     1
102
RTVSPropertyOp15
 70
     1
102
RTVSPropertyOp16
 70
     1
102
RTVSPropertyOp17
 70
     1
102
RTVSPropertyOp18
 70
     1
102
RTVSPropertyOp19
 70
     1
102
RTVSPropertyOp20
 70
     1
102
RTVSPropertyOp21
 70
     1
102
RTVSPropertyOp22
 70
     1
102
RTVSPropertyOp23
 70
     1
102
RTVSPropertyOp24
 70
     1
102
RTVSPropertyOp25
 70
     1
102
RTVSPropertyOp26
 70
     1
102
RTVSPropertyOp27
 70
     1
102
RTVSPropertyOp28
 70
     1
102
RTVSPropertyOp29
 70
     1
102
RTVSPropertyOp30
 70
     1
102
RTVSPropertyOp31
 70
     1
102
RTVSPropertyOp32
 70
     1
  0
XRECORD
  5
14F
102
{ACAD_REACTORS
330
14E
102
}
330
14E
100
AcDbXrecord
280
     1
102
RTVSPropertyOp0
 70
     1
102
RTVSPropertyOp1
 70
     1
102
RTVSPropertyOp2
 70
     1
102
RTVSPropertyOp3
 70
     1
102
RTVSPropertyOp4
 70
     1
102
RTVSPropertyOp5
 70
     1
102
RTVSPropertyOp6
 70
     1
102
RTVSPropertyOp7
 70
     1
102
RTVSPropertyOp8
 70
     1
102
RTVSPropertyOp9
 70
     1
102
RTVSPropertyOp10
 70
     1
102
RTVSPropertyOp11
 70
     1
102
RTVSPropertyOp12
 70
     1
102
RTVSPropertyOp13
 70
     1
102
RTVSPropertyOp14
 70
     1
102
RTVSPropertyOp15
 70
     1
102
RTVSPropertyOp16
 70
     1
102
RTVSPropertyOp17
 70
     1
102
RTVSPropertyOp18
 70
     1
102
RTVSPropertyOp19
 70
     1
102
RTVSPropertyOp20
 70
     1
102
RTVSPropertyOp21
 70
     1
102
RTVSPropertyOp22
 70
     1
102
RTVSPropertyOp23
 70
     1
102
RTVSPropertyOp24
 70
     1
102
RTVSPropertyOp25
 70
     1
102
RTVSPropertyOp26
 70
     1
102
RTVSPropertyOp27
 70
     1
102
RTVSPropertyOp28
 70
     1
102
RTVSPropertyOp29
 70
     1
102
RTVSPropertyOp30
 70
     1
102
RTVSPropertyOp31
 70
     1
102
RTVSPropertyOp32
 70
     1
  0
XRECORD
  5
145
102
{ACAD_REACTORS
330
144
102
}
330
144
100
AcDbXrecord
280
     1
102
RTVSPropertyOp0
 70
     1
102
RTVSPropertyOp1
 70
     1
102
RTVSPropertyOp2
 70
     1
102
RTVSPropertyOp3
 70
     1
102
RTVSPropertyOp4
 70
     1
102
RTVSPropertyOp5
 70
     1
102
RTVSPropertyOp6
 70
     1
102
RTVSPropertyOp7
 70
     1
102
RTVSPropertyOp8
 70
     1
102
RTVSPropertyOp9
 70
     1
102
RTVSPropertyOp10
 70
     1
102
RTVSPropertyOp11
 70
     1
102
RTVSPropertyOp12
 70
     1
102
RTVSPropertyOp13
 70
     1
102
RTVSPropertyOp14
 70
     1
102
RTVSPropertyOp15
 70
     1
102
RTVSPropertyOp16
 70
     1
102
RTVSPropertyOp17
 70
     1
102
RTVSPropertyOp18
 70
     1
102
RTVSPropertyOp19
 70
     1
102
RTVSPropertyOp20
 70
     1
102
RTVSPropertyOp21
 70
     1
102
RTVSPropertyOp22
 70
     1
102
RTVSPropertyOp23
 70
     1
102
RTVSPropertyOp24
 70
     1
102
RTVSPropertyOp25
 70
     1
102
RTVSPropertyOp26
 70
     1
102
RTVSPropertyOp27
 70
     1
102
RTVSPropertyOp28
 70
     1
102
RTVSPropertyOp29
 70
     1
102
RTVSPropertyOp30
 70
     1
102
RTVSPropertyOp31
 70
     1
102
RTVSPropertyOp32
 70
     1
  0
XRECORD
  5
14D
102
{ACAD_REACTORS
330
14C
102
}
330
14C
100
AcDbXrecord
280
     1
102
RTVSPropertyOp0
 70
     1
102
RTVSPropertyOp1
 70
     1
102
RTVSPropertyOp2
 70
     1
102
RTVSPropertyOp3
 70
     1
102
RTVSPropertyOp4
 70
     1
102
RTVSPropertyOp5
 70
     1
102
RTVSPropertyOp6
 70
     1
102
RTVSPropertyOp7
 70
     1
102
RTVSPropertyOp8
 70
     1
102
RTVSPropertyOp9
 70
     1
102
RTVSPropertyOp10
 70
     1
102
RTVSPropertyOp11
 70
     1
102
RTVSPropertyOp12
 70
     1
102
RTVSPropertyOp13
 70
     1
102
RTVSPropertyOp14
 70
     1
102
RTVSPropertyOp15
 70
     1
102
RTVSPropertyOp16
 70
     1
102
RTVSPropertyOp17
 70
     1
102
RTVSPropertyOp18
 70
     1
102
RTVSPropertyOp19
 70
     1
102
RTVSPropertyOp20
 70
     1
102
RTVSPropertyOp21
 70
     1
102
RTVSPropertyOp22
 70
     1
102
RTVSPropertyOp23
 70
     1
102
RTVSPropertyOp24
 70
     1
102
RTVSPropertyOp25
 70
     1
102
RTVSPropertyOp26
 70
     1
102
RTVSPropertyOp27
 70
     1
102
RTVSPropertyOp28
 70
     1
102
RTVSPropertyOp29
 70
     1
102
RTVSPropertyOp30
 70
     1
102
RTVSPropertyOp31
 70
     1
102
RTVSPropertyOp32
 70
     1
  0
ENDSEC
  0
EOF
