  0
SECTION
  2
HEADER
  9
$ACADVER
  1
AC1015
  9
$ACADMAINTVER
 70
     6
  9
$DWGCODEPAGE
  3
ANSI_1252
  9
$INSBASE
 10
0.0
 20
0.0
 30
0.0
  9
$EXTMIN
 10
0.0
 20
0.0
 30
0.0
  9
$EXTMAX
 10
210.0
 20
297.0
 30
0.0
  9
$LIMMIN
 10
0.0
 20
0.0
  9
$LIMMAX
 10
210.0
 20
297.0
  9
$ORTHOMODE
 70
     0
  9
$REGENMODE
 70
     1
  9
$FILLMODE
 70
     1
  9
$QTEXTMODE
 70
     0
  9
$MIRRTEXT
 70
     1
  9
$LTSCALE
 40
1.0
  9
$ATTMODE
 70
     1
  9
$TEXTSIZE
 40
2.5
  9
$TRACEWID
 40
1.0
  9
$TEXTSTYLE
  7
Standard
  9
$CLAYER
  8
0
  9
$CELTYPE
  6
ByLayer
  9
$CECOLOR
 62
   256
  9
$CELTSCALE
 40
1.0
  9
$DISPSILH
 70
     0
  9
$DIMSCALE
 40
1.0
  9
$DIMASZ
 40
2.5
  9
$DIMEXO
 40
0.625
  9
$DIMDLI
 40
3.75
  9
$DIMRND
 40
0.0
  9
$DIMDLE
 40
0.0
  9
$DIMEXE
 40
1.25
  9
$DIMTP
 40
0.0
  9
$DIMTM
 40
0.0
  9
$DIMTXT
 40
2.5
  9
$DIMCEN
 40
2.5
  9
$DIMTSZ
 40
0.0
  9
$DIMTOL
 70
     0
  9
$DIMLIM
 70
     0
  9
$DIMTIH
 70
     0
  9
$DIMTOH
 70
     0
  9
$DIMSE1
 70
     0
  9
$DIMSE2
 70
     0
  9
$DIMTAD
 70
     1
  9
$DIMZIN
 70
     8
  9
$DIMBLK
  1

  9
$DIMASO
 70
     1
  9
$DIMSHO
 70
     1
  9
$DIMPOST
  1

  9
$DIMAPOST
  1

  9
$DIMALT
 70
     0
  9
$DIMALTD
 70
     3
  9
$DIMALTF
 40
0.0393700787
  9
$DIMLFAC
 40
1.0
  9
$DIMTOFL
 70
     1
  9
$DIMTVP
 40
0.0
  9
$DIMTIX
 70
     0
  9
$DIMSOXD
 70
     0
  9
$DIMSAH
 70
     0
  9
$DIMBLK1
  1

  9
$DIMBLK2
  1

  9
$DIMSTYLE
  2
ISO-25
  9
$DIMCLRD
 70
     0
  9
$DIMCLRE
 70
     0
  9
$DIMCLRT
 70
     0
  9
$DIMTFAC
 40
1.0
  9
$DIMGAP
 40
0.625
  9
$DIMJUST
 70
     0
  9
$DIMSD1
 70
     0
  9
$DIMSD2
 70
     0
  9
$DIMTOLJ
 70
     0
  9
$DIMTZIN
 70
     8
  9
$DIMALTZ
 70
     0
  9
$DIMALTTZ
 70
     0
  9
$DIMUPT
 70
     0
  9
$DIMDEC
 70
     2
  9
$DIMTDEC
 70
     2
  9
$DIMALTU
 70
     2
  9
$DIMALTTD
 70
     3
  9
$DIMTXSTY
  7
Standard
  9
$DIMAUNIT
 70
     0
  9
$DIMADEC
 70
     0
  9
$DIMALTRND
 40
0.0
  9
$DIMAZIN
 70
     0
  9
$DIMDSEP
 70
    44
  9
$DIMATFIT
 70
     3
  9
$DIMFRAC
 70
     0
  9
$DIMLDRBLK
  1

  9
$DIMLUNIT
 70
     2
  9
$DIMLWD
 70
    -2
  9
$DIMLWE
 70
    -2
  9
$DIMTMOVE
 70
     0
  9
$LUNITS
 70
     2
  9
$LUPREC
 70
     4
  9
$SKETCHINC
 40
1.0
  9
$FILLETRAD
 40
10.0
  9
$AUNITS
 70
     0
  9
$AUPREC
 70
     0
  9
$MENU
  1
.
  9
$ELEVATION
 40
0.0
  9
$PELEVATION
 40
0.0
  9
$THICKNESS
 40
0.0
  9
$LIMCHECK
 70
     0
  9
$CHAMFERA
 40
10.0
  9
$CHAMFERB
 40
10.0
  9
$CHAMFERC
 40
20.0
  9
$CHAMFERD
 40
0.0
  9
$SKPOLY
 70
     0
  9
$TDCREATE
 40
2457564.414334919
  9
$TDUCREATE
 40
2457564.331001586
  9
$TDUPDATE
 40
2457564.414337222
  9
$TDUUPDATE
 40
2457564.331003889
  9
$TDINDWG
 40
0.0000000116
  9
$TDUSRTIMER
 40
0.0000000116
  9
$USRTIMER
 70
     1
  9
$ANGBASE
 50
0.0
  9
$ANGDIR
 70
     0
  9
$PDMODE
 70
     0
  9
$PDSIZE
 40
0.0
  9
$PLINEWID
 40
0.0
  9
$SPLFRAME
 70
     0
  9
$SPLINETYPE
 70
     6
  9
$SPLINESEGS
 70
     8
  9
$HANDSEED
  5
1AE
  9
$SURFTAB1
 70
     6
  9
$SURFTAB2
 70
     6
  9
$SURFTYPE
 70
     6
  9
$SURFU
 70
     6
  9
$SURFV
 70
     6
  9
$UCSBASE
  2

  9
$UCSNAME
  2

  9
$UCSORG
 10
0.0
 20
0.0
 30
0.0
  9
$UCSXDIR
 10
1.0
 20
0.0
 30
0.0
  9
$UCSYDIR
 10
0.0
 20
1.0
 30
0.0
  9
$UCSORTHOREF
  2

  9
$UCSORTHOVIEW
 70
     0
  9
$UCSORGTOP
 10
0.0
 20
0.0
 30
0.0
  9
$UCSORGBOTTOM
 10
0.0
 20
0.0
 30
0.0
  9
$UCSORGLEFT
 10
0.0
 20
0.0
 30
0.0
  9
$UCSORGRIGHT
 10
0.0
 20
0.0
 30
0.0
  9
$UCSORGFRONT
 10
0.0
 20
0.0
 30
0.0
  9
$UCSORGBACK
 10
0.0
 20
0.0
 30
0.0
  9
$PUCSBASE
  2

  9
$PUCSNAME
  2

  9
$PUCSORG
 10
0.0
 20
0.0
 30
0.0
  9
$PUCSXDIR
 10
1.0
 20
0.0
 30
0.0
  9
$PUCSYDIR
 10
0.0
 20
1.0
 30
0.0
  9
$PUCSORTHOREF
  2

  9
$PUCSORTHOVIEW
 70
     0
  9
$PUCSORGTOP
 10
0.0
 20
0.0
 30
0.0
  9
$PUCSORGBOTTOM
 10
0.0
 20
0.0
 30
0.0
  9
$PUCSORGLEFT
 10
0.0
 20
0.0
 30
0.0
  9
$PUCSORGRIGHT
 10
0.0
 20
0.0
 30
0.0
  9
$PUCSORGFRONT
 10
0.0
 20
0.0
 30
0.0
  9
$PUCSORGBACK
 10
0.0
 20
0.0
 30
0.0
  9
$USERI1
 70
     0
  9
$USERI2
 70
     0
  9
$USERI3
 70
     0
  9
$USERI4
 70
     0
  9
$USERI5
 70
     0
  9
$USERR1
 40
0.0
  9
$USERR2
 40
0.0
  9
$USERR3
 40
0.0
  9
$USERR4
 40
0.0
  9
$USERR5
 40
0.0
  9
$WORLDVIEW
 70
     1
  9
$SHADEDGE
 70
     3
  9
$SHADEDIF
 70
    70
  9
$TILEMODE
 70
     1
  9
$MAXACTVP
 70
    64
  9
$PINSBASE
 10
0.0
 20
0.0
 30
0.0
  9
$PLIMCHECK
 70
     0
  9
$PEXTMIN
 10
0.0
 20
0.0
 30
0.0
  9
$PEXTMAX
 10
210.0
 20
297.0
 30
0.0
  9
$PLIMMIN
 10
0.0
 20
0.0
  9
$PLIMMAX
 10
210.0
 20
297.0
  9
$UNITMODE
 70
     0
  9
$VISRETAIN
 70
     1
  9
$PLINEGEN
 70
     0
  9
$PSLTSCALE
 70
     1
  9
$TREEDEPTH
 70
  3020
  9
$CMLSTYLE
  2
Standard
  9
$CMLJUST
 70
     0
  9
$CMLSCALE
 40
20.0
  9
$PROXYGRAPHICS
 70
     1
  9
$MEASUREMENT
 70
     1
  9
$CELWEIGHT
370
    -1
  9
$ENDCAPS
280
     0
  9
$JOINSTYLE
280
     0
  9
$LWDISPLAY
290
     0
  9
$INSUNITS
 70
     4
  9
$HYPERLINKBASE
  1

  9
$STYLESHEET
  1

  9
$XEDIT
290
     1
  9
$CEPSNTYPE
380
     0
  9
$PSTYLEMODE
290
     1
  9
$FINGERPRINTGUID
  2
{47BA2668-BFBC-4466-BFA4-DFFB05835A31}
  9
$VERSIONGUID
  2
{FAEB1C32-E019-11D5-929B-00C0DF256EC4}
  9
$EXTNAMES
290
     1
  9
$PSVPSCALE
 40
0.0
  9
$OLESTARTUP
290
     0
  0
ENDSEC
  0
SECTION
  2
CLASSES
  0
CLASS
  1
ACDBDICTIONARYWDFLT
  2
AcDbDictionaryWithDefault
  3
ObjectDBX Classes
 90
        0
280
     0
281
     0
  0
CLASS
  1
VISUALSTYLE
  2
AcDbVisualStyle
  3
ObjectDBX Classes
 90
     4095
280
     0
281
     0
  0
CLASS
  1
MATERIAL
  2
AcDbMaterial
  3
ObjectDBX Classes
 90
     1153
280
     0
281
     0
  0
CLASS
  1
DICTIONARYVAR
  2
AcDbDictionaryVar
  3
ObjectDBX Classes
 90
        0
280
     0
281
     0
  0
CLASS
  1
ACDBPLACEHOLDER
  2
AcDbPlaceHolder
  3
ObjectDBX Classes
 90
        0
280
     0
281
     0
  0
CLASS
  1
LAYOUT
  2
AcDbLayout
  3
ObjectDBX Classes
 90
        0
280
     0
281
     0
  0
ENDSEC
  0
SECTION
  2
TABLES
  0
TABLE
  2
VPORT
  5
8
330
0
100
AcDbSymbolTable
 70
     1
  0
VPORT
  5
29
330
8
100
AcDbSymbolTableRecord
100
AcDbViewportTableRecord
  2
*Active
 70
     0
 10
0.0
 20
0.0
 11
1.0
 21
1.0
 12
344.1869158879
 22
148.5
 13
0.0
 23
0.0
 14
10.0
 24
10.0
 15
10.0
 25
10.0
 16
0.0
 26
0.0
 36
1.0
 17
0.0
 27
0.0
 37
0.0
 40
297.0
 41
1.9729729729
 42
50.0
 43
0.0
 44
0.0
 50
0.0
 51
0.0
 71
     0
 72
   100
 73
     1
 74
     3
 75
     0
 76
     0
 77
     0
 78
     0
281
     0
 65
     1
110
0.0
120
0.0
130
0.0
111
1.0
121
0.0
131
0.0
112
0.0
122
1.0
132
0.0
 79
     0
146
0.0
  0
ENDTAB
  0
TABLE
  2
LTYPE
  5
5
330
0
100
AcDbSymbolTable
 70
     2
  0
LTYPE
  5
14
330
5
100
AcDbSymbolTableRecord
100
AcDbLinetypeTableRecord
  2
ByBlock
 70
     0
  3

 72
    65
 73
     0
 40
0.0
  0
LTYPE
  5
15
330
5
100
AcDbSymbolTableRecord
100
AcDbLinetypeTableRecord
  2
ByLayer
 70
     0
  3

 72
    65
 73
     0
 40
0.0
  0
LTYPE
  5
16
330
5
100
AcDbSymbolTableRecord
100
AcDbLinetypeTableRecord
  2
Continuous
 70
     0
  3
Solid line
 72
    65
 73
     0
 40
0.0
  0
LTYPE
  5
55
330
5
100
AcDbSymbolTableRecord
100
AcDbLinetypeTableRecord
  2
HIDDEN2
 70
     0
  3
Hidden (.5x) _ _ _ _ _ _ _ _ _ _ _ _ _ _ _ _ _ 
 72
    65
 73
     2
 40
4.7625
 49
3.175
 74
     4
 75
     0
340
0
 46
0.0
 50
0.0
 44
0.0
 45
0.0
 49
-1.5875
 74
     4
 75
     0
340
0
 46
0.0
 50
0.0
 44
0.0
 45
0.0
  0
ENDTAB
  0
TABLE
  2
LAYER
  5
2
330
0
100
AcDbSymbolTable
 70
     5
  0
LAYER
  5
10
330
2
100
AcDbSymbolTableRecord
100
AcDbLayerTableRecord
  2
0
 70
     0
 62
     7
  6
Continuous
370
    -3
390
F
  0
LAYER
  5
3F
330
2
100
AcDbSymbolTableRecord
100
AcDbLayerTableRecord
  2
SK1
 70
     0
 62
     4
  6
Continuous
370
    18
390
F
  0
LAYER
  5
54
330
2
100
AcDbSymbolTableRecord
100
AcDbLayerTableRecord
  2
SK3
 70
     0
 62
     1
  6
HIDDEN2
370
    15
390
F
  0
LAYER
  5
12A
330
2
100
AcDbSymbolTableRecord
100
AcDbLayerTableRecord
  2
SK4
 70
     0
 62
     2
  6
Continuous
370
    13
390
F
  0
LAYER
  5
12C
330
2
100
AcDbSymbolTableRecord
100
AcDbLayerTableRecord
  2
SK2
 70
     0
 62
     7
  6
Continuous
370
    15
390
F
  0
ENDTAB
  0
TABLE
  2
STYLE
  5
3
330
0
100
AcDbSymbolTable
 70
     2
  0
STYLE
  5
11
330
3
100
AcDbSymbolTableRecord
100
AcDbTextStyleTableRecord
  2
Standard
 70
     0
 40
0.0
 41
1.0
 50
0.0
 71
     0
 42
2.5
  3
txt
  4

  0
STYLE
  5
13F
330
3
100
AcDbSymbolTableRecord
100
AcDbTextStyleTableRecord
  2
SEACAD_Solid_Edge_ISO
 70
     0
 40
0.0
 41
1.0
 50
0.0
 71
     0
 42
0.2
  3
seiso.ttf
  4

1001
ACAD
1000
Solid Edge ISO
1071
        0
  0
ENDTAB
  0
TABLE
  2
VIEW
  5
6
330
0
100
AcDbSymbolTable
 70
     0
  0
ENDTAB
  0
TABLE
  2
UCS
  5
7
330
0
100
AcDbSymbolTable
 70
     0
  0
ENDTAB
  0
TABLE
  2
APPID
  5
9
330
0
100
AcDbSymbolTable
 70
     1
  0
APPID
  5
12
330
9
100
AcDbSymbolTableRecord
100
AcDbRegAppTableRecord
  2
ACAD
 70
     0
  0
ENDTAB
  0
TABLE
  2
DIMSTYLE
  5
A
330
0
100
AcDbSymbolTable
 70
     3
100
AcDbDimStyleTable
  0
DIMSTYLE
105
27
330
A
100
AcDbSymbolTableRecord
100
AcDbDimStyleTableRecord
  2
ISO-25
 70
     0
 41
2.5
 42
0.625
 43
3.75
 44
1.25
 73
     0
 74
     0
 77
     1
 78
     8
140
2.5
141
2.5
143
0.0393700787
147
0.625
171
     3
172
     1
178
     0
271
     2
272
     2
274
     3
278
    44
283
     0
284
     8
340
11
  0
DIMSTYLE
105
12D
330
A
100
AcDbSymbolTableRecord
100
AcDbDimStyleTableRecord
  2
Standard
 70
     0
178
     0
340
11
  0
DIMSTYLE
105
140
102
{ACAD_REACTORS
330
141
330
14B
330
156
330
160
102
}
330
A
100
AcDbSymbolTableRecord
100
AcDbDimStyleTableRecord
  2
DIN
 70
     0
 41
3.5
 42
0.0
 44
1.75
 73
     0
 74
     0
 77
     1
 78
     8
140
3.5
141
1.75
147
1.75
172
     1
173
     1
178
     0
179
     3
271
     2
272
     2
278
    44
284
     8
340
13F
343
13A
344
13A
  0
ENDTAB
  0
TABLE
  2
BLOCK_RECORD
  5
1
330
0
100
AcDbSymbolTable
 70
    10
  0
BLOCK_RECORD
  5
1F
330
1
100
AcDbSymbolTableRecord
100
AcDbBlockTableRecord
  2
*Model_Space
340
22
  0
BLOCK_RECORD
  5
1B
330
1
100
AcDbSymbolTableRecord
100
AcDbBlockTableRecord
  2
*Paper_Space
340
1E
  0
BLOCK_RECORD
  5
12E
330
1
100
AcDbSymbolTableRecord
100
AcDbBlockTableRecord
  2
_OBLIQUE
340
0
  0
BLOCK_RECORD
  5
132
330
1
100
AcDbSymbolTableRecord
100
AcDbBlockTableRecord
  2
_DOT
340
0
  0
BLOCK_RECORD
  5
13A
330
1
100
AcDbSymbolTableRecord
100
AcDbBlockTableRecord
  2
_SE_FILLED
340
0
  0
BLOCK_RECORD
  5
142
330
1
100
AcDbSymbolTableRecord
100
AcDbBlockTableRecord
  2
DMBLK95
340
0
  0
BLOCK_RECORD
  5
14C
330
1
100
AcDbSymbolTableRecord
100
AcDbBlockTableRecord
  2
DMBLK96
340
0
  0
BLOCK_RECORD
  5
157
330
1
100
AcDbSymbolTableRecord
100
AcDbBlockTableRecord
  2
DMBLK97
340
0
  0
BLOCK_RECORD
  5
161
330
1
100
AcDbSymbolTableRecord
100
AcDbBlockTableRecord
  2
DMBLK98
340
0
  0
BLOCK_RECORD
  5
16B
330
1
100
AcDbSymbolTableRecord
100
AcDbBlockTableRecord
  2
Nullpunkt
340
0
102
{BLKREFS
331
175
102
}
  0
BLOCK_RECORD
  5
176
330
1
100
AcDbSymbolTableRecord
100
AcDbBlockTableRecord
  2
Einfügepunkt
340
0
102
{BLKREFS
331
180
102
}
  0
ENDTAB
  0
ENDSEC
  0
SECTION
  2
BLOCKS
  0
BLOCK
  5
20
330
1F
100
AcDbEntity
  8
0
100
AcDbBlockBegin
  2
*Model_Space
 70
     0
 10
0.0
 20
0.0
 30
0.0
  3
*Model_Space
  1

  0
ENDBLK
  5
21
330
1F
100
AcDbEntity
  8
0
100
AcDbBlockEnd
  0
BLOCK
  5
1C
330
1B
100
AcDbEntity
 67
     1
  8
0
100
AcDbBlockBegin
  2
*Paper_Space
 70
     0
 10
0.0
 20
0.0
 30
0.0
  3
*Paper_Space
  1

  0
ENDBLK
  5
1D
330
1B
100
AcDbEntity
 67
     1
  8
0
100
AcDbBlockEnd
  0
BLOCK
  5
12F
330
12E
100
AcDbEntity
  8
0
100
AcDbBlockBegin
  2
_OBLIQUE
 70
     0
 10
0.0
 20
0.0
 30
0.0
  3
_OBLIQUE
  1

  0
LINE
  5
131
330
12E
100
AcDbEntity
  8
0
  6
ByBlock
 62
     0
370
    -2
100
AcDbLine
 10
-0.5
 20
-0.5
 30
0.0
 11
0.5
 21
0.5
 31
0.0
  0
ENDBLK
  5
130
330
12E
100
AcDbEntity
  8
0
100
AcDbBlockEnd
  0
BLOCK
  5
133
330
132
100
AcDbEntity
  8
0
100
AcDbBlockBegin
  2
_DOT
 70
     0
 10
0.0
 20
0.0
 30
0.0
  3
_DOT
  1

  0
POLYLINE
  5
135
330
132
100
AcDbEntity
  8
0
  6
ByBlock
 62
     0
100
AcDb2dPolyline
 66
     1
 10
0.0
 20
0.0
 30
0.0
 70
     1
 40
0.5
 41
0.5
  0
VERTEX
  5
137
330
135
100
AcDbEntity
  8
0
  6
ByBlock
 62
     0
100
AcDbVertex
100
AcDb2dVertex
 10
-0.25
 20
0.0
 30
0.0
 42
1.0
  0
VERTEX
  5
138
330
135
100
AcDbEntity
  8
0
  6
ByBlock
 62
     0
100
AcDbVertex
100
AcDb2dVertex
 10
0.25
 20
0.0
 30
0.0
 42
1.0
  0
SEQEND
  5
139
330
135
100
AcDbEntity
  8
0
  6
ByBlock
 62
     0
  0
LINE
  5
136
330
132
100
AcDbEntity
  8
0
  6
ByBlock
 62
     0
370
    -2
100
AcDbLine
 10
-0.5
 20
0.0
 30
0.0
 11
-1.0
 21
0.0
 31
0.0
  0
ENDBLK
  5
134
330
132
100
AcDbEntity
  8
0
100
AcDbBlockEnd
  0
BLOCK
  5
13D
330
13A
100
AcDbEntity
  8
0
100
AcDbBlockBegin
  2
_SE_FILLED
 70
     0
 10
0.0
 20
0.0
 30
0.0
  3
_SE_FILLED
  1

  0
SOLID
  5
13B
330
13A
100
AcDbEntity
  8
0
 62
     0
100
AcDbTrace
 10
0.0
 20
0.0
 30
0.0
 11
-1.0
 21
-0.1665
 31
0.0
 12
-1.0
 22
0.1665
 32
0.0
 13
0.0
 23
0.0
 33
0.0
  0
LINE
  5
13C
330
13A
100
AcDbEntity
  8
0
 62
     0
100
AcDbLine
 10
0.0
 20
0.0
 30
0.0
 11
-1.0
 21
0.0
 31
0.0
  0
ENDBLK
  5
13E
330
13A
100
AcDbEntity
  8
0
100
AcDbBlockEnd
  0
BLOCK
  5
149
330
142
100
AcDbEntity
  8
0
100
AcDbBlockBegin
  2
DMBLK95
 70
     0
 10
0.0
 20
0.0
 30
0.0
  3
DMBLK95
  1

  0
HATCH
  5
143
330
142
100
AcDbEntity
  8
SK2
  6
Continuous
 62
   136
100
AcDbHatch
 10
0.0
 20
0.0
 30
0.0
210
0.0
220
0.0
230
1.0
  2
SOLID
 70
     1
 71
     0
 91
        1
 92
        1
 93
        3
 72
     1
 10
-13.73883986248411
 20
15.05213692110483
 11
-17.23883997051752
 21
14.46880356976593
 72
     1
 10
-17.23883997051752
 20
14.46880356976593
 11
-13.73883986248411
 21
13.88547021842703
 72
     1
 10
-13.73883986248411
 20
13.88547021842703
 11
-13.73883986248411
 21
15.05213692110483
 97
        0
 75
     0
 76
     1
 98
        0
  0
HATCH
  5
144
330
142
100
AcDbEntity
  8
SK2
  6
Continuous
 62
   136
100
AcDbHatch
 10
0.0
 20
0.0
 30
0.0
210
0.0
220
0.0
230
1.0
  2
SOLID
 70
     1
 71
     0
 91
        1
 92
        1
 93
        3
 72
     1
 10
6.761159772437443
 20
15.05213692110483
 11
6.761159772437443
 21
13.88547021842703
 72
     1
 10
6.761159772437443
 20
13.88547021842703
 11
10.26115988047086
 21
14.46880356976593
 72
     1
 10
10.26115988047086
 20
14.46880356976593
 11
6.761159772437443
 21
15.05213692110483
 97
        0
 75
     0
 76
     1
 98
        0
  0
LINE
  5
145
330
142
100
AcDbEntity
  8
SK2
  6
Continuous
 62
   136
100
AcDbLine
 10
-17.2388399705
 20
5.3945579902
 30
0.0
 11
-17.2388399705
 21
16.2188036238
 31
0.0
  0
LINE
  5
146
330
142
100
AcDbEntity
  8
SK2
  6
Continuous
 62
   136
100
AcDbLine
 10
10.2611600295
 20
5.5799562379
 30
0.0
 11
10.2611600295
 21
16.2188036238
 31
0.0
  0
LINE
  5
147
330
142
100
AcDbEntity
  8
SK2
  6
Continuous
 62
   136
100
AcDbLine
 10
-17.2388399705
 20
14.4688035698
 30
0.0
 11
10.2611598805
 21
14.4688035698
 31
0.0
  0
TEXT
  5
148
330
142
100
AcDbEntity
  8
SK2
  6
Continuous
 62
   136
100
AcDbText
 10
-6.988840045
 20
15.3438035698
 30
0.0
 40
3.5
  1
27,5
  7
SEACAD_Solid_Edge_ISO
 11
-6.988840045
 21
18.8438035698
 31
0.0
100
AcDbText
 73
     3
  0
ENDBLK
  5
14A
330
142
100
AcDbEntity
  8
0
100
AcDbBlockEnd
  0
BLOCK
  5
154
330
14C
100
AcDbEntity
  8
0
100
AcDbBlockBegin
  2
DMBLK96
 70
     0
 10
0.0
 20
0.0
 30
0.0
  3
DMBLK96
  1

  0
HATCH
  5
14D
330
14C
100
AcDbEntity
  8
SK2
  6
Continuous
 62
   136
100
AcDbHatch
 10
0.0
 20
0.0
 30
0.0
210
0.0
220
0.0
230
1.0
  2
SOLID
 70
     1
 71
     0
 91
        1
 92
        1
 93
        3
 72
     1
 10
21.4884983128674
 20
-6.675000108033421
 11
20.90516496152849
 21
-3.175000000000003
 72
     1
 10
20.90516496152849
 20
-3.175000000000003
 11
20.32183161018959
 21
-6.675000108033421
 72
     1
 10
20.32183161018959
 20
-6.675000108033421
 11
21.4884983128674
 21
-6.675000108033421
 97
        0
 75
     0
 76
     1
 98
        0
  0
HATCH
  5
14E
330
14C
100
AcDbEntity
  8
SK2
  6
Continuous
 62
   136
100
AcDbHatch
 10
0.0
 20
0.0
 30
0.0
210
0.0
220
0.0
230
1.0
  2
SOLID
 70
     1
 71
     0
 91
        1
 92
        1
 93
        3
 72
     1
 10
21.4884983128674
 20
6.675000108033425
 11
20.32183161018959
 21
6.675000108033425
 72
     1
 10
20.32183161018959
 20
6.675000108033425
 11
20.90516496152849
 21
3.175000000000006
 72
     1
 10
20.90516496152849
 20
3.175000000000006
 11
21.4884983128674
 21
6.675000108033425
 97
        0
 75
     0
 76
     1
 98
        0
  0
LINE
  5
14F
330
14C
100
AcDbEntity
  8
SK2
  6
Continuous
 62
   136
100
AcDbLine
 10
9.8611600295
 20
-3.175
 30
0.0
 11
22.6551650155
 21
-3.175
 31
0.0
  0
LINE
  5
150
330
14C
100
AcDbEntity
  8
SK2
  6
Continuous
 62
   136
100
AcDbLine
 10
9.8611600295
 20
3.175
 30
0.0
 11
22.6551650155
 21
3.175
 31
0.0
  0
LINE
  5
151
330
14C
100
AcDbEntity
  8
SK2
  6
Continuous
 62
   136
100
AcDbLine
 10
20.9051649615
 20
-10.1750002161
 30
0.0
 11
20.9051649615
 21
19.950000298
 31
0.0
  0
TEXT
  5
152
330
14C
100
AcDbEntity
  8
SK2
  6
Continuous
 62
   136
100
AcDbText
 10
20.0301649615
 20
12.1227270492
 30
0.0
 40
3.5
  1
6,35
 50
90.0
  7
SEACAD_Solid_Edge_ISO
 11
16.5301649615
 21
12.1227270492
 31
0.0
100
AcDbText
 73
     3
  0
TEXT
  5
153
330
14C
100
AcDbEntity
  8
SK2
  6
Continuous
 62
   136
100
AcDbText
 10
20.0301649615
 20
8.0499997765
 30
0.0
 40
3.5
  1
ø
 50
90.0
  7
SEACAD_Solid_Edge_ISO
 11
16.5301649615
 21
8.0499997765
 31
0.0
100
AcDbText
 73
     3
  0
ENDBLK
  5
155
330
14C
100
AcDbEntity
  8
0
100
AcDbBlockEnd
  0
BLOCK
  5
15E
330
157
100
AcDbEntity
  8
0
100
AcDbBlockBegin
  2
DMBLK97
 70
     0
 10
0.0
 20
0.0
 30
0.0
  3
DMBLK97
  1

  0
HATCH
  5
158
330
157
100
AcDbEntity
  8
SK2
  6
Continuous
 62
   136
100
AcDbHatch
 10
0.0
 20
0.0
 30
0.0
210
0.0
220
0.0
230
1.0
  2
SOLID
 70
     1
 71
     0
 91
        1
 92
        1
 93
        3
 72
     1
 10
-3.500000108033418
 20
-16.34056036349618
 11
0.0000000000000009
 21
-15.75722701215727
 72
     1
 10
0.0000000000000009
 20
-15.75722701215727
 11
-3.500000108033417
 21
-15.17389366081837
 72
     1
 10
-3.500000108033418
 20
-15.17389366081837
 11
-3.500000108033418
 21
-16.34056036349618
 97
        0
 75
     0
 76
     1
 98
        0
  0
HATCH
  5
159
330
157
100
AcDbEntity
  8
SK2
  6
Continuous
 62
   136
100
AcDbHatch
 10
0.0
 20
0.0
 30
0.0
210
0.0
220
0.0
230
1.0
  2
SOLID
 70
     1
 71
     0
 91
        1
 92
        1
 93
        3
 72
     1
 10
13.76116013751597
 20
-16.34056036349618
 11
13.76116013751597
 21
-15.17389366081837
 72
     1
 10
13.76116013751597
 20
-15.17389366081837
 11
10.26116002948255
 21
-15.75722701215727
 72
     1
 10
10.26116002948255
 20
-15.75722701215727
 11
13.76116013751597
 21
-16.34056036349618
 97
        0
 75
     0
 76
     1
 98
        0
  0
LINE
  5
15A
330
157
100
AcDbEntity
  8
SK2
  6
Continuous
 62
   136
100
AcDbLine
 10
0.0
 20
-7.9995115969
 30
0.0
 11
0.0
 21
-17.5072270662
 31
0.0
  0
LINE
  5
15B
330
157
100
AcDbEntity
  8
SK2
  6
Continuous
 62
   136
100
AcDbLine
 10
10.2611600295
 20
-4.1079837246
 30
0.0
 11
10.2611600295
 21
-17.5072270662
 31
0.0
  0
LINE
  5
15C
330
157
100
AcDbEntity
  8
SK2
  6
Continuous
 62
   136
100
AcDbLine
 10
-7.0000002161
 20
-15.7572270122
 30
0.0
 11
17.2611605376
 21
-15.7572270122
 31
0.0
  0
TEXT
  5
15D
330
157
100
AcDbEntity
  8
SK2
  6
Continuous
 62
   136
100
AcDbText
 10
0.9146710699
 20
-14.8822270122
 30
0.0
 40
3.5
  1
10,26
  7
SEACAD_Solid_Edge_ISO
 11
0.9146710699
 21
-11.3822270122
 31
0.0
100
AcDbText
 73
     3
  0
ENDBLK
  5
15F
330
157
100
AcDbEntity
  8
0
100
AcDbBlockEnd
  0
BLOCK
  5
169
330
161
100
AcDbEntity
  8
0
100
AcDbBlockBegin
  2
DMBLK98
 70
     0
 10
0.0
 20
0.0
 30
0.0
  3
DMBLK98
  1

  0
HATCH
  5
162
330
161
100
AcDbEntity
  8
SK2
  6
Continuous
 62
   136
100
AcDbHatch
 10
0.0
 20
0.0
 30
0.0
210
0.0
220
0.0
230
1.0
  2
SOLID
 70
     1
 71
     0
 91
        1
 92
        1
 93
        3
 72
     1
 10
-23.09783121260504
 20
4.499511488914323
 11
-21.93116450992723
 21
4.499511488914323
 72
     1
 10
-21.93116450992723
 20
4.499511488914323
 11
-22.51449786126614
 21
7.999511596947742
 72
     1
 10
-22.51449786126614
 20
7.999511596947742
 11
-23.09783121260504
 21
4.499511488914323
 97
        0
 75
     0
 76
     1
 98
        0
  0
HATCH
  5
163
330
161
100
AcDbEntity
  8
SK2
  6
Continuous
 62
   136
100
AcDbHatch
 10
0.0
 20
0.0
 30
0.0
210
0.0
220
0.0
230
1.0
  2
SOLID
 70
     1
 71
     0
 91
        1
 92
        1
 93
        3
 72
     1
 10
-23.09783121260504
 20
-4.499511166274714
 11
-22.51449786126614
 21
-7.999511274308133
 72
     1
 10
-22.51449786126614
 20
-7.999511274308133
 11
-21.93116450992723
 21
-4.499511166274714
 72
     1
 10
-21.93116450992723
 20
-4.499511166274714
 11
-23.09783121260504
 21
-4.499511166274714
 97
        0
 75
     0
 76
     1
 98
        0
  0
LINE
  5
164
330
161
100
AcDbEntity
  8
SK2
  6
Continuous
 62
   136
100
AcDbLine
 10
0.0
 20
7.9995115969
 30
0.0
 11
-24.2644979153
 21
7.9995115969
 31
0.0
  0
LINE
  5
165
330
161
100
AcDbEntity
  8
SK2
  6
Continuous
 62
   136
100
AcDbLine
 10
0.0
 20
-7.9995115969
 30
0.0
 11
-24.2644979153
 21
-7.9995115969
 31
0.0
  0
LINE
  5
166
330
161
100
AcDbEntity
  8
SK2
  6
Continuous
 62
   136
100
AcDbLine
 10
-22.5144978613
 20
7.9995115969
 30
0.0
 11
-22.5144978613
 21
-7.9995112743
 31
0.0
  0
TEXT
  5
167
330
161
100
AcDbEntity
  8
SK2
  6
Continuous
 62
   136
100
AcDbText
 10
-23.3894978613
 20
0.2465910704
 30
0.0
 40
3.5
  1
16
 50
90.0
  7
SEACAD_Solid_Edge_ISO
 11
-26.8894978613
 21
0.2465910704
 31
0.0
100
AcDbText
 73
     3
  0
TEXT
  5
168
330
161
100
AcDbEntity
  8
SK2
  6
Continuous
 62
   136
100
AcDbText
 10
-23.3894978613
 20
-3.8261362023
 30
0.0
 40
3.5
  1
ø
 50
90.0
  7
SEACAD_Solid_Edge_ISO
 11
-26.8894978613
 21
-3.8261362023
 31
0.0
100
AcDbText
 73
     3
  0
ENDBLK
  5
16A
330
161
100
AcDbEntity
  8
0
100
AcDbBlockEnd
  0
BLOCK
  5
173
330
16B
100
AcDbEntity
  8
0
100
AcDbBlockBegin
  2
Nullpunkt
 70
     0
 10
0.0
 20
0.0
 30
0.0
  3
Nullpunkt
  1

  0
HATCH
  5
16C
330
16B
100
AcDbEntity
  8
SK2
  6
Continuous
 62
     7
100
AcDbHatch
 10
0.0
 20
0.0
 30
0.0
210
0.0
220
0.0
230
1.0
  2
SOLID
 70
     1
 71
     0
 91
        1
 92
        1
 93
        3
 72
     1
 10
-1.0
 20
0.0
 11
0.0000000000000009
 21
0.0
 72
     1
 10
0.0
 20
0.0
 11
0.0
 21
1.000000000000001
 72
     2
 10
0.0
 20
0.0
 40
1.0
 50
90.0
 51
180.0
 73
     1
 97
        0
 75
     0
 76
     1
 98
        0
  0
HATCH
  5
16D
330
16B
100
AcDbEntity
  8
SK2
  6
Continuous
 62
     7
100
AcDbHatch
 10
0.0
 20
0.0
 30
0.0
210
0.0
220
0.0
230
1.0
  2
SOLID
 70
     1
 71
     0
 91
        1
 92
        1
 93
        3
 72
     2
 10
0.0
 20
0.0
 40
1.0
 50
270.0
 51
360.0
 73
     1
 72
     1
 10
1.0
 20
0.0
 11
-0.0000000000000009
 21
0.0
 72
     1
 10
0.0
 20
0.0
 11
0.0
 21
-1.000000000000001
 97
        0
 75
     0
 76
     1
 98
        0
  0
CIRCLE
  5
16E
330
16B
100
AcDbEntity
  8
SK2
  6
Continuous
 62
     7
100
AcDbCircle
 10
0.0
 20
0.0
 30
0.0
 40
1.0
  0
LINE
  5
16F
330
16B
100
AcDbEntity
  8
SK1
  6
Continuous
100
AcDbLine
 10
-1.0
 20
0.0
 30
0.0
 11
1.0
 21
0.0
 31
0.0
  0
LINE
  5
170
330
16B
100
AcDbEntity
  8
SK1
  6
Continuous
100
AcDbLine
 10
0.0
 20
1.0
 30
0.0
 11
0.0
 21
-1.0
 31
0.0
  0
POINT
  5
171
330
16B
100
AcDbEntity
  8
SK1
  6
Continuous
100
AcDbPoint
 10
0.0
 20
0.0
 30
0.0
  0
POINT
  5
172
330
16B
100
AcDbEntity
  8
SK1
  6
Continuous
100
AcDbPoint
 10
0.0
 20
0.0
 30
0.0
  0
ENDBLK
  5
174
330
16B
100
AcDbEntity
  8
0
100
AcDbBlockEnd
  0
BLOCK
  5
17E
330
176
100
AcDbEntity
  8
0
100
AcDbBlockBegin
  2
Einfügepunkt
 70
     0
 10
0.0
 20
0.0
 30
0.0
  3
Einfügepunkt
  1

  0
HATCH
  5
177
330
176
100
AcDbEntity
  8
SK2
  6
Continuous
 62
     7
100
AcDbHatch
 10
0.0
 20
0.0
 30
0.0
210
0.0
220
0.0
230
1.0
  2
SOLID
 70
     1
 71
     0
 91
        1
 92
        1
 93
        3
 72
     1
 10
-0.4502381196756744
 20
-0.0000000000000018
 11
0.0000000000000033
 21
-0.0000000000000018
 72
     1
 10
0.0
 20
-0.0000000000000018
 11
0.0
 21
0.4502381196756812
 72
     2
 10
0.0
 20
-0.0000000000000018
 40
0.4502381196756812
 50
90.0
 51
180.0
 73
     1
 97
        0
 75
     0
 76
     1
 98
        0
  0
HATCH
  5
178
330
176
100
AcDbEntity
  8
SK2
  6
Continuous
 62
     7
100
AcDbHatch
 10
0.0
 20
0.0
 30
0.0
210
0.0
220
0.0
230
1.0
  2
SOLID
 70
     1
 71
     0
 91
        1
 92
        1
 93
        3
 72
     2
 10
0.0
 20
-0.0000000000000018
 40
0.4502381196756812
 50
270.0
 51
360.0
 73
     1
 72
     1
 10
0.4502381196756815
 20
-0.0000000000000018
 11
0.0000000000000038
 21
-0.0000000000000018
 72
     1
 10
0.0
 20
-0.0000000000000018
 11
0.0
 21
-0.4502381196756812
 97
        0
 75
     0
 76
     1
 98
        0
  0
CIRCLE
  5
179
330
176
100
AcDbEntity
  8
SK2
  6
Continuous
 62
     7
100
AcDbCircle
 10
0.0
 20
0.0
 30
0.0
 40
0.4502381196756812
  0
LINE
  5
17A
330
176
100
AcDbEntity
  8
SK1
  6
Continuous
100
AcDbLine
 10
-0.4502381197
 20
0.0
 30
0.0
 11
0.4502381197
 21
0.0
 31
0.0
  0
LINE
  5
17B
330
176
100
AcDbEntity
  8
SK1
  6
Continuous
100
AcDbLine
 10
0.0
 20
0.4502381197
 30
0.0
 11
0.0
 21
-0.4502381197
 31
0.0
  0
POINT
  5
17C
330
176
100
AcDbEntity
  8
SK2
  6
Continuous
 62
     7
100
AcDbPoint
 10
0.0
 20
0.0
 30
0.0
  0
POINT
  5
17D
330
176
100
AcDbEntity
  8
SK2
  6
Continuous
 62
     7
100
AcDbPoint
 10
0.0
 20
0.0
 30
0.0
  0
ENDBLK
  5
17F
330
176
100
AcDbEntity
  8
0
100
AcDbBlockEnd
  0
ENDSEC
  0
SECTION
  2
ENTITIES
  0
LINE
  5
40
330
1F
100
AcDbEntity
  8
SK1
  6
Continuous
100
AcDbLine
 10
3.7611600295
 20
6.9
 30
0.0
 11
3.7611600295
 21
6.4835456525
 31
0.0
  0
LINE
  5
41
330
1F
100
AcDbEntity
  8
SK1
  6
Continuous
100
AcDbLine
 10
6.0611600295
 20
6.9
 30
0.0
 11
6.0611600295
 21
6.4835456525
 31
0.0
  0
LINE
  5
42
330
1F
100
AcDbEntity
  8
SK1
  6
Continuous
100
AcDbLine
 10
10.2611600295
 20
5.8095662974
 30
0.0
 11
10.2611600295
 21
6.1712613559
 31
0.0
  0
LINE
  5
43
330
1F
100
AcDbEntity
  8
SK1
  6
Continuous
100
AcDbLine
 10
10.1361600295
 20
6.0098208121
 30
0.0
 11
10.1361600295
 21
6.3877677069
 31
0.0
  0
LINE
  5
44
330
1F
100
AcDbEntity
  8
SK1
  6
Continuous
100
AcDbLine
 10
3.5611600295
 20
7.3078774026
 30
0.0
 11
3.5611600295
 21
3.3517395924
 31
0.0
  0
LINE
  5
45
330
1F
100
AcDbEntity
  8
SK1
  6
Continuous
100
AcDbLine
 10
3.1054907891
 20
-7.9036858695
 30
0.0
 11
3.1054907891
 21
-8.4359598646
 31
0.0
  0
LINE
  5
46
330
1F
100
AcDbEntity
  8
SK1
  6
Continuous
100
AcDbLine
 10
6.4776663804
 20
8.5
 30
0.0
 11
6.4776663804
 21
7.962888405
 31
0.0
  0
LINE
  5
47
330
1F
100
AcDbEntity
  8
SK1
  6
Continuous
100
AcDbLine
 10
6.2611600295
 20
8.5
 30
0.0
 11
6.2611600295
 21
7.962888405
 31
0.0
  0
LINE
  5
48
330
1F
100
AcDbEntity
  8
SK1
  6
Continuous
100
AcDbLine
 10
6.4776663804
 20
-8.5
 30
0.0
 11
6.4776663804
 21
-7.962888405
 31
0.0
  0
LINE
  5
49
330
1F
100
AcDbEntity
  8
SK1
  6
Continuous
100
AcDbLine
 10
6.2611600295
 20
-8.5
 30
0.0
 11
6.2611600295
 21
-7.962888405
 31
0.0
  0
LINE
  5
4A
330
1F
100
AcDbEntity
  8
SK1
  6
Continuous
100
AcDbLine
 10
6.4776663804
 20
7.962888405
 30
0.0
 11
6.2611600295
 21
7.962888405
 31
0.0
  0
LINE
  5
4B
330
1F
100
AcDbEntity
  8
SK1
  6
Continuous
100
AcDbLine
 10
6.4776663804
 20
7.7332783456
 30
0.0
 11
6.2611600295
 21
7.7332783456
 31
0.0
  0
LINE
  5
4C
330
1F
100
AcDbEntity
  8
SK1
  6
Continuous
100
AcDbLine
 10
3.1054907891
 20
7.9036858695
 30
0.0
 11
3.1054907891
 21
8.4359598646
 31
0.0
  0
LINE
  5
4D
330
1F
100
AcDbEntity
  8
SK1
  6
Continuous
100
AcDbLine
 10
10.2611600295
 20
-5.8095662974
 30
0.0
 11
10.2611600295
 21
-6.1712613559
 31
0.0
  0
LINE
  5
4E
330
1F
100
AcDbEntity
  8
SK1
  6
Continuous
100
AcDbLine
 10
10.1361600295
 20
-6.0098208121
 30
0.0
 11
10.1361600295
 21
-6.3877677069
 31
0.0
  0
LINE
  5
4F
330
1F
100
AcDbEntity
  8
SK1
  6
Continuous
100
AcDbLine
 10
3.7611600295
 20
-6.4835456525
 30
0.0
 11
3.7611600295
 21
-6.9
 31
0.0
  0
LINE
  5
50
330
1F
100
AcDbEntity
  8
SK1
  6
Continuous
100
AcDbLine
 10
6.0611600295
 20
-6.9
 30
0.0
 11
6.0611600295
 21
-6.4835456525
 31
0.0
  0
ARC
  5
51
330
1F
100
AcDbEntity
  8
SK1
  6
Continuous
100
AcDbCircle
 10
3.7539106216
 20
6.4467087859
 30
0.0
 40
0.1929094548823007
100
AcDbArc
 50
182.3254217845
 51
272.1536440521
  0
LINE
  5
52
330
1F
100
AcDbEntity
  8
SK1
  6
Continuous
100
AcDbLine
 10
3.7611600295
 20
6.2539355931
 30
0.0
 11
6.0611600295
 21
6.2539355931
 31
0.0
  0
ARC
  5
53
330
1F
100
AcDbEntity
  8
SK1
  6
Continuous
100
AcDbCircle
 10
6.0684150484
 20
6.4467027182
 30
0.0
 40
0.1929036023480862
100
AcDbArc
 50
267.8446228207
 51
357.6763113501
  0
LINE
  5
56
330
1F
100
AcDbEntity
  8
SK3
100
AcDbLine
 10
9.8611600295
 20
2.8053887726
 30
0.0
 11
-12.1747301133
 21
2.8053887726
 31
0.0
  0
ARC
  5
57
330
1F
100
AcDbEntity
  8
SK3
100
AcDbCircle
 10
9.8750985894
 20
3.4211031117
 30
0.0
 40
0.3863557923076896
100
AcDbArc
 50
267.932491209
 51
357.7633133735
  0
LINE
  5
58
330
1F
100
AcDbEntity
  8
SK1
  6
Continuous
100
AcDbLine
 10
10.2611600295
 20
5.5799562379
 30
0.0
 11
10.2611600295
 21
5.8095662974
 31
0.0
  0
ARC
  5
59
330
1F
100
AcDbEntity
  8
SK1
  6
Continuous
100
AcDbCircle
 10
10.0325313919
 20
5.8059951202
 30
0.0
 40
0.2286565267324212
100
AcDbArc
 50
0.8948867718
 51
63.0503997066
  0
SPLINE
  5
5A
330
1F
100
AcDbEntity
  8
SK1
  6
Continuous
100
AcDbSpline
210
0.0
220
0.0
230
1.0
 70
     8
 71
     3
 72
    11
 73
     7
 74
     0
 42
0.0000000024112808
 43
0.0000000001
 12
1.0
 22
0.0
 32
0.0
 13
1.0
 23
0.0
 33
0.0
 40
0.0
 40
0.0
 40
0.0
 40
0.0
 40
0.4999749398417524
 40
0.4999749398417524
 40
0.4999749398417524
 40
1.0
 40
1.0
 40
1.0
 40
1.0
 10
10.13616002948255
 20
6.009820812094897
 30
0.0
 10
9.526483560729107
 20
6.335382761305341
 30
0.0
 10
8.916779758373233
 20
6.660901020732847
 30
0.0
 10
8.307058827989378
 20
6.986391890320092
 30
0.0
 10
7.697276769928681
 20
7.311915392050504
 30
0.0
 10
7.08747736790356
 20
7.637411163054246
 30
0.0
 10
6.477666380428647
 20
7.962888404980885
 30
0.0
  0
ARC
  5
5B
330
1F
100
AcDbEntity
  8
SK1
  6
Continuous
100
AcDbCircle
 10
3.1710312144
 20
7.5186402045
 30
0.0
 40
0.3905838085417686
100
AcDbArc
 50
2.7658284791
 51
99.6599997464
  0
SPLINE
  5
5C
330
1F
100
AcDbEntity
  8
SK1
  6
Continuous
100
AcDbSpline
210
0.0
220
0.0
230
1.0
 70
     8
 71
     3
 72
    14
 73
    10
 74
     0
 42
0.0000000006593864
 43
0.0000000001
 12
1.0
 22
0.0
 32
0.0
 13
1.0
 23
0.0
 33
0.0
 40
0.0
 40
0.0
 40
0.0
 40
0.0
 40
0.16058820789887
 40
0.16058820789887
 40
0.16058820789887
 40
0.9127718409957111
 40
0.9127718409957111
 40
0.9127718409957111
 40
1.0
 40
1.0
 40
1.0
 40
1.0
 10
3.105490789098394
 20
7.90368586951509
 30
0.0
 10
2.300450356432902
 20
7.799091005720579
 30
0.0
 10
1.495410320767995
 20
7.694493533754175
 30
0.0
 10
0.6903707343285217
 20
7.589893110755399
 30
0.0
 10
-3.080376873871148
 20
7.099952241407887
 30
0.0
 10
-6.851115204317962
 20
6.609950410537328
 30
0.0
 10
-10.62183522371357
 20
6.119828338153846
 30
0.0
 10
-11.05911270632112
 20
6.062990560519911
 30
0.0
 10
-11.49638993299443
 20
6.006151102198907
 30
0.0
 10
-11.93366688059335
 20
5.949309811405938
 30
0.0
  0
ARC
  5
5D
330
1F
100
AcDbEntity
  8
SK1
  6
Continuous
100
AcDbCircle
 10
3.1710312144
 20
7.2890301451
 30
0.0
 40
0.3905838085417692
100
AcDbArc
 50
2.7658284791
 51
99.6599997464
  0
SPLINE
  5
5E
330
1F
100
AcDbEntity
  8
SK1
  6
Continuous
100
AcDbSpline
210
0.0
220
0.0
230
1.0
 70
     8
 71
     3
 72
    14
 73
    10
 74
     0
 42
0.0000000006593864
 43
0.0000000001
 12
1.0
 22
0.0
 32
0.0
 13
1.0
 23
0.0
 33
0.0
 40
0.0
 40
0.0
 40
0.0
 40
0.0
 40
0.16058820789887
 40
0.16058820789887
 40
0.16058820789887
 40
0.9127718409957111
 40
0.9127718409957111
 40
0.9127718409957111
 40
1.0
 40
1.0
 40
1.0
 40
1.0
 10
3.105490789098394
 20
7.674075810096038
 30
0.0
 10
2.300450356432902
 20
7.569480946301526
 30
0.0
 10
1.495410320767995
 20
7.464883474335122
 30
0.0
 10
0.6903707343285217
 20
7.360283051336344
 30
0.0
 10
-3.080376873871148
 20
6.870342181988834
 30
0.0
 10
-6.851115204317962
 20
6.380340351118275
 30
0.0
 10
-10.62183522371357
 20
5.890218278734792
 30
0.0
 10
-11.05911270632112
 20
5.833380501100856
 30
0.0
 10
-11.49638993299443
 20
5.776541042779854
 30
0.0
 10
-11.93366688059335
 20
5.719699751986883
 30
0.0
  0
ARC
  5
5F
330
1F
100
AcDbEntity
  8
SK3
100
AcDbCircle
 10
9.8750985894
 20
3.1914930523
 30
0.0
 40
0.3863557923076902
100
AcDbArc
 50
267.932491209
 51
357.7633133735
  0
ARC
  5
60
330
1F
100
AcDbEntity
  8
SK1
  6
Continuous
100
AcDbCircle
 10
10.0325313919
 20
5.5763850607
 30
0.0
 40
0.2286565267324212
100
AcDbArc
 50
0.8948867718
 51
63.0503997066
  0
SPLINE
  5
61
330
1F
100
AcDbEntity
  8
SK1
  6
Continuous
100
AcDbSpline
210
0.0
220
0.0
230
1.0
 70
     8
 71
     3
 72
    11
 73
     7
 74
     0
 42
0.0000000024112808
 43
0.0000000001
 12
1.0
 22
0.0
 32
0.0
 13
1.0
 23
0.0
 33
0.0
 40
0.0
 40
0.0
 40
0.0
 40
0.0
 40
0.4999749398417524
 40
0.4999749398417524
 40
0.4999749398417524
 40
1.0
 40
1.0
 40
1.0
 40
1.0
 10
10.13616002948255
 20
5.780210752675845
 30
0.0
 10
9.526483560729107
 20
6.105772701886286
 30
0.0
 10
8.916779758373233
 20
6.431290961313792
 30
0.0
 10
8.307058827989378
 20
6.756781830901037
 30
0.0
 10
7.697276769928681
 20
7.082305332631451
 30
0.0
 10
7.08747736790356
 20
7.407801103635193
 30
0.0
 10
6.477666380428647
 20
7.733278345561832
 30
0.0
  0
LINE
  5
62
330
1F
100
AcDbEntity
  8
SK1
  6
Continuous
100
AcDbLine
 10
3.5611600295
 20
7.537487462
 30
0.0
 11
3.5611600295
 21
7.3078774026
 31
0.0
  0
ARC
  5
63
330
1F
100
AcDbEntity
  8
SK1
  6
Continuous
100
AcDbCircle
 10
3.7539106216
 20
6.6763188454
 30
0.0
 40
0.1929094548823021
100
AcDbArc
 50
182.3254217845
 51
272.1536440521
  0
LINE
  5
64
330
1F
100
AcDbEntity
  8
SK1
  6
Continuous
100
AcDbLine
 10
3.7611600295
 20
6.4835456525
 30
0.0
 11
6.0611600295
 21
6.4835456525
 31
0.0
  0
ARC
  5
65
330
1F
100
AcDbEntity
  8
SK1
  6
Continuous
100
AcDbCircle
 10
6.0684150484
 20
6.6763127776
 30
0.0
 40
0.192903602348087
100
AcDbArc
 50
267.8446228207
 51
357.6763113501
  0
LINE
  5
66
330
1F
100
AcDbEntity
  8
SK1
  6
Continuous
100
AcDbLine
 10
6.2611600295
 20
7.7332783456
 30
0.0
 11
6.2611600295
 21
7.962888405
 31
0.0
  0
LINE
  5
67
330
1F
100
AcDbEntity
  8
SK3
100
AcDbLine
 10
9.8611600295
 20
3.034998832
 30
0.0
 11
-12.1747301133
 21
3.034998832
 31
0.0
  0
LINE
  5
68
330
1F
100
AcDbEntity
  8
SK1
  6
Continuous
100
AcDbLine
 10
-17.0666745907
 20
-5.5929067778
 30
0.0
 11
-17.0666745907
 21
-4.1669143435
 31
0.0
  0
LINE
  5
69
330
1F
100
AcDbEntity
  8
SK1
  6
Continuous
100
AcDbLine
 10
-17.2388399705
 20
-5.3945579902
 30
0.0
 11
-17.2388399705
 21
-4.0266605707
 31
0.0
  0
ARC
  5
6A
330
1F
100
AcDbEntity
  8
SK1
  6
Continuous
100
AcDbCircle
 10
-17.0386433198
 20
-5.394682253
 30
0.0
 40
0.2001966892801552
100
AcDbArc
 50
179.9644363108
 51
261.9510743428
  0
ARC
  5
6B
330
1F
100
AcDbEntity
  8
SK1
  6
Continuous
100
AcDbCircle
 10
-17.0386434161
 20
5.3946823366
 30
0.0
 40
0.2001965930065348
100
AcDbArc
 50
98.0489017111
 51
180.0355876352
  0
LINE
  5
6C
330
1F
100
AcDbEntity
  8
SK3
100
AcDbLine
 10
-16.6036802716
 20
3.1607949949
 30
0.0
 11
-16.6036802716
 21
2.4471516092
 31
0.0
  0
LINE
  5
6D
330
1F
100
AcDbEntity
  8
SK3
100
AcDbLine
 10
-17.2388399705
 20
-3.5289810221
 30
0.0
 11
-16.6036802716
 21
-3.1607949949
 31
0.0
  0
LINE
  5
6E
330
1F
100
AcDbEntity
  8
SK3
100
AcDbLine
 10
-16.6036802716
 20
-3.1607949949
 30
0.0
 11
-2.6536119989
 21
-3.1607949949
 31
0.0
  0
LINE
  5
6F
330
1F
100
AcDbEntity
  8
SK3
100
AcDbLine
 10
-16.6036802716
 20
3.1607949949
 30
0.0
 11
-17.2388399705
 21
3.5289810221
 31
0.0
  0
SPLINE
  5
70
330
1F
100
AcDbEntity
  8
SK1
  6
Continuous
100
AcDbSpline
210
0.0
220
0.0
230
1.0
 70
     8
 71
     3
 72
    11
 73
     7
 74
     0
 42
0.0000000007057356
 43
0.0000000001
 12
1.0
 22
0.0
 32
0.0
 13
1.0
 23
0.0
 33
0.0
 40
0.0
 40
0.0
 40
0.0
 40
0.0
 40
0.6939571910621131
 40
0.6939571910621131
 40
0.6939571910621131
 40
1.0
 40
1.0
 40
1.0
 40
1.0
 10
-17.06667459070946
 20
-5.592906777842072
 30
0.0
 10
-13.82096207556044
 20
-6.049717673294627
 30
0.0
 10
-10.57522825900668
 20
-6.506377223444141
 30
0.0
 10
-7.329483656304387
 20
-6.962960073788029
 30
0.0
 10
-5.898074329449736
 20
-7.164318168913566
 30
0.0
 10
-4.466662784333296
 20
-7.365660495286905
 30
0.0
 10
-3.035249513251289
 20
-7.566990549797826
 30
0.0
  0
LINE
  5
71
330
1F
100
AcDbEntity
  8
SK1
  6
Continuous
100
AcDbLine
 10
3.5611600295
 20
7.537487462
 30
0.0
 11
3.5611600295
 21
8.0398526371
 31
0.0
  0
LINE
  5
72
330
1F
100
AcDbEntity
  8
SK1
  6
Continuous
100
AcDbLine
 10
6.2611600295
 20
-7.7332783456
 30
0.0
 11
6.2611600295
 21
-3.5279464324
 31
0.0
  0
LINE
  5
73
330
1F
100
AcDbEntity
  8
SK1
  6
Continuous
100
AcDbLine
 10
6.4776663804
 20
-7.7332783456
 30
0.0
 11
6.4776663804
 21
-3.5279464324
 31
0.0
  0
LINE
  5
74
330
1F
100
AcDbEntity
  8
SK1
  6
Continuous
100
AcDbLine
 10
3.1054907891
 20
-7.6740758101
 30
0.0
 11
3.1054907891
 21
-3.5034239393
 31
0.0
  0
LINE
  5
75
330
1F
100
AcDbEntity
  8
SK1
  6
Continuous
100
AcDbLine
 10
3.5611600295
 20
-7.537487462
 30
0.0
 11
3.5611600295
 21
-8.0398526371
 31
0.0
  0
LINE
  5
76
330
1F
100
AcDbEntity
  8
SK1
  6
Continuous
100
AcDbLine
 10
10.1361600295
 20
-5.7802107527
 30
0.0
 11
10.1361600295
 21
-2.7189593472
 31
0.0
  0
LINE
  5
77
330
1F
100
AcDbEntity
  8
SK1
  6
Continuous
100
AcDbLine
 10
10.2611600295
 20
-5.5799562379
 30
0.0
 11
10.2611600295
 21
-2.6360112113
 31
0.0
  0
LINE
  5
78
330
1F
100
AcDbEntity
  8
SK1
  6
Continuous
100
AcDbLine
 10
3.7611600295
 20
-6.2539355931
 30
0.0
 11
3.7611600295
 21
-2.915182601
 31
0.0
  0
LINE
  5
79
330
1F
100
AcDbEntity
  8
SK1
  6
Continuous
100
AcDbLine
 10
6.0611600295
 20
-6.2539355931
 30
0.0
 11
6.0611600295
 21
-2.915182601
 31
0.0
  0
ARC
  5
7A
330
1F
100
AcDbEntity
  8
SK1
  6
Continuous
100
AcDbCircle
 10
6.0684083793
 20
-6.4467099301
 30
0.0
 40
0.1929105584737899
100
AcDbArc
 50
2.3257485766
 51
92.1533172599
  0
LINE
  5
7B
330
1F
100
AcDbEntity
  8
SK1
  6
Continuous
100
AcDbLine
 10
6.0611600295
 20
-6.2539355931
 30
0.0
 11
3.7611600295
 21
-6.2539355931
 31
0.0
  0
ARC
  5
7C
330
1F
100
AcDbEntity
  8
SK1
  6
Continuous
100
AcDbCircle
 10
3.7539120438
 20
-6.4467103239
 30
0.0
 40
0.1929109383187625
100
AcDbArc
 50
87.8467952167
 51
177.6741389463
  0
ARC
  5
7D
330
1F
100
AcDbEntity
  8
SK1
  6
Continuous
100
AcDbCircle
 10
3.17101902
 20
-7.2890149713
 30
0.0
 40
0.3905967211536589
100
AcDbArc
 50
260.342137145
 51
357.2320346267
  0
LINE
  5
7E
330
1F
100
AcDbEntity
  8
SK1
  6
Continuous
100
AcDbLine
 10
6.2611600295
 20
-7.7332783456
 30
0.0
 11
6.4776663804
 21
-7.7332783456
 31
0.0
  0
LINE
  5
7F
330
1F
100
AcDbEntity
  8
SK1
  6
Continuous
100
AcDbLine
 10
6.4776663804
 20
-7.7332783456
 30
0.0
 11
10.1361600295
 21
-5.7802107527
 31
0.0
  0
ARC
  5
80
330
1F
100
AcDbEntity
  8
SK1
  6
Continuous
100
AcDbCircle
 10
10.0296798061
 20
-5.5746050848
 30
0.0
 40
0.2315420666815616
100
AcDbArc
 50
297.3789903439
 51
358.6757231777
  0
ARC
  5
81
330
1F
100
AcDbEntity
  8
SK3
100
AcDbCircle
 10
9.8750859293
 20
-3.191506701
 30
0.0
 40
0.3863689756691538
100
AcDbArc
 50
2.2386358284
 51
92.0655595891
  0
ARC
  5
82
330
1F
100
AcDbEntity
  8
SK1
  6
Continuous
100
AcDbCircle
 10
3.17101902
 20
-7.5186250308
 30
0.0
 40
0.3905967211536591
100
AcDbArc
 50
260.342137145
 51
357.2320346267
  0
LINE
  5
83
330
1F
100
AcDbEntity
  8
SK1
  6
Continuous
100
AcDbLine
 10
6.2611600295
 20
-7.962888405
 30
0.0
 11
6.4776663804
 21
-7.962888405
 31
0.0
  0
LINE
  5
84
330
1F
100
AcDbEntity
  8
SK1
  6
Continuous
100
AcDbLine
 10
6.4776663804
 20
-7.962888405
 30
0.0
 11
10.1361600295
 21
-6.0098208121
 31
0.0
  0
ARC
  5
85
330
1F
100
AcDbEntity
  8
SK1
  6
Continuous
100
AcDbCircle
 10
10.0296798061
 20
-5.8042151442
 30
0.0
 40
0.2315420666815594
100
AcDbArc
 50
297.3789903439
 51
358.6757231777
  0
LINE
  5
86
330
1F
100
AcDbEntity
  8
SK1
  6
Continuous
100
AcDbLine
 10
10.2611600295
 20
-5.8095662974
 30
0.0
 11
10.2611600295
 21
-5.5799562379
 31
0.0
  0
ARC
  5
87
330
1F
100
AcDbEntity
  8
SK3
100
AcDbCircle
 10
9.8750859293
 20
-3.4211167604
 30
0.0
 40
0.3863689756691541
100
AcDbArc
 50
2.2386358284
 51
92.0655595891
  0
LINE
  5
88
330
1F
100
AcDbEntity
  8
SK1
  6
Continuous
100
AcDbLine
 10
6.2611600295
 20
-7.962888405
 30
0.0
 11
6.2611600295
 21
-7.7332783456
 31
0.0
  0
ARC
  5
89
330
1F
100
AcDbEntity
  8
SK1
  6
Continuous
100
AcDbCircle
 10
6.0684083793
 20
-6.6763199895
 30
0.0
 40
0.1929105584737913
100
AcDbArc
 50
2.3257485766
 51
92.1533172599
  0
LINE
  5
8A
330
1F
100
AcDbEntity
  8
SK1
  6
Continuous
100
AcDbLine
 10
6.0611600295
 20
-6.4835456525
 30
0.0
 11
3.7611600295
 21
-6.4835456525
 31
0.0
  0
ARC
  5
8B
330
1F
100
AcDbEntity
  8
SK1
  6
Continuous
100
AcDbCircle
 10
3.7539120438
 20
-6.6763203833
 30
0.0
 40
0.1929109383187632
100
AcDbArc
 50
87.8467952167
 51
177.6741389463
  0
LINE
  5
8C
330
1F
100
AcDbEntity
  8
SK1
  6
Continuous
100
AcDbLine
 10
3.5611600295
 20
-7.3078774026
 30
0.0
 11
3.5611600295
 21
-7.537487462
 31
0.0
  0
LINE
  5
8D
330
1F
100
AcDbEntity
  8
SK1
  6
Continuous
100
AcDbLine
 10
-17.0666745907
 20
-3.7426502748
 30
0.0
 11
-17.0666745907
 21
-0.3
 31
0.0
  0
LINE
  5
8E
330
1F
100
AcDbEntity
  8
SK1
  6
Continuous
100
AcDbLine
 10
-17.2388399705
 20
-3.602396502
 30
0.0
 11
-17.2388399705
 21
-0.3
 31
0.0
  0
LINE
  5
8F
330
1F
100
AcDbEntity
  8
SK3
100
AcDbLine
 10
-16.6036802716
 20
-2.4471516092
 30
0.0
 11
-16.6036802716
 21
-3.1607949949
 31
0.0
  0
LINE
  5
90
330
1F
100
AcDbEntity
  8
SK3
100
AcDbLine
 10
-17.2388399705
 20
-2.2832343771
 30
0.0
 11
-16.6036802716
 21
-2.0228875405
 31
0.0
  0
LINE
  5
91
330
1F
100
AcDbEntity
  8
SK3
100
AcDbLine
 10
-16.6036802716
 20
-2.0228875405
 30
0.0
 11
-2.6536119989
 21
-2.0228875405
 31
0.0
  0
SPLINE
  5
92
330
1F
100
AcDbEntity
  8
SK1
  6
Continuous
100
AcDbSpline
210
0.0
220
0.0
230
1.0
 70
     8
 71
     3
 72
    10
 73
     6
 74
     0
 42
0.0000000403600054
 43
0.0000000001
 12
1.0
 22
0.0
 32
0.0
 13
1.0
 23
0.0
 33
0.0
 40
0.0
 40
0.0
 40
0.0
 40
0.0
 40
0.5
 40
0.5
 40
1.0
 40
1.0
 40
1.0
 40
1.0
 10
-17.23883997051755
 20
-3.602396502036344
 30
0.0
 10
-17.23883997051746
 20
-3.636098372796642
 30
0.0
 10
-17.22102710653096
 20
-3.669819173484865
 30
0.0
 10
-17.15876496315106
 20
-3.720629108528624
 30
0.0
 10
-17.11437542916555
 20
-3.737903076009035
 30
0.0
 10
-17.06667459070946
 20
-3.742650274800368
 30
0.0
  0
SPLINE
  5
93
330
1F
100
AcDbEntity
  8
SK1
  6
Continuous
100
AcDbSpline
210
0.0
220
0.0
230
1.0
 70
     8
 71
     3
 72
    11
 73
     7
 74
     0
 42
0.0000000007091853
 43
0.0000000001
 12
1.0
 22
0.0
 32
0.0
 13
1.0
 23
0.0
 33
0.0
 40
0.0
 40
0.0
 40
0.0
 40
0.0
 40
0.6939571910621134
 40
0.6939571910621134
 40
0.6939571910621134
 40
1.0
 40
1.0
 40
1.0
 40
1.0
 10
-17.06667459070946
 20
-3.742650274800368
 30
0.0
 10
-13.82096207556044
 20
-4.065664356694766
 30
0.0
 10
-10.57522825900668
 20
-4.388571421299085
 30
0.0
 10
-7.329483656304387
 20
-4.711424250950731
 30
0.0
 10
-5.898074329449738
 20
-4.853805925460804
 30
0.0
 10
-4.466662784333301
 20
-4.996176449779269
 30
0.0
 10
-3.035249513251294
 20
-5.138538296580599
 30
0.0
  0
SPLINE
  5
94
330
1F
100
AcDbEntity
  8
SK1
  6
Continuous
100
AcDbSpline
210
0.0
220
0.0
230
1.0
 70
     8
 71
     3
 72
    10
 73
     6
 74
     0
 42
0.0000000403600054
 43
0.0000000001
 12
1.0
 22
0.0
 32
0.0
 13
1.0
 23
0.0
 33
0.0
 40
0.0
 40
0.0
 40
0.0
 40
0.0
 40
0.5
 40
0.5
 40
1.0
 40
1.0
 40
1.0
 40
1.0
 10
-17.23883997051744
 20
-4.026660570748279
 30
0.0
 10
-17.23883997051745
 20
-4.060362441508638
 30
0.0
 10
-17.22102710653097
 20
-4.094083242196787
 30
0.0
 10
-17.15876496315101
 20
-4.144893177240585
 30
0.0
 10
-17.11437542916555
 20
-4.162167144720964
 30
0.0
 10
-17.06667459070946
 20
-4.166914343512296
 30
0.0
  0
SPLINE
  5
95
330
1F
100
AcDbEntity
  8
SK1
  6
Continuous
100
AcDbSpline
210
0.0
220
0.0
230
1.0
 70
     8
 71
     3
 72
    11
 73
     7
 74
     0
 42
0.0000000007091853
 43
0.0000000001
 12
1.0
 22
0.0
 32
0.0
 13
1.0
 23
0.0
 33
0.0
 40
0.0
 40
0.0
 40
0.0
 40
0.0
 40
0.6939571910621131
 40
0.6939571910621131
 40
0.6939571910621131
 40
1.0
 40
1.0
 40
1.0
 40
1.0
 10
-17.06667459070946
 20
-4.166914343512296
 30
0.0
 10
-13.82096207556044
 20
-4.489928425406695
 30
0.0
 10
-10.57522825900668
 20
-4.812835490011014
 30
0.0
 10
-7.329483656304387
 20
-5.13568831966266
 30
0.0
 10
-5.898074329449736
 20
-5.278069994172734
 30
0.0
 10
-4.466662784333297
 20
-5.420440518491199
 30
0.0
 10
-3.03524951325129
 20
-5.562802365292526
 30
0.0
  0
LINE
  5
96
330
1F
100
AcDbEntity
  8
SK1
  6
Continuous
100
AcDbLine
 10
-17.2388399705
 20
-3.602396502
 30
0.0
 11
-17.2388399705
 21
-4.0266605707
 31
0.0
  0
LINE
  5
97
330
1F
100
AcDbEntity
  8
SK3
100
AcDbLine
 10
-17.2388399705
 20
-2.7074984458
 30
0.0
 11
-16.6036802716
 21
-2.4471516092
 31
0.0
  0
LINE
  5
98
330
1F
100
AcDbEntity
  8
SK3
100
AcDbLine
 10
-16.6036802716
 20
-2.4471516092
 30
0.0
 11
-2.6536119989
 21
-2.4471516092
 31
0.0
  0
LINE
  5
99
330
1F
100
AcDbEntity
  8
SK1
  6
Continuous
100
AcDbLine
 10
6.2611600295
 20
-2.9736187129
 30
0.0
 11
6.2611600295
 21
2.9736187129
 31
0.0
  0
LINE
  5
9A
330
1F
100
AcDbEntity
  8
SK1
  6
Continuous
100
AcDbLine
 10
6.4776663804
 20
-2.9736187129
 30
0.0
 11
6.4776663804
 21
2.9736187129
 31
0.0
  0
LINE
  5
9B
330
1F
100
AcDbEntity
  8
SK1
  6
Continuous
100
AcDbLine
 10
3.1054907891
 20
-2.9490962198
 30
0.0
 11
3.1054907891
 21
2.9490962198
 31
0.0
  0
LINE
  5
9C
330
1F
100
AcDbEntity
  8
SK1
  6
Continuous
100
AcDbLine
 10
3.5611600295
 20
-3.3517395924
 30
0.0
 11
3.5611600295
 21
-7.3078774026
 31
0.0
  0
LINE
  5
9D
330
1F
100
AcDbEntity
  8
SK1
  6
Continuous
100
AcDbLine
 10
10.1361600295
 20
-2.1646316277
 30
0.0
 11
10.1361600295
 21
2.1646316277
 31
0.0
  0
LINE
  5
9E
330
1F
100
AcDbEntity
  8
SK1
  6
Continuous
100
AcDbLine
 10
10.2611600295
 20
-2.0816834918
 30
0.0
 11
10.2611600295
 21
2.0816834918
 31
0.0
  0
LINE
  5
9F
330
1F
100
AcDbEntity
  8
SK1
  6
Continuous
100
AcDbLine
 10
3.7611600295
 20
-2.3608548815
 30
0.0
 11
3.7611600295
 21
2.3608548815
 31
0.0
  0
LINE
  5
A0
330
1F
100
AcDbEntity
  8
SK1
  6
Continuous
100
AcDbLine
 10
6.0611600295
 20
-2.3608548815
 30
0.0
 11
6.0611600295
 21
2.3608548815
 31
0.0
  0
SPLINE
  5
A1
330
1F
100
AcDbEntity
  8
SK1
  6
Continuous
100
AcDbSpline
210
0.0
220
0.0
230
1.0
 70
     8
 71
     3
 72
    10
 73
     6
 74
     0
 42
0.0000000427804606
 43
0.0000000001
 12
1.0
 22
0.0
 32
0.0
 13
1.0
 23
0.0
 33
0.0
 40
0.0
 40
0.0
 40
0.0
 40
0.0
 40
0.5
 40
0.5
 40
1.0
 40
1.0
 40
1.0
 40
1.0
 10
6.261160029482536
 20
-2.437461968118008
 30
0.0
 10
6.261160029482546
 20
-2.417493208289636
 30
0.0
 10
6.239835585497
 20
-2.397555374696398
 30
0.0
 10
6.165253306950262
 20
-2.369002328718472
 30
0.0
 10
6.113314524904013
 20
-2.360854881462831
 30
0.0
 10
6.061160029483069
 20
-2.360854881461128
 30
0.0
  0
LINE
  5
A2
330
1F
100
AcDbEntity
  8
SK1
  6
Continuous
100
AcDbLine
 10
6.0611600295
 20
-2.3608548815
 30
0.0
 11
3.7611600295
 21
-2.3608548815
 31
0.0
  0
SPLINE
  5
A3
330
1F
100
AcDbEntity
  8
SK1
  6
Continuous
100
AcDbSpline
210
0.0
220
0.0
230
1.0
 70
     8
 71
     3
 72
    10
 73
     6
 74
     0
 42
0.0000000427875695
 43
0.0000000001
 12
1.0
 22
0.0
 32
0.0
 13
1.0
 23
0.0
 33
0.0
 40
0.0
 40
0.0
 40
0.0
 40
0.0
 40
0.5
 40
0.5
 40
1.0
 40
1.0
 40
1.0
 40
1.0
 10
3.761160029482541
 20
-2.36085488146276
 30
0.0
 10
3.70889235098947
 20
-2.360854881462758
 30
0.0
 10
3.656718524719225
 20
-2.369150910787724
 30
0.0
 10
3.582985682889813
 20
-2.397348256670475
 30
0.0
 10
3.561160029482563
 20
-2.417477940889952
 30
0.0
 10
3.561160029481977
 20
-2.437461968117987
 30
0.0
  0
SPLINE
  5
A4
330
1F
100
AcDbEntity
  8
SK1
  6
Continuous
100
AcDbSpline
210
0.0
220
0.0
230
1.0
 70
     8
 71
     3
 72
    10
 73
     6
 74
     0
 42
0.0000000190345564
 43
0.0000000001
 12
1.0
 22
0.0
 32
0.0
 13
1.0
 23
0.0
 33
0.0
 40
0.0
 40
0.0
 40
0.0
 40
0.0
 40
0.5
 40
0.5
 40
1.0
 40
1.0
 40
1.0
 40
1.0
 10
3.105490789098446
 20
-2.949096219804106
 30
0.0
 10
3.217868620286866
 20
-2.95514402265978
 30
0.0
 10
3.338304624754315
 20
-2.941448672744878
 30
0.0
 10
3.509344251697744
 20
-2.884421701139268
 30
0.0
 10
3.561160029482541
 20
-2.84133255622967
 30
0.0
 10
3.561160029482542
 20
-2.7974118728917
 30
0.0
  0
LINE
  5
A5
330
1F
100
AcDbEntity
  8
SK1
  6
Continuous
100
AcDbLine
 10
6.2611600295
 20
-2.9736187129
 30
0.0
 11
6.4776663804
 21
-2.9736187129
 31
0.0
  0
SPLINE
  5
A6
330
1F
100
AcDbEntity
  8
SK1
  6
Continuous
100
AcDbSpline
210
0.0
220
0.0
230
1.0
 70
     8
 71
     3
 72
     8
 73
     4
 74
     0
 42
0.0000000026688942
 43
0.0000000001
 12
1.0
 22
0.0
 32
0.0
 13
1.0
 23
0.0
 33
0.0
 40
0.0
 40
0.0
 40
0.0
 40
0.0
 40
1.0
 40
1.0
 40
1.0
 40
1.0
 10
6.477666380428647
 20
-2.973618712918823
 30
0.0
 10
7.697227256239611
 20
-2.703998045024326
 30
0.0
 10
8.916746040715237
 20
-2.434349480936905
 30
0.0
 10
10.13616002948255
 20
-2.164631627714073
 30
0.0
  0
SPLINE
  5
A7
330
1F
100
AcDbEntity
  8
SK1
  6
Continuous
100
AcDbSpline
210
0.0
220
0.0
230
1.0
 70
     8
 71
     3
 72
    10
 73
     6
 74
     0
 42
0.0000000616089256
 43
0.0000000001
 12
1.0
 22
0.0
 32
0.0
 13
1.0
 23
0.0
 33
0.0
 40
0.0
 40
0.0
 40
0.0
 40
0.0
 40
0.5
 40
0.5
 40
1.0
 40
1.0
 40
1.0
 40
1.0
 10
10.13616002948255
 20
-2.164631627714073
 30
0.0
 10
10.17385383739746
 20
-2.156294268093592
 30
0.0
 10
10.2060535793935
 20
-2.143952051783945
 30
0.0
 10
10.24954776290493
 20
-2.115018334655607
 30
0.0
 10
10.26116002948256
 20
-2.098379385012328
 30
0.0
 10
10.26116002948259
 20
-2.081683491783803
 30
0.0
  0
SPLINE
  5
A8
330
1F
100
AcDbEntity
  8
SK3
100
AcDbSpline
210
0.0
220
0.0
230
1.0
 70
     8
 71
     3
 72
    10
 73
     6
 74
     0
 42
0.0000000213802538
 43
0.0000000001
 12
1.0
 22
0.0
 32
0.0
 13
1.0
 23
0.0
 33
0.0
 40
0.0
 40
0.0
 40
0.0
 40
0.0
 40
0.5
 40
0.5
 40
1.0
 40
1.0
 40
1.0
 40
1.0
 10
10.26116002948255
 20
-1.086103906498804
 30
0.0
 10
10.26116002948256
 20
-1.046142682136548
 30
0.0
 10
10.21841976064763
 20
-1.006060037597388
 30
0.0
 10
10.06972872487264
 20
-0.9488918184142466
 30
0.0
 10
9.965559810084697
 20
-0.9324200179103651
 30
0.0
 10
9.861160029482557
 20
-0.9324200179103642
 30
0.0
  0
SPLINE
  5
A9
330
1F
100
AcDbEntity
  8
SK1
  6
Continuous
100
AcDbSpline
210
0.0
220
0.0
230
1.0
 70
     8
 71
     3
 72
    10
 73
     6
 74
     0
 42
0.0000000190345564
 43
0.0000000001
 12
1.0
 22
0.0
 32
0.0
 13
1.0
 23
0.0
 33
0.0
 40
0.0
 40
0.0
 40
0.0
 40
0.0
 40
0.5
 40
0.5
 40
1.0
 40
1.0
 40
1.0
 40
1.0
 10
3.105490789098446
 20
-3.503423939310878
 30
0.0
 10
3.217868620286866
 20
-3.509471742166552
 30
0.0
 10
3.338304624754315
 20
-3.49577639225165
 30
0.0
 10
3.509344251697744
 20
-3.43874942064604
 30
0.0
 10
3.561160029482541
 20
-3.395660275736442
 30
0.0
 10
3.561160029482542
 20
-3.351739592398472
 30
0.0
  0
LINE
  5
AA
330
1F
100
AcDbEntity
  8
SK1
  6
Continuous
100
AcDbLine
 10
6.2611600295
 20
-3.5279464324
 30
0.0
 11
6.4776663804
 21
-3.5279464324
 31
0.0
  0
SPLINE
  5
AB
330
1F
100
AcDbEntity
  8
SK1
  6
Continuous
100
AcDbSpline
210
0.0
220
0.0
230
1.0
 70
     8
 71
     3
 72
     8
 73
     4
 74
     0
 42
0.0000000026688942
 43
0.0000000001
 12
1.0
 22
0.0
 32
0.0
 13
1.0
 23
0.0
 33
0.0
 40
0.0
 40
0.0
 40
0.0
 40
0.0
 40
1.0
 40
1.0
 40
1.0
 40
1.0
 10
6.477666380428647
 20
-3.527946432425595
 30
0.0
 10
7.697227256239611
 20
-3.258325764531098
 30
0.0
 10
8.916746040715237
 20
-2.988677200443677
 30
0.0
 10
10.13616002948255
 20
-2.718959347220845
 30
0.0
  0
SPLINE
  5
AC
330
1F
100
AcDbEntity
  8
SK1
  6
Continuous
100
AcDbSpline
210
0.0
220
0.0
230
1.0
 70
     8
 71
     3
 72
    10
 73
     6
 74
     0
 42
0.0000000616089256
 43
0.0000000001
 12
1.0
 22
0.0
 32
0.0
 13
1.0
 23
0.0
 33
0.0
 40
0.0
 40
0.0
 40
0.0
 40
0.0
 40
0.5
 40
0.5
 40
1.0
 40
1.0
 40
1.0
 40
1.0
 10
10.13616002948255
 20
-2.718959347220845
 30
0.0
 10
10.17385383739746
 20
-2.710621987600364
 30
0.0
 10
10.2060535793935
 20
-2.698279771290717
 30
0.0
 10
10.24954776290493
 20
-2.669346054162379
 30
0.0
 10
10.26116002948256
 20
-2.6527071045191
 30
0.0
 10
10.26116002948259
 20
-2.636011211290576
 30
0.0
  0
LINE
  5
AD
330
1F
100
AcDbEntity
  8
SK1
  6
Continuous
100
AcDbLine
 10
10.2611600295
 20
-2.6360112113
 30
0.0
 11
10.2611600295
 21
-2.0816834918
 31
0.0
  0
SPLINE
  5
AE
330
1F
100
AcDbEntity
  8
SK3
100
AcDbSpline
210
0.0
220
0.0
230
1.0
 70
     8
 71
     3
 72
    10
 73
     6
 74
     0
 42
0.0000000213802538
 43
0.0000000001
 12
1.0
 22
0.0
 32
0.0
 13
1.0
 23
0.0
 33
0.0
 40
0.0
 40
0.0
 40
0.0
 40
0.0
 40
0.5
 40
0.5
 40
1.0
 40
1.0
 40
1.0
 40
1.0
 10
10.26116002948255
 20
-1.640431626005576
 30
0.0
 10
10.26116002948256
 20
-1.60047040164332
 30
0.0
 10
10.21841976064763
 20
-1.56038775710416
 30
0.0
 10
10.06972872487264
 20
-1.503219537921018
 30
0.0
 10
9.965559810084697
 20
-1.486747737417137
 30
0.0
 10
9.861160029482557
 20
-1.486747737417137
 30
0.0
  0
LINE
  5
AF
330
1F
100
AcDbEntity
  8
SK1
  6
Continuous
100
AcDbLine
 10
6.2611600295
 20
-3.5279464324
 30
0.0
 11
6.2611600295
 21
-2.9917896876
 31
0.0
  0
SPLINE
  5
B0
330
1F
100
AcDbEntity
  8
SK1
  6
Continuous
100
AcDbSpline
210
0.0
220
0.0
230
1.0
 70
     8
 71
     3
 72
    10
 73
     6
 74
     0
 42
0.0000000427804606
 43
0.0000000001
 12
1.0
 22
0.0
 32
0.0
 13
1.0
 23
0.0
 33
0.0
 40
0.0
 40
0.0
 40
0.0
 40
0.0
 40
0.5
 40
0.5
 40
1.0
 40
1.0
 40
1.0
 40
1.0
 10
6.261160029482536
 20
-2.99178968762478
 30
0.0
 10
6.261160029482546
 20
-2.971820927796408
 30
0.0
 10
6.239835585497
 20
-2.95188309420317
 30
0.0
 10
6.165253306950262
 20
-2.923330048225244
 30
0.0
 10
6.113314524904013
 20
-2.915182600969603
 30
0.0
 10
6.061160029483069
 20
-2.9151826009679
 30
0.0
  0
LINE
  5
B1
330
1F
100
AcDbEntity
  8
SK1
  6
Continuous
100
AcDbLine
 10
6.0611600295
 20
-2.915182601
 30
0.0
 11
3.7611600295
 21
-2.915182601
 31
0.0
  0
SPLINE
  5
B2
330
1F
100
AcDbEntity
  8
SK1
  6
Continuous
100
AcDbSpline
210
0.0
220
0.0
230
1.0
 70
     8
 71
     3
 72
    10
 73
     6
 74
     0
 42
0.0000000427875695
 43
0.0000000001
 12
1.0
 22
0.0
 32
0.0
 13
1.0
 23
0.0
 33
0.0
 40
0.0
 40
0.0
 40
0.0
 40
0.0
 40
0.5
 40
0.5
 40
1.0
 40
1.0
 40
1.0
 40
1.0
 10
3.761160029482541
 20
-2.915182600969532
 30
0.0
 10
3.70889235098947
 20
-2.915182600969531
 30
0.0
 10
3.656718524719223
 20
-2.923478630294496
 30
0.0
 10
3.582985682889813
 20
-2.951675976177246
 30
0.0
 10
3.561160029482563
 20
-2.971805660396725
 30
0.0
 10
3.561160029481977
 20
-2.991789687624759
 30
0.0
  0
LINE
  5
B3
330
1F
100
AcDbEntity
  8
SK1
  6
Continuous
100
AcDbLine
 10
3.5611600295
 20
-2.9917896876
 30
0.0
 11
3.5611600295
 21
-3.3517395924
 31
0.0
  0
LINE
  5
B4
330
1F
100
AcDbEntity
  8
SK1
  6
Continuous
100
AcDbLine
 10
-17.2388399705
 20
0.3
 30
0.0
 11
-17.2388399705
 21
3.602396502
 31
0.0
  0
LINE
  5
B5
330
1F
100
AcDbEntity
  8
SK1
  6
Continuous
100
AcDbLine
 10
-17.0666745907
 20
0.3
 30
0.0
 11
-17.0666745907
 21
3.7426502748
 31
0.0
  0
LINE
  5
B6
330
1F
100
AcDbEntity
  8
SK3
100
AcDbLine
 10
-16.6036802716
 20
-0.3
 30
0.0
 11
-16.6036802716
 21
-2.0228875405
 31
0.0
  0
LINE
  5
B7
330
1F
100
AcDbEntity
  8
SK1
  6
Continuous
100
AcDbLine
 10
-17.2388399705
 20
0.3
 30
0.0
 11
-17.0666745907
 21
0.3
 31
0.0
  0
LINE
  5
B8
330
1F
100
AcDbEntity
  8
SK1
  6
Continuous
100
AcDbLine
 10
-17.0666745907
 20
0.3
 30
0.0
 11
-3.0352495133
 21
0.3
 31
0.0
  0
LINE
  5
B9
330
1F
100
AcDbEntity
  8
SK1
  6
Continuous
100
AcDbLine
 10
-17.2388399705
 20
-0.3
 30
0.0
 11
-17.0666745907
 21
-0.3
 31
0.0
  0
LINE
  5
BA
330
1F
100
AcDbEntity
  8
SK1
  6
Continuous
100
AcDbLine
 10
-17.0666745907
 20
-0.3
 30
0.0
 11
-3.0352495133
 21
-0.3
 31
0.0
  0
LINE
  5
BB
330
1F
100
AcDbEntity
  8
SK1
  6
Continuous
100
AcDbLine
 10
6.2611600295
 20
3.5279464324
 30
0.0
 11
6.2611600295
 21
7.7332783456
 31
0.0
  0
LINE
  5
BC
330
1F
100
AcDbEntity
  8
SK1
  6
Continuous
100
AcDbLine
 10
6.4776663804
 20
3.5279464324
 30
0.0
 11
6.4776663804
 21
7.7332783456
 31
0.0
  0
LINE
  5
BD
330
1F
100
AcDbEntity
  8
SK1
  6
Continuous
100
AcDbLine
 10
3.1054907891
 20
3.5034239393
 30
0.0
 11
3.1054907891
 21
7.6740758101
 31
0.0
  0
LINE
  5
BE
330
1F
100
AcDbEntity
  8
SK1
  6
Continuous
100
AcDbLine
 10
3.5611600295
 20
2.7974118729
 30
0.0
 11
3.5611600295
 21
-2.7974118729
 31
0.0
  0
LINE
  5
BF
330
1F
100
AcDbEntity
  8
SK1
  6
Continuous
100
AcDbLine
 10
10.1361600295
 20
2.7189593472
 30
0.0
 11
10.1361600295
 21
5.7802107527
 31
0.0
  0
LINE
  5
C0
330
1F
100
AcDbEntity
  8
SK1
  6
Continuous
100
AcDbLine
 10
10.2611600295
 20
2.6360112113
 30
0.0
 11
10.2611600295
 21
5.5799562379
 31
0.0
  0
LINE
  5
C1
330
1F
100
AcDbEntity
  8
SK1
  6
Continuous
100
AcDbLine
 10
3.7611600295
 20
2.915182601
 30
0.0
 11
3.7611600295
 21
6.2539355931
 31
0.0
  0
LINE
  5
C2
330
1F
100
AcDbEntity
  8
SK1
  6
Continuous
100
AcDbLine
 10
6.0611600295
 20
2.915182601
 30
0.0
 11
6.0611600295
 21
6.2539355931
 31
0.0
  0
LINE
  5
C3
330
1F
100
AcDbEntity
  8
SK1
  6
Continuous
100
AcDbLine
 10
6.2611600295
 20
3.5279464324
 30
0.0
 11
6.2611600295
 21
2.9917896876
 31
0.0
  0
SPLINE
  5
C4
330
1F
100
AcDbEntity
  8
SK1
  6
Continuous
100
AcDbSpline
210
0.0
220
0.0
230
1.0
 70
     8
 71
     3
 72
    10
 73
     6
 74
     0
 42
0.0000000427782015
 43
0.0000000001
 12
1.0
 22
0.0
 32
0.0
 13
1.0
 23
0.0
 33
0.0
 40
0.0
 40
0.0
 40
0.0
 40
0.0
 40
0.5
 40
0.5
 40
1.0
 40
1.0
 40
1.0
 40
1.0
 10
6.261160029482536
 20
2.991789687624784
 30
0.0
 10
6.261160029482548
 20
2.971822947928052
 30
0.0
 10
6.239966137860235
 20
2.951958054993677
 30
0.0
 10
6.165369494991175
 20
2.923349631873718
 30
0.0
 10
6.114006558961601
 20
2.915182600969232
 30
0.0
 10
6.061160029482545
 20
2.915182600969537
 30
0.0
  0
LINE
  5
C5
330
1F
100
AcDbEntity
  8
SK1
  6
Continuous
100
AcDbLine
 10
6.0611600295
 20
2.915182601
 30
0.0
 11
3.7611600295
 21
2.915182601
 31
0.0
  0
SPLINE
  5
C6
330
1F
100
AcDbEntity
  8
SK1
  6
Continuous
100
AcDbSpline
210
0.0
220
0.0
230
1.0
 70
     8
 71
     3
 72
    10
 73
     6
 74
     0
 42
0.000000042784668
 43
0.0000000001
 12
1.0
 22
0.0
 32
0.0
 13
1.0
 23
0.0
 33
0.0
 40
0.0
 40
0.0
 40
0.0
 40
0.0
 40
0.5
 40
0.5
 40
1.0
 40
1.0
 40
1.0
 40
1.0
 10
3.761160029482541
 20
2.915182600969537
 30
0.0
 10
3.708274248328125
 20
2.915182600969537
 30
0.0
 10
3.656547970365557
 20
2.923505035743495
 30
0.0
 10
3.582766563767164
 20
2.95179879736645
 30
0.0
 10
3.561160029482436
 20
2.971805793902822
 30
0.0
 10
3.561160029480255
 20
2.991789687624887
 30
0.0
  0
LINE
  5
C7
330
1F
100
AcDbEntity
  8
SK1
  6
Continuous
100
AcDbLine
 10
3.5611600295
 20
2.9917896876
 30
0.0
 11
3.5611600295
 21
3.3517395924
 31
0.0
  0
SPLINE
  5
C8
330
1F
100
AcDbEntity
  8
SK1
  6
Continuous
100
AcDbSpline
210
0.0
220
0.0
230
1.0
 70
     8
 71
     3
 72
    10
 73
     6
 74
     0
 42
0.0000000190338767
 43
0.0000000001
 12
1.0
 22
0.0
 32
0.0
 13
1.0
 23
0.0
 33
0.0
 40
0.0
 40
0.0
 40
0.0
 40
0.0
 40
0.5
 40
0.5
 40
1.0
 40
1.0
 40
1.0
 40
1.0
 10
3.105490789098516
 20
3.50342393930103
 30
0.0
 10
3.219504472071193
 20
3.509559778294843
 30
0.0
 10
3.337945687845205
 20
3.495852164154293
 30
0.0
 10
3.509243977469562
 20
3.438826638498643
 30
0.0
 10
3.561160029482541
 20
3.395631201415514
 30
0.0
 10
3.561160029482542
 20
3.351739592398476
 30
0.0
  0
LINE
  5
C9
330
1F
100
AcDbEntity
  8
SK1
  6
Continuous
100
AcDbLine
 10
6.2611600295
 20
3.5279464324
 30
0.0
 11
6.4776663804
 21
3.5279464324
 31
0.0
  0
LINE
  5
CA
330
1F
100
AcDbEntity
  8
SK1
  6
Continuous
100
AcDbLine
 10
6.4776663804
 20
3.5279464324
 30
0.0
 11
10.1361600295
 21
2.7189593472
 31
0.0
  0
SPLINE
  5
CB
330
1F
100
AcDbEntity
  8
SK1
  6
Continuous
100
AcDbSpline
210
0.0
220
0.0
230
1.0
 70
     8
 71
     3
 72
     8
 73
     4
 74
     0
 42
0.0000000587350374
 43
0.0000000001
 12
1.0
 22
0.0
 32
0.0
 13
1.0
 23
0.0
 33
0.0
 40
0.0
 40
0.0
 40
0.0
 40
0.0
 40
1.0
 40
1.0
 40
1.0
 40
1.0
 10
10.13616002948255
 20
2.718959347220851
 30
0.0
 10
10.21247241625368
 20
2.702080081176817
 30
0.0
 10
10.26116002948255
 20
2.6695623576951
 30
0.0
 10
10.26116002948255
 20
2.636011211290581
 30
0.0
  0
LINE
  5
CC
330
1F
100
AcDbEntity
  8
SK1
  6
Continuous
100
AcDbLine
 10
10.2611600295
 20
2.6360112113
 30
0.0
 11
10.2611600295
 21
2.0816834918
 31
0.0
  0
SPLINE
  5
CD
330
1F
100
AcDbEntity
  8
SK3
100
AcDbSpline
210
0.0
220
0.0
230
1.0
 70
     8
 71
     3
 72
    10
 73
     6
 74
     0
 42
0.0000000213776376
 43
0.0000000001
 12
1.0
 22
0.0
 32
0.0
 13
1.0
 23
0.0
 33
0.0
 40
0.0
 40
0.0
 40
0.0
 40
0.0
 40
0.5
 40
0.5
 40
1.0
 40
1.0
 40
1.0
 40
1.0
 10
10.26116002948255
 20
1.640431626005579
 30
0.0
 10
10.26116002948257
 20
1.6004331945851
 30
0.0
 10
10.21889647400979
 20
1.560632101319602
 30
0.0
 10
10.06985266118151
 20
1.503206374874125
 30
0.0
 10
9.96702310041415
 20
1.486747737416994
 30
0.0
 10
9.861160029482557
 20
1.48674773741714
 30
0.0
  0
SPLINE
  5
CE
330
1F
100
AcDbEntity
  8
SK1
  6
Continuous
100
AcDbSpline
210
0.0
220
0.0
230
1.0
 70
     8
 71
     3
 72
    10
 73
     6
 74
     0
 42
0.0000000190338767
 43
0.0000000001
 12
1.0
 22
0.0
 32
0.0
 13
1.0
 23
0.0
 33
0.0
 40
0.0
 40
0.0
 40
0.0
 40
0.0
 40
0.5
 40
0.5
 40
1.0
 40
1.0
 40
1.0
 40
1.0
 10
3.105490789098516
 20
2.949096219794258
 30
0.0
 10
3.219504472071193
 20
2.955232058788073
 30
0.0
 10
3.337945687845205
 20
2.941524444647519
 30
0.0
 10
3.509243977469562
 20
2.884498918991871
 30
0.0
 10
3.561160029482541
 20
2.841303481908743
 30
0.0
 10
3.561160029482542
 20
2.797411872891705
 30
0.0
  0
LINE
  5
CF
330
1F
100
AcDbEntity
  8
SK1
  6
Continuous
100
AcDbLine
 10
6.2611600295
 20
2.9736187129
 30
0.0
 11
6.4776663804
 21
2.9736187129
 31
0.0
  0
LINE
  5
D0
330
1F
100
AcDbEntity
  8
SK1
  6
Continuous
100
AcDbLine
 10
6.4776663804
 20
2.9736187129
 30
0.0
 11
10.1361600295
 21
2.1646316277
 31
0.0
  0
SPLINE
  5
D1
330
1F
100
AcDbEntity
  8
SK1
  6
Continuous
100
AcDbSpline
210
0.0
220
0.0
230
1.0
 70
     8
 71
     3
 72
     8
 73
     4
 74
     0
 42
0.0000000587350374
 43
0.0000000001
 12
1.0
 22
0.0
 32
0.0
 13
1.0
 23
0.0
 33
0.0
 40
0.0
 40
0.0
 40
0.0
 40
0.0
 40
1.0
 40
1.0
 40
1.0
 40
1.0
 10
10.13616002948255
 20
2.164631627714079
 30
0.0
 10
10.21247241625369
 20
2.147752361670044
 30
0.0
 10
10.26116002948255
 20
2.11523463818833
 30
0.0
 10
10.26116002948255
 20
2.081683491783809
 30
0.0
  0
SPLINE
  5
D2
330
1F
100
AcDbEntity
  8
SK3
100
AcDbSpline
210
0.0
220
0.0
230
1.0
 70
     8
 71
     3
 72
    10
 73
     6
 74
     0
 42
0.0000000213776376
 43
0.0000000001
 12
1.0
 22
0.0
 32
0.0
 13
1.0
 23
0.0
 33
0.0
 40
0.0
 40
0.0
 40
0.0
 40
0.0
 40
0.5
 40
0.5
 40
1.0
 40
1.0
 40
1.0
 40
1.0
 10
10.26116002948255
 20
1.086103906498807
 30
0.0
 10
10.26116002948257
 20
1.046105475078327
 30
0.0
 10
10.21889647400979
 20
1.00630438181283
 30
0.0
 10
10.06985266118151
 20
0.9488786553673537
 30
0.0
 10
9.96702310041415
 20
0.9324200179102211
 30
0.0
 10
9.861160029482557
 20
0.9324200179103674
 30
0.0
  0
SPLINE
  5
D3
330
1F
100
AcDbEntity
  8
SK1
  6
Continuous
100
AcDbSpline
210
0.0
220
0.0
230
1.0
 70
     8
 71
     3
 72
    10
 73
     6
 74
     0
 42
0.0000000427782015
 43
0.0000000001
 12
1.0
 22
0.0
 32
0.0
 13
1.0
 23
0.0
 33
0.0
 40
0.0
 40
0.0
 40
0.0
 40
0.0
 40
0.5
 40
0.5
 40
1.0
 40
1.0
 40
1.0
 40
1.0
 10
6.261160029482536
 20
2.437461968118014
 30
0.0
 10
6.261160029482546
 20
2.41749522842128
 30
0.0
 10
6.239966137860235
 20
2.397630335486906
 30
0.0
 10
6.165369494991175
 20
2.369021912366947
 30
0.0
 10
6.114006558961601
 20
2.36085488146246
 30
0.0
 10
6.061160029482545
 20
2.360854881462766
 30
0.0
  0
LINE
  5
D4
330
1F
100
AcDbEntity
  8
SK1
  6
Continuous
100
AcDbLine
 10
6.0611600295
 20
2.3608548815
 30
0.0
 11
3.7611600295
 21
2.3608548815
 31
0.0
  0
SPLINE
  5
D5
330
1F
100
AcDbEntity
  8
SK1
  6
Continuous
100
AcDbSpline
210
0.0
220
0.0
230
1.0
 70
     8
 71
     3
 72
    10
 73
     6
 74
     0
 42
0.000000042784668
 43
0.0000000001
 12
1.0
 22
0.0
 32
0.0
 13
1.0
 23
0.0
 33
0.0
 40
0.0
 40
0.0
 40
0.0
 40
0.0
 40
0.5
 40
0.5
 40
1.0
 40
1.0
 40
1.0
 40
1.0
 10
3.761160029482541
 20
2.360854881462765
 30
0.0
 10
3.708274248328124
 20
2.360854881462767
 30
0.0
 10
3.656547970365557
 20
2.369177316236724
 30
0.0
 10
3.582766563767164
 20
2.39747107785968
 30
0.0
 10
3.561160029482436
 20
2.417478074396051
 30
0.0
 10
3.561160029480255
 20
2.437461968118115
 30
0.0
  0
LINE
  5
D6
330
1F
100
AcDbEntity
  8
SK1
  6
Continuous
100
AcDbLine
 10
-17.2388399705
 20
4.0266605707
 30
0.0
 11
-17.2388399705
 21
5.3945579902
 31
0.0
  0
LINE
  5
D7
330
1F
100
AcDbEntity
  8
SK1
  6
Continuous
100
AcDbLine
 10
-17.0666745907
 20
4.1669143435
 30
0.0
 11
-17.0666745907
 21
5.5929067778
 31
0.0
  0
LINE
  5
D8
330
1F
100
AcDbEntity
  8
SK3
100
AcDbLine
 10
-16.6036802716
 20
2.0228875405
 30
0.0
 11
-16.6036802716
 21
0.3
 31
0.0
  0
LINE
  5
D9
330
1F
100
AcDbEntity
  8
SK3
100
AcDbLine
 10
-17.2388399705
 20
2.7074984458
 30
0.0
 11
-16.6036802716
 21
2.4471516092
 31
0.0
  0
LINE
  5
DA
330
1F
100
AcDbEntity
  8
SK3
100
AcDbLine
 10
-16.6036802716
 20
2.4471516092
 30
0.0
 11
-2.6536119989
 21
2.4471516092
 31
0.0
  0
SPLINE
  5
DB
330
1F
100
AcDbEntity
  8
SK1
  6
Continuous
100
AcDbSpline
210
0.0
220
0.0
230
1.0
 70
     8
 71
     3
 72
    10
 73
     6
 74
     0
 42
0.0000000403600054
 43
0.0000000001
 12
1.0
 22
0.0
 32
0.0
 13
1.0
 23
0.0
 33
0.0
 40
0.0
 40
0.0
 40
0.0
 40
0.0
 40
0.5
 40
0.5
 40
1.0
 40
1.0
 40
1.0
 40
1.0
 10
-17.23883997051755
 20
4.026660570748279
 30
0.0
 10
-17.23883997051745
 20
4.060362441508631
 30
0.0
 10
-17.22102710653098
 20
4.094083242196784
 30
0.0
 10
-17.15876496315101
 20
4.144893177240585
 30
0.0
 10
-17.11437542916556
 20
4.16216714472097
 30
0.0
 10
-17.06667459070946
 20
4.166914343512299
 30
0.0
  0
SPLINE
  5
DC
330
1F
100
AcDbEntity
  8
SK1
  6
Continuous
100
AcDbSpline
210
0.0
220
0.0
230
1.0
 70
     8
 71
     3
 72
    11
 73
     7
 74
     0
 42
0.0000000007091853
 43
0.0000000001
 12
1.0
 22
0.0
 32
0.0
 13
1.0
 23
0.0
 33
0.0
 40
0.0
 40
0.0
 40
0.0
 40
0.0
 40
0.6939571910621131
 40
0.6939571910621131
 40
0.6939571910621131
 40
1.0
 40
1.0
 40
1.0
 40
1.0
 10
-17.06667459070946
 20
4.166914343512299
 30
0.0
 10
-13.82096207556044
 20
4.489928425406702
 30
0.0
 10
-10.57522825900668
 20
4.812835490011019
 30
0.0
 10
-7.329483656304387
 20
5.135688319662665
 30
0.0
 10
-5.898074329449736
 20
5.278069994172739
 30
0.0
 10
-4.466662784333296
 20
5.420440518491203
 30
0.0
 10
-3.035249513251289
 20
5.562802365292533
 30
0.0
  0
LINE
  5
DD
330
1F
100
AcDbEntity
  8
SK1
  6
Continuous
100
AcDbLine
 10
-17.2388399705
 20
3.602396502
 30
0.0
 11
-17.2388399705
 21
4.0266605707
 31
0.0
  0
SPLINE
  5
DE
330
1F
100
AcDbEntity
  8
SK1
  6
Continuous
100
AcDbSpline
210
0.0
220
0.0
230
1.0
 70
     8
 71
     3
 72
    10
 73
     6
 74
     0
 42
0.0000000403600054
 43
0.0000000001
 12
1.0
 22
0.0
 32
0.0
 13
1.0
 23
0.0
 33
0.0
 40
0.0
 40
0.0
 40
0.0
 40
0.0
 40
0.5
 40
0.5
 40
1.0
 40
1.0
 40
1.0
 40
1.0
 10
-17.23883997051744
 20
3.602396502036356
 30
0.0
 10
-17.23883997051745
 20
3.636098372796716
 30
0.0
 10
-17.22102710653098
 20
3.669819173484866
 30
0.0
 10
-17.158764963151
 20
3.720629108528663
 30
0.0
 10
-17.11437542916554
 20
3.737903076009041
 30
0.0
 10
-17.06667459070946
 20
3.742650274800372
 30
0.0
  0
SPLINE
  5
DF
330
1F
100
AcDbEntity
  8
SK1
  6
Continuous
100
AcDbSpline
210
0.0
220
0.0
230
1.0
 70
     8
 71
     3
 72
    11
 73
     7
 74
     0
 42
0.0000000007091853
 43
0.0000000001
 12
1.0
 22
0.0
 32
0.0
 13
1.0
 23
0.0
 33
0.0
 40
0.0
 40
0.0
 40
0.0
 40
0.0
 40
0.6939571910621131
 40
0.6939571910621131
 40
0.6939571910621131
 40
1.0
 40
1.0
 40
1.0
 40
1.0
 10
-17.06667459070946
 20
3.742650274800372
 30
0.0
 10
-13.82096207556044
 20
4.065664356694772
 30
0.0
 10
-10.57522825900668
 20
4.388571421299091
 30
0.0
 10
-7.329483656304387
 20
4.711424250950738
 30
0.0
 10
-5.898074329449736
 20
4.85380592546081
 30
0.0
 10
-4.466662784333296
 20
4.996176449779276
 30
0.0
 10
-3.035249513251289
 20
5.138538296580603
 30
0.0
  0
LINE
  5
E0
330
1F
100
AcDbEntity
  8
SK3
100
AcDbLine
 10
-17.2388399705
 20
2.2832343771
 30
0.0
 11
-16.6036802716
 21
2.0228875405
 31
0.0
  0
LINE
  5
E1
330
1F
100
AcDbEntity
  8
SK3
100
AcDbLine
 10
-16.6036802716
 20
2.0228875405
 30
0.0
 11
-2.6536119989
 21
2.0228875405
 31
0.0
  0
ELLIPSE
  5
E2
330
1F
100
AcDbEntity
  8
SK1
  6
Continuous
100
AcDbEllipse
 10
49.94490743
 20
0.1148050333
 30
0.0
 11
-62.19999994776388
 21
-2.459260913326611E-8
 31
0.0
210
0.0
220
0.0
230
1.0
 40
0.9238795329
 41
-0.1017061614402675
 42
-0.0976745530237251
  0
SPLINE
  5
E3
330
1F
100
AcDbEntity
  8
SK3
100
AcDbSpline
210
0.0
220
0.0
230
1.0
 70
     8
 71
     3
 72
    35
 73
    31
 74
     0
 42
0.0000000145528273
 43
0.0000000001
 12
1.0
 22
0.0
 32
0.0
 13
1.0
 23
0.0
 33
0.0
 40
0.0
 40
0.0
 40
0.0
 40
0.0
 40
0.1070949102986524
 40
0.1070949102986524
 40
0.1070949102986524
 40
0.2141882979798424
 40
0.2141882979798424
 40
0.2141882979798424
 40
0.3213365682361314
 40
0.3213365682361314
 40
0.3213365682361314
 40
0.4287571737745852
 40
0.4287571737745852
 40
0.4287571737745852
 40
0.4999934115373483
 40
0.4999934115373483
 40
0.4999934115373483
 40
0.6074054375184932
 40
0.6074054375184932
 40
0.6074054375184932
 40
0.714812442165272
 40
0.714812442165272
 40
0.714812442165272
 40
0.8222862706757933
 40
0.8222862706757933
 40
0.8222862706757933
 40
0.9296510251613296
 40
0.9296510251613296
 40
0.9296510251613296
 40
1.0
 40
1.0
 40
1.0
 40
1.0
 10
-12.17473011329438
 20
3.034998831993197
 30
0.0
 10
-12.20819682776222
 20
3.034998831993197
 30
0.0
 10
-12.24212598199678
 20
3.033316810049441
 30
0.0
 10
-12.2737059739177
 20
3.030007273347787
 30
0.0
 10
-12.30528602339197
 20
3.026697730614627
 30
0.0
 10
-12.33538580255777
 20
3.021662502480093
 30
0.0
 10
-12.36152484371103
 20
3.015114030853808
 30
0.0
 10
-12.38767816928773
 20
3.008561980628713
 30
0.0
 10
-12.41058782585431
 20
3.000304000580623
 30
0.0
 10
-12.42838234621445
 20
2.990782462570789
 30
0.0
 10
-12.44622087865105
 20
2.981237374465175
 30
0.0
 10
-12.45941081660298
 20
2.97014878617414
 30
0.0
 10
-12.46686952339179
 20
2.958263843418881
 30
0.0
 10
-12.47185525880423
 20
2.950319412615052
 30
0.0
 10
-12.47439542159535
 20
2.941904275766353
 30
0.0
 10
-12.47439542159538
 20
2.933317515723652
 30
0.0
 10
-12.47439542159543
 20
2.920472844622511
 30
0.0
 10
-12.46862339331274
 20
2.906932420721695
 30
0.0
 10
-12.45755444364284
 20
2.893896972096711
 30
0.0
 10
-12.4464857973405
 20
2.88086188073527
 30
0.0
 10
-12.42981565440254
 20
2.867979228653661
 30
0.0
 10
-12.40891051506901
 20
2.856516666048313
 30
0.0
 10
-12.38799317155415
 20
2.84504741172997
 30
0.0
 10
-12.36225626751001
 20
2.834694331752071
 30
0.0
 10
-12.33381972971372
 20
2.826556814037532
 30
0.0
 10
-12.3054126576162
 20
2.818427728349684
 30
0.0
 10
-12.27352460971689
 20
2.812296131418043
 30
0.0
 10
-12.24080497887089
 20
2.808840653437699
 30
0.0
 10
-12.21919040784734
 20
2.806557966491199
 30
0.0
 10
-12.19689231314617
 20
2.805388772574144
 30
0.0
 10
-12.17473011329438
 20
2.805388772574144
 30
0.0
  0
SPLINE
  5
E4
330
1F
100
AcDbEntity
  8
SK1
  6
Continuous
100
AcDbSpline
210
0.0
220
0.0
230
1.0
 70
     8
 71
     3
 72
    35
 73
    31
 74
     0
 42
0.000000014285121
 43
0.0000000001
 12
1.0
 22
0.0
 32
0.0
 13
1.0
 23
0.0
 33
0.0
 40
0.0
 40
0.0
 40
0.0
 40
0.0
 40
0.1109282350188725
 40
0.1109282350188725
 40
0.1109282350188725
 40
0.2219835961662484
 40
0.2219835961662484
 40
0.2219835961662484
 40
0.3310796898380999
 40
0.3310796898380999
 40
0.3310796898380999
 40
0.4376166855687321
 40
0.4376166855687321
 40
0.4376166855687321
 40
0.5001075690994083
 40
0.5001075690994083
 40
0.5001075690994083
 40
0.6046394905851209
 40
0.6046394905851209
 40
0.6046394905851209
 40
0.7091265106033512
 40
0.7091265106033512
 40
0.7091265106033512
 40
0.8143265814489737
 40
0.8143265814489737
 40
0.8143265814489737
 40
0.9214452333066642
 40
0.9214452333066642
 40
0.9214452333066642
 40
1.0
 40
1.0
 40
1.0
 40
1.0
 10
-11.93366688059335
 20
5.719699751986883
 30
0.0
 10
-11.96841187078081
 20
5.715183277698245
 30
0.0
 10
-12.00368066639486
 20
5.713148824681572
 30
0.0
 10
-12.03655900836135
 20
5.713771126568203
 30
0.0
 10
-12.06945920107769
 20
5.714393842032954
 30
0.0
 10
-12.10088233910679
 20
5.717698876641299
 30
0.0
 10
-12.12804487150399
 20
5.723354272523721
 30
0.0
 10
-12.15472988270375
 20
5.728910245739126
 30
0.0
 10
-12.17805429478966
 20
5.736890299785816
 30
0.0
 10
-12.1958917396975
 20
5.746516397709376
 30
0.0
 10
-12.21331754359579
 20
5.755920350774865
 30
0.0
 10
-12.22599644743331
 20
5.767155362841909
 30
0.0
 10
-12.23278015597218
 20
5.779192673603422
 30
0.0
 10
-12.23679777357492
 20
5.78632171096225
 30
0.0
 10
-12.23883997051745
 20
5.793822546544328
 30
0.0
 10
-12.23883997051745
 20
5.801459775861214
 30
0.0
 10
-12.23883997051745
 20
5.814118101254489
 30
0.0
 10
-12.2331260008527
 20
5.827437990704371
 30
0.0
 10
-12.22220268910552
 20
5.840348956594431
 30
0.0
 10
-12.21128197669847
 20
5.853256850156922
 30
0.0
 10
-12.19486137728742
 20
5.866112454350151
 30
0.0
 10
-12.17435787092654
 20
5.877970253508516
 30
0.0
 10
-12.15371135205491
 20
5.889910761136331
 30
0.0
 10
-12.12837691545801
 20
5.901167178456315
 30
0.0
 10
-12.10046888658082
 20
5.910977048064012
 30
0.0
 10
-12.07205362047968
 20
5.920965215144774
 30
0.0
 10
-12.04021818224291
 20
5.929727338227813
 30
0.0
 10
-12.00753918103356
 20
5.936691085753258
 30
0.0
 10
-11.98342098633401
 20
5.941830564086186
 30
0.0
 10
-11.95844645295533
 20
5.946088734040466
 30
0.0
 10
-11.93366688059335
 20
5.949309811405938
 30
0.0
  0
SPLINE
  5
E5
330
1F
100
AcDbEntity
  8
SK3
100
AcDbSpline
210
0.0
220
0.0
230
1.0
 70
     8
 71
     3
 72
    11
 73
     7
 74
     0
 42
0.0000003170612661
 43
0.0000000001
 12
1.0
 22
0.0
 32
0.0
 13
1.0
 23
0.0
 33
0.0
 40
0.0
 40
0.0
 40
0.0
 40
0.0
 40
0.2178192829638622
 40
0.2178192829638622
 40
0.2178192829638622
 40
1.0
 40
1.0
 40
1.0
 40
1.0
 10
-12.46264422844934
 20
-2.964165477896992
 30
0.0
 10
-12.46421006457544
 20
-2.962222949804626
 30
0.0
 10
-12.46562019213641
 20
-2.960254567933597
 30
0.0
 10
-12.46686952339179
 20
-2.958263843418878
 30
0.0
 10
-12.47139162899546
 20
-2.95105817523072
 30
0.0
 10
-12.47390184794636
 20
-2.94346527372109
 30
0.0
 10
-12.47432960044447
 20
-2.935708303811418
 30
0.0
  0
ARC
  5
E6
330
1F
100
AcDbEntity
  8
SK3
100
AcDbCircle
 10
-2.6537617359
 20
-6.3318892928
 30
0.0
 40
3.171094301380599
100
AcDbArc
 50
84.5747962281
 51
89.9972945309
  0
SPLINE
  5
E7
330
1F
100
AcDbEntity
  8
SK1
  6
Continuous
100
AcDbSpline
210
0.0
220
0.0
230
1.0
 70
     8
 71
     3
 72
    23
 73
    19
 74
     0
 42
0.0000000327476852
 43
0.0000000001
 12
1.0
 22
0.0
 32
0.0
 13
1.0
 23
0.0
 33
0.0
 40
0.0
 40
0.0
 40
0.0
 40
0.0
 40
0.1923208162012975
 40
0.1923208162012975
 40
0.1923208162012975
 40
0.3846323453501371
 40
0.3846323453501371
 40
0.3846323453501371
 40
0.5770729487222065
 40
0.5770729487222065
 40
0.5770729487222065
 40
0.7694962031987919
 40
0.7694962031987919
 40
0.7694962031987919
 40
0.8947898157687236
 40
0.8947898157687236
 40
0.8947898157687236
 40
1.0
 40
1.0
 40
1.0
 40
1.0
 10
-3.035249513251289
 20
-7.566990549797826
 30
0.0
 10
-3.001990067872158
 20
-7.571668532101373
 30
0.0
 10
-2.968304710468351
 20
-7.576642199273304
 30
0.0
 10
-2.936978340549157
 20
-7.58146284835403
 30
0.0
 10
-2.905652879832457
 20
-7.586283357522402
 30
0.0
 10
-2.875821642012617
 20
-7.591080522490893
 30
0.0
 10
-2.849937139026036
 20
-7.595366813213642
 30
0.0
 10
-2.824035823777103
 20
-7.59965588792819
 30
0.0
 10
-2.801371024848754
 20
-7.60354679458837
 30
0.0
 10
-2.78380717727599
 20
-7.606611286284443
 30
0.0
 10
-2.76624531714387
 20
-7.609675431217354
 30
0.0
 10
-2.753298325152364
 20
-7.611993320542075
 30
0.0
 10
-2.746035705565691
 20
-7.613297298888468
 30
0.0
 10
-2.741267806384582
 20
-7.614153358773712
 30
0.0
 10
-2.738839970516086
 20
-7.614592741375192
 30
0.0
 10
-2.738839970516062
 20
-7.614592741375197
 30
0.0
 10
-2.738839970516043
 20
-7.6145927413752
 30
0.0
 10
-2.740550957475893
 20
-7.614282135788145
 30
0.0
 10
-2.74389556128157
 20
-7.613680821401329
 30
0.0
  0
SPLINE
  5
E8
330
1F
100
AcDbEntity
  8
SK1
  6
Continuous
100
AcDbSpline
210
0.0
220
0.0
230
1.0
 70
     8
 71
     3
 72
    20
 73
    16
 74
     0
 42
0.0000000333080568
 43
0.0000000001
 12
1.0
 22
0.0
 32
0.0
 13
1.0
 23
0.0
 33
0.0
 40
0.0
 40
0.0
 40
0.0
 40
0.0
 40
0.2146620896316452
 40
0.2146620896316452
 40
0.2146620896316452
 40
0.4293109030727408
 40
0.4293109030727408
 40
0.4293109030727408
 40
0.6441632339819511
 40
0.6441632339819511
 40
0.6441632339819511
 40
0.8592492961046572
 40
0.8592492961046572
 40
0.8592492961046572
 40
1.0
 40
1.0
 40
1.0
 40
1.0
 10
-2.738839970516055
 20
7.6145927413752
 30
0.0
 10
-2.738839970516019
 20
7.614592741375207
 30
0.0
 10
-2.744542627967747
 20
7.613557504224291
 30
0.0
 10
-2.755477161667279
 20
7.611608097773973
 30
0.0
 10
-2.766411313594982
 20
7.609658759385858
 30
0.0
 10
-2.782877645225802
 20
7.606744905458927
 30
0.0
 10
-2.80352315438578
 20
7.603197395577382
 30
0.0
 10
-2.824188097382252
 20
7.599646546387205
 30
0.0
 10
-2.849609783443436
 20
7.595367970078256
 30
0.0
 10
-2.877702028067469
 20
7.590820965064759
 30
0.0
 10
-2.905823792710656
 20
7.586269181946952
 30
0.0
 10
-2.937398756279775
 20
7.581327394180114
 30
0.0
 10
-2.969823310784041
 20
7.576481118453203
 30
0.0
 10
-2.991214774892677
 20
7.57328388305991
 30
0.0
 10
-3.013292088551144
 20
7.570078888854835
 30
0.0
 10
-3.035249513251292
 20
7.56699054979783
 30
0.0
  0
ARC
  5
E9
330
1F
100
AcDbEntity
  8
SK3
100
AcDbCircle
 10
-2.6537617359
 20
6.3318892928
 30
0.0
 40
3.171094301380477
100
AcDbArc
 50
270.0027054691
 51
275.4252037719
  0
LINE
  5
EA
330
1F
100
AcDbEntity
  8
SK1
  6
Continuous
100
AcDbLine
 10
-3.0352495133
 20
7.5669905498
 30
0.0
 11
-17.0666745907
 21
5.5929067778
 31
0.0
  0
LINE
  5
EB
330
1F
100
AcDbEntity
  8
SK3
100
AcDbLine
 10
-2.6536119989
 20
3.1607949949
 30
0.0
 11
-16.6036802716
 21
3.1607949949
 31
0.0
  0
SPLINE
  5
EC
330
1F
100
AcDbEntity
  8
SK3
100
AcDbSpline
210
0.0
220
0.0
230
1.0
 70
     8
 71
     3
 72
    11
 73
     7
 74
     0
 42
0.000000349448413
 43
0.0000000001
 12
1.0
 22
0.0
 32
0.0
 13
1.0
 23
0.0
 33
0.0
 40
0.0
 40
0.0
 40
0.0
 40
0.0
 40
0.2942451834672826
 40
0.2942451834672826
 40
0.2942451834672826
 40
1.0
 40
1.0
 40
1.0
 40
1.0
 10
-12.22818199021632
 20
5.832481524201771
 30
0.0
 10
-12.22993041083063
 20
5.829910161900312
 30
0.0
 10
-12.2314659160156
 20
5.827339955845109
 30
0.0
 10
-12.23278015597218
 20
5.82477864854428
 30
0.0
 10
-12.23596291936108
 20
5.818575797182208
 30
0.0
 10
-12.23790594135446
 20
5.812359223781367
 30
0.0
 10
-12.23857602260825
 20
5.806246454839745
 30
0.0
  0
SPLINE
  5
ED
330
1F
100
AcDbEntity
  8
SK1
  6
Continuous
100
AcDbSpline
210
0.0
220
0.0
230
1.0
 70
     8
 71
     3
 72
    11
 73
     7
 74
     0
 42
0.0000000006593864
 43
0.0000000001
 12
1.0
 22
0.0
 32
0.0
 13
1.0
 23
0.0
 33
0.0
 40
0.0
 40
0.0
 40
0.0
 40
0.0
 40
0.6794373012482287
 40
0.6794373012482287
 40
0.6794373012482287
 40
1.0
 40
1.0
 40
1.0
 40
1.0
 10
-11.93366688059335
 20
-5.719699751986879
 30
0.0
 10
-8.527630659699248
 20
-6.162447754931707
 30
0.0
 10
-5.121578075838424
 20
-6.60508831584942
 30
0.0
 10
-1.715516811972067
 20
-7.047671846979234
 30
0.0
 10
-0.1085161525124136
 20
-7.256485479880318
 30
0.0
 10
1.498486532002413
 20
-7.465285810795526
 30
0.0
 10
3.105490789098515
 20
-7.674075810077289
 30
0.0
  0
LINE
  5
EE
330
1F
100
AcDbEntity
  8
SK3
100
AcDbLine
 10
-12.1747301133
 20
-2.8053887726
 30
0.0
 11
9.8611600295
 21
-2.8053887726
 31
0.0
  0
SPLINE
  5
EF
330
1F
100
AcDbEntity
  8
SK1
  6
Continuous
100
AcDbSpline
210
0.0
220
0.0
230
1.0
 70
     8
 71
     3
 72
    35
 73
    31
 74
     0
 42
0.0000000142844881
 43
0.0000000001
 12
1.0
 22
0.0
 32
0.0
 13
1.0
 23
0.0
 33
0.0
 40
0.0
 40
0.0
 40
0.0
 40
0.0
 40
0.110928235018865
 40
0.110928235018865
 40
0.110928235018865
 40
0.2219835961662431
 40
0.2219835961662431
 40
0.2219835961662431
 40
0.3310796898380912
 40
0.3310796898380912
 40
0.3310796898380912
 40
0.4376166855687227
 40
0.4376166855687227
 40
0.4376166855687227
 40
0.5001075690994063
 40
0.5001075690994063
 40
0.5001075690994063
 40
0.6046394905851206
 40
0.6046394905851206
 40
0.6046394905851206
 40
0.7091265106033522
 40
0.7091265106033522
 40
0.7091265106033522
 40
0.8143265814489762
 40
0.8143265814489762
 40
0.8143265814489762
 40
0.9214452333066598
 40
0.9214452333066598
 40
0.9214452333066598
 40
1.0
 40
1.0
 40
1.0
 40
1.0
 10
-11.93366688059336
 20
-5.949309811405934
 30
0.0
 10
-11.96841187078081
 20
-5.944793337117297
 30
0.0
 10
-12.00368066639486
 20
-5.938196353998797
 30
0.0
 10
-12.03655900836135
 20
-5.929983640076965
 30
0.0
 10
-12.06945920107769
 20
-5.921765468034471
 30
0.0
 10
-12.10088233910679
 20
-5.911690187872487
 30
0.0
 10
-12.12804487150399
 20
-5.900474640974323
 30
0.0
 10
-12.15472988270375
 20
-5.88945626499183
 30
0.0
 10
-12.17805429478966
 20
-5.877015668608959
 30
0.0
 10
-12.1958917396975
 20
-5.864087219057478
 30
0.0
 10
-12.21331754359579
 20
-5.85145712389772
 30
0.0
 10
-12.2259964474333
 20
-5.837999340945434
 30
0.0
 10
-12.23278015597218
 20
-5.824778648544278
 30
0.0
 10
-12.23679777357492
 20
-5.816948759302011
 30
0.0
 10
-12.23883997051745
 20
-5.809097005178097
 30
0.0
 10
-12.23883997051745
 20
-5.80145977586121
 30
0.0
 10
-12.23883997051745
 20
-5.788801450467935
 30
0.0
 10
-12.2331260008527
 20
-5.776455708096508
 30
0.0
 10
-12.22220268910552
 20
-5.765483784432727
 30
0.0
 10
-12.21128197669847
 20
-5.754514471676901
 30
0.0
 10
-12.19486137728742
 20
-5.744621347505904
 30
0.0
 10
-12.17435787092654
 20
-5.73668708723046
 30
0.0
 10
-12.15371135205491
 20
-5.728697485275264
 30
0.0
 10
-12.12837691545801
 20
-5.722482084549077
 30
0.0
 10
-12.10046888658082
 20
-5.718605807365288
 30
0.0
 10
-12.07205362047968
 20
-5.714659077621534
 30
0.0
 10
-12.04021818224291
 20
-5.713032904242613
 30
0.0
 10
-12.00753918103357
 20
-5.71388301158072
 30
0.0
 10
-11.98342098633402
 20
-5.714510419198371
 30
0.0
 10
-11.95844645295534
 20
-5.716478674621408
 30
0.0
 10
-11.93366688059335
 20
-5.719699751986879
 30
0.0
  0
SPLINE
  5
F0
330
1F
100
AcDbEntity
  8
SK3
100
AcDbSpline
210
0.0
220
0.0
230
1.0
 70
     8
 71
     3
 72
    35
 73
    31
 74
     0
 42
0.0000000145511454
 43
0.0000000001
 12
1.0
 22
0.0
 32
0.0
 13
1.0
 23
0.0
 33
0.0
 40
0.0
 40
0.0
 40
0.0
 40
0.0
 40
0.107094910298653
 40
0.107094910298653
 40
0.107094910298653
 40
0.2141882979798435
 40
0.2141882979798435
 40
0.2141882979798435
 40
0.3213365682361147
 40
0.3213365682361147
 40
0.3213365682361147
 40
0.4287571737745769
 40
0.4287571737745769
 40
0.4287571737745769
 40
0.4999934115373507
 40
0.4999934115373507
 40
0.4999934115373507
 40
0.6074054375184931
 40
0.6074054375184931
 40
0.6074054375184931
 40
0.7148124421652722
 40
0.7148124421652722
 40
0.7148124421652722
 40
0.8222862706757883
 40
0.8222862706757883
 40
0.8222862706757883
 40
0.9296510251613341
 40
0.9296510251613341
 40
0.9296510251613341
 40
1.0
 40
1.0
 40
1.0
 40
1.0
 10
-12.17473011329438
 20
-2.80538877257414
 30
0.0
 10
-12.20819682776222
 20
-2.80538877257414
 30
0.0
 10
-12.24212598199678
 20
-2.808104660010036
 30
0.0
 10
-12.2737059739177
 20
-2.813240159931575
 30
0.0
 10
-12.30528602339197
 20
-2.81837566921237
 30
0.0
 10
-12.33538580255777
 20
-2.826064436771666
 30
0.0
 10
-12.36152484371103
 20
-2.83546773283722
 30
0.0
 10
-12.38767816928772
 20
-2.844876167601696
 30
0.0
 10
-12.4105878258543
 20
-2.856248006335774
 30
0.0
 10
-12.42838234621444
 20
-2.868408976704604
 30
0.0
 10
-12.44622087865105
 20
-2.880600025409171
 30
0.0
 10
-12.45941081660298
 20
-2.893910136216812
 30
0.0
 10
-12.46686952339178
 20
-2.907069128756316
 30
0.0
 10
-12.47185525880423
 20
-2.915865191794309
 30
0.0
 10
-12.47439542159536
 20
-2.924730755680631
 30
0.0
 10
-12.47439542159539
 20
-2.933317515723338
 30
0.0
 10
-12.47439542159544
 20
-2.946162186824487
 30
0.0
 10
-12.46862339331274
 20
-2.958665260721427
 30
0.0
 10
-12.45755444364284
 20
-2.969870189086693
 30
0.0
 10
-12.4464857973405
 20
-2.981074810357627
 30
0.0
 10
-12.42981565440254
 20
-2.991297631364869
 30
0.0
 10
-12.40891051506901
 20
-2.999897390371454
 30
0.0
 10
-12.38799317155415
 20
-3.008502169819023
 30
0.0
 10
-12.36225626751001
 20
-3.015730811996196
 30
0.0
 10
-12.33381972971372
 20
-3.02122371866974
 30
0.0
 10
-12.3054126576162
 20
-3.026710933640076
 30
0.0
 10
-12.27352460971689
 20
-3.03062783088272
 30
0.0
 10
-12.24080497887089
 20
-3.032820991260552
 30
0.0
 10
-12.21919040784734
 20
-3.034269791859061
 30
0.0
 10
-12.19689231314617
 20
-3.034998831993194
 30
0.0
 10
-12.17473011329438
 20
-3.034998831993194
 30
0.0
  0
LINE
  5
F1
330
1F
100
AcDbEntity
  8
SK3
100
AcDbLine
 10
-12.1747301133
 20
-3.034998832
 30
0.0
 11
9.8611600295
 21
-3.034998832
 31
0.0
  0
SPLINE
  5
F2
330
1F
100
AcDbEntity
  8
SK1
  6
Continuous
100
AcDbSpline
210
0.0
220
0.0
230
1.0
 70
     8
 71
     3
 72
    11
 73
     7
 74
     0
 42
0.0000000006593864
 43
0.0000000001
 12
1.0
 22
0.0
 32
0.0
 13
1.0
 23
0.0
 33
0.0
 40
0.0
 40
0.0
 40
0.0
 40
0.0
 40
0.6794373012482287
 40
0.6794373012482287
 40
0.6794373012482287
 40
1.0
 40
1.0
 40
1.0
 40
1.0
 10
-11.93366688059336
 20
-5.949309811405934
 30
0.0
 10
-8.527630659699248
 20
-6.392057814350761
 30
0.0
 10
-5.121578075838424
 20
-6.834698375268474
 30
0.0
 10
-1.715516811972067
 20
-7.277281906398288
 30
0.0
 10
-0.1085161525124136
 20
-7.486095539299372
 30
0.0
 10
1.498486532002413
 20
-7.694895870214581
 30
0.0
 10
3.105490789098515
 20
-7.903685869496342
 30
0.0
  0
ELLIPSE
  5
F3
330
1F
100
AcDbEntity
  8
SK1
  6
Continuous
100
AcDbEllipse
 10
49.9449074303
 20
-0.1148050335
 30
0.0
 11
-62.19999994812184
 21
2.546492901560432E-8
 31
0.0
210
0.0
220
0.0
230
1.0
 40
0.9238795329
 41
0.0976608629175036
 42
0.1017061614529548
  0
ELLIPSE
  5
F4
330
1F
100
AcDbEntity
  8
SK1
  6
Continuous
100
AcDbEllipse
 10
-64.7732495686
 20
-0.212132036
 30
0.0
 11
62.19999997421141
 21
3.196195559114235E-9
 31
0.0
210
0.0
220
0.0
230
1.0
 40
0.7071067813
 41
-0.121957900057641
 42
-0.112573677406032
  0
SPLINE
  5
F5
330
1F
100
AcDbEntity
  8
SK3
100
AcDbSpline
210
0.0
220
0.0
230
1.0
 70
     8
 71
     3
 72
    35
 73
    31
 74
     0
 42
0.0000000122913986
 43
0.0000000001
 12
1.0
 22
0.0
 32
0.0
 13
1.0
 23
0.0
 33
0.0
 40
0.0
 40
0.0
 40
0.0
 40
0.0
 40
0.1070949102986536
 40
0.1070949102986536
 40
0.1070949102986536
 40
0.2141882979798472
 40
0.2141882979798472
 40
0.2141882979798472
 40
0.3213365682361403
 40
0.3213365682361403
 40
0.3213365682361403
 40
0.4287571737745942
 40
0.4287571737745942
 40
0.4287571737745942
 40
0.4999934115373486
 40
0.4999934115373486
 40
0.4999934115373486
 40
0.6074054375184925
 40
0.6074054375184925
 40
0.6074054375184925
 40
0.7148124421652728
 40
0.7148124421652728
 40
0.7148124421652728
 40
0.8222862706757877
 40
0.8222862706757877
 40
0.8222862706757877
 40
0.9296510251613299
 40
0.9296510251613299
 40
0.9296510251613299
 40
1.0
 40
1.0
 40
1.0
 40
1.0
 10
-2.653611998864623
 20
-2.447151609214316
 30
0.0
 10
-2.620145284396779
 20
-2.447151609214316
 30
0.0
 10
-2.586216130162228
 20
-2.443484113947751
 30
0.0
 10
-2.554636138241305
 20
-2.436380683332633
 30
0.0
 10
-2.523056088767028
 20
-2.429277239771777
 30
0.0
 10
-2.492956309601234
 20
-2.418537266153468
 30
0.0
 10
-2.466817268447971
 20
-2.404892248490821
 30
0.0
 10
-2.440663942871274
 20
-2.391239774119686
 30
0.0
 10
-2.417754286304696
 20
-2.374295808449788
 30
0.0
 10
-2.399959765944553
 20
-2.35527384977987
 30
0.0
 10
-2.382121233507955
 20
-2.336204843148989
 30
0.0
 10
-2.368931295556017
 20
-2.314513524293553
 30
0.0
 10
-2.361472588767213
 20
-2.291863502805625
 30
0.0
 10
-2.356486853354775
 20
-2.276723208727519
 30
0.0
 10
-2.353946690563656
 20
-2.260930293975771
 30
0.0
 10
-2.353946690563625
 20
-2.245064030267697
 30
0.0
 10
-2.35394669056358
 20
-2.221330172803325
 30
0.0
 10
-2.359718718846266
 20
-2.196872141572928
 30
0.0
 10
-2.37078766851616
 20
-2.173776443635278
 30
0.0
 10
-2.381856314818501
 20
-2.150681378683193
 30
0.0
 10
-2.398526457756463
 20
-2.128316831722367
 30
0.0
 10
-2.419431597089995
 20
-2.108686115903081
 30
0.0
 10
-2.440348940604856
 20
-2.089043939896343
 30
0.0
 10
-2.466085844648994
 20
-2.071604876069177
 30
0.0
 10
-2.49452238244528
 20
-2.057999957127146
 30
0.0
 10
-2.522929454542799
 20
-2.044409135486488
 30
0.0
 10
-2.554817502442106
 20
-2.034278008507663
 30
0.0
 10
-2.587537133288111
 20
-2.02857627910912
 30
0.0
 10
-2.60915170431166
 20
-2.024809719650613
 30
0.0
 10
-2.631449799012831
 20
-2.022887540502387
 30
0.0
 10
-2.653611998864623
 20
-2.022887540502387
 30
0.0
  0
SPLINE
  5
F6
330
1F
100
AcDbEntity
  8
SK1
  6
Continuous
100
AcDbSpline
210
0.0
220
0.0
230
1.0
 70
     8
 71
     3
 72
    35
 73
    31
 74
     0
 42
0.0000000123399522
 43
0.0000000001
 12
1.0
 22
0.0
 32
0.0
 13
1.0
 23
0.0
 33
0.0
 40
0.0
 40
0.0
 40
0.0
 40
0.0
 40
0.1074674443062707
 40
0.1074674443062707
 40
0.1074674443062707
 40
0.2149296990765753
 40
0.2149296990765753
 40
0.2149296990765753
 40
0.3224640795645798
 40
0.3224640795645798
 40
0.3224640795645798
 40
0.429988765618588
 40
0.429988765618588
 40
0.429988765618588
 40
0.5000019061450287
 40
0.5000019061450287
 40
0.5000019061450287
 40
0.6073325417835037
 40
0.6073325417835037
 40
0.6073325417835037
 40
0.7146565393523562
 40
0.7146565393523562
 40
0.7146565393523562
 40
0.8220822952673326
 40
0.8220822952673326
 40
0.8220822952673326
 40
0.929624916343534
 40
0.929624916343534
 40
0.929624916343534
 40
1.0
 40
1.0
 40
1.0
 40
1.0
 10
-3.035249513251294
 20
-5.138538296580599
 30
0.0
 10
-3.001990067872167
 20
-5.141846129589704
 30
0.0
 10
-2.96830471046836
 20
-5.149463316357616
 30
0.0
 10
-2.936978340549169
 20
-5.160729959621508
 30
0.0
 10
-2.90565287983247
 20
-5.171996275887406
 30
0.0
 10
-2.875821642012633
 20
-5.187219665377516
 30
0.0
 10
-2.849937139026051
 20
-5.20507667242215
 30
0.0
 10
-2.824035823777118
 20
-5.22294527778441
 30
0.0
 10
-2.80137102484877
 20
-5.243940720636106
 30
0.0
 10
-2.783807177276005
 20
-5.266252055591226
 30
0.0
 10
-2.766245317143883
 20
-5.28856086590283
 30
0.0
 10
-2.753298325152373
 20
-5.31279875053839
 30
0.0
 10
-2.746035705565697
 20
-5.33690240000026
 30
0.0
 10
-2.741267806384573
 20
-5.352726410766593
 30
0.0
 10
-2.738839970517455
 20
-5.368730765200415
 30
0.0
 10
-2.738839970517455
 20
-5.384330163400085
 30
0.0
 10
-2.738839970517455
 20
-5.408049589077359
 30
0.0
 10
-2.744542627967809
 20
-5.43136402855166
 30
0.0
 10
-2.75547716166728
 20
-5.452367034312125
 30
0.0
 10
-2.766411313594983
 20
-5.473369306767008
 30
0.0
 10
-2.782877645225798
 20
-5.492641630714213
 30
0.0
 10
-2.803523154385775
 20
-5.508657765826952
 30
0.0
 10
-2.824188097382247
 20
-5.524688977097351
 30
0.0
 10
-2.849609783443434
 20
-5.537903409630236
 30
0.0
 10
-2.877702028067466
 20
-5.547286078106755
 30
0.0
 10
-2.905823792710653
 20
-5.556678606121272
 30
0.0
 10
-2.937398756279772
 20
-5.562493376627196
 30
0.0
 10
-2.96982331078404
 20
-5.564300813233626
 30
0.0
 10
-2.991214774892674
 20
-5.565493234097572
 30
0.0
 10
-3.013292088551142
 20
-5.564986150782339
 30
0.0
 10
-3.03524951325129
 20
-5.562802365292526
 30
0.0
  0
LINE
  5
F7
330
1F
100
AcDbEntity
  8
SK1
  6
Continuous
100
AcDbLine
 10
-11.9336668806
 20
-2.1395671506
 30
0.0
 11
3.1054907891
 21
-2.9490962198
 31
0.0
  0
LINE
  5
F8
330
1F
100
AcDbEntity
  8
SK3
100
AcDbLine
 10
-12.1747301133
 20
-0.9324200179
 30
0.0
 11
9.8611600295
 21
-0.9324200179
 31
0.0
  0
SPLINE
  5
F9
330
1F
100
AcDbEntity
  8
SK1
  6
Continuous
100
AcDbSpline
210
0.0
220
0.0
230
1.0
 70
     8
 71
     3
 72
    35
 73
    31
 74
     0
 42
0.0000000108719605
 43
0.0000000001
 12
1.0
 22
0.0
 32
0.0
 13
1.0
 23
0.0
 33
0.0
 40
0.0
 40
0.0
 40
0.0
 40
0.0
 40
0.1109282350188726
 40
0.1109282350188726
 40
0.1109282350188726
 40
0.22198359616625
 40
0.22198359616625
 40
0.22198359616625
 40
0.3310796898381013
 40
0.3310796898381013
 40
0.3310796898381013
 40
0.4376166855687333
 40
0.4376166855687333
 40
0.4376166855687333
 40
0.5001075690994093
 40
0.5001075690994093
 40
0.5001075690994093
 40
0.6046394905851217
 40
0.6046394905851217
 40
0.6046394905851217
 40
0.7091265106033517
 40
0.7091265106033517
 40
0.7091265106033517
 40
0.8143265814489741
 40
0.8143265814489741
 40
0.8143265814489741
 40
0.9214452333066643
 40
0.9214452333066643
 40
0.9214452333066643
 40
1.0
 40
1.0
 40
1.0
 40
1.0
 10
-11.93366688059335
 20
-2.69389487006271
 30
0.0
 10
-11.96841187078081
 20
-2.692024085158247
 30
0.0
 10
-12.00368066639486
 20
-2.684728995177993
 30
0.0
 10
-12.03655900836135
 20
-2.672492161879216
 30
0.0
 10
-12.06945920107769
 20
-2.660247196054057
 30
0.0
 10
-12.10088233910679
 20
-2.642693563595924
 30
0.0
 10
-12.12804487150399
 20
-2.621176989180688
 30
0.0
 10
-12.15472988270375
 20
-2.600038679215512
 30
0.0
 10
-12.17805429478966
 20
-2.57446496504016
 30
0.0
 10
-12.1958917396975
 20
-2.546555278420435
 30
0.0
 10
-12.21331754359579
 20
-2.519289673485951
 30
0.0
 10
-12.22599644743331
 20
-2.48902248224831
 30
0.0
 10
-12.23278015597218
 20
-2.45828828898912
 30
0.0
 10
-12.23679777357492
 20
-2.440086116072001
 30
0.0
 10
-12.23883997051745
 20
-2.421481223319465
 30
0.0
 10
-12.23883997051745
 20
-2.403043320723688
 30
0.0
 10
-12.23883997051745
 20
-2.37248341988231
 30
0.0
 10
-12.2331260008527
 20
-2.341704014133194
 30
0.0
 10
-12.22220268910552
 20
-2.313276404992493
 30
0.0
 10
-12.21128197669847
 20
-2.284855560560801
 30
0.0
 10
-12.19486137728742
 20
-2.258008965990703
 30
0.0
 10
-12.17435787092654
 20
-2.234930428343408
 30
0.0
 10
-12.15371135205491
 20
-2.211690917272591
 30
0.0
 10
-12.12837691545801
 20
-2.191644595950054
 30
0.0
 10
-12.10046888658082
 20
-2.176352842577523
 30
0.0
 10
-12.07205362047968
 20
-2.160783156766123
 30
0.0
 10
-12.04021818224291
 20
-2.149721277235844
 30
0.0
 10
-12.00753918103356
 20
-2.143959763037424
 30
0.0
 10
-11.98342098633401
 20
-2.139707573066515
 30
0.0
 10
-11.95844645295533
 20
-2.138232936625707
 30
0.0
 10
-11.93366688059335
 20
-2.139567150555938
 30
0.0
  0
SPLINE
  5
FA
330
1F
100
AcDbEntity
  8
SK3
100
AcDbSpline
210
0.0
220
0.0
230
1.0
 70
     8
 71
     3
 72
    35
 73
    31
 74
     0
 42
0.0000000109824728
 43
0.0000000001
 12
1.0
 22
0.0
 32
0.0
 13
1.0
 23
0.0
 33
0.0
 40
0.0
 40
0.0
 40
0.0
 40
0.0
 40
0.1070949102986523
 40
0.1070949102986523
 40
0.1070949102986523
 40
0.2141882979798422
 40
0.2141882979798422
 40
0.2141882979798422
 40
0.3213365682361311
 40
0.3213365682361311
 40
0.3213365682361311
 40
0.4287571737745847
 40
0.4287571737745847
 40
0.4287571737745847
 40
0.4999934115373502
 40
0.4999934115373502
 40
0.4999934115373502
 40
0.6074054375184936
 40
0.6074054375184936
 40
0.6074054375184936
 40
0.7148124421652746
 40
0.7148124421652746
 40
0.7148124421652746
 40
0.8222862706757932
 40
0.8222862706757932
 40
0.8222862706757932
 40
0.9296510251613296
 40
0.9296510251613296
 40
0.9296510251613296
 40
1.0
 40
1.0
 40
1.0
 40
1.0
 10
-12.17473011329438
 20
-0.9324200179103642
 30
0.0
 10
-12.20819682776222
 20
-0.9324200179103642
 30
0.0
 10
-12.24212598199678
 20
-0.9379428846998425
 30
0.0
 10
-12.2737059739177
 20
-0.9485151150401026
 30
0.0
 10
-12.30528602339197
 20
-0.9590873646478567
 30
0.0
 10
-12.33538580255777
 20
-0.9749961521426795
 30
0.0
 10
-12.36152484371103
 20
-0.9948428925958803
 30
0.0
 10
-12.38767816928773
 20
-1.014700478865602
 30
0.0
 10
-12.41058782585431
 20
-1.039040667480552
 30
0.0
 10
-12.42838234621445
 20
-1.065760414717605
 30
0.0
 10
-12.44622087865105
 20
-1.09254624924077
 30
0.0
 10
-12.45941081660298
 20
-1.122458176752655
 30
0.0
 10
-12.46686952339179
 20
-1.152952745224445
 30
0.0
 10
-12.47185525880423
 20
-1.173336687672092
 30
0.0
 10
-12.47439542159535
 20
-1.194289625206911
 30
0.0
 10
-12.47439542159538
 20
-1.215019897758851
 30
0.0
 10
-12.47439542159543
 20
-1.246029676935458
 30
0.0
 10
-12.46862339331273
 20
-1.277252117512681
 30
0.0
 10
-12.45755444364284
 20
-1.306133727797241
 30
0.0
 10
-12.4464857973405
 20
-1.335014546521291
 30
0.0
 10
-12.42981565440254
 20
-1.362354450717054
 30
0.0
 10
-12.40891051506901
 20
-1.385978909142655
 30
0.0
 10
-12.38799317155415
 20
-1.40961715925698
 30
0.0
 10
-12.36225626751
 20
-1.430193083039379
 30
0.0
 10
-12.33381972971372
 20
-1.446098743868493
 30
0.0
 10
-12.3054126576162
 20
-1.461987923387045
 30
0.0
 10
-12.27352460971689
 20
-1.473658849521656
 30
0.0
 10
-12.24080497887089
 20
-1.48021592465279
 30
0.0
 10
-12.21919040784734
 20
-1.484547525054876
 30
0.0
 10
-12.19689231314617
 20
-1.486747737417136
 30
0.0
 10
-12.17473011329438
 20
-1.486747737417136
 30
0.0
  0
LINE
  5
FB
330
1F
100
AcDbEntity
  8
SK3
100
AcDbLine
 10
-12.1747301133
 20
-1.4867477374
 30
0.0
 11
9.8611600295
 21
-1.4867477374
 31
0.0
  0
LINE
  5
FC
330
1F
100
AcDbEntity
  8
SK1
  6
Continuous
100
AcDbLine
 10
-11.9336668806
 20
-2.6938948701
 30
0.0
 11
3.1054907891
 21
-3.5034239393
 31
0.0
  0
ELLIPSE
  5
FD
330
1F
100
AcDbEntity
  8
SK1
  6
Continuous
100
AcDbEllipse
 10
49.9449074302
 20
-0.2771638613
 30
0.0
 11
-62.1999999479207
 21
1.817653064821375E-9
 31
0.0
210
0.0
220
0.0
230
1.0
 40
0.3826834325
 41
0.0792145810091286
 42
0.101706161085994
  0
LINE
  5
FE
330
1F
100
AcDbEntity
  8
SK3
100
AcDbLine
 10
-3.0352495133
 20
-0.3
 30
0.0
 11
-2.6536119989
 21
-0.3
 31
0.0
  0
ARC
  5
FF
330
1F
100
AcDbEntity
  8
SK3
100
AcDbCircle
 10
-2.6539182899
 20
0.0
 30
0.0
 40
0.3000001563569438
100
AcDbArc
 50
270.058497256
 51
89.941502744
  0
ARC
  5
100
330
1F
100
AcDbEntity
  8
SK1
  6
Continuous
100
AcDbCircle
 10
-3.0388489227
 20
0.0
 30
0.0
 40
0.3000215921374682
100
AcDbArc
 50
270.6874035924
 51
89.3125964076
  0
LINE
  5
101
330
1F
100
AcDbEntity
  8
SK3
100
AcDbLine
 10
-2.6536119989
 20
0.3
 30
0.0
 11
-3.0352495133
 21
0.3
 31
0.0
  0
SPLINE
  5
102
330
1F
100
AcDbEntity
  8
SK3
100
AcDbSpline
210
0.0
220
0.0
230
1.0
 70
     8
 71
     3
 72
     8
 73
     4
 74
     0
 42
0.0000001494659866
 43
0.0000000001
 12
1.0
 22
0.0
 32
0.0
 13
1.0
 23
0.0
 33
0.0
 40
0.0
 40
0.0
 40
0.0
 40
0.0
 40
1.0
 40
1.0
 40
1.0
 40
1.0
 10
-12.23883997051745
 20
-2.40304332072369
 30
0.0
 10
-12.23883997051745
 20
-2.425029069394809
 30
0.0
 10
-12.23588252626463
 20
-2.447337276352731
 30
0.0
 10
-12.23015554302001
 20
-2.469009053886652
 30
0.0
  0
LINE
  5
103
330
1F
100
AcDbEntity
  8
SK1
  6
Continuous
100
AcDbLine
 10
-11.9336668806
 20
2.6938948701
 30
0.0
 11
3.1054907891
 21
3.5034239393
 31
0.0
  0
LINE
  5
104
330
1F
100
AcDbEntity
  8
SK3
100
AcDbLine
 10
-12.1747301133
 20
1.4867477374
 30
0.0
 11
9.8611600295
 21
1.4867477374
 31
0.0
  0
ELLIPSE
  5
105
330
1F
100
AcDbEntity
  8
SK1
  6
Continuous
100
AcDbEllipse
 10
49.94490743
 20
0.2771638613
 30
0.0
 11
-62.19999994774389
 21
-1.749117347914583E-9
 31
0.0
210
0.0
220
0.0
230
1.0
 40
0.3826834325
 41
-0.1017061610857084
 42
-0.0791143842219553
  0
SPLINE
  5
106
330
1F
100
AcDbEntity
  8
SK1
  6
Continuous
100
AcDbSpline
210
0.0
220
0.0
230
1.0
 70
     8
 71
     3
 72
    35
 73
    31
 74
     0
 42
0.0000000108716644
 43
0.0000000001
 12
1.0
 22
0.0
 32
0.0
 13
1.0
 23
0.0
 33
0.0
 40
0.0
 40
0.0
 40
0.0
 40
0.0
 40
0.1109282350188697
 40
0.1109282350188697
 40
0.1109282350188697
 40
0.2219835961662447
 40
0.2219835961662447
 40
0.2219835961662447
 40
0.3310796898380918
 40
0.3310796898380918
 40
0.3310796898380918
 40
0.4376166855687228
 40
0.4376166855687228
 40
0.4376166855687228
 40
0.5001075690994052
 40
0.5001075690994052
 40
0.5001075690994052
 40
0.6046394905851171
 40
0.6046394905851171
 40
0.6046394905851171
 40
0.7091265106033473
 40
0.7091265106033473
 40
0.7091265106033473
 40
0.8143265814489673
 40
0.8143265814489673
 40
0.8143265814489673
 40
0.9214452333066556
 40
0.9214452333066556
 40
0.9214452333066556
 40
1.0
 40
1.0
 40
1.0
 40
1.0
 10
-11.93366688059335
 20
2.139567150555943
 30
0.0
 10
-11.96841187078081
 20
2.13769636565148
 30
0.0
 10
-12.00368066639486
 20
2.141416197721791
 30
0.0
 10
-12.03655900836135
 20
2.150508979411586
 30
0.0
 10
-12.06945920107769
 20
2.159607804109827
 30
0.0
 10
-12.10088233910679
 20
2.174357109039049
 30
0.0
 10
-12.12804487150399
 20
2.193570593494719
 30
0.0
 10
-12.15472988270375
 20
2.212446302150622
 30
0.0
 10
-12.17805429478966
 20
2.236172399194786
 30
0.0
 10
-12.1958917396975
 20
2.262714206982499
 30
0.0
 10
-12.21331754359579
 20
2.288643500107394
 30
0.0
 10
-12.2259964474333
 20
2.31798998949832
 30
0.0
 10
-12.23278015597218
 20
2.348234010032907
 30
0.0
 10
-12.23679777357492
 20
2.366145880594693
 30
0.0
 10
-12.23883997051745
 20
2.384605418127912
 30
0.0
 10
-12.23883997051745
 20
2.403043320723692
 30
0.0
 10
-12.23883997051745
 20
2.43360322156507
 30
0.0
 10
-12.23312600085271
 20
2.46478613224583
 30
0.0
 10
-12.22220268910552
 20
2.494016918974669
 30
0.0
 10
-12.21128197669848
 20
2.523240749868238
 30
0.0
 10
-12.19486137728742
 20
2.551314443841803
 30
0.0
 10
-12.17435787092654
 20
2.576018164506903
 30
0.0
 10
-12.15371135205492
 20
2.600894194290974
 30
0.0
 10
-12.12837691545802
 20
2.62302857305481
 30
0.0
 10
-12.10046888658082
 20
2.640778100882917
 30
0.0
 10
-12.07205362047969
 20
2.658850231975532
 30
0.0
 10
-12.04021818224291
 20
2.672867918653671
 30
0.0
 10
-12.00753918103356
 20
2.68186603751099
 30
0.0
 10
-11.98342098633401
 20
2.688506949855288
 30
0.0
 10
-11.95844645295533
 20
2.692560656132484
 30
0.0
 10
-11.93366688059335
 20
2.693894870062715
 30
0.0
  0
SPLINE
  5
107
330
1F
100
AcDbEntity
  8
SK3
100
AcDbSpline
210
0.0
220
0.0
230
1.0
 70
     8
 71
     3
 72
    35
 73
    31
 74
     0
 42
0.0000000109827959
 43
0.0000000001
 12
1.0
 22
0.0
 32
0.0
 13
1.0
 23
0.0
 33
0.0
 40
0.0
 40
0.0
 40
0.0
 40
0.0
 40
0.1070949102986531
 40
0.1070949102986531
 40
0.1070949102986531
 40
0.2141882979798437
 40
0.2141882979798437
 40
0.2141882979798437
 40
0.3213365682361147
 40
0.3213365682361147
 40
0.3213365682361147
 40
0.4287571737745772
 40
0.4287571737745772
 40
0.4287571737745772
 40
0.4999934115373499
 40
0.4999934115373499
 40
0.4999934115373499
 40
0.607405437518493
 40
0.607405437518493
 40
0.607405437518493
 40
0.7148124421652717
 40
0.7148124421652717
 40
0.7148124421652717
 40
0.8222862706757882
 40
0.8222862706757882
 40
0.8222862706757882
 40
0.9296510251613339
 40
0.9296510251613339
 40
0.9296510251613339
 40
1.0
 40
1.0
 40
1.0
 40
1.0
 10
-12.17473011329438
 20
1.48674773741714
 30
0.0
 10
-12.20819682776222
 20
1.48674773741714
 30
0.0
 10
-12.24212598199678
 20
1.481653111736174
 30
0.0
 10
-12.2737059739177
 20
1.471837220125986
 30
0.0
 10
-12.30528602339197
 20
1.462021310626702
 30
0.0
 10
-12.33538580255777
 20
1.447211655149904
 30
0.0
 10
-12.36152484371103
 20
1.428547421697642
 30
0.0
 10
-12.38767816928772
 20
1.409872988643488
 30
0.0
 10
-12.4105878258543
 20
1.3868226025276
 30
0.0
 10
-12.42838234621444
 20
1.361196143970615
 30
0.0
 10
-12.44622087865105
 20
1.335506302213041
 30
0.0
 10
-12.45941081660298
 20
1.306514559456645
 30
0.0
 10
-12.46686952339178
 20
1.276547719684625
 30
0.0
 10
-12.47185525880423
 20
1.256516534858521
 30
0.0
 10
-12.47439542159536
 20
1.235750170311544
 30
0.0
 10
-12.47439542159539
 20
1.215019897759604
 30
0.0
 10
-12.47439542159544
 20
1.184010118582999
 30
0.0
 10
-12.46862339331274
 20
1.152357993565244
 30
0.0
 10
-12.45755444364284
 20
1.12271815696291
 30
0.0
 10
-12.4464857973405
 20
1.093079132701853
 30
0.0
 10
-12.42981565440254
 20
1.064637490401467
 30
0.0
 10
-12.40891051506901
 20
1.039827219898848
 30
0.0
 10
-12.38799317155415
 20
1.015002465443971
 30
0.0
 10
-12.36225626751001
 20
0.993132357149717
 30
0.0
 10
-12.33381972971372
 20
0.9761312625602216
 30
0.0
 10
-12.3054126576162
 20
0.9591477843604378
 30
0.0
 10
-12.27352460971689
 20
0.9465594995780621
 30
0.0
 10
-12.24080497887089
 20
0.9394795553759456
 30
0.0
 10
-12.21919040784734
 20
0.9348025479390462
 30
0.0
 10
-12.19689231314617
 20
0.9324200179103677
 30
0.0
 10
-12.17473011329438
 20
0.9324200179103674
 30
0.0
  0
LINE
  5
108
330
1F
100
AcDbEntity
  8
SK3
100
AcDbLine
 10
-12.1747301133
 20
0.9324200179
 30
0.0
 11
9.8611600295
 21
0.9324200179
 31
0.0
  0
LINE
  5
109
330
1F
100
AcDbEntity
  8
SK1
  6
Continuous
100
AcDbLine
 10
-11.9336668806
 20
2.1395671506
 30
0.0
 11
3.1054907891
 21
2.9490962198
 31
0.0
  0
SPLINE
  5
10A
330
1F
100
AcDbEntity
  8
SK3
100
AcDbSpline
210
0.0
220
0.0
230
1.0
 70
     8
 71
     3
 72
    35
 73
    31
 74
     0
 42
0.0000000122907032
 43
0.0000000001
 12
1.0
 22
0.0
 32
0.0
 13
1.0
 23
0.0
 33
0.0
 40
0.0
 40
0.0
 40
0.0
 40
0.0
 40
0.1070949102986534
 40
0.1070949102986534
 40
0.1070949102986534
 40
0.2141882979798478
 40
0.2141882979798478
 40
0.2141882979798478
 40
0.3213365682361405
 40
0.3213365682361405
 40
0.3213365682361405
 40
0.4287571737745939
 40
0.4287571737745939
 40
0.4287571737745939
 40
0.499993411537349
 40
0.499993411537349
 40
0.499993411537349
 40
0.6074054375184923
 40
0.6074054375184923
 40
0.6074054375184923
 40
0.714812442165273
 40
0.714812442165273
 40
0.714812442165273
 40
0.8222862706757891
 40
0.8222862706757891
 40
0.8222862706757891
 40
0.9296510251613322
 40
0.9296510251613322
 40
0.9296510251613322
 40
1.0
 40
1.0
 40
1.0
 40
1.0
 10
-2.653611998864623
 20
2.022887540502391
 30
0.0
 10
-2.620145284396779
 20
2.022887540502391
 30
0.0
 10
-2.586216130162228
 20
2.027346322159227
 30
0.0
 10
-2.554636138241305
 20
2.035847284519062
 30
0.0
 10
-2.523056088767027
 20
2.044348262371583
 30
0.0
 10
-2.492956309601233
 20
2.057119167139861
 30
0.0
 10
-2.46681726844797
 20
2.072949172832945
 30
0.0
 10
-2.440663942871273
 20
2.088787829283451
 30
0.0
 10
-2.417754286304695
 20
2.10811503921306
 30
0.0
 10
-2.399959765944552
 20
2.129157131952251
 30
0.0
 10
-2.382121233507954
 20
2.150251269150953
 30
0.0
 10
-2.368931295556016
 20
2.173642867729848
 30
0.0
 10
-2.361472588767212
 20
2.197268004706653
 30
0.0
 10
-2.356486853354773
 20
2.213060109877723
 30
0.0
 10
-2.353946690563654
 20
2.229197766559046
 30
0.0
 10
-2.353946690563624
 20
2.245064030267125
 30
0.0
 10
-2.353946690563578
 20
2.268797887731501
 30
0.0
 10
-2.359718718846266
 20
2.292461965641804
 30
0.0
 10
-2.370787668516161
 20
2.31415664402745
 30
0.0
 10
-2.381856314818502
 20
2.335850727825379
 30
0.0
 10
-2.398526457756464
 20
2.356179528216108
 30
0.0
 10
-2.419431597089996
 20
2.37361914902067
 30
0.0
 10
-2.440348940604856
 20
2.391068950876465
 30
0.0
 10
-2.466085844648996
 20
2.406116673540044
 30
0.0
 10
-2.494522382445282
 20
2.417697494821197
 30
0.0
 10
-2.522929454542802
 20
2.429266316153771
 30
0.0
 10
-2.554817502442109
 20
2.437702385375311
 30
0.0
 10
-2.587537133288114
 20
2.442437978708125
 30
0.0
 10
-2.609151704311662
 20
2.445566309186928
 30
0.0
 10
-2.631449799012832
 20
2.44715160921432
 30
0.0
 10
-2.653611998864623
 20
2.44715160921432
 30
0.0
  0
SPLINE
  5
10B
330
1F
100
AcDbEntity
  8
SK1
  6
Continuous
100
AcDbSpline
210
0.0
220
0.0
230
1.0
 70
     8
 71
     3
 72
    35
 73
    31
 74
     0
 42
0.0000000123404959
 43
0.0000000001
 12
1.0
 22
0.0
 32
0.0
 13
1.0
 23
0.0
 33
0.0
 40
0.0
 40
0.0
 40
0.0
 40
0.0
 40
0.1074674443062806
 40
0.1074674443062806
 40
0.1074674443062806
 40
0.2149296990765917
 40
0.2149296990765917
 40
0.2149296990765917
 40
0.3224640795646004
 40
0.3224640795646004
 40
0.3224640795646004
 40
0.4299887656186115
 40
0.4299887656186115
 40
0.4299887656186115
 40
0.5000019061450258
 40
0.5000019061450258
 40
0.5000019061450258
 40
0.6073325417834998
 40
0.6073325417834998
 40
0.6073325417834998
 40
0.7146565393523522
 40
0.7146565393523522
 40
0.7146565393523522
 40
0.8220822952673292
 40
0.8220822952673292
 40
0.8220822952673292
 40
0.9296249163435369
 40
0.9296249163435369
 40
0.9296249163435369
 40
1.0
 40
1.0
 40
1.0
 40
1.0
 10
-3.035249513251289
 20
5.562802365292533
 30
0.0
 10
-3.001990067872158
 20
5.56611019830164
 30
0.0
 10
-2.968304710468349
 20
5.565526839103005
 30
0.0
 10
-2.936978340549155
 20
5.561077623148517
 30
0.0
 10
-2.905652879832456
 20
5.55662853632607
 30
0.0
 10
-2.875821642012617
 20
5.548189362595339
 30
0.0
 10
-2.849937139026035
 20
5.536394086023086
 30
0.0
 10
-2.824035823777102
 20
5.524591148292174
 30
0.0
 10
-2.801371024848752
 20
5.509098278409231
 30
0.0
 10
-2.783807177275988
 20
5.491120789172474
 30
0.0
 10
-2.766245317143868
 20
5.473145334182068
 30
0.0
 10
-2.753298325152369
 20
5.452185440065605
 30
0.0
 10
-2.746035705565696
 20
5.429925894466243
 30
0.0
 10
-2.741267806384577
 20
5.415312535199835
 30
0.0
 10
-2.738839970517458
 20
5.399929561599753
 30
0.0
 10
-2.738839970517458
 20
5.38433016340009
 30
0.0
 10
-2.738839970517458
 20
5.360610737722816
 30
0.0
 10
-2.744542627967804
 20
5.335832251829769
 30
0.0
 10
-2.755477161667275
 20
5.312072369028701
 30
0.0
 10
-2.766411313594979
 20
5.288313315787694
 30
0.0
 10
-2.782877645225797
 20
5.264920180098248
 30
0.0
 10
-2.803523154385774
 20
5.243887108398376
 30
0.0
 10
-2.824188097382245
 20
5.222834238045285
 30
0.0
 10
-2.849609783443432
 20
5.203568984868641
 30
0.0
 10
-2.877702028067464
 20
5.187755880233849
 30
0.0
 10
-2.905823792710652
 20
5.171926158801151
 30
0.0
 10
-2.937398756279773
 20
5.159122645012995
 30
0.0
 10
-2.969823310784042
 20
5.150461539546567
 30
0.0
 10
-2.991214774892676
 20
5.144747545027327
 30
0.0
 10
-3.013292088551143
 20
5.140722082070416
 30
0.0
 10
-3.035249513251289
 20
5.138538296580603
 30
0.0
  0
ELLIPSE
  5
10C
330
1F
100
AcDbEntity
  8
SK1
  6
Continuous
100
AcDbEllipse
 10
-64.7732495682
 20
0.2121320359
 30
0.0
 11
62.19999997384708
 21
-3.142976300643527E-9
 31
0.0
210
0.0
220
0.0
230
1.0
 40
0.7071067813
 41
0.1125188555347205
 42
0.1219579000573958
  0
LINE
  5
10D
330
1F
100
AcDbEntity
  8
SK1
  6
Continuous
100
AcDbLine
 10
3.1054907891
 20
8.4359598646
 30
0.0
 11
-2.7388399705
 21
7.6145927414
 31
0.0
  0
LINE
  5
10E
330
1F
100
AcDbEntity
  8
SK1
  6
Continuous
100
AcDbLine
 10
-2.7388399705
 20
-7.6145927414
 30
0.0
 11
3.1054907891
 21
-8.4359598646
 31
0.0
  0
LINE
  5
10F
330
1F
100
AcDbEntity
  8
SK3
100
AcDbLine
 10
-2.3539466906
 20
-3.175
 30
0.0
 11
9.8611600295
 21
-3.175
 31
0.0
  0
LINE
  5
110
330
1F
100
AcDbEntity
  8
SK3
100
AcDbLine
 10
9.8611600295
 20
3.175
 30
0.0
 11
-2.3539466906
 21
3.175
 31
0.0
  0
LINE
  5
111
330
1F
100
AcDbEntity
  8
SK1
  6
Continuous
100
AcDbLine
 10
6.2611600295
 20
-8.5
 30
0.0
 11
6.4776663804
 21
-8.5
 31
0.0
  0
ARC
  5
112
330
1F
100
AcDbEntity
  8
SK3
100
AcDbCircle
 10
9.8611600295
 20
-3.575
 30
0.0
 40
0.4000000000000002
100
AcDbArc
 50
0.0
 51
90.0
  0
ARC
  5
113
330
1F
100
AcDbEntity
  8
SK1
  6
Continuous
100
AcDbCircle
 10
3.1611600295
 20
-8.0398526371
 30
0.0
 40
0.400000000000001
100
AcDbArc
 50
262.0
 51
0.0
  0
ARC
  5
114
330
1F
100
AcDbEntity
  8
SK1
  6
Continuous
100
AcDbCircle
 10
10.0111600295
 20
-6.1712613559
 30
0.0
 40
0.2499999999999995
100
AcDbArc
 50
300.0
 51
0.0
  0
ARC
  5
115
330
1F
100
AcDbEntity
  8
SK1
  6
Continuous
100
AcDbCircle
 10
3.7611600295
 20
-7.1
 30
0.0
 40
0.2000000000000001
100
AcDbArc
 50
90.0
 51
180.0
  0
LINE
  5
116
330
1F
100
AcDbEntity
  8
SK1
  6
Continuous
100
AcDbLine
 10
3.7611600295
 20
-6.9
 30
0.0
 11
6.0611600295
 21
-6.9
 31
0.0
  0
ARC
  5
117
330
1F
100
AcDbEntity
  8
SK1
  6
Continuous
100
AcDbCircle
 10
6.0611600295
 20
-7.1
 30
0.0
 40
0.2000000000000003
100
AcDbArc
 50
0.0
 51
90.0
  0
LINE
  5
118
330
1F
100
AcDbEntity
  8
SK1
  6
Continuous
100
AcDbLine
 10
6.4776663804
 20
-8.5
 30
0.0
 11
10.1361600295
 21
-6.3877677069
 31
0.0
  0
LINE
  5
119
330
1F
100
AcDbEntity
  8
SK1
  6
Continuous
100
AcDbLine
 10
6.4776663804
 20
8.5
 30
0.0
 11
6.2611600295
 21
8.5
 31
0.0
  0
ARC
  5
11A
330
1F
100
AcDbEntity
  8
SK3
100
AcDbCircle
 10
9.8611600295
 20
3.575
 30
0.0
 40
0.3999999999999993
100
AcDbArc
 50
270.0
 51
0.0
  0
ARC
  5
11B
330
1F
100
AcDbEntity
  8
SK1
  6
Continuous
100
AcDbCircle
 10
3.1611600295
 20
8.0398526371
 30
0.0
 40
0.4000000000000006
100
AcDbArc
 50
0.0
 51
98.0
  0
ARC
  5
11C
330
1F
100
AcDbEntity
  8
SK1
  6
Continuous
100
AcDbCircle
 10
10.0111600295
 20
6.1712613559
 30
0.0
 40
0.2499999999999994
100
AcDbArc
 50
0.0
 51
60.0
  0
ARC
  5
11D
330
1F
100
AcDbEntity
  8
SK1
  6
Continuous
100
AcDbCircle
 10
3.7611600295
 20
7.1
 30
0.0
 40
0.2000000000000003
100
AcDbArc
 50
180.0
 51
270.0
  0
LINE
  5
11E
330
1F
100
AcDbEntity
  8
SK1
  6
Continuous
100
AcDbLine
 10
6.0611600295
 20
6.9
 30
0.0
 11
3.7611600295
 21
6.9
 31
0.0
  0
ARC
  5
11F
330
1F
100
AcDbEntity
  8
SK1
  6
Continuous
100
AcDbCircle
 10
6.0611600295
 20
7.1
 30
0.0
 40
0.1999999999999971
100
AcDbArc
 50
270.0
 51
360.0
  0
LINE
  5
120
330
1F
100
AcDbEntity
  8
SK1
  6
Continuous
100
AcDbLine
 10
10.1361600295
 20
6.3877677069
 30
0.0
 11
6.4776663804
 21
8.5
 31
0.0
  0
ARC
  5
121
330
1F
100
AcDbEntity
  8
SK3
100
AcDbCircle
 10
40.2735468775
 20
0.0452045699
 30
0.0
 40
52.82689605202266
100
AcDbArc
 50
173.7388207667
 51
176.8634185845
  0
ARC
  5
122
330
1F
100
AcDbEntity
  8
SK3
100
AcDbCircle
 10
-64.7732495944
 20
0.0
 30
0.0
 40
62.50000000000001
100
AcDbArc
 50
353.002075969
 51
357.0881131241
  0
ARC
  5
123
330
1F
100
AcDbEntity
  8
SK3
100
AcDbCircle
 10
-64.7732495944
 20
0.0
 30
0.0
 40
62.50000000000001
100
AcDbArc
 50
2.9118633768
 51
6.9979052529
  0
ARC
  5
124
330
1F
100
AcDbEntity
  8
SK3
100
AcDbCircle
 10
40.0998046979
 20
-0.056871978
 30
0.0
 40
52.65280517219867
100
AcDbArc
 50
183.1342362226
 51
186.269021148
  0
ARC
  5
125
330
1F
100
AcDbEntity
  8
SK3
100
AcDbCircle
 10
-33.8800632145
 20
0.0074727668
 30
0.0
 40
31.60663862850138
100
AcDbArc
 50
350.131446879
 51
355.8937533318
  0
ARC
  5
126
330
1F
100
AcDbEntity
  8
SK3
100
AcDbCircle
 10
-2.8282888108
 20
0.0322229919
 30
0.0
 40
9.728485352734625
100
AcDbArc
 50
187.5654695431
 51
194.897064015
  0
ARC
  5
127
330
1F
100
AcDbEntity
  8
SK3
100
AcDbCircle
 10
-2.8009307592
 20
-0.0363691258
 30
0.0
 40
9.756117363533871
100
AcDbArc
 50
165.1200962622
 51
172.4313557358
  0
ARC
  5
128
330
1F
100
AcDbEntity
  8
SK3
100
AcDbCircle
 10
-33.8949328803
 20
-0.0114006872
 30
0.0
 40
31.62186239526138
100
AcDbArc
 50
4.1113667762
 51
9.8711111678
  0
LINE
  5
129
330
1F
100
AcDbEntity
  8
SK1
  6
Continuous
100
AcDbLine
 10
0.0
 20
7.9995115969
 30
0.0
 11
0.0
 21
-7.9995115969
 31
0.0
  0
LINE
  5
12B
330
1F
100
AcDbEntity
  8
SK4
  6
Continuous
100
AcDbLine
 10
10.2611600295
 20
0.0
 30
0.0
 11
-17.2388399705
 21
0.0
 31
0.0
  0
DIMENSION
  5
141
330
1F
100
AcDbEntity
  8
SK2
  6
Continuous
 62
   136
100
AcDbDimension
  2
DMBLK95
 10
10.2611600295
 20
14.4688035698
 30
0.0
 11
-3.488840045
 21
14.4688035698
 31
0.0
 70
   160
  1
\A1;<>
 71
     5
 42
-1.0
  3
DIN
100
AcDbAlignedDimension
 13
-17.2388399705
 23
5.3945579902
 33
0.0
 14
10.2611600295
 24
5.5799562379
 34
0.0
100
AcDbRotatedDimension
  0
DIMENSION
  5
14B
330
1F
100
AcDbEntity
  8
SK2
  6
Continuous
 62
   136
100
AcDbDimension
  2
DMBLK96
 10
20.9051649615
 20
-3.175
 30
0.0
 11
20.9051649615
 21
6.8249997765
 31
0.0
 70
   161
  1
\A1;ø <>
 71
     5
 42
-1.0
  3
DIN
100
AcDbAlignedDimension
 13
9.8611600295
 23
-3.175
 33
0.0
 14
9.8611600295
 24
3.175
 34
0.0
  0
DIMENSION
  5
156
330
1F
100
AcDbEntity
  8
SK2
  6
Continuous
 62
   136
100
AcDbDimension
  2
DMBLK97
 10
10.2611600295
 20
-15.7572270122
 30
0.0
 11
5.1305801608
 21
-15.7572270122
 31
0.0
 70
   160
  1
\A1;<>
 71
     5
 42
-1.0
  3
DIN
100
AcDbAlignedDimension
 13
0.0
 23
-7.9995115969
 33
0.0
 14
10.2611600295
 24
-4.1079837246
 34
0.0
100
AcDbRotatedDimension
  0
DIMENSION
  5
160
330
1F
100
AcDbEntity
  8
SK2
  6
Continuous
 62
   136
100
AcDbDimension
  2
DMBLK98
 10
-22.5144978613
 20
7.9995115969
 30
0.0
 11
-22.5144978613
 21
0.0000001613
 31
0.0
 70
   161
  1
\A1;ø <>
 71
     5
 42
-1.0
  3
DIN
100
AcDbAlignedDimension
 13
0.0
 23
7.9995115969
 33
0.0
 14
0.0
 24
-7.9995115969
 34
0.0
  0
INSERT
  5
175
330
1F
100
AcDbEntity
  8
SK2
 62
     7
100
AcDbBlockReference
  2
Nullpunkt
 10
0.0
 20
0.0000000998
 30
0.0
  0
INSERT
  5
180
330
1F
100
AcDbEntity
  8
SK2
 62
     7
100
AcDbBlockReference
  2
Einfügepunkt
 10
10.2611600295
 20
0.0
 30
0.0
  0
ENDSEC
  0
SECTION
  2
OBJECTS
  0
DICTIONARY
  5
C
330
0
100
AcDbDictionary
281
     1
  3
ACAD_GROUP
350
D
  3
ACAD_LAYOUT
350
1A
  3
ACAD_MATERIAL
350
3B
  3
ACAD_MLEADERSTYLE
350
183
  3
ACAD_MLINESTYLE
350
17
  3
ACAD_PLOTSETTINGS
350
19
  3
ACAD_PLOTSTYLENAME
350
E
  3
ACAD_VISUALSTYLE
350
2A
  3
AcDbVariableDictionary
350
181
  0
DICTIONARY
  5
D
102
{ACAD_REACTORS
330
C
102
}
330
C
100
AcDbDictionary
281
     1
  0
DICTIONARY
  5
1A
102
{ACAD_REACTORS
330
C
102
}
330
C
100
AcDbDictionary
281
     1
  3
Layout1
350
1E
  3
Model
350
22
  0
DICTIONARY
  5
3B
102
{ACAD_REACTORS
330
C
102
}
330
C
100
AcDbDictionary
281
     1
  3
ByBlock
350
3D
  3
ByLayer
350
3C
  3
Global
350
3E
  0
DICTIONARY
  5
183
102
{ACAD_REACTORS
330
C
102
}
330
C
100
AcDbDictionary
281
     1
  0
DICTIONARY
  5
17
102
{ACAD_REACTORS
330
C
102
}
330
C
100
AcDbDictionary
281
     1
  3
Standard
350
18
  0
DICTIONARY
  5
19
102
{ACAD_REACTORS
330
C
102
}
330
C
100
AcDbDictionary
281
     1
  0
ACDBDICTIONARYWDFLT
  5
E
102
{ACAD_REACTORS
330
C
102
}
330
C
100
AcDbDictionary
281
     1
  3
Normal
350
F
100
AcDbDictionaryWithDefault
340
F
  0
DICTIONARY
  5
2A
102
{ACAD_REACTORS
330
C
102
}
330
C
100
AcDbDictionary
281
     1
  3
2dWireframe
350
2F
  3
3D Hidden
350
31
  3
3dWireframe
350
30
  3
Basic
350
32
  3
Brighten
350
36
  3
ColorChange
350
3A
  3
Conceptual
350
34
  3
Dim
350
35
  3
Facepattern
350
39
  3
Flat
350
2B
  3
FlatWithEdges
350
2C
  3
Gouraud
350
2D
  3
GouraudWithEdges
350
2E
  3
Linepattern
350
38
  3
Realistic
350
33
  3
Thicken
350
37
  0
DICTIONARY
  5
181
102
{ACAD_REACTORS
330
C
102
}
330
C
100
AcDbDictionary
281
     1
  3
DIMASSOC
350
186
  3
HIDETEXT
350
187
  3
PSOLHEIGHT
350
185
  3
PSOLWIDTH
350
184
  0
LAYOUT
  5
1E
102
{ACAD_REACTORS
330
1A
102
}
330
1A
100
AcDbPlotSettings
  1

  2
none_device
  4

  6

 40
0.0
 41
0.0
 42
0.0
 43
0.0
 44
0.0
 45
0.0
 46
0.0
 47
0.0
 48
0.0
 49
0.0
140
0.0
141
0.0
142
1.0
143
1.0
 70
   688
 72
     0
 73
     0
 74
     5
  7

 75
    16
147
1.0
148
0.0
149
0.0
100
AcDbLayout
  1
Layout1
 70
     1
 71
     1
 10
0.0
 20
0.0
 11
210.0
 21
297.0
 12
0.0
 22
0.0
 32
0.0
 14
0.0
 24
0.0
 34
0.0
 15
210.0
 25
297.0
 35
0.0
146
0.0
 13
0.0
 23
0.0
 33
0.0
 16
1.0
 26
0.0
 36
0.0
 17
0.0
 27
1.0
 37
0.0
 76
     0
330
1B
  0
LAYOUT
  5
22
102
{ACAD_REACTORS
330
1A
102
}
330
1A
100
AcDbPlotSettings
  1

  2
none_device
  4

  6

 40
0.0
 41
0.0
 42
0.0
 43
0.0
 44
0.0
 45
0.0
 46
0.0
 47
0.0
 48
0.0
 49
0.0
140
0.0
141
0.0
142
1.0
143
1.0
 70
  1712
 72
     0
 73
     0
 74
     0
  7

 75
     0
147
1.0
148
0.0
149
0.0
100
AcDbLayout
  1
Model
 70
     1
 71
     0
 10
0.0
 20
0.0
 11
210.0
 21
297.0
 12
0.0
 22
0.0
 32
0.0
 14
0.0
 24
0.0
 34
0.0
 15
210.0
 25
297.0
 35
0.0
146
0.0
 13
0.0
 23
0.0
 33
0.0
 16
1.0
 26
0.0
 36
0.0
 17
0.0
 27
1.0
 37
0.0
 76
     0
330
1F
331
29
  0
MATERIAL
  5
3D
102
{ACAD_REACTORS
330
3B
102
}
102
{ACAD_XDICTIONARY
360
1AA
102
}
330
3B
100
AcDbMaterial
  1
ByBlock
  0
MATERIAL
  5
3C
102
{ACAD_REACTORS
330
3B
102
}
102
{ACAD_XDICTIONARY
360
1A8
102
}
330
3B
100
AcDbMaterial
  1
ByLayer
  0
MATERIAL
  5
3E
102
{ACAD_REACTORS
330
3B
102
}
102
{ACAD_XDICTIONARY
360
1AC
102
}
330
3B
100
AcDbMaterial
  1
Global
  0
MLINESTYLE
  5
18
102
{ACAD_REACTORS
330
17
102
}
330
17
100
AcDbMlineStyle
  2
Standard
 70
     0
  3

 62
   256
 51
90.0
 52
90.0
 71
     2
 49
0.5
 62
   256
  6
BYLAYER
 49
-0.5
 62
   256
  6
BYLAYER
  0
ACDBPLACEHOLDER
  5
F
102
{ACAD_REACTORS
330
E
102
}
330
E
  0
VISUALSTYLE
  5
2F
102
{ACAD_REACTORS
330
2A
102
}
102
{ACAD_XDICTIONARY
360
190
102
}
330
2A
100
AcDbVisualStyle
  2
2dWireframe
 70
     4
 71
     0
 72
     2
 73
     0
 90
        0
 40
-0.6
 41
-30.0
 62
     5
 63
     7
 74
     1
 91
        4
 64
     7
 65
   257
 75
     1
175
     1
 42
1.0
 92
        0
 66
   257
 43
1.0
 76
     1
 77
     6
 78
     2
 67
     7
 79
     5
170
     0
171
     0
290
     0
174
     0
 93
        1
 44
0.0
173
     0
291
     0
 45
0.0
1001
ACAD
1000
AcDbSavedByObjectVersion
1070
     0
  0
VISUALSTYLE
  5
31
102
{ACAD_REACTORS
330
2A
102
}
102
{ACAD_XDICTIONARY
360
194
102
}
330
2A
100
AcDbVisualStyle
  2
3D Hidden
 70
     6
 71
     1
 72
     2
 73
     2
 90
        0
 40
-0.6
 41
-30.0
 62
     5
 63
     7
 74
     2
 91
        2
 64
     7
 65
   257
 75
     2
175
     1
 42
40.0
 92
        0
 66
   257
 43
1.0
 76
     1
 77
     6
 78
     2
 67
     7
 79
     3
170
     0
171
     0
290
     0
174
     0
 93
        1
 44
0.0
173
     0
291
     0
 45
0.0
1001
ACAD
1000
AcDbSavedByObjectVersion
1070
     0
  0
VISUALSTYLE
  5
30
102
{ACAD_REACTORS
330
2A
102
}
102
{ACAD_XDICTIONARY
360
192
102
}
330
2A
100
AcDbVisualStyle
  2
3dWireframe
 70
     5
 71
     0
 72
     2
 73
     0
 90
        0
 40
-0.6
 41
-30.0
 62
     5
 63
     7
 74
     1
 91
        4
 64
     7
 65
   257
 75
     1
175
     1
 42
1.0
 92
        0
 66
   257
 43
1.0
 76
     1
 77
     6
 78
     2
 67
     7
 79
     5
170
     0
171
     0
290
     0
174
     0
 93
        1
 44
0.0
173
     0
291
     0
 45
0.0
1001
ACAD
1000
AcDbSavedByObjectVersion
1070
     0
  0
VISUALSTYLE
  5
32
102
{ACAD_REACTORS
330
2A
102
}
102
{ACAD_XDICTIONARY
360
196
102
}
330
2A
100
AcDbVisualStyle
  2
Basic
 70
     7
 71
     1
 72
     0
 73
     1
 90
        0
 40
-0.6
 41
-30.0
 62
     5
 63
     7
 74
     0
 91
        4
 64
     7
 65
   257
 75
     1
175
     1
 42
1.0
 92
        8
 66
     7
 43
1.0
 76
     1
 77
     6
 78
     2
 67
     7
 79
     5
170
     0
171
     0
290
     0
174
     0
 93
        1
 44
0.0
173
     0
291
     1
 45
0.0
1001
ACAD
1000
AcDbSavedByObjectVersion
1070
     0
  0
VISUALSTYLE
  5
36
102
{ACAD_REACTORS
330
2A
102
}
102
{ACAD_XDICTIONARY
360
19E
102
}
330
2A
100
AcDbVisualStyle
  2
Brighten
 70
    12
 71
     2
 72
     2
 73
     0
 90
        0
 40
-0.6
 41
-30.0
 62
     5
 63
     7
 74
     1
 91
        4
 64
     7
 65
   257
 75
     1
175
     1
 42
1.0
 92
        8
 66
     7
 43
1.0
 76
     1
 77
     6
 78
     2
 67
     7
 79
     5
170
     0
171
     0
290
     0
174
     0
 93
        1
 44
50.0
173
     0
291
     1
 45
0.0
1001
ACAD
1000
AcDbSavedByObjectVersion
1070
     0
  0
VISUALSTYLE
  5
3A
102
{ACAD_REACTORS
330
2A
102
}
102
{ACAD_XDICTIONARY
360
1A6
102
}
330
2A
100
AcDbVisualStyle
  2
ColorChange
 70
    16
 71
     2
 72
     2
 73
     3
 90
        0
 40
-0.6
 41
-30.0
 62
     5
 63
     8
 74
     1
 91
        4
 64
     7
 65
   257
 75
     1
175
     1
 42
1.0
 92
        8
 66
     8
 43
1.0
 76
     1
 77
     6
 78
     2
 67
     7
 79
     5
170
     0
171
     0
290
     0
174
     0
 93
        1
 44
0.0
173
     0
291
     1
 45
0.0
1001
ACAD
1000
AcDbSavedByObjectVersion
1070
     0
  0
VISUALSTYLE
  5
34
102
{ACAD_REACTORS
330
2A
102
}
102
{ACAD_XDICTIONARY
360
19A
102
}
330
2A
100
AcDbVisualStyle
  2
Conceptual
 70
     9
 71
     3
 72
     2
 73
     0
 90
        0
 40
-0.6
 41
-30.0
 62
     5
 63
     7
 74
     2
 91
        2
 64
     7
 65
   257
 75
     1
175
     1
 42
40.0
 92
        8
 66
     7
 43
1.0
 76
     1
 77
     6
 78
     2
 67
     7
 79
     3
170
     0
171
     0
290
     0
174
     0
 93
        1
 44
0.0
173
     0
291
     0
 45
0.0
1001
ACAD
1000
AcDbSavedByObjectVersion
1070
     0
  0
VISUALSTYLE
  5
35
102
{ACAD_REACTORS
330
2A
102
}
102
{ACAD_XDICTIONARY
360
19C
102
}
330
2A
100
AcDbVisualStyle
  2
Dim
 70
    11
 71
     2
 72
     2
 73
     0
 90
        0
 40
-0.6
 41
-30.0
 62
     5
 63
     7
 74
     1
 91
        4
 64
     7
 65
   257
 75
     1
175
     1
 42
1.0
 92
        8
 66
     7
 43
1.0
 76
     1
 77
     6
 78
     2
 67
     7
 79
     5
170
     0
171
     0
290
     0
174
     0
 93
        1
 44
-50.0
173
     0
291
     1
 45
0.0
1001
ACAD
1000
AcDbSavedByObjectVersion
1070
     0
  0
VISUALSTYLE
  5
39
102
{ACAD_REACTORS
330
2A
102
}
102
{ACAD_XDICTIONARY
360
1A4
102
}
330
2A
100
AcDbVisualStyle
  2
Facepattern
 70
    15
 71
     2
 72
     2
 73
     0
 90
        0
 40
-0.6
 41
-30.0
 62
     5
 63
     7
 74
     1
 91
        4
 64
     7
 65
   257
 75
     1
175
     1
 42
1.0
 92
        8
 66
     7
 43
1.0
 76
     1
 77
     6
 78
     2
 67
     7
 79
     5
170
     0
171
     0
290
     0
174
     0
 93
        1
 44
0.0
173
     0
291
     1
 45
0.0
1001
ACAD
1000
AcDbSavedByObjectVersion
1070
     0
  0
VISUALSTYLE
  5
2B
102
{ACAD_REACTORS
330
2A
102
}
102
{ACAD_XDICTIONARY
360
188
102
}
330
2A
100
AcDbVisualStyle
  2
Flat
 70
     0
 71
     2
 72
     1
 73
     1
 90
        2
 40
-0.6
 41
30.0
 62
     5
 63
     7
 74
     0
 91
        4
 64
     7
 65
   257
 75
     1
175
     1
 42
1.0
 92
        8
 66
     7
 43
1.0
 76
     1
 77
     6
 78
     2
 67
     7
 79
     5
170
     0
171
     0
290
     0
174
     0
 93
       13
 44
0.0
173
     0
291
     1
 45
0.0
1001
ACAD
1000
AcDbSavedByObjectVersion
1070
     0
  0
VISUALSTYLE
  5
2C
102
{ACAD_REACTORS
330
2A
102
}
102
{ACAD_XDICTIONARY
360
18A
102
}
330
2A
100
AcDbVisualStyle
  2
FlatWithEdges
 70
     1
 71
     2
 72
     1
 73
     1
 90
        2
 40
-0.6
 41
30.0
 62
     5
 63
     7
 74
     1
 91
        4
 64
     7
 65
   257
 75
     1
175
     1
 42
1.0
 92
        0
 66
   257
 43
1.0
 76
     1
 77
     6
 78
     2
 67
     7
 79
     5
170
     0
171
     0
290
     0
174
     0
 93
       13
 44
0.0
173
     0
291
     1
 45
0.0
1001
ACAD
1000
AcDbSavedByObjectVersion
1070
     0
  0
VISUALSTYLE
  5
2D
102
{ACAD_REACTORS
330
2A
102
}
102
{ACAD_XDICTIONARY
360
18C
102
}
330
2A
100
AcDbVisualStyle
  2
Gouraud
 70
     2
 71
     2
 72
     2
 73
     1
 90
        2
 40
-0.6
 41
30.0
 62
     5
 63
     7
 74
     0
 91
        4
 64
     7
 65
   257
 75
     1
175
     1
 42
1.0
 92
        0
 66
     7
 43
1.0
 76
     1
 77
     6
 78
     2
 67
     7
 79
     5
170
     0
171
     0
290
     0
174
     0
 93
       13
 44
0.0
173
     0
291
     1
 45
0.0
1001
ACAD
1000
AcDbSavedByObjectVersion
1070
     0
  0
VISUALSTYLE
  5
2E
102
{ACAD_REACTORS
330
2A
102
}
102
{ACAD_XDICTIONARY
360
18E
102
}
330
2A
100
AcDbVisualStyle
  2
GouraudWithEdges
 70
     3
 71
     2
 72
     2
 73
     1
 90
        2
 40
-0.6
 41
30.0
 62
     5
 63
     7
 74
     1
 91
        4
 64
     7
 65
   257
 75
     1
175
     1
 42
1.0
 92
        0
 66
   257
 43
1.0
 76
     1
 77
     6
 78
     2
 67
     7
 79
     5
170
     0
171
     0
290
     0
174
     0
 93
       13
 44
0.0
173
     0
291
     1
 45
0.0
1001
ACAD
1000
AcDbSavedByObjectVersion
1070
     0
  0
VISUALSTYLE
  5
38
102
{ACAD_REACTORS
330
2A
102
}
102
{ACAD_XDICTIONARY
360
1A2
102
}
330
2A
100
AcDbVisualStyle
  2
Linepattern
 70
    14
 71
     2
 72
     2
 73
     0
 90
        0
 40
-0.6
 41
-30.0
 62
     5
 63
     7
 74
     1
 91
        4
 64
     7
 65
   257
 75
     7
175
     7
 42
1.0
 92
        8
 66
     7
 43
1.0
 76
     1
 77
     6
 78
     2
 67
     7
 79
     5
170
     0
171
     0
290
     0
174
     0
 93
        1
 44
0.0
173
     0
291
     1
 45
0.0
1001
ACAD
1000
AcDbSavedByObjectVersion
1070
     0
  0
VISUALSTYLE
  5
33
102
{ACAD_REACTORS
330
2A
102
}
102
{ACAD_XDICTIONARY
360
198
102
}
330
2A
100
AcDbVisualStyle
  2
Realistic
 70
     8
 71
     2
 72
     2
 73
     0
 90
        0
 40
-0.6
 41
-30.0
 62
     5
 63
     7
 74
     1
 91
        0
 64
     7
 65
   257
 75
     1
175
     1
 42
1.0
 92
        8
 66
     8
 43
1.0
 76
     1
 77
     6
 78
     2
 67
     7
 79
     5
170
     0
171
     0
290
     0
174
     0
 93
       13
 44
0.0
173
     0
291
     0
 45
0.0
1001
ACAD
1000
AcDbSavedByObjectVersion
1070
     0
  0
VISUALSTYLE
  5
37
102
{ACAD_REACTORS
330
2A
102
}
102
{ACAD_XDICTIONARY
360
1A0
102
}
330
2A
100
AcDbVisualStyle
  2
Thicken
 70
    13
 71
     2
 72
     2
 73
     0
 90
        0
 40
-0.6
 41
-30.0
 62
     5
 63
     7
 74
     1
 91
        4
 64
     7
 65
   257
 75
     1
175
     1
 42
1.0
 92
       12
 66
     7
 43
1.0
 76
     1
 77
     6
 78
     2
 67
     7
 79
     5
170
     0
171
     0
290
     0
174
     0
 93
        1
 44
0.0
173
     0
291
     1
 45
0.0
1001
ACAD
1000
AcDbSavedByObjectVersion
1070
     0
  0
DICTIONARYVAR
  5
186
102
{ACAD_REACTORS
330
181
102
}
330
181
100
DictionaryVariables
280
     0
  1
2
  0
DICTIONARYVAR
  5
187
102
{ACAD_REACTORS
330
181
102
}
330
181
100
DictionaryVariables
280
     0
  1
1
  0
DICTIONARYVAR
  5
185
102
{ACAD_REACTORS
330
181
102
}
330
181
100
DictionaryVariables
280
     0
  1
80.000000
  0
DICTIONARYVAR
  5
184
102
{ACAD_REACTORS
330
181
102
}
330
181
100
DictionaryVariables
280
     0
  1
5.000000
  0
DICTIONARY
  5
1AA
330
3D
100
AcDbDictionary
280
     1
281
     1
  3
ACAD_XREC_ROUNDTRIP
360
1AB
  0
DICTIONARY
  5
1A8
330
3C
100
AcDbDictionary
280
     1
281
     1
  3
ACAD_XREC_ROUNDTRIP
360
1A9
  0
DICTIONARY
  5
1AC
330
3E
100
AcDbDictionary
280
     1
281
     1
  3
ACAD_XREC_ROUNDTRIP
360
1AD
  0
DICTIONARY
  5
190
330
2F
100
AcDbDictionary
280
     1
281
     1
  3
ACAD_XREC_ROUNDTRIP
360
191
  0
DICTIONARY
  5
194
330
31
100
AcDbDictionary
280
     1
281
     1
  3
ACAD_XREC_ROUNDTRIP
360
195
  0
DICTIONARY
  5
192
330
30
100
AcDbDictionary
280
     1
281
     1
  3
ACAD_XREC_ROUNDTRIP
360
193
  0
DICTIONARY
  5
196
330
32
100
AcDbDictionary
280
     1
281
     1
  3
ACAD_XREC_ROUNDTRIP
360
197
  0
DICTIONARY
  5
19E
330
36
100
AcDbDictionary
280
     1
281
     1
  3
ACAD_XREC_ROUNDTRIP
360
19F
  0
DICTIONARY
  5
1A6
330
3A
100
AcDbDictionary
280
     1
281
     1
  3
ACAD_XREC_ROUNDTRIP
360
1A7
  0
DICTIONARY
  5
19A
330
34
100
AcDbDictionary
280
     1
281
     1
  3
ACAD_XREC_ROUNDTRIP
360
19B
  0
DICTIONARY
  5
19C
330
35
100
AcDbDictionary
280
     1
281
     1
  3
ACAD_XREC_ROUNDTRIP
360
19D
  0
DICTIONARY
  5
1A4
330
39
100
AcDbDictionary
280
     1
281
     1
  3
ACAD_XREC_ROUNDTRIP
360
1A5
  0
DICTIONARY
  5
188
330
2B
100
AcDbDictionary
280
     1
281
     1
  3
ACAD_XREC_ROUNDTRIP
360
189
  0
DICTIONARY
  5
18A
330
2C
100
AcDbDictionary
280
     1
281
     1
  3
ACAD_XREC_ROUNDTRIP
360
18B
  0
DICTIONARY
  5
18C
330
2D
100
AcDbDictionary
280
     1
281
     1
  3
ACAD_XREC_ROUNDTRIP
360
18D
  0
DICTIONARY
  5
18E
330
2E
100
AcDbDictionary
280
     1
281
     1
  3
ACAD_XREC_ROUNDTRIP
360
18F
  0
DICTIONARY
  5
1A2
330
38
100
AcDbDictionary
280
     1
281
     1
  3
ACAD_XREC_ROUNDTRIP
360
1A3
  0
DICTIONARY
  5
198
330
33
100
AcDbDictionary
280
     1
281
     1
  3
ACAD_XREC_ROUNDTRIP
360
199
  0
DICTIONARY
  5
1A0
330
37
100
AcDbDictionary
280
     1
281
     1
  3
ACAD_XREC_ROUNDTRIP
360
1A1
  0
XRECORD
  5
1AB
102
{ACAD_REACTORS
330
1AA
102
}
330
1AA
100
AcDbXrecord
280
     1
102
MATERIAL
148
0.0
149
0.0
149
0.0
 93
        0
 94
      127
282
     0
 72
     1
 77
     1
171
     1
175
     1
179
     1
273
     0
  0
XRECORD
  5
1A9
102
{ACAD_REACTORS
330
1A8
102
}
330
1A8
100
AcDbXrecord
280
     1
102
MATERIAL
148
0.0
149
0.0
149
0.0
 93
        0
 94
      127
282
     0
 72
     1
 77
     1
171
     1
175
     1
179
     1
273
     0
  0
XRECORD
  5
1AD
102
{ACAD_REACTORS
330
1AC
102
}
330
1AC
100
AcDbXrecord
280
     1
102
MATERIAL
148
0.0
149
0.0
149
0.0
 93
        0
 94
      127
282
     0
 72
     1
 77
     1
171
     1
175
     1
179
     1
273
     0
  0
XRECORD
  5
191
102
{ACAD_REACTORS
330
190
102
}
330
190
100
AcDbXrecord
280
     1
102
RTVSPropertyOp0
 70
     1
102
RTVSPropertyOp1
 70
     1
102
RTVSPropertyOp2
 70
     1
102
RTVSPropertyOp3
 70
     1
102
RTVSPropertyOp4
 70
     1
102
RTVSPropertyOp5
 70
     1
102
RTVSPropertyOp6
 70
     1
102
RTVSPropertyOp7
 70
     1
102
RTVSPropertyOp8
 70
     1
102
RTVSPropertyOp9
 70
     1
102
RTVSPropertyOp10
 70
     1
102
RTVSPropertyOp11
 70
     1
102
RTVSPropertyOp12
 70
     1
102
RTVSPropertyOp13
 70
     1
102
RTVSPropertyOp14
 70
     1
102
RTVSPropertyOp15
 70
     1
102
RTVSPropertyOp16
 70
     1
102
RTVSPropertyOp17
 70
     1
102
RTVSPropertyOp18
 70
     1
102
RTVSPropertyOp19
 70
     1
102
RTVSPropertyOp20
 70
     1
102
RTVSPropertyOp21
 70
     1
102
RTVSPropertyOp22
 70
     1
102
RTVSPropertyOp23
 70
     1
102
RTVSPropertyOp24
 70
     1
102
RTVSPropertyOp25
 70
     1
102
RTVSPropertyOp26
 70
     1
102
RTVSPropertyOp27
 70
     1
102
RTVSPropertyOp28
 70
     1
102
RTVSPropertyOp29
 70
     1
102
RTVSPropertyOp30
 70
     1
102
RTVSPropertyOp31
 70
     1
102
RTVSPropertyOp32
 70
     1
  0
XRECORD
  5
195
102
{ACAD_REACTORS
330
194
102
}
330
194
100
AcDbXrecord
280
     1
102
RTVSPropertyOp0
 70
     1
102
RTVSPropertyOp1
 70
     1
102
RTVSPropertyOp2
 70
     1
102
RTVSPropertyOp3
 70
     1
102
RTVSPropertyOp4
 70
     1
102
RTVSPropertyOp5
 70
     1
102
RTVSPropertyOp6
 70
     1
102
RTVSPropertyOp7
 70
     1
102
RTVSPropertyOp8
 70
     1
102
RTVSPropertyOp9
 70
     1
102
RTVSPropertyOp10
 70
     1
102
RTVSPropertyOp11
 70
     1
102
RTVSPropertyOp12
 70
     1
102
RTVSPropertyOp13
 70
     1
102
RTVSPropertyOp14
 70
     1
102
RTVSPropertyOp15
 70
     1
102
RTVSPropertyOp16
 70
     1
102
RTVSPropertyOp17
 70
     1
102
RTVSPropertyOp18
 70
     1
102
RTVSPropertyOp19
 70
     1
102
RTVSPropertyOp20
 70
     1
102
RTVSPropertyOp21
 70
     1
102
RTVSPropertyOp22
 70
     1
102
RTVSPropertyOp23
 70
     1
102
RTVSPropertyOp24
 70
     1
102
RTVSPropertyOp25
 70
     1
102
RTVSPropertyOp26
 70
     1
102
RTVSPropertyOp27
 70
     1
102
RTVSPropertyOp28
 70
     1
102
RTVSPropertyOp29
 70
     1
102
RTVSPropertyOp30
 70
     1
102
RTVSPropertyOp31
 70
     1
102
RTVSPropertyOp32
 70
     1
  0
XRECORD
  5
193
102
{ACAD_REACTORS
330
192
102
}
330
192
100
AcDbXrecord
280
     1
102
RTVSPropertyOp0
 70
     1
102
RTVSPropertyOp1
 70
     1
102
RTVSPropertyOp2
 70
     1
102
RTVSPropertyOp3
 70
     1
102
RTVSPropertyOp4
 70
     1
102
RTVSPropertyOp5
 70
     1
102
RTVSPropertyOp6
 70
     1
102
RTVSPropertyOp7
 70
     1
102
RTVSPropertyOp8
 70
     1
102
RTVSPropertyOp9
 70
     1
102
RTVSPropertyOp10
 70
     1
102
RTVSPropertyOp11
 70
     1
102
RTVSPropertyOp12
 70
     1
102
RTVSPropertyOp13
 70
     1
102
RTVSPropertyOp14
 70
     1
102
RTVSPropertyOp15
 70
     1
102
RTVSPropertyOp16
 70
     1
102
RTVSPropertyOp17
 70
     1
102
RTVSPropertyOp18
 70
     1
102
RTVSPropertyOp19
 70
     1
102
RTVSPropertyOp20
 70
     1
102
RTVSPropertyOp21
 70
     1
102
RTVSPropertyOp22
 70
     1
102
RTVSPropertyOp23
 70
     1
102
RTVSPropertyOp24
 70
     1
102
RTVSPropertyOp25
 70
     1
102
RTVSPropertyOp26
 70
     1
102
RTVSPropertyOp27
 70
     1
102
RTVSPropertyOp28
 70
     1
102
RTVSPropertyOp29
 70
     1
102
RTVSPropertyOp30
 70
     1
102
RTVSPropertyOp31
 70
     1
102
RTVSPropertyOp32
 70
     1
  0
XRECORD
  5
197
102
{ACAD_REACTORS
330
196
102
}
330
196
100
AcDbXrecord
280
     1
102
RTVSPropertyOp0
 70
     1
102
RTVSPropertyOp1
 70
     1
102
RTVSPropertyOp2
 70
     1
102
RTVSPropertyOp3
 70
     1
102
RTVSPropertyOp4
 70
     1
102
RTVSPropertyOp5
 70
     1
102
RTVSPropertyOp6
 70
     1
102
RTVSPropertyOp7
 70
     1
102
RTVSPropertyOp8
 70
     1
102
RTVSPropertyOp9
 70
     1
102
RTVSPropertyOp10
 70
     1
102
RTVSPropertyOp11
 70
     1
102
RTVSPropertyOp12
 70
     1
102
RTVSPropertyOp13
 70
     1
102
RTVSPropertyOp14
 70
     1
102
RTVSPropertyOp15
 70
     1
102
RTVSPropertyOp16
 70
     1
102
RTVSPropertyOp17
 70
     1
102
RTVSPropertyOp18
 70
     1
102
RTVSPropertyOp19
 70
     1
102
RTVSPropertyOp20
 70
     1
102
RTVSPropertyOp21
 70
     1
102
RTVSPropertyOp22
 70
     1
102
RTVSPropertyOp23
 70
     1
102
RTVSPropertyOp24
 70
     1
102
RTVSPropertyOp25
 70
     1
102
RTVSPropertyOp26
 70
     1
102
RTVSPropertyOp27
 70
     1
102
RTVSPropertyOp28
 70
     1
102
RTVSPropertyOp29
 70
     1
102
RTVSPropertyOp30
 70
     1
102
RTVSPropertyOp31
 70
     1
102
RTVSPropertyOp32
 70
     1
  0
XRECORD
  5
19F
102
{ACAD_REACTORS
330
19E
102
}
330
19E
100
AcDbXrecord
280
     1
102
RTVSPropertyOp0
 70
     1
102
RTVSPropertyOp1
 70
     1
102
RTVSPropertyOp2
 70
     1
102
RTVSPropertyOp3
 70
     1
102
RTVSPropertyOp4
 70
     1
102
RTVSPropertyOp5
 70
     1
102
RTVSPropertyOp6
 70
     1
102
RTVSPropertyOp7
 70
     1
102
RTVSPropertyOp8
 70
     1
102
RTVSPropertyOp9
 70
     1
102
RTVSPropertyOp10
 70
     1
102
RTVSPropertyOp11
 70
     1
102
RTVSPropertyOp12
 70
     1
102
RTVSPropertyOp13
 70
     1
102
RTVSPropertyOp14
 70
     1
102
RTVSPropertyOp15
 70
     1
102
RTVSPropertyOp16
 70
     1
102
RTVSPropertyOp17
 70
     1
102
RTVSPropertyOp18
 70
     1
102
RTVSPropertyOp19
 70
     1
102
RTVSPropertyOp20
 70
     1
102
RTVSPropertyOp21
 70
     1
102
RTVSPropertyOp22
 70
     1
102
RTVSPropertyOp23
 70
     1
102
RTVSPropertyOp24
 70
     1
102
RTVSPropertyOp25
 70
     1
102
RTVSPropertyOp26
 70
     1
102
RTVSPropertyOp27
 70
     1
102
RTVSPropertyOp28
 70
     1
102
RTVSPropertyOp29
 70
     1
102
RTVSPropertyOp30
 70
     1
102
RTVSPropertyOp31
 70
     1
102
RTVSPropertyOp32
 70
     1
  0
XRECORD
  5
1A7
102
{ACAD_REACTORS
330
1A6
102
}
330
1A6
100
AcDbXrecord
280
     1
102
RTVSPropertyOp0
 70
     1
102
RTVSPropertyOp1
 70
     1
102
RTVSPropertyOp2
 70
     1
102
RTVSPropertyOp3
 70
     1
102
RTVSPropertyOp4
 70
     1
102
RTVSPropertyOp5
 70
     1
102
RTVSPropertyOp6
 70
     1
102
RTVSPropertyOp7
 70
     1
102
RTVSPropertyOp8
 70
     1
102
RTVSPropertyOp9
 70
     1
102
RTVSPropertyOp10
 70
     1
102
RTVSPropertyOp11
 70
     1
102
RTVSPropertyOp12
 70
     1
102
RTVSPropertyOp13
 70
     1
102
RTVSPropertyOp14
 70
     1
102
RTVSPropertyOp15
 70
     1
102
RTVSPropertyOp16
 70
     1
102
RTVSPropertyOp17
 70
     1
102
RTVSPropertyOp18
 70
     1
102
RTVSPropertyOp19
 70
     1
102
RTVSPropertyOp20
 70
     1
102
RTVSPropertyOp21
 70
     1
102
RTVSPropertyOp22
 70
     1
102
RTVSPropertyOp23
 70
     1
102
RTVSPropertyOp24
 70
     1
102
RTVSPropertyOp25
 70
     1
102
RTVSPropertyOp26
 70
     1
102
RTVSPropertyOp27
 70
     1
102
RTVSPropertyOp28
 70
     1
102
RTVSPropertyOp29
 70
     1
102
RTVSPropertyOp30
 70
     1
102
RTVSPropertyOp31
 70
     1
102
RTVSPropertyOp32
 70
     1
  0
XRECORD
  5
19B
102
{ACAD_REACTORS
330
19A
102
}
330
19A
100
AcDbXrecord
280
     1
102
RTVSPropertyOp0
 70
     1
102
RTVSPropertyOp1
 70
     1
102
RTVSPropertyOp2
 70
     1
102
RTVSPropertyOp3
 70
     1
102
RTVSPropertyOp4
 70
     1
102
RTVSPropertyOp5
 70
     1
102
RTVSPropertyOp6
 70
     1
102
RTVSPropertyOp7
 70
     1
102
RTVSPropertyOp8
 70
     1
102
RTVSPropertyOp9
 70
     1
102
RTVSPropertyOp10
 70
     1
102
RTVSPropertyOp11
 70
     1
102
RTVSPropertyOp12
 70
     1
102
RTVSPropertyOp13
 70
     1
102
RTVSPropertyOp14
 70
     1
102
RTVSPropertyOp15
 70
     1
102
RTVSPropertyOp16
 70
     1
102
RTVSPropertyOp17
 70
     1
102
RTVSPropertyOp18
 70
     1
102
RTVSPropertyOp19
 70
     1
102
RTVSPropertyOp20
 70
     1
102
RTVSPropertyOp21
 70
     1
102
RTVSPropertyOp22
 70
     1
102
RTVSPropertyOp23
 70
     1
102
RTVSPropertyOp24
 70
     1
102
RTVSPropertyOp25
 70
     1
102
RTVSPropertyOp26
 70
     1
102
RTVSPropertyOp27
 70
     1
102
RTVSPropertyOp28
 70
     1
102
RTVSPropertyOp29
 70
     1
102
RTVSPropertyOp30
 70
     1
102
RTVSPropertyOp31
 70
     1
102
RTVSPropertyOp32
 70
     1
  0
XRECORD
  5
19D
102
{ACAD_REACTORS
330
19C
102
}
330
19C
100
AcDbXrecord
280
     1
102
RTVSPropertyOp0
 70
     1
102
RTVSPropertyOp1
 70
     1
102
RTVSPropertyOp2
 70
     1
102
RTVSPropertyOp3
 70
     1
102
RTVSPropertyOp4
 70
     1
102
RTVSPropertyOp5
 70
     1
102
RTVSPropertyOp6
 70
     1
102
RTVSPropertyOp7
 70
     1
102
RTVSPropertyOp8
 70
     1
102
RTVSPropertyOp9
 70
     1
102
RTVSPropertyOp10
 70
     1
102
RTVSPropertyOp11
 70
     1
102
RTVSPropertyOp12
 70
     1
102
RTVSPropertyOp13
 70
     1
102
RTVSPropertyOp14
 70
     1
102
RTVSPropertyOp15
 70
     1
102
RTVSPropertyOp16
 70
     1
102
RTVSPropertyOp17
 70
     1
102
RTVSPropertyOp18
 70
     1
102
RTVSPropertyOp19
 70
     1
102
RTVSPropertyOp20
 70
     1
102
RTVSPropertyOp21
 70
     1
102
RTVSPropertyOp22
 70
     1
102
RTVSPropertyOp23
 70
     1
102
RTVSPropertyOp24
 70
     1
102
RTVSPropertyOp25
 70
     1
102
RTVSPropertyOp26
 70
     1
102
RTVSPropertyOp27
 70
     1
102
RTVSPropertyOp28
 70
     1
102
RTVSPropertyOp29
 70
     1
102
RTVSPropertyOp30
 70
     1
102
RTVSPropertyOp31
 70
     1
102
RTVSPropertyOp32
 70
     1
  0
XRECORD
  5
1A5
102
{ACAD_REACTORS
330
1A4
102
}
330
1A4
100
AcDbXrecord
280
     1
102
RTVSPropertyOp0
 70
     1
102
RTVSPropertyOp1
 70
     1
102
RTVSPropertyOp2
 70
     1
102
RTVSPropertyOp3
 70
     1
102
RTVSPropertyOp4
 70
     1
102
RTVSPropertyOp5
 70
     1
102
RTVSPropertyOp6
 70
     1
102
RTVSPropertyOp7
 70
     1
102
RTVSPropertyOp8
 70
     1
102
RTVSPropertyOp9
 70
     1
102
RTVSPropertyOp10
 70
     1
102
RTVSPropertyOp11
 70
     1
102
RTVSPropertyOp12
 70
     1
102
RTVSPropertyOp13
 70
     1
102
RTVSPropertyOp14
 70
     1
102
RTVSPropertyOp15
 70
     1
102
RTVSPropertyOp16
 70
     1
102
RTVSPropertyOp17
 70
     1
102
RTVSPropertyOp18
 70
     1
102
RTVSPropertyOp19
 70
     1
102
RTVSPropertyOp20
 70
     1
102
RTVSPropertyOp21
 70
     1
102
RTVSPropertyOp22
 70
     1
102
RTVSPropertyOp23
 70
     1
102
RTVSPropertyOp24
 70
     1
102
RTVSPropertyOp25
 70
     1
102
RTVSPropertyOp26
 70
     1
102
RTVSPropertyOp27
 70
     1
102
RTVSPropertyOp28
 70
     1
102
RTVSPropertyOp29
 70
     1
102
RTVSPropertyOp30
 70
     1
102
RTVSPropertyOp31
 70
     1
102
RTVSPropertyOp32
 70
     1
  0
XRECORD
  5
189
102
{ACAD_REACTORS
330
188
102
}
330
188
100
AcDbXrecord
280
     1
102
RTVSPropertyOp0
 70
     1
102
RTVSPropertyOp1
 70
     1
102
RTVSPropertyOp2
 70
     1
102
RTVSPropertyOp3
 70
     1
102
RTVSPropertyOp4
 70
     1
102
RTVSPropertyOp5
 70
     1
102
RTVSPropertyOp6
 70
     1
102
RTVSPropertyOp7
 70
     1
102
RTVSPropertyOp8
 70
     1
102
RTVSPropertyOp9
 70
     1
102
RTVSPropertyOp10
 70
     1
102
RTVSPropertyOp11
 70
     1
102
RTVSPropertyOp12
 70
     1
102
RTVSPropertyOp13
 70
     1
102
RTVSPropertyOp14
 70
     1
102
RTVSPropertyOp15
 70
     1
102
RTVSPropertyOp16
 70
     1
102
RTVSPropertyOp17
 70
     1
102
RTVSPropertyOp18
 70
     1
102
RTVSPropertyOp19
 70
     1
102
RTVSPropertyOp20
 70
     1
102
RTVSPropertyOp21
 70
     1
102
RTVSPropertyOp22
 70
     1
102
RTVSPropertyOp23
 70
     1
102
RTVSPropertyOp24
 70
     1
102
RTVSPropertyOp25
 70
     1
102
RTVSPropertyOp26
 70
     1
102
RTVSPropertyOp27
 70
     1
102
RTVSPropertyOp28
 70
     1
102
RTVSPropertyOp29
 70
     1
102
RTVSPropertyOp30
 70
     1
102
RTVSPropertyOp31
 70
     1
102
RTVSPropertyOp32
 70
     1
  0
XRECORD
  5
18B
102
{ACAD_REACTORS
330
18A
102
}
330
18A
100
AcDbXrecord
280
     1
102
RTVSPropertyOp0
 70
     1
102
RTVSPropertyOp1
 70
     1
102
RTVSPropertyOp2
 70
     1
102
RTVSPropertyOp3
 70
     1
102
RTVSPropertyOp4
 70
     1
102
RTVSPropertyOp5
 70
     1
102
RTVSPropertyOp6
 70
     1
102
RTVSPropertyOp7
 70
     1
102
RTVSPropertyOp8
 70
     1
102
RTVSPropertyOp9
 70
     1
102
RTVSPropertyOp10
 70
     1
102
RTVSPropertyOp11
 70
     1
102
RTVSPropertyOp12
 70
     1
102
RTVSPropertyOp13
 70
     1
102
RTVSPropertyOp14
 70
     1
102
RTVSPropertyOp15
 70
     1
102
RTVSPropertyOp16
 70
     1
102
RTVSPropertyOp17
 70
     1
102
RTVSPropertyOp18
 70
     1
102
RTVSPropertyOp19
 70
     1
102
RTVSPropertyOp20
 70
     1
102
RTVSPropertyOp21
 70
     1
102
RTVSPropertyOp22
 70
     1
102
RTVSPropertyOp23
 70
     1
102
RTVSPropertyOp24
 70
     1
102
RTVSPropertyOp25
 70
     1
102
RTVSPropertyOp26
 70
     1
102
RTVSPropertyOp27
 70
     1
102
RTVSPropertyOp28
 70
     1
102
RTVSPropertyOp29
 70
     1
102
RTVSPropertyOp30
 70
     1
102
RTVSPropertyOp31
 70
     1
102
RTVSPropertyOp32
 70
     1
  0
XRECORD
  5
18D
102
{ACAD_REACTORS
330
18C
102
}
330
18C
100
AcDbXrecord
280
     1
102
RTVSPropertyOp0
 70
     1
102
RTVSPropertyOp1
 70
     1
102
RTVSPropertyOp2
 70
     1
102
RTVSPropertyOp3
 70
     1
102
RTVSPropertyOp4
 70
     1
102
RTVSPropertyOp5
 70
     1
102
RTVSPropertyOp6
 70
     1
102
RTVSPropertyOp7
 70
     1
102
RTVSPropertyOp8
 70
     1
102
RTVSPropertyOp9
 70
     1
102
RTVSPropertyOp10
 70
     1
102
RTVSPropertyOp11
 70
     1
102
RTVSPropertyOp12
 70
     1
102
RTVSPropertyOp13
 70
     1
102
RTVSPropertyOp14
 70
     1
102
RTVSPropertyOp15
 70
     1
102
RTVSPropertyOp16
 70
     1
102
RTVSPropertyOp17
 70
     1
102
RTVSPropertyOp18
 70
     1
102
RTVSPropertyOp19
 70
     1
102
RTVSPropertyOp20
 70
     1
102
RTVSPropertyOp21
 70
     1
102
RTVSPropertyOp22
 70
     1
102
RTVSPropertyOp23
 70
     1
102
RTVSPropertyOp24
 70
     1
102
RTVSPropertyOp25
 70
     1
102
RTVSPropertyOp26
 70
     1
102
RTVSPropertyOp27
 70
     1
102
RTVSPropertyOp28
 70
     1
102
RTVSPropertyOp29
 70
     1
102
RTVSPropertyOp30
 70
     1
102
RTVSPropertyOp31
 70
     1
102
RTVSPropertyOp32
 70
     1
  0
XRECORD
  5
18F
102
{ACAD_REACTORS
330
18E
102
}
330
18E
100
AcDbXrecord
280
     1
102
RTVSPropertyOp0
 70
     1
102
RTVSPropertyOp1
 70
     1
102
RTVSPropertyOp2
 70
     1
102
RTVSPropertyOp3
 70
     1
102
RTVSPropertyOp4
 70
     1
102
RTVSPropertyOp5
 70
     1
102
RTVSPropertyOp6
 70
     1
102
RTVSPropertyOp7
 70
     1
102
RTVSPropertyOp8
 70
     1
102
RTVSPropertyOp9
 70
     1
102
RTVSPropertyOp10
 70
     1
102
RTVSPropertyOp11
 70
     1
102
RTVSPropertyOp12
 70
     1
102
RTVSPropertyOp13
 70
     1
102
RTVSPropertyOp14
 70
     1
102
RTVSPropertyOp15
 70
     1
102
RTVSPropertyOp16
 70
     1
102
RTVSPropertyOp17
 70
     1
102
RTVSPropertyOp18
 70
     1
102
RTVSPropertyOp19
 70
     1
102
RTVSPropertyOp20
 70
     1
102
RTVSPropertyOp21
 70
     1
102
RTVSPropertyOp22
 70
     1
102
RTVSPropertyOp23
 70
     1
102
RTVSPropertyOp24
 70
     1
102
RTVSPropertyOp25
 70
     1
102
RTVSPropertyOp26
 70
     1
102
RTVSPropertyOp27
 70
     1
102
RTVSPropertyOp28
 70
     1
102
RTVSPropertyOp29
 70
     1
102
RTVSPropertyOp30
 70
     1
102
RTVSPropertyOp31
 70
     1
102
RTVSPropertyOp32
 70
     1
  0
XRECORD
  5
1A3
102
{ACAD_REACTORS
330
1A2
102
}
330
1A2
100
AcDbXrecord
280
     1
102
RTVSPropertyOp0
 70
     1
102
RTVSPropertyOp1
 70
     1
102
RTVSPropertyOp2
 70
     1
102
RTVSPropertyOp3
 70
     1
102
RTVSPropertyOp4
 70
     1
102
RTVSPropertyOp5
 70
     1
102
RTVSPropertyOp6
 70
     1
102
RTVSPropertyOp7
 70
     1
102
RTVSPropertyOp8
 70
     1
102
RTVSPropertyOp9
 70
     1
102
RTVSPropertyOp10
 70
     1
102
RTVSPropertyOp11
 70
     1
102
RTVSPropertyOp12
 70
     1
102
RTVSPropertyOp13
 70
     1
102
RTVSPropertyOp14
 70
     1
102
RTVSPropertyOp15
 70
     1
102
RTVSPropertyOp16
 70
     1
102
RTVSPropertyOp17
 70
     1
102
RTVSPropertyOp18
 70
     1
102
RTVSPropertyOp19
 70
     1
102
RTVSPropertyOp20
 70
     1
102
RTVSPropertyOp21
 70
     1
102
RTVSPropertyOp22
 70
     1
102
RTVSPropertyOp23
 70
     1
102
RTVSPropertyOp24
 70
     1
102
RTVSPropertyOp25
 70
     1
102
RTVSPropertyOp26
 70
     1
102
RTVSPropertyOp27
 70
     1
102
RTVSPropertyOp28
 70
     1
102
RTVSPropertyOp29
 70
     1
102
RTVSPropertyOp30
 70
     1
102
RTVSPropertyOp31
 70
     1
102
RTVSPropertyOp32
 70
     1
  0
XRECORD
  5
199
102
{ACAD_REACTORS
330
198
102
}
330
198
100
AcDbXrecord
280
     1
102
RTVSPropertyOp0
 70
     1
102
RTVSPropertyOp1
 70
     1
102
RTVSPropertyOp2
 70
     1
102
RTVSPropertyOp3
 70
     1
102
RTVSPropertyOp4
 70
     1
102
RTVSPropertyOp5
 70
     1
102
RTVSPropertyOp6
 70
     1
102
RTVSPropertyOp7
 70
     1
102
RTVSPropertyOp8
 70
     1
102
RTVSPropertyOp9
 70
     1
102
RTVSPropertyOp10
 70
     1
102
RTVSPropertyOp11
 70
     1
102
RTVSPropertyOp12
 70
     1
102
RTVSPropertyOp13
 70
     1
102
RTVSPropertyOp14
 70
     1
102
RTVSPropertyOp15
 70
     1
102
RTVSPropertyOp16
 70
     1
102
RTVSPropertyOp17
 70
     1
102
RTVSPropertyOp18
 70
     1
102
RTVSPropertyOp19
 70
     1
102
RTVSPropertyOp20
 70
     1
102
RTVSPropertyOp21
 70
     1
102
RTVSPropertyOp22
 70
     1
102
RTVSPropertyOp23
 70
     1
102
RTVSPropertyOp24
 70
     1
102
RTVSPropertyOp25
 70
     1
102
RTVSPropertyOp26
 70
     1
102
RTVSPropertyOp27
 70
     1
102
RTVSPropertyOp28
 70
     1
102
RTVSPropertyOp29
 70
     1
102
RTVSPropertyOp30
 70
     1
102
RTVSPropertyOp31
 70
     1
102
RTVSPropertyOp32
 70
     1
  0
XRECORD
  5
1A1
102
{ACAD_REACTORS
330
1A0
102
}
330
1A0
100
AcDbXrecord
280
     1
102
RTVSPropertyOp0
 70
     1
102
RTVSPropertyOp1
 70
     1
102
RTVSPropertyOp2
 70
     1
102
RTVSPropertyOp3
 70
     1
102
RTVSPropertyOp4
 70
     1
102
RTVSPropertyOp5
 70
     1
102
RTVSPropertyOp6
 70
     1
102
RTVSPropertyOp7
 70
     1
102
RTVSPropertyOp8
 70
     1
102
RTVSPropertyOp9
 70
     1
102
RTVSPropertyOp10
 70
     1
102
RTVSPropertyOp11
 70
     1
102
RTVSPropertyOp12
 70
     1
102
RTVSPropertyOp13
 70
     1
102
RTVSPropertyOp14
 70
     1
102
RTVSPropertyOp15
 70
     1
102
RTVSPropertyOp16
 70
     1
102
RTVSPropertyOp17
 70
     1
102
RTVSPropertyOp18
 70
     1
102
RTVSPropertyOp19
 70
     1
102
RTVSPropertyOp20
 70
     1
102
RTVSPropertyOp21
 70
     1
102
RTVSPropertyOp22
 70
     1
102
RTVSPropertyOp23
 70
     1
102
RTVSPropertyOp24
 70
     1
102
RTVSPropertyOp25
 70
     1
102
RTVSPropertyOp26
 70
     1
102
RTVSPropertyOp27
 70
     1
102
RTVSPropertyOp28
 70
     1
102
RTVSPropertyOp29
 70
     1
102
RTVSPropertyOp30
 70
     1
102
RTVSPropertyOp31
 70
     1
102
RTVSPropertyOp32
 70
     1
  0
ENDSEC
  0
EOF
