  0
SECTION
  2
HEADER
  9
$ACADVER
  1
AC1015
  9
$ACADMAINTVER
 70
     6
  9
$DWGCODEPAGE
  3
ANSI_1252
  9
$INSBASE
 10
0.0
 20
0.0
 30
0.0
  9
$EXTMIN
 10
0.0
 20
0.0
 30
0.0
  9
$EXTMAX
 10
210.0
 20
297.0
 30
0.0
  9
$LIMMIN
 10
0.0
 20
0.0
  9
$LIMMAX
 10
210.0
 20
297.0
  9
$ORTHOMODE
 70
     0
  9
$REGENMODE
 70
     1
  9
$FILLMODE
 70
     1
  9
$QTEXTMODE
 70
     0
  9
$MIRRTEXT
 70
     1
  9
$LTSCALE
 40
1.0
  9
$ATTMODE
 70
     1
  9
$TEXTSIZE
 40
2.5
  9
$TRACEWID
 40
1.0
  9
$TEXTSTYLE
  7
Standard
  9
$CLAYER
  8
0
  9
$CELTYPE
  6
ByLayer
  9
$CECOLOR
 62
   256
  9
$CELTSCALE
 40
1.0
  9
$DISPSILH
 70
     0
  9
$DIMSCALE
 40
1.0
  9
$DIMASZ
 40
2.5
  9
$DIMEXO
 40
0.625
  9
$DIMDLI
 40
3.75
  9
$DIMRND
 40
0.0
  9
$DIMDLE
 40
0.0
  9
$DIMEXE
 40
1.25
  9
$DIMTP
 40
0.0
  9
$DIMTM
 40
0.0
  9
$DIMTXT
 40
2.5
  9
$DIMCEN
 40
2.5
  9
$DIMTSZ
 40
0.0
  9
$DIMTOL
 70
     0
  9
$DIMLIM
 70
     0
  9
$DIMTIH
 70
     0
  9
$DIMTOH
 70
     0
  9
$DIMSE1
 70
     0
  9
$DIMSE2
 70
     0
  9
$DIMTAD
 70
     1
  9
$DIMZIN
 70
     8
  9
$DIMBLK
  1

  9
$DIMASO
 70
     1
  9
$DIMSHO
 70
     1
  9
$DIMPOST
  1

  9
$DIMAPOST
  1

  9
$DIMALT
 70
     0
  9
$DIMALTD
 70
     3
  9
$DIMALTF
 40
0.0393700787
  9
$DIMLFAC
 40
1.0
  9
$DIMTOFL
 70
     1
  9
$DIMTVP
 40
0.0
  9
$DIMTIX
 70
     0
  9
$DIMSOXD
 70
     0
  9
$DIMSAH
 70
     0
  9
$DIMBLK1
  1

  9
$DIMBLK2
  1

  9
$DIMSTYLE
  2
ISO-25
  9
$DIMCLRD
 70
     0
  9
$DIMCLRE
 70
     0
  9
$DIMCLRT
 70
     0
  9
$DIMTFAC
 40
1.0
  9
$DIMGAP
 40
0.625
  9
$DIMJUST
 70
     0
  9
$DIMSD1
 70
     0
  9
$DIMSD2
 70
     0
  9
$DIMTOLJ
 70
     0
  9
$DIMTZIN
 70
     8
  9
$DIMALTZ
 70
     0
  9
$DIMALTTZ
 70
     0
  9
$DIMUPT
 70
     0
  9
$DIMDEC
 70
     2
  9
$DIMTDEC
 70
     2
  9
$DIMALTU
 70
     2
  9
$DIMALTTD
 70
     3
  9
$DIMTXSTY
  7
Standard
  9
$DIMAUNIT
 70
     0
  9
$DIMADEC
 70
     0
  9
$DIMALTRND
 40
0.0
  9
$DIMAZIN
 70
     0
  9
$DIMDSEP
 70
    44
  9
$DIMATFIT
 70
     3
  9
$DIMFRAC
 70
     0
  9
$DIMLDRBLK
  1

  9
$DIMLUNIT
 70
     2
  9
$DIMLWD
 70
    -2
  9
$DIMLWE
 70
    -2
  9
$DIMTMOVE
 70
     0
  9
$LUNITS
 70
     2
  9
$LUPREC
 70
     4
  9
$SKETCHINC
 40
1.0
  9
$FILLETRAD
 40
10.0
  9
$AUNITS
 70
     0
  9
$AUPREC
 70
     0
  9
$MENU
  1
.
  9
$ELEVATION
 40
0.0
  9
$PELEVATION
 40
0.0
  9
$THICKNESS
 40
0.0
  9
$LIMCHECK
 70
     0
  9
$CHAMFERA
 40
10.0
  9
$CHAMFERB
 40
10.0
  9
$CHAMFERC
 40
20.0
  9
$CHAMFERD
 40
0.0
  9
$SKPOLY
 70
     0
  9
$TDCREATE
 40
2457574.372964132
  9
$TDUCREATE
 40
2457574.289630799
  9
$TDUPDATE
 40
2457574.372965937
  9
$TDUUPDATE
 40
2457574.289632604
  9
$TDINDWG
 40
0.0000000116
  9
$TDUSRTIMER
 40
0.0000000116
  9
$USRTIMER
 70
     1
  9
$ANGBASE
 50
0.0
  9
$ANGDIR
 70
     0
  9
$PDMODE
 70
     0
  9
$PDSIZE
 40
0.0
  9
$PLINEWID
 40
0.0
  9
$SPLFRAME
 70
     0
  9
$SPLINETYPE
 70
     6
  9
$SPLINESEGS
 70
     8
  9
$HANDSEED
  5
18A
  9
$SURFTAB1
 70
     6
  9
$SURFTAB2
 70
     6
  9
$SURFTYPE
 70
     6
  9
$SURFU
 70
     6
  9
$SURFV
 70
     6
  9
$UCSBASE
  2

  9
$UCSNAME
  2

  9
$UCSORG
 10
0.0
 20
0.0
 30
0.0
  9
$UCSXDIR
 10
1.0
 20
0.0
 30
0.0
  9
$UCSYDIR
 10
0.0
 20
1.0
 30
0.0
  9
$UCSORTHOREF
  2

  9
$UCSORTHOVIEW
 70
     0
  9
$UCSORGTOP
 10
0.0
 20
0.0
 30
0.0
  9
$UCSORGBOTTOM
 10
0.0
 20
0.0
 30
0.0
  9
$UCSORGLEFT
 10
0.0
 20
0.0
 30
0.0
  9
$UCSORGRIGHT
 10
0.0
 20
0.0
 30
0.0
  9
$UCSORGFRONT
 10
0.0
 20
0.0
 30
0.0
  9
$UCSORGBACK
 10
0.0
 20
0.0
 30
0.0
  9
$PUCSBASE
  2

  9
$PUCSNAME
  2

  9
$PUCSORG
 10
0.0
 20
0.0
 30
0.0
  9
$PUCSXDIR
 10
1.0
 20
0.0
 30
0.0
  9
$PUCSYDIR
 10
0.0
 20
1.0
 30
0.0
  9
$PUCSORTHOREF
  2

  9
$PUCSORTHOVIEW
 70
     0
  9
$PUCSORGTOP
 10
0.0
 20
0.0
 30
0.0
  9
$PUCSORGBOTTOM
 10
0.0
 20
0.0
 30
0.0
  9
$PUCSORGLEFT
 10
0.0
 20
0.0
 30
0.0
  9
$PUCSORGRIGHT
 10
0.0
 20
0.0
 30
0.0
  9
$PUCSORGFRONT
 10
0.0
 20
0.0
 30
0.0
  9
$PUCSORGBACK
 10
0.0
 20
0.0
 30
0.0
  9
$USERI1
 70
     0
  9
$USERI2
 70
     0
  9
$USERI3
 70
     0
  9
$USERI4
 70
     0
  9
$USERI5
 70
     0
  9
$USERR1
 40
0.0
  9
$USERR2
 40
0.0
  9
$USERR3
 40
0.0
  9
$USERR4
 40
0.0
  9
$USERR5
 40
0.0
  9
$WORLDVIEW
 70
     1
  9
$SHADEDGE
 70
     3
  9
$SHADEDIF
 70
    70
  9
$TILEMODE
 70
     1
  9
$MAXACTVP
 70
    64
  9
$PINSBASE
 10
0.0
 20
0.0
 30
0.0
  9
$PLIMCHECK
 70
     0
  9
$PEXTMIN
 10
0.0
 20
0.0
 30
0.0
  9
$PEXTMAX
 10
210.0
 20
297.0
 30
0.0
  9
$PLIMMIN
 10
0.0
 20
0.0
  9
$PLIMMAX
 10
210.0
 20
297.0
  9
$UNITMODE
 70
     0
  9
$VISRETAIN
 70
     1
  9
$PLINEGEN
 70
     0
  9
$PSLTSCALE
 70
     1
  9
$TREEDEPTH
 70
  3020
  9
$CMLSTYLE
  2
Standard
  9
$CMLJUST
 70
     0
  9
$CMLSCALE
 40
20.0
  9
$PROXYGRAPHICS
 70
     1
  9
$MEASUREMENT
 70
     1
  9
$CELWEIGHT
370
    -1
  9
$ENDCAPS
280
     0
  9
$JOINSTYLE
280
     0
  9
$LWDISPLAY
290
     0
  9
$INSUNITS
 70
     4
  9
$HYPERLINKBASE
  1

  9
$STYLESHEET
  1

  9
$XEDIT
290
     1
  9
$CEPSNTYPE
380
     0
  9
$PSTYLEMODE
290
     1
  9
$FINGERPRINTGUID
  2
{46FD41AD-B369-45C9-93EE-BE5FDFDB88AE}
  9
$VERSIONGUID
  2
{FAEB1C32-E019-11D5-929B-00C0DF256EC4}
  9
$EXTNAMES
290
     1
  9
$PSVPSCALE
 40
0.0
  9
$OLESTARTUP
290
     0
  0
ENDSEC
  0
SECTION
  2
CLASSES
  0
CLASS
  1
ACDBDICTIONARYWDFLT
  2
AcDbDictionaryWithDefault
  3
ObjectDBX Classes
 90
        0
280
     0
281
     0
  0
CLASS
  1
VISUALSTYLE
  2
AcDbVisualStyle
  3
ObjectDBX Classes
 90
     4095
280
     0
281
     0
  0
CLASS
  1
MATERIAL
  2
AcDbMaterial
  3
ObjectDBX Classes
 90
     1153
280
     0
281
     0
  0
CLASS
  1
DICTIONARYVAR
  2
AcDbDictionaryVar
  3
ObjectDBX Classes
 90
        0
280
     0
281
     0
  0
CLASS
  1
ACDBPLACEHOLDER
  2
AcDbPlaceHolder
  3
ObjectDBX Classes
 90
        0
280
     0
281
     0
  0
CLASS
  1
LAYOUT
  2
AcDbLayout
  3
ObjectDBX Classes
 90
        0
280
     0
281
     0
  0
ENDSEC
  0
SECTION
  2
TABLES
  0
TABLE
  2
VPORT
  5
8
330
0
100
AcDbSymbolTable
 70
     1
  0
VPORT
  5
29
330
8
100
AcDbSymbolTableRecord
100
AcDbViewportTableRecord
  2
*Active
 70
     0
 10
0.0
 20
0.0
 11
1.0
 21
1.0
 12
344.1869158879
 22
148.5
 13
0.0
 23
0.0
 14
10.0
 24
10.0
 15
10.0
 25
10.0
 16
0.0
 26
0.0
 36
1.0
 17
0.0
 27
0.0
 37
0.0
 40
297.0
 41
1.9729729729
 42
50.0
 43
0.0
 44
0.0
 50
0.0
 51
0.0
 71
     0
 72
   100
 73
     1
 74
     3
 75
     0
 76
     0
 77
     0
 78
     0
281
     0
 65
     1
110
0.0
120
0.0
130
0.0
111
1.0
121
0.0
131
0.0
112
0.0
122
1.0
132
0.0
 79
     0
146
0.0
  0
ENDTAB
  0
TABLE
  2
LTYPE
  5
5
330
0
100
AcDbSymbolTable
 70
     2
  0
LTYPE
  5
14
330
5
100
AcDbSymbolTableRecord
100
AcDbLinetypeTableRecord
  2
ByBlock
 70
     0
  3

 72
    65
 73
     0
 40
0.0
  0
LTYPE
  5
15
330
5
100
AcDbSymbolTableRecord
100
AcDbLinetypeTableRecord
  2
ByLayer
 70
     0
  3

 72
    65
 73
     0
 40
0.0
  0
LTYPE
  5
16
330
5
100
AcDbSymbolTableRecord
100
AcDbLinetypeTableRecord
  2
Continuous
 70
     0
  3
Solid line
 72
    65
 73
     0
 40
0.0
  0
LTYPE
  5
5A
330
5
100
AcDbSymbolTableRecord
100
AcDbLinetypeTableRecord
  2
HIDDEN2
 70
     0
  3
Hidden (.5x) _ _ _ _ _ _ _ _ _ _ _ _ _ _ _ _ _ 
 72
    65
 73
     2
 40
4.7625
 49
3.175
 74
     4
 75
     0
340
0
 46
0.0
 50
0.0
 44
0.0
 45
0.0
 49
-1.5875
 74
     4
 75
     0
340
0
 46
0.0
 50
0.0
 44
0.0
 45
0.0
  0
ENDTAB
  0
TABLE
  2
LAYER
  5
2
330
0
100
AcDbSymbolTable
 70
     5
  0
LAYER
  5
10
330
2
100
AcDbSymbolTableRecord
100
AcDbLayerTableRecord
  2
0
 70
     0
 62
     7
  6
Continuous
370
    -3
390
F
  0
LAYER
  5
3F
330
2
100
AcDbSymbolTableRecord
100
AcDbLayerTableRecord
  2
SK2
 70
     0
 62
     7
  6
Continuous
370
    15
390
F
  0
LAYER
  5
40
330
2
100
AcDbSymbolTableRecord
100
AcDbLayerTableRecord
  2
SK1
 70
     0
 62
     4
  6
Continuous
370
    18
390
F
  0
LAYER
  5
59
330
2
100
AcDbSymbolTableRecord
100
AcDbLayerTableRecord
  2
SK3
 70
     0
 62
     1
  6
HIDDEN2
370
    15
390
F
  0
LAYER
  5
11D
330
2
100
AcDbSymbolTableRecord
100
AcDbLayerTableRecord
  2
SK4
 70
     0
 62
     2
  6
Continuous
370
    13
390
F
  0
ENDTAB
  0
TABLE
  2
STYLE
  5
3
330
0
100
AcDbSymbolTable
 70
     2
  0
STYLE
  5
11
330
3
100
AcDbSymbolTableRecord
100
AcDbTextStyleTableRecord
  2
Standard
 70
     0
 40
0.0
 41
1.0
 50
0.0
 71
     0
 42
2.5
  3
txt
  4

  0
STYLE
  5
131
330
3
100
AcDbSymbolTableRecord
100
AcDbTextStyleTableRecord
  2
SEACAD_Solid_Edge_ISO
 70
     0
 40
0.0
 41
1.0
 50
0.0
 71
     0
 42
0.2
  3
seiso.ttf
  4

1001
ACAD
1000
Solid Edge ISO
1071
        0
  0
ENDTAB
  0
TABLE
  2
VIEW
  5
6
330
0
100
AcDbSymbolTable
 70
     0
  0
ENDTAB
  0
TABLE
  2
UCS
  5
7
330
0
100
AcDbSymbolTable
 70
     0
  0
ENDTAB
  0
TABLE
  2
APPID
  5
9
330
0
100
AcDbSymbolTable
 70
     1
  0
APPID
  5
12
330
9
100
AcDbSymbolTableRecord
100
AcDbRegAppTableRecord
  2
ACAD
 70
     0
  0
ENDTAB
  0
TABLE
  2
DIMSTYLE
  5
A
330
0
100
AcDbSymbolTable
 70
     3
100
AcDbDimStyleTable
  0
DIMSTYLE
105
27
330
A
100
AcDbSymbolTableRecord
100
AcDbDimStyleTableRecord
  2
ISO-25
 70
     0
 41
2.5
 42
0.625
 43
3.75
 44
1.25
 73
     0
 74
     0
 77
     1
 78
     8
140
2.5
141
2.5
143
0.0393700787
147
0.625
171
     3
172
     1
178
     0
271
     2
272
     2
274
     3
278
    44
283
     0
284
     8
340
11
  0
DIMSTYLE
105
11F
330
A
100
AcDbSymbolTableRecord
100
AcDbDimStyleTableRecord
  2
Standard
 70
     0
178
     0
340
11
  0
DIMSTYLE
105
132
102
{ACAD_REACTORS
330
133
330
13E
330
148
330
153
102
}
330
A
100
AcDbSymbolTableRecord
100
AcDbDimStyleTableRecord
  2
DIN
 70
     0
 41
3.5
 42
0.0
 44
1.75
 73
     0
 74
     0
 77
     1
 78
     8
140
3.5
141
1.75
147
1.75
172
     1
173
     1
178
     0
179
     3
271
     2
272
     2
278
    44
284
     8
340
131
343
12C
344
12C
  0
ENDTAB
  0
TABLE
  2
BLOCK_RECORD
  5
1
330
0
100
AcDbSymbolTable
 70
    10
  0
BLOCK_RECORD
  5
1F
330
1
100
AcDbSymbolTableRecord
100
AcDbBlockTableRecord
  2
*Model_Space
340
22
  0
BLOCK_RECORD
  5
1B
330
1
100
AcDbSymbolTableRecord
100
AcDbBlockTableRecord
  2
*Paper_Space
340
1E
  0
BLOCK_RECORD
  5
41
330
1
100
AcDbSymbolTableRecord
100
AcDbBlockTableRecord
  2
Nullpunkt
340
0
102
{BLKREFS
331
4B
102
}
  0
BLOCK_RECORD
  5
4C
330
1
100
AcDbSymbolTableRecord
100
AcDbBlockTableRecord
  2
Einfügepunkt
340
0
102
{BLKREFS
331
56
102
}
  0
BLOCK_RECORD
  5
120
330
1
100
AcDbSymbolTableRecord
100
AcDbBlockTableRecord
  2
_OBLIQUE
340
0
  0
BLOCK_RECORD
  5
124
330
1
100
AcDbSymbolTableRecord
100
AcDbBlockTableRecord
  2
_DOT
340
0
  0
BLOCK_RECORD
  5
12C
330
1
100
AcDbSymbolTableRecord
100
AcDbBlockTableRecord
  2
_SE_FILLED
340
0
  0
BLOCK_RECORD
  5
134
330
1
100
AcDbSymbolTableRecord
100
AcDbBlockTableRecord
  2
DMBLK65
340
0
  0
BLOCK_RECORD
  5
13F
330
1
100
AcDbSymbolTableRecord
100
AcDbBlockTableRecord
  2
DMBLK66
340
0
  0
BLOCK_RECORD
  5
149
330
1
100
AcDbSymbolTableRecord
100
AcDbBlockTableRecord
  2
DMBLK67
340
0
  0
BLOCK_RECORD
  5
154
330
1
100
AcDbSymbolTableRecord
100
AcDbBlockTableRecord
  2
DMBLK68
340
0
  0
ENDTAB
  0
ENDSEC
  0
SECTION
  2
BLOCKS
  0
BLOCK
  5
20
330
1F
100
AcDbEntity
  8
0
100
AcDbBlockBegin
  2
*Model_Space
 70
     0
 10
0.0
 20
0.0
 30
0.0
  3
*Model_Space
  1

  0
ENDBLK
  5
21
330
1F
100
AcDbEntity
  8
0
100
AcDbBlockEnd
  0
BLOCK
  5
1C
330
1B
100
AcDbEntity
 67
     1
  8
0
100
AcDbBlockBegin
  2
*Paper_Space
 70
     0
 10
0.0
 20
0.0
 30
0.0
  3
*Paper_Space
  1

  0
ENDBLK
  5
1D
330
1B
100
AcDbEntity
 67
     1
  8
0
100
AcDbBlockEnd
  0
BLOCK
  5
49
330
41
100
AcDbEntity
  8
0
100
AcDbBlockBegin
  2
Nullpunkt
 70
     0
 10
0.0
 20
0.0
 30
0.0
  3
Nullpunkt
  1

  0
HATCH
  5
42
330
41
100
AcDbEntity
  8
SK2
  6
Continuous
 62
     7
100
AcDbHatch
 10
0.0
 20
0.0
 30
0.0
210
0.0
220
0.0
230
1.0
  2
SOLID
 70
     1
 71
     0
 91
        1
 92
        1
 93
        3
 72
     1
 10
-1.0
 20
0.0
 11
0.0000000000000009
 21
0.0
 72
     1
 10
0.0
 20
0.0
 11
0.0
 21
1.000000000000001
 72
     2
 10
0.0
 20
0.0
 40
1.0
 50
90.0
 51
180.0
 73
     1
 97
        0
 75
     0
 76
     1
 98
        0
  0
HATCH
  5
43
330
41
100
AcDbEntity
  8
SK2
  6
Continuous
 62
     7
100
AcDbHatch
 10
0.0
 20
0.0
 30
0.0
210
0.0
220
0.0
230
1.0
  2
SOLID
 70
     1
 71
     0
 91
        1
 92
        1
 93
        3
 72
     2
 10
0.0
 20
0.0
 40
1.0
 50
270.0
 51
360.0
 73
     1
 72
     1
 10
1.0
 20
0.0
 11
-0.0000000000000009
 21
0.0
 72
     1
 10
0.0
 20
0.0
 11
0.0
 21
-1.000000000000001
 97
        0
 75
     0
 76
     1
 98
        0
  0
CIRCLE
  5
44
330
41
100
AcDbEntity
  8
SK2
  6
Continuous
 62
     7
100
AcDbCircle
 10
0.0
 20
0.0
 30
0.0
 40
1.0
  0
LINE
  5
45
330
41
100
AcDbEntity
  8
SK1
  6
Continuous
100
AcDbLine
 10
-1.0
 20
0.0
 30
0.0
 11
1.0
 21
0.0
 31
0.0
  0
LINE
  5
46
330
41
100
AcDbEntity
  8
SK1
  6
Continuous
100
AcDbLine
 10
0.0
 20
1.0
 30
0.0
 11
0.0
 21
-1.0
 31
0.0
  0
POINT
  5
47
330
41
100
AcDbEntity
  8
SK1
  6
Continuous
100
AcDbPoint
 10
0.0
 20
0.0
 30
0.0
  0
POINT
  5
48
330
41
100
AcDbEntity
  8
SK1
  6
Continuous
100
AcDbPoint
 10
0.0
 20
0.0
 30
0.0
  0
ENDBLK
  5
4A
330
41
100
AcDbEntity
  8
0
100
AcDbBlockEnd
  0
BLOCK
  5
54
330
4C
100
AcDbEntity
  8
0
100
AcDbBlockBegin
  2
Einfügepunkt
 70
     0
 10
0.0
 20
0.0
 30
0.0
  3
Einfügepunkt
  1

  0
HATCH
  5
4D
330
4C
100
AcDbEntity
  8
SK2
  6
Continuous
 62
     7
100
AcDbHatch
 10
0.0
 20
0.0
 30
0.0
210
0.0
220
0.0
230
1.0
  2
SOLID
 70
     1
 71
     0
 91
        1
 92
        1
 93
        3
 72
     1
 10
-0.4502381196756744
 20
-0.0000000000000018
 11
0.0000000000000033
 21
-0.0000000000000018
 72
     1
 10
0.0
 20
-0.0000000000000018
 11
0.0
 21
0.4502381196756812
 72
     2
 10
0.0
 20
-0.0000000000000018
 40
0.4502381196756812
 50
90.0
 51
180.0
 73
     1
 97
        0
 75
     0
 76
     1
 98
        0
  0
HATCH
  5
4E
330
4C
100
AcDbEntity
  8
SK2
  6
Continuous
 62
     7
100
AcDbHatch
 10
0.0
 20
0.0
 30
0.0
210
0.0
220
0.0
230
1.0
  2
SOLID
 70
     1
 71
     0
 91
        1
 92
        1
 93
        3
 72
     2
 10
0.0
 20
-0.0000000000000018
 40
0.4502381196756812
 50
270.0
 51
360.0
 73
     1
 72
     1
 10
0.4502381196756815
 20
-0.0000000000000018
 11
0.0000000000000038
 21
-0.0000000000000018
 72
     1
 10
0.0
 20
-0.0000000000000018
 11
0.0
 21
-0.4502381196756812
 97
        0
 75
     0
 76
     1
 98
        0
  0
CIRCLE
  5
4F
330
4C
100
AcDbEntity
  8
SK2
  6
Continuous
 62
     7
100
AcDbCircle
 10
0.0
 20
0.0
 30
0.0
 40
0.4502381196756812
  0
LINE
  5
50
330
4C
100
AcDbEntity
  8
SK1
  6
Continuous
100
AcDbLine
 10
-0.4502381197
 20
0.0
 30
0.0
 11
0.4502381197
 21
0.0
 31
0.0
  0
LINE
  5
51
330
4C
100
AcDbEntity
  8
SK1
  6
Continuous
100
AcDbLine
 10
0.0
 20
0.4502381197
 30
0.0
 11
0.0
 21
-0.4502381197
 31
0.0
  0
POINT
  5
52
330
4C
100
AcDbEntity
  8
SK2
  6
Continuous
 62
     7
100
AcDbPoint
 10
0.0
 20
0.0
 30
0.0
  0
POINT
  5
53
330
4C
100
AcDbEntity
  8
SK2
  6
Continuous
 62
     7
100
AcDbPoint
 10
0.0
 20
0.0
 30
0.0
  0
ENDBLK
  5
55
330
4C
100
AcDbEntity
  8
0
100
AcDbBlockEnd
  0
BLOCK
  5
121
330
120
100
AcDbEntity
  8
0
100
AcDbBlockBegin
  2
_OBLIQUE
 70
     0
 10
0.0
 20
0.0
 30
0.0
  3
_OBLIQUE
  1

  0
LINE
  5
123
330
120
100
AcDbEntity
  8
0
  6
ByBlock
 62
     0
370
    -2
100
AcDbLine
 10
-0.5
 20
-0.5
 30
0.0
 11
0.5
 21
0.5
 31
0.0
  0
ENDBLK
  5
122
330
120
100
AcDbEntity
  8
0
100
AcDbBlockEnd
  0
BLOCK
  5
125
330
124
100
AcDbEntity
  8
0
100
AcDbBlockBegin
  2
_DOT
 70
     0
 10
0.0
 20
0.0
 30
0.0
  3
_DOT
  1

  0
POLYLINE
  5
127
330
124
100
AcDbEntity
  8
0
  6
ByBlock
 62
     0
100
AcDb2dPolyline
 66
     1
 10
0.0
 20
0.0
 30
0.0
 70
     1
 40
0.5
 41
0.5
  0
VERTEX
  5
129
330
127
100
AcDbEntity
  8
0
  6
ByBlock
 62
     0
100
AcDbVertex
100
AcDb2dVertex
 10
-0.25
 20
0.0
 30
0.0
 42
1.0
  0
VERTEX
  5
12A
330
127
100
AcDbEntity
  8
0
  6
ByBlock
 62
     0
100
AcDbVertex
100
AcDb2dVertex
 10
0.25
 20
0.0
 30
0.0
 42
1.0
  0
SEQEND
  5
12B
330
127
100
AcDbEntity
  8
0
  6
ByBlock
 62
     0
  0
LINE
  5
128
330
124
100
AcDbEntity
  8
0
  6
ByBlock
 62
     0
370
    -2
100
AcDbLine
 10
-0.5
 20
0.0
 30
0.0
 11
-1.0
 21
0.0
 31
0.0
  0
ENDBLK
  5
126
330
124
100
AcDbEntity
  8
0
100
AcDbBlockEnd
  0
BLOCK
  5
12F
330
12C
100
AcDbEntity
  8
0
100
AcDbBlockBegin
  2
_SE_FILLED
 70
     0
 10
0.0
 20
0.0
 30
0.0
  3
_SE_FILLED
  1

  0
SOLID
  5
12D
330
12C
100
AcDbEntity
  8
0
 62
     0
100
AcDbTrace
 10
0.0
 20
0.0
 30
0.0
 11
-1.0
 21
-0.1665
 31
0.0
 12
-1.0
 22
0.1665
 32
0.0
 13
0.0
 23
0.0
 33
0.0
  0
LINE
  5
12E
330
12C
100
AcDbEntity
  8
0
 62
     0
100
AcDbLine
 10
0.0
 20
0.0
 30
0.0
 11
-1.0
 21
0.0
 31
0.0
  0
ENDBLK
  5
130
330
12C
100
AcDbEntity
  8
0
100
AcDbBlockEnd
  0
BLOCK
  5
13C
330
134
100
AcDbEntity
  8
0
100
AcDbBlockBegin
  2
DMBLK65
 70
     0
 10
0.0
 20
0.0
 30
0.0
  3
DMBLK65
  1

  0
HATCH
  5
135
330
134
100
AcDbEntity
  8
SK2
  6
Continuous
 62
   136
100
AcDbHatch
 10
0.0
 20
0.0
 30
0.0
210
0.0
220
0.0
230
1.0
  2
SOLID
 70
     1
 71
     0
 91
        1
 92
        1
 93
        3
 72
     1
 10
22.38375687363248
 20
-11.78000000826273
 11
21.80042352229357
 21
-8.279999900229308
 72
     1
 10
21.80042352229357
 20
-8.279999900229308
 11
21.21709017095467
 21
-11.78000000826273
 72
     1
 10
21.21709017095467
 20
-11.78000000826273
 11
22.38375687363248
 21
-11.78000000826273
 97
        0
 75
     0
 76
     1
 98
        0
  0
HATCH
  5
136
330
134
100
AcDbEntity
  8
SK2
  6
Continuous
 62
   136
100
AcDbHatch
 10
0.0
 20
0.0
 30
0.0
210
0.0
220
0.0
230
1.0
  2
SOLID
 70
     1
 71
     0
 91
        1
 92
        1
 93
        3
 72
     1
 10
22.38375687363248
 20
11.78000020780411
 11
21.21709017095467
 21
11.78000020780411
 72
     1
 10
21.21709017095467
 20
11.78000020780411
 11
21.80042352229357
 21
8.28000009977069
 72
     1
 10
21.80042352229357
 20
8.28000009977069
 11
22.38375687363248
 21
11.78000020780411
 97
        0
 75
     0
 76
     1
 98
        0
  0
LINE
  5
137
330
134
100
AcDbEntity
  8
SK2
  6
Continuous
 62
   136
100
AcDbLine
 10
10.7
 20
-8.2799999002
 30
0.0
 11
23.5504235763
 21
-8.2799999002
 31
0.0
  0
LINE
  5
138
330
134
100
AcDbEntity
  8
SK2
  6
Continuous
 62
   136
100
AcDbLine
 10
10.7
 20
8.2800000998
 30
0.0
 11
23.5504235763
 21
8.2800000998
 31
0.0
  0
LINE
  5
139
330
134
100
AcDbEntity
  8
SK2
  6
Continuous
 62
   136
100
AcDbLine
 10
21.8004235223
 20
-15.2800001163
 30
0.0
 11
21.8004235223
 21
15.2800006833
 31
0.0
  0
TEXT
  5
13A
330
134
100
AcDbEntity
  8
SK2
  6
Continuous
 62
   136
100
AcDbText
 10
20.9254235223
 20
-2.1397729094
 30
0.0
 40
3.5
  1
16,56
 50
90.0
  7
SEACAD_Solid_Edge_ISO
 11
17.4254235223
 21
-2.1397729094
 31
0.0
100
AcDbText
 73
     3
  0
TEXT
  5
13B
330
134
100
AcDbEntity
  8
SK2
  6
Continuous
 62
   136
100
AcDbText
 10
20.9254235223
 20
-6.2125001822
 30
0.0
 40
3.5
  1
ø
 50
90.0
  7
SEACAD_Solid_Edge_ISO
 11
17.4254235223
 21
-6.2125001822
 31
0.0
100
AcDbText
 73
     3
  0
ENDBLK
  5
13D
330
134
100
AcDbEntity
  8
0
100
AcDbBlockEnd
  0
BLOCK
  5
146
330
13F
100
AcDbEntity
  8
0
100
AcDbBlockBegin
  2
DMBLK66
 70
     0
 10
0.0
 20
0.0
 30
0.0
  3
DMBLK66
  1

  0
HATCH
  5
140
330
13F
100
AcDbEntity
  8
SK2
  6
Continuous
 62
   136
100
AcDbHatch
 10
0.0
 20
0.0
 30
0.0
210
0.0
220
0.0
230
1.0
  2
SOLID
 70
     1
 71
     0
 91
        1
 92
        1
 93
        3
 72
     1
 10
-3.500000108033415
 20
-27.32800678744437
 11
0.0000000000000036
 21
-26.74467343610547
 72
     1
 10
0.0000000000000035
 20
-26.74467343610547
 11
-3.500000108033415
 21
-26.16134008476656
 72
     1
 10
-3.500000108033415
 20
-26.16134008476656
 11
-3.500000108033415
 21
-27.32800678744437
 97
        0
 75
     0
 76
     1
 98
        0
  0
HATCH
  5
141
330
13F
100
AcDbEntity
  8
SK2
  6
Continuous
 62
   136
100
AcDbHatch
 10
0.0
 20
0.0
 30
0.0
210
0.0
220
0.0
230
1.0
  2
SOLID
 70
     1
 71
     0
 91
        1
 92
        1
 93
        3
 72
     1
 10
14.60000010803342
 20
-27.32800678744437
 11
14.60000010803342
 21
-26.16134008476656
 72
     1
 10
14.60000010803342
 20
-26.16134008476656
 11
11.1
 21
-26.74467343610547
 72
     1
 10
11.1
 20
-26.74467343610547
 11
14.60000010803342
 21
-27.32800678744437
 97
        0
 75
     0
 76
     1
 98
        0
  0
LINE
  5
142
330
13F
100
AcDbEntity
  8
SK2
  6
Continuous
 62
   136
100
AcDbLine
 10
0.0
 20
-19.9937489234
 30
0.0
 11
0.0
 21
-28.4946734901
 31
0.0
  0
LINE
  5
143
330
13F
100
AcDbEntity
  8
SK2
  6
Continuous
 62
   136
100
AcDbLine
 10
11.1
 20
-16.5142106036
 30
0.0
 11
11.1
 21
-28.4946734901
 31
0.0
  0
LINE
  5
144
330
13F
100
AcDbEntity
  8
SK2
  6
Continuous
 62
   136
100
AcDbLine
 10
-7.0000002161
 20
-26.7446734361
 30
0.0
 11
18.1000009179
 21
-26.7446734361
 31
0.0
  0
TEXT
  5
145
330
13F
100
AcDbEntity
  8
SK2
  6
Continuous
 62
   136
100
AcDbText
 10
3.0840907944
 20
-25.8696734361
 30
0.0
 40
3.5
  1
11,1
  7
SEACAD_Solid_Edge_ISO
 11
3.0840907944
 21
-22.3696734361
 31
0.0
100
AcDbText
 73
     3
  0
ENDBLK
  5
147
330
13F
100
AcDbEntity
  8
0
100
AcDbBlockEnd
  0
BLOCK
  5
151
330
149
100
AcDbEntity
  8
0
100
AcDbBlockBegin
  2
DMBLK67
 70
     0
 10
0.0
 20
0.0
 30
0.0
  3
DMBLK67
  1

  0
HATCH
  5
14A
330
149
100
AcDbEntity
  8
SK2
  6
Continuous
 62
   136
100
AcDbHatch
 10
0.0
 20
0.0
 30
0.0
210
0.0
220
0.0
230
1.0
  2
SOLID
 70
     1
 71
     0
 91
        1
 92
        1
 93
        3
 72
     1
 10
-43.63626746150354
 20
-16.4937488153281
 11
-43.05293411016464
 21
-19.99374892336152
 72
     1
 10
-43.05293411016464
 20
-19.99374892336152
 11
-42.46960075882574
 21
-16.4937488153281
 72
     1
 10
-42.46960075882574
 20
-16.4937488153281
 11
-43.63626746150354
 21
-16.4937488153281
 97
        0
 75
     0
 76
     1
 98
        0
  0
HATCH
  5
14B
330
149
100
AcDbEntity
  8
SK2
  6
Continuous
 62
   136
100
AcDbHatch
 10
0.0
 20
0.0
 30
0.0
210
0.0
220
0.0
230
1.0
  2
SOLID
 70
     1
 71
     0
 91
        1
 92
        1
 93
        3
 72
     1
 10
-43.63626746150354
 20
16.49374800029376
 11
-42.46960075882574
 21
16.49374800029376
 72
     1
 10
-42.46960075882574
 20
16.49374800029376
 11
-43.05293411016464
 21
19.99374810832717
 72
     1
 10
-43.05293411016464
 20
19.99374810832717
 11
-43.63626746150354
 21
16.49374800029376
 97
        0
 75
     0
 76
     1
 98
        0
  0
LINE
  5
14C
330
149
100
AcDbEntity
  8
SK2
  6
Continuous
 62
   136
100
AcDbLine
 10
0.0
 20
-19.9937489234
 30
0.0
 11
-44.8029341642
 21
-19.9937489234
 31
0.0
  0
LINE
  5
14D
330
149
100
AcDbEntity
  8
SK2
  6
Continuous
 62
   136
100
AcDbLine
 10
0.0
 20
19.9937491229
 30
0.0
 11
-44.8029341642
 21
19.9937491229
 31
0.0
  0
LINE
  5
14E
330
149
100
AcDbEntity
  8
SK2
  6
Continuous
 62
   136
100
AcDbLine
 10
-43.0529341102
 20
-19.9937489234
 30
0.0
 11
-43.0529341102
 21
19.9937481083
 31
0.0
  0
TEXT
  5
14F
330
149
100
AcDbEntity
  8
SK2
  6
Continuous
 62
   136
100
AcDbText
 10
-43.9279341102
 20
-0.0318185893
 30
0.0
 40
3.5
  1
40
 50
90.0
  7
SEACAD_Solid_Edge_ISO
 11
-47.4279341102
 21
-0.0318185893
 31
0.0
100
AcDbText
 73
     3
  0
TEXT
  5
150
330
149
100
AcDbEntity
  8
SK2
  6
Continuous
 62
   136
100
AcDbText
 10
-43.9279341102
 20
-4.1045458621
 30
0.0
 40
3.5
  1
ø
 50
90.0
  7
SEACAD_Solid_Edge_ISO
 11
-47.4279341102
 21
-4.1045458621
 31
0.0
100
AcDbText
 73
     3
  0
ENDBLK
  5
152
330
149
100
AcDbEntity
  8
0
100
AcDbBlockEnd
  0
BLOCK
  5
15B
330
154
100
AcDbEntity
  8
0
100
AcDbBlockBegin
  2
DMBLK68
 70
     0
 10
0.0
 20
0.0
 30
0.0
  3
DMBLK68
  1

  0
HATCH
  5
155
330
154
100
AcDbEntity
  8
SK2
  6
Continuous
 62
   136
100
AcDbHatch
 10
0.0
 20
0.0
 30
0.0
210
0.0
220
0.0
230
1.0
  2
SOLID
 70
     1
 71
     0
 91
        1
 92
        1
 93
        3
 72
     1
 10
7.599999891993684
 20
27.61110484593836
 11
7.599999891993684
 21
26.44443814326056
 72
     1
 10
7.599999891993684
 20
26.44443814326056
 11
11.1000000000271
 21
27.02777149459946
 72
     1
 10
11.1000000000271
 20
27.02777149459946
 11
7.599999891993683
 21
27.61110484593836
 97
        0
 75
     0
 76
     1
 98
        0
  0
HATCH
  5
156
330
154
100
AcDbEntity
  8
SK2
  6
Continuous
 62
   136
100
AcDbHatch
 10
0.0
 20
0.0
 30
0.0
210
0.0
220
0.0
230
1.0
  2
SOLID
 70
     1
 71
     0
 91
        1
 92
        1
 93
        3
 72
     1
 10
-31.39999998134645
 20
27.61110484593836
 11
-34.90000008937987
 21
27.02777149459946
 72
     1
 10
-34.90000008937987
 20
27.02777149459946
 11
-31.39999998134645
 21
26.44443814326056
 72
     1
 10
-31.39999998134645
 20
26.44443814326056
 11
-31.39999998134645
 21
27.61110484593836
 97
        0
 75
     0
 76
     1
 98
        0
  0
LINE
  5
157
330
154
100
AcDbEntity
  8
SK2
  6
Continuous
 62
   136
100
AcDbLine
 10
11.1
 20
16.5142106482
 30
0.0
 11
11.1
 21
28.7777715486
 31
0.0
  0
LINE
  5
158
330
154
100
AcDbEntity
  8
SK2
  6
Continuous
 62
   136
100
AcDbLine
 10
-34.9
 20
14.7389317718
 30
0.0
 11
-34.9
 21
28.7777715486
 31
0.0
  0
LINE
  5
159
330
154
100
AcDbEntity
  8
SK2
  6
Continuous
 62
   136
100
AcDbLine
 10
11.1
 20
27.0277714946
 30
0.0
 11
-34.9000000894
 21
27.0277714946
 31
0.0
  0
TEXT
  5
15A
330
154
100
AcDbEntity
  8
SK2
  6
Continuous
 62
   136
100
AcDbText
 10
-14.0079545901
 20
27.9027714946
 30
0.0
 40
3.5
  1
46
  7
SEACAD_Solid_Edge_ISO
 11
-14.0079545901
 21
31.4027714946
 31
0.0
100
AcDbText
 73
     3
  0
ENDBLK
  5
15C
330
154
100
AcDbEntity
  8
0
100
AcDbBlockEnd
  0
ENDSEC
  0
SECTION
  2
ENTITIES
  0
INSERT
  5
4B
330
1F
100
AcDbEntity
  8
SK2
 62
     7
100
AcDbBlockReference
  2
Nullpunkt
 10
0.0
 20
0.0000000998
 30
0.0
  0
INSERT
  5
56
330
1F
100
AcDbEntity
  8
SK2
 62
     7
100
AcDbBlockReference
  2
Einfügepunkt
 10
11.1
 20
0.0000000998
 30
0.0
  0
LINE
  5
57
330
1F
100
AcDbEntity
  8
SK1
  6
Continuous
100
AcDbLine
 10
0.2
 20
12.4401951826
 30
0.0
 11
0.2
 21
0.5000000998
 31
0.0
  0
LINE
  5
58
330
1F
100
AcDbEntity
  8
SK1
  6
Continuous
100
AcDbLine
 10
3.9
 20
-18.0999999002
 30
0.0
 11
3.9
 21
-13.1473017642
 31
0.0
  0
LINE
  5
5B
330
1F
100
AcDbEntity
  8
SK3
100
AcDbLine
 10
-9.7
 20
6.4952145035
 30
0.0
 11
-9.7
 21
8.6856204
 31
0.0
  0
LINE
  5
5C
330
1F
100
AcDbEntity
  8
SK3
100
AcDbLine
 10
-13.7
 20
6.4952145035
 30
0.0
 11
-13.7
 21
8.6856204
 31
0.0
  0
LINE
  5
5D
330
1F
100
AcDbEntity
  8
SK3
100
AcDbLine
 10
-26.1
 20
6.8493213434
 30
0.0
 11
-26.1
 21
9.1864030955
 31
0.0
  0
LINE
  5
5E
330
1F
100
AcDbEntity
  8
SK3
100
AcDbLine
 10
-24.0
 20
-5.7451065072
 30
0.0
 11
-24.0
 21
-5.0779580152
 31
0.0
  0
LINE
  5
5F
330
1F
100
AcDbEntity
  8
SK3
100
AcDbLine
 10
-24.0
 20
3.4472816482
 30
0.0
 11
-24.0
 21
4.3708514336
 31
0.0
  0
LINE
  5
60
330
1F
100
AcDbEntity
  8
SK3
100
AcDbLine
 10
-25.9
 20
8.5780279259
 30
0.0
 11
-25.9
 21
8.5854529125
 31
0.0
  0
ARC
  5
61
330
1F
100
AcDbEntity
  8
SK3
100
AcDbCircle
 10
-31.6499388868
 20
2.6680135249
 30
0.0
 40
8.24560897826154
100
AcDbArc
 50
21.9118465202
 51
45.7865447649
  0
ARC
  5
62
330
1F
100
AcDbEntity
  8
SK3
100
AcDbCircle
 10
-31.6516755096
 20
6.5255395583
 30
0.0
 40
8.247654810024965
100
AcDbArc
 50
314.2164598812
 51
338.0851488337
  0
LINE
  5
63
330
1F
100
AcDbEntity
  8
SK3
100
AcDbLine
 10
-25.9
 20
-0.6143602295
 30
0.0
 11
-25.9
 21
-0.4999999002
 31
0.0
  0
ARC
  5
64
330
1F
100
AcDbEntity
  8
SK3
100
AcDbCircle
 10
-31.6499388868
 20
-6.5243746305
 30
0.0
 40
8.245608978261785
100
AcDbArc
 50
21.9118465202
 51
45.7865447649
  0
ARC
  5
65
330
1F
100
AcDbEntity
  8
SK3
100
AcDbCircle
 10
-31.6516755096
 20
-2.6668485971
 30
0.0
 40
8.247654810024908
100
AcDbArc
 50
314.2164598812
 51
338.0851488337
  0
LINE
  5
66
330
1F
100
AcDbEntity
  8
SK3
100
AcDbLine
 10
-14.8547005384
 20
-5.7451065072
 30
0.0
 11
-14.8547005384
 21
-5.0779580152
 31
0.0
  0
LINE
  5
67
330
1F
100
AcDbEntity
  8
SK3
100
AcDbLine
 10
-14.8547005384
 20
3.4472816482
 30
0.0
 11
-14.8547005384
 21
4.3708514336
 31
0.0
  0
LINE
  5
68
330
1F
100
AcDbEntity
  8
SK3
100
AcDbLine
 10
-13.7577350269
 20
-8.5780277264
 30
0.0
 11
-25.9
 21
-8.5780277264
 31
0.0
  0
LINE
  5
69
330
1F
100
AcDbEntity
  8
SK3
100
AcDbLine
 10
-13.7577350269
 20
-8.5780277264
 30
0.0
 11
-13.7577350269
 21
-8.585452713
 31
0.0
  0
ARC
  5
6A
330
1F
100
AcDbEntity
  8
SK3
100
AcDbCircle
 10
-4.6468068391
 20
-5.7711439355
 30
0.0
 40
10.4690701895164
100
AcDbArc
 50
150.4901467839
 51
167.1749918064
  0
LINE
  5
6B
330
1F
100
AcDbEntity
  8
SK3
100
AcDbLine
 10
-14.8547005384
 20
-3.4472814486
 30
0.0
 11
-24.0
 21
-3.4472814486
 31
0.0
  0
LINE
  5
6C
330
1F
100
AcDbEntity
  8
SK3
100
AcDbLine
 10
-24.0
 20
-5.7451065072
 30
0.0
 11
-14.8547005384
 21
-5.7451065072
 31
0.0
  0
ARC
  5
6D
330
1F
100
AcDbEntity
  8
SK3
100
AcDbCircle
 10
-4.648775581
 20
-3.4220063579
 30
0.0
 40
10.46698134800826
100
AcDbArc
 50
192.8233314701
 51
209.5115299396
  0
LINE
  5
6E
330
1F
100
AcDbEntity
  8
SK3
100
AcDbLine
 10
-13.7577350269
 20
-0.6143602295
 30
0.0
 11
-25.9
 21
-0.6143602295
 31
0.0
  0
LINE
  5
6F
330
1F
100
AcDbEntity
  8
SK3
100
AcDbLine
 10
-13.7577350269
 20
0.6143604291
 30
0.0
 11
-25.9
 21
0.6143604291
 31
0.0
  0
LINE
  5
70
330
1F
100
AcDbEntity
  8
SK3
100
AcDbLine
 10
-13.7577350269
 20
0.6143604291
 30
0.0
 11
-13.7577350269
 21
0.5000000998
 31
0.0
  0
ARC
  5
71
330
1F
100
AcDbEntity
  8
SK3
100
AcDbCircle
 10
-4.6468068391
 20
3.42124422
 30
0.0
 40
10.46907018951643
100
AcDbArc
 50
150.4901467839
 51
167.1749918064
  0
LINE
  5
72
330
1F
100
AcDbEntity
  8
SK3
100
AcDbLine
 10
-14.8547005384
 20
5.7451067068
 30
0.0
 11
-24.0
 21
5.7451067068
 31
0.0
  0
LINE
  5
73
330
1F
100
AcDbEntity
  8
SK3
100
AcDbLine
 10
-24.0
 20
3.4472816482
 30
0.0
 11
-14.8547005384
 21
3.4472816482
 31
0.0
  0
ARC
  5
74
330
1F
100
AcDbEntity
  8
SK3
100
AcDbCircle
 10
-4.648775581
 20
5.7703817976
 30
0.0
 40
10.46698134800834
100
AcDbArc
 50
192.8233314701
 51
209.5115299396
  0
LINE
  5
75
330
1F
100
AcDbEntity
  8
SK3
100
AcDbLine
 10
-13.7577350269
 20
8.5780279259
 30
0.0
 11
-25.9
 21
8.5780279259
 31
0.0
  0
LINE
  5
76
330
1F
100
AcDbEntity
  8
SK1
  6
Continuous
100
AcDbLine
 10
4.5392304845
 20
20.4464102613
 30
0.0
 11
4.5392304845
 21
14.8070251926
 31
0.0
  0
LINE
  5
77
330
1F
100
AcDbEntity
  8
SK1
  6
Continuous
100
AcDbLine
 10
4.1
 20
20.1928204228
 30
0.0
 11
4.1
 21
14.6276557843
 31
0.0
  0
LINE
  5
78
330
1F
100
AcDbEntity
  8
SK1
  6
Continuous
100
AcDbLine
 10
0.0
 20
14.491269006
 30
0.0
 11
0.0
 21
19.9937491229
 31
0.0
  0
LINE
  5
79
330
1F
100
AcDbEntity
  8
SK1
  6
Continuous
100
AcDbLine
 10
10.975
 20
-16.7307167996
 30
0.0
 11
10.975
 21
-12.1786724861
 31
0.0
  0
LINE
  5
7A
330
1F
100
AcDbEntity
  8
SK1
  6
Continuous
100
AcDbLine
 10
11.1
 20
11.3184034868
 30
0.0
 11
11.1
 21
-11.3184032872
 31
0.0
  0
LINE
  5
7B
330
1F
100
AcDbEntity
  8
SK1
  6
Continuous
100
AcDbLine
 10
10.975
 20
16.7307169991
 30
0.0
 11
10.975
 21
12.1786726856
 31
0.0
  0
SPLINE
  5
7C
330
1F
100
AcDbEntity
  8
SK1
  6
Continuous
100
AcDbSpline
210
0.0
220
0.0
230
1.0
 70
     8
 71
     3
 72
    10
 73
     6
 74
     0
 42
0.000000047004811
 43
0.0000000001
 12
1.0
 22
0.0
 32
0.0
 13
1.0
 23
0.0
 33
0.0
 40
0.0
 40
0.0
 40
0.0
 40
0.0
 40
0.5
 40
0.5
 40
1.0
 40
1.0
 40
1.0
 40
1.0
 10
10.975
 20
12.1786726856456
 30
0.0
 10
11.01290713836796
 20
12.16319024581036
 30
0.0
 10
11.04484532892404
 20
12.14050075336497
 30
0.0
 10
11.08825160787027
 20
12.08727369608414
 30
0.0
 10
11.1
 20
12.05662218658855
 30
0.0
 10
11.1
 20
12.02551026795845
 30
0.0
  0
SPLINE
  5
7D
330
1F
100
AcDbEntity
  8
SK1
  6
Continuous
100
AcDbSpline
210
0.0
220
0.0
230
1.0
 70
     8
 71
     3
 72
    10
 73
     6
 74
     0
 42
0.000000047004811
 43
0.0000000001
 12
1.0
 22
0.0
 32
0.0
 13
1.0
 23
0.0
 33
0.0
 40
0.0
 40
0.0
 40
0.0
 40
0.0
 40
0.5
 40
0.5
 40
1.0
 40
1.0
 40
1.0
 40
1.0
 10
10.975
 20
11.47156590445906
 30
0.0
 10
11.01290713836796
 20
11.45608346462381
 30
0.0
 10
11.04484532892404
 20
11.43339397217842
 30
0.0
 10
11.08825160787027
 20
11.38016691489759
 30
0.0
 10
11.1
 20
11.349515405402
 30
0.0
 10
11.1
 20
11.3184034867719
 30
0.0
  0
LINE
  5
7E
330
1F
100
AcDbEntity
  8
SK1
  6
Continuous
100
AcDbLine
 10
-31.9
 20
10.6127461998
 30
0.0
 11
-31.9
 21
11.319852981
 31
0.0
  0
LINE
  5
7F
330
1F
100
AcDbEntity
  8
SK1
  6
Continuous
100
AcDbLine
 10
4.1
 20
-20.1928202233
 30
0.0
 11
4.1
 21
-14.6276555848
 31
0.0
  0
LINE
  5
80
330
1F
100
AcDbEntity
  8
SK1
  6
Continuous
100
AcDbLine
 10
4.5392304845
 20
-20.4464100617
 30
0.0
 11
4.5392304845
 21
-14.807024993
 31
0.0
  0
LINE
  5
81
330
1F
100
AcDbEntity
  8
SK3
100
AcDbLine
 10
-24.0
 20
5.0779582148
 30
0.0
 11
-24.0
 21
5.7451067068
 31
0.0
  0
LINE
  5
82
330
1F
100
AcDbEntity
  8
SK3
100
AcDbLine
 10
-14.8547005384
 20
5.0779582148
 30
0.0
 11
-14.8547005384
 21
5.7451067068
 31
0.0
  0
LINE
  5
83
330
1F
100
AcDbEntity
  8
SK1
  6
Continuous
100
AcDbLine
 10
3.9
 20
18.1000000998
 30
0.0
 11
3.9
 21
13.1473019637
 31
0.0
  0
LINE
  5
84
330
1F
100
AcDbEntity
  8
SK3
100
AcDbLine
 10
-31.9
 20
10.6127461998
 30
0.0
 11
-31.9
 21
6.7086701551
 31
0.0
  0
SPLINE
  5
85
330
1F
100
AcDbEntity
  8
SK1
  6
Continuous
100
AcDbSpline
210
0.0
220
0.0
230
1.0
 70
     8
 71
     3
 72
    14
 73
    10
 74
     0
 42
0.0000000003119418
 43
0.0000000001
 12
1.0
 22
0.0
 32
0.0
 13
1.0
 23
0.0
 33
0.0
 40
0.0
 40
0.0
 40
0.0
 40
0.0
 40
0.1203776942144169
 40
0.1203776942144169
 40
0.1203776942144169
 40
0.9954581100602281
 40
0.9954581100602281
 40
0.9954581100602281
 40
1.0
 40
1.0
 40
1.0
 40
1.0
 10
-31.9
 20
10.61274619982847
 30
0.0
 10
-30.61998674190291
 20
10.74001665228196
 30
0.0
 10
-29.33997303570472
 20
10.86728485137993
 30
0.0
 10
-28.05995892518174
 20
10.99455101715431
 30
0.0
 10
-18.75495198559722
 20
11.91970687752292
 30
0.0
 10
-9.44992447929043
 20
12.84475931122768
 30
0.0
 10
-0.1448865419513504
 20
13.76975927402372
 30
0.0
 10
-0.0965910282661655
 20
13.77456025910974
 30
0.0
 10
-0.0482955142820755
 20
13.77936124269234
 30
0.0
 10
0.0000000000000035
 20
13.78416222477611
 30
0.0
  0
SPLINE
  5
86
330
1F
100
AcDbEntity
  8
SK3
100
AcDbSpline
210
0.0
220
0.0
230
1.0
 70
     8
 71
     3
 72
    10
 73
     6
 74
     0
 42
0.0000000180412012
 43
0.0000000001
 12
1.0
 22
0.0
 32
0.0
 13
1.0
 23
0.0
 33
0.0
 40
0.0
 40
0.0
 40
0.0
 40
0.0
 40
0.5
 40
0.5
 40
1.0
 40
1.0
 40
1.0
 40
1.0
 10
11.1
 20
5.773942119212419
 30
0.0
 10
11.10000000000001
 20
5.700042739072972
 30
0.0
 10
11.05752424986479
 20
5.626568593678703
 30
0.0
 10
10.90852843498898
 20
5.520888206587315
 30
0.0
 10
10.8045860058474
 20
5.49060618680975
 30
0.0
 10
10.69999999999998
 20
5.490606186809551
 30
0.0
  0
LINE
  5
87
330
1F
100
AcDbEntity
  8
SK3
100
AcDbLine
 10
10.7
 20
5.4906061868
 30
0.0
 11
-9.7
 21
5.4906061868
 31
0.0
  0
LINE
  5
88
330
1F
100
AcDbEntity
  8
SK3
100
AcDbLine
 10
-9.7
 20
5.7881077223
 30
0.0
 11
-13.7
 21
5.7881077223
 31
0.0
  0
LINE
  5
89
330
1F
100
AcDbEntity
  8
SK3
100
AcDbLine
 10
-13.7
 20
5.7881077223
 30
0.0
 11
-14.8547005384
 21
4.3708514336
 31
0.0
  0
LINE
  5
8A
330
1F
100
AcDbEntity
  8
SK3
100
AcDbLine
 10
-14.8547005384
 20
4.3708514336
 30
0.0
 11
-24.0
 21
4.3708514336
 31
0.0
  0
LINE
  5
8B
330
1F
100
AcDbEntity
  8
SK3
100
AcDbLine
 10
-24.0
 20
4.3708514336
 30
0.0
 11
-26.1
 21
5.8589341337
 31
0.0
  0
LINE
  5
8C
330
1F
100
AcDbEntity
  8
SK3
100
AcDbLine
 10
-26.9
 20
6.7086701551
 30
0.0
 11
-31.9
 21
6.7086701551
 31
0.0
  0
SPLINE
  5
8D
330
1F
100
AcDbEntity
  8
SK3
100
AcDbSpline
210
0.0
220
0.0
230
1.0
 70
     8
 71
     3
 72
    12
 73
     8
 74
     0
 42
0.0000000091336698
 43
0.0000000001
 12
1.0
 22
0.0
 32
0.0
 13
1.0
 23
0.0
 33
0.0
 40
0.0
 40
0.0
 40
0.0
 40
0.0
 40
0.5
 40
0.5
 40
0.75
 40
0.75
 40
1.0
 40
1.0
 40
1.0
 40
1.0
 10
-26.89999999999998
 20
7.415776936276868
 30
0.0
 10
-26.69059465353008
 20
7.415776936276736
 30
0.0
 10
-26.48250597678354
 20
7.354949995324225
 30
0.0
 10
-26.25962912697719
 20
7.196925690737287
 30
0.0
 10
-26.20064976911079
 20
7.134174212218468
 30
0.0
 10
-26.12080357316118
 20
6.997464841676753
 30
0.0
 10
-26.1
 20
6.92306902933905
 30
0.0
 10
-26.1
 20
6.849321343358713
 30
0.0
  0
LINE
  5
8E
330
1F
100
AcDbEntity
  8
SK1
  6
Continuous
100
AcDbLine
 10
11.1
 20
11.3184034868
 30
0.0
 11
11.1
 21
12.025510268
 31
0.0
  0
LINE
  5
8F
330
1F
100
AcDbEntity
  8
SK1
  6
Continuous
100
AcDbLine
 10
10.975
 20
12.1786726856
 30
0.0
 11
4.5392304845
 21
14.8070251926
 31
0.0
  0
LINE
  5
90
330
1F
100
AcDbEntity
  8
SK1
  6
Continuous
100
AcDbLine
 10
4.5392304845
 20
14.8070251926
 30
0.0
 11
4.1
 21
14.6276557843
 31
0.0
  0
LINE
  5
91
330
1F
100
AcDbEntity
  8
SK1
  6
Continuous
100
AcDbLine
 10
4.1
 20
14.6276557843
 30
0.0
 11
4.1
 21
13.9205490032
 31
0.0
  0
SPLINE
  5
92
330
1F
100
AcDbEntity
  8
SK1
  6
Continuous
100
AcDbSpline
210
0.0
220
0.0
230
1.0
 70
     8
 71
     3
 72
    10
 73
     6
 74
     0
 42
0.0000000361107625
 43
0.0000000001
 12
1.0
 22
0.0
 32
0.0
 13
1.0
 23
0.0
 33
0.0
 40
0.0
 40
0.0
 40
0.0
 40
0.0
 40
0.5
 40
0.5
 40
1.0
 40
1.0
 40
1.0
 40
1.0
 10
4.100000000000003
 20
13.28877671998007
 30
0.0
 10
4.10000000000001
 20
13.2518654915819
 30
0.0
 10
4.078394229249677
 20
13.21495295544331
 30
0.0
 10
4.004774091119805
 20
13.16275580160613
 30
0.0
 10
3.952166868815388
 20
13.14730196373961
 30
0.0
 10
3.900000000000212
 20
13.14730196373825
 30
0.0
  0
LINE
  5
93
330
1F
100
AcDbEntity
  8
SK1
  6
Continuous
100
AcDbLine
 10
3.9
 20
13.1473019637
 30
0.0
 11
0.2
 21
13.1473019637
 31
0.0
  0
SPLINE
  5
94
330
1F
100
AcDbEntity
  8
SK1
  6
Continuous
100
AcDbSpline
210
0.0
220
0.0
230
1.0
 70
     8
 71
     3
 72
    10
 73
     6
 74
     0
 42
0.0000000360994534
 43
0.0000000001
 12
1.0
 22
0.0
 32
0.0
 13
1.0
 23
0.0
 33
0.0
 40
0.0
 40
0.0
 40
0.0
 40
0.0
 40
0.5
 40
0.5
 40
1.0
 40
1.0
 40
1.0
 40
1.0
 10
0.2000000000000023
 20
13.14730196373955
 30
0.0
 10
0.1477898164294021
 20
13.14730196373954
 30
0.0
 10
0.0958472218476093
 20
13.16235289604783
 30
0.0
 10
0.0211851219572602
 20
13.21521368974822
 30
0.0
 10
0.0000000000000659
 20
13.25188531190773
 30
0.0
 10
-0.0000000000015335
 20
13.28877671997995
 30
0.0
  0
LINE
  5
95
330
1F
100
AcDbEntity
  8
SK1
  6
Continuous
100
AcDbLine
 10
0.0
 20
13.7841622248
 30
0.0
 11
0.0
 21
14.491269006
 31
0.0
  0
SPLINE
  5
96
330
1F
100
AcDbEntity
  8
SK3
100
AcDbSpline
210
0.0
220
0.0
230
1.0
 70
     8
 71
     3
 72
    12
 73
     8
 74
     0
 42
0.0000000091336698
 43
0.0000000001
 12
1.0
 22
0.0
 32
0.0
 13
1.0
 23
0.0
 33
0.0
 40
0.0
 40
0.0
 40
0.0
 40
0.0
 40
0.5
 40
0.5
 40
0.75
 40
0.75
 40
1.0
 40
1.0
 40
1.0
 40
1.0
 10
-26.89999999999998
 20
6.708670155090321
 30
0.0
 10
-26.69059465353008
 20
6.708670155090189
 30
0.0
 10
-26.48250597678354
 20
6.647843214137678
 30
0.0
 10
-26.25962912697719
 20
6.48981890955074
 30
0.0
 10
-26.20064976911079
 20
6.42706743103192
 30
0.0
 10
-26.12080357316118
 20
6.290358060490204
 30
0.0
 10
-26.1
 20
6.215962248152502
 30
0.0
 10
-26.1
 20
6.142214562172166
 30
0.0
  0
LINE
  5
97
330
1F
100
AcDbEntity
  8
SK1
  6
Continuous
100
AcDbLine
 10
10.975
 20
11.4715659045
 30
0.0
 11
4.5392304845
 21
14.0999184114
 31
0.0
  0
LINE
  5
98
330
1F
100
AcDbEntity
  8
SK1
  6
Continuous
100
AcDbLine
 10
4.5392304845
 20
14.0999184114
 30
0.0
 11
4.1
 21
13.9205490032
 31
0.0
  0
SPLINE
  5
99
330
1F
100
AcDbEntity
  8
SK1
  6
Continuous
100
AcDbSpline
210
0.0
220
0.0
230
1.0
 70
     8
 71
     3
 72
    10
 73
     6
 74
     0
 42
0.0000000361107625
 43
0.0000000001
 12
1.0
 22
0.0
 32
0.0
 13
1.0
 23
0.0
 33
0.0
 40
0.0
 40
0.0
 40
0.0
 40
0.0
 40
0.5
 40
0.5
 40
1.0
 40
1.0
 40
1.0
 40
1.0
 10
4.100000000000003
 20
12.58166993879352
 30
0.0
 10
4.10000000000001
 20
12.54475871039535
 30
0.0
 10
4.078394229249677
 20
12.50784617425676
 30
0.0
 10
4.004774091119805
 20
12.45564902041959
 30
0.0
 10
3.952166868815388
 20
12.44019518255306
 30
0.0
 10
3.900000000000212
 20
12.4401951825517
 30
0.0
  0
LINE
  5
9A
330
1F
100
AcDbEntity
  8
SK1
  6
Continuous
100
AcDbLine
 10
3.9
 20
12.4401951826
 30
0.0
 11
0.2
 21
12.4401951826
 31
0.0
  0
SPLINE
  5
9B
330
1F
100
AcDbEntity
  8
SK1
  6
Continuous
100
AcDbSpline
210
0.0
220
0.0
230
1.0
 70
     8
 71
     3
 72
    10
 73
     6
 74
     0
 42
0.0000000360994534
 43
0.0000000001
 12
1.0
 22
0.0
 32
0.0
 13
1.0
 23
0.0
 33
0.0
 40
0.0
 40
0.0
 40
0.0
 40
0.0
 40
0.5
 40
0.5
 40
1.0
 40
1.0
 40
1.0
 40
1.0
 10
0.2000000000000023
 20
12.440195182553
 30
0.0
 10
0.1477898164294021
 20
12.44019518255299
 30
0.0
 10
0.0958472218476093
 20
12.45524611486129
 30
0.0
 10
0.0211851219572602
 20
12.50810690856168
 30
0.0
 10
0.0000000000000659
 20
12.54477853072119
 30
0.0
 10
-0.0000000000015335
 20
12.5816699387934
 30
0.0
  0
LINE
  5
9C
330
1F
100
AcDbEntity
  8
SK3
100
AcDbLine
 10
-26.9
 20
7.4157769363
 30
0.0
 11
-31.9
 21
7.4157769363
 31
0.0
  0
SPLINE
  5
9D
330
1F
100
AcDbEntity
  8
SK1
  6
Continuous
100
AcDbSpline
210
0.0
220
0.0
230
1.0
 70
     8
 71
     3
 72
    14
 73
    10
 74
     0
 42
0.0000000003119418
 43
0.0000000001
 12
1.0
 22
0.0
 32
0.0
 13
1.0
 23
0.0
 33
0.0
 40
0.0
 40
0.0
 40
0.0
 40
0.0
 40
0.1203776942144169
 40
0.1203776942144169
 40
0.1203776942144169
 40
0.9954581100602281
 40
0.9954581100602281
 40
0.9954581100602281
 40
1.0
 40
1.0
 40
1.0
 40
1.0
 10
-31.9
 20
11.31985298101501
 30
0.0
 10
-30.61998674190291
 20
11.44712343346851
 30
0.0
 10
-29.33997303570472
 20
11.57439163256648
 30
0.0
 10
-28.05995892518174
 20
11.70165779834085
 30
0.0
 10
-18.75495198559722
 20
12.62681365870947
 30
0.0
 10
-9.44992447929043
 20
13.55186609241422
 30
0.0
 10
-0.1448865419513504
 20
14.47686605521027
 30
0.0
 10
-0.0965910282661655
 20
14.48166704029629
 30
0.0
 10
-0.0482955142820755
 20
14.48646802387889
 30
0.0
 10
0.0000000000000035
 20
14.49126900596266
 30
0.0
  0
SPLINE
  5
9E
330
1F
100
AcDbEntity
  8
SK3
100
AcDbSpline
210
0.0
220
0.0
230
1.0
 70
     8
 71
     3
 72
    10
 73
     6
 74
     0
 42
0.0000000180412012
 43
0.0000000001
 12
1.0
 22
0.0
 32
0.0
 13
1.0
 23
0.0
 33
0.0
 40
0.0
 40
0.0
 40
0.0
 40
0.0
 40
0.5
 40
0.5
 40
1.0
 40
1.0
 40
1.0
 40
1.0
 10
11.1
 20
6.481048900398966
 30
0.0
 10
11.10000000000001
 20
6.40714952025952
 30
0.0
 10
11.05752424986479
 20
6.33367537486525
 30
0.0
 10
10.90852843498898
 20
6.227994987773863
 30
0.0
 10
10.8045860058474
 20
6.197712967996297
 30
0.0
 10
10.69999999999998
 20
6.197712967996098
 30
0.0
  0
LINE
  5
9F
330
1F
100
AcDbEntity
  8
SK3
100
AcDbLine
 10
10.7
 20
6.197712968
 30
0.0
 11
-9.7
 21
6.197712968
 31
0.0
  0
LINE
  5
A0
330
1F
100
AcDbEntity
  8
SK3
100
AcDbLine
 10
-9.7
 20
6.197712968
 30
0.0
 11
-9.7
 21
6.4952145035
 31
0.0
  0
LINE
  5
A1
330
1F
100
AcDbEntity
  8
SK3
100
AcDbLine
 10
-9.7
 20
6.4952145035
 30
0.0
 11
-13.7
 21
6.4952145035
 31
0.0
  0
LINE
  5
A2
330
1F
100
AcDbEntity
  8
SK3
100
AcDbLine
 10
-13.7
 20
6.4952145035
 30
0.0
 11
-14.8547005384
 21
5.0779582148
 31
0.0
  0
LINE
  5
A3
330
1F
100
AcDbEntity
  8
SK3
100
AcDbLine
 10
-14.8547005384
 20
5.0779582148
 30
0.0
 11
-24.0
 21
5.0779582148
 31
0.0
  0
LINE
  5
A4
330
1F
100
AcDbEntity
  8
SK3
100
AcDbLine
 10
-24.0
 20
5.0779582148
 30
0.0
 11
-26.1
 21
6.5660409149
 31
0.0
  0
LINE
  5
A5
330
1F
100
AcDbEntity
  8
SK3
100
AcDbLine
 10
-26.1
 20
6.5660409149
 30
0.0
 11
-26.1
 21
6.8493213434
 31
0.0
  0
LINE
  5
A6
330
1F
100
AcDbEntity
  8
SK1
  6
Continuous
100
AcDbLine
 10
-34.5556692404
 20
15.1352608931
 30
0.0
 11
-34.5556692404
 21
0.5000000998
 31
0.0
  0
LINE
  5
A7
330
1F
100
AcDbEntity
  8
SK1
  6
Continuous
100
AcDbLine
 10
-34.9
 20
-14.7389315723
 30
0.0
 11
-34.9
 21
-0.4999999002
 31
0.0
  0
ARC
  5
A8
330
1F
100
AcDbEntity
  8
SK1
  6
Continuous
100
AcDbCircle
 10
-34.4998513263
 20
-14.7390242363
 30
0.0
 40
0.4001486843896992
100
AcDbArc
 50
179.9867317924
 51
261.981494402
  0
ARC
  5
A9
330
1F
100
AcDbEntity
  8
SK1
  6
Continuous
100
AcDbCircle
 10
-34.4998513991
 20
14.739024499
 30
0.0
 40
0.4001486116409104
100
AcDbArc
 50
98.0184965438
 51
180.0132772618
  0
LINE
  5
AA
330
1F
100
AcDbEntity
  8
SK1
  6
Continuous
100
AcDbLine
 10
0.0
 20
-19.9937489234
 30
0.0
 11
0.0
 21
-14.4912688064
 31
0.0
  0
LINE
  5
AB
330
1F
100
AcDbEntity
  8
SK3
100
AcDbLine
 10
-13.7577350269
 20
8.5854529125
 30
0.0
 11
-13.7577350269
 21
8.5780279259
 31
0.0
  0
LINE
  5
AC
330
1F
100
AcDbEntity
  8
SK3
100
AcDbLine
 10
-25.9
 20
-8.585452713
 30
0.0
 11
-25.9
 21
-8.5780277264
 31
0.0
  0
LINE
  5
AD
330
1F
100
AcDbEntity
  8
SK3
100
AcDbLine
 10
-26.1
 20
-9.186402896
 30
0.0
 11
-26.1
 21
-6.8493211438
 31
0.0
  0
LINE
  5
AE
330
1F
100
AcDbEntity
  8
SK3
100
AcDbLine
 10
-13.7
 20
-8.6856202005
 30
0.0
 11
-13.7
 21
-6.4952143039
 31
0.0
  0
LINE
  5
AF
330
1F
100
AcDbEntity
  8
SK3
100
AcDbLine
 10
-9.7
 20
-8.6856202005
 30
0.0
 11
-9.7
 21
-6.4952143039
 31
0.0
  0
LINE
  5
B0
330
1F
100
AcDbEntity
  8
SK1
  6
Continuous
100
AcDbLine
 10
0.2
 20
18.0930927044
 30
0.0
 11
0.2
 21
13.1473019637
 31
0.0
  0
LINE
  5
B1
330
1F
100
AcDbEntity
  8
SK1
  6
Continuous
100
AcDbLine
 10
3.6
 20
18.1000000998
 30
0.0
 11
3.6
 21
18.0930927044
 31
0.0
  0
LINE
  5
B2
330
1F
100
AcDbEntity
  8
SK3
100
AcDbLine
 10
3.6
 20
-8.2648894942
 30
0.0
 11
3.6
 21
-18.0930925049
 31
0.0
  0
LINE
  5
B3
330
1F
100
AcDbEntity
  8
SK1
  6
Continuous
100
AcDbLine
 10
3.6
 20
-18.0999999002
 30
0.0
 11
3.6
 21
-18.0930925049
 31
0.0
  0
LINE
  5
B4
330
1F
100
AcDbEntity
  8
SK3
100
AcDbLine
 10
3.6
 20
18.0930927044
 30
0.0
 11
3.6
 21
8.2648896937
 31
0.0
  0
LINE
  5
B5
330
1F
100
AcDbEntity
  8
SK3
100
AcDbLine
 10
-13.7577350269
 20
8.5854529125
 30
0.0
 11
-25.9
 21
8.5854529125
 31
0.0
  0
SPLINE
  5
B6
330
1F
100
AcDbEntity
  8
SK3
100
AcDbSpline
210
0.0
220
0.0
230
1.0
 70
     8
 71
     3
 72
    12
 73
     8
 74
     0
 42
0.0000000078265086
 43
0.0000000001
 12
1.0
 22
0.0
 32
0.0
 13
1.0
 23
0.0
 33
0.0
 40
0.0
 40
0.0
 40
0.0
 40
0.0
 40
0.2499999999999991
 40
0.2499999999999991
 40
0.4999999999999981
 40
0.4999999999999981
 40
1.0
 40
1.0
 40
1.0
 40
1.0
 10
-26.0999999999907
 20
9.186403095504101
 30
0.0
 10
-26.1000000000002
 20
9.290777558983082
 30
0.0
 10
-26.12069534315034
 20
9.39562909282652
 30
0.0
 10
-26.20071682266112
 20
9.589426720630106
 30
0.0
 10
-26.25930911785057
 20
9.677660433406794
 30
0.0
 10
-26.48304886729293
 20
9.902031485414883
 30
0.0
 10
-26.68855369728221
 20
9.987492277489975
 30
0.0
 10
-26.9
 20
9.987492277489782
 30
0.0
  0
SPLINE
  5
B7
330
1F
100
AcDbEntity
  8
SK1
  6
Continuous
100
AcDbSpline
210
0.0
220
0.0
230
1.0
 70
     8
 71
     3
 72
    10
 73
     6
 74
     0
 42
0.0000000310333413
 43
0.0000000001
 12
1.0
 22
0.0
 32
0.0
 13
1.0
 23
0.0
 33
0.0
 40
0.0
 40
0.0
 40
0.0
 40
0.0
 40
0.5
 40
0.5
 40
1.0
 40
1.0
 40
1.0
 40
1.0
 10
0.0000000000000035
 20
18.29316822341729
 30
0.0
 10
-0.0000000000000017
 20
18.24100815999593
 30
0.0
 10
0.0212070447052209
 20
18.18911511689993
 30
0.0
 10
0.0958151616091869
 20
18.11440735919701
 30
0.0
 10
0.147168415998258
 20
18.09309270440772
 30
0.0
 10
0.2000000000000023
 20
18.09309270440852
 30
0.0
  0
LINE
  5
B8
330
1F
100
AcDbEntity
  8
SK1
  6
Continuous
100
AcDbLine
 10
0.2
 20
18.0930927044
 30
0.0
 11
3.6
 21
18.0930927044
 31
0.0
  0
LINE
  5
B9
330
1F
100
AcDbEntity
  8
SK1
  6
Continuous
100
AcDbLine
 10
3.6
 20
-18.0930925049
 30
0.0
 11
0.2
 21
-18.0930925049
 31
0.0
  0
SPLINE
  5
BA
330
1F
100
AcDbEntity
  8
SK1
  6
Continuous
100
AcDbSpline
210
0.0
220
0.0
230
1.0
 70
     8
 71
     3
 72
    10
 73
     6
 74
     0
 42
0.0000000310411957
 43
0.0000000001
 12
1.0
 22
0.0
 32
0.0
 13
1.0
 23
0.0
 33
0.0
 40
0.0
 40
0.0
 40
0.0
 40
0.0
 40
0.5
 40
0.5
 40
1.0
 40
1.0
 40
1.0
 40
1.0
 10
0.2000000000000023
 20
-18.09309250486714
 30
0.0
 10
0.147128639963523
 20
-18.09309250486713
 30
0.0
 10
0.0954125877402848
 20
-18.11481281954364
 30
0.0
 10
0.0216193684523282
 20
-18.18869949490781
 30
0.0
 10
-0.0000000000000035
 20
-18.24096260726551
 30
0.0
 10
0.0000000000000035
 20
-18.29316802387591
 30
0.0
  0
SPLINE
  5
BB
330
1F
100
AcDbEntity
  8
SK3
100
AcDbSpline
210
0.0
220
0.0
230
1.0
 70
     8
 71
     3
 72
    12
 73
     8
 74
     0
 42
0.0000000078291017
 43
0.0000000001
 12
1.0
 22
0.0
 32
0.0
 13
1.0
 23
0.0
 33
0.0
 40
0.0
 40
0.0
 40
0.0
 40
0.0
 40
0.2500000000000015
 40
0.2500000000000015
 40
0.500000000000003
 40
0.500000000000003
 40
1.0
 40
1.0
 40
1.0
 40
1.0
 10
-26.9
 20
-9.987492077948398
 30
0.0
 10
-26.79419103712437
 20
-9.987492077948398
 30
0.0
 10
-26.69034862442319
 20
-9.966607323806254
 30
0.0
 10
-26.49647241680502
 20
-9.886063072226374
 30
0.0
 10
-26.40768804957719
 20
-9.8264517347049
 30
0.0
 10
-26.18636085330006
 20
-9.604518327856391
 30
0.0
 10
-26.09999999999957
 20
-9.3953276740274
 30
0.0
 10
-26.0999999999906
 20
-9.186402895960555
 30
0.0
  0
LINE
  5
BC
330
1F
100
AcDbEntity
  8
SK3
100
AcDbLine
 10
-25.9
 20
-8.585452713
 30
0.0
 11
-13.7577350269
 21
-8.585452713
 31
0.0
  0
LINE
  5
BD
330
1F
100
AcDbEntity
  8
SK3
100
AcDbLine
 10
-9.7
 20
8.2648896937
 30
0.0
 11
3.6
 21
8.2648896937
 31
0.0
  0
LINE
  5
BE
330
1F
100
AcDbEntity
  8
SK1
  6
Continuous
100
AcDbLine
 10
0.0
 20
19.9937491229
 30
0.0
 11
-34.5556692404
 21
15.1352608931
 31
0.0
  0
SPLINE
  5
BF
330
1F
100
AcDbEntity
  8
SK3
100
AcDbSpline
210
0.0
220
0.0
230
1.0
 70
     8
 71
     3
 72
    10
 73
     6
 74
     0
 42
0.0000000248162474
 43
0.0000000001
 12
1.0
 22
0.0
 32
0.0
 13
1.0
 23
0.0
 33
0.0
 40
0.0
 40
0.0
 40
0.0
 40
0.0
 40
0.5
 40
0.5
 40
1.0
 40
1.0
 40
1.0
 40
1.0
 10
-34.9
 20
10.23779771449233
 30
0.0
 10
-34.9
 20
10.17256797650886
 30
0.0
 10
-34.87351579842591
 20
10.10766783232281
 30
0.0
 10
-34.78028104813191
 20
10.01418932301904
 30
0.0
 10
-34.7160693736593
 20
9.98749227748915
 30
0.0
 10
-34.65
 20
9.987492277489782
 30
0.0
  0
LINE
  5
C0
330
1F
100
AcDbEntity
  8
SK3
100
AcDbLine
 10
-34.65
 20
9.9874922775
 30
0.0
 11
-26.9
 21
9.9874922775
 31
0.0
  0
LINE
  5
C1
330
1F
100
AcDbEntity
  8
SK3
100
AcDbLine
 10
-26.1
 20
8.7857840716
 30
0.0
 11
-25.9
 21
8.5854529125
 31
0.0
  0
LINE
  5
C2
330
1F
100
AcDbEntity
  8
SK3
100
AcDbLine
 10
-13.7577350269
 20
8.5854529125
 30
0.0
 11
-13.7
 21
8.6856204
 31
0.0
  0
LINE
  5
C3
330
1F
100
AcDbEntity
  8
SK3
100
AcDbLine
 10
-13.7
 20
8.6856204
 30
0.0
 11
-9.7
 21
8.6856204
 31
0.0
  0
LINE
  5
C4
330
1F
100
AcDbEntity
  8
SK3
100
AcDbLine
 10
3.6
 20
-8.2648894942
 30
0.0
 11
-9.7
 21
-8.2648894942
 31
0.0
  0
LINE
  5
C5
330
1F
100
AcDbEntity
  8
SK3
100
AcDbLine
 10
-9.7
 20
-8.6856202005
 30
0.0
 11
-13.7
 21
-8.6856202005
 31
0.0
  0
LINE
  5
C6
330
1F
100
AcDbEntity
  8
SK3
100
AcDbLine
 10
-13.7
 20
-8.6856202005
 30
0.0
 11
-13.7577350269
 21
-8.585452713
 31
0.0
  0
LINE
  5
C7
330
1F
100
AcDbEntity
  8
SK3
100
AcDbLine
 10
-25.9
 20
-8.585452713
 30
0.0
 11
-26.1
 21
-8.7857838721
 31
0.0
  0
LINE
  5
C8
330
1F
100
AcDbEntity
  8
SK3
100
AcDbLine
 10
-26.9
 20
-9.9874920779
 30
0.0
 11
-34.65
 21
-9.9874920779
 31
0.0
  0
SPLINE
  5
C9
330
1F
100
AcDbEntity
  8
SK3
100
AcDbSpline
210
0.0
220
0.0
230
1.0
 70
     8
 71
     3
 72
    10
 73
     6
 74
     0
 42
0.000000024822512
 43
0.0000000001
 12
1.0
 22
0.0
 32
0.0
 13
1.0
 23
0.0
 33
0.0
 40
0.0
 40
0.0
 40
0.0
 40
0.0
 40
0.5
 40
0.5
 40
1.0
 40
1.0
 40
1.0
 40
1.0
 10
-34.65
 20
-9.987492077948398
 30
0.0
 10
-34.71611943783861
 20
-9.987492077948396
 30
0.0
 10
-34.78078222389852
 20
-10.01469500923726
 30
0.0
 10
-34.8730016317184
 20
-10.10714872259545
 30
0.0
 10
-34.9
 20
-10.17251227372674
 30
0.0
 10
-34.9
 20
-10.23779751495094
 30
0.0
  0
SPLINE
  5
CA
330
1F
100
AcDbEntity
  8
SK1
  6
Continuous
100
AcDbSpline
210
0.0
220
0.0
230
1.0
 70
     8
 71
     3
 72
    11
 73
     7
 74
     0
 42
0.0000000002865695
 43
0.0000000001
 12
1.0
 22
0.0
 32
0.0
 13
1.0
 23
0.0
 33
0.0
 40
0.0
 40
0.0
 40
0.0
 40
0.0
 40
0.7618911383664768
 40
0.7618911383664768
 40
0.7618911383664768
 40
1.0
 40
1.0
 40
1.0
 40
1.0
 10
-34.55566924038401
 20
-15.135260693561
 30
0.0
 10
-25.77980572205412
 20
-16.36930070579465
 30
0.0
 10
-17.00392039254534
 20
-17.60318560979613
 30
0.0
 10
-8.228024001919442
 20
-18.83699182843287
 30
0.0
 10
-5.485350417337734
 20
-19.22258522809541
 30
0.0
 10
-2.742675687370192
 20
-19.6081704808443
 30
0.0
 10
0.0000000000000035
 20
-19.99374892336152
 30
0.0
  0
LINE
  5
CB
330
1F
100
AcDbEntity
  8
SK1
  6
Continuous
100
AcDbLine
 10
11.1
 20
-12.0255100684
 30
0.0
 11
11.1
 21
-16.5142104486
 31
0.0
  0
LINE
  5
CC
330
1F
100
AcDbEntity
  8
SK1
  6
Continuous
100
AcDbLine
 10
10.975
 20
-11.4715657049
 30
0.0
 11
10.975
 21
11.4715659045
 31
0.0
  0
SPLINE
  5
CD
330
1F
100
AcDbEntity
  8
SK1
  6
Continuous
100
AcDbSpline
210
0.0
220
0.0
230
1.0
 70
     8
 71
     3
 72
    10
 73
     6
 74
     0
 42
0.0000000470101661
 43
0.0000000001
 12
1.0
 22
0.0
 32
0.0
 13
1.0
 23
0.0
 33
0.0
 40
0.0
 40
0.0
 40
0.0
 40
0.0
 40
0.5
 40
0.5
 40
1.0
 40
1.0
 40
1.0
 40
1.0
 10
10.97500000000577
 20
-11.47156570492297
 30
0.0
 10
11.01258802011283
 20
-11.45621360278106
 30
0.0
 10
11.04491579498158
 20
-11.43332114451194
 30
0.0
 10
11.08823725599735
 20
-11.38017051546448
 30
0.0
 10
11.1
 20
-11.34935517788714
 30
0.0
 10
11.1
 20
-11.31840328723051
 30
0.0
  0
SPLINE
  5
CE
330
1F
100
AcDbEntity
  8
SK1
  6
Continuous
100
AcDbSpline
210
0.0
220
0.0
230
1.0
 70
     8
 71
     3
 72
    10
 73
     6
 74
     0
 42
0.0000000470101661
 43
0.0000000001
 12
1.0
 22
0.0
 32
0.0
 13
1.0
 23
0.0
 33
0.0
 40
0.0
 40
0.0
 40
0.0
 40
0.0
 40
0.5
 40
0.5
 40
1.0
 40
1.0
 40
1.0
 40
1.0
 10
10.97500000000577
 20
-12.17867248610952
 30
0.0
 10
11.01258802011283
 20
-12.16332038396761
 30
0.0
 10
11.04491579498158
 20
-12.14042792569849
 30
0.0
 10
11.08823725599735
 20
-12.08727729665103
 30
0.0
 10
11.1
 20
-12.05646195907369
 30
0.0
 10
11.1
 20
-12.02551006841706
 30
0.0
  0
LINE
  5
CF
330
1F
100
AcDbEntity
  8
SK1
  6
Continuous
100
AcDbLine
 10
4.1
 20
-13.9205488036
 30
0.0
 11
4.1
 21
13.9205490032
 31
0.0
  0
LINE
  5
D0
330
1F
100
AcDbEntity
  8
SK1
  6
Continuous
100
AcDbLine
 10
4.5392304845
 20
-14.0999182118
 30
0.0
 11
4.5392304845
 21
14.0999184114
 31
0.0
  0
LINE
  5
D1
330
1F
100
AcDbEntity
  8
SK1
  6
Continuous
100
AcDbLine
 10
3.9
 20
-12.440194983
 30
0.0
 11
3.9
 21
12.4401951826
 31
0.0
  0
LINE
  5
D2
330
1F
100
AcDbEntity
  8
SK3
100
AcDbLine
 10
-14.8547005384
 20
-4.370851234
 30
0.0
 11
-14.8547005384
 21
-3.4472814486
 31
0.0
  0
LINE
  5
D3
330
1F
100
AcDbEntity
  8
SK3
100
AcDbLine
 10
-24.0
 20
-4.370851234
 30
0.0
 11
-24.0
 21
-3.4472814486
 31
0.0
  0
LINE
  5
D4
330
1F
100
AcDbEntity
  8
SK1
  6
Continuous
100
AcDbLine
 10
11.1
 20
12.025510268
 30
0.0
 11
11.1
 21
16.5142106482
 31
0.0
  0
LINE
  5
D5
330
1F
100
AcDbEntity
  8
SK1
  6
Continuous
100
AcDbLine
 10
0.0
 20
-13.7841620252
 30
0.0
 11
0.0
 21
-0.4999999002
 31
0.0
  0
LINE
  5
D6
330
1F
100
AcDbEntity
  8
SK3
100
AcDbLine
 10
-26.1
 20
-6.1422143626
 30
0.0
 11
-26.1
 21
-0.4999999002
 31
0.0
  0
LINE
  5
D7
330
1F
100
AcDbEntity
  8
SK3
100
AcDbLine
 10
-13.7
 20
-5.7881075227
 30
0.0
 11
-13.7
 21
-0.4999999002
 31
0.0
  0
LINE
  5
D8
330
1F
100
AcDbEntity
  8
SK3
100
AcDbLine
 10
-9.7
 20
-5.7881075227
 30
0.0
 11
-9.7
 21
-0.4999999002
 31
0.0
  0
LINE
  5
D9
330
1F
100
AcDbEntity
  8
SK1
  6
Continuous
100
AcDbLine
 10
0.2
 20
-13.1473017642
 30
0.0
 11
0.2
 21
-18.0930925049
 31
0.0
  0
LINE
  5
DA
330
1F
100
AcDbEntity
  8
SK3
100
AcDbLine
 10
-31.9
 20
-10.6127460003
 30
0.0
 11
-31.9
 21
-6.7086699555
 31
0.0
  0
LINE
  5
DB
330
1F
100
AcDbEntity
  8
SK1
  6
Continuous
100
AcDbLine
 10
-31.9
 20
-11.3198527815
 30
0.0
 11
-31.9
 21
-10.6127460003
 31
0.0
  0
SPLINE
  5
DC
330
1F
100
AcDbEntity
  8
SK1
  6
Continuous
100
AcDbSpline
210
0.0
220
0.0
230
1.0
 70
     8
 71
     3
 72
    14
 73
    10
 74
     0
 42
0.0000000003119418
 43
0.0000000001
 12
1.0
 22
0.0
 32
0.0
 13
1.0
 23
0.0
 33
0.0
 40
0.0
 40
0.0
 40
0.0
 40
0.0
 40
0.123736372014399
 40
0.123736372014399
 40
0.123736372014399
 40
0.9996374413923926
 40
0.9996374413923926
 40
0.9996374413923926
 40
1.0
 40
1.0
 40
1.0
 40
1.0
 10
-31.9
 20
-11.31985278147363
 30
0.0
 10
-30.58427288194194
 20
-11.45067422770577
 30
0.0
 10
-29.2685452904581
 20
-11.58149329323308
 30
0.0
 10
-27.95281727300299
 20
-11.71231021657545
 30
0.0
 10
-18.63908390061423
 20
-12.6383328659705
 30
0.0
 10
-9.325329980843858
 20
-13.5642521858668
 30
0.0
 10
-0.0115656398340935
 20
-14.49011908409472
 30
0.0
 10
-0.0077104265579601
 20
-14.49050232487979
 30
0.0
 10
-0.0038552132799255
 20
-14.49088556565531
 30
0.0
 10
0.0000000000000035
 20
-14.49126880642127
 30
0.0
  0
SPLINE
  5
DD
330
1F
100
AcDbEntity
  8
SK3
100
AcDbSpline
210
0.0
220
0.0
230
1.0
 70
     8
 71
     3
 72
    10
 73
     6
 74
     0
 42
0.0000000180462539
 43
0.0000000001
 12
1.0
 22
0.0
 32
0.0
 13
1.0
 23
0.0
 33
0.0
 40
0.0
 40
0.0
 40
0.0
 40
0.0
 40
0.5
 40
0.5
 40
1.0
 40
1.0
 40
1.0
 40
1.0
 10
11.1
 20
-6.481048700857579
 30
0.0
 10
11.10000000000001
 20
-6.407328195142573
 30
0.0
 10
11.05659769537404
 20
-6.332887329142901
 30
0.0
 10
10.9087475969723
 20
-6.228281519055577
 30
0.0
 10
10.8042804712563
 20
-6.197712768454925
 30
0.0
 10
10.7
 20
-6.197712768454926
 30
0.0
  0
LINE
  5
DE
330
1F
100
AcDbEntity
  8
SK3
100
AcDbLine
 10
10.7
 20
-6.1977127685
 30
0.0
 11
-9.7
 21
-6.1977127685
 31
0.0
  0
LINE
  5
DF
330
1F
100
AcDbEntity
  8
SK3
100
AcDbLine
 10
-9.7
 20
-6.1977127685
 30
0.0
 11
-9.7
 21
-6.4952143039
 31
0.0
  0
LINE
  5
E0
330
1F
100
AcDbEntity
  8
SK3
100
AcDbLine
 10
-9.7
 20
-6.4952143039
 30
0.0
 11
-13.7
 21
-6.4952143039
 31
0.0
  0
SPLINE
  5
E1
330
1F
100
AcDbEntity
  8
SK3
100
AcDbSpline
210
0.0
220
0.0
230
1.0
 70
     8
 71
     3
 72
     8
 73
     4
 74
     0
 42
0.0000000054701609
 43
0.0000000001
 12
1.0
 22
0.0
 32
0.0
 13
1.0
 23
0.0
 33
0.0
 40
0.0
 40
0.0
 40
0.0
 40
0.0
 40
1.0
 40
1.0
 40
1.0
 40
1.0
 10
-13.7
 20
-6.495214303936213
 30
0.0
 10
-14.08504322091689
 20
-6.022853858062362
 30
0.0
 10
-14.46998616849007
 20
-5.550452504511029
 30
0.0
 10
-14.85470053837925
 20
-5.077958015229668
 30
0.0
  0
LINE
  5
E2
330
1F
100
AcDbEntity
  8
SK3
100
AcDbLine
 10
-14.8547005384
 20
-5.0779580152
 30
0.0
 11
-24.0
 21
-5.0779580152
 31
0.0
  0
SPLINE
  5
E3
330
1F
100
AcDbEntity
  8
SK3
100
AcDbSpline
210
0.0
220
0.0
230
1.0
 70
     8
 71
     3
 72
     8
 73
     4
 74
     0
 42
0.0000000038853222
 43
0.0000000001
 12
1.0
 22
0.0
 32
0.0
 13
1.0
 23
0.0
 33
0.0
 40
0.0
 40
0.0
 40
0.0
 40
0.0
 40
1.0
 40
1.0
 40
1.0
 40
1.0
 10
-24.0
 20
-5.077958015229667
 30
0.0
 10
-24.69976564819389
 20
-5.574150669796054
 30
0.0
 10
-25.3998218623412
 20
-6.070138897748299
 30
0.0
 10
-26.1
 20
-6.566040715357137
 30
0.0
  0
LINE
  5
E4
330
1F
100
AcDbEntity
  8
SK3
100
AcDbLine
 10
-26.1
 20
-6.5660407154
 30
0.0
 11
-26.1
 21
-6.8493211438
 31
0.0
  0
LINE
  5
E5
330
1F
100
AcDbEntity
  8
SK3
100
AcDbLine
 10
-26.9
 20
-7.4157767367
 30
0.0
 11
-31.9
 21
-7.4157767367
 31
0.0
  0
SPLINE
  5
E6
330
1F
100
AcDbEntity
  8
SK3
100
AcDbSpline
210
0.0
220
0.0
230
1.0
 70
     8
 71
     3
 72
    12
 73
     8
 74
     0
 42
0.0000000090799545
 43
0.0000000001
 12
1.0
 22
0.0
 32
0.0
 13
1.0
 23
0.0
 33
0.0
 40
0.0
 40
0.0
 40
0.0
 40
0.0
 40
0.2499999999999992
 40
0.2499999999999992
 40
0.4999999999999984
 40
0.4999999999999984
 40
1.0
 40
1.0
 40
1.0
 40
1.0
 10
-26.89999999999902
 20
-6.70866995555475
 30
0.0
 10
-26.79562326564677
 20
-6.708669955548682
 30
0.0
 10
-26.69080393894177
 20
-6.6939787299707
 30
0.0
 10
-26.49706673944959
 20
-6.637180325934127
 30
0.0
 10
-26.40711697978895
 20
-6.594465555194875
 30
0.0
 10
-26.18631127012382
 20
-6.43768440547748
 30
0.0
 10
-26.09999999999998
 20
-6.289934172015637
 30
0.0
 10
-26.1
 20
-6.14221436263078
 30
0.0
  0
LINE
  5
E7
330
1F
100
AcDbEntity
  8
SK1
  6
Continuous
100
AcDbLine
 10
10.975
 20
-11.4715657049
 30
0.0
 11
4.5392304845
 21
-14.0999182118
 31
0.0
  0
LINE
  5
E8
330
1F
100
AcDbEntity
  8
SK1
  6
Continuous
100
AcDbLine
 10
4.5392304845
 20
-14.0999182118
 30
0.0
 11
4.1
 21
-13.9205488036
 31
0.0
  0
SPLINE
  5
E9
330
1F
100
AcDbEntity
  8
SK1
  6
Continuous
100
AcDbSpline
210
0.0
220
0.0
230
1.0
 70
     8
 71
     3
 72
    10
 73
     6
 74
     0
 42
0.0000000360999878
 43
0.0000000001
 12
1.0
 22
0.0
 32
0.0
 13
1.0
 23
0.0
 33
0.0
 40
0.0
 40
0.0
 40
0.0
 40
0.0
 40
0.5000000000000001
 40
0.5000000000000001
 40
1.0
 40
1.0
 40
1.0
 40
1.0
 10
4.100000000000003
 20
-12.58166973925213
 30
0.0
 10
4.100000000000003
 20
-12.54438502777034
 30
0.0
 10
4.078265189854601
 20
-12.50767722182644
 30
0.0
 10
4.00448373512232
 20
-12.45552066048857
 30
0.0
 10
3.952819149946538
 20
-12.44019498301161
 30
0.0
 10
3.900000000000004
 20
-12.44019498301161
 30
0.0
  0
LINE
  5
EA
330
1F
100
AcDbEntity
  8
SK1
  6
Continuous
100
AcDbLine
 10
3.9
 20
-12.440194983
 30
0.0
 11
0.2
 21
-12.440194983
 31
0.0
  0
SPLINE
  5
EB
330
1F
100
AcDbEntity
  8
SK1
  6
Continuous
100
AcDbSpline
210
0.0
220
0.0
230
1.0
 70
     8
 71
     3
 72
    10
 73
     6
 74
     0
 42
0.0000000361022316
 43
0.0000000001
 12
1.0
 22
0.0
 32
0.0
 13
1.0
 23
0.0
 33
0.0
 40
0.0
 40
0.0
 40
0.0
 40
0.0
 40
0.5
 40
0.5
 40
1.0
 40
1.0
 40
1.0
 40
1.0
 10
0.2000000000000023
 20
-12.44019498301161
 30
0.0
 10
0.1478708680288168
 20
-12.4401949830116
 30
0.0
 10
0.095912229285117
 20
-12.4552463025126
 30
0.0
 10
0.0213686531753167
 20
-12.50793051096237
 30
0.0
 10
-0.000000000000111
 20
-12.54478929872324
 30
0.0
 10
-0.0000000000024737
 20
-12.58166973925233
 30
0.0
  0
SPLINE
  5
EC
330
1F
100
AcDbEntity
  8
SK3
100
AcDbSpline
210
0.0
220
0.0
230
1.0
 70
     8
 71
     3
 72
    12
 73
     8
 74
     0
 42
0.0000000090799545
 43
0.0000000001
 12
1.0
 22
0.0
 32
0.0
 13
1.0
 23
0.0
 33
0.0
 40
0.0
 40
0.0
 40
0.0
 40
0.0
 40
0.2499999999999992
 40
0.2499999999999992
 40
0.4999999999999984
 40
0.4999999999999984
 40
1.0
 40
1.0
 40
1.0
 40
1.0
 10
-26.89999999999902
 20
-7.415776736741299
 30
0.0
 10
-26.79562326564677
 20
-7.415776736735229
 30
0.0
 10
-26.69080393894177
 20
-7.401085511157246
 30
0.0
 10
-26.49706673944959
 20
-7.344287107120675
 30
0.0
 10
-26.40711697978895
 20
-7.301572336381422
 30
0.0
 10
-26.18631127012382
 20
-7.144791186664027
 30
0.0
 10
-26.09999999999998
 20
-6.997040953202184
 30
0.0
 10
-26.1
 20
-6.849321143817328
 30
0.0
  0
LINE
  5
ED
330
1F
100
AcDbEntity
  8
SK1
  6
Continuous
100
AcDbLine
 10
11.1
 20
-11.3184032872
 30
0.0
 11
11.1
 21
-12.0255100684
 31
0.0
  0
LINE
  5
EE
330
1F
100
AcDbEntity
  8
SK1
  6
Continuous
100
AcDbLine
 10
10.975
 20
-12.1786724861
 30
0.0
 11
4.5392304845
 21
-14.807024993
 31
0.0
  0
LINE
  5
EF
330
1F
100
AcDbEntity
  8
SK1
  6
Continuous
100
AcDbLine
 10
4.5392304845
 20
-14.807024993
 30
0.0
 11
4.1
 21
-14.6276555848
 31
0.0
  0
LINE
  5
F0
330
1F
100
AcDbEntity
  8
SK1
  6
Continuous
100
AcDbLine
 10
4.1
 20
-14.6276555848
 30
0.0
 11
4.1
 21
-13.9205488036
 31
0.0
  0
SPLINE
  5
F1
330
1F
100
AcDbEntity
  8
SK1
  6
Continuous
100
AcDbSpline
210
0.0
220
0.0
230
1.0
 70
     8
 71
     3
 72
    10
 73
     6
 74
     0
 42
0.0000000360999878
 43
0.0000000001
 12
1.0
 22
0.0
 32
0.0
 13
1.0
 23
0.0
 33
0.0
 40
0.0
 40
0.0
 40
0.0
 40
0.0
 40
0.5
 40
0.5
 40
1.0
 40
1.0
 40
1.0
 40
1.0
 10
4.100000000000003
 20
-13.28877652043868
 30
0.0
 10
4.100000000000003
 20
-13.25149180895689
 30
0.0
 10
4.078265189854601
 20
-13.21478400301299
 30
0.0
 10
4.00448373512232
 20
-13.16262744167512
 30
0.0
 10
3.952819149946538
 20
-13.14730176419816
 30
0.0
 10
3.900000000000004
 20
-13.14730176419816
 30
0.0
  0
LINE
  5
F2
330
1F
100
AcDbEntity
  8
SK1
  6
Continuous
100
AcDbLine
 10
3.9
 20
-13.1473017642
 30
0.0
 11
0.2
 21
-13.1473017642
 31
0.0
  0
SPLINE
  5
F3
330
1F
100
AcDbEntity
  8
SK1
  6
Continuous
100
AcDbSpline
210
0.0
220
0.0
230
1.0
 70
     8
 71
     3
 72
    10
 73
     6
 74
     0
 42
0.0000000361022316
 43
0.0000000001
 12
1.0
 22
0.0
 32
0.0
 13
1.0
 23
0.0
 33
0.0
 40
0.0
 40
0.0
 40
0.0
 40
0.0
 40
0.5
 40
0.5
 40
1.0
 40
1.0
 40
1.0
 40
1.0
 10
0.2000000000000023
 20
-13.14730176419816
 30
0.0
 10
0.1478708680288168
 20
-13.14730176419815
 30
0.0
 10
0.0959122292851153
 20
-13.16235308369914
 30
0.0
 10
0.0213686531753167
 20
-13.21503729214892
 30
0.0
 10
-0.000000000000111
 20
-13.25189607990979
 30
0.0
 10
-0.0000000000024737
 20
-13.28877652043888
 30
0.0
  0
LINE
  5
F4
330
1F
100
AcDbEntity
  8
SK1
  6
Continuous
100
AcDbLine
 10
0.0
 20
-13.7841620252
 30
0.0
 11
0.0
 21
-14.4912688064
 31
0.0
  0
LINE
  5
F5
330
1F
100
AcDbEntity
  8
SK3
100
AcDbLine
 10
-26.9
 20
-6.7086699556
 30
0.0
 11
-31.9
 21
-6.7086699555
 31
0.0
  0
SPLINE
  5
F6
330
1F
100
AcDbEntity
  8
SK1
  6
Continuous
100
AcDbSpline
210
0.0
220
0.0
230
1.0
 70
     8
 71
     3
 72
    14
 73
    10
 74
     0
 42
0.0000000003119418
 43
0.0000000001
 12
1.0
 22
0.0
 32
0.0
 13
1.0
 23
0.0
 33
0.0
 40
0.0
 40
0.0
 40
0.0
 40
0.0
 40
0.123736372014399
 40
0.123736372014399
 40
0.123736372014399
 40
0.9996374413923926
 40
0.9996374413923926
 40
0.9996374413923926
 40
1.0
 40
1.0
 40
1.0
 40
1.0
 10
-31.9
 20
-10.61274600028708
 30
0.0
 10
-30.58427288194194
 20
-10.74356744651922
 30
0.0
 10
-29.2685452904581
 20
-10.87438651204653
 30
0.0
 10
-27.95281727300299
 20
-11.0052034353889
 30
0.0
 10
-18.63908390061423
 20
-11.93122608478396
 30
0.0
 10
-9.325329980843858
 20
-12.85714540468025
 30
0.0
 10
-0.0115656398340935
 20
-13.78301230290817
 30
0.0
 10
-0.0077104265579601
 20
-13.78339554369324
 30
0.0
 10
-0.0038552132799255
 20
-13.78377878446876
 30
0.0
 10
0.0000000000000035
 20
-13.78416202523472
 30
0.0
  0
SPLINE
  5
F7
330
1F
100
AcDbEntity
  8
SK3
100
AcDbSpline
210
0.0
220
0.0
230
1.0
 70
     8
 71
     3
 72
    10
 73
     6
 74
     0
 42
0.0000000180462539
 43
0.0000000001
 12
1.0
 22
0.0
 32
0.0
 13
1.0
 23
0.0
 33
0.0
 40
0.0
 40
0.0
 40
0.0
 40
0.0
 40
0.5
 40
0.5
 40
1.0
 40
1.0
 40
1.0
 40
1.0
 10
11.1
 20
-5.773941919671032
 30
0.0
 10
11.10000000000001
 20
-5.700221413956021
 30
0.0
 10
11.05659769537404
 20
-5.625780547956352
 30
0.0
 10
10.9087475969723
 20
-5.52117473786903
 30
0.0
 10
10.8042804712563
 20
-5.490605987268378
 30
0.0
 10
10.7
 20
-5.490605987268379
 30
0.0
  0
LINE
  5
F8
330
1F
100
AcDbEntity
  8
SK3
100
AcDbLine
 10
10.7
 20
-5.4906059873
 30
0.0
 11
-9.7
 21
-5.4906059873
 31
0.0
  0
LINE
  5
F9
330
1F
100
AcDbEntity
  8
SK3
100
AcDbLine
 10
-9.7
 20
-5.7881075227
 30
0.0
 11
-13.7
 21
-5.7881075227
 31
0.0
  0
SPLINE
  5
FA
330
1F
100
AcDbEntity
  8
SK3
100
AcDbSpline
210
0.0
220
0.0
230
1.0
 70
     8
 71
     3
 72
     8
 73
     4
 74
     0
 42
0.0000000054701609
 43
0.0000000001
 12
1.0
 22
0.0
 32
0.0
 13
1.0
 23
0.0
 33
0.0
 40
0.0
 40
0.0
 40
0.0
 40
0.0
 40
1.0
 40
1.0
 40
1.0
 40
1.0
 10
-13.7
 20
-5.788107522749665
 30
0.0
 10
-14.08504322091689
 20
-5.315747076875814
 30
0.0
 10
-14.46998616849007
 20
-4.843345723324482
 30
0.0
 10
-14.85470053837925
 20
-4.37085123404312
 30
0.0
  0
LINE
  5
FB
330
1F
100
AcDbEntity
  8
SK3
100
AcDbLine
 10
-14.8547005384
 20
-4.370851234
 30
0.0
 11
-24.0
 21
-4.370851234
 31
0.0
  0
SPLINE
  5
FC
330
1F
100
AcDbEntity
  8
SK3
100
AcDbSpline
210
0.0
220
0.0
230
1.0
 70
     8
 71
     3
 72
     8
 73
     4
 74
     0
 42
0.0000000038853222
 43
0.0000000001
 12
1.0
 22
0.0
 32
0.0
 13
1.0
 23
0.0
 33
0.0
 40
0.0
 40
0.0
 40
0.0
 40
0.0
 40
1.0
 40
1.0
 40
1.0
 40
1.0
 10
-24.0
 20
-4.370851234043119
 30
0.0
 10
-24.69976564819389
 20
-4.867043888609507
 30
0.0
 10
-25.3998218623412
 20
-5.363032116561751
 30
0.0
 10
-26.1
 20
-5.858933934170588
 30
0.0
  0
LINE
  5
FD
330
1F
100
AcDbEntity
  8
SK3
100
AcDbLine
 10
-13.7577350269
 20
-0.4999999002
 30
0.0
 11
-13.7577350269
 21
-0.6143602295
 31
0.0
  0
LINE
  5
FE
330
1F
100
AcDbEntity
  8
SK3
100
AcDbLine
 10
-25.9
 20
0.5000000998
 30
0.0
 11
-25.9
 21
0.6143604291
 31
0.0
  0
LINE
  5
FF
330
1F
100
AcDbEntity
  8
SK1
  6
Continuous
100
AcDbLine
 10
-34.5556692404
 20
-0.4999999002
 30
0.0
 11
-34.5556692404
 21
-15.1352606936
 31
0.0
  0
LINE
  5
100
330
1F
100
AcDbEntity
  8
SK1
  6
Continuous
100
AcDbLine
 10
-34.9
 20
0.5000000998
 30
0.0
 11
-34.9
 21
14.7389317718
 31
0.0
  0
LINE
  5
101
330
1F
100
AcDbEntity
  8
SK1
  6
Continuous
100
AcDbLine
 10
0.0
 20
0.5000000998
 30
0.0
 11
0.0
 21
13.7841622248
 31
0.0
  0
LINE
  5
102
330
1F
100
AcDbEntity
  8
SK3
100
AcDbLine
 10
-26.1
 20
0.5000000998
 30
0.0
 11
-26.1
 21
6.1422145622
 31
0.0
  0
LINE
  5
103
330
1F
100
AcDbEntity
  8
SK3
100
AcDbLine
 10
-13.7
 20
0.5000000998
 30
0.0
 11
-13.7
 21
5.7881077223
 31
0.0
  0
LINE
  5
104
330
1F
100
AcDbEntity
  8
SK3
100
AcDbLine
 10
-9.7
 20
0.5000000998
 30
0.0
 11
-9.7
 21
5.7881077223
 31
0.0
  0
LINE
  5
105
330
1F
100
AcDbEntity
  8
SK1
  6
Continuous
100
AcDbLine
 10
0.2
 20
-0.4999999002
 30
0.0
 11
0.2
 21
-12.440194983
 31
0.0
  0
LINE
  5
106
330
1F
100
AcDbEntity
  8
SK1
  6
Continuous
100
AcDbLine
 10
3.6
 20
0.5000000998
 30
0.0
 11
3.6
 21
-0.4999999002
 31
0.0
  0
LINE
  5
107
330
1F
100
AcDbEntity
  8
SK1
  6
Continuous
100
AcDbLine
 10
0.0
 20
-0.4999999002
 30
0.0
 11
-34.5556692404
 21
-0.4999999002
 31
0.0
  0
LINE
  5
108
330
1F
100
AcDbEntity
  8
SK1
  6
Continuous
100
AcDbLine
 10
-34.5556692404
 20
-0.4999999002
 30
0.0
 11
-34.9
 21
-0.4999999002
 31
0.0
  0
LINE
  5
109
330
1F
100
AcDbEntity
  8
SK1
  6
Continuous
100
AcDbLine
 10
0.0
 20
-0.4999999002
 30
0.0
 11
0.2
 21
-0.4999999002
 31
0.0
  0
LINE
  5
10A
330
1F
100
AcDbEntity
  8
SK1
  6
Continuous
100
AcDbLine
 10
0.2
 20
-0.4999999002
 30
0.0
 11
3.6
 21
-0.4999999002
 31
0.0
  0
LINE
  5
10B
330
1F
100
AcDbEntity
  8
SK1
  6
Continuous
100
AcDbLine
 10
0.0
 20
0.5000000998
 30
0.0
 11
0.2
 21
0.5000000998
 31
0.0
  0
LINE
  5
10C
330
1F
100
AcDbEntity
  8
SK1
  6
Continuous
100
AcDbLine
 10
0.2
 20
0.5000000998
 30
0.0
 11
3.6
 21
0.5000000998
 31
0.0
  0
LINE
  5
10D
330
1F
100
AcDbEntity
  8
SK1
  6
Continuous
100
AcDbLine
 10
0.0
 20
0.5000000998
 30
0.0
 11
-34.5556692404
 21
0.5000000998
 31
0.0
  0
LINE
  5
10E
330
1F
100
AcDbEntity
  8
SK1
  6
Continuous
100
AcDbLine
 10
-34.5556692404
 20
0.5000000998
 30
0.0
 11
-34.9
 21
0.5000000998
 31
0.0
  0
LINE
  5
10F
330
1F
100
AcDbEntity
  8
SK1
  6
Continuous
100
AcDbLine
 10
3.6
 20
-18.0999999002
 30
0.0
 11
3.9
 21
-18.0999999002
 31
0.0
  0
ARC
  5
110
330
1F
100
AcDbEntity
  8
SK1
  6
Continuous
100
AcDbCircle
 10
3.9
 20
-18.2999999002
 30
0.0
 40
0.1999999999999991
100
AcDbArc
 50
0.0
 51
90.0
  0
LINE
  5
111
330
1F
100
AcDbEntity
  8
SK3
100
AcDbLine
 10
3.6
 20
-8.2799999002
 30
0.0
 11
10.7
 21
-8.2799999002
 31
0.0
  0
LINE
  5
112
330
1F
100
AcDbEntity
  8
SK1
  6
Continuous
100
AcDbLine
 10
4.5392304845
 20
-20.4464100617
 30
0.0
 11
10.975
 21
-16.7307167996
 31
0.0
  0
LINE
  5
113
330
1F
100
AcDbEntity
  8
SK1
  6
Continuous
100
AcDbLine
 10
4.1
 20
-20.1928202233
 30
0.0
 11
4.5392304845
 21
-20.4464100617
 31
0.0
  0
ARC
  5
114
330
1F
100
AcDbEntity
  8
SK3
100
AcDbCircle
 10
10.7
 20
-8.6799999002
 30
0.0
 40
0.3999999999999999
100
AcDbArc
 50
0.0
 51
90.0
  0
ARC
  5
115
330
1F
100
AcDbEntity
  8
SK1
  6
Continuous
100
AcDbCircle
 10
10.85
 20
-16.5142104486
 30
0.0
 40
0.2499999999999996
100
AcDbArc
 50
300.0
 51
0.0
  0
ARC
  5
116
330
1F
100
AcDbEntity
  8
SK1
  6
Continuous
100
AcDbCircle
 10
10.85
 20
16.5142106481
 30
0.0
 40
0.2500000000000002
100
AcDbArc
 50
0.0
 51
60.0
  0
ARC
  5
117
330
1F
100
AcDbEntity
  8
SK3
100
AcDbCircle
 10
10.7
 20
8.6800000998
 30
0.0
 40
0.4000000000000002
100
AcDbArc
 50
270.0
 51
0.0
  0
LINE
  5
118
330
1F
100
AcDbEntity
  8
SK1
  6
Continuous
100
AcDbLine
 10
4.5392304845
 20
20.4464102613
 30
0.0
 11
4.1
 21
20.1928204228
 31
0.0
  0
LINE
  5
119
330
1F
100
AcDbEntity
  8
SK1
  6
Continuous
100
AcDbLine
 10
10.975
 20
16.7307169991
 30
0.0
 11
4.5392304845
 21
20.4464102613
 31
0.0
  0
ARC
  5
11A
330
1F
100
AcDbEntity
  8
SK1
  6
Continuous
100
AcDbCircle
 10
3.9
 20
18.3000000998
 30
0.0
 40
0.1999999999999994
100
AcDbArc
 50
270.0
 51
0.0
  0
LINE
  5
11B
330
1F
100
AcDbEntity
  8
SK3
100
AcDbLine
 10
10.7
 20
8.2800000998
 30
0.0
 11
3.6
 21
8.2800000998
 31
0.0
  0
LINE
  5
11C
330
1F
100
AcDbEntity
  8
SK1
  6
Continuous
100
AcDbLine
 10
3.9
 20
18.1000000998
 30
0.0
 11
3.6
 21
18.1000000998
 31
0.0
  0
LINE
  5
11E
330
1F
100
AcDbEntity
  8
SK4
  6
Continuous
100
AcDbLine
 10
11.1
 20
0.0000000998
 30
0.0
 11
-34.9
 21
0.0000000998
 31
0.0
  0
DIMENSION
  5
133
330
1F
100
AcDbEntity
  8
SK2
  6
Continuous
 62
   136
100
AcDbDimension
  2
DMBLK65
 10
21.8004235223
 20
-8.2799999002
 30
0.0
 11
21.8004235223
 21
-0.0000001822
 31
0.0
 70
   161
  1
\A1;ø <>
 71
     5
 42
-1.0
  3
DIN
100
AcDbAlignedDimension
 13
10.7
 23
-8.2799999002
 33
0.0
 14
10.7
 24
8.2800000998
 34
0.0
  0
DIMENSION
  5
13E
330
1F
100
AcDbEntity
  8
SK2
  6
Continuous
 62
   136
100
AcDbDimension
  2
DMBLK66
 10
11.1
 20
-26.7446734361
 30
0.0
 11
5.5499998853
 21
-26.7446734361
 31
0.0
 70
   160
  1
\A1;<>
 71
     5
 42
-1.0
  3
DIN
100
AcDbAlignedDimension
 13
0.0
 23
-19.9937489234
 33
0.0
 14
11.1
 24
-12.0255100684
 34
0.0
100
AcDbRotatedDimension
  0
DIMENSION
  5
148
330
1F
100
AcDbEntity
  8
SK2
  6
Continuous
 62
   136
100
AcDbDimension
  2
DMBLK67
 10
-43.0529341102
 20
-19.9937489234
 30
0.0
 11
-43.0529341102
 21
-0.0000004075
 31
0.0
 70
   161
  1
\A1;ø <>
 71
     5
 42
-1.0
  3
DIN
100
AcDbAlignedDimension
 13
0.0
 23
-19.9937489234
 33
0.0
 14
0.0
 24
19.9937491229
 34
0.0
1001
ACAD
1000
DSTYLE
1002
{
1070
   271
1070
     1
1070
   272
1070
     1
1070
     0
1002
}
  0
DIMENSION
  5
153
330
1F
100
AcDbEntity
  8
SK2
  6
Continuous
 62
   136
100
AcDbDimension
  2
DMBLK68
 10
-34.9
 20
27.0277714946
 30
0.0
 11
-11.9000000447
 21
27.0277714946
 31
0.0
 70
   160
  1
\A1;<>
 71
     5
 42
-1.0
  3
DIN
100
AcDbAlignedDimension
 13
11.1
 23
16.5142106482
 33
0.0
 14
-34.9
 24
14.7389317718
 34
0.0
100
AcDbRotatedDimension
  0
ENDSEC
  0
SECTION
  2
OBJECTS
  0
DICTIONARY
  5
C
330
0
100
AcDbDictionary
281
     1
  3
ACAD_GROUP
350
D
  3
ACAD_LAYOUT
350
1A
  3
ACAD_MATERIAL
350
3B
  3
ACAD_MLEADERSTYLE
350
15F
  3
ACAD_MLINESTYLE
350
17
  3
ACAD_PLOTSETTINGS
350
19
  3
ACAD_PLOTSTYLENAME
350
E
  3
ACAD_VISUALSTYLE
350
2A
  3
AcDbVariableDictionary
350
15D
  0
DICTIONARY
  5
D
102
{ACAD_REACTORS
330
C
102
}
330
C
100
AcDbDictionary
281
     1
  0
DICTIONARY
  5
1A
102
{ACAD_REACTORS
330
C
102
}
330
C
100
AcDbDictionary
281
     1
  3
Layout1
350
1E
  3
Model
350
22
  0
DICTIONARY
  5
3B
102
{ACAD_REACTORS
330
C
102
}
330
C
100
AcDbDictionary
281
     1
  3
ByBlock
350
3D
  3
ByLayer
350
3C
  3
Global
350
3E
  0
DICTIONARY
  5
15F
102
{ACAD_REACTORS
330
C
102
}
330
C
100
AcDbDictionary
281
     1
  0
DICTIONARY
  5
17
102
{ACAD_REACTORS
330
C
102
}
330
C
100
AcDbDictionary
281
     1
  3
Standard
350
18
  0
DICTIONARY
  5
19
102
{ACAD_REACTORS
330
C
102
}
330
C
100
AcDbDictionary
281
     1
  0
ACDBDICTIONARYWDFLT
  5
E
102
{ACAD_REACTORS
330
C
102
}
330
C
100
AcDbDictionary
281
     1
  3
Normal
350
F
100
AcDbDictionaryWithDefault
340
F
  0
DICTIONARY
  5
2A
102
{ACAD_REACTORS
330
C
102
}
330
C
100
AcDbDictionary
281
     1
  3
2dWireframe
350
2F
  3
3D Hidden
350
31
  3
3dWireframe
350
30
  3
Basic
350
32
  3
Brighten
350
36
  3
ColorChange
350
3A
  3
Conceptual
350
34
  3
Dim
350
35
  3
Facepattern
350
39
  3
Flat
350
2B
  3
FlatWithEdges
350
2C
  3
Gouraud
350
2D
  3
GouraudWithEdges
350
2E
  3
Linepattern
350
38
  3
Realistic
350
33
  3
Thicken
350
37
  0
DICTIONARY
  5
15D
102
{ACAD_REACTORS
330
C
102
}
330
C
100
AcDbDictionary
281
     1
  3
DIMASSOC
350
162
  3
HIDETEXT
350
163
  3
PSOLHEIGHT
350
161
  3
PSOLWIDTH
350
160
  0
LAYOUT
  5
1E
102
{ACAD_REACTORS
330
1A
102
}
330
1A
100
AcDbPlotSettings
  1

  2
none_device
  4

  6

 40
0.0
 41
0.0
 42
0.0
 43
0.0
 44
0.0
 45
0.0
 46
0.0
 47
0.0
 48
0.0
 49
0.0
140
0.0
141
0.0
142
1.0
143
1.0
 70
   688
 72
     0
 73
     0
 74
     5
  7

 75
    16
147
1.0
148
0.0
149
0.0
100
AcDbLayout
  1
Layout1
 70
     1
 71
     1
 10
0.0
 20
0.0
 11
210.0
 21
297.0
 12
0.0
 22
0.0
 32
0.0
 14
0.0
 24
0.0
 34
0.0
 15
210.0
 25
297.0
 35
0.0
146
0.0
 13
0.0
 23
0.0
 33
0.0
 16
1.0
 26
0.0
 36
0.0
 17
0.0
 27
1.0
 37
0.0
 76
     0
330
1B
  0
LAYOUT
  5
22
102
{ACAD_REACTORS
330
1A
102
}
330
1A
100
AcDbPlotSettings
  1

  2
none_device
  4

  6

 40
0.0
 41
0.0
 42
0.0
 43
0.0
 44
0.0
 45
0.0
 46
0.0
 47
0.0
 48
0.0
 49
0.0
140
0.0
141
0.0
142
1.0
143
1.0
 70
  1712
 72
     0
 73
     0
 74
     0
  7

 75
     0
147
1.0
148
0.0
149
0.0
100
AcDbLayout
  1
Model
 70
     1
 71
     0
 10
0.0
 20
0.0
 11
210.0
 21
297.0
 12
0.0
 22
0.0
 32
0.0
 14
0.0
 24
0.0
 34
0.0
 15
210.0
 25
297.0
 35
0.0
146
0.0
 13
0.0
 23
0.0
 33
0.0
 16
1.0
 26
0.0
 36
0.0
 17
0.0
 27
1.0
 37
0.0
 76
     0
330
1F
331
29
  0
MATERIAL
  5
3D
102
{ACAD_REACTORS
330
3B
102
}
102
{ACAD_XDICTIONARY
360
186
102
}
330
3B
100
AcDbMaterial
  1
ByBlock
  0
MATERIAL
  5
3C
102
{ACAD_REACTORS
330
3B
102
}
102
{ACAD_XDICTIONARY
360
184
102
}
330
3B
100
AcDbMaterial
  1
ByLayer
  0
MATERIAL
  5
3E
102
{ACAD_REACTORS
330
3B
102
}
102
{ACAD_XDICTIONARY
360
188
102
}
330
3B
100
AcDbMaterial
  1
Global
  0
MLINESTYLE
  5
18
102
{ACAD_REACTORS
330
17
102
}
330
17
100
AcDbMlineStyle
  2
Standard
 70
     0
  3

 62
   256
 51
90.0
 52
90.0
 71
     2
 49
0.5
 62
   256
  6
BYLAYER
 49
-0.5
 62
   256
  6
BYLAYER
  0
ACDBPLACEHOLDER
  5
F
102
{ACAD_REACTORS
330
E
102
}
330
E
  0
VISUALSTYLE
  5
2F
102
{ACAD_REACTORS
330
2A
102
}
102
{ACAD_XDICTIONARY
360
16C
102
}
330
2A
100
AcDbVisualStyle
  2
2dWireframe
 70
     4
 71
     0
 72
     2
 73
     0
 90
        0
 40
-0.6
 41
-30.0
 62
     5
 63
     7
 74
     1
 91
        4
 64
     7
 65
   257
 75
     1
175
     1
 42
1.0
 92
        0
 66
   257
 43
1.0
 76
     1
 77
     6
 78
     2
 67
     7
 79
     5
170
     0
171
     0
290
     0
174
     0
 93
        1
 44
0.0
173
     0
291
     0
 45
0.0
1001
ACAD
1000
AcDbSavedByObjectVersion
1070
     0
  0
VISUALSTYLE
  5
31
102
{ACAD_REACTORS
330
2A
102
}
102
{ACAD_XDICTIONARY
360
170
102
}
330
2A
100
AcDbVisualStyle
  2
3D Hidden
 70
     6
 71
     1
 72
     2
 73
     2
 90
        0
 40
-0.6
 41
-30.0
 62
     5
 63
     7
 74
     2
 91
        2
 64
     7
 65
   257
 75
     2
175
     1
 42
40.0
 92
        0
 66
   257
 43
1.0
 76
     1
 77
     6
 78
     2
 67
     7
 79
     3
170
     0
171
     0
290
     0
174
     0
 93
        1
 44
0.0
173
     0
291
     0
 45
0.0
1001
ACAD
1000
AcDbSavedByObjectVersion
1070
     0
  0
VISUALSTYLE
  5
30
102
{ACAD_REACTORS
330
2A
102
}
102
{ACAD_XDICTIONARY
360
16E
102
}
330
2A
100
AcDbVisualStyle
  2
3dWireframe
 70
     5
 71
     0
 72
     2
 73
     0
 90
        0
 40
-0.6
 41
-30.0
 62
     5
 63
     7
 74
     1
 91
        4
 64
     7
 65
   257
 75
     1
175
     1
 42
1.0
 92
        0
 66
   257
 43
1.0
 76
     1
 77
     6
 78
     2
 67
     7
 79
     5
170
     0
171
     0
290
     0
174
     0
 93
        1
 44
0.0
173
     0
291
     0
 45
0.0
1001
ACAD
1000
AcDbSavedByObjectVersion
1070
     0
  0
VISUALSTYLE
  5
32
102
{ACAD_REACTORS
330
2A
102
}
102
{ACAD_XDICTIONARY
360
172
102
}
330
2A
100
AcDbVisualStyle
  2
Basic
 70
     7
 71
     1
 72
     0
 73
     1
 90
        0
 40
-0.6
 41
-30.0
 62
     5
 63
     7
 74
     0
 91
        4
 64
     7
 65
   257
 75
     1
175
     1
 42
1.0
 92
        8
 66
     7
 43
1.0
 76
     1
 77
     6
 78
     2
 67
     7
 79
     5
170
     0
171
     0
290
     0
174
     0
 93
        1
 44
0.0
173
     0
291
     1
 45
0.0
1001
ACAD
1000
AcDbSavedByObjectVersion
1070
     0
  0
VISUALSTYLE
  5
36
102
{ACAD_REACTORS
330
2A
102
}
102
{ACAD_XDICTIONARY
360
17A
102
}
330
2A
100
AcDbVisualStyle
  2
Brighten
 70
    12
 71
     2
 72
     2
 73
     0
 90
        0
 40
-0.6
 41
-30.0
 62
     5
 63
     7
 74
     1
 91
        4
 64
     7
 65
   257
 75
     1
175
     1
 42
1.0
 92
        8
 66
     7
 43
1.0
 76
     1
 77
     6
 78
     2
 67
     7
 79
     5
170
     0
171
     0
290
     0
174
     0
 93
        1
 44
50.0
173
     0
291
     1
 45
0.0
1001
ACAD
1000
AcDbSavedByObjectVersion
1070
     0
  0
VISUALSTYLE
  5
3A
102
{ACAD_REACTORS
330
2A
102
}
102
{ACAD_XDICTIONARY
360
182
102
}
330
2A
100
AcDbVisualStyle
  2
ColorChange
 70
    16
 71
     2
 72
     2
 73
     3
 90
        0
 40
-0.6
 41
-30.0
 62
     5
 63
     8
 74
     1
 91
        4
 64
     7
 65
   257
 75
     1
175
     1
 42
1.0
 92
        8
 66
     8
 43
1.0
 76
     1
 77
     6
 78
     2
 67
     7
 79
     5
170
     0
171
     0
290
     0
174
     0
 93
        1
 44
0.0
173
     0
291
     1
 45
0.0
1001
ACAD
1000
AcDbSavedByObjectVersion
1070
     0
  0
VISUALSTYLE
  5
34
102
{ACAD_REACTORS
330
2A
102
}
102
{ACAD_XDICTIONARY
360
176
102
}
330
2A
100
AcDbVisualStyle
  2
Conceptual
 70
     9
 71
     3
 72
     2
 73
     0
 90
        0
 40
-0.6
 41
-30.0
 62
     5
 63
     7
 74
     2
 91
        2
 64
     7
 65
   257
 75
     1
175
     1
 42
40.0
 92
        8
 66
     7
 43
1.0
 76
     1
 77
     6
 78
     2
 67
     7
 79
     3
170
     0
171
     0
290
     0
174
     0
 93
        1
 44
0.0
173
     0
291
     0
 45
0.0
1001
ACAD
1000
AcDbSavedByObjectVersion
1070
     0
  0
VISUALSTYLE
  5
35
102
{ACAD_REACTORS
330
2A
102
}
102
{ACAD_XDICTIONARY
360
178
102
}
330
2A
100
AcDbVisualStyle
  2
Dim
 70
    11
 71
     2
 72
     2
 73
     0
 90
        0
 40
-0.6
 41
-30.0
 62
     5
 63
     7
 74
     1
 91
        4
 64
     7
 65
   257
 75
     1
175
     1
 42
1.0
 92
        8
 66
     7
 43
1.0
 76
     1
 77
     6
 78
     2
 67
     7
 79
     5
170
     0
171
     0
290
     0
174
     0
 93
        1
 44
-50.0
173
     0
291
     1
 45
0.0
1001
ACAD
1000
AcDbSavedByObjectVersion
1070
     0
  0
VISUALSTYLE
  5
39
102
{ACAD_REACTORS
330
2A
102
}
102
{ACAD_XDICTIONARY
360
180
102
}
330
2A
100
AcDbVisualStyle
  2
Facepattern
 70
    15
 71
     2
 72
     2
 73
     0
 90
        0
 40
-0.6
 41
-30.0
 62
     5
 63
     7
 74
     1
 91
        4
 64
     7
 65
   257
 75
     1
175
     1
 42
1.0
 92
        8
 66
     7
 43
1.0
 76
     1
 77
     6
 78
     2
 67
     7
 79
     5
170
     0
171
     0
290
     0
174
     0
 93
        1
 44
0.0
173
     0
291
     1
 45
0.0
1001
ACAD
1000
AcDbSavedByObjectVersion
1070
     0
  0
VISUALSTYLE
  5
2B
102
{ACAD_REACTORS
330
2A
102
}
102
{ACAD_XDICTIONARY
360
164
102
}
330
2A
100
AcDbVisualStyle
  2
Flat
 70
     0
 71
     2
 72
     1
 73
     1
 90
        2
 40
-0.6
 41
30.0
 62
     5
 63
     7
 74
     0
 91
        4
 64
     7
 65
   257
 75
     1
175
     1
 42
1.0
 92
        8
 66
     7
 43
1.0
 76
     1
 77
     6
 78
     2
 67
     7
 79
     5
170
     0
171
     0
290
     0
174
     0
 93
       13
 44
0.0
173
     0
291
     1
 45
0.0
1001
ACAD
1000
AcDbSavedByObjectVersion
1070
     0
  0
VISUALSTYLE
  5
2C
102
{ACAD_REACTORS
330
2A
102
}
102
{ACAD_XDICTIONARY
360
166
102
}
330
2A
100
AcDbVisualStyle
  2
FlatWithEdges
 70
     1
 71
     2
 72
     1
 73
     1
 90
        2
 40
-0.6
 41
30.0
 62
     5
 63
     7
 74
     1
 91
        4
 64
     7
 65
   257
 75
     1
175
     1
 42
1.0
 92
        0
 66
   257
 43
1.0
 76
     1
 77
     6
 78
     2
 67
     7
 79
     5
170
     0
171
     0
290
     0
174
     0
 93
       13
 44
0.0
173
     0
291
     1
 45
0.0
1001
ACAD
1000
AcDbSavedByObjectVersion
1070
     0
  0
VISUALSTYLE
  5
2D
102
{ACAD_REACTORS
330
2A
102
}
102
{ACAD_XDICTIONARY
360
168
102
}
330
2A
100
AcDbVisualStyle
  2
Gouraud
 70
     2
 71
     2
 72
     2
 73
     1
 90
        2
 40
-0.6
 41
30.0
 62
     5
 63
     7
 74
     0
 91
        4
 64
     7
 65
   257
 75
     1
175
     1
 42
1.0
 92
        0
 66
     7
 43
1.0
 76
     1
 77
     6
 78
     2
 67
     7
 79
     5
170
     0
171
     0
290
     0
174
     0
 93
       13
 44
0.0
173
     0
291
     1
 45
0.0
1001
ACAD
1000
AcDbSavedByObjectVersion
1070
     0
  0
VISUALSTYLE
  5
2E
102
{ACAD_REACTORS
330
2A
102
}
102
{ACAD_XDICTIONARY
360
16A
102
}
330
2A
100
AcDbVisualStyle
  2
GouraudWithEdges
 70
     3
 71
     2
 72
     2
 73
     1
 90
        2
 40
-0.6
 41
30.0
 62
     5
 63
     7
 74
     1
 91
        4
 64
     7
 65
   257
 75
     1
175
     1
 42
1.0
 92
        0
 66
   257
 43
1.0
 76
     1
 77
     6
 78
     2
 67
     7
 79
     5
170
     0
171
     0
290
     0
174
     0
 93
       13
 44
0.0
173
     0
291
     1
 45
0.0
1001
ACAD
1000
AcDbSavedByObjectVersion
1070
     0
  0
VISUALSTYLE
  5
38
102
{ACAD_REACTORS
330
2A
102
}
102
{ACAD_XDICTIONARY
360
17E
102
}
330
2A
100
AcDbVisualStyle
  2
Linepattern
 70
    14
 71
     2
 72
     2
 73
     0
 90
        0
 40
-0.6
 41
-30.0
 62
     5
 63
     7
 74
     1
 91
        4
 64
     7
 65
   257
 75
     7
175
     7
 42
1.0
 92
        8
 66
     7
 43
1.0
 76
     1
 77
     6
 78
     2
 67
     7
 79
     5
170
     0
171
     0
290
     0
174
     0
 93
        1
 44
0.0
173
     0
291
     1
 45
0.0
1001
ACAD
1000
AcDbSavedByObjectVersion
1070
     0
  0
VISUALSTYLE
  5
33
102
{ACAD_REACTORS
330
2A
102
}
102
{ACAD_XDICTIONARY
360
174
102
}
330
2A
100
AcDbVisualStyle
  2
Realistic
 70
     8
 71
     2
 72
     2
 73
     0
 90
        0
 40
-0.6
 41
-30.0
 62
     5
 63
     7
 74
     1
 91
        0
 64
     7
 65
   257
 75
     1
175
     1
 42
1.0
 92
        8
 66
     8
 43
1.0
 76
     1
 77
     6
 78
     2
 67
     7
 79
     5
170
     0
171
     0
290
     0
174
     0
 93
       13
 44
0.0
173
     0
291
     0
 45
0.0
1001
ACAD
1000
AcDbSavedByObjectVersion
1070
     0
  0
VISUALSTYLE
  5
37
102
{ACAD_REACTORS
330
2A
102
}
102
{ACAD_XDICTIONARY
360
17C
102
}
330
2A
100
AcDbVisualStyle
  2
Thicken
 70
    13
 71
     2
 72
     2
 73
     0
 90
        0
 40
-0.6
 41
-30.0
 62
     5
 63
     7
 74
     1
 91
        4
 64
     7
 65
   257
 75
     1
175
     1
 42
1.0
 92
       12
 66
     7
 43
1.0
 76
     1
 77
     6
 78
     2
 67
     7
 79
     5
170
     0
171
     0
290
     0
174
     0
 93
        1
 44
0.0
173
     0
291
     1
 45
0.0
1001
ACAD
1000
AcDbSavedByObjectVersion
1070
     0
  0
DICTIONARYVAR
  5
162
102
{ACAD_REACTORS
330
15D
102
}
330
15D
100
DictionaryVariables
280
     0
  1
2
  0
DICTIONARYVAR
  5
163
102
{ACAD_REACTORS
330
15D
102
}
330
15D
100
DictionaryVariables
280
     0
  1
1
  0
DICTIONARYVAR
  5
161
102
{ACAD_REACTORS
330
15D
102
}
330
15D
100
DictionaryVariables
280
     0
  1
80.000000
  0
DICTIONARYVAR
  5
160
102
{ACAD_REACTORS
330
15D
102
}
330
15D
100
DictionaryVariables
280
     0
  1
5.000000
  0
DICTIONARY
  5
186
330
3D
100
AcDbDictionary
280
     1
281
     1
  3
ACAD_XREC_ROUNDTRIP
360
187
  0
DICTIONARY
  5
184
330
3C
100
AcDbDictionary
280
     1
281
     1
  3
ACAD_XREC_ROUNDTRIP
360
185
  0
DICTIONARY
  5
188
330
3E
100
AcDbDictionary
280
     1
281
     1
  3
ACAD_XREC_ROUNDTRIP
360
189
  0
DICTIONARY
  5
16C
330
2F
100
AcDbDictionary
280
     1
281
     1
  3
ACAD_XREC_ROUNDTRIP
360
16D
  0
DICTIONARY
  5
170
330
31
100
AcDbDictionary
280
     1
281
     1
  3
ACAD_XREC_ROUNDTRIP
360
171
  0
DICTIONARY
  5
16E
330
30
100
AcDbDictionary
280
     1
281
     1
  3
ACAD_XREC_ROUNDTRIP
360
16F
  0
DICTIONARY
  5
172
330
32
100
AcDbDictionary
280
     1
281
     1
  3
ACAD_XREC_ROUNDTRIP
360
173
  0
DICTIONARY
  5
17A
330
36
100
AcDbDictionary
280
     1
281
     1
  3
ACAD_XREC_ROUNDTRIP
360
17B
  0
DICTIONARY
  5
182
330
3A
100
AcDbDictionary
280
     1
281
     1
  3
ACAD_XREC_ROUNDTRIP
360
183
  0
DICTIONARY
  5
176
330
34
100
AcDbDictionary
280
     1
281
     1
  3
ACAD_XREC_ROUNDTRIP
360
177
  0
DICTIONARY
  5
178
330
35
100
AcDbDictionary
280
     1
281
     1
  3
ACAD_XREC_ROUNDTRIP
360
179
  0
DICTIONARY
  5
180
330
39
100
AcDbDictionary
280
     1
281
     1
  3
ACAD_XREC_ROUNDTRIP
360
181
  0
DICTIONARY
  5
164
330
2B
100
AcDbDictionary
280
     1
281
     1
  3
ACAD_XREC_ROUNDTRIP
360
165
  0
DICTIONARY
  5
166
330
2C
100
AcDbDictionary
280
     1
281
     1
  3
ACAD_XREC_ROUNDTRIP
360
167
  0
DICTIONARY
  5
168
330
2D
100
AcDbDictionary
280
     1
281
     1
  3
ACAD_XREC_ROUNDTRIP
360
169
  0
DICTIONARY
  5
16A
330
2E
100
AcDbDictionary
280
     1
281
     1
  3
ACAD_XREC_ROUNDTRIP
360
16B
  0
DICTIONARY
  5
17E
330
38
100
AcDbDictionary
280
     1
281
     1
  3
ACAD_XREC_ROUNDTRIP
360
17F
  0
DICTIONARY
  5
174
330
33
100
AcDbDictionary
280
     1
281
     1
  3
ACAD_XREC_ROUNDTRIP
360
175
  0
DICTIONARY
  5
17C
330
37
100
AcDbDictionary
280
     1
281
     1
  3
ACAD_XREC_ROUNDTRIP
360
17D
  0
XRECORD
  5
187
102
{ACAD_REACTORS
330
186
102
}
330
186
100
AcDbXrecord
280
     1
102
MATERIAL
148
0.0
149
0.0
149
0.0
 93
        0
 94
      127
282
     0
 72
     1
 77
     1
171
     1
175
     1
179
     1
273
     0
  0
XRECORD
  5
185
102
{ACAD_REACTORS
330
184
102
}
330
184
100
AcDbXrecord
280
     1
102
MATERIAL
148
0.0
149
0.0
149
0.0
 93
        0
 94
      127
282
     0
 72
     1
 77
     1
171
     1
175
     1
179
     1
273
     0
  0
XRECORD
  5
189
102
{ACAD_REACTORS
330
188
102
}
330
188
100
AcDbXrecord
280
     1
102
MATERIAL
148
0.0
149
0.0
149
0.0
 93
        0
 94
      127
282
     0
 72
     1
 77
     1
171
     1
175
     1
179
     1
273
     0
  0
XRECORD
  5
16D
102
{ACAD_REACTORS
330
16C
102
}
330
16C
100
AcDbXrecord
280
     1
102
RTVSPropertyOp0
 70
     1
102
RTVSPropertyOp1
 70
     1
102
RTVSPropertyOp2
 70
     1
102
RTVSPropertyOp3
 70
     1
102
RTVSPropertyOp4
 70
     1
102
RTVSPropertyOp5
 70
     1
102
RTVSPropertyOp6
 70
     1
102
RTVSPropertyOp7
 70
     1
102
RTVSPropertyOp8
 70
     1
102
RTVSPropertyOp9
 70
     1
102
RTVSPropertyOp10
 70
     1
102
RTVSPropertyOp11
 70
     1
102
RTVSPropertyOp12
 70
     1
102
RTVSPropertyOp13
 70
     1
102
RTVSPropertyOp14
 70
     1
102
RTVSPropertyOp15
 70
     1
102
RTVSPropertyOp16
 70
     1
102
RTVSPropertyOp17
 70
     1
102
RTVSPropertyOp18
 70
     1
102
RTVSPropertyOp19
 70
     1
102
RTVSPropertyOp20
 70
     1
102
RTVSPropertyOp21
 70
     1
102
RTVSPropertyOp22
 70
     1
102
RTVSPropertyOp23
 70
     1
102
RTVSPropertyOp24
 70
     1
102
RTVSPropertyOp25
 70
     1
102
RTVSPropertyOp26
 70
     1
102
RTVSPropertyOp27
 70
     1
102
RTVSPropertyOp28
 70
     1
102
RTVSPropertyOp29
 70
     1
102
RTVSPropertyOp30
 70
     1
102
RTVSPropertyOp31
 70
     1
102
RTVSPropertyOp32
 70
     1
  0
XRECORD
  5
171
102
{ACAD_REACTORS
330
170
102
}
330
170
100
AcDbXrecord
280
     1
102
RTVSPropertyOp0
 70
     1
102
RTVSPropertyOp1
 70
     1
102
RTVSPropertyOp2
 70
     1
102
RTVSPropertyOp3
 70
     1
102
RTVSPropertyOp4
 70
     1
102
RTVSPropertyOp5
 70
     1
102
RTVSPropertyOp6
 70
     1
102
RTVSPropertyOp7
 70
     1
102
RTVSPropertyOp8
 70
     1
102
RTVSPropertyOp9
 70
     1
102
RTVSPropertyOp10
 70
     1
102
RTVSPropertyOp11
 70
     1
102
RTVSPropertyOp12
 70
     1
102
RTVSPropertyOp13
 70
     1
102
RTVSPropertyOp14
 70
     1
102
RTVSPropertyOp15
 70
     1
102
RTVSPropertyOp16
 70
     1
102
RTVSPropertyOp17
 70
     1
102
RTVSPropertyOp18
 70
     1
102
RTVSPropertyOp19
 70
     1
102
RTVSPropertyOp20
 70
     1
102
RTVSPropertyOp21
 70
     1
102
RTVSPropertyOp22
 70
     1
102
RTVSPropertyOp23
 70
     1
102
RTVSPropertyOp24
 70
     1
102
RTVSPropertyOp25
 70
     1
102
RTVSPropertyOp26
 70
     1
102
RTVSPropertyOp27
 70
     1
102
RTVSPropertyOp28
 70
     1
102
RTVSPropertyOp29
 70
     1
102
RTVSPropertyOp30
 70
     1
102
RTVSPropertyOp31
 70
     1
102
RTVSPropertyOp32
 70
     1
  0
XRECORD
  5
16F
102
{ACAD_REACTORS
330
16E
102
}
330
16E
100
AcDbXrecord
280
     1
102
RTVSPropertyOp0
 70
     1
102
RTVSPropertyOp1
 70
     1
102
RTVSPropertyOp2
 70
     1
102
RTVSPropertyOp3
 70
     1
102
RTVSPropertyOp4
 70
     1
102
RTVSPropertyOp5
 70
     1
102
RTVSPropertyOp6
 70
     1
102
RTVSPropertyOp7
 70
     1
102
RTVSPropertyOp8
 70
     1
102
RTVSPropertyOp9
 70
     1
102
RTVSPropertyOp10
 70
     1
102
RTVSPropertyOp11
 70
     1
102
RTVSPropertyOp12
 70
     1
102
RTVSPropertyOp13
 70
     1
102
RTVSPropertyOp14
 70
     1
102
RTVSPropertyOp15
 70
     1
102
RTVSPropertyOp16
 70
     1
102
RTVSPropertyOp17
 70
     1
102
RTVSPropertyOp18
 70
     1
102
RTVSPropertyOp19
 70
     1
102
RTVSPropertyOp20
 70
     1
102
RTVSPropertyOp21
 70
     1
102
RTVSPropertyOp22
 70
     1
102
RTVSPropertyOp23
 70
     1
102
RTVSPropertyOp24
 70
     1
102
RTVSPropertyOp25
 70
     1
102
RTVSPropertyOp26
 70
     1
102
RTVSPropertyOp27
 70
     1
102
RTVSPropertyOp28
 70
     1
102
RTVSPropertyOp29
 70
     1
102
RTVSPropertyOp30
 70
     1
102
RTVSPropertyOp31
 70
     1
102
RTVSPropertyOp32
 70
     1
  0
XRECORD
  5
173
102
{ACAD_REACTORS
330
172
102
}
330
172
100
AcDbXrecord
280
     1
102
RTVSPropertyOp0
 70
     1
102
RTVSPropertyOp1
 70
     1
102
RTVSPropertyOp2
 70
     1
102
RTVSPropertyOp3
 70
     1
102
RTVSPropertyOp4
 70
     1
102
RTVSPropertyOp5
 70
     1
102
RTVSPropertyOp6
 70
     1
102
RTVSPropertyOp7
 70
     1
102
RTVSPropertyOp8
 70
     1
102
RTVSPropertyOp9
 70
     1
102
RTVSPropertyOp10
 70
     1
102
RTVSPropertyOp11
 70
     1
102
RTVSPropertyOp12
 70
     1
102
RTVSPropertyOp13
 70
     1
102
RTVSPropertyOp14
 70
     1
102
RTVSPropertyOp15
 70
     1
102
RTVSPropertyOp16
 70
     1
102
RTVSPropertyOp17
 70
     1
102
RTVSPropertyOp18
 70
     1
102
RTVSPropertyOp19
 70
     1
102
RTVSPropertyOp20
 70
     1
102
RTVSPropertyOp21
 70
     1
102
RTVSPropertyOp22
 70
     1
102
RTVSPropertyOp23
 70
     1
102
RTVSPropertyOp24
 70
     1
102
RTVSPropertyOp25
 70
     1
102
RTVSPropertyOp26
 70
     1
102
RTVSPropertyOp27
 70
     1
102
RTVSPropertyOp28
 70
     1
102
RTVSPropertyOp29
 70
     1
102
RTVSPropertyOp30
 70
     1
102
RTVSPropertyOp31
 70
     1
102
RTVSPropertyOp32
 70
     1
  0
XRECORD
  5
17B
102
{ACAD_REACTORS
330
17A
102
}
330
17A
100
AcDbXrecord
280
     1
102
RTVSPropertyOp0
 70
     1
102
RTVSPropertyOp1
 70
     1
102
RTVSPropertyOp2
 70
     1
102
RTVSPropertyOp3
 70
     1
102
RTVSPropertyOp4
 70
     1
102
RTVSPropertyOp5
 70
     1
102
RTVSPropertyOp6
 70
     1
102
RTVSPropertyOp7
 70
     1
102
RTVSPropertyOp8
 70
     1
102
RTVSPropertyOp9
 70
     1
102
RTVSPropertyOp10
 70
     1
102
RTVSPropertyOp11
 70
     1
102
RTVSPropertyOp12
 70
     1
102
RTVSPropertyOp13
 70
     1
102
RTVSPropertyOp14
 70
     1
102
RTVSPropertyOp15
 70
     1
102
RTVSPropertyOp16
 70
     1
102
RTVSPropertyOp17
 70
     1
102
RTVSPropertyOp18
 70
     1
102
RTVSPropertyOp19
 70
     1
102
RTVSPropertyOp20
 70
     1
102
RTVSPropertyOp21
 70
     1
102
RTVSPropertyOp22
 70
     1
102
RTVSPropertyOp23
 70
     1
102
RTVSPropertyOp24
 70
     1
102
RTVSPropertyOp25
 70
     1
102
RTVSPropertyOp26
 70
     1
102
RTVSPropertyOp27
 70
     1
102
RTVSPropertyOp28
 70
     1
102
RTVSPropertyOp29
 70
     1
102
RTVSPropertyOp30
 70
     1
102
RTVSPropertyOp31
 70
     1
102
RTVSPropertyOp32
 70
     1
  0
XRECORD
  5
183
102
{ACAD_REACTORS
330
182
102
}
330
182
100
AcDbXrecord
280
     1
102
RTVSPropertyOp0
 70
     1
102
RTVSPropertyOp1
 70
     1
102
RTVSPropertyOp2
 70
     1
102
RTVSPropertyOp3
 70
     1
102
RTVSPropertyOp4
 70
     1
102
RTVSPropertyOp5
 70
     1
102
RTVSPropertyOp6
 70
     1
102
RTVSPropertyOp7
 70
     1
102
RTVSPropertyOp8
 70
     1
102
RTVSPropertyOp9
 70
     1
102
RTVSPropertyOp10
 70
     1
102
RTVSPropertyOp11
 70
     1
102
RTVSPropertyOp12
 70
     1
102
RTVSPropertyOp13
 70
     1
102
RTVSPropertyOp14
 70
     1
102
RTVSPropertyOp15
 70
     1
102
RTVSPropertyOp16
 70
     1
102
RTVSPropertyOp17
 70
     1
102
RTVSPropertyOp18
 70
     1
102
RTVSPropertyOp19
 70
     1
102
RTVSPropertyOp20
 70
     1
102
RTVSPropertyOp21
 70
     1
102
RTVSPropertyOp22
 70
     1
102
RTVSPropertyOp23
 70
     1
102
RTVSPropertyOp24
 70
     1
102
RTVSPropertyOp25
 70
     1
102
RTVSPropertyOp26
 70
     1
102
RTVSPropertyOp27
 70
     1
102
RTVSPropertyOp28
 70
     1
102
RTVSPropertyOp29
 70
     1
102
RTVSPropertyOp30
 70
     1
102
RTVSPropertyOp31
 70
     1
102
RTVSPropertyOp32
 70
     1
  0
XRECORD
  5
177
102
{ACAD_REACTORS
330
176
102
}
330
176
100
AcDbXrecord
280
     1
102
RTVSPropertyOp0
 70
     1
102
RTVSPropertyOp1
 70
     1
102
RTVSPropertyOp2
 70
     1
102
RTVSPropertyOp3
 70
     1
102
RTVSPropertyOp4
 70
     1
102
RTVSPropertyOp5
 70
     1
102
RTVSPropertyOp6
 70
     1
102
RTVSPropertyOp7
 70
     1
102
RTVSPropertyOp8
 70
     1
102
RTVSPropertyOp9
 70
     1
102
RTVSPropertyOp10
 70
     1
102
RTVSPropertyOp11
 70
     1
102
RTVSPropertyOp12
 70
     1
102
RTVSPropertyOp13
 70
     1
102
RTVSPropertyOp14
 70
     1
102
RTVSPropertyOp15
 70
     1
102
RTVSPropertyOp16
 70
     1
102
RTVSPropertyOp17
 70
     1
102
RTVSPropertyOp18
 70
     1
102
RTVSPropertyOp19
 70
     1
102
RTVSPropertyOp20
 70
     1
102
RTVSPropertyOp21
 70
     1
102
RTVSPropertyOp22
 70
     1
102
RTVSPropertyOp23
 70
     1
102
RTVSPropertyOp24
 70
     1
102
RTVSPropertyOp25
 70
     1
102
RTVSPropertyOp26
 70
     1
102
RTVSPropertyOp27
 70
     1
102
RTVSPropertyOp28
 70
     1
102
RTVSPropertyOp29
 70
     1
102
RTVSPropertyOp30
 70
     1
102
RTVSPropertyOp31
 70
     1
102
RTVSPropertyOp32
 70
     1
  0
XRECORD
  5
179
102
{ACAD_REACTORS
330
178
102
}
330
178
100
AcDbXrecord
280
     1
102
RTVSPropertyOp0
 70
     1
102
RTVSPropertyOp1
 70
     1
102
RTVSPropertyOp2
 70
     1
102
RTVSPropertyOp3
 70
     1
102
RTVSPropertyOp4
 70
     1
102
RTVSPropertyOp5
 70
     1
102
RTVSPropertyOp6
 70
     1
102
RTVSPropertyOp7
 70
     1
102
RTVSPropertyOp8
 70
     1
102
RTVSPropertyOp9
 70
     1
102
RTVSPropertyOp10
 70
     1
102
RTVSPropertyOp11
 70
     1
102
RTVSPropertyOp12
 70
     1
102
RTVSPropertyOp13
 70
     1
102
RTVSPropertyOp14
 70
     1
102
RTVSPropertyOp15
 70
     1
102
RTVSPropertyOp16
 70
     1
102
RTVSPropertyOp17
 70
     1
102
RTVSPropertyOp18
 70
     1
102
RTVSPropertyOp19
 70
     1
102
RTVSPropertyOp20
 70
     1
102
RTVSPropertyOp21
 70
     1
102
RTVSPropertyOp22
 70
     1
102
RTVSPropertyOp23
 70
     1
102
RTVSPropertyOp24
 70
     1
102
RTVSPropertyOp25
 70
     1
102
RTVSPropertyOp26
 70
     1
102
RTVSPropertyOp27
 70
     1
102
RTVSPropertyOp28
 70
     1
102
RTVSPropertyOp29
 70
     1
102
RTVSPropertyOp30
 70
     1
102
RTVSPropertyOp31
 70
     1
102
RTVSPropertyOp32
 70
     1
  0
XRECORD
  5
181
102
{ACAD_REACTORS
330
180
102
}
330
180
100
AcDbXrecord
280
     1
102
RTVSPropertyOp0
 70
     1
102
RTVSPropertyOp1
 70
     1
102
RTVSPropertyOp2
 70
     1
102
RTVSPropertyOp3
 70
     1
102
RTVSPropertyOp4
 70
     1
102
RTVSPropertyOp5
 70
     1
102
RTVSPropertyOp6
 70
     1
102
RTVSPropertyOp7
 70
     1
102
RTVSPropertyOp8
 70
     1
102
RTVSPropertyOp9
 70
     1
102
RTVSPropertyOp10
 70
     1
102
RTVSPropertyOp11
 70
     1
102
RTVSPropertyOp12
 70
     1
102
RTVSPropertyOp13
 70
     1
102
RTVSPropertyOp14
 70
     1
102
RTVSPropertyOp15
 70
     1
102
RTVSPropertyOp16
 70
     1
102
RTVSPropertyOp17
 70
     1
102
RTVSPropertyOp18
 70
     1
102
RTVSPropertyOp19
 70
     1
102
RTVSPropertyOp20
 70
     1
102
RTVSPropertyOp21
 70
     1
102
RTVSPropertyOp22
 70
     1
102
RTVSPropertyOp23
 70
     1
102
RTVSPropertyOp24
 70
     1
102
RTVSPropertyOp25
 70
     1
102
RTVSPropertyOp26
 70
     1
102
RTVSPropertyOp27
 70
     1
102
RTVSPropertyOp28
 70
     1
102
RTVSPropertyOp29
 70
     1
102
RTVSPropertyOp30
 70
     1
102
RTVSPropertyOp31
 70
     1
102
RTVSPropertyOp32
 70
     1
  0
XRECORD
  5
165
102
{ACAD_REACTORS
330
164
102
}
330
164
100
AcDbXrecord
280
     1
102
RTVSPropertyOp0
 70
     1
102
RTVSPropertyOp1
 70
     1
102
RTVSPropertyOp2
 70
     1
102
RTVSPropertyOp3
 70
     1
102
RTVSPropertyOp4
 70
     1
102
RTVSPropertyOp5
 70
     1
102
RTVSPropertyOp6
 70
     1
102
RTVSPropertyOp7
 70
     1
102
RTVSPropertyOp8
 70
     1
102
RTVSPropertyOp9
 70
     1
102
RTVSPropertyOp10
 70
     1
102
RTVSPropertyOp11
 70
     1
102
RTVSPropertyOp12
 70
     1
102
RTVSPropertyOp13
 70
     1
102
RTVSPropertyOp14
 70
     1
102
RTVSPropertyOp15
 70
     1
102
RTVSPropertyOp16
 70
     1
102
RTVSPropertyOp17
 70
     1
102
RTVSPropertyOp18
 70
     1
102
RTVSPropertyOp19
 70
     1
102
RTVSPropertyOp20
 70
     1
102
RTVSPropertyOp21
 70
     1
102
RTVSPropertyOp22
 70
     1
102
RTVSPropertyOp23
 70
     1
102
RTVSPropertyOp24
 70
     1
102
RTVSPropertyOp25
 70
     1
102
RTVSPropertyOp26
 70
     1
102
RTVSPropertyOp27
 70
     1
102
RTVSPropertyOp28
 70
     1
102
RTVSPropertyOp29
 70
     1
102
RTVSPropertyOp30
 70
     1
102
RTVSPropertyOp31
 70
     1
102
RTVSPropertyOp32
 70
     1
  0
XRECORD
  5
167
102
{ACAD_REACTORS
330
166
102
}
330
166
100
AcDbXrecord
280
     1
102
RTVSPropertyOp0
 70
     1
102
RTVSPropertyOp1
 70
     1
102
RTVSPropertyOp2
 70
     1
102
RTVSPropertyOp3
 70
     1
102
RTVSPropertyOp4
 70
     1
102
RTVSPropertyOp5
 70
     1
102
RTVSPropertyOp6
 70
     1
102
RTVSPropertyOp7
 70
     1
102
RTVSPropertyOp8
 70
     1
102
RTVSPropertyOp9
 70
     1
102
RTVSPropertyOp10
 70
     1
102
RTVSPropertyOp11
 70
     1
102
RTVSPropertyOp12
 70
     1
102
RTVSPropertyOp13
 70
     1
102
RTVSPropertyOp14
 70
     1
102
RTVSPropertyOp15
 70
     1
102
RTVSPropertyOp16
 70
     1
102
RTVSPropertyOp17
 70
     1
102
RTVSPropertyOp18
 70
     1
102
RTVSPropertyOp19
 70
     1
102
RTVSPropertyOp20
 70
     1
102
RTVSPropertyOp21
 70
     1
102
RTVSPropertyOp22
 70
     1
102
RTVSPropertyOp23
 70
     1
102
RTVSPropertyOp24
 70
     1
102
RTVSPropertyOp25
 70
     1
102
RTVSPropertyOp26
 70
     1
102
RTVSPropertyOp27
 70
     1
102
RTVSPropertyOp28
 70
     1
102
RTVSPropertyOp29
 70
     1
102
RTVSPropertyOp30
 70
     1
102
RTVSPropertyOp31
 70
     1
102
RTVSPropertyOp32
 70
     1
  0
XRECORD
  5
169
102
{ACAD_REACTORS
330
168
102
}
330
168
100
AcDbXrecord
280
     1
102
RTVSPropertyOp0
 70
     1
102
RTVSPropertyOp1
 70
     1
102
RTVSPropertyOp2
 70
     1
102
RTVSPropertyOp3
 70
     1
102
RTVSPropertyOp4
 70
     1
102
RTVSPropertyOp5
 70
     1
102
RTVSPropertyOp6
 70
     1
102
RTVSPropertyOp7
 70
     1
102
RTVSPropertyOp8
 70
     1
102
RTVSPropertyOp9
 70
     1
102
RTVSPropertyOp10
 70
     1
102
RTVSPropertyOp11
 70
     1
102
RTVSPropertyOp12
 70
     1
102
RTVSPropertyOp13
 70
     1
102
RTVSPropertyOp14
 70
     1
102
RTVSPropertyOp15
 70
     1
102
RTVSPropertyOp16
 70
     1
102
RTVSPropertyOp17
 70
     1
102
RTVSPropertyOp18
 70
     1
102
RTVSPropertyOp19
 70
     1
102
RTVSPropertyOp20
 70
     1
102
RTVSPropertyOp21
 70
     1
102
RTVSPropertyOp22
 70
     1
102
RTVSPropertyOp23
 70
     1
102
RTVSPropertyOp24
 70
     1
102
RTVSPropertyOp25
 70
     1
102
RTVSPropertyOp26
 70
     1
102
RTVSPropertyOp27
 70
     1
102
RTVSPropertyOp28
 70
     1
102
RTVSPropertyOp29
 70
     1
102
RTVSPropertyOp30
 70
     1
102
RTVSPropertyOp31
 70
     1
102
RTVSPropertyOp32
 70
     1
  0
XRECORD
  5
16B
102
{ACAD_REACTORS
330
16A
102
}
330
16A
100
AcDbXrecord
280
     1
102
RTVSPropertyOp0
 70
     1
102
RTVSPropertyOp1
 70
     1
102
RTVSPropertyOp2
 70
     1
102
RTVSPropertyOp3
 70
     1
102
RTVSPropertyOp4
 70
     1
102
RTVSPropertyOp5
 70
     1
102
RTVSPropertyOp6
 70
     1
102
RTVSPropertyOp7
 70
     1
102
RTVSPropertyOp8
 70
     1
102
RTVSPropertyOp9
 70
     1
102
RTVSPropertyOp10
 70
     1
102
RTVSPropertyOp11
 70
     1
102
RTVSPropertyOp12
 70
     1
102
RTVSPropertyOp13
 70
     1
102
RTVSPropertyOp14
 70
     1
102
RTVSPropertyOp15
 70
     1
102
RTVSPropertyOp16
 70
     1
102
RTVSPropertyOp17
 70
     1
102
RTVSPropertyOp18
 70
     1
102
RTVSPropertyOp19
 70
     1
102
RTVSPropertyOp20
 70
     1
102
RTVSPropertyOp21
 70
     1
102
RTVSPropertyOp22
 70
     1
102
RTVSPropertyOp23
 70
     1
102
RTVSPropertyOp24
 70
     1
102
RTVSPropertyOp25
 70
     1
102
RTVSPropertyOp26
 70
     1
102
RTVSPropertyOp27
 70
     1
102
RTVSPropertyOp28
 70
     1
102
RTVSPropertyOp29
 70
     1
102
RTVSPropertyOp30
 70
     1
102
RTVSPropertyOp31
 70
     1
102
RTVSPropertyOp32
 70
     1
  0
XRECORD
  5
17F
102
{ACAD_REACTORS
330
17E
102
}
330
17E
100
AcDbXrecord
280
     1
102
RTVSPropertyOp0
 70
     1
102
RTVSPropertyOp1
 70
     1
102
RTVSPropertyOp2
 70
     1
102
RTVSPropertyOp3
 70
     1
102
RTVSPropertyOp4
 70
     1
102
RTVSPropertyOp5
 70
     1
102
RTVSPropertyOp6
 70
     1
102
RTVSPropertyOp7
 70
     1
102
RTVSPropertyOp8
 70
     1
102
RTVSPropertyOp9
 70
     1
102
RTVSPropertyOp10
 70
     1
102
RTVSPropertyOp11
 70
     1
102
RTVSPropertyOp12
 70
     1
102
RTVSPropertyOp13
 70
     1
102
RTVSPropertyOp14
 70
     1
102
RTVSPropertyOp15
 70
     1
102
RTVSPropertyOp16
 70
     1
102
RTVSPropertyOp17
 70
     1
102
RTVSPropertyOp18
 70
     1
102
RTVSPropertyOp19
 70
     1
102
RTVSPropertyOp20
 70
     1
102
RTVSPropertyOp21
 70
     1
102
RTVSPropertyOp22
 70
     1
102
RTVSPropertyOp23
 70
     1
102
RTVSPropertyOp24
 70
     1
102
RTVSPropertyOp25
 70
     1
102
RTVSPropertyOp26
 70
     1
102
RTVSPropertyOp27
 70
     1
102
RTVSPropertyOp28
 70
     1
102
RTVSPropertyOp29
 70
     1
102
RTVSPropertyOp30
 70
     1
102
RTVSPropertyOp31
 70
     1
102
RTVSPropertyOp32
 70
     1
  0
XRECORD
  5
175
102
{ACAD_REACTORS
330
174
102
}
330
174
100
AcDbXrecord
280
     1
102
RTVSPropertyOp0
 70
     1
102
RTVSPropertyOp1
 70
     1
102
RTVSPropertyOp2
 70
     1
102
RTVSPropertyOp3
 70
     1
102
RTVSPropertyOp4
 70
     1
102
RTVSPropertyOp5
 70
     1
102
RTVSPropertyOp6
 70
     1
102
RTVSPropertyOp7
 70
     1
102
RTVSPropertyOp8
 70
     1
102
RTVSPropertyOp9
 70
     1
102
RTVSPropertyOp10
 70
     1
102
RTVSPropertyOp11
 70
     1
102
RTVSPropertyOp12
 70
     1
102
RTVSPropertyOp13
 70
     1
102
RTVSPropertyOp14
 70
     1
102
RTVSPropertyOp15
 70
     1
102
RTVSPropertyOp16
 70
     1
102
RTVSPropertyOp17
 70
     1
102
RTVSPropertyOp18
 70
     1
102
RTVSPropertyOp19
 70
     1
102
RTVSPropertyOp20
 70
     1
102
RTVSPropertyOp21
 70
     1
102
RTVSPropertyOp22
 70
     1
102
RTVSPropertyOp23
 70
     1
102
RTVSPropertyOp24
 70
     1
102
RTVSPropertyOp25
 70
     1
102
RTVSPropertyOp26
 70
     1
102
RTVSPropertyOp27
 70
     1
102
RTVSPropertyOp28
 70
     1
102
RTVSPropertyOp29
 70
     1
102
RTVSPropertyOp30
 70
     1
102
RTVSPropertyOp31
 70
     1
102
RTVSPropertyOp32
 70
     1
  0
XRECORD
  5
17D
102
{ACAD_REACTORS
330
17C
102
}
330
17C
100
AcDbXrecord
280
     1
102
RTVSPropertyOp0
 70
     1
102
RTVSPropertyOp1
 70
     1
102
RTVSPropertyOp2
 70
     1
102
RTVSPropertyOp3
 70
     1
102
RTVSPropertyOp4
 70
     1
102
RTVSPropertyOp5
 70
     1
102
RTVSPropertyOp6
 70
     1
102
RTVSPropertyOp7
 70
     1
102
RTVSPropertyOp8
 70
     1
102
RTVSPropertyOp9
 70
     1
102
RTVSPropertyOp10
 70
     1
102
RTVSPropertyOp11
 70
     1
102
RTVSPropertyOp12
 70
     1
102
RTVSPropertyOp13
 70
     1
102
RTVSPropertyOp14
 70
     1
102
RTVSPropertyOp15
 70
     1
102
RTVSPropertyOp16
 70
     1
102
RTVSPropertyOp17
 70
     1
102
RTVSPropertyOp18
 70
     1
102
RTVSPropertyOp19
 70
     1
102
RTVSPropertyOp20
 70
     1
102
RTVSPropertyOp21
 70
     1
102
RTVSPropertyOp22
 70
     1
102
RTVSPropertyOp23
 70
     1
102
RTVSPropertyOp24
 70
     1
102
RTVSPropertyOp25
 70
     1
102
RTVSPropertyOp26
 70
     1
102
RTVSPropertyOp27
 70
     1
102
RTVSPropertyOp28
 70
     1
102
RTVSPropertyOp29
 70
     1
102
RTVSPropertyOp30
 70
     1
102
RTVSPropertyOp31
 70
     1
102
RTVSPropertyOp32
 70
     1
  0
ENDSEC
  0
EOF
