  0
SECTION
  2
HEADER
  9
$ACADVER
  1
AC1015
  9
$ACADMAINTVER
 70
     6
  9
$DWGCODEPAGE
  3
ANSI_1252
  9
$INSBASE
 10
0.0
 20
0.0
 30
0.0
  9
$EXTMIN
 10
0.0
 20
0.0
 30
0.0
  9
$EXTMAX
 10
210.0
 20
297.0
 30
0.0
  9
$LIMMIN
 10
0.0
 20
0.0
  9
$LIMMAX
 10
210.0
 20
297.0
  9
$ORTHOMODE
 70
     0
  9
$REGENMODE
 70
     1
  9
$FILLMODE
 70
     1
  9
$QTEXTMODE
 70
     0
  9
$MIRRTEXT
 70
     1
  9
$LTSCALE
 40
1.0
  9
$ATTMODE
 70
     1
  9
$TEXTSIZE
 40
2.5
  9
$TRACEWID
 40
1.0
  9
$TEXTSTYLE
  7
Standard
  9
$CLAYER
  8
0
  9
$CELTYPE
  6
ByLayer
  9
$CECOLOR
 62
   256
  9
$CELTSCALE
 40
1.0
  9
$DISPSILH
 70
     0
  9
$DIMSCALE
 40
1.0
  9
$DIMASZ
 40
2.5
  9
$DIMEXO
 40
0.625
  9
$DIMDLI
 40
3.75
  9
$DIMRND
 40
0.0
  9
$DIMDLE
 40
0.0
  9
$DIMEXE
 40
1.25
  9
$DIMTP
 40
0.0
  9
$DIMTM
 40
0.0
  9
$DIMTXT
 40
2.5
  9
$DIMCEN
 40
2.5
  9
$DIMTSZ
 40
0.0
  9
$DIMTOL
 70
     0
  9
$DIMLIM
 70
     0
  9
$DIMTIH
 70
     0
  9
$DIMTOH
 70
     0
  9
$DIMSE1
 70
     0
  9
$DIMSE2
 70
     0
  9
$DIMTAD
 70
     1
  9
$DIMZIN
 70
     8
  9
$DIMBLK
  1

  9
$DIMASO
 70
     1
  9
$DIMSHO
 70
     1
  9
$DIMPOST
  1

  9
$DIMAPOST
  1

  9
$DIMALT
 70
     0
  9
$DIMALTD
 70
     3
  9
$DIMALTF
 40
0.0393700787
  9
$DIMLFAC
 40
1.0
  9
$DIMTOFL
 70
     1
  9
$DIMTVP
 40
0.0
  9
$DIMTIX
 70
     0
  9
$DIMSOXD
 70
     0
  9
$DIMSAH
 70
     0
  9
$DIMBLK1
  1

  9
$DIMBLK2
  1

  9
$DIMSTYLE
  2
ISO-25
  9
$DIMCLRD
 70
     0
  9
$DIMCLRE
 70
     0
  9
$DIMCLRT
 70
     0
  9
$DIMTFAC
 40
1.0
  9
$DIMGAP
 40
0.625
  9
$DIMJUST
 70
     0
  9
$DIMSD1
 70
     0
  9
$DIMSD2
 70
     0
  9
$DIMTOLJ
 70
     0
  9
$DIMTZIN
 70
     8
  9
$DIMALTZ
 70
     0
  9
$DIMALTTZ
 70
     0
  9
$DIMUPT
 70
     0
  9
$DIMDEC
 70
     2
  9
$DIMTDEC
 70
     2
  9
$DIMALTU
 70
     2
  9
$DIMALTTD
 70
     3
  9
$DIMTXSTY
  7
Standard
  9
$DIMAUNIT
 70
     0
  9
$DIMADEC
 70
     0
  9
$DIMALTRND
 40
0.0
  9
$DIMAZIN
 70
     0
  9
$DIMDSEP
 70
    44
  9
$DIMATFIT
 70
     3
  9
$DIMFRAC
 70
     0
  9
$DIMLDRBLK
  1

  9
$DIMLUNIT
 70
     2
  9
$DIMLWD
 70
    -2
  9
$DIMLWE
 70
    -2
  9
$DIMTMOVE
 70
     0
  9
$LUNITS
 70
     2
  9
$LUPREC
 70
     4
  9
$SKETCHINC
 40
1.0
  9
$FILLETRAD
 40
10.0
  9
$AUNITS
 70
     0
  9
$AUPREC
 70
     0
  9
$MENU
  1
.
  9
$ELEVATION
 40
0.0
  9
$PELEVATION
 40
0.0
  9
$THICKNESS
 40
0.0
  9
$LIMCHECK
 70
     0
  9
$CHAMFERA
 40
10.0
  9
$CHAMFERB
 40
10.0
  9
$CHAMFERC
 40
20.0
  9
$CHAMFERD
 40
0.0
  9
$SKPOLY
 70
     0
  9
$TDCREATE
 40
2457574.3598089
  9
$TDUCREATE
 40
2457574.276475567
  9
$TDUPDATE
 40
2457574.359810174
  9
$TDUUPDATE
 40
2457574.27647684
  9
$TDINDWG
 40
0.0000000116
  9
$TDUSRTIMER
 40
0.0000000116
  9
$USRTIMER
 70
     1
  9
$ANGBASE
 50
0.0
  9
$ANGDIR
 70
     0
  9
$PDMODE
 70
     0
  9
$PDSIZE
 40
0.0
  9
$PLINEWID
 40
0.0
  9
$SPLFRAME
 70
     0
  9
$SPLINETYPE
 70
     6
  9
$SPLINESEGS
 70
     8
  9
$HANDSEED
  5
182
  9
$SURFTAB1
 70
     6
  9
$SURFTAB2
 70
     6
  9
$SURFTYPE
 70
     6
  9
$SURFU
 70
     6
  9
$SURFV
 70
     6
  9
$UCSBASE
  2

  9
$UCSNAME
  2

  9
$UCSORG
 10
0.0
 20
0.0
 30
0.0
  9
$UCSXDIR
 10
1.0
 20
0.0
 30
0.0
  9
$UCSYDIR
 10
0.0
 20
1.0
 30
0.0
  9
$UCSORTHOREF
  2

  9
$UCSORTHOVIEW
 70
     0
  9
$UCSORGTOP
 10
0.0
 20
0.0
 30
0.0
  9
$UCSORGBOTTOM
 10
0.0
 20
0.0
 30
0.0
  9
$UCSORGLEFT
 10
0.0
 20
0.0
 30
0.0
  9
$UCSORGRIGHT
 10
0.0
 20
0.0
 30
0.0
  9
$UCSORGFRONT
 10
0.0
 20
0.0
 30
0.0
  9
$UCSORGBACK
 10
0.0
 20
0.0
 30
0.0
  9
$PUCSBASE
  2

  9
$PUCSNAME
  2

  9
$PUCSORG
 10
0.0
 20
0.0
 30
0.0
  9
$PUCSXDIR
 10
1.0
 20
0.0
 30
0.0
  9
$PUCSYDIR
 10
0.0
 20
1.0
 30
0.0
  9
$PUCSORTHOREF
  2

  9
$PUCSORTHOVIEW
 70
     0
  9
$PUCSORGTOP
 10
0.0
 20
0.0
 30
0.0
  9
$PUCSORGBOTTOM
 10
0.0
 20
0.0
 30
0.0
  9
$PUCSORGLEFT
 10
0.0
 20
0.0
 30
0.0
  9
$PUCSORGRIGHT
 10
0.0
 20
0.0
 30
0.0
  9
$PUCSORGFRONT
 10
0.0
 20
0.0
 30
0.0
  9
$PUCSORGBACK
 10
0.0
 20
0.0
 30
0.0
  9
$USERI1
 70
     0
  9
$USERI2
 70
     0
  9
$USERI3
 70
     0
  9
$USERI4
 70
     0
  9
$USERI5
 70
     0
  9
$USERR1
 40
0.0
  9
$USERR2
 40
0.0
  9
$USERR3
 40
0.0
  9
$USERR4
 40
0.0
  9
$USERR5
 40
0.0
  9
$WORLDVIEW
 70
     1
  9
$SHADEDGE
 70
     3
  9
$SHADEDIF
 70
    70
  9
$TILEMODE
 70
     1
  9
$MAXACTVP
 70
    64
  9
$PINSBASE
 10
0.0
 20
0.0
 30
0.0
  9
$PLIMCHECK
 70
     0
  9
$PEXTMIN
 10
0.0
 20
0.0
 30
0.0
  9
$PEXTMAX
 10
210.0
 20
297.0
 30
0.0
  9
$PLIMMIN
 10
0.0
 20
0.0
  9
$PLIMMAX
 10
210.0
 20
297.0
  9
$UNITMODE
 70
     0
  9
$VISRETAIN
 70
     1
  9
$PLINEGEN
 70
     0
  9
$PSLTSCALE
 70
     1
  9
$TREEDEPTH
 70
  3020
  9
$CMLSTYLE
  2
Standard
  9
$CMLJUST
 70
     0
  9
$CMLSCALE
 40
20.0
  9
$PROXYGRAPHICS
 70
     1
  9
$MEASUREMENT
 70
     1
  9
$CELWEIGHT
370
    -1
  9
$ENDCAPS
280
     0
  9
$JOINSTYLE
280
     0
  9
$LWDISPLAY
290
     0
  9
$INSUNITS
 70
     4
  9
$HYPERLINKBASE
  1

  9
$STYLESHEET
  1

  9
$XEDIT
290
     1
  9
$CEPSNTYPE
380
     0
  9
$PSTYLEMODE
290
     1
  9
$FINGERPRINTGUID
  2
{F72C2C4A-2989-4A17-A961-D0B4DADE1F2F}
  9
$VERSIONGUID
  2
{FAEB1C32-E019-11D5-929B-00C0DF256EC4}
  9
$EXTNAMES
290
     1
  9
$PSVPSCALE
 40
0.0
  9
$OLESTARTUP
290
     0
  0
ENDSEC
  0
SECTION
  2
CLASSES
  0
CLASS
  1
ACDBDICTIONARYWDFLT
  2
AcDbDictionaryWithDefault
  3
ObjectDBX Classes
 90
        0
280
     0
281
     0
  0
CLASS
  1
VISUALSTYLE
  2
AcDbVisualStyle
  3
ObjectDBX Classes
 90
     4095
280
     0
281
     0
  0
CLASS
  1
MATERIAL
  2
AcDbMaterial
  3
ObjectDBX Classes
 90
     1153
280
     0
281
     0
  0
CLASS
  1
DICTIONARYVAR
  2
AcDbDictionaryVar
  3
ObjectDBX Classes
 90
        0
280
     0
281
     0
  0
CLASS
  1
ACDBPLACEHOLDER
  2
AcDbPlaceHolder
  3
ObjectDBX Classes
 90
        0
280
     0
281
     0
  0
CLASS
  1
LAYOUT
  2
AcDbLayout
  3
ObjectDBX Classes
 90
        0
280
     0
281
     0
  0
ENDSEC
  0
SECTION
  2
TABLES
  0
TABLE
  2
VPORT
  5
8
330
0
100
AcDbSymbolTable
 70
     1
  0
VPORT
  5
29
330
8
100
AcDbSymbolTableRecord
100
AcDbViewportTableRecord
  2
*Active
 70
     0
 10
0.0
 20
0.0
 11
1.0
 21
1.0
 12
344.1869158879
 22
148.5
 13
0.0
 23
0.0
 14
10.0
 24
10.0
 15
10.0
 25
10.0
 16
0.0
 26
0.0
 36
1.0
 17
0.0
 27
0.0
 37
0.0
 40
297.0
 41
1.9729729729
 42
50.0
 43
0.0
 44
0.0
 50
0.0
 51
0.0
 71
     0
 72
   100
 73
     1
 74
     3
 75
     0
 76
     0
 77
     0
 78
     0
281
     0
 65
     1
110
0.0
120
0.0
130
0.0
111
1.0
121
0.0
131
0.0
112
0.0
122
1.0
132
0.0
 79
     0
146
0.0
  0
ENDTAB
  0
TABLE
  2
LTYPE
  5
5
330
0
100
AcDbSymbolTable
 70
     2
  0
LTYPE
  5
14
330
5
100
AcDbSymbolTableRecord
100
AcDbLinetypeTableRecord
  2
ByBlock
 70
     0
  3

 72
    65
 73
     0
 40
0.0
  0
LTYPE
  5
15
330
5
100
AcDbSymbolTableRecord
100
AcDbLinetypeTableRecord
  2
ByLayer
 70
     0
  3

 72
    65
 73
     0
 40
0.0
  0
LTYPE
  5
16
330
5
100
AcDbSymbolTableRecord
100
AcDbLinetypeTableRecord
  2
Continuous
 70
     0
  3
Solid line
 72
    65
 73
     0
 40
0.0
  0
LTYPE
  5
5A
330
5
100
AcDbSymbolTableRecord
100
AcDbLinetypeTableRecord
  2
HIDDEN2
 70
     0
  3
Hidden (.5x) _ _ _ _ _ _ _ _ _ _ _ _ _ _ _ _ _ 
 72
    65
 73
     2
 40
4.7625
 49
3.175
 74
     4
 75
     0
340
0
 46
0.0
 50
0.0
 44
0.0
 45
0.0
 49
-1.5875
 74
     4
 75
     0
340
0
 46
0.0
 50
0.0
 44
0.0
 45
0.0
  0
ENDTAB
  0
TABLE
  2
LAYER
  5
2
330
0
100
AcDbSymbolTable
 70
     5
  0
LAYER
  5
10
330
2
100
AcDbSymbolTableRecord
100
AcDbLayerTableRecord
  2
0
 70
     0
 62
     7
  6
Continuous
370
    -3
390
F
  0
LAYER
  5
3F
330
2
100
AcDbSymbolTableRecord
100
AcDbLayerTableRecord
  2
SK2
 70
     0
 62
     7
  6
Continuous
370
    15
390
F
  0
LAYER
  5
40
330
2
100
AcDbSymbolTableRecord
100
AcDbLayerTableRecord
  2
SK1
 70
     0
 62
     4
  6
Continuous
370
    18
390
F
  0
LAYER
  5
59
330
2
100
AcDbSymbolTableRecord
100
AcDbLayerTableRecord
  2
SK3
 70
     0
 62
     1
  6
HIDDEN2
370
    15
390
F
  0
LAYER
  5
115
330
2
100
AcDbSymbolTableRecord
100
AcDbLayerTableRecord
  2
SK4
 70
     0
 62
     2
  6
Continuous
370
    13
390
F
  0
ENDTAB
  0
TABLE
  2
STYLE
  5
3
330
0
100
AcDbSymbolTable
 70
     2
  0
STYLE
  5
11
330
3
100
AcDbSymbolTableRecord
100
AcDbTextStyleTableRecord
  2
Standard
 70
     0
 40
0.0
 41
1.0
 50
0.0
 71
     0
 42
2.5
  3
txt
  4

  0
STYLE
  5
129
330
3
100
AcDbSymbolTableRecord
100
AcDbTextStyleTableRecord
  2
SEACAD_Solid_Edge_ISO
 70
     0
 40
0.0
 41
1.0
 50
0.0
 71
     0
 42
0.2
  3
seiso.ttf
  4

1001
ACAD
1000
Solid Edge ISO
1071
        0
  0
ENDTAB
  0
TABLE
  2
VIEW
  5
6
330
0
100
AcDbSymbolTable
 70
     0
  0
ENDTAB
  0
TABLE
  2
UCS
  5
7
330
0
100
AcDbSymbolTable
 70
     0
  0
ENDTAB
  0
TABLE
  2
APPID
  5
9
330
0
100
AcDbSymbolTable
 70
     1
  0
APPID
  5
12
330
9
100
AcDbSymbolTableRecord
100
AcDbRegAppTableRecord
  2
ACAD
 70
     0
  0
ENDTAB
  0
TABLE
  2
DIMSTYLE
  5
A
330
0
100
AcDbSymbolTable
 70
     3
100
AcDbDimStyleTable
  0
DIMSTYLE
105
27
330
A
100
AcDbSymbolTableRecord
100
AcDbDimStyleTableRecord
  2
ISO-25
 70
     0
 41
2.5
 42
0.625
 43
3.75
 44
1.25
 73
     0
 74
     0
 77
     1
 78
     8
140
2.5
141
2.5
143
0.0393700787
147
0.625
171
     3
172
     1
178
     0
271
     2
272
     2
274
     3
278
    44
283
     0
284
     8
340
11
  0
DIMSTYLE
105
117
330
A
100
AcDbSymbolTableRecord
100
AcDbDimStyleTableRecord
  2
Standard
 70
     0
178
     0
340
11
  0
DIMSTYLE
105
12A
102
{ACAD_REACTORS
330
12B
330
136
330
140
330
14B
102
}
330
A
100
AcDbSymbolTableRecord
100
AcDbDimStyleTableRecord
  2
DIN
 70
     0
 41
3.5
 42
0.0
 44
1.75
 73
     0
 74
     0
 77
     1
 78
     8
140
3.5
141
1.75
147
1.75
172
     1
173
     1
178
     0
179
     3
271
     2
272
     2
278
    44
284
     8
340
129
343
124
344
124
  0
ENDTAB
  0
TABLE
  2
BLOCK_RECORD
  5
1
330
0
100
AcDbSymbolTable
 70
    10
  0
BLOCK_RECORD
  5
1F
330
1
100
AcDbSymbolTableRecord
100
AcDbBlockTableRecord
  2
*Model_Space
340
22
  0
BLOCK_RECORD
  5
1B
330
1
100
AcDbSymbolTableRecord
100
AcDbBlockTableRecord
  2
*Paper_Space
340
1E
  0
BLOCK_RECORD
  5
41
330
1
100
AcDbSymbolTableRecord
100
AcDbBlockTableRecord
  2
Nullpunkt
340
0
102
{BLKREFS
331
4B
102
}
  0
BLOCK_RECORD
  5
4C
330
1
100
AcDbSymbolTableRecord
100
AcDbBlockTableRecord
  2
Einfügepunkt
340
0
102
{BLKREFS
331
56
102
}
  0
BLOCK_RECORD
  5
118
330
1
100
AcDbSymbolTableRecord
100
AcDbBlockTableRecord
  2
_OBLIQUE
340
0
  0
BLOCK_RECORD
  5
11C
330
1
100
AcDbSymbolTableRecord
100
AcDbBlockTableRecord
  2
_DOT
340
0
  0
BLOCK_RECORD
  5
124
330
1
100
AcDbSymbolTableRecord
100
AcDbBlockTableRecord
  2
_SE_FILLED
340
0
  0
BLOCK_RECORD
  5
12C
330
1
100
AcDbSymbolTableRecord
100
AcDbBlockTableRecord
  2
DMBLK49
340
0
  0
BLOCK_RECORD
  5
137
330
1
100
AcDbSymbolTableRecord
100
AcDbBlockTableRecord
  2
DMBLK50
340
0
  0
BLOCK_RECORD
  5
141
330
1
100
AcDbSymbolTableRecord
100
AcDbBlockTableRecord
  2
DMBLK51
340
0
  0
BLOCK_RECORD
  5
14C
330
1
100
AcDbSymbolTableRecord
100
AcDbBlockTableRecord
  2
DMBLK52
340
0
  0
ENDTAB
  0
ENDSEC
  0
SECTION
  2
BLOCKS
  0
BLOCK
  5
20
330
1F
100
AcDbEntity
  8
0
100
AcDbBlockBegin
  2
*Model_Space
 70
     0
 10
0.0
 20
0.0
 30
0.0
  3
*Model_Space
  1

  0
ENDBLK
  5
21
330
1F
100
AcDbEntity
  8
0
100
AcDbBlockEnd
  0
BLOCK
  5
1C
330
1B
100
AcDbEntity
 67
     1
  8
0
100
AcDbBlockBegin
  2
*Paper_Space
 70
     0
 10
0.0
 20
0.0
 30
0.0
  3
*Paper_Space
  1

  0
ENDBLK
  5
1D
330
1B
100
AcDbEntity
 67
     1
  8
0
100
AcDbBlockEnd
  0
BLOCK
  5
49
330
41
100
AcDbEntity
  8
0
100
AcDbBlockBegin
  2
Nullpunkt
 70
     0
 10
0.0
 20
0.0
 30
0.0
  3
Nullpunkt
  1

  0
HATCH
  5
42
330
41
100
AcDbEntity
  8
SK2
  6
Continuous
 62
     7
100
AcDbHatch
 10
0.0
 20
0.0
 30
0.0
210
0.0
220
0.0
230
1.0
  2
SOLID
 70
     1
 71
     0
 91
        1
 92
        1
 93
        3
 72
     1
 10
-1.0
 20
0.0
 11
0.0000000000000009
 21
0.0
 72
     1
 10
0.0
 20
0.0
 11
0.0
 21
1.000000000000001
 72
     2
 10
0.0
 20
0.0
 40
1.0
 50
90.0
 51
180.0
 73
     1
 97
        0
 75
     0
 76
     1
 98
        0
  0
HATCH
  5
43
330
41
100
AcDbEntity
  8
SK2
  6
Continuous
 62
     7
100
AcDbHatch
 10
0.0
 20
0.0
 30
0.0
210
0.0
220
0.0
230
1.0
  2
SOLID
 70
     1
 71
     0
 91
        1
 92
        1
 93
        3
 72
     2
 10
0.0
 20
0.0
 40
1.0
 50
270.0
 51
360.0
 73
     1
 72
     1
 10
1.0
 20
0.0
 11
-0.0000000000000009
 21
0.0
 72
     1
 10
0.0
 20
0.0
 11
0.0
 21
-1.000000000000001
 97
        0
 75
     0
 76
     1
 98
        0
  0
CIRCLE
  5
44
330
41
100
AcDbEntity
  8
SK2
  6
Continuous
 62
     7
100
AcDbCircle
 10
0.0
 20
0.0
 30
0.0
 40
1.0
  0
LINE
  5
45
330
41
100
AcDbEntity
  8
SK1
  6
Continuous
100
AcDbLine
 10
-1.0
 20
0.0
 30
0.0
 11
1.0
 21
0.0
 31
0.0
  0
LINE
  5
46
330
41
100
AcDbEntity
  8
SK1
  6
Continuous
100
AcDbLine
 10
0.0
 20
1.0
 30
0.0
 11
0.0
 21
-1.0
 31
0.0
  0
POINT
  5
47
330
41
100
AcDbEntity
  8
SK1
  6
Continuous
100
AcDbPoint
 10
0.0
 20
0.0
 30
0.0
  0
POINT
  5
48
330
41
100
AcDbEntity
  8
SK1
  6
Continuous
100
AcDbPoint
 10
0.0
 20
0.0
 30
0.0
  0
ENDBLK
  5
4A
330
41
100
AcDbEntity
  8
0
100
AcDbBlockEnd
  0
BLOCK
  5
54
330
4C
100
AcDbEntity
  8
0
100
AcDbBlockBegin
  2
Einfügepunkt
 70
     0
 10
0.0
 20
0.0
 30
0.0
  3
Einfügepunkt
  1

  0
HATCH
  5
4D
330
4C
100
AcDbEntity
  8
SK2
  6
Continuous
 62
     7
100
AcDbHatch
 10
0.0
 20
0.0
 30
0.0
210
0.0
220
0.0
230
1.0
  2
SOLID
 70
     1
 71
     0
 91
        1
 92
        1
 93
        3
 72
     1
 10
-0.4502381196756744
 20
-0.0000000000000018
 11
0.0000000000000033
 21
-0.0000000000000018
 72
     1
 10
0.0
 20
-0.0000000000000018
 11
0.0
 21
0.4502381196756812
 72
     2
 10
0.0
 20
-0.0000000000000018
 40
0.4502381196756812
 50
90.0
 51
180.0
 73
     1
 97
        0
 75
     0
 76
     1
 98
        0
  0
HATCH
  5
4E
330
4C
100
AcDbEntity
  8
SK2
  6
Continuous
 62
     7
100
AcDbHatch
 10
0.0
 20
0.0
 30
0.0
210
0.0
220
0.0
230
1.0
  2
SOLID
 70
     1
 71
     0
 91
        1
 92
        1
 93
        3
 72
     2
 10
0.0
 20
-0.0000000000000018
 40
0.4502381196756812
 50
270.0
 51
360.0
 73
     1
 72
     1
 10
0.4502381196756815
 20
-0.0000000000000018
 11
0.0000000000000038
 21
-0.0000000000000018
 72
     1
 10
0.0
 20
-0.0000000000000018
 11
0.0
 21
-0.4502381196756812
 97
        0
 75
     0
 76
     1
 98
        0
  0
CIRCLE
  5
4F
330
4C
100
AcDbEntity
  8
SK2
  6
Continuous
 62
     7
100
AcDbCircle
 10
0.0
 20
0.0
 30
0.0
 40
0.4502381196756812
  0
LINE
  5
50
330
4C
100
AcDbEntity
  8
SK1
  6
Continuous
100
AcDbLine
 10
-0.4502381197
 20
0.0
 30
0.0
 11
0.4502381197
 21
0.0
 31
0.0
  0
LINE
  5
51
330
4C
100
AcDbEntity
  8
SK1
  6
Continuous
100
AcDbLine
 10
0.0
 20
0.4502381197
 30
0.0
 11
0.0
 21
-0.4502381197
 31
0.0
  0
POINT
  5
52
330
4C
100
AcDbEntity
  8
SK2
  6
Continuous
 62
     7
100
AcDbPoint
 10
0.0
 20
0.0
 30
0.0
  0
POINT
  5
53
330
4C
100
AcDbEntity
  8
SK2
  6
Continuous
 62
     7
100
AcDbPoint
 10
0.0
 20
0.0
 30
0.0
  0
ENDBLK
  5
55
330
4C
100
AcDbEntity
  8
0
100
AcDbBlockEnd
  0
BLOCK
  5
119
330
118
100
AcDbEntity
  8
0
100
AcDbBlockBegin
  2
_OBLIQUE
 70
     0
 10
0.0
 20
0.0
 30
0.0
  3
_OBLIQUE
  1

  0
LINE
  5
11B
330
118
100
AcDbEntity
  8
0
  6
ByBlock
 62
     0
370
    -2
100
AcDbLine
 10
-0.5
 20
-0.5
 30
0.0
 11
0.5
 21
0.5
 31
0.0
  0
ENDBLK
  5
11A
330
118
100
AcDbEntity
  8
0
100
AcDbBlockEnd
  0
BLOCK
  5
11D
330
11C
100
AcDbEntity
  8
0
100
AcDbBlockBegin
  2
_DOT
 70
     0
 10
0.0
 20
0.0
 30
0.0
  3
_DOT
  1

  0
POLYLINE
  5
11F
330
11C
100
AcDbEntity
  8
0
  6
ByBlock
 62
     0
100
AcDb2dPolyline
 66
     1
 10
0.0
 20
0.0
 30
0.0
 70
     1
 40
0.5
 41
0.5
  0
VERTEX
  5
121
330
11F
100
AcDbEntity
  8
0
  6
ByBlock
 62
     0
100
AcDbVertex
100
AcDb2dVertex
 10
-0.25
 20
0.0
 30
0.0
 42
1.0
  0
VERTEX
  5
122
330
11F
100
AcDbEntity
  8
0
  6
ByBlock
 62
     0
100
AcDbVertex
100
AcDb2dVertex
 10
0.25
 20
0.0
 30
0.0
 42
1.0
  0
SEQEND
  5
123
330
11F
100
AcDbEntity
  8
0
  6
ByBlock
 62
     0
  0
LINE
  5
120
330
11C
100
AcDbEntity
  8
0
  6
ByBlock
 62
     0
370
    -2
100
AcDbLine
 10
-0.5
 20
0.0
 30
0.0
 11
-1.0
 21
0.0
 31
0.0
  0
ENDBLK
  5
11E
330
11C
100
AcDbEntity
  8
0
100
AcDbBlockEnd
  0
BLOCK
  5
127
330
124
100
AcDbEntity
  8
0
100
AcDbBlockBegin
  2
_SE_FILLED
 70
     0
 10
0.0
 20
0.0
 30
0.0
  3
_SE_FILLED
  1

  0
SOLID
  5
125
330
124
100
AcDbEntity
  8
0
 62
     0
100
AcDbTrace
 10
0.0
 20
0.0
 30
0.0
 11
-1.0
 21
-0.1665
 31
0.0
 12
-1.0
 22
0.1665
 32
0.0
 13
0.0
 23
0.0
 33
0.0
  0
LINE
  5
126
330
124
100
AcDbEntity
  8
0
 62
     0
100
AcDbLine
 10
0.0
 20
0.0
 30
0.0
 11
-1.0
 21
0.0
 31
0.0
  0
ENDBLK
  5
128
330
124
100
AcDbEntity
  8
0
100
AcDbBlockEnd
  0
BLOCK
  5
134
330
12C
100
AcDbEntity
  8
0
100
AcDbBlockBegin
  2
DMBLK49
 70
     0
 10
0.0
 20
0.0
 30
0.0
  3
DMBLK49
  1

  0
HATCH
  5
12D
330
12C
100
AcDbEntity
  8
SK2
  6
Continuous
 62
   136
100
AcDbHatch
 10
0.0
 20
0.0
 30
0.0
210
0.0
220
0.0
230
1.0
  2
SOLID
 70
     1
 71
     0
 91
        1
 92
        1
 93
        3
 72
     1
 10
20.97474032404523
 20
-12.39000000826272
 11
20.39140697270632
 21
-8.8899999002293
 72
     1
 10
20.39140697270632
 20
-8.8899999002293
 11
19.80807362136742
 21
-12.39000000826272
 72
     1
 10
19.80807362136742
 20
-12.39000000826272
 11
20.97474032404523
 21
-12.39000000826272
 97
        0
 75
     0
 76
     1
 98
        0
  0
HATCH
  5
12E
330
12C
100
AcDbEntity
  8
SK2
  6
Continuous
 62
   136
100
AcDbHatch
 10
0.0
 20
0.0
 30
0.0
210
0.0
220
0.0
230
1.0
  2
SOLID
 70
     1
 71
     0
 91
        1
 92
        1
 93
        3
 72
     1
 10
20.97474032404523
 20
12.39000020780412
 11
19.80807362136742
 21
12.39000020780412
 72
     1
 10
19.80807362136742
 20
12.39000020780412
 11
20.39140697270632
 21
8.890000099770697
 72
     1
 10
20.39140697270632
 20
8.890000099770697
 11
20.97474032404523
 21
12.39000020780412
 97
        0
 75
     0
 76
     1
 98
        0
  0
LINE
  5
12F
330
12C
100
AcDbEntity
  8
SK2
  6
Continuous
 62
   136
100
AcDbLine
 10
10.7
 20
-8.8899999002
 30
0.0
 11
22.1414070267
 21
-8.8899999002
 31
0.0
  0
LINE
  5
130
330
12C
100
AcDbEntity
  8
SK2
  6
Continuous
 62
   136
100
AcDbLine
 10
10.7
 20
8.8900000998
 30
0.0
 11
22.1414070267
 21
8.8900000998
 31
0.0
  0
LINE
  5
131
330
12C
100
AcDbEntity
  8
SK2
  6
Continuous
 62
   136
100
AcDbLine
 10
20.3914069727
 20
-15.8900001163
 30
0.0
 11
20.3914069727
 21
15.8899997284
 31
0.0
  0
TEXT
  5
132
330
12C
100
AcDbEntity
  8
SK2
  6
Continuous
 62
   136
100
AcDbText
 10
19.5164069727
 20
-2.3386360919
 30
0.0
 40
3.5
  1
17,78
 50
90.0
  7
SEACAD_Solid_Edge_ISO
 11
16.0164069727
 21
-2.3386360919
 31
0.0
100
AcDbText
 73
     3
  0
TEXT
  5
133
330
12C
100
AcDbEntity
  8
SK2
  6
Continuous
 62
   136
100
AcDbText
 10
19.5164069727
 20
-6.4113633646
 30
0.0
 40
3.5
  1
ø
 50
90.0
  7
SEACAD_Solid_Edge_ISO
 11
16.0164069727
 21
-6.4113633646
 31
0.0
100
AcDbText
 73
     3
  0
ENDBLK
  5
135
330
12C
100
AcDbEntity
  8
0
100
AcDbBlockEnd
  0
BLOCK
  5
13E
330
137
100
AcDbEntity
  8
0
100
AcDbBlockBegin
  2
DMBLK50
 70
     0
 10
0.0
 20
0.0
 30
0.0
  3
DMBLK50
  1

  0
HATCH
  5
138
330
137
100
AcDbEntity
  8
SK2
  6
Continuous
 62
   136
100
AcDbHatch
 10
0.0
 20
0.0
 30
0.0
210
0.0
220
0.0
230
1.0
  2
SOLID
 70
     1
 71
     0
 91
        1
 92
        1
 93
        3
 72
     1
 10
-3.500000108033419
 20
-28.40817706122519
 11
0.0
 21
-27.82484370988628
 72
     1
 10
0.0
 20
-27.82484370988628
 11
-3.500000108033419
 21
-27.24151035854738
 72
     1
 10
-3.500000108033419
 20
-27.24151035854738
 11
-3.500000108033419
 21
-28.40817706122519
 97
        0
 75
     0
 76
     1
 98
        0
  0
HATCH
  5
139
330
137
100
AcDbEntity
  8
SK2
  6
Continuous
 62
   136
100
AcDbHatch
 10
0.0
 20
0.0
 30
0.0
210
0.0
220
0.0
230
1.0
  2
SOLID
 70
     1
 71
     0
 91
        1
 92
        1
 93
        3
 72
     1
 10
14.60000010803342
 20
-28.40817706122519
 11
14.60000010803342
 21
-27.24151035854738
 72
     1
 10
14.60000010803342
 20
-27.24151035854738
 11
11.1
 21
-27.82484370988628
 72
     1
 10
11.1
 20
-27.82484370988628
 11
14.60000010803342
 21
-28.40817706122519
 97
        0
 75
     0
 76
     1
 98
        0
  0
LINE
  5
13A
330
137
100
AcDbEntity
  8
SK2
  6
Continuous
 62
   136
100
AcDbLine
 10
0.0
 20
-19.9937489234
 30
0.0
 11
0.0
 21
-29.5748437639
 31
0.0
  0
LINE
  5
13B
330
137
100
AcDbEntity
  8
SK2
  6
Continuous
 62
   136
100
AcDbLine
 10
11.1
 20
-16.5142104486
 30
0.0
 11
11.1
 21
-29.5748437639
 31
0.0
  0
LINE
  5
13C
330
137
100
AcDbEntity
  8
SK2
  6
Continuous
 62
   136
100
AcDbLine
 10
-7.0000002161
 20
-27.8248437099
 30
0.0
 11
18.1000009179
 21
-27.8248437099
 31
0.0
  0
TEXT
  5
13D
330
137
100
AcDbEntity
  8
SK2
  6
Continuous
 62
   136
100
AcDbText
 10
3.0840907944
 20
-26.9498437099
 30
0.0
 40
3.5
  1
11,1
  7
SEACAD_Solid_Edge_ISO
 11
3.0840907944
 21
-23.4498437099
 31
0.0
100
AcDbText
 73
     3
  0
ENDBLK
  5
13F
330
137
100
AcDbEntity
  8
0
100
AcDbBlockEnd
  0
BLOCK
  5
149
330
141
100
AcDbEntity
  8
0
100
AcDbBlockBegin
  2
DMBLK51
 70
     0
 10
0.0
 20
0.0
 30
0.0
  3
DMBLK51
  1

  0
HATCH
  5
142
330
141
100
AcDbEntity
  8
SK2
  6
Continuous
 62
   136
100
AcDbHatch
 10
0.0
 20
0.0
 30
0.0
210
0.0
220
0.0
230
1.0
  2
SOLID
 70
     1
 71
     0
 91
        1
 92
        1
 93
        3
 72
     1
 10
-42.00726134392122
 20
-16.49374881532809
 11
-41.42392799258232
 21
-19.99374892336151
 72
     1
 10
-41.42392799258232
 20
-19.99374892336151
 11
-40.84059464124342
 21
-16.49374881532809
 72
     1
 10
-40.84059464124342
 20
-16.49374881532809
 11
-42.00726134392122
 21
-16.49374881532809
 97
        0
 75
     0
 76
     1
 98
        0
  0
HATCH
  5
143
330
141
100
AcDbEntity
  8
SK2
  6
Continuous
 62
   136
100
AcDbHatch
 10
0.0
 20
0.0
 30
0.0
210
0.0
220
0.0
230
1.0
  2
SOLID
 70
     1
 71
     0
 91
        1
 92
        1
 93
        3
 72
     1
 10
-42.00726134392122
 20
16.49374800029376
 11
-40.84059464124342
 21
16.49374800029376
 72
     1
 10
-40.84059464124342
 20
16.49374800029376
 11
-41.42392799258232
 21
19.99374810832718
 72
     1
 10
-41.42392799258232
 20
19.99374810832718
 11
-42.00726134392122
 21
16.49374800029376
 97
        0
 75
     0
 76
     1
 98
        0
  0
LINE
  5
144
330
141
100
AcDbEntity
  8
SK2
  6
Continuous
 62
   136
100
AcDbLine
 10
0.0
 20
-19.9937489234
 30
0.0
 11
-43.1739280466
 21
-19.9937489234
 31
0.0
  0
LINE
  5
145
330
141
100
AcDbEntity
  8
SK2
  6
Continuous
 62
   136
100
AcDbLine
 10
0.0
 20
19.9937491229
 30
0.0
 11
-43.1739280466
 21
19.9937491229
 31
0.0
  0
LINE
  5
146
330
141
100
AcDbEntity
  8
SK2
  6
Continuous
 62
   136
100
AcDbLine
 10
-41.4239279926
 20
-19.9937489234
 30
0.0
 11
-41.4239279926
 21
19.9937481083
 31
0.0
  0
TEXT
  5
147
330
141
100
AcDbEntity
  8
SK2
  6
Continuous
 62
   136
100
AcDbText
 10
-42.2989279926
 20
-0.0318185893
 30
0.0
 40
3.5
  1
40
 50
90.0
  7
SEACAD_Solid_Edge_ISO
 11
-45.7989279926
 21
-0.0318185893
 31
0.0
100
AcDbText
 73
     3
  0
TEXT
  5
148
330
141
100
AcDbEntity
  8
SK2
  6
Continuous
 62
   136
100
AcDbText
 10
-42.2989279926
 20
-4.1045458621
 30
0.0
 40
3.5
  1
ø
 50
90.0
  7
SEACAD_Solid_Edge_ISO
 11
-45.7989279926
 21
-4.1045458621
 31
0.0
100
AcDbText
 73
     3
  0
ENDBLK
  5
14A
330
141
100
AcDbEntity
  8
0
100
AcDbBlockEnd
  0
BLOCK
  5
153
330
14C
100
AcDbEntity
  8
0
100
AcDbBlockBegin
  2
DMBLK52
 70
     0
 10
0.0
 20
0.0
 30
0.0
  3
DMBLK52
  1

  0
HATCH
  5
14D
330
14C
100
AcDbEntity
  8
SK2
  6
Continuous
 62
   136
100
AcDbHatch
 10
0.0
 20
0.0
 30
0.0
210
0.0
220
0.0
230
1.0
  2
SOLID
 70
     1
 71
     0
 91
        1
 92
        1
 93
        3
 72
     1
 10
-31.39999989196658
 20
27.5835123855102
 11
-34.90000000000001
 21
27.0001790341713
 72
     1
 10
-34.9
 20
27.0001790341713
 11
-31.39999989196658
 21
26.4168456828324
 72
     1
 10
-31.39999989196658
 20
26.4168456828324
 11
-31.39999989196658
 21
27.5835123855102
 97
        0
 75
     0
 76
     1
 98
        0
  0
HATCH
  5
14E
330
14C
100
AcDbEntity
  8
SK2
  6
Continuous
 62
   136
100
AcDbHatch
 10
0.0
 20
0.0
 30
0.0
210
0.0
220
0.0
230
1.0
  2
SOLID
 70
     1
 71
     0
 91
        1
 92
        1
 93
        3
 72
     1
 10
7.599999981373548
 20
27.5835123855102
 11
7.599999981373548
 21
26.4168456828324
 72
     1
 10
7.599999981373548
 20
26.4168456828324
 11
11.10000008940697
 21
27.0001790341713
 72
     1
 10
11.10000008940697
 20
27.0001790341713
 11
7.599999981373548
 21
27.5835123855102
 97
        0
 75
     0
 76
     1
 98
        0
  0
LINE
  5
14F
330
14C
100
AcDbEntity
  8
SK2
  6
Continuous
 62
   136
100
AcDbLine
 10
-34.9
 20
14.7389317718
 30
0.0
 11
-34.9
 21
28.7501790882
 31
0.0
  0
LINE
  5
150
330
14C
100
AcDbEntity
  8
SK2
  6
Continuous
 62
   136
100
AcDbLine
 10
11.1
 20
16.5142106482
 30
0.0
 11
11.1
 21
28.7501790882
 31
0.0
  0
LINE
  5
151
330
14C
100
AcDbEntity
  8
SK2
  6
Continuous
 62
   136
100
AcDbLine
 10
-34.9
 20
27.0001790342
 30
0.0
 11
11.1000000894
 21
27.0001790342
 31
0.0
  0
TEXT
  5
152
330
14C
100
AcDbEntity
  8
SK2
  6
Continuous
 62
   136
100
AcDbText
 10
-14.0079545008
 20
27.8751790342
 30
0.0
 40
3.5
  1
46
  7
SEACAD_Solid_Edge_ISO
 11
-14.0079545008
 21
31.3751790342
 31
0.0
100
AcDbText
 73
     3
  0
ENDBLK
  5
154
330
14C
100
AcDbEntity
  8
0
100
AcDbBlockEnd
  0
ENDSEC
  0
SECTION
  2
ENTITIES
  0
INSERT
  5
4B
330
1F
100
AcDbEntity
  8
SK2
 62
     7
100
AcDbBlockReference
  2
Nullpunkt
 10
0.0
 20
0.0000000998
 30
0.0
  0
INSERT
  5
56
330
1F
100
AcDbEntity
  8
SK2
 62
     7
100
AcDbBlockReference
  2
Einfügepunkt
 10
11.1
 20
0.0000000998
 30
0.0
  0
LINE
  5
57
330
1F
100
AcDbEntity
  8
SK1
  6
Continuous
100
AcDbLine
 10
0.2
 20
12.4401951826
 30
0.0
 11
0.2
 21
0.5000000998
 31
0.0
  0
LINE
  5
58
330
1F
100
AcDbEntity
  8
SK1
  6
Continuous
100
AcDbLine
 10
3.9
 20
-18.0999999002
 30
0.0
 11
3.9
 21
-13.1473017642
 31
0.0
  0
LINE
  5
5B
330
1F
100
AcDbEntity
  8
SK3
100
AcDbLine
 10
-9.7
 20
6.8847287292
 30
0.0
 11
-9.7
 21
9.2364767007
 31
0.0
  0
LINE
  5
5C
330
1F
100
AcDbEntity
  8
SK3
100
AcDbLine
 10
-13.7
 20
6.8847287292
 30
0.0
 11
-13.7
 21
9.2364767007
 31
0.0
  0
LINE
  5
5D
330
1F
100
AcDbEntity
  8
SK3
100
AcDbLine
 10
-27.1
 20
7.4157769363
 30
0.0
 11
-27.1
 21
9.9874922775
 31
0.0
  0
LINE
  5
5E
330
1F
100
AcDbEntity
  8
SK3
100
AcDbLine
 10
-25.0
 20
-7.5391488438
 30
0.0
 11
-25.0
 21
-5.9284972367
 31
0.0
  0
LINE
  5
5F
330
1F
100
AcDbEntity
  8
SK3
100
AcDbLine
 10
-25.0
 20
2.3603460928
 30
0.0
 11
-25.0
 21
5.2213906551
 31
0.0
  0
LINE
  5
60
330
1F
100
AcDbEntity
  8
SK3
100
AcDbLine
 10
-26.25
 20
9.1164309014
 30
0.0
 11
-26.25
 21
9.1363286841
 31
0.0
  0
ARC
  5
61
330
1F
100
AcDbEntity
  8
SK3
100
AcDbCircle
 10
-35.5555067117
 20
0.4578374168
 30
0.0
 40
12.71077087718885
100
AcDbArc
 50
33.8562459995
 51
42.9375873414
  0
ARC
  5
62
330
1F
100
AcDbEntity
  8
SK3
100
AcDbCircle
 10
-35.5413689231
 20
9.4304534849
 30
0.0
 40
12.6927883976613
100
AcDbArc
 50
317.0559661434
 51
326.1502005157
  0
LINE
  5
63
330
1F
100
AcDbEntity
  8
SK3
100
AcDbLine
 10
-26.25
 20
-0.7830640352
 30
0.0
 11
-26.25
 21
-0.4999999002
 31
0.0
  0
ARC
  5
64
330
1F
100
AcDbEntity
  8
SK3
100
AcDbCircle
 10
-35.5555067117
 20
-9.4416575198
 30
0.0
 40
12.71077087718887
100
AcDbArc
 50
33.8562459995
 51
42.9375873414
  0
ARC
  5
65
330
1F
100
AcDbEntity
  8
SK3
100
AcDbCircle
 10
-35.5413689231
 20
-0.4690414517
 30
0.0
 40
12.69278839766229
100
AcDbArc
 50
317.0559661434
 51
326.1502005157
  0
LINE
  5
66
330
1F
100
AcDbEntity
  8
SK3
100
AcDbLine
 10
-14.4794228634
 20
-7.5391488438
 30
0.0
 11
-14.4794228634
 21
-5.9284972367
 31
0.0
  0
LINE
  5
67
330
1F
100
AcDbEntity
  8
SK3
100
AcDbLine
 10
-14.4794228634
 20
2.3603460928
 30
0.0
 11
-14.4794228634
 21
5.2213906551
 31
0.0
  0
LINE
  5
68
330
1F
100
AcDbEntity
  8
SK3
100
AcDbLine
 10
-13.7577350269
 20
-9.1164307018
 30
0.0
 11
-26.25
 21
-9.1164307018
 31
0.0
  0
LINE
  5
69
330
1F
100
AcDbEntity
  8
SK3
100
AcDbLine
 10
-13.7577350269
 20
-9.1164307018
 30
0.0
 11
-13.7577350269
 21
-9.1363284845
 31
0.0
  0
ARC
  5
6A
330
1F
100
AcDbEntity
  8
SK3
100
AcDbCircle
 10
-1.2266210959
 20
-7.4704408945
 30
0.0
 40
14.20386657249551
100
AcDbArc
 50
151.9128628525
 51
158.9140584134
  0
LINE
  5
6B
330
1F
100
AcDbEntity
  8
SK3
100
AcDbLine
 10
-14.4794228634
 20
-2.3603458933
 30
0.0
 11
-25.0
 21
-2.3603458933
 31
0.0
  0
LINE
  5
6C
330
1F
100
AcDbEntity
  8
SK3
100
AcDbLine
 10
-25.0
 20
-7.5391488438
 30
0.0
 11
-14.4794228634
 21
-7.5391488438
 31
0.0
  0
ARC
  5
6D
330
1F
100
AcDbEntity
  8
SK3
100
AcDbCircle
 10
-1.2184950952
 20
-2.4253357779
 30
0.0
 40
14.21278612183627
100
AcDbArc
 50
201.0881411995
 51
208.0849375346
  0
LINE
  5
6E
330
1F
100
AcDbEntity
  8
SK3
100
AcDbLine
 10
-13.7577350269
 20
-0.7830640352
 30
0.0
 11
-26.25
 21
-0.7830640352
 31
0.0
  0
LINE
  5
6F
330
1F
100
AcDbEntity
  8
SK3
100
AcDbLine
 10
-13.7577350269
 20
0.7830642348
 30
0.0
 11
-26.25
 21
0.7830642348
 31
0.0
  0
LINE
  5
70
330
1F
100
AcDbEntity
  8
SK3
100
AcDbLine
 10
-13.7577350269
 20
0.7830642348
 30
0.0
 11
-13.7577350269
 21
0.5000000998
 31
0.0
  0
ARC
  5
71
330
1F
100
AcDbEntity
  8
SK3
100
AcDbCircle
 10
-1.2266210959
 20
2.4290540421
 30
0.0
 40
14.20386657249578
100
AcDbArc
 50
151.9128628525
 51
158.9140584134
  0
LINE
  5
72
330
1F
100
AcDbEntity
  8
SK3
100
AcDbLine
 10
-14.4794228634
 20
7.5391490433
 30
0.0
 11
-25.0
 21
7.5391490433
 31
0.0
  0
LINE
  5
73
330
1F
100
AcDbEntity
  8
SK3
100
AcDbLine
 10
-25.0
 20
2.3603460928
 30
0.0
 11
-14.4794228634
 21
2.3603460928
 31
0.0
  0
ARC
  5
74
330
1F
100
AcDbEntity
  8
SK3
100
AcDbCircle
 10
-1.2184950952
 20
7.4741591587
 30
0.0
 40
14.21278612183605
100
AcDbArc
 50
201.0881411995
 51
208.0849375346
  0
LINE
  5
75
330
1F
100
AcDbEntity
  8
SK3
100
AcDbLine
 10
-13.7577350269
 20
9.1164309014
 30
0.0
 11
-26.25
 21
9.1164309014
 31
0.0
  0
LINE
  5
76
330
1F
100
AcDbEntity
  8
SK1
  6
Continuous
100
AcDbLine
 10
4.5392304845
 20
20.4464102613
 30
0.0
 11
4.5392304845
 21
14.8070251926
 31
0.0
  0
LINE
  5
77
330
1F
100
AcDbEntity
  8
SK1
  6
Continuous
100
AcDbLine
 10
4.1
 20
20.1928204228
 30
0.0
 11
4.1
 21
14.6276557843
 31
0.0
  0
LINE
  5
78
330
1F
100
AcDbEntity
  8
SK1
  6
Continuous
100
AcDbLine
 10
0.0
 20
14.491269006
 30
0.0
 11
0.0
 21
19.9937491229
 31
0.0
  0
LINE
  5
79
330
1F
100
AcDbEntity
  8
SK1
  6
Continuous
100
AcDbLine
 10
10.975
 20
-16.7307167996
 30
0.0
 11
10.975
 21
-12.1786724861
 31
0.0
  0
LINE
  5
7A
330
1F
100
AcDbEntity
  8
SK1
  6
Continuous
100
AcDbLine
 10
11.1
 20
11.3184034868
 30
0.0
 11
11.1
 21
-11.3184032872
 31
0.0
  0
LINE
  5
7B
330
1F
100
AcDbEntity
  8
SK1
  6
Continuous
100
AcDbLine
 10
10.975
 20
16.7307169991
 30
0.0
 11
10.975
 21
12.1786726856
 31
0.0
  0
SPLINE
  5
7C
330
1F
100
AcDbEntity
  8
SK1
  6
Continuous
100
AcDbSpline
210
0.0
220
0.0
230
1.0
 70
     8
 71
     3
 72
    10
 73
     6
 74
     0
 42
0.000000047004811
 43
0.0000000001
 12
1.0
 22
0.0
 32
0.0
 13
1.0
 23
0.0
 33
0.0
 40
0.0
 40
0.0
 40
0.0
 40
0.0
 40
0.5
 40
0.5
 40
1.0
 40
1.0
 40
1.0
 40
1.0
 10
10.975
 20
12.17867268564561
 30
0.0
 10
11.01290713836796
 20
12.16319024581036
 30
0.0
 10
11.04484532892404
 20
12.14050075336497
 30
0.0
 10
11.08825160787027
 20
12.08727369608415
 30
0.0
 10
11.1
 20
12.05662218658856
 30
0.0
 10
11.1
 20
12.02551026795845
 30
0.0
  0
SPLINE
  5
7D
330
1F
100
AcDbEntity
  8
SK1
  6
Continuous
100
AcDbSpline
210
0.0
220
0.0
230
1.0
 70
     8
 71
     3
 72
    10
 73
     6
 74
     0
 42
0.000000047004811
 43
0.0000000001
 12
1.0
 22
0.0
 32
0.0
 13
1.0
 23
0.0
 33
0.0
 40
0.0
 40
0.0
 40
0.0
 40
0.0
 40
0.5
 40
0.5
 40
1.0
 40
1.0
 40
1.0
 40
1.0
 10
10.975
 20
11.47156590445906
 30
0.0
 10
11.01290713836796
 20
11.45608346462382
 30
0.0
 10
11.04484532892404
 20
11.43339397217843
 30
0.0
 10
11.08825160787027
 20
11.3801669148976
 30
0.0
 10
11.1
 20
11.34951540540201
 30
0.0
 10
11.1
 20
11.3184034867719
 30
0.0
  0
LINE
  5
7E
330
1F
100
AcDbEntity
  8
SK1
  6
Continuous
100
AcDbLine
 10
-31.9
 20
10.6127461998
 30
0.0
 11
-31.9
 21
11.319852981
 31
0.0
  0
LINE
  5
7F
330
1F
100
AcDbEntity
  8
SK1
  6
Continuous
100
AcDbLine
 10
4.1
 20
-20.1928202233
 30
0.0
 11
4.1
 21
-14.6276555848
 31
0.0
  0
LINE
  5
80
330
1F
100
AcDbEntity
  8
SK1
  6
Continuous
100
AcDbLine
 10
4.5392304845
 20
-20.4464100617
 30
0.0
 11
4.5392304845
 21
-14.807024993
 31
0.0
  0
LINE
  5
81
330
1F
100
AcDbEntity
  8
SK3
100
AcDbLine
 10
-25.0
 20
5.9284974363
 30
0.0
 11
-25.0
 21
7.5391490433
 31
0.0
  0
LINE
  5
82
330
1F
100
AcDbEntity
  8
SK3
100
AcDbLine
 10
-14.4794228634
 20
5.9284974363
 30
0.0
 11
-14.4794228634
 21
7.5391490433
 31
0.0
  0
LINE
  5
83
330
1F
100
AcDbEntity
  8
SK1
  6
Continuous
100
AcDbLine
 10
3.9
 20
18.1000000998
 30
0.0
 11
3.9
 21
13.1473019637
 31
0.0
  0
LINE
  5
84
330
1F
100
AcDbEntity
  8
SK3
100
AcDbLine
 10
-31.9
 20
10.6127461998
 30
0.0
 11
-31.9
 21
6.7086701551
 31
0.0
  0
SPLINE
  5
85
330
1F
100
AcDbEntity
  8
SK1
  6
Continuous
100
AcDbSpline
210
0.0
220
0.0
230
1.0
 70
     8
 71
     3
 72
    14
 73
    10
 74
     0
 42
0.0000000003119418
 43
0.0000000001
 12
1.0
 22
0.0
 32
0.0
 13
1.0
 23
0.0
 33
0.0
 40
0.0
 40
0.0
 40
0.0
 40
0.0
 40
0.1203776942144169
 40
0.1203776942144169
 40
0.1203776942144169
 40
0.9954581100602281
 40
0.9954581100602281
 40
0.9954581100602281
 40
1.0
 40
1.0
 40
1.0
 40
1.0
 10
-31.9
 20
10.61274619982848
 30
0.0
 10
-30.61998674190291
 20
10.74001665228197
 30
0.0
 10
-29.33997303570472
 20
10.86728485137994
 30
0.0
 10
-28.05995892518174
 20
10.99455101715431
 30
0.0
 10
-18.75495198559722
 20
11.91970687752293
 30
0.0
 10
-9.449924479290434
 20
12.84475931122768
 30
0.0
 10
-0.1448865419513539
 20
13.76975927402373
 30
0.0
 10
-0.096591028266169
 20
13.77456025910975
 30
0.0
 10
-0.048295514282079
 20
13.77936124269235
 30
0.0
 10
0.0
 20
13.78416222477612
 30
0.0
  0
SPLINE
  5
86
330
1F
100
AcDbEntity
  8
SK3
100
AcDbSpline
210
0.0
220
0.0
230
1.0
 70
     8
 71
     3
 72
    10
 73
     6
 74
     0
 42
0.0000000180426514
 43
0.0000000001
 12
1.0
 22
0.0
 32
0.0
 13
1.0
 23
0.0
 33
0.0
 40
0.0
 40
0.0
 40
0.0
 40
0.0
 40
0.5
 40
0.5
 40
1.0
 40
1.0
 40
1.0
 40
1.0
 10
11.1
 20
6.205947452374271
 30
0.0
 10
11.10000000000001
 20
6.132137326653488
 30
0.0
 10
11.05764776026431
 20
6.058707868423165
 30
0.0
 10
10.90848102782122
 20
5.952902389716415
 30
0.0
 10
10.80444412446187
 20
5.92267567249602
 30
0.0
 10
10.69999999999981
 20
5.922675672494802
 30
0.0
  0
LINE
  5
87
330
1F
100
AcDbEntity
  8
SK3
100
AcDbLine
 10
10.7
 20
5.9226756725
 30
0.0
 11
-9.7
 21
5.9226756725
 31
0.0
  0
LINE
  5
88
330
1F
100
AcDbEntity
  8
SK3
100
AcDbLine
 10
-9.7
 20
6.177621948
 30
0.0
 11
-13.7
 21
6.177621948
 31
0.0
  0
LINE
  5
89
330
1F
100
AcDbEntity
  8
SK3
100
AcDbLine
 10
-13.7
 20
6.177621948
 30
0.0
 11
-14.4794228634
 21
5.2213906551
 31
0.0
  0
LINE
  5
8A
330
1F
100
AcDbEntity
  8
SK3
100
AcDbLine
 10
-14.4794228634
 20
5.2213906551
 30
0.0
 11
-25.0
 21
5.2213906551
 31
0.0
  0
LINE
  5
8B
330
1F
100
AcDbEntity
  8
SK3
100
AcDbLine
 10
-25.0
 20
5.2213906551
 30
0.0
 11
-27.1
 21
6.7086701551
 31
0.0
  0
LINE
  5
8C
330
1F
100
AcDbEntity
  8
SK3
100
AcDbLine
 10
-27.1
 20
6.7086701551
 30
0.0
 11
-31.9
 21
6.7086701551
 31
0.0
  0
LINE
  5
8D
330
1F
100
AcDbEntity
  8
SK1
  6
Continuous
100
AcDbLine
 10
11.1
 20
11.3184034868
 30
0.0
 11
11.1
 21
12.025510268
 31
0.0
  0
LINE
  5
8E
330
1F
100
AcDbEntity
  8
SK1
  6
Continuous
100
AcDbLine
 10
10.975
 20
12.1786726856
 30
0.0
 11
4.5392304845
 21
14.8070251926
 31
0.0
  0
LINE
  5
8F
330
1F
100
AcDbEntity
  8
SK1
  6
Continuous
100
AcDbLine
 10
4.5392304845
 20
14.8070251926
 30
0.0
 11
4.1
 21
14.6276557843
 31
0.0
  0
LINE
  5
90
330
1F
100
AcDbEntity
  8
SK1
  6
Continuous
100
AcDbLine
 10
4.1
 20
14.6276557843
 30
0.0
 11
4.1
 21
13.9205490032
 31
0.0
  0
SPLINE
  5
91
330
1F
100
AcDbEntity
  8
SK1
  6
Continuous
100
AcDbSpline
210
0.0
220
0.0
230
1.0
 70
     8
 71
     3
 72
    10
 73
     6
 74
     0
 42
0.0000000361107625
 43
0.0000000001
 12
1.0
 22
0.0
 32
0.0
 13
1.0
 23
0.0
 33
0.0
 40
0.0
 40
0.0
 40
0.0
 40
0.0
 40
0.5
 40
0.5
 40
1.0
 40
1.0
 40
1.0
 40
1.0
 10
4.1
 20
13.28877671998007
 30
0.0
 10
4.100000000000007
 20
13.2518654915819
 30
0.0
 10
4.078394229249674
 20
13.21495295544332
 30
0.0
 10
4.004774091119802
 20
13.16275580160614
 30
0.0
 10
3.952166868815384
 20
13.14730196373961
 30
0.0
 10
3.900000000000209
 20
13.14730196373826
 30
0.0
  0
LINE
  5
92
330
1F
100
AcDbEntity
  8
SK1
  6
Continuous
100
AcDbLine
 10
3.9
 20
13.1473019637
 30
0.0
 11
0.2
 21
13.1473019637
 31
0.0
  0
SPLINE
  5
93
330
1F
100
AcDbEntity
  8
SK1
  6
Continuous
100
AcDbSpline
210
0.0
220
0.0
230
1.0
 70
     8
 71
     3
 72
    10
 73
     6
 74
     0
 42
0.0000000360994534
 43
0.0000000001
 12
1.0
 22
0.0
 32
0.0
 13
1.0
 23
0.0
 33
0.0
 40
0.0
 40
0.0
 40
0.0
 40
0.0
 40
0.5
 40
0.5
 40
1.0
 40
1.0
 40
1.0
 40
1.0
 10
0.1999999999999988
 20
13.14730196373955
 30
0.0
 10
0.1477898164293986
 20
13.14730196373955
 30
0.0
 10
0.0958472218476059
 20
13.16235289604784
 30
0.0
 10
0.0211851219572567
 20
13.21521368974823
 30
0.0
 10
0.0000000000000625
 20
13.25188531190774
 30
0.0
 10
-0.000000000001537
 20
13.28877671997996
 30
0.0
  0
LINE
  5
94
330
1F
100
AcDbEntity
  8
SK1
  6
Continuous
100
AcDbLine
 10
0.0
 20
13.7841622248
 30
0.0
 11
0.0
 21
14.491269006
 31
0.0
  0
LINE
  5
95
330
1F
100
AcDbEntity
  8
SK1
  6
Continuous
100
AcDbLine
 10
10.975
 20
11.4715659045
 30
0.0
 11
4.5392304845
 21
14.0999184114
 31
0.0
  0
LINE
  5
96
330
1F
100
AcDbEntity
  8
SK1
  6
Continuous
100
AcDbLine
 10
4.5392304845
 20
14.0999184114
 30
0.0
 11
4.1
 21
13.9205490032
 31
0.0
  0
SPLINE
  5
97
330
1F
100
AcDbEntity
  8
SK1
  6
Continuous
100
AcDbSpline
210
0.0
220
0.0
230
1.0
 70
     8
 71
     3
 72
    10
 73
     6
 74
     0
 42
0.0000000361107625
 43
0.0000000001
 12
1.0
 22
0.0
 32
0.0
 13
1.0
 23
0.0
 33
0.0
 40
0.0
 40
0.0
 40
0.0
 40
0.0
 40
0.5
 40
0.5
 40
1.0
 40
1.0
 40
1.0
 40
1.0
 10
4.1
 20
12.58166993879353
 30
0.0
 10
4.100000000000007
 20
12.54475871039535
 30
0.0
 10
4.078394229249674
 20
12.50784617425677
 30
0.0
 10
4.004774091119802
 20
12.45564902041959
 30
0.0
 10
3.952166868815384
 20
12.44019518255307
 30
0.0
 10
3.900000000000209
 20
12.44019518255171
 30
0.0
  0
LINE
  5
98
330
1F
100
AcDbEntity
  8
SK1
  6
Continuous
100
AcDbLine
 10
3.9
 20
12.4401951826
 30
0.0
 11
0.2
 21
12.4401951826
 31
0.0
  0
SPLINE
  5
99
330
1F
100
AcDbEntity
  8
SK1
  6
Continuous
100
AcDbSpline
210
0.0
220
0.0
230
1.0
 70
     8
 71
     3
 72
    10
 73
     6
 74
     0
 42
0.0000000360994534
 43
0.0000000001
 12
1.0
 22
0.0
 32
0.0
 13
1.0
 23
0.0
 33
0.0
 40
0.0
 40
0.0
 40
0.0
 40
0.0
 40
0.5
 40
0.5
 40
1.0
 40
1.0
 40
1.0
 40
1.0
 10
0.1999999999999988
 20
12.44019518255301
 30
0.0
 10
0.1477898164293986
 20
12.440195182553
 30
0.0
 10
0.0958472218476059
 20
12.45524611486129
 30
0.0
 10
0.0211851219572567
 20
12.50810690856168
 30
0.0
 10
0.0000000000000625
 20
12.54477853072119
 30
0.0
 10
-0.000000000001537
 20
12.58166993879341
 30
0.0
  0
LINE
  5
9A
330
1F
100
AcDbEntity
  8
SK3
100
AcDbLine
 10
-25.0
 20
5.9284974363
 30
0.0
 11
-27.1
 21
7.4157769363
 31
0.0
  0
LINE
  5
9B
330
1F
100
AcDbEntity
  8
SK3
100
AcDbLine
 10
-27.1
 20
7.4157769363
 30
0.0
 11
-31.9
 21
7.4157769363
 31
0.0
  0
SPLINE
  5
9C
330
1F
100
AcDbEntity
  8
SK1
  6
Continuous
100
AcDbSpline
210
0.0
220
0.0
230
1.0
 70
     8
 71
     3
 72
    14
 73
    10
 74
     0
 42
0.0000000003119418
 43
0.0000000001
 12
1.0
 22
0.0
 32
0.0
 13
1.0
 23
0.0
 33
0.0
 40
0.0
 40
0.0
 40
0.0
 40
0.0
 40
0.1203776942144169
 40
0.1203776942144169
 40
0.1203776942144169
 40
0.9954581100602281
 40
0.9954581100602281
 40
0.9954581100602281
 40
1.0
 40
1.0
 40
1.0
 40
1.0
 10
-31.9
 20
11.31985298101502
 30
0.0
 10
-30.61998674190291
 20
11.44712343346851
 30
0.0
 10
-29.33997303570472
 20
11.57439163256649
 30
0.0
 10
-28.05995892518174
 20
11.70165779834086
 30
0.0
 10
-18.75495198559722
 20
12.62681365870947
 30
0.0
 10
-9.449924479290434
 20
13.55186609241423
 30
0.0
 10
-0.1448865419513539
 20
14.47686605521027
 30
0.0
 10
-0.096591028266169
 20
14.48166704029629
 30
0.0
 10
-0.048295514282079
 20
14.4864680238789
 30
0.0
 10
0.0
 20
14.49126900596267
 30
0.0
  0
SPLINE
  5
9D
330
1F
100
AcDbEntity
  8
SK3
100
AcDbSpline
210
0.0
220
0.0
230
1.0
 70
     8
 71
     3
 72
    10
 73
     6
 74
     0
 42
0.0000000180426514
 43
0.0000000001
 12
1.0
 22
0.0
 32
0.0
 13
1.0
 23
0.0
 33
0.0
 40
0.0
 40
0.0
 40
0.0
 40
0.0
 40
0.5
 40
0.5
 40
1.0
 40
1.0
 40
1.0
 40
1.0
 10
11.1
 20
6.91305423356082
 30
0.0
 10
11.10000000000001
 20
6.839244107840035
 30
0.0
 10
11.05764776026431
 20
6.765814649609713
 30
0.0
 10
10.90848102782122
 20
6.660009170902962
 30
0.0
 10
10.80444412446187
 20
6.629782453682566
 30
0.0
 10
10.69999999999981
 20
6.62978245368135
 30
0.0
  0
LINE
  5
9E
330
1F
100
AcDbEntity
  8
SK3
100
AcDbLine
 10
10.7
 20
6.6297824537
 30
0.0
 11
-9.7
 21
6.6297824537
 31
0.0
  0
LINE
  5
9F
330
1F
100
AcDbEntity
  8
SK3
100
AcDbLine
 10
-9.7
 20
6.6297824537
 30
0.0
 11
-9.7
 21
6.8847287292
 31
0.0
  0
LINE
  5
A0
330
1F
100
AcDbEntity
  8
SK3
100
AcDbLine
 10
-9.7
 20
6.8847287292
 30
0.0
 11
-13.7
 21
6.8847287292
 31
0.0
  0
LINE
  5
A1
330
1F
100
AcDbEntity
  8
SK3
100
AcDbLine
 10
-13.7
 20
6.8847287292
 30
0.0
 11
-14.4794228634
 21
5.9284974363
 31
0.0
  0
LINE
  5
A2
330
1F
100
AcDbEntity
  8
SK3
100
AcDbLine
 10
-14.4794228634
 20
5.9284974363
 30
0.0
 11
-25.0
 21
5.9284974363
 31
0.0
  0
LINE
  5
A3
330
1F
100
AcDbEntity
  8
SK1
  6
Continuous
100
AcDbLine
 10
-34.5556692404
 20
15.1352608931
 30
0.0
 11
-34.5556692404
 21
0.5000000998
 31
0.0
  0
LINE
  5
A4
330
1F
100
AcDbEntity
  8
SK1
  6
Continuous
100
AcDbLine
 10
-34.9
 20
-14.7389315723
 30
0.0
 11
-34.9
 21
-0.4999999002
 31
0.0
  0
ARC
  5
A5
330
1F
100
AcDbEntity
  8
SK1
  6
Continuous
100
AcDbCircle
 10
-34.4998513263
 20
-14.7390242363
 30
0.0
 40
0.4001486843896992
100
AcDbArc
 50
179.9867317924
 51
261.981494402
  0
ARC
  5
A6
330
1F
100
AcDbEntity
  8
SK1
  6
Continuous
100
AcDbCircle
 10
-34.4998513991
 20
14.739024499
 30
0.0
 40
0.4001486116409104
100
AcDbArc
 50
98.0184965438
 51
180.0132772618
  0
LINE
  5
A7
330
1F
100
AcDbEntity
  8
SK1
  6
Continuous
100
AcDbLine
 10
0.0
 20
-19.9937489234
 30
0.0
 11
0.0
 21
-14.4912688064
 31
0.0
  0
LINE
  5
A8
330
1F
100
AcDbEntity
  8
SK3
100
AcDbLine
 10
-13.7577350269
 20
9.1363286841
 30
0.0
 11
-13.7577350269
 21
9.1164309014
 31
0.0
  0
LINE
  5
A9
330
1F
100
AcDbEntity
  8
SK3
100
AcDbLine
 10
-26.25
 20
-9.1363284845
 30
0.0
 11
-26.25
 21
-9.1164307018
 31
0.0
  0
LINE
  5
AA
330
1F
100
AcDbEntity
  8
SK3
100
AcDbLine
 10
-27.1
 20
-9.9874920779
 30
0.0
 11
-27.1
 21
-7.4157767367
 31
0.0
  0
LINE
  5
AB
330
1F
100
AcDbEntity
  8
SK3
100
AcDbLine
 10
-13.7
 20
-9.2364765012
 30
0.0
 11
-13.7
 21
-6.8847285296
 31
0.0
  0
LINE
  5
AC
330
1F
100
AcDbEntity
  8
SK3
100
AcDbLine
 10
-9.7
 20
-9.2364765012
 30
0.0
 11
-9.7
 21
-6.8847285296
 31
0.0
  0
LINE
  5
AD
330
1F
100
AcDbEntity
  8
SK1
  6
Continuous
100
AcDbLine
 10
0.2
 20
18.0930927044
 30
0.0
 11
0.2
 21
13.1473019637
 31
0.0
  0
LINE
  5
AE
330
1F
100
AcDbEntity
  8
SK1
  6
Continuous
100
AcDbLine
 10
3.6
 20
18.1000000998
 30
0.0
 11
3.6
 21
18.0930927044
 31
0.0
  0
LINE
  5
AF
330
1F
100
AcDbEntity
  8
SK3
100
AcDbLine
 10
3.6
 20
-8.8759280207
 30
0.0
 11
3.6
 21
-18.0930925049
 31
0.0
  0
LINE
  5
B0
330
1F
100
AcDbEntity
  8
SK1
  6
Continuous
100
AcDbLine
 10
3.6
 20
-18.0999999002
 30
0.0
 11
3.6
 21
-18.0930925049
 31
0.0
  0
LINE
  5
B1
330
1F
100
AcDbEntity
  8
SK3
100
AcDbLine
 10
3.6
 20
18.0930927044
 30
0.0
 11
3.6
 21
8.8759282203
 31
0.0
  0
LINE
  5
B2
330
1F
100
AcDbEntity
  8
SK3
100
AcDbLine
 10
-13.7577350269
 20
9.1363286841
 30
0.0
 11
-26.25
 21
9.1363286841
 31
0.0
  0
SPLINE
  5
B3
330
1F
100
AcDbEntity
  8
SK1
  6
Continuous
100
AcDbSpline
210
0.0
220
0.0
230
1.0
 70
     8
 71
     3
 72
    10
 73
     6
 74
     0
 42
0.0000000310333413
 43
0.0000000001
 12
1.0
 22
0.0
 32
0.0
 13
1.0
 23
0.0
 33
0.0
 40
0.0
 40
0.0
 40
0.0
 40
0.0
 40
0.5
 40
0.5
 40
1.0
 40
1.0
 40
1.0
 40
1.0
 10
0.0
 20
18.2931682234173
 30
0.0
 10
-0.0000000000000052
 20
18.24100815999594
 30
0.0
 10
0.0212070447052175
 20
18.18911511689994
 30
0.0
 10
0.0958151616091835
 20
18.11440735919702
 30
0.0
 10
0.1471684159982545
 20
18.09309270440773
 30
0.0
 10
0.1999999999999988
 20
18.09309270440853
 30
0.0
  0
LINE
  5
B4
330
1F
100
AcDbEntity
  8
SK1
  6
Continuous
100
AcDbLine
 10
0.2
 20
18.0930927044
 30
0.0
 11
3.6
 21
18.0930927044
 31
0.0
  0
LINE
  5
B5
330
1F
100
AcDbEntity
  8
SK1
  6
Continuous
100
AcDbLine
 10
3.6
 20
-18.0930925049
 30
0.0
 11
0.2
 21
-18.0930925049
 31
0.0
  0
SPLINE
  5
B6
330
1F
100
AcDbEntity
  8
SK1
  6
Continuous
100
AcDbSpline
210
0.0
220
0.0
230
1.0
 70
     8
 71
     3
 72
    10
 73
     6
 74
     0
 42
0.0000000310411957
 43
0.0000000001
 12
1.0
 22
0.0
 32
0.0
 13
1.0
 23
0.0
 33
0.0
 40
0.0
 40
0.0
 40
0.0
 40
0.0
 40
0.5
 40
0.5
 40
1.0
 40
1.0
 40
1.0
 40
1.0
 10
0.1999999999999988
 20
-18.09309250486713
 30
0.0
 10
0.1471286399635195
 20
-18.09309250486713
 30
0.0
 10
0.0954125877402814
 20
-18.11481281954364
 30
0.0
 10
0.0216193684523247
 20
-18.1886994949078
 30
0.0
 10
-0.0000000000000069
 20
-18.2409626072655
 30
0.0
 10
0.0
 20
-18.2931680238759
 30
0.0
  0
LINE
  5
B7
330
1F
100
AcDbEntity
  8
SK3
100
AcDbLine
 10
-26.25
 20
-9.1363284845
 30
0.0
 11
-13.7577350269
 21
-9.1363284845
 31
0.0
  0
LINE
  5
B8
330
1F
100
AcDbEntity
  8
SK3
100
AcDbLine
 10
-9.7
 20
8.8759282203
 30
0.0
 11
3.6
 21
8.8759282203
 31
0.0
  0
LINE
  5
B9
330
1F
100
AcDbEntity
  8
SK1
  6
Continuous
100
AcDbLine
 10
0.0
 20
19.9937491229
 30
0.0
 11
-34.5556692404
 21
15.1352608931
 31
0.0
  0
SPLINE
  5
BA
330
1F
100
AcDbEntity
  8
SK3
100
AcDbSpline
210
0.0
220
0.0
230
1.0
 70
     8
 71
     3
 72
    10
 73
     6
 74
     0
 42
0.0000000248162474
 43
0.0000000001
 12
1.0
 22
0.0
 32
0.0
 13
1.0
 23
0.0
 33
0.0
 40
0.0
 40
0.0
 40
0.0
 40
0.0
 40
0.5
 40
0.5
 40
1.0
 40
1.0
 40
1.0
 40
1.0
 10
-34.9
 20
10.23779771449233
 30
0.0
 10
-34.90000000000001
 20
10.17256797650887
 30
0.0
 10
-34.87351579842591
 20
10.10766783232281
 30
0.0
 10
-34.78028104813191
 20
10.01418932301905
 30
0.0
 10
-34.71606937365931
 20
9.987492277489157
 30
0.0
 10
-34.65
 20
9.987492277489789
 30
0.0
  0
LINE
  5
BB
330
1F
100
AcDbEntity
  8
SK3
100
AcDbLine
 10
-34.65
 20
9.9874922775
 30
0.0
 11
-27.1
 21
9.9874922775
 31
0.0
  0
LINE
  5
BC
330
1F
100
AcDbEntity
  8
SK3
100
AcDbLine
 10
-27.1
 20
9.9874922775
 30
0.0
 11
-26.25
 21
9.1363286841
 31
0.0
  0
LINE
  5
BD
330
1F
100
AcDbEntity
  8
SK3
100
AcDbLine
 10
-13.7577350269
 20
9.1363286841
 30
0.0
 11
-13.7
 21
9.2364767007
 31
0.0
  0
LINE
  5
BE
330
1F
100
AcDbEntity
  8
SK3
100
AcDbLine
 10
-13.7
 20
9.2364767007
 30
0.0
 11
-9.7
 21
9.2364767007
 31
0.0
  0
LINE
  5
BF
330
1F
100
AcDbEntity
  8
SK3
100
AcDbLine
 10
3.6
 20
-8.8759280207
 30
0.0
 11
-9.7
 21
-8.8759280207
 31
0.0
  0
LINE
  5
C0
330
1F
100
AcDbEntity
  8
SK3
100
AcDbLine
 10
-9.7
 20
-9.2364765012
 30
0.0
 11
-13.7
 21
-9.2364765012
 31
0.0
  0
LINE
  5
C1
330
1F
100
AcDbEntity
  8
SK3
100
AcDbLine
 10
-13.7
 20
-9.2364765012
 30
0.0
 11
-13.7577350269
 21
-9.1363284845
 31
0.0
  0
SPLINE
  5
C2
330
1F
100
AcDbEntity
  8
SK3
100
AcDbSpline
210
0.0
220
0.0
230
1.0
 70
     8
 71
     3
 72
     8
 73
     4
 74
     0
 42
0.0000000083132112
 43
0.0000000001
 12
1.0
 22
0.0
 32
0.0
 13
1.0
 23
0.0
 33
0.0
 40
0.0
 40
0.0
 40
0.0
 40
0.0
 40
1.0
 40
1.0
 40
1.0
 40
1.0
 10
-26.25
 20
-9.136328484513035
 30
0.0
 10
-26.53331527210442
 20
-9.420067703811121
 30
0.0
 10
-26.81665015471449
 20
-9.703787379868496
 30
0.0
 10
-27.1
 20
-9.987492077948392
 30
0.0
  0
LINE
  5
C3
330
1F
100
AcDbEntity
  8
SK3
100
AcDbLine
 10
-27.1
 20
-9.9874920779
 30
0.0
 11
-34.65
 21
-9.9874920779
 31
0.0
  0
SPLINE
  5
C4
330
1F
100
AcDbEntity
  8
SK3
100
AcDbSpline
210
0.0
220
0.0
230
1.0
 70
     8
 71
     3
 72
    10
 73
     6
 74
     0
 42
0.000000024822512
 43
0.0000000001
 12
1.0
 22
0.0
 32
0.0
 13
1.0
 23
0.0
 33
0.0
 40
0.0
 40
0.0
 40
0.0
 40
0.0
 40
0.5
 40
0.5
 40
1.0
 40
1.0
 40
1.0
 40
1.0
 10
-34.65
 20
-9.987492077948392
 30
0.0
 10
-34.71611943783862
 20
-9.98749207794839
 30
0.0
 10
-34.78078222389853
 20
-10.01469500923725
 30
0.0
 10
-34.87300163171841
 20
-10.10714872259544
 30
0.0
 10
-34.90000000000001
 20
-10.17251227372674
 30
0.0
 10
-34.9
 20
-10.23779751495094
 30
0.0
  0
SPLINE
  5
C5
330
1F
100
AcDbEntity
  8
SK1
  6
Continuous
100
AcDbSpline
210
0.0
220
0.0
230
1.0
 70
     8
 71
     3
 72
    11
 73
     7
 74
     0
 42
0.0000000002865695
 43
0.0000000001
 12
1.0
 22
0.0
 32
0.0
 13
1.0
 23
0.0
 33
0.0
 40
0.0
 40
0.0
 40
0.0
 40
0.0
 40
0.7618911383664768
 40
0.7618911383664768
 40
0.7618911383664768
 40
1.0
 40
1.0
 40
1.0
 40
1.0
 10
-34.55566924038402
 20
-15.13526069356099
 30
0.0
 10
-25.77980572205412
 20
-16.36930070579465
 30
0.0
 10
-17.00392039254534
 20
-17.60318560979612
 30
0.0
 10
-8.228024001919445
 20
-18.83699182843286
 30
0.0
 10
-5.485350417337737
 20
-19.2225852280954
 30
0.0
 10
-2.742675687370196
 20
-19.6081704808443
 30
0.0
 10
0.0
 20
-19.99374892336151
 30
0.0
  0
LINE
  5
C6
330
1F
100
AcDbEntity
  8
SK1
  6
Continuous
100
AcDbLine
 10
11.1
 20
-12.0255100684
 30
0.0
 11
11.1
 21
-16.5142104486
 31
0.0
  0
LINE
  5
C7
330
1F
100
AcDbEntity
  8
SK1
  6
Continuous
100
AcDbLine
 10
10.975
 20
-11.4715657049
 30
0.0
 11
10.975
 21
11.4715659045
 31
0.0
  0
SPLINE
  5
C8
330
1F
100
AcDbEntity
  8
SK1
  6
Continuous
100
AcDbSpline
210
0.0
220
0.0
230
1.0
 70
     8
 71
     3
 72
    10
 73
     6
 74
     0
 42
0.0000000470101661
 43
0.0000000001
 12
1.0
 22
0.0
 32
0.0
 13
1.0
 23
0.0
 33
0.0
 40
0.0
 40
0.0
 40
0.0
 40
0.0
 40
0.5
 40
0.5
 40
1.0
 40
1.0
 40
1.0
 40
1.0
 10
10.97500000000577
 20
-11.47156570492297
 30
0.0
 10
11.01258802011283
 20
-11.45621360278106
 30
0.0
 10
11.04491579498158
 20
-11.43332114451194
 30
0.0
 10
11.08823725599735
 20
-11.38017051546447
 30
0.0
 10
11.1
 20
-11.34935517788714
 30
0.0
 10
11.1
 20
-11.31840328723051
 30
0.0
  0
SPLINE
  5
C9
330
1F
100
AcDbEntity
  8
SK1
  6
Continuous
100
AcDbSpline
210
0.0
220
0.0
230
1.0
 70
     8
 71
     3
 72
    10
 73
     6
 74
     0
 42
0.0000000470101661
 43
0.0000000001
 12
1.0
 22
0.0
 32
0.0
 13
1.0
 23
0.0
 33
0.0
 40
0.0
 40
0.0
 40
0.0
 40
0.0
 40
0.5
 40
0.5
 40
1.0
 40
1.0
 40
1.0
 40
1.0
 10
10.97500000000577
 20
-12.17867248610951
 30
0.0
 10
11.01258802011283
 20
-12.1633203839676
 30
0.0
 10
11.04491579498158
 20
-12.14042792569848
 30
0.0
 10
11.08823725599735
 20
-12.08727729665102
 30
0.0
 10
11.1
 20
-12.05646195907369
 30
0.0
 10
11.1
 20
-12.02551006841705
 30
0.0
  0
LINE
  5
CA
330
1F
100
AcDbEntity
  8
SK1
  6
Continuous
100
AcDbLine
 10
4.1
 20
-13.9205488036
 30
0.0
 11
4.1
 21
13.9205490032
 31
0.0
  0
LINE
  5
CB
330
1F
100
AcDbEntity
  8
SK1
  6
Continuous
100
AcDbLine
 10
4.5392304845
 20
-14.0999182118
 30
0.0
 11
4.5392304845
 21
14.0999184114
 31
0.0
  0
LINE
  5
CC
330
1F
100
AcDbEntity
  8
SK1
  6
Continuous
100
AcDbLine
 10
3.9
 20
-12.440194983
 30
0.0
 11
3.9
 21
12.4401951826
 31
0.0
  0
LINE
  5
CD
330
1F
100
AcDbEntity
  8
SK3
100
AcDbLine
 10
-14.4794228634
 20
-5.2213904555
 30
0.0
 11
-14.4794228634
 21
-2.3603458933
 31
0.0
  0
LINE
  5
CE
330
1F
100
AcDbEntity
  8
SK3
100
AcDbLine
 10
-25.0
 20
-5.2213904555
 30
0.0
 11
-25.0
 21
-2.3603458933
 31
0.0
  0
LINE
  5
CF
330
1F
100
AcDbEntity
  8
SK1
  6
Continuous
100
AcDbLine
 10
11.1
 20
12.025510268
 30
0.0
 11
11.1
 21
16.5142106482
 31
0.0
  0
LINE
  5
D0
330
1F
100
AcDbEntity
  8
SK1
  6
Continuous
100
AcDbLine
 10
0.0
 20
-13.7841620252
 30
0.0
 11
0.0
 21
-0.4999999002
 31
0.0
  0
LINE
  5
D1
330
1F
100
AcDbEntity
  8
SK3
100
AcDbLine
 10
-27.1
 20
-6.7086699555
 30
0.0
 11
-27.1
 21
-0.4999999002
 31
0.0
  0
LINE
  5
D2
330
1F
100
AcDbEntity
  8
SK3
100
AcDbLine
 10
-13.7
 20
-6.1776217484
 30
0.0
 11
-13.7
 21
-0.4999999002
 31
0.0
  0
LINE
  5
D3
330
1F
100
AcDbEntity
  8
SK3
100
AcDbLine
 10
-9.7
 20
-6.1776217484
 30
0.0
 11
-9.7
 21
-0.4999999002
 31
0.0
  0
LINE
  5
D4
330
1F
100
AcDbEntity
  8
SK1
  6
Continuous
100
AcDbLine
 10
0.2
 20
-13.1473017642
 30
0.0
 11
0.2
 21
-18.0930925049
 31
0.0
  0
LINE
  5
D5
330
1F
100
AcDbEntity
  8
SK3
100
AcDbLine
 10
-31.9
 20
-10.6127460003
 30
0.0
 11
-31.9
 21
-6.7086699555
 31
0.0
  0
LINE
  5
D6
330
1F
100
AcDbEntity
  8
SK1
  6
Continuous
100
AcDbLine
 10
-31.9
 20
-11.3198527815
 30
0.0
 11
-31.9
 21
-10.6127460003
 31
0.0
  0
SPLINE
  5
D7
330
1F
100
AcDbEntity
  8
SK1
  6
Continuous
100
AcDbSpline
210
0.0
220
0.0
230
1.0
 70
     8
 71
     3
 72
    14
 73
    10
 74
     0
 42
0.0000000003119418
 43
0.0000000001
 12
1.0
 22
0.0
 32
0.0
 13
1.0
 23
0.0
 33
0.0
 40
0.0
 40
0.0
 40
0.0
 40
0.0
 40
0.123736372014399
 40
0.123736372014399
 40
0.123736372014399
 40
0.9996374413923926
 40
0.9996374413923926
 40
0.9996374413923926
 40
1.0
 40
1.0
 40
1.0
 40
1.0
 10
-31.9
 20
-11.31985278147362
 30
0.0
 10
-30.58427288194195
 20
-11.45067422770576
 30
0.0
 10
-29.2685452904581
 20
-11.58149329323307
 30
0.0
 10
-27.95281727300299
 20
-11.71231021657545
 30
0.0
 10
-18.63908390061423
 20
-12.6383328659705
 30
0.0
 10
-9.325329980843861
 20
-13.5642521858668
 30
0.0
 10
-0.011565639834097
 20
-14.49011908409472
 30
0.0
 10
-0.0077104265579636
 20
-14.49050232487978
 30
0.0
 10
-0.003855213279929
 20
-14.4908855656553
 30
0.0
 10
0.0
 20
-14.49126880642126
 30
0.0
  0
SPLINE
  5
D8
330
1F
100
AcDbEntity
  8
SK3
100
AcDbSpline
210
0.0
220
0.0
230
1.0
 70
     8
 71
     3
 72
    10
 73
     6
 74
     0
 42
0.0000000180465915
 43
0.0000000001
 12
1.0
 22
0.0
 32
0.0
 13
1.0
 23
0.0
 33
0.0
 40
0.0
 40
0.0
 40
0.0
 40
0.0
 40
0.5
 40
0.5
 40
1.0
 40
1.0
 40
1.0
 40
1.0
 10
11.1
 20
-6.913054034019419
 30
0.0
 10
11.1
 20
-6.839352135052414
 30
0.0
 10
11.05683219080213
 20
-6.765099660232608
 30
0.0
 10
10.90856076529284
 20
-6.660202506627611
 30
0.0
 10
10.80422533520341
 20
-6.629782254141231
 30
0.0
 10
10.7
 20
-6.629782254141229
 30
0.0
  0
LINE
  5
D9
330
1F
100
AcDbEntity
  8
SK3
100
AcDbLine
 10
10.7
 20
-6.6297822541
 30
0.0
 11
-9.7
 21
-6.6297822541
 31
0.0
  0
LINE
  5
DA
330
1F
100
AcDbEntity
  8
SK3
100
AcDbLine
 10
-9.7
 20
-6.6297822541
 30
0.0
 11
-9.7
 21
-6.8847285296
 31
0.0
  0
LINE
  5
DB
330
1F
100
AcDbEntity
  8
SK3
100
AcDbLine
 10
-9.7
 20
-6.8847285296
 30
0.0
 11
-13.7
 21
-6.8847285296
 31
0.0
  0
LINE
  5
DC
330
1F
100
AcDbEntity
  8
SK3
100
AcDbLine
 10
-13.7
 20
-6.8847285296
 30
0.0
 11
-14.4794228634
 21
-5.9284972367
 31
0.0
  0
LINE
  5
DD
330
1F
100
AcDbEntity
  8
SK3
100
AcDbLine
 10
-14.4794228634
 20
-5.9284972367
 30
0.0
 11
-25.0
 21
-5.9284972367
 31
0.0
  0
SPLINE
  5
DE
330
1F
100
AcDbEntity
  8
SK3
100
AcDbSpline
210
0.0
220
0.0
230
1.0
 70
     8
 71
     3
 72
     8
 73
     4
 74
     0
 42
0.0000000038860233
 43
0.0000000001
 12
1.0
 22
0.0
 32
0.0
 13
1.0
 23
0.0
 33
0.0
 40
0.0
 40
0.0
 40
0.0
 40
0.0
 40
1.0
 40
1.0
 40
1.0
 40
1.0
 10
-25.0
 20
-5.928497236729115
 30
0.0
 10
-25.69985202276878
 20
-6.424361503125279
 30
0.0
 10
-26.39988318933852
 20
-6.920099407900135
 30
0.0
 10
-27.1
 20
-7.41577673673534
 30
0.0
  0
LINE
  5
DF
330
1F
100
AcDbEntity
  8
SK3
100
AcDbLine
 10
-27.1
 20
-7.4157767367
 30
0.0
 11
-31.9
 21
-7.4157767367
 31
0.0
  0
LINE
  5
E0
330
1F
100
AcDbEntity
  8
SK1
  6
Continuous
100
AcDbLine
 10
10.975
 20
-11.4715657049
 30
0.0
 11
4.5392304845
 21
-14.0999182118
 31
0.0
  0
LINE
  5
E1
330
1F
100
AcDbEntity
  8
SK1
  6
Continuous
100
AcDbLine
 10
4.5392304845
 20
-14.0999182118
 30
0.0
 11
4.1
 21
-13.9205488036
 31
0.0
  0
SPLINE
  5
E2
330
1F
100
AcDbEntity
  8
SK1
  6
Continuous
100
AcDbSpline
210
0.0
220
0.0
230
1.0
 70
     8
 71
     3
 72
    10
 73
     6
 74
     0
 42
0.0000000360999878
 43
0.0000000001
 12
1.0
 22
0.0
 32
0.0
 13
1.0
 23
0.0
 33
0.0
 40
0.0
 40
0.0
 40
0.0
 40
0.0
 40
0.5000000000000001
 40
0.5000000000000001
 40
1.0
 40
1.0
 40
1.0
 40
1.0
 10
4.1
 20
-12.58166973925212
 30
0.0
 10
4.1
 20
-12.54438502777033
 30
0.0
 10
4.078265189854599
 20
-12.50767722182643
 30
0.0
 10
4.004483735122317
 20
-12.45552066048857
 30
0.0
 10
3.952819149946534
 20
-12.4401949830116
 30
0.0
 10
3.900000000000001
 20
-12.4401949830116
 30
0.0
  0
LINE
  5
E3
330
1F
100
AcDbEntity
  8
SK1
  6
Continuous
100
AcDbLine
 10
3.9
 20
-12.440194983
 30
0.0
 11
0.2
 21
-12.440194983
 31
0.0
  0
SPLINE
  5
E4
330
1F
100
AcDbEntity
  8
SK1
  6
Continuous
100
AcDbSpline
210
0.0
220
0.0
230
1.0
 70
     8
 71
     3
 72
    10
 73
     6
 74
     0
 42
0.0000000361022316
 43
0.0000000001
 12
1.0
 22
0.0
 32
0.0
 13
1.0
 23
0.0
 33
0.0
 40
0.0
 40
0.0
 40
0.0
 40
0.0
 40
0.5
 40
0.5
 40
1.0
 40
1.0
 40
1.0
 40
1.0
 10
0.1999999999999988
 20
-12.4401949830116
 30
0.0
 10
0.1478708680288134
 20
-12.4401949830116
 30
0.0
 10
0.0959122292851135
 20
-12.45524630251259
 30
0.0
 10
0.0213686531753132
 20
-12.50793051096237
 30
0.0
 10
-0.0000000000001145
 20
-12.54478929872323
 30
0.0
 10
-0.0000000000024772
 20
-12.58166973925233
 30
0.0
  0
LINE
  5
E5
330
1F
100
AcDbEntity
  8
SK1
  6
Continuous
100
AcDbLine
 10
11.1
 20
-11.3184032872
 30
0.0
 11
11.1
 21
-12.0255100684
 31
0.0
  0
LINE
  5
E6
330
1F
100
AcDbEntity
  8
SK1
  6
Continuous
100
AcDbLine
 10
10.975
 20
-12.1786724861
 30
0.0
 11
4.5392304845
 21
-14.807024993
 31
0.0
  0
LINE
  5
E7
330
1F
100
AcDbEntity
  8
SK1
  6
Continuous
100
AcDbLine
 10
4.5392304845
 20
-14.807024993
 30
0.0
 11
4.1
 21
-14.6276555848
 31
0.0
  0
LINE
  5
E8
330
1F
100
AcDbEntity
  8
SK1
  6
Continuous
100
AcDbLine
 10
4.1
 20
-14.6276555848
 30
0.0
 11
4.1
 21
-13.9205488036
 31
0.0
  0
SPLINE
  5
E9
330
1F
100
AcDbEntity
  8
SK1
  6
Continuous
100
AcDbSpline
210
0.0
220
0.0
230
1.0
 70
     8
 71
     3
 72
    10
 73
     6
 74
     0
 42
0.0000000360999878
 43
0.0000000001
 12
1.0
 22
0.0
 32
0.0
 13
1.0
 23
0.0
 33
0.0
 40
0.0
 40
0.0
 40
0.0
 40
0.0
 40
0.5
 40
0.5
 40
1.0
 40
1.0
 40
1.0
 40
1.0
 10
4.1
 20
-13.28877652043867
 30
0.0
 10
4.1
 20
-13.25149180895689
 30
0.0
 10
4.078265189854599
 20
-13.21478400301298
 30
0.0
 10
4.004483735122317
 20
-13.16262744167511
 30
0.0
 10
3.952819149946534
 20
-13.14730176419815
 30
0.0
 10
3.900000000000001
 20
-13.14730176419815
 30
0.0
  0
LINE
  5
EA
330
1F
100
AcDbEntity
  8
SK1
  6
Continuous
100
AcDbLine
 10
3.9
 20
-13.1473017642
 30
0.0
 11
0.2
 21
-13.1473017642
 31
0.0
  0
SPLINE
  5
EB
330
1F
100
AcDbEntity
  8
SK1
  6
Continuous
100
AcDbSpline
210
0.0
220
0.0
230
1.0
 70
     8
 71
     3
 72
    10
 73
     6
 74
     0
 42
0.0000000361022316
 43
0.0000000001
 12
1.0
 22
0.0
 32
0.0
 13
1.0
 23
0.0
 33
0.0
 40
0.0
 40
0.0
 40
0.0
 40
0.0
 40
0.5
 40
0.5
 40
1.0
 40
1.0
 40
1.0
 40
1.0
 10
0.1999999999999988
 20
-13.14730176419815
 30
0.0
 10
0.1478708680288134
 20
-13.14730176419815
 30
0.0
 10
0.0959122292851118
 20
-13.16235308369914
 30
0.0
 10
0.0213686531753132
 20
-13.21503729214892
 30
0.0
 10
-0.0000000000001145
 20
-13.25189607990978
 30
0.0
 10
-0.0000000000024772
 20
-13.28877652043887
 30
0.0
  0
LINE
  5
EC
330
1F
100
AcDbEntity
  8
SK1
  6
Continuous
100
AcDbLine
 10
0.0
 20
-13.7841620252
 30
0.0
 11
0.0
 21
-14.4912688064
 31
0.0
  0
SPLINE
  5
ED
330
1F
100
AcDbEntity
  8
SK3
100
AcDbSpline
210
0.0
220
0.0
230
1.0
 70
     8
 71
     3
 72
     8
 73
     4
 74
     0
 42
0.0000000038860233
 43
0.0000000001
 12
1.0
 22
0.0
 32
0.0
 13
1.0
 23
0.0
 33
0.0
 40
0.0
 40
0.0
 40
0.0
 40
0.0
 40
1.0
 40
1.0
 40
1.0
 40
1.0
 10
-25.0
 20
-5.221390455542568
 30
0.0
 10
-25.69985202276878
 20
-5.717254721938732
 30
0.0
 10
-26.39988318933852
 20
-6.212992626713586
 30
0.0
 10
-27.1
 20
-6.708669955548793
 30
0.0
  0
LINE
  5
EE
330
1F
100
AcDbEntity
  8
SK3
100
AcDbLine
 10
-27.1
 20
-6.7086699555
 30
0.0
 11
-31.9
 21
-6.7086699555
 31
0.0
  0
SPLINE
  5
EF
330
1F
100
AcDbEntity
  8
SK1
  6
Continuous
100
AcDbSpline
210
0.0
220
0.0
230
1.0
 70
     8
 71
     3
 72
    14
 73
    10
 74
     0
 42
0.0000000003119418
 43
0.0000000001
 12
1.0
 22
0.0
 32
0.0
 13
1.0
 23
0.0
 33
0.0
 40
0.0
 40
0.0
 40
0.0
 40
0.0
 40
0.123736372014399
 40
0.123736372014399
 40
0.123736372014399
 40
0.9996374413923926
 40
0.9996374413923926
 40
0.9996374413923926
 40
1.0
 40
1.0
 40
1.0
 40
1.0
 10
-31.9
 20
-10.61274600028707
 30
0.0
 10
-30.58427288194195
 20
-10.74356744651921
 30
0.0
 10
-29.2685452904581
 20
-10.87438651204652
 30
0.0
 10
-27.95281727300299
 20
-11.0052034353889
 30
0.0
 10
-18.63908390061423
 20
-11.93122608478395
 30
0.0
 10
-9.325329980843861
 20
-12.85714540468025
 30
0.0
 10
-0.011565639834097
 20
-13.78301230290817
 30
0.0
 10
-0.0077104265579636
 20
-13.78339554369324
 30
0.0
 10
-0.003855213279929
 20
-13.78377878446875
 30
0.0
 10
0.0
 20
-13.78416202523472
 30
0.0
  0
SPLINE
  5
F0
330
1F
100
AcDbEntity
  8
SK3
100
AcDbSpline
210
0.0
220
0.0
230
1.0
 70
     8
 71
     3
 72
    10
 73
     6
 74
     0
 42
0.0000000180465915
 43
0.0000000001
 12
1.0
 22
0.0
 32
0.0
 13
1.0
 23
0.0
 33
0.0
 40
0.0
 40
0.0
 40
0.0
 40
0.0
 40
0.5
 40
0.5
 40
1.0
 40
1.0
 40
1.0
 40
1.0
 10
11.1
 20
-6.205947252832871
 30
0.0
 10
11.1
 20
-6.132245353865866
 30
0.0
 10
11.05683219080213
 20
-6.05799287904606
 30
0.0
 10
10.90856076529284
 20
-5.953095725441063
 30
0.0
 10
10.80422533520341
 20
-5.922675472954684
 30
0.0
 10
10.7
 20
-5.922675472954682
 30
0.0
  0
LINE
  5
F1
330
1F
100
AcDbEntity
  8
SK3
100
AcDbLine
 10
10.7
 20
-5.922675473
 30
0.0
 11
-9.7
 21
-5.922675473
 31
0.0
  0
LINE
  5
F2
330
1F
100
AcDbEntity
  8
SK3
100
AcDbLine
 10
-9.7
 20
-6.1776217484
 30
0.0
 11
-13.7
 21
-6.1776217484
 31
0.0
  0
LINE
  5
F3
330
1F
100
AcDbEntity
  8
SK3
100
AcDbLine
 10
-13.7
 20
-6.1776217484
 30
0.0
 11
-14.4794228634
 21
-5.2213904555
 31
0.0
  0
LINE
  5
F4
330
1F
100
AcDbEntity
  8
SK3
100
AcDbLine
 10
-14.4794228634
 20
-5.2213904555
 30
0.0
 11
-25.0
 21
-5.2213904555
 31
0.0
  0
LINE
  5
F5
330
1F
100
AcDbEntity
  8
SK3
100
AcDbLine
 10
-13.7577350269
 20
-0.4999999002
 30
0.0
 11
-13.7577350269
 21
-0.7830640352
 31
0.0
  0
LINE
  5
F6
330
1F
100
AcDbEntity
  8
SK3
100
AcDbLine
 10
-26.25
 20
0.5000000998
 30
0.0
 11
-26.25
 21
0.7830642348
 31
0.0
  0
LINE
  5
F7
330
1F
100
AcDbEntity
  8
SK1
  6
Continuous
100
AcDbLine
 10
-34.5556692404
 20
-0.4999999002
 30
0.0
 11
-34.5556692404
 21
-15.1352606936
 31
0.0
  0
LINE
  5
F8
330
1F
100
AcDbEntity
  8
SK1
  6
Continuous
100
AcDbLine
 10
-34.9
 20
0.5000000998
 30
0.0
 11
-34.9
 21
14.7389317718
 31
0.0
  0
LINE
  5
F9
330
1F
100
AcDbEntity
  8
SK1
  6
Continuous
100
AcDbLine
 10
0.0
 20
0.5000000998
 30
0.0
 11
0.0
 21
13.7841622248
 31
0.0
  0
LINE
  5
FA
330
1F
100
AcDbEntity
  8
SK3
100
AcDbLine
 10
-27.1
 20
0.5000000998
 30
0.0
 11
-27.1
 21
6.7086701551
 31
0.0
  0
LINE
  5
FB
330
1F
100
AcDbEntity
  8
SK3
100
AcDbLine
 10
-13.7
 20
0.5000000998
 30
0.0
 11
-13.7
 21
6.177621948
 31
0.0
  0
LINE
  5
FC
330
1F
100
AcDbEntity
  8
SK3
100
AcDbLine
 10
-9.7
 20
0.5000000998
 30
0.0
 11
-9.7
 21
6.177621948
 31
0.0
  0
LINE
  5
FD
330
1F
100
AcDbEntity
  8
SK1
  6
Continuous
100
AcDbLine
 10
0.2
 20
-0.4999999002
 30
0.0
 11
0.2
 21
-12.440194983
 31
0.0
  0
LINE
  5
FE
330
1F
100
AcDbEntity
  8
SK1
  6
Continuous
100
AcDbLine
 10
3.6
 20
0.5000000998
 30
0.0
 11
3.6
 21
-0.4999999002
 31
0.0
  0
LINE
  5
FF
330
1F
100
AcDbEntity
  8
SK1
  6
Continuous
100
AcDbLine
 10
0.0
 20
-0.4999999002
 30
0.0
 11
-34.5556692404
 21
-0.4999999002
 31
0.0
  0
LINE
  5
100
330
1F
100
AcDbEntity
  8
SK1
  6
Continuous
100
AcDbLine
 10
-34.5556692404
 20
-0.4999999002
 30
0.0
 11
-34.9
 21
-0.4999999002
 31
0.0
  0
LINE
  5
101
330
1F
100
AcDbEntity
  8
SK1
  6
Continuous
100
AcDbLine
 10
0.0
 20
-0.4999999002
 30
0.0
 11
0.2
 21
-0.4999999002
 31
0.0
  0
LINE
  5
102
330
1F
100
AcDbEntity
  8
SK1
  6
Continuous
100
AcDbLine
 10
0.2
 20
-0.4999999002
 30
0.0
 11
3.6
 21
-0.4999999002
 31
0.0
  0
LINE
  5
103
330
1F
100
AcDbEntity
  8
SK1
  6
Continuous
100
AcDbLine
 10
0.0
 20
0.5000000998
 30
0.0
 11
0.2
 21
0.5000000998
 31
0.0
  0
LINE
  5
104
330
1F
100
AcDbEntity
  8
SK1
  6
Continuous
100
AcDbLine
 10
0.2
 20
0.5000000998
 30
0.0
 11
3.6
 21
0.5000000998
 31
0.0
  0
LINE
  5
105
330
1F
100
AcDbEntity
  8
SK1
  6
Continuous
100
AcDbLine
 10
0.0
 20
0.5000000998
 30
0.0
 11
-34.5556692404
 21
0.5000000998
 31
0.0
  0
LINE
  5
106
330
1F
100
AcDbEntity
  8
SK1
  6
Continuous
100
AcDbLine
 10
-34.5556692404
 20
0.5000000998
 30
0.0
 11
-34.9
 21
0.5000000998
 31
0.0
  0
LINE
  5
107
330
1F
100
AcDbEntity
  8
SK1
  6
Continuous
100
AcDbLine
 10
3.6
 20
-18.0999999002
 30
0.0
 11
3.9
 21
-18.0999999002
 31
0.0
  0
ARC
  5
108
330
1F
100
AcDbEntity
  8
SK1
  6
Continuous
100
AcDbCircle
 10
3.9
 20
-18.2999999002
 30
0.0
 40
0.1999999999999991
100
AcDbArc
 50
0.0
 51
90.0
  0
LINE
  5
109
330
1F
100
AcDbEntity
  8
SK3
100
AcDbLine
 10
3.6
 20
-8.8899999002
 30
0.0
 11
10.7
 21
-8.8899999002
 31
0.0
  0
LINE
  5
10A
330
1F
100
AcDbEntity
  8
SK1
  6
Continuous
100
AcDbLine
 10
4.5392304845
 20
-20.4464100617
 30
0.0
 11
10.975
 21
-16.7307167996
 31
0.0
  0
LINE
  5
10B
330
1F
100
AcDbEntity
  8
SK1
  6
Continuous
100
AcDbLine
 10
4.1
 20
-20.1928202233
 30
0.0
 11
4.5392304845
 21
-20.4464100617
 31
0.0
  0
ARC
  5
10C
330
1F
100
AcDbEntity
  8
SK3
100
AcDbCircle
 10
10.7
 20
-9.2899999002
 30
0.0
 40
0.4
100
AcDbArc
 50
0.0
 51
90.0
  0
ARC
  5
10D
330
1F
100
AcDbEntity
  8
SK1
  6
Continuous
100
AcDbCircle
 10
10.85
 20
-16.5142104486
 30
0.0
 40
0.2499999999999996
100
AcDbArc
 50
300.0
 51
0.0
  0
ARC
  5
10E
330
1F
100
AcDbEntity
  8
SK1
  6
Continuous
100
AcDbCircle
 10
10.85
 20
16.5142106481
 30
0.0
 40
0.2500000000000002
100
AcDbArc
 50
0.0
 51
60.0
  0
ARC
  5
10F
330
1F
100
AcDbEntity
  8
SK3
100
AcDbCircle
 10
10.7
 20
9.2900000998
 30
0.0
 40
0.4000000000000002
100
AcDbArc
 50
270.0
 51
0.0
  0
LINE
  5
110
330
1F
100
AcDbEntity
  8
SK1
  6
Continuous
100
AcDbLine
 10
4.5392304845
 20
20.4464102613
 30
0.0
 11
4.1
 21
20.1928204228
 31
0.0
  0
LINE
  5
111
330
1F
100
AcDbEntity
  8
SK1
  6
Continuous
100
AcDbLine
 10
10.975
 20
16.7307169991
 30
0.0
 11
4.5392304845
 21
20.4464102613
 31
0.0
  0
ARC
  5
112
330
1F
100
AcDbEntity
  8
SK1
  6
Continuous
100
AcDbCircle
 10
3.9
 20
18.3000000998
 30
0.0
 40
0.1999999999999994
100
AcDbArc
 50
270.0
 51
0.0
  0
LINE
  5
113
330
1F
100
AcDbEntity
  8
SK3
100
AcDbLine
 10
10.7
 20
8.8900000998
 30
0.0
 11
3.6
 21
8.8900000998
 31
0.0
  0
LINE
  5
114
330
1F
100
AcDbEntity
  8
SK1
  6
Continuous
100
AcDbLine
 10
3.9
 20
18.1000000998
 30
0.0
 11
3.6
 21
18.1000000998
 31
0.0
  0
LINE
  5
116
330
1F
100
AcDbEntity
  8
SK4
  6
Continuous
100
AcDbLine
 10
11.1
 20
0.0000000998
 30
0.0
 11
-34.9
 21
0.0000000998
 31
0.0
  0
DIMENSION
  5
12B
330
1F
100
AcDbEntity
  8
SK2
  6
Continuous
 62
   136
100
AcDbDimension
  2
DMBLK49
 10
20.3914069727
 20
-8.8899999002
 30
0.0
 11
20.3914069727
 21
0.0000002717
 31
0.0
 70
   161
  1
\A1;ø <>
 71
     5
 42
-1.0
  3
DIN
100
AcDbAlignedDimension
 13
10.7
 23
-8.8899999002
 33
0.0
 14
10.7
 24
8.8900000998
 34
0.0
  0
DIMENSION
  5
136
330
1F
100
AcDbEntity
  8
SK2
  6
Continuous
 62
   136
100
AcDbDimension
  2
DMBLK50
 10
11.1
 20
-27.8248437099
 30
0.0
 11
5.5499998853
 21
-27.8248437099
 31
0.0
 70
   160
  1
\A1;<>
 71
     5
 42
-1.0
  3
DIN
100
AcDbAlignedDimension
 13
0.0
 23
-19.9937489234
 33
0.0
 14
11.1
 24
-16.5142104486
 34
0.0
100
AcDbRotatedDimension
  0
DIMENSION
  5
140
330
1F
100
AcDbEntity
  8
SK2
  6
Continuous
 62
   136
100
AcDbDimension
  2
DMBLK51
 10
-41.4239279926
 20
-19.9937489234
 30
0.0
 11
-41.4239279926
 21
-0.0000004075
 31
0.0
 70
   161
  1
\A1;ø <>
 71
     5
 42
-1.0
  3
DIN
100
AcDbAlignedDimension
 13
0.0
 23
-19.9937489234
 33
0.0
 14
0.0
 24
19.9937491229
 34
0.0
1001
ACAD
1000
DSTYLE
1002
{
1070
   271
1070
     1
1070
   272
1070
     1
1070
     0
1002
}
  0
DIMENSION
  5
14B
330
1F
100
AcDbEntity
  8
SK2
  6
Continuous
 62
   136
100
AcDbDimension
  2
DMBLK52
 10
11.1
 20
27.0001790342
 30
0.0
 11
-11.8999999553
 21
27.0001790342
 31
0.0
 70
   160
  1
\A1;<>
 71
     5
 42
-1.0
  3
DIN
100
AcDbAlignedDimension
 13
-34.9
 23
14.7389317718
 33
0.0
 14
11.1
 24
16.5142106482
 34
0.0
100
AcDbRotatedDimension
  0
ENDSEC
  0
SECTION
  2
OBJECTS
  0
DICTIONARY
  5
C
330
0
100
AcDbDictionary
281
     1
  3
ACAD_GROUP
350
D
  3
ACAD_LAYOUT
350
1A
  3
ACAD_MATERIAL
350
3B
  3
ACAD_MLEADERSTYLE
350
157
  3
ACAD_MLINESTYLE
350
17
  3
ACAD_PLOTSETTINGS
350
19
  3
ACAD_PLOTSTYLENAME
350
E
  3
ACAD_VISUALSTYLE
350
2A
  3
AcDbVariableDictionary
350
155
  0
DICTIONARY
  5
D
102
{ACAD_REACTORS
330
C
102
}
330
C
100
AcDbDictionary
281
     1
  0
DICTIONARY
  5
1A
102
{ACAD_REACTORS
330
C
102
}
330
C
100
AcDbDictionary
281
     1
  3
Layout1
350
1E
  3
Model
350
22
  0
DICTIONARY
  5
3B
102
{ACAD_REACTORS
330
C
102
}
330
C
100
AcDbDictionary
281
     1
  3
ByBlock
350
3D
  3
ByLayer
350
3C
  3
Global
350
3E
  0
DICTIONARY
  5
157
102
{ACAD_REACTORS
330
C
102
}
330
C
100
AcDbDictionary
281
     1
  0
DICTIONARY
  5
17
102
{ACAD_REACTORS
330
C
102
}
330
C
100
AcDbDictionary
281
     1
  3
Standard
350
18
  0
DICTIONARY
  5
19
102
{ACAD_REACTORS
330
C
102
}
330
C
100
AcDbDictionary
281
     1
  0
ACDBDICTIONARYWDFLT
  5
E
102
{ACAD_REACTORS
330
C
102
}
330
C
100
AcDbDictionary
281
     1
  3
Normal
350
F
100
AcDbDictionaryWithDefault
340
F
  0
DICTIONARY
  5
2A
102
{ACAD_REACTORS
330
C
102
}
330
C
100
AcDbDictionary
281
     1
  3
2dWireframe
350
2F
  3
3D Hidden
350
31
  3
3dWireframe
350
30
  3
Basic
350
32
  3
Brighten
350
36
  3
ColorChange
350
3A
  3
Conceptual
350
34
  3
Dim
350
35
  3
Facepattern
350
39
  3
Flat
350
2B
  3
FlatWithEdges
350
2C
  3
Gouraud
350
2D
  3
GouraudWithEdges
350
2E
  3
Linepattern
350
38
  3
Realistic
350
33
  3
Thicken
350
37
  0
DICTIONARY
  5
155
102
{ACAD_REACTORS
330
C
102
}
330
C
100
AcDbDictionary
281
     1
  3
DIMASSOC
350
15A
  3
HIDETEXT
350
15B
  3
PSOLHEIGHT
350
159
  3
PSOLWIDTH
350
158
  0
LAYOUT
  5
1E
102
{ACAD_REACTORS
330
1A
102
}
330
1A
100
AcDbPlotSettings
  1

  2
none_device
  4

  6

 40
0.0
 41
0.0
 42
0.0
 43
0.0
 44
0.0
 45
0.0
 46
0.0
 47
0.0
 48
0.0
 49
0.0
140
0.0
141
0.0
142
1.0
143
1.0
 70
   688
 72
     0
 73
     0
 74
     5
  7

 75
    16
147
1.0
148
0.0
149
0.0
100
AcDbLayout
  1
Layout1
 70
     1
 71
     1
 10
0.0
 20
0.0
 11
210.0
 21
297.0
 12
0.0
 22
0.0
 32
0.0
 14
0.0
 24
0.0
 34
0.0
 15
210.0
 25
297.0
 35
0.0
146
0.0
 13
0.0
 23
0.0
 33
0.0
 16
1.0
 26
0.0
 36
0.0
 17
0.0
 27
1.0
 37
0.0
 76
     0
330
1B
  0
LAYOUT
  5
22
102
{ACAD_REACTORS
330
1A
102
}
330
1A
100
AcDbPlotSettings
  1

  2
none_device
  4

  6

 40
0.0
 41
0.0
 42
0.0
 43
0.0
 44
0.0
 45
0.0
 46
0.0
 47
0.0
 48
0.0
 49
0.0
140
0.0
141
0.0
142
1.0
143
1.0
 70
  1712
 72
     0
 73
     0
 74
     0
  7

 75
     0
147
1.0
148
0.0
149
0.0
100
AcDbLayout
  1
Model
 70
     1
 71
     0
 10
0.0
 20
0.0
 11
210.0
 21
297.0
 12
0.0
 22
0.0
 32
0.0
 14
0.0
 24
0.0
 34
0.0
 15
210.0
 25
297.0
 35
0.0
146
0.0
 13
0.0
 23
0.0
 33
0.0
 16
1.0
 26
0.0
 36
0.0
 17
0.0
 27
1.0
 37
0.0
 76
     0
330
1F
331
29
  0
MATERIAL
  5
3D
102
{ACAD_REACTORS
330
3B
102
}
102
{ACAD_XDICTIONARY
360
17E
102
}
330
3B
100
AcDbMaterial
  1
ByBlock
  0
MATERIAL
  5
3C
102
{ACAD_REACTORS
330
3B
102
}
102
{ACAD_XDICTIONARY
360
17C
102
}
330
3B
100
AcDbMaterial
  1
ByLayer
  0
MATERIAL
  5
3E
102
{ACAD_REACTORS
330
3B
102
}
102
{ACAD_XDICTIONARY
360
180
102
}
330
3B
100
AcDbMaterial
  1
Global
  0
MLINESTYLE
  5
18
102
{ACAD_REACTORS
330
17
102
}
330
17
100
AcDbMlineStyle
  2
Standard
 70
     0
  3

 62
   256
 51
90.0
 52
90.0
 71
     2
 49
0.5
 62
   256
  6
BYLAYER
 49
-0.5
 62
   256
  6
BYLAYER
  0
ACDBPLACEHOLDER
  5
F
102
{ACAD_REACTORS
330
E
102
}
330
E
  0
VISUALSTYLE
  5
2F
102
{ACAD_REACTORS
330
2A
102
}
102
{ACAD_XDICTIONARY
360
164
102
}
330
2A
100
AcDbVisualStyle
  2
2dWireframe
 70
     4
 71
     0
 72
     2
 73
     0
 90
        0
 40
-0.6
 41
-30.0
 62
     5
 63
     7
 74
     1
 91
        4
 64
     7
 65
   257
 75
     1
175
     1
 42
1.0
 92
        0
 66
   257
 43
1.0
 76
     1
 77
     6
 78
     2
 67
     7
 79
     5
170
     0
171
     0
290
     0
174
     0
 93
        1
 44
0.0
173
     0
291
     0
 45
0.0
1001
ACAD
1000
AcDbSavedByObjectVersion
1070
     0
  0
VISUALSTYLE
  5
31
102
{ACAD_REACTORS
330
2A
102
}
102
{ACAD_XDICTIONARY
360
168
102
}
330
2A
100
AcDbVisualStyle
  2
3D Hidden
 70
     6
 71
     1
 72
     2
 73
     2
 90
        0
 40
-0.6
 41
-30.0
 62
     5
 63
     7
 74
     2
 91
        2
 64
     7
 65
   257
 75
     2
175
     1
 42
40.0
 92
        0
 66
   257
 43
1.0
 76
     1
 77
     6
 78
     2
 67
     7
 79
     3
170
     0
171
     0
290
     0
174
     0
 93
        1
 44
0.0
173
     0
291
     0
 45
0.0
1001
ACAD
1000
AcDbSavedByObjectVersion
1070
     0
  0
VISUALSTYLE
  5
30
102
{ACAD_REACTORS
330
2A
102
}
102
{ACAD_XDICTIONARY
360
166
102
}
330
2A
100
AcDbVisualStyle
  2
3dWireframe
 70
     5
 71
     0
 72
     2
 73
     0
 90
        0
 40
-0.6
 41
-30.0
 62
     5
 63
     7
 74
     1
 91
        4
 64
     7
 65
   257
 75
     1
175
     1
 42
1.0
 92
        0
 66
   257
 43
1.0
 76
     1
 77
     6
 78
     2
 67
     7
 79
     5
170
     0
171
     0
290
     0
174
     0
 93
        1
 44
0.0
173
     0
291
     0
 45
0.0
1001
ACAD
1000
AcDbSavedByObjectVersion
1070
     0
  0
VISUALSTYLE
  5
32
102
{ACAD_REACTORS
330
2A
102
}
102
{ACAD_XDICTIONARY
360
16A
102
}
330
2A
100
AcDbVisualStyle
  2
Basic
 70
     7
 71
     1
 72
     0
 73
     1
 90
        0
 40
-0.6
 41
-30.0
 62
     5
 63
     7
 74
     0
 91
        4
 64
     7
 65
   257
 75
     1
175
     1
 42
1.0
 92
        8
 66
     7
 43
1.0
 76
     1
 77
     6
 78
     2
 67
     7
 79
     5
170
     0
171
     0
290
     0
174
     0
 93
        1
 44
0.0
173
     0
291
     1
 45
0.0
1001
ACAD
1000
AcDbSavedByObjectVersion
1070
     0
  0
VISUALSTYLE
  5
36
102
{ACAD_REACTORS
330
2A
102
}
102
{ACAD_XDICTIONARY
360
172
102
}
330
2A
100
AcDbVisualStyle
  2
Brighten
 70
    12
 71
     2
 72
     2
 73
     0
 90
        0
 40
-0.6
 41
-30.0
 62
     5
 63
     7
 74
     1
 91
        4
 64
     7
 65
   257
 75
     1
175
     1
 42
1.0
 92
        8
 66
     7
 43
1.0
 76
     1
 77
     6
 78
     2
 67
     7
 79
     5
170
     0
171
     0
290
     0
174
     0
 93
        1
 44
50.0
173
     0
291
     1
 45
0.0
1001
ACAD
1000
AcDbSavedByObjectVersion
1070
     0
  0
VISUALSTYLE
  5
3A
102
{ACAD_REACTORS
330
2A
102
}
102
{ACAD_XDICTIONARY
360
17A
102
}
330
2A
100
AcDbVisualStyle
  2
ColorChange
 70
    16
 71
     2
 72
     2
 73
     3
 90
        0
 40
-0.6
 41
-30.0
 62
     5
 63
     8
 74
     1
 91
        4
 64
     7
 65
   257
 75
     1
175
     1
 42
1.0
 92
        8
 66
     8
 43
1.0
 76
     1
 77
     6
 78
     2
 67
     7
 79
     5
170
     0
171
     0
290
     0
174
     0
 93
        1
 44
0.0
173
     0
291
     1
 45
0.0
1001
ACAD
1000
AcDbSavedByObjectVersion
1070
     0
  0
VISUALSTYLE
  5
34
102
{ACAD_REACTORS
330
2A
102
}
102
{ACAD_XDICTIONARY
360
16E
102
}
330
2A
100
AcDbVisualStyle
  2
Conceptual
 70
     9
 71
     3
 72
     2
 73
     0
 90
        0
 40
-0.6
 41
-30.0
 62
     5
 63
     7
 74
     2
 91
        2
 64
     7
 65
   257
 75
     1
175
     1
 42
40.0
 92
        8
 66
     7
 43
1.0
 76
     1
 77
     6
 78
     2
 67
     7
 79
     3
170
     0
171
     0
290
     0
174
     0
 93
        1
 44
0.0
173
     0
291
     0
 45
0.0
1001
ACAD
1000
AcDbSavedByObjectVersion
1070
     0
  0
VISUALSTYLE
  5
35
102
{ACAD_REACTORS
330
2A
102
}
102
{ACAD_XDICTIONARY
360
170
102
}
330
2A
100
AcDbVisualStyle
  2
Dim
 70
    11
 71
     2
 72
     2
 73
     0
 90
        0
 40
-0.6
 41
-30.0
 62
     5
 63
     7
 74
     1
 91
        4
 64
     7
 65
   257
 75
     1
175
     1
 42
1.0
 92
        8
 66
     7
 43
1.0
 76
     1
 77
     6
 78
     2
 67
     7
 79
     5
170
     0
171
     0
290
     0
174
     0
 93
        1
 44
-50.0
173
     0
291
     1
 45
0.0
1001
ACAD
1000
AcDbSavedByObjectVersion
1070
     0
  0
VISUALSTYLE
  5
39
102
{ACAD_REACTORS
330
2A
102
}
102
{ACAD_XDICTIONARY
360
178
102
}
330
2A
100
AcDbVisualStyle
  2
Facepattern
 70
    15
 71
     2
 72
     2
 73
     0
 90
        0
 40
-0.6
 41
-30.0
 62
     5
 63
     7
 74
     1
 91
        4
 64
     7
 65
   257
 75
     1
175
     1
 42
1.0
 92
        8
 66
     7
 43
1.0
 76
     1
 77
     6
 78
     2
 67
     7
 79
     5
170
     0
171
     0
290
     0
174
     0
 93
        1
 44
0.0
173
     0
291
     1
 45
0.0
1001
ACAD
1000
AcDbSavedByObjectVersion
1070
     0
  0
VISUALSTYLE
  5
2B
102
{ACAD_REACTORS
330
2A
102
}
102
{ACAD_XDICTIONARY
360
15C
102
}
330
2A
100
AcDbVisualStyle
  2
Flat
 70
     0
 71
     2
 72
     1
 73
     1
 90
        2
 40
-0.6
 41
30.0
 62
     5
 63
     7
 74
     0
 91
        4
 64
     7
 65
   257
 75
     1
175
     1
 42
1.0
 92
        8
 66
     7
 43
1.0
 76
     1
 77
     6
 78
     2
 67
     7
 79
     5
170
     0
171
     0
290
     0
174
     0
 93
       13
 44
0.0
173
     0
291
     1
 45
0.0
1001
ACAD
1000
AcDbSavedByObjectVersion
1070
     0
  0
VISUALSTYLE
  5
2C
102
{ACAD_REACTORS
330
2A
102
}
102
{ACAD_XDICTIONARY
360
15E
102
}
330
2A
100
AcDbVisualStyle
  2
FlatWithEdges
 70
     1
 71
     2
 72
     1
 73
     1
 90
        2
 40
-0.6
 41
30.0
 62
     5
 63
     7
 74
     1
 91
        4
 64
     7
 65
   257
 75
     1
175
     1
 42
1.0
 92
        0
 66
   257
 43
1.0
 76
     1
 77
     6
 78
     2
 67
     7
 79
     5
170
     0
171
     0
290
     0
174
     0
 93
       13
 44
0.0
173
     0
291
     1
 45
0.0
1001
ACAD
1000
AcDbSavedByObjectVersion
1070
     0
  0
VISUALSTYLE
  5
2D
102
{ACAD_REACTORS
330
2A
102
}
102
{ACAD_XDICTIONARY
360
160
102
}
330
2A
100
AcDbVisualStyle
  2
Gouraud
 70
     2
 71
     2
 72
     2
 73
     1
 90
        2
 40
-0.6
 41
30.0
 62
     5
 63
     7
 74
     0
 91
        4
 64
     7
 65
   257
 75
     1
175
     1
 42
1.0
 92
        0
 66
     7
 43
1.0
 76
     1
 77
     6
 78
     2
 67
     7
 79
     5
170
     0
171
     0
290
     0
174
     0
 93
       13
 44
0.0
173
     0
291
     1
 45
0.0
1001
ACAD
1000
AcDbSavedByObjectVersion
1070
     0
  0
VISUALSTYLE
  5
2E
102
{ACAD_REACTORS
330
2A
102
}
102
{ACAD_XDICTIONARY
360
162
102
}
330
2A
100
AcDbVisualStyle
  2
GouraudWithEdges
 70
     3
 71
     2
 72
     2
 73
     1
 90
        2
 40
-0.6
 41
30.0
 62
     5
 63
     7
 74
     1
 91
        4
 64
     7
 65
   257
 75
     1
175
     1
 42
1.0
 92
        0
 66
   257
 43
1.0
 76
     1
 77
     6
 78
     2
 67
     7
 79
     5
170
     0
171
     0
290
     0
174
     0
 93
       13
 44
0.0
173
     0
291
     1
 45
0.0
1001
ACAD
1000
AcDbSavedByObjectVersion
1070
     0
  0
VISUALSTYLE
  5
38
102
{ACAD_REACTORS
330
2A
102
}
102
{ACAD_XDICTIONARY
360
176
102
}
330
2A
100
AcDbVisualStyle
  2
Linepattern
 70
    14
 71
     2
 72
     2
 73
     0
 90
        0
 40
-0.6
 41
-30.0
 62
     5
 63
     7
 74
     1
 91
        4
 64
     7
 65
   257
 75
     7
175
     7
 42
1.0
 92
        8
 66
     7
 43
1.0
 76
     1
 77
     6
 78
     2
 67
     7
 79
     5
170
     0
171
     0
290
     0
174
     0
 93
        1
 44
0.0
173
     0
291
     1
 45
0.0
1001
ACAD
1000
AcDbSavedByObjectVersion
1070
     0
  0
VISUALSTYLE
  5
33
102
{ACAD_REACTORS
330
2A
102
}
102
{ACAD_XDICTIONARY
360
16C
102
}
330
2A
100
AcDbVisualStyle
  2
Realistic
 70
     8
 71
     2
 72
     2
 73
     0
 90
        0
 40
-0.6
 41
-30.0
 62
     5
 63
     7
 74
     1
 91
        0
 64
     7
 65
   257
 75
     1
175
     1
 42
1.0
 92
        8
 66
     8
 43
1.0
 76
     1
 77
     6
 78
     2
 67
     7
 79
     5
170
     0
171
     0
290
     0
174
     0
 93
       13
 44
0.0
173
     0
291
     0
 45
0.0
1001
ACAD
1000
AcDbSavedByObjectVersion
1070
     0
  0
VISUALSTYLE
  5
37
102
{ACAD_REACTORS
330
2A
102
}
102
{ACAD_XDICTIONARY
360
174
102
}
330
2A
100
AcDbVisualStyle
  2
Thicken
 70
    13
 71
     2
 72
     2
 73
     0
 90
        0
 40
-0.6
 41
-30.0
 62
     5
 63
     7
 74
     1
 91
        4
 64
     7
 65
   257
 75
     1
175
     1
 42
1.0
 92
       12
 66
     7
 43
1.0
 76
     1
 77
     6
 78
     2
 67
     7
 79
     5
170
     0
171
     0
290
     0
174
     0
 93
        1
 44
0.0
173
     0
291
     1
 45
0.0
1001
ACAD
1000
AcDbSavedByObjectVersion
1070
     0
  0
DICTIONARYVAR
  5
15A
102
{ACAD_REACTORS
330
155
102
}
330
155
100
DictionaryVariables
280
     0
  1
2
  0
DICTIONARYVAR
  5
15B
102
{ACAD_REACTORS
330
155
102
}
330
155
100
DictionaryVariables
280
     0
  1
1
  0
DICTIONARYVAR
  5
159
102
{ACAD_REACTORS
330
155
102
}
330
155
100
DictionaryVariables
280
     0
  1
80.000000
  0
DICTIONARYVAR
  5
158
102
{ACAD_REACTORS
330
155
102
}
330
155
100
DictionaryVariables
280
     0
  1
5.000000
  0
DICTIONARY
  5
17E
330
3D
100
AcDbDictionary
280
     1
281
     1
  3
ACAD_XREC_ROUNDTRIP
360
17F
  0
DICTIONARY
  5
17C
330
3C
100
AcDbDictionary
280
     1
281
     1
  3
ACAD_XREC_ROUNDTRIP
360
17D
  0
DICTIONARY
  5
180
330
3E
100
AcDbDictionary
280
     1
281
     1
  3
ACAD_XREC_ROUNDTRIP
360
181
  0
DICTIONARY
  5
164
330
2F
100
AcDbDictionary
280
     1
281
     1
  3
ACAD_XREC_ROUNDTRIP
360
165
  0
DICTIONARY
  5
168
330
31
100
AcDbDictionary
280
     1
281
     1
  3
ACAD_XREC_ROUNDTRIP
360
169
  0
DICTIONARY
  5
166
330
30
100
AcDbDictionary
280
     1
281
     1
  3
ACAD_XREC_ROUNDTRIP
360
167
  0
DICTIONARY
  5
16A
330
32
100
AcDbDictionary
280
     1
281
     1
  3
ACAD_XREC_ROUNDTRIP
360
16B
  0
DICTIONARY
  5
172
330
36
100
AcDbDictionary
280
     1
281
     1
  3
ACAD_XREC_ROUNDTRIP
360
173
  0
DICTIONARY
  5
17A
330
3A
100
AcDbDictionary
280
     1
281
     1
  3
ACAD_XREC_ROUNDTRIP
360
17B
  0
DICTIONARY
  5
16E
330
34
100
AcDbDictionary
280
     1
281
     1
  3
ACAD_XREC_ROUNDTRIP
360
16F
  0
DICTIONARY
  5
170
330
35
100
AcDbDictionary
280
     1
281
     1
  3
ACAD_XREC_ROUNDTRIP
360
171
  0
DICTIONARY
  5
178
330
39
100
AcDbDictionary
280
     1
281
     1
  3
ACAD_XREC_ROUNDTRIP
360
179
  0
DICTIONARY
  5
15C
330
2B
100
AcDbDictionary
280
     1
281
     1
  3
ACAD_XREC_ROUNDTRIP
360
15D
  0
DICTIONARY
  5
15E
330
2C
100
AcDbDictionary
280
     1
281
     1
  3
ACAD_XREC_ROUNDTRIP
360
15F
  0
DICTIONARY
  5
160
330
2D
100
AcDbDictionary
280
     1
281
     1
  3
ACAD_XREC_ROUNDTRIP
360
161
  0
DICTIONARY
  5
162
330
2E
100
AcDbDictionary
280
     1
281
     1
  3
ACAD_XREC_ROUNDTRIP
360
163
  0
DICTIONARY
  5
176
330
38
100
AcDbDictionary
280
     1
281
     1
  3
ACAD_XREC_ROUNDTRIP
360
177
  0
DICTIONARY
  5
16C
330
33
100
AcDbDictionary
280
     1
281
     1
  3
ACAD_XREC_ROUNDTRIP
360
16D
  0
DICTIONARY
  5
174
330
37
100
AcDbDictionary
280
     1
281
     1
  3
ACAD_XREC_ROUNDTRIP
360
175
  0
XRECORD
  5
17F
102
{ACAD_REACTORS
330
17E
102
}
330
17E
100
AcDbXrecord
280
     1
102
MATERIAL
148
0.0
149
0.0
149
0.0
 93
        0
 94
      127
282
     0
 72
     1
 77
     1
171
     1
175
     1
179
     1
273
     0
  0
XRECORD
  5
17D
102
{ACAD_REACTORS
330
17C
102
}
330
17C
100
AcDbXrecord
280
     1
102
MATERIAL
148
0.0
149
0.0
149
0.0
 93
        0
 94
      127
282
     0
 72
     1
 77
     1
171
     1
175
     1
179
     1
273
     0
  0
XRECORD
  5
181
102
{ACAD_REACTORS
330
180
102
}
330
180
100
AcDbXrecord
280
     1
102
MATERIAL
148
0.0
149
0.0
149
0.0
 93
        0
 94
      127
282
     0
 72
     1
 77
     1
171
     1
175
     1
179
     1
273
     0
  0
XRECORD
  5
165
102
{ACAD_REACTORS
330
164
102
}
330
164
100
AcDbXrecord
280
     1
102
RTVSPropertyOp0
 70
     1
102
RTVSPropertyOp1
 70
     1
102
RTVSPropertyOp2
 70
     1
102
RTVSPropertyOp3
 70
     1
102
RTVSPropertyOp4
 70
     1
102
RTVSPropertyOp5
 70
     1
102
RTVSPropertyOp6
 70
     1
102
RTVSPropertyOp7
 70
     1
102
RTVSPropertyOp8
 70
     1
102
RTVSPropertyOp9
 70
     1
102
RTVSPropertyOp10
 70
     1
102
RTVSPropertyOp11
 70
     1
102
RTVSPropertyOp12
 70
     1
102
RTVSPropertyOp13
 70
     1
102
RTVSPropertyOp14
 70
     1
102
RTVSPropertyOp15
 70
     1
102
RTVSPropertyOp16
 70
     1
102
RTVSPropertyOp17
 70
     1
102
RTVSPropertyOp18
 70
     1
102
RTVSPropertyOp19
 70
     1
102
RTVSPropertyOp20
 70
     1
102
RTVSPropertyOp21
 70
     1
102
RTVSPropertyOp22
 70
     1
102
RTVSPropertyOp23
 70
     1
102
RTVSPropertyOp24
 70
     1
102
RTVSPropertyOp25
 70
     1
102
RTVSPropertyOp26
 70
     1
102
RTVSPropertyOp27
 70
     1
102
RTVSPropertyOp28
 70
     1
102
RTVSPropertyOp29
 70
     1
102
RTVSPropertyOp30
 70
     1
102
RTVSPropertyOp31
 70
     1
102
RTVSPropertyOp32
 70
     1
  0
XRECORD
  5
169
102
{ACAD_REACTORS
330
168
102
}
330
168
100
AcDbXrecord
280
     1
102
RTVSPropertyOp0
 70
     1
102
RTVSPropertyOp1
 70
     1
102
RTVSPropertyOp2
 70
     1
102
RTVSPropertyOp3
 70
     1
102
RTVSPropertyOp4
 70
     1
102
RTVSPropertyOp5
 70
     1
102
RTVSPropertyOp6
 70
     1
102
RTVSPropertyOp7
 70
     1
102
RTVSPropertyOp8
 70
     1
102
RTVSPropertyOp9
 70
     1
102
RTVSPropertyOp10
 70
     1
102
RTVSPropertyOp11
 70
     1
102
RTVSPropertyOp12
 70
     1
102
RTVSPropertyOp13
 70
     1
102
RTVSPropertyOp14
 70
     1
102
RTVSPropertyOp15
 70
     1
102
RTVSPropertyOp16
 70
     1
102
RTVSPropertyOp17
 70
     1
102
RTVSPropertyOp18
 70
     1
102
RTVSPropertyOp19
 70
     1
102
RTVSPropertyOp20
 70
     1
102
RTVSPropertyOp21
 70
     1
102
RTVSPropertyOp22
 70
     1
102
RTVSPropertyOp23
 70
     1
102
RTVSPropertyOp24
 70
     1
102
RTVSPropertyOp25
 70
     1
102
RTVSPropertyOp26
 70
     1
102
RTVSPropertyOp27
 70
     1
102
RTVSPropertyOp28
 70
     1
102
RTVSPropertyOp29
 70
     1
102
RTVSPropertyOp30
 70
     1
102
RTVSPropertyOp31
 70
     1
102
RTVSPropertyOp32
 70
     1
  0
XRECORD
  5
167
102
{ACAD_REACTORS
330
166
102
}
330
166
100
AcDbXrecord
280
     1
102
RTVSPropertyOp0
 70
     1
102
RTVSPropertyOp1
 70
     1
102
RTVSPropertyOp2
 70
     1
102
RTVSPropertyOp3
 70
     1
102
RTVSPropertyOp4
 70
     1
102
RTVSPropertyOp5
 70
     1
102
RTVSPropertyOp6
 70
     1
102
RTVSPropertyOp7
 70
     1
102
RTVSPropertyOp8
 70
     1
102
RTVSPropertyOp9
 70
     1
102
RTVSPropertyOp10
 70
     1
102
RTVSPropertyOp11
 70
     1
102
RTVSPropertyOp12
 70
     1
102
RTVSPropertyOp13
 70
     1
102
RTVSPropertyOp14
 70
     1
102
RTVSPropertyOp15
 70
     1
102
RTVSPropertyOp16
 70
     1
102
RTVSPropertyOp17
 70
     1
102
RTVSPropertyOp18
 70
     1
102
RTVSPropertyOp19
 70
     1
102
RTVSPropertyOp20
 70
     1
102
RTVSPropertyOp21
 70
     1
102
RTVSPropertyOp22
 70
     1
102
RTVSPropertyOp23
 70
     1
102
RTVSPropertyOp24
 70
     1
102
RTVSPropertyOp25
 70
     1
102
RTVSPropertyOp26
 70
     1
102
RTVSPropertyOp27
 70
     1
102
RTVSPropertyOp28
 70
     1
102
RTVSPropertyOp29
 70
     1
102
RTVSPropertyOp30
 70
     1
102
RTVSPropertyOp31
 70
     1
102
RTVSPropertyOp32
 70
     1
  0
XRECORD
  5
16B
102
{ACAD_REACTORS
330
16A
102
}
330
16A
100
AcDbXrecord
280
     1
102
RTVSPropertyOp0
 70
     1
102
RTVSPropertyOp1
 70
     1
102
RTVSPropertyOp2
 70
     1
102
RTVSPropertyOp3
 70
     1
102
RTVSPropertyOp4
 70
     1
102
RTVSPropertyOp5
 70
     1
102
RTVSPropertyOp6
 70
     1
102
RTVSPropertyOp7
 70
     1
102
RTVSPropertyOp8
 70
     1
102
RTVSPropertyOp9
 70
     1
102
RTVSPropertyOp10
 70
     1
102
RTVSPropertyOp11
 70
     1
102
RTVSPropertyOp12
 70
     1
102
RTVSPropertyOp13
 70
     1
102
RTVSPropertyOp14
 70
     1
102
RTVSPropertyOp15
 70
     1
102
RTVSPropertyOp16
 70
     1
102
RTVSPropertyOp17
 70
     1
102
RTVSPropertyOp18
 70
     1
102
RTVSPropertyOp19
 70
     1
102
RTVSPropertyOp20
 70
     1
102
RTVSPropertyOp21
 70
     1
102
RTVSPropertyOp22
 70
     1
102
RTVSPropertyOp23
 70
     1
102
RTVSPropertyOp24
 70
     1
102
RTVSPropertyOp25
 70
     1
102
RTVSPropertyOp26
 70
     1
102
RTVSPropertyOp27
 70
     1
102
RTVSPropertyOp28
 70
     1
102
RTVSPropertyOp29
 70
     1
102
RTVSPropertyOp30
 70
     1
102
RTVSPropertyOp31
 70
     1
102
RTVSPropertyOp32
 70
     1
  0
XRECORD
  5
173
102
{ACAD_REACTORS
330
172
102
}
330
172
100
AcDbXrecord
280
     1
102
RTVSPropertyOp0
 70
     1
102
RTVSPropertyOp1
 70
     1
102
RTVSPropertyOp2
 70
     1
102
RTVSPropertyOp3
 70
     1
102
RTVSPropertyOp4
 70
     1
102
RTVSPropertyOp5
 70
     1
102
RTVSPropertyOp6
 70
     1
102
RTVSPropertyOp7
 70
     1
102
RTVSPropertyOp8
 70
     1
102
RTVSPropertyOp9
 70
     1
102
RTVSPropertyOp10
 70
     1
102
RTVSPropertyOp11
 70
     1
102
RTVSPropertyOp12
 70
     1
102
RTVSPropertyOp13
 70
     1
102
RTVSPropertyOp14
 70
     1
102
RTVSPropertyOp15
 70
     1
102
RTVSPropertyOp16
 70
     1
102
RTVSPropertyOp17
 70
     1
102
RTVSPropertyOp18
 70
     1
102
RTVSPropertyOp19
 70
     1
102
RTVSPropertyOp20
 70
     1
102
RTVSPropertyOp21
 70
     1
102
RTVSPropertyOp22
 70
     1
102
RTVSPropertyOp23
 70
     1
102
RTVSPropertyOp24
 70
     1
102
RTVSPropertyOp25
 70
     1
102
RTVSPropertyOp26
 70
     1
102
RTVSPropertyOp27
 70
     1
102
RTVSPropertyOp28
 70
     1
102
RTVSPropertyOp29
 70
     1
102
RTVSPropertyOp30
 70
     1
102
RTVSPropertyOp31
 70
     1
102
RTVSPropertyOp32
 70
     1
  0
XRECORD
  5
17B
102
{ACAD_REACTORS
330
17A
102
}
330
17A
100
AcDbXrecord
280
     1
102
RTVSPropertyOp0
 70
     1
102
RTVSPropertyOp1
 70
     1
102
RTVSPropertyOp2
 70
     1
102
RTVSPropertyOp3
 70
     1
102
RTVSPropertyOp4
 70
     1
102
RTVSPropertyOp5
 70
     1
102
RTVSPropertyOp6
 70
     1
102
RTVSPropertyOp7
 70
     1
102
RTVSPropertyOp8
 70
     1
102
RTVSPropertyOp9
 70
     1
102
RTVSPropertyOp10
 70
     1
102
RTVSPropertyOp11
 70
     1
102
RTVSPropertyOp12
 70
     1
102
RTVSPropertyOp13
 70
     1
102
RTVSPropertyOp14
 70
     1
102
RTVSPropertyOp15
 70
     1
102
RTVSPropertyOp16
 70
     1
102
RTVSPropertyOp17
 70
     1
102
RTVSPropertyOp18
 70
     1
102
RTVSPropertyOp19
 70
     1
102
RTVSPropertyOp20
 70
     1
102
RTVSPropertyOp21
 70
     1
102
RTVSPropertyOp22
 70
     1
102
RTVSPropertyOp23
 70
     1
102
RTVSPropertyOp24
 70
     1
102
RTVSPropertyOp25
 70
     1
102
RTVSPropertyOp26
 70
     1
102
RTVSPropertyOp27
 70
     1
102
RTVSPropertyOp28
 70
     1
102
RTVSPropertyOp29
 70
     1
102
RTVSPropertyOp30
 70
     1
102
RTVSPropertyOp31
 70
     1
102
RTVSPropertyOp32
 70
     1
  0
XRECORD
  5
16F
102
{ACAD_REACTORS
330
16E
102
}
330
16E
100
AcDbXrecord
280
     1
102
RTVSPropertyOp0
 70
     1
102
RTVSPropertyOp1
 70
     1
102
RTVSPropertyOp2
 70
     1
102
RTVSPropertyOp3
 70
     1
102
RTVSPropertyOp4
 70
     1
102
RTVSPropertyOp5
 70
     1
102
RTVSPropertyOp6
 70
     1
102
RTVSPropertyOp7
 70
     1
102
RTVSPropertyOp8
 70
     1
102
RTVSPropertyOp9
 70
     1
102
RTVSPropertyOp10
 70
     1
102
RTVSPropertyOp11
 70
     1
102
RTVSPropertyOp12
 70
     1
102
RTVSPropertyOp13
 70
     1
102
RTVSPropertyOp14
 70
     1
102
RTVSPropertyOp15
 70
     1
102
RTVSPropertyOp16
 70
     1
102
RTVSPropertyOp17
 70
     1
102
RTVSPropertyOp18
 70
     1
102
RTVSPropertyOp19
 70
     1
102
RTVSPropertyOp20
 70
     1
102
RTVSPropertyOp21
 70
     1
102
RTVSPropertyOp22
 70
     1
102
RTVSPropertyOp23
 70
     1
102
RTVSPropertyOp24
 70
     1
102
RTVSPropertyOp25
 70
     1
102
RTVSPropertyOp26
 70
     1
102
RTVSPropertyOp27
 70
     1
102
RTVSPropertyOp28
 70
     1
102
RTVSPropertyOp29
 70
     1
102
RTVSPropertyOp30
 70
     1
102
RTVSPropertyOp31
 70
     1
102
RTVSPropertyOp32
 70
     1
  0
XRECORD
  5
171
102
{ACAD_REACTORS
330
170
102
}
330
170
100
AcDbXrecord
280
     1
102
RTVSPropertyOp0
 70
     1
102
RTVSPropertyOp1
 70
     1
102
RTVSPropertyOp2
 70
     1
102
RTVSPropertyOp3
 70
     1
102
RTVSPropertyOp4
 70
     1
102
RTVSPropertyOp5
 70
     1
102
RTVSPropertyOp6
 70
     1
102
RTVSPropertyOp7
 70
     1
102
RTVSPropertyOp8
 70
     1
102
RTVSPropertyOp9
 70
     1
102
RTVSPropertyOp10
 70
     1
102
RTVSPropertyOp11
 70
     1
102
RTVSPropertyOp12
 70
     1
102
RTVSPropertyOp13
 70
     1
102
RTVSPropertyOp14
 70
     1
102
RTVSPropertyOp15
 70
     1
102
RTVSPropertyOp16
 70
     1
102
RTVSPropertyOp17
 70
     1
102
RTVSPropertyOp18
 70
     1
102
RTVSPropertyOp19
 70
     1
102
RTVSPropertyOp20
 70
     1
102
RTVSPropertyOp21
 70
     1
102
RTVSPropertyOp22
 70
     1
102
RTVSPropertyOp23
 70
     1
102
RTVSPropertyOp24
 70
     1
102
RTVSPropertyOp25
 70
     1
102
RTVSPropertyOp26
 70
     1
102
RTVSPropertyOp27
 70
     1
102
RTVSPropertyOp28
 70
     1
102
RTVSPropertyOp29
 70
     1
102
RTVSPropertyOp30
 70
     1
102
RTVSPropertyOp31
 70
     1
102
RTVSPropertyOp32
 70
     1
  0
XRECORD
  5
179
102
{ACAD_REACTORS
330
178
102
}
330
178
100
AcDbXrecord
280
     1
102
RTVSPropertyOp0
 70
     1
102
RTVSPropertyOp1
 70
     1
102
RTVSPropertyOp2
 70
     1
102
RTVSPropertyOp3
 70
     1
102
RTVSPropertyOp4
 70
     1
102
RTVSPropertyOp5
 70
     1
102
RTVSPropertyOp6
 70
     1
102
RTVSPropertyOp7
 70
     1
102
RTVSPropertyOp8
 70
     1
102
RTVSPropertyOp9
 70
     1
102
RTVSPropertyOp10
 70
     1
102
RTVSPropertyOp11
 70
     1
102
RTVSPropertyOp12
 70
     1
102
RTVSPropertyOp13
 70
     1
102
RTVSPropertyOp14
 70
     1
102
RTVSPropertyOp15
 70
     1
102
RTVSPropertyOp16
 70
     1
102
RTVSPropertyOp17
 70
     1
102
RTVSPropertyOp18
 70
     1
102
RTVSPropertyOp19
 70
     1
102
RTVSPropertyOp20
 70
     1
102
RTVSPropertyOp21
 70
     1
102
RTVSPropertyOp22
 70
     1
102
RTVSPropertyOp23
 70
     1
102
RTVSPropertyOp24
 70
     1
102
RTVSPropertyOp25
 70
     1
102
RTVSPropertyOp26
 70
     1
102
RTVSPropertyOp27
 70
     1
102
RTVSPropertyOp28
 70
     1
102
RTVSPropertyOp29
 70
     1
102
RTVSPropertyOp30
 70
     1
102
RTVSPropertyOp31
 70
     1
102
RTVSPropertyOp32
 70
     1
  0
XRECORD
  5
15D
102
{ACAD_REACTORS
330
15C
102
}
330
15C
100
AcDbXrecord
280
     1
102
RTVSPropertyOp0
 70
     1
102
RTVSPropertyOp1
 70
     1
102
RTVSPropertyOp2
 70
     1
102
RTVSPropertyOp3
 70
     1
102
RTVSPropertyOp4
 70
     1
102
RTVSPropertyOp5
 70
     1
102
RTVSPropertyOp6
 70
     1
102
RTVSPropertyOp7
 70
     1
102
RTVSPropertyOp8
 70
     1
102
RTVSPropertyOp9
 70
     1
102
RTVSPropertyOp10
 70
     1
102
RTVSPropertyOp11
 70
     1
102
RTVSPropertyOp12
 70
     1
102
RTVSPropertyOp13
 70
     1
102
RTVSPropertyOp14
 70
     1
102
RTVSPropertyOp15
 70
     1
102
RTVSPropertyOp16
 70
     1
102
RTVSPropertyOp17
 70
     1
102
RTVSPropertyOp18
 70
     1
102
RTVSPropertyOp19
 70
     1
102
RTVSPropertyOp20
 70
     1
102
RTVSPropertyOp21
 70
     1
102
RTVSPropertyOp22
 70
     1
102
RTVSPropertyOp23
 70
     1
102
RTVSPropertyOp24
 70
     1
102
RTVSPropertyOp25
 70
     1
102
RTVSPropertyOp26
 70
     1
102
RTVSPropertyOp27
 70
     1
102
RTVSPropertyOp28
 70
     1
102
RTVSPropertyOp29
 70
     1
102
RTVSPropertyOp30
 70
     1
102
RTVSPropertyOp31
 70
     1
102
RTVSPropertyOp32
 70
     1
  0
XRECORD
  5
15F
102
{ACAD_REACTORS
330
15E
102
}
330
15E
100
AcDbXrecord
280
     1
102
RTVSPropertyOp0
 70
     1
102
RTVSPropertyOp1
 70
     1
102
RTVSPropertyOp2
 70
     1
102
RTVSPropertyOp3
 70
     1
102
RTVSPropertyOp4
 70
     1
102
RTVSPropertyOp5
 70
     1
102
RTVSPropertyOp6
 70
     1
102
RTVSPropertyOp7
 70
     1
102
RTVSPropertyOp8
 70
     1
102
RTVSPropertyOp9
 70
     1
102
RTVSPropertyOp10
 70
     1
102
RTVSPropertyOp11
 70
     1
102
RTVSPropertyOp12
 70
     1
102
RTVSPropertyOp13
 70
     1
102
RTVSPropertyOp14
 70
     1
102
RTVSPropertyOp15
 70
     1
102
RTVSPropertyOp16
 70
     1
102
RTVSPropertyOp17
 70
     1
102
RTVSPropertyOp18
 70
     1
102
RTVSPropertyOp19
 70
     1
102
RTVSPropertyOp20
 70
     1
102
RTVSPropertyOp21
 70
     1
102
RTVSPropertyOp22
 70
     1
102
RTVSPropertyOp23
 70
     1
102
RTVSPropertyOp24
 70
     1
102
RTVSPropertyOp25
 70
     1
102
RTVSPropertyOp26
 70
     1
102
RTVSPropertyOp27
 70
     1
102
RTVSPropertyOp28
 70
     1
102
RTVSPropertyOp29
 70
     1
102
RTVSPropertyOp30
 70
     1
102
RTVSPropertyOp31
 70
     1
102
RTVSPropertyOp32
 70
     1
  0
XRECORD
  5
161
102
{ACAD_REACTORS
330
160
102
}
330
160
100
AcDbXrecord
280
     1
102
RTVSPropertyOp0
 70
     1
102
RTVSPropertyOp1
 70
     1
102
RTVSPropertyOp2
 70
     1
102
RTVSPropertyOp3
 70
     1
102
RTVSPropertyOp4
 70
     1
102
RTVSPropertyOp5
 70
     1
102
RTVSPropertyOp6
 70
     1
102
RTVSPropertyOp7
 70
     1
102
RTVSPropertyOp8
 70
     1
102
RTVSPropertyOp9
 70
     1
102
RTVSPropertyOp10
 70
     1
102
RTVSPropertyOp11
 70
     1
102
RTVSPropertyOp12
 70
     1
102
RTVSPropertyOp13
 70
     1
102
RTVSPropertyOp14
 70
     1
102
RTVSPropertyOp15
 70
     1
102
RTVSPropertyOp16
 70
     1
102
RTVSPropertyOp17
 70
     1
102
RTVSPropertyOp18
 70
     1
102
RTVSPropertyOp19
 70
     1
102
RTVSPropertyOp20
 70
     1
102
RTVSPropertyOp21
 70
     1
102
RTVSPropertyOp22
 70
     1
102
RTVSPropertyOp23
 70
     1
102
RTVSPropertyOp24
 70
     1
102
RTVSPropertyOp25
 70
     1
102
RTVSPropertyOp26
 70
     1
102
RTVSPropertyOp27
 70
     1
102
RTVSPropertyOp28
 70
     1
102
RTVSPropertyOp29
 70
     1
102
RTVSPropertyOp30
 70
     1
102
RTVSPropertyOp31
 70
     1
102
RTVSPropertyOp32
 70
     1
  0
XRECORD
  5
163
102
{ACAD_REACTORS
330
162
102
}
330
162
100
AcDbXrecord
280
     1
102
RTVSPropertyOp0
 70
     1
102
RTVSPropertyOp1
 70
     1
102
RTVSPropertyOp2
 70
     1
102
RTVSPropertyOp3
 70
     1
102
RTVSPropertyOp4
 70
     1
102
RTVSPropertyOp5
 70
     1
102
RTVSPropertyOp6
 70
     1
102
RTVSPropertyOp7
 70
     1
102
RTVSPropertyOp8
 70
     1
102
RTVSPropertyOp9
 70
     1
102
RTVSPropertyOp10
 70
     1
102
RTVSPropertyOp11
 70
     1
102
RTVSPropertyOp12
 70
     1
102
RTVSPropertyOp13
 70
     1
102
RTVSPropertyOp14
 70
     1
102
RTVSPropertyOp15
 70
     1
102
RTVSPropertyOp16
 70
     1
102
RTVSPropertyOp17
 70
     1
102
RTVSPropertyOp18
 70
     1
102
RTVSPropertyOp19
 70
     1
102
RTVSPropertyOp20
 70
     1
102
RTVSPropertyOp21
 70
     1
102
RTVSPropertyOp22
 70
     1
102
RTVSPropertyOp23
 70
     1
102
RTVSPropertyOp24
 70
     1
102
RTVSPropertyOp25
 70
     1
102
RTVSPropertyOp26
 70
     1
102
RTVSPropertyOp27
 70
     1
102
RTVSPropertyOp28
 70
     1
102
RTVSPropertyOp29
 70
     1
102
RTVSPropertyOp30
 70
     1
102
RTVSPropertyOp31
 70
     1
102
RTVSPropertyOp32
 70
     1
  0
XRECORD
  5
177
102
{ACAD_REACTORS
330
176
102
}
330
176
100
AcDbXrecord
280
     1
102
RTVSPropertyOp0
 70
     1
102
RTVSPropertyOp1
 70
     1
102
RTVSPropertyOp2
 70
     1
102
RTVSPropertyOp3
 70
     1
102
RTVSPropertyOp4
 70
     1
102
RTVSPropertyOp5
 70
     1
102
RTVSPropertyOp6
 70
     1
102
RTVSPropertyOp7
 70
     1
102
RTVSPropertyOp8
 70
     1
102
RTVSPropertyOp9
 70
     1
102
RTVSPropertyOp10
 70
     1
102
RTVSPropertyOp11
 70
     1
102
RTVSPropertyOp12
 70
     1
102
RTVSPropertyOp13
 70
     1
102
RTVSPropertyOp14
 70
     1
102
RTVSPropertyOp15
 70
     1
102
RTVSPropertyOp16
 70
     1
102
RTVSPropertyOp17
 70
     1
102
RTVSPropertyOp18
 70
     1
102
RTVSPropertyOp19
 70
     1
102
RTVSPropertyOp20
 70
     1
102
RTVSPropertyOp21
 70
     1
102
RTVSPropertyOp22
 70
     1
102
RTVSPropertyOp23
 70
     1
102
RTVSPropertyOp24
 70
     1
102
RTVSPropertyOp25
 70
     1
102
RTVSPropertyOp26
 70
     1
102
RTVSPropertyOp27
 70
     1
102
RTVSPropertyOp28
 70
     1
102
RTVSPropertyOp29
 70
     1
102
RTVSPropertyOp30
 70
     1
102
RTVSPropertyOp31
 70
     1
102
RTVSPropertyOp32
 70
     1
  0
XRECORD
  5
16D
102
{ACAD_REACTORS
330
16C
102
}
330
16C
100
AcDbXrecord
280
     1
102
RTVSPropertyOp0
 70
     1
102
RTVSPropertyOp1
 70
     1
102
RTVSPropertyOp2
 70
     1
102
RTVSPropertyOp3
 70
     1
102
RTVSPropertyOp4
 70
     1
102
RTVSPropertyOp5
 70
     1
102
RTVSPropertyOp6
 70
     1
102
RTVSPropertyOp7
 70
     1
102
RTVSPropertyOp8
 70
     1
102
RTVSPropertyOp9
 70
     1
102
RTVSPropertyOp10
 70
     1
102
RTVSPropertyOp11
 70
     1
102
RTVSPropertyOp12
 70
     1
102
RTVSPropertyOp13
 70
     1
102
RTVSPropertyOp14
 70
     1
102
RTVSPropertyOp15
 70
     1
102
RTVSPropertyOp16
 70
     1
102
RTVSPropertyOp17
 70
     1
102
RTVSPropertyOp18
 70
     1
102
RTVSPropertyOp19
 70
     1
102
RTVSPropertyOp20
 70
     1
102
RTVSPropertyOp21
 70
     1
102
RTVSPropertyOp22
 70
     1
102
RTVSPropertyOp23
 70
     1
102
RTVSPropertyOp24
 70
     1
102
RTVSPropertyOp25
 70
     1
102
RTVSPropertyOp26
 70
     1
102
RTVSPropertyOp27
 70
     1
102
RTVSPropertyOp28
 70
     1
102
RTVSPropertyOp29
 70
     1
102
RTVSPropertyOp30
 70
     1
102
RTVSPropertyOp31
 70
     1
102
RTVSPropertyOp32
 70
     1
  0
XRECORD
  5
175
102
{ACAD_REACTORS
330
174
102
}
330
174
100
AcDbXrecord
280
     1
102
RTVSPropertyOp0
 70
     1
102
RTVSPropertyOp1
 70
     1
102
RTVSPropertyOp2
 70
     1
102
RTVSPropertyOp3
 70
     1
102
RTVSPropertyOp4
 70
     1
102
RTVSPropertyOp5
 70
     1
102
RTVSPropertyOp6
 70
     1
102
RTVSPropertyOp7
 70
     1
102
RTVSPropertyOp8
 70
     1
102
RTVSPropertyOp9
 70
     1
102
RTVSPropertyOp10
 70
     1
102
RTVSPropertyOp11
 70
     1
102
RTVSPropertyOp12
 70
     1
102
RTVSPropertyOp13
 70
     1
102
RTVSPropertyOp14
 70
     1
102
RTVSPropertyOp15
 70
     1
102
RTVSPropertyOp16
 70
     1
102
RTVSPropertyOp17
 70
     1
102
RTVSPropertyOp18
 70
     1
102
RTVSPropertyOp19
 70
     1
102
RTVSPropertyOp20
 70
     1
102
RTVSPropertyOp21
 70
     1
102
RTVSPropertyOp22
 70
     1
102
RTVSPropertyOp23
 70
     1
102
RTVSPropertyOp24
 70
     1
102
RTVSPropertyOp25
 70
     1
102
RTVSPropertyOp26
 70
     1
102
RTVSPropertyOp27
 70
     1
102
RTVSPropertyOp28
 70
     1
102
RTVSPropertyOp29
 70
     1
102
RTVSPropertyOp30
 70
     1
102
RTVSPropertyOp31
 70
     1
102
RTVSPropertyOp32
 70
     1
  0
ENDSEC
  0
EOF
