  0
SECTION
  2
HEADER
  9
$ACADVER
  1
AC1015
  9
$ACADMAINTVER
 70
     6
  9
$DWGCODEPAGE
  3
ANSI_1252
  9
$INSBASE
 10
0.0
 20
0.0
 30
0.0
  9
$EXTMIN
 10
0.0
 20
0.0
 30
0.0
  9
$EXTMAX
 10
210.0
 20
297.0
 30
0.0
  9
$LIMMIN
 10
0.0
 20
0.0
  9
$LIMMAX
 10
210.0
 20
297.0
  9
$ORTHOMODE
 70
     0
  9
$REGENMODE
 70
     1
  9
$FILLMODE
 70
     1
  9
$QTEXTMODE
 70
     0
  9
$MIRRTEXT
 70
     1
  9
$LTSCALE
 40
1.0
  9
$ATTMODE
 70
     1
  9
$TEXTSIZE
 40
2.5
  9
$TRACEWID
 40
1.0
  9
$TEXTSTYLE
  7
Standard
  9
$CLAYER
  8
0
  9
$CELTYPE
  6
ByLayer
  9
$CECOLOR
 62
   256
  9
$CELTSCALE
 40
1.0
  9
$DISPSILH
 70
     0
  9
$DIMSCALE
 40
1.0
  9
$DIMASZ
 40
2.5
  9
$DIMEXO
 40
0.625
  9
$DIMDLI
 40
3.75
  9
$DIMRND
 40
0.0
  9
$DIMDLE
 40
0.0
  9
$DIMEXE
 40
1.25
  9
$DIMTP
 40
0.0
  9
$DIMTM
 40
0.0
  9
$DIMTXT
 40
2.5
  9
$DIMCEN
 40
2.5
  9
$DIMTSZ
 40
0.0
  9
$DIMTOL
 70
     0
  9
$DIMLIM
 70
     0
  9
$DIMTIH
 70
     0
  9
$DIMTOH
 70
     0
  9
$DIMSE1
 70
     0
  9
$DIMSE2
 70
     0
  9
$DIMTAD
 70
     1
  9
$DIMZIN
 70
     8
  9
$DIMBLK
  1

  9
$DIMASO
 70
     1
  9
$DIMSHO
 70
     1
  9
$DIMPOST
  1

  9
$DIMAPOST
  1

  9
$DIMALT
 70
     0
  9
$DIMALTD
 70
     3
  9
$DIMALTF
 40
0.0393700787
  9
$DIMLFAC
 40
1.0
  9
$DIMTOFL
 70
     1
  9
$DIMTVP
 40
0.0
  9
$DIMTIX
 70
     0
  9
$DIMSOXD
 70
     0
  9
$DIMSAH
 70
     0
  9
$DIMBLK1
  1

  9
$DIMBLK2
  1

  9
$DIMSTYLE
  2
ISO-25
  9
$DIMCLRD
 70
     0
  9
$DIMCLRE
 70
     0
  9
$DIMCLRT
 70
     0
  9
$DIMTFAC
 40
1.0
  9
$DIMGAP
 40
0.625
  9
$DIMJUST
 70
     0
  9
$DIMSD1
 70
     0
  9
$DIMSD2
 70
     0
  9
$DIMTOLJ
 70
     0
  9
$DIMTZIN
 70
     8
  9
$DIMALTZ
 70
     0
  9
$DIMALTTZ
 70
     0
  9
$DIMUPT
 70
     0
  9
$DIMDEC
 70
     2
  9
$DIMTDEC
 70
     2
  9
$DIMALTU
 70
     2
  9
$DIMALTTD
 70
     3
  9
$DIMTXSTY
  7
Standard
  9
$DIMAUNIT
 70
     0
  9
$DIMADEC
 70
     0
  9
$DIMALTRND
 40
0.0
  9
$DIMAZIN
 70
     0
  9
$DIMDSEP
 70
    44
  9
$DIMATFIT
 70
     3
  9
$DIMFRAC
 70
     0
  9
$DIMLDRBLK
  1

  9
$DIMLUNIT
 70
     2
  9
$DIMLWD
 70
    -2
  9
$DIMLWE
 70
    -2
  9
$DIMTMOVE
 70
     0
  9
$LUNITS
 70
     2
  9
$LUPREC
 70
     4
  9
$SKETCHINC
 40
1.0
  9
$FILLETRAD
 40
10.0
  9
$AUNITS
 70
     0
  9
$AUPREC
 70
     0
  9
$MENU
  1
.
  9
$ELEVATION
 40
0.0
  9
$PELEVATION
 40
0.0
  9
$THICKNESS
 40
0.0
  9
$LIMCHECK
 70
     0
  9
$CHAMFERA
 40
10.0
  9
$CHAMFERB
 40
10.0
  9
$CHAMFERC
 40
20.0
  9
$CHAMFERD
 40
0.0
  9
$SKPOLY
 70
     0
  9
$TDCREATE
 40
2457574.296852095
  9
$TDUCREATE
 40
2457574.213518762
  9
$TDUPDATE
 40
2457574.296853542
  9
$TDUUPDATE
 40
2457574.213520208
  9
$TDINDWG
 40
0.0000000116
  9
$TDUSRTIMER
 40
0.0000000116
  9
$USRTIMER
 70
     1
  9
$ANGBASE
 50
0.0
  9
$ANGDIR
 70
     0
  9
$PDMODE
 70
     0
  9
$PDSIZE
 40
0.0
  9
$PLINEWID
 40
0.0
  9
$SPLFRAME
 70
     0
  9
$SPLINETYPE
 70
     6
  9
$SPLINESEGS
 70
     8
  9
$HANDSEED
  5
15B
  9
$SURFTAB1
 70
     6
  9
$SURFTAB2
 70
     6
  9
$SURFTYPE
 70
     6
  9
$SURFU
 70
     6
  9
$SURFV
 70
     6
  9
$UCSBASE
  2

  9
$UCSNAME
  2

  9
$UCSORG
 10
0.0
 20
0.0
 30
0.0
  9
$UCSXDIR
 10
1.0
 20
0.0
 30
0.0
  9
$UCSYDIR
 10
0.0
 20
1.0
 30
0.0
  9
$UCSORTHOREF
  2

  9
$UCSORTHOVIEW
 70
     0
  9
$UCSORGTOP
 10
0.0
 20
0.0
 30
0.0
  9
$UCSORGBOTTOM
 10
0.0
 20
0.0
 30
0.0
  9
$UCSORGLEFT
 10
0.0
 20
0.0
 30
0.0
  9
$UCSORGRIGHT
 10
0.0
 20
0.0
 30
0.0
  9
$UCSORGFRONT
 10
0.0
 20
0.0
 30
0.0
  9
$UCSORGBACK
 10
0.0
 20
0.0
 30
0.0
  9
$PUCSBASE
  2

  9
$PUCSNAME
  2

  9
$PUCSORG
 10
0.0
 20
0.0
 30
0.0
  9
$PUCSXDIR
 10
1.0
 20
0.0
 30
0.0
  9
$PUCSYDIR
 10
0.0
 20
1.0
 30
0.0
  9
$PUCSORTHOREF
  2

  9
$PUCSORTHOVIEW
 70
     0
  9
$PUCSORGTOP
 10
0.0
 20
0.0
 30
0.0
  9
$PUCSORGBOTTOM
 10
0.0
 20
0.0
 30
0.0
  9
$PUCSORGLEFT
 10
0.0
 20
0.0
 30
0.0
  9
$PUCSORGRIGHT
 10
0.0
 20
0.0
 30
0.0
  9
$PUCSORGFRONT
 10
0.0
 20
0.0
 30
0.0
  9
$PUCSORGBACK
 10
0.0
 20
0.0
 30
0.0
  9
$USERI1
 70
     0
  9
$USERI2
 70
     0
  9
$USERI3
 70
     0
  9
$USERI4
 70
     0
  9
$USERI5
 70
     0
  9
$USERR1
 40
0.0
  9
$USERR2
 40
0.0
  9
$USERR3
 40
0.0
  9
$USERR4
 40
0.0
  9
$USERR5
 40
0.0
  9
$WORLDVIEW
 70
     1
  9
$SHADEDGE
 70
     3
  9
$SHADEDIF
 70
    70
  9
$TILEMODE
 70
     1
  9
$MAXACTVP
 70
    64
  9
$PINSBASE
 10
0.0
 20
0.0
 30
0.0
  9
$PLIMCHECK
 70
     0
  9
$PEXTMIN
 10
0.0
 20
0.0
 30
0.0
  9
$PEXTMAX
 10
210.0
 20
297.0
 30
0.0
  9
$PLIMMIN
 10
0.0
 20
0.0
  9
$PLIMMAX
 10
210.0
 20
297.0
  9
$UNITMODE
 70
     0
  9
$VISRETAIN
 70
     1
  9
$PLINEGEN
 70
     0
  9
$PSLTSCALE
 70
     1
  9
$TREEDEPTH
 70
  3020
  9
$CMLSTYLE
  2
Standard
  9
$CMLJUST
 70
     0
  9
$CMLSCALE
 40
20.0
  9
$PROXYGRAPHICS
 70
     1
  9
$MEASUREMENT
 70
     1
  9
$CELWEIGHT
370
    -1
  9
$ENDCAPS
280
     0
  9
$JOINSTYLE
280
     0
  9
$LWDISPLAY
290
     0
  9
$INSUNITS
 70
     4
  9
$HYPERLINKBASE
  1

  9
$STYLESHEET
  1

  9
$XEDIT
290
     1
  9
$CEPSNTYPE
380
     0
  9
$PSTYLEMODE
290
     1
  9
$FINGERPRINTGUID
  2
{B15B8591-C8D2-41E3-A821-235202CE1A40}
  9
$VERSIONGUID
  2
{FAEB1C32-E019-11D5-929B-00C0DF256EC4}
  9
$EXTNAMES
290
     1
  9
$PSVPSCALE
 40
0.0
  9
$OLESTARTUP
290
     0
  0
ENDSEC
  0
SECTION
  2
CLASSES
  0
CLASS
  1
ACDBDICTIONARYWDFLT
  2
AcDbDictionaryWithDefault
  3
ObjectDBX Classes
 90
        0
280
     0
281
     0
  0
CLASS
  1
VISUALSTYLE
  2
AcDbVisualStyle
  3
ObjectDBX Classes
 90
     4095
280
     0
281
     0
  0
CLASS
  1
MATERIAL
  2
AcDbMaterial
  3
ObjectDBX Classes
 90
     1153
280
     0
281
     0
  0
CLASS
  1
DICTIONARYVAR
  2
AcDbDictionaryVar
  3
ObjectDBX Classes
 90
        0
280
     0
281
     0
  0
CLASS
  1
ACDBPLACEHOLDER
  2
AcDbPlaceHolder
  3
ObjectDBX Classes
 90
        0
280
     0
281
     0
  0
CLASS
  1
LAYOUT
  2
AcDbLayout
  3
ObjectDBX Classes
 90
        0
280
     0
281
     0
  0
ENDSEC
  0
SECTION
  2
TABLES
  0
TABLE
  2
VPORT
  5
8
330
0
100
AcDbSymbolTable
 70
     1
  0
VPORT
  5
29
330
8
100
AcDbSymbolTableRecord
100
AcDbViewportTableRecord
  2
*Active
 70
     0
 10
0.0
 20
0.0
 11
1.0
 21
1.0
 12
344.1869158879
 22
148.5
 13
0.0
 23
0.0
 14
10.0
 24
10.0
 15
10.0
 25
10.0
 16
0.0
 26
0.0
 36
1.0
 17
0.0
 27
0.0
 37
0.0
 40
297.0
 41
1.9729729729
 42
50.0
 43
0.0
 44
0.0
 50
0.0
 51
0.0
 71
     0
 72
   100
 73
     1
 74
     3
 75
     0
 76
     0
 77
     0
 78
     0
281
     0
 65
     1
110
0.0
120
0.0
130
0.0
111
1.0
121
0.0
131
0.0
112
0.0
122
1.0
132
0.0
 79
     0
146
0.0
  0
ENDTAB
  0
TABLE
  2
LTYPE
  5
5
330
0
100
AcDbSymbolTable
 70
     2
  0
LTYPE
  5
14
330
5
100
AcDbSymbolTableRecord
100
AcDbLinetypeTableRecord
  2
ByBlock
 70
     0
  3

 72
    65
 73
     0
 40
0.0
  0
LTYPE
  5
15
330
5
100
AcDbSymbolTableRecord
100
AcDbLinetypeTableRecord
  2
ByLayer
 70
     0
  3

 72
    65
 73
     0
 40
0.0
  0
LTYPE
  5
16
330
5
100
AcDbSymbolTableRecord
100
AcDbLinetypeTableRecord
  2
Continuous
 70
     0
  3
Solid line
 72
    65
 73
     0
 40
0.0
  0
LTYPE
  5
5A
330
5
100
AcDbSymbolTableRecord
100
AcDbLinetypeTableRecord
  2
HIDDEN2
 70
     0
  3
Hidden (.5x) _ _ _ _ _ _ _ _ _ _ _ _ _ _ _ _ _ 
 72
    65
 73
     2
 40
4.7625
 49
3.175
 74
     4
 75
     0
340
0
 46
0.0
 50
0.0
 44
0.0
 45
0.0
 49
-1.5875
 74
     4
 75
     0
340
0
 46
0.0
 50
0.0
 44
0.0
 45
0.0
  0
ENDTAB
  0
TABLE
  2
LAYER
  5
2
330
0
100
AcDbSymbolTable
 70
     5
  0
LAYER
  5
10
330
2
100
AcDbSymbolTableRecord
100
AcDbLayerTableRecord
  2
0
 70
     0
 62
     7
  6
Continuous
370
    -3
390
F
  0
LAYER
  5
3F
330
2
100
AcDbSymbolTableRecord
100
AcDbLayerTableRecord
  2
SK2
 70
     0
 62
     7
  6
Continuous
370
    15
390
F
  0
LAYER
  5
40
330
2
100
AcDbSymbolTableRecord
100
AcDbLayerTableRecord
  2
SK1
 70
     0
 62
     4
  6
Continuous
370
    18
390
F
  0
LAYER
  5
59
330
2
100
AcDbSymbolTableRecord
100
AcDbLayerTableRecord
  2
SK3
 70
     0
 62
     1
  6
HIDDEN2
370
    15
390
F
  0
LAYER
  5
EE
330
2
100
AcDbSymbolTableRecord
100
AcDbLayerTableRecord
  2
SK4
 70
     0
 62
     2
  6
Continuous
370
    13
390
F
  0
ENDTAB
  0
TABLE
  2
STYLE
  5
3
330
0
100
AcDbSymbolTable
 70
     2
  0
STYLE
  5
11
330
3
100
AcDbSymbolTableRecord
100
AcDbTextStyleTableRecord
  2
Standard
 70
     0
 40
0.0
 41
1.0
 50
0.0
 71
     0
 42
2.5
  3
txt
  4

  0
STYLE
  5
102
330
3
100
AcDbSymbolTableRecord
100
AcDbTextStyleTableRecord
  2
SEACAD_Solid_Edge_ISO
 70
     0
 40
0.0
 41
1.0
 50
0.0
 71
     0
 42
0.2
  3
seiso.ttf
  4

1001
ACAD
1000
Solid Edge ISO
1071
        0
  0
ENDTAB
  0
TABLE
  2
VIEW
  5
6
330
0
100
AcDbSymbolTable
 70
     0
  0
ENDTAB
  0
TABLE
  2
UCS
  5
7
330
0
100
AcDbSymbolTable
 70
     0
  0
ENDTAB
  0
TABLE
  2
APPID
  5
9
330
0
100
AcDbSymbolTable
 70
     1
  0
APPID
  5
12
330
9
100
AcDbSymbolTableRecord
100
AcDbRegAppTableRecord
  2
ACAD
 70
     0
  0
ENDTAB
  0
TABLE
  2
DIMSTYLE
  5
A
330
0
100
AcDbSymbolTable
 70
     3
100
AcDbDimStyleTable
  0
DIMSTYLE
105
27
330
A
100
AcDbSymbolTableRecord
100
AcDbDimStyleTableRecord
  2
ISO-25
 70
     0
 41
2.5
 42
0.625
 43
3.75
 44
1.25
 73
     0
 74
     0
 77
     1
 78
     8
140
2.5
141
2.5
143
0.0393700787
147
0.625
171
     3
172
     1
178
     0
271
     2
272
     2
274
     3
278
    44
283
     0
284
     8
340
11
  0
DIMSTYLE
105
F0
330
A
100
AcDbSymbolTableRecord
100
AcDbDimStyleTableRecord
  2
Standard
 70
     0
178
     0
340
11
  0
DIMSTYLE
105
103
102
{ACAD_REACTORS
330
104
330
10E
330
119
330
123
102
}
330
A
100
AcDbSymbolTableRecord
100
AcDbDimStyleTableRecord
  2
DIN
 70
     0
 41
3.5
 42
0.0
 44
1.75
 73
     0
 74
     0
 77
     1
 78
     8
140
3.5
141
1.75
147
1.75
172
     1
173
     1
178
     0
179
     3
271
     2
272
     2
278
    44
284
     8
340
102
343
FD
344
FD
  0
ENDTAB
  0
TABLE
  2
BLOCK_RECORD
  5
1
330
0
100
AcDbSymbolTable
 70
    10
  0
BLOCK_RECORD
  5
1F
330
1
100
AcDbSymbolTableRecord
100
AcDbBlockTableRecord
  2
*Model_Space
340
22
  0
BLOCK_RECORD
  5
1B
330
1
100
AcDbSymbolTableRecord
100
AcDbBlockTableRecord
  2
*Paper_Space
340
1E
  0
BLOCK_RECORD
  5
41
330
1
100
AcDbSymbolTableRecord
100
AcDbBlockTableRecord
  2
Nullpunkt
340
0
102
{BLKREFS
331
4B
102
}
  0
BLOCK_RECORD
  5
4C
330
1
100
AcDbSymbolTableRecord
100
AcDbBlockTableRecord
  2
Einfügepunkt
340
0
102
{BLKREFS
331
56
102
}
  0
BLOCK_RECORD
  5
F1
330
1
100
AcDbSymbolTableRecord
100
AcDbBlockTableRecord
  2
_OBLIQUE
340
0
  0
BLOCK_RECORD
  5
F5
330
1
100
AcDbSymbolTableRecord
100
AcDbBlockTableRecord
  2
_DOT
340
0
  0
BLOCK_RECORD
  5
FD
330
1
100
AcDbSymbolTableRecord
100
AcDbBlockTableRecord
  2
_SE_FILLED
340
0
  0
BLOCK_RECORD
  5
105
330
1
100
AcDbSymbolTableRecord
100
AcDbBlockTableRecord
  2
DMBLK9
340
0
  0
BLOCK_RECORD
  5
10F
330
1
100
AcDbSymbolTableRecord
100
AcDbBlockTableRecord
  2
DMBLK10
340
0
  0
BLOCK_RECORD
  5
11A
330
1
100
AcDbSymbolTableRecord
100
AcDbBlockTableRecord
  2
DMBLK11
340
0
  0
BLOCK_RECORD
  5
124
330
1
100
AcDbSymbolTableRecord
100
AcDbBlockTableRecord
  2
DMBLK12
340
0
  0
ENDTAB
  0
ENDSEC
  0
SECTION
  2
BLOCKS
  0
BLOCK
  5
20
330
1F
100
AcDbEntity
  8
0
100
AcDbBlockBegin
  2
*Model_Space
 70
     0
 10
0.0
 20
0.0
 30
0.0
  3
*Model_Space
  1

  0
ENDBLK
  5
21
330
1F
100
AcDbEntity
  8
0
100
AcDbBlockEnd
  0
BLOCK
  5
1C
330
1B
100
AcDbEntity
 67
     1
  8
0
100
AcDbBlockBegin
  2
*Paper_Space
 70
     0
 10
0.0
 20
0.0
 30
0.0
  3
*Paper_Space
  1

  0
ENDBLK
  5
1D
330
1B
100
AcDbEntity
 67
     1
  8
0
100
AcDbBlockEnd
  0
BLOCK
  5
49
330
41
100
AcDbEntity
  8
0
100
AcDbBlockBegin
  2
Nullpunkt
 70
     0
 10
0.0
 20
0.0
 30
0.0
  3
Nullpunkt
  1

  0
HATCH
  5
42
330
41
100
AcDbEntity
  8
SK2
  6
Continuous
 62
     7
100
AcDbHatch
 10
0.0
 20
0.0
 30
0.0
210
0.0
220
0.0
230
1.0
  2
SOLID
 70
     1
 71
     0
 91
        1
 92
        1
 93
        3
 72
     1
 10
-1.0
 20
0.0
 11
0.0000000000000009
 21
0.0
 72
     1
 10
0.0
 20
0.0
 11
0.0
 21
1.000000000000001
 72
     2
 10
0.0
 20
0.0
 40
1.0
 50
90.0
 51
180.0
 73
     1
 97
        0
 75
     0
 76
     1
 98
        0
  0
HATCH
  5
43
330
41
100
AcDbEntity
  8
SK2
  6
Continuous
 62
     7
100
AcDbHatch
 10
0.0
 20
0.0
 30
0.0
210
0.0
220
0.0
230
1.0
  2
SOLID
 70
     1
 71
     0
 91
        1
 92
        1
 93
        3
 72
     2
 10
0.0
 20
0.0
 40
1.0
 50
270.0
 51
360.0
 73
     1
 72
     1
 10
1.0
 20
0.0
 11
-0.0000000000000009
 21
0.0
 72
     1
 10
0.0
 20
0.0
 11
0.0
 21
-1.000000000000001
 97
        0
 75
     0
 76
     1
 98
        0
  0
CIRCLE
  5
44
330
41
100
AcDbEntity
  8
SK2
  6
Continuous
 62
     7
100
AcDbCircle
 10
0.0
 20
0.0
 30
0.0
 40
1.0
  0
LINE
  5
45
330
41
100
AcDbEntity
  8
SK1
  6
Continuous
100
AcDbLine
 10
-1.0
 20
0.0
 30
0.0
 11
1.0
 21
0.0
 31
0.0
  0
LINE
  5
46
330
41
100
AcDbEntity
  8
SK1
  6
Continuous
100
AcDbLine
 10
0.0
 20
1.0
 30
0.0
 11
0.0
 21
-1.0
 31
0.0
  0
POINT
  5
47
330
41
100
AcDbEntity
  8
SK1
  6
Continuous
100
AcDbPoint
 10
0.0
 20
0.0
 30
0.0
  0
POINT
  5
48
330
41
100
AcDbEntity
  8
SK1
  6
Continuous
100
AcDbPoint
 10
0.0
 20
0.0
 30
0.0
  0
ENDBLK
  5
4A
330
41
100
AcDbEntity
  8
0
100
AcDbBlockEnd
  0
BLOCK
  5
54
330
4C
100
AcDbEntity
  8
0
100
AcDbBlockBegin
  2
Einfügepunkt
 70
     0
 10
0.0
 20
0.0
 30
0.0
  3
Einfügepunkt
  1

  0
HATCH
  5
4D
330
4C
100
AcDbEntity
  8
SK2
  6
Continuous
 62
     7
100
AcDbHatch
 10
0.0
 20
0.0
 30
0.0
210
0.0
220
0.0
230
1.0
  2
SOLID
 70
     1
 71
     0
 91
        1
 92
        1
 93
        3
 72
     1
 10
-0.4502381196756744
 20
-0.0000000000000018
 11
0.0000000000000033
 21
-0.0000000000000018
 72
     1
 10
0.0
 20
-0.0000000000000018
 11
0.0
 21
0.4502381196756812
 72
     2
 10
0.0
 20
-0.0000000000000018
 40
0.4502381196756812
 50
90.0
 51
180.0
 73
     1
 97
        0
 75
     0
 76
     1
 98
        0
  0
HATCH
  5
4E
330
4C
100
AcDbEntity
  8
SK2
  6
Continuous
 62
     7
100
AcDbHatch
 10
0.0
 20
0.0
 30
0.0
210
0.0
220
0.0
230
1.0
  2
SOLID
 70
     1
 71
     0
 91
        1
 92
        1
 93
        3
 72
     2
 10
0.0
 20
-0.0000000000000018
 40
0.4502381196756812
 50
270.0
 51
360.0
 73
     1
 72
     1
 10
0.4502381196756815
 20
-0.0000000000000018
 11
0.0000000000000038
 21
-0.0000000000000018
 72
     1
 10
0.0
 20
-0.0000000000000018
 11
0.0
 21
-0.4502381196756812
 97
        0
 75
     0
 76
     1
 98
        0
  0
CIRCLE
  5
4F
330
4C
100
AcDbEntity
  8
SK2
  6
Continuous
 62
     7
100
AcDbCircle
 10
0.0
 20
0.0
 30
0.0
 40
0.4502381196756812
  0
LINE
  5
50
330
4C
100
AcDbEntity
  8
SK1
  6
Continuous
100
AcDbLine
 10
-0.4502381197
 20
0.0
 30
0.0
 11
0.4502381197
 21
0.0
 31
0.0
  0
LINE
  5
51
330
4C
100
AcDbEntity
  8
SK1
  6
Continuous
100
AcDbLine
 10
0.0
 20
0.4502381197
 30
0.0
 11
0.0
 21
-0.4502381197
 31
0.0
  0
POINT
  5
52
330
4C
100
AcDbEntity
  8
SK2
  6
Continuous
 62
     7
100
AcDbPoint
 10
0.0
 20
0.0
 30
0.0
  0
POINT
  5
53
330
4C
100
AcDbEntity
  8
SK2
  6
Continuous
 62
     7
100
AcDbPoint
 10
0.0
 20
0.0
 30
0.0
  0
ENDBLK
  5
55
330
4C
100
AcDbEntity
  8
0
100
AcDbBlockEnd
  0
BLOCK
  5
F2
330
F1
100
AcDbEntity
  8
0
100
AcDbBlockBegin
  2
_OBLIQUE
 70
     0
 10
0.0
 20
0.0
 30
0.0
  3
_OBLIQUE
  1

  0
LINE
  5
F4
330
F1
100
AcDbEntity
  8
0
  6
ByBlock
 62
     0
370
    -2
100
AcDbLine
 10
-0.5
 20
-0.5
 30
0.0
 11
0.5
 21
0.5
 31
0.0
  0
ENDBLK
  5
F3
330
F1
100
AcDbEntity
  8
0
100
AcDbBlockEnd
  0
BLOCK
  5
F6
330
F5
100
AcDbEntity
  8
0
100
AcDbBlockBegin
  2
_DOT
 70
     0
 10
0.0
 20
0.0
 30
0.0
  3
_DOT
  1

  0
POLYLINE
  5
F8
330
F5
100
AcDbEntity
  8
0
  6
ByBlock
 62
     0
100
AcDb2dPolyline
 66
     1
 10
0.0
 20
0.0
 30
0.0
 70
     1
 40
0.5
 41
0.5
  0
VERTEX
  5
FA
330
F8
100
AcDbEntity
  8
0
  6
ByBlock
 62
     0
100
AcDbVertex
100
AcDb2dVertex
 10
-0.25
 20
0.0
 30
0.0
 42
1.0
  0
VERTEX
  5
FB
330
F8
100
AcDbEntity
  8
0
  6
ByBlock
 62
     0
100
AcDbVertex
100
AcDb2dVertex
 10
0.25
 20
0.0
 30
0.0
 42
1.0
  0
SEQEND
  5
FC
330
F8
100
AcDbEntity
  8
0
  6
ByBlock
 62
     0
  0
LINE
  5
F9
330
F5
100
AcDbEntity
  8
0
  6
ByBlock
 62
     0
370
    -2
100
AcDbLine
 10
-0.5
 20
0.0
 30
0.0
 11
-1.0
 21
0.0
 31
0.0
  0
ENDBLK
  5
F7
330
F5
100
AcDbEntity
  8
0
100
AcDbBlockEnd
  0
BLOCK
  5
100
330
FD
100
AcDbEntity
  8
0
100
AcDbBlockBegin
  2
_SE_FILLED
 70
     0
 10
0.0
 20
0.0
 30
0.0
  3
_SE_FILLED
  1

  0
SOLID
  5
FE
330
FD
100
AcDbEntity
  8
0
 62
     0
100
AcDbTrace
 10
0.0
 20
0.0
 30
0.0
 11
-1.0
 21
-0.1665
 31
0.0
 12
-1.0
 22
0.1665
 32
0.0
 13
0.0
 23
0.0
 33
0.0
  0
LINE
  5
FF
330
FD
100
AcDbEntity
  8
0
 62
     0
100
AcDbLine
 10
0.0
 20
0.0
 30
0.0
 11
-1.0
 21
0.0
 31
0.0
  0
ENDBLK
  5
101
330
FD
100
AcDbEntity
  8
0
100
AcDbBlockEnd
  0
BLOCK
  5
10C
330
105
100
AcDbEntity
  8
0
100
AcDbBlockBegin
  2
DMBLK9
 70
     0
 10
0.0
 20
0.0
 30
0.0
  3
DMBLK9
  1

  0
HATCH
  5
106
330
105
100
AcDbEntity
  8
SK2
  6
Continuous
 62
   136
100
AcDbHatch
 10
0.0
 20
0.0
 30
0.0
210
0.0
220
0.0
230
1.0
  2
SOLID
 70
     1
 71
     0
 91
        1
 92
        1
 93
        3
 72
     1
 10
4.599999891967497
 20
20.58333304802613
 11
4.599999891967497
 21
19.41666634534833
 72
     1
 10
4.599999891967497
 20
19.41666634534833
 11
8.100000000000914
 21
19.99999969668723
 72
     1
 10
8.100000000000916
 20
19.99999969668723
 11
4.599999891967498
 21
20.58333304802613
 97
        0
 75
     0
 76
     1
 98
        0
  0
HATCH
  5
107
330
105
100
AcDbEntity
  8
SK2
  6
Continuous
 62
   136
100
AcDbHatch
 10
0.0
 20
0.0
 30
0.0
210
0.0
220
0.0
230
1.0
  2
SOLID
 70
     1
 71
     0
 91
        1
 92
        1
 93
        3
 72
     1
 10
-22.40000173970965
 20
20.58333304802613
 11
-25.90000184774307
 21
19.99999969668723
 72
     1
 10
-25.90000184774307
 20
19.99999969668723
 11
-22.40000173970965
 21
19.41666634534833
 72
     1
 10
-22.40000173970965
 20
19.41666634534833
 11
-22.40000173970965
 21
20.58333304802613
 97
        0
 75
     0
 76
     1
 98
        0
  0
LINE
  5
108
330
105
100
AcDbEntity
  8
SK2
  6
Continuous
 62
   136
100
AcDbLine
 10
8.1
 20
10.1189111865
 30
0.0
 11
8.1
 21
21.7499997507
 31
0.0
  0
LINE
  5
109
330
105
100
AcDbEntity
  8
SK2
  6
Continuous
 62
   136
100
AcDbLine
 10
-25.9
 20
8.5506415708
 30
0.0
 11
-25.9
 21
21.7499997507
 31
0.0
  0
LINE
  5
10A
330
105
100
AcDbEntity
  8
SK2
  6
Continuous
 62
   136
100
AcDbLine
 10
8.1
 20
19.9999996967
 30
0.0
 11
-25.9000018477
 21
19.9999996967
 31
0.0
  0
TEXT
  5
10B
330
105
100
AcDbEntity
  8
SK2
  6
Continuous
 62
   136
100
AcDbText
 10
-10.8488645602
 20
20.8749996967
 30
0.0
 40
3.5
  1
34
  7
SEACAD_Solid_Edge_ISO
 11
-10.8488645602
 21
24.3749996967
 31
0.0
100
AcDbText
 73
     3
  0
ENDBLK
  5
10D
330
105
100
AcDbEntity
  8
0
100
AcDbBlockEnd
  0
BLOCK
  5
117
330
10F
100
AcDbEntity
  8
0
100
AcDbBlockBegin
  2
DMBLK10
 70
     0
 10
0.0
 20
0.0
 30
0.0
  3
DMBLK10
  1

  0
HATCH
  5
110
330
10F
100
AcDbEntity
  8
SK2
  6
Continuous
 62
   136
100
AcDbHatch
 10
0.0
 20
0.0
 30
0.0
210
0.0
220
0.0
230
1.0
  2
SOLID
 70
     1
 71
     0
 91
        1
 92
        1
 93
        3
 72
     1
 10
18.21479588660193
 20
-10.99500000826272
 11
17.63146253526302
 21
-7.494999900229306
 72
     1
 10
17.63146253526302
 20
-7.494999900229306
 11
17.04812918392412
 21
-10.99500000826272
 72
     1
 10
17.04812918392412
 20
-10.99500000826272
 11
18.21479588660193
 21
-10.99500000826272
 97
        0
 75
     0
 76
     1
 98
        0
  0
HATCH
  5
111
330
10F
100
AcDbEntity
  8
SK2
  6
Continuous
 62
   136
100
AcDbHatch
 10
0.0
 20
0.0
 30
0.0
210
0.0
220
0.0
230
1.0
  2
SOLID
 70
     1
 71
     0
 91
        1
 92
        1
 93
        3
 72
     1
 10
18.21479588660193
 20
10.99500020780411
 11
17.04812918392412
 21
10.99500020780411
 72
     1
 10
17.04812918392412
 20
10.99500020780411
 11
17.63146253526302
 21
7.49500009977069
 72
     1
 10
17.63146253526302
 20
7.49500009977069
 11
18.21479588660193
 21
10.99500020780411
 97
        0
 75
     0
 76
     1
 98
        0
  0
LINE
  5
112
330
10F
100
AcDbEntity
  8
SK2
  6
Continuous
 62
   136
100
AcDbLine
 10
7.8000000142
 20
-7.4949999002
 30
0.0
 11
19.3814625893
 21
-7.4949999002
 31
0.0
  0
LINE
  5
113
330
10F
100
AcDbEntity
  8
SK2
  6
Continuous
 62
   136
100
AcDbLine
 10
7.8000000142
 20
7.4950000998
 30
0.0
 11
19.3814625893
 21
7.4950000998
 31
0.0
  0
LINE
  5
114
330
10F
100
AcDbEntity
  8
SK2
  6
Continuous
 62
   136
100
AcDbLine
 10
17.6314625353
 20
-14.4950001163
 30
0.0
 11
17.6314625353
 21
27.2936831566
 31
0.0
  0
TEXT
  5
115
330
10F
100
AcDbEntity
  8
SK2
  6
Continuous
 62
   136
100
AcDbText
 10
16.7564625353
 20
17.6368639629
 30
0.0
 40
3.5
  1
14,99
 50
90.0
  7
SEACAD_Solid_Edge_ISO
 11
13.2564625353
 21
17.6368639629
 31
0.0
100
AcDbText
 73
     3
  0
TEXT
  5
116
330
10F
100
AcDbEntity
  8
SK2
  6
Continuous
 62
   136
100
AcDbText
 10
16.7564625353
 20
13.5641366901
 30
0.0
 40
3.5
  1
ø
 50
90.0
  7
SEACAD_Solid_Edge_ISO
 11
13.2564625353
 21
13.5641366901
 31
0.0
100
AcDbText
 73
     3
  0
ENDBLK
  5
118
330
10F
100
AcDbEntity
  8
0
100
AcDbBlockEnd
  0
BLOCK
  5
121
330
11A
100
AcDbEntity
  8
0
100
AcDbBlockBegin
  2
DMBLK11
 70
     0
 10
0.0
 20
0.0
 30
0.0
  3
DMBLK11
  1

  0
HATCH
  5
11B
330
11A
100
AcDbEntity
  8
SK2
  6
Continuous
 62
   136
100
AcDbHatch
 10
0.0
 20
0.0
 30
0.0
210
0.0
220
0.0
230
1.0
  2
SOLID
 70
     1
 71
     0
 91
        1
 92
        1
 93
        3
 72
     1
 10
-3.500000108033417
 20
-20.58333335607519
 11
0.0000000000000018
 21
-20.00000000473629
 72
     1
 10
0.0000000000000017
 20
-20.00000000473629
 11
-3.500000108033417
 21
-19.41666665339738
 72
     1
 10
-3.500000108033417
 20
-19.41666665339738
 11
-3.500000108033417
 21
-20.58333335607519
 97
        0
 75
     0
 76
     1
 98
        0
  0
HATCH
  5
11C
330
11A
100
AcDbEntity
  8
SK2
  6
Continuous
 62
   136
100
AcDbHatch
 10
0.0
 20
0.0
 30
0.0
210
0.0
220
0.0
230
1.0
  2
SOLID
 70
     1
 71
     0
 91
        1
 92
        1
 93
        3
 72
     1
 10
11.60000010803433
 20
-20.58333335607519
 11
11.60000010803433
 21
-19.41666665339738
 72
     1
 10
11.60000010803433
 20
-19.41666665339738
 11
8.100000000000916
 21
-20.00000000473629
 72
     1
 10
8.100000000000916
 20
-20.00000000473629
 11
11.60000010803433
 21
-20.58333335607519
 97
        0
 75
     0
 76
     1
 98
        0
  0
LINE
  5
11D
330
11A
100
AcDbEntity
  8
SK2
  6
Continuous
 62
   136
100
AcDbLine
 10
0.0
 20
-12.493598261
 30
0.0
 11
0.0
 21
-21.7500000588
 31
0.0
  0
LINE
  5
11E
330
11A
100
AcDbEntity
  8
SK2
  6
Continuous
 62
   136
100
AcDbLine
 10
8.1
 20
-10.1189110245
 30
0.0
 11
8.1
 21
-21.7500000588
 31
0.0
  0
LINE
  5
11F
330
11A
100
AcDbEntity
  8
SK2
  6
Continuous
 62
   136
100
AcDbLine
 10
-7.0000002161
 20
-20.0000000047
 30
0.0
 11
15.1000004262
 21
-20.0000000047
 31
0.0
  0
TEXT
  5
120
330
11A
100
AcDbEntity
  8
SK2
  6
Continuous
 62
   136
100
AcDbText
 10
1.9022728323
 20
-19.1250000047
 30
0.0
 40
3.5
  1
8,1
  7
SEACAD_Solid_Edge_ISO
 11
1.9022728323
 21
-15.6250000047
 31
0.0
100
AcDbText
 73
     3
  0
ENDBLK
  5
122
330
11A
100
AcDbEntity
  8
0
100
AcDbBlockEnd
  0
BLOCK
  5
12C
330
124
100
AcDbEntity
  8
0
100
AcDbBlockBegin
  2
DMBLK12
 70
     0
 10
0.0
 20
0.0
 30
0.0
  3
DMBLK12
  1

  0
HATCH
  5
125
330
124
100
AcDbEntity
  8
SK2
  6
Continuous
 62
   136
100
AcDbHatch
 10
0.0
 20
0.0
 30
0.0
210
0.0
220
0.0
230
1.0
  2
SOLID
 70
     1
 71
     0
 91
        1
 92
        1
 93
        3
 72
     1
 10
-33.22254253240923
 20
-8.99359815296302
 11
-32.63920918107033
 21
-12.49359826099644
 72
     1
 10
-32.63920918107033
 20
-12.49359826099644
 11
-32.05587582973143
 21
-8.99359815296302
 72
     1
 10
-32.05587582973143
 20
-8.99359815296302
 11
-33.22254253240923
 21
-8.99359815296302
 97
        0
 75
     0
 76
     1
 98
        0
  0
HATCH
  5
126
330
124
100
AcDbEntity
  8
SK2
  6
Continuous
 62
   136
100
AcDbHatch
 10
0.0
 20
0.0
 30
0.0
210
0.0
220
0.0
230
1.0
  2
SOLID
 70
     1
 71
     0
 91
        1
 92
        1
 93
        3
 72
     1
 10
-33.22254253240923
 20
8.993598180743358
 11
-32.05587582973143
 21
8.993598180743358
 72
     1
 10
-32.05587582973143
 20
8.993598180743358
 11
-32.63920918107033
 21
12.49359828877678
 72
     1
 10
-32.63920918107033
 20
12.49359828877678
 11
-33.22254253240923
 21
8.993598180743358
 97
        0
 75
     0
 76
     1
 98
        0
  0
LINE
  5
127
330
124
100
AcDbEntity
  8
SK2
  6
Continuous
 62
   136
100
AcDbLine
 10
0.0
 20
-12.493598261
 30
0.0
 11
-34.3892092351
 21
-12.493598261
 31
0.0
  0
LINE
  5
128
330
124
100
AcDbEntity
  8
SK2
  6
Continuous
 62
   136
100
AcDbLine
 10
0.0
 20
12.4935984605
 30
0.0
 11
-34.3892092351
 21
12.4935984605
 31
0.0
  0
LINE
  5
129
330
124
100
AcDbEntity
  8
SK2
  6
Continuous
 62
   136
100
AcDbLine
 10
-32.6392091811
 20
-12.493598261
 30
0.0
 11
-32.6392091811
 21
12.4935982888
 31
0.0
  0
TEXT
  5
12A
330
124
100
AcDbEntity
  8
SK2
  6
Continuous
 62
   136
100
AcDbText
 10
-33.5142091811
 20
-0.0318181679
 30
0.0
 40
3.5
  1
25
 50
90.0
  7
SEACAD_Solid_Edge_ISO
 11
-37.0142091811
 21
-0.0318181679
 31
0.0
100
AcDbText
 73
     3
  0
TEXT
  5
12B
330
124
100
AcDbEntity
  8
SK2
  6
Continuous
 62
   136
100
AcDbText
 10
-33.5142091811
 20
-4.1045454407
 30
0.0
 40
3.5
  1
ø
 50
90.0
  7
SEACAD_Solid_Edge_ISO
 11
-37.0142091811
 21
-4.1045454407
 31
0.0
100
AcDbText
 73
     3
  0
ENDBLK
  5
12D
330
124
100
AcDbEntity
  8
0
100
AcDbBlockEnd
  0
ENDSEC
  0
SECTION
  2
ENTITIES
  0
INSERT
  5
4B
330
1F
100
AcDbEntity
  8
SK2
 62
     7
100
AcDbBlockReference
  2
Nullpunkt
 10
0.0
 20
0.0000000998
 30
0.0
  0
INSERT
  5
56
330
1F
100
AcDbEntity
  8
SK2
 62
     7
100
AcDbBlockReference
  2
Einfügepunkt
 10
8.1
 20
0.0000000998
 30
0.0
  0
LINE
  5
57
330
1F
100
AcDbEntity
  8
SK1
  6
Continuous
100
AcDbLine
 10
0.2
 20
7.4901876844
 30
0.0
 11
0.2
 21
0.4000000998
 31
0.0
  0
LINE
  5
58
330
1F
100
AcDbEntity
  8
SK1
  6
Continuous
100
AcDbLine
 10
2.9
 20
-10.9999999002
 30
0.0
 11
2.9
 21
-8.0558729098
 31
0.0
  0
LINE
  5
5B
330
1F
100
AcDbEntity
  8
SK3
100
AcDbLine
 10
-12.7
 20
5.8618212134
 30
0.0
 11
-12.7
 21
7.8898670188
 31
0.0
  0
LINE
  5
5C
330
1F
100
AcDbEntity
  8
SK3
100
AcDbLine
 10
-16.7
 20
5.8618212134
 30
0.0
 11
-16.7
 21
7.8898670188
 31
0.0
  0
LINE
  5
5D
330
1F
100
AcDbEntity
  8
SK3
100
AcDbLine
 10
-17.5660254038
 20
-5.9719900545
 30
0.0
 11
-17.5660254038
 21
-4.799478529
 31
0.0
  0
LINE
  5
5E
330
1F
100
AcDbEntity
  8
SK3
100
AcDbLine
 10
-17.5660254038
 20
2.3011592854
 30
0.0
 11
-17.5660254038
 21
4.2337933036
 31
0.0
  0
LINE
  5
5F
330
1F
100
AcDbEntity
  8
SK3
100
AcDbLine
 10
-16.7577350269
 20
0.4884588176
 30
0.0
 11
-25.9
 21
0.4884588176
 31
0.0
  0
ARC
  5
60
330
1F
100
AcDbEntity
  8
SK3
100
AcDbCircle
 10
-6.8569625883
 20
2.2833365696
 30
0.0
 40
11.32652605125718
100
AcDbArc
 50
150.9413054946
 51
160.9941282355
  0
LINE
  5
61
330
1F
100
AcDbEntity
  8
SK3
100
AcDbLine
 10
-17.5660254038
 20
5.971990254
 30
0.0
 11
-25.9
 21
5.971990254
 31
0.0
  0
LINE
  5
62
330
1F
100
AcDbEntity
  8
SK3
100
AcDbLine
 10
-25.9
 20
2.3011592854
 30
0.0
 11
-17.5660254038
 21
2.3011592854
 31
0.0
  0
ARC
  5
63
330
1F
100
AcDbEntity
  8
SK3
100
AcDbCircle
 10
-6.8376468624
 20
5.9984259291
 30
0.0
 40
11.34759387542565
100
AcDbArc
 50
199.0152276941
 51
209.0493385758
  0
LINE
  5
64
330
1F
100
AcDbEntity
  8
SK3
100
AcDbLine
 10
-16.7577350269
 20
7.7846907218
 30
0.0
 11
-25.9
 21
7.7846907218
 31
0.0
  0
LINE
  5
65
330
1F
100
AcDbEntity
  8
SK3
100
AcDbLine
 10
-16.7577350269
 20
-7.7846905223
 30
0.0
 11
-25.9
 21
-7.7846905223
 31
0.0
  0
ARC
  5
66
330
1F
100
AcDbEntity
  8
SK3
100
AcDbCircle
 10
-6.8569625883
 20
-5.9898127703
 30
0.0
 40
11.3265260512572
100
AcDbArc
 50
150.9413054946
 51
160.9941282355
  0
LINE
  5
67
330
1F
100
AcDbEntity
  8
SK3
100
AcDbLine
 10
-17.5660254038
 20
-2.3011590859
 30
0.0
 11
-25.9
 21
-2.3011590859
 31
0.0
  0
LINE
  5
68
330
1F
100
AcDbEntity
  8
SK3
100
AcDbLine
 10
-25.9
 20
-5.9719900545
 30
0.0
 11
-17.5660254038
 21
-5.9719900545
 31
0.0
  0
ARC
  5
69
330
1F
100
AcDbEntity
  8
SK3
100
AcDbCircle
 10
-6.8376468624
 20
-2.2747234107
 30
0.0
 40
11.34759387542576
100
AcDbArc
 50
199.0152276941
 51
209.0493385758
  0
LINE
  5
6A
330
1F
100
AcDbEntity
  8
SK3
100
AcDbLine
 10
-16.7577350269
 20
-0.4884586181
 30
0.0
 11
-25.9
 21
-0.4884586181
 31
0.0
  0
LINE
  5
6B
330
1F
100
AcDbEntity
  8
SK3
100
AcDbLine
 10
-16.7577350269
 20
0.4884588176
 30
0.0
 11
-16.7577350269
 21
0.4000000998
 31
0.0
  0
LINE
  5
6C
330
1F
100
AcDbEntity
  8
SK3
100
AcDbLine
 10
-16.7577350269
 20
-7.7846905223
 30
0.0
 11
-16.7577350269
 21
-7.7897367379
 31
0.0
  0
LINE
  5
6D
330
1F
100
AcDbEntity
  8
SK1
  6
Continuous
100
AcDbLine
 10
3.1
 20
13.1500000998
 30
0.0
 11
3.1
 21
9.576994199
 31
0.0
  0
LINE
  5
6E
330
1F
100
AcDbEntity
  8
SK1
  6
Continuous
100
AcDbLine
 10
0.0
 20
9.1171509346
 30
0.0
 11
0.0
 21
12.4935984605
 31
0.0
  0
LINE
  5
6F
330
1F
100
AcDbEntity
  8
SK1
  6
Continuous
100
AcDbLine
 10
7.975
 20
-10.3354173379
 30
0.0
 11
7.975
 21
-7.5856110471
 31
0.0
  0
LINE
  5
70
330
1F
100
AcDbEntity
  8
SK1
  6
Continuous
100
AcDbLine
 10
8.1
 20
6.8667154709
 30
0.0
 11
8.1
 21
-6.8667152714
 31
0.0
  0
LINE
  5
71
330
1F
100
AcDbEntity
  8
SK1
  6
Continuous
100
AcDbLine
 10
7.975
 20
7.5856112466
 30
0.0
 11
7.975
 21
10.3354175375
 31
0.0
  0
SPLINE
  5
72
330
1F
100
AcDbEntity
  8
SK1
  6
Continuous
100
AcDbSpline
210
0.0
220
0.0
230
1.0
 70
     8
 71
     3
 72
    10
 73
     6
 74
     0
 42
0.00000004699904
 43
0.0000000001
 12
1.0
 22
0.0
 32
0.0
 13
1.0
 23
0.0
 33
0.0
 40
0.0
 40
0.0
 40
0.0
 40
0.0
 40
0.5
 40
0.5
 40
1.0
 40
1.0
 40
1.0
 40
1.0
 10
7.975000000001002
 20
7.585611246601601
 30
0.0
 10
8.012748038115788
 20
7.570189120345232
 30
0.0
 10
8.044594604650168
 20
7.547685642164578
 30
0.0
 10
8.088302214685886
 20
7.494171393660519
 30
0.0
 10
8.10000000000092
 20
7.463158526142047
 30
0.0
 10
8.100000000000916
 20
7.43240089585341
 30
0.0
  0
SPLINE
  5
73
330
1F
100
AcDbEntity
  8
SK1
  6
Continuous
100
AcDbSpline
210
0.0
220
0.0
230
1.0
 70
     8
 71
     3
 72
    10
 73
     6
 74
     0
 42
0.00000004699904
 43
0.0000000001
 12
1.0
 22
0.0
 32
0.0
 13
1.0
 23
0.0
 33
0.0
 40
0.0
 40
0.0
 40
0.0
 40
0.0
 40
0.5
 40
0.5
 40
1.0
 40
1.0
 40
1.0
 40
1.0
 10
7.975000000001002
 20
7.019925821652364
 30
0.0
 10
8.012748038115632
 20
7.004503695396052
 30
0.0
 10
8.044594604649916
 20
6.982000217215522
 30
0.0
 10
8.088302214685609
 20
6.928485968711756
 30
0.0
 10
8.100000000000739
 20
6.897473101193438
 30
0.0
 10
8.100000000007137
 20
6.866715470904722
 30
0.0
  0
LINE
  5
74
330
1F
100
AcDbEntity
  8
SK1
  6
Continuous
100
AcDbLine
 10
-23.4
 20
6.2244174446
 30
0.0
 11
-23.4
 21
6.7901028696
 31
0.0
  0
LINE
  5
75
330
1F
100
AcDbEntity
  8
SK1
  6
Continuous
100
AcDbLine
 10
3.1
 20
-13.1499999002
 30
0.0
 11
3.1
 21
-9.5769939995
 31
0.0
  0
LINE
  5
76
330
1F
100
AcDbEntity
  8
SK3
100
AcDbLine
 10
-17.5660254038
 20
4.7994787285
 30
0.0
 11
-17.5660254038
 21
5.971990254
 31
0.0
  0
LINE
  5
77
330
1F
100
AcDbEntity
  8
SK1
  6
Continuous
100
AcDbLine
 10
2.9
 20
11.0000000997
 30
0.0
 11
2.9
 21
8.0558731094
 31
0.0
  0
LINE
  5
78
330
1F
100
AcDbEntity
  8
SK3
100
AcDbLine
 10
-23.4
 20
6.2244174446
 30
0.0
 11
-23.4
 21
4.2337933036
 31
0.0
  0
SPLINE
  5
79
330
1F
100
AcDbEntity
  8
SK1
  6
Continuous
100
AcDbSpline
210
0.0
220
0.0
230
1.0
 70
     8
 71
     3
 72
    14
 73
    10
 74
     0
 42
0.0000000004252528
 43
0.0000000001
 12
1.0
 22
0.0
 32
0.0
 13
1.0
 23
0.0
 33
0.0
 40
0.0
 40
0.0
 40
0.0
 40
0.0
 40
0.1235909907309631
 40
0.1235909907309631
 40
0.1235909907309631
 40
0.8381641112638675
 40
0.8381641112638675
 40
0.8381641112638675
 40
1.0
 40
1.0
 40
1.0
 40
1.0
 10
-23.40000000000001
 20
6.224417444632484
 30
0.0
 10
-22.43599491837844
 20
6.320308194835293
 30
0.0
 10
-21.47198905842475
 20
6.416195032751732
 30
0.0
 10
-20.50798251505121
 20
6.512078435053988
 30
0.0
 10
-14.93433058729411
 20
7.066453002068513
 30
0.0
 10
-9.360656653164002
 20
7.620716945623646
 30
0.0
 10
-3.786971565144261
 20
8.174924791328632
 30
0.0
 10
-2.52464829282293
 20
8.300441294376174
 30
0.0
 10
-1.2623244129253
 20
8.425954742246093
 30
0.0
 10
0.0000000000000017
 20
8.551465509615644
 30
0.0
  0
SPLINE
  5
7A
330
1F
100
AcDbEntity
  8
SK3
100
AcDbSpline
210
0.0
220
0.0
230
1.0
 70
     8
 71
     3
 72
    10
 73
     6
 74
     0
 42
0.0000000240610248
 43
0.0000000001
 12
1.0
 22
0.0
 32
0.0
 13
1.0
 23
0.0
 33
0.0
 40
0.0
 40
0.0
 40
0.0
 40
0.0
 40
0.5
 40
0.5
 40
1.0
 40
1.0
 40
1.0
 40
1.0
 10
8.100000000000916
 20
5.221792933815025
 30
0.0
 10
8.10000000000092
 20
5.166497882491898
 30
0.0
 10
8.068057821841311
 20
5.111269882745825
 30
0.0
 10
7.956633585348441
 20
5.032212025531631
 30
0.0
 10
7.878226583899958
 20
5.009369826342355
 30
0.0
 10
7.79999999999945
 20
5.009369826334746
 30
0.0
  0
LINE
  5
7B
330
1F
100
AcDbEntity
  8
SK3
100
AcDbLine
 10
7.8
 20
5.0093698263
 30
0.0
 11
-12.7
 21
5.0093698263
 31
0.0
  0
LINE
  5
7C
330
1F
100
AcDbEntity
  8
SK3
100
AcDbLine
 10
-12.7
 20
5.2961357884
 30
0.0
 11
-16.7
 21
5.2961357884
 31
0.0
  0
LINE
  5
7D
330
1F
100
AcDbEntity
  8
SK3
100
AcDbLine
 10
-16.7
 20
5.2961357884
 30
0.0
 11
-17.5660254038
 21
4.2337933036
 31
0.0
  0
LINE
  5
7E
330
1F
100
AcDbEntity
  8
SK3
100
AcDbLine
 10
-17.5660254038
 20
4.2337933036
 30
0.0
 11
-23.4
 21
4.2337933036
 31
0.0
  0
LINE
  5
7F
330
1F
100
AcDbEntity
  8
SK1
  6
Continuous
100
AcDbLine
 10
8.1
 20
6.8667154709
 30
0.0
 11
8.1
 21
7.4324008959
 31
0.0
  0
LINE
  5
80
330
1F
100
AcDbEntity
  8
SK1
  6
Continuous
100
AcDbLine
 10
7.975
 20
7.5856112466
 30
0.0
 11
3.1
 21
9.576994199
 31
0.0
  0
LINE
  5
81
330
1F
100
AcDbEntity
  8
SK1
  6
Continuous
100
AcDbLine
 10
3.1
 20
9.576994199
 30
0.0
 11
3.1
 21
9.0113087741
 31
0.0
  0
SPLINE
  5
82
330
1F
100
AcDbEntity
  8
SK1
  6
Continuous
100
AcDbSpline
210
0.0
220
0.0
230
1.0
 70
     8
 71
     3
 72
    10
 73
     6
 74
     0
 42
0.0000000361031086
 43
0.0000000001
 12
1.0
 22
0.0
 32
0.0
 13
1.0
 23
0.0
 33
0.0
 40
0.0
 40
0.0
 40
0.0
 40
0.0
 40
0.5
 40
0.5
 40
1.0
 40
1.0
 40
1.0
 40
1.0
 10
3.100000000000916
 20
8.197386387209063
 30
0.0
 10
3.100000000000914
 20
8.160549321472347
 30
0.0
 10
3.078626200797536
 20
8.123697079706526
 30
0.0
 10
3.004486952019211
 20
8.071137925774776
 30
0.0
 10
2.952106441442117
 20
8.055873109368111
 30
0.0
 10
2.899999999997636
 20
8.055873109352959
 30
0.0
  0
LINE
  5
83
330
1F
100
AcDbEntity
  8
SK1
  6
Continuous
100
AcDbLine
 10
2.9
 20
8.0558731094
 30
0.0
 11
0.2
 21
8.0558731094
 31
0.0
  0
SPLINE
  5
84
330
1F
100
AcDbEntity
  8
SK1
  6
Continuous
100
AcDbSpline
210
0.0
220
0.0
230
1.0
 70
     8
 71
     3
 72
    10
 73
     6
 74
     0
 42
0.0000000360969961
 43
0.0000000001
 12
1.0
 22
0.0
 32
0.0
 13
1.0
 23
0.0
 33
0.0
 40
0.0
 40
0.0
 40
0.0
 40
0.0
 40
0.5
 40
0.5
 40
1.0
 40
1.0
 40
1.0
 40
1.0
 10
0.2000000000009164
 20
8.055873109368822
 30
0.0
 10
0.14730166140982
 20
8.055873109368823
 30
0.0
 10
0.0954781153130139
 20
8.071196779237964
 30
0.0
 10
0.021592583975532
 20
8.123507973671074
 30
0.0
 10
0.0000000000009159
 20
8.160186512730531
 30
0.0
 10
0.0000000000009159
 20
8.197386387209063
 30
0.0
  0
LINE
  5
85
330
1F
100
AcDbEntity
  8
SK1
  6
Continuous
100
AcDbLine
 10
0.0
 20
8.5514655096
 30
0.0
 11
0.0
 21
9.1171509346
 31
0.0
  0
LINE
  5
86
330
1F
100
AcDbEntity
  8
SK1
  6
Continuous
100
AcDbLine
 10
7.975
 20
7.0199258217
 30
0.0
 11
3.1
 21
9.0113087741
 31
0.0
  0
SPLINE
  5
87
330
1F
100
AcDbEntity
  8
SK1
  6
Continuous
100
AcDbSpline
210
0.0
220
0.0
230
1.0
 70
     8
 71
     3
 72
    10
 73
     6
 74
     0
 42
0.0000000361031086
 43
0.0000000001
 12
1.0
 22
0.0
 32
0.0
 13
1.0
 23
0.0
 33
0.0
 40
0.0
 40
0.0
 40
0.0
 40
0.0
 40
0.5
 40
0.5
 40
1.0
 40
1.0
 40
1.0
 40
1.0
 10
3.100000000000916
 20
7.631700962259824
 30
0.0
 10
3.100000000000914
 20
7.594863896523107
 30
0.0
 10
3.078626200797536
 20
7.558011654757287
 30
0.0
 10
3.004486952019211
 20
7.505452500825537
 30
0.0
 10
2.952106441442117
 20
7.490187684418873
 30
0.0
 10
2.899999999997636
 20
7.49018768440372
 30
0.0
  0
LINE
  5
88
330
1F
100
AcDbEntity
  8
SK1
  6
Continuous
100
AcDbLine
 10
2.9
 20
7.4901876844
 30
0.0
 11
0.2
 21
7.4901876844
 31
0.0
  0
SPLINE
  5
89
330
1F
100
AcDbEntity
  8
SK1
  6
Continuous
100
AcDbSpline
210
0.0
220
0.0
230
1.0
 70
     8
 71
     3
 72
    10
 73
     6
 74
     0
 42
0.0000000360969961
 43
0.0000000001
 12
1.0
 22
0.0
 32
0.0
 13
1.0
 23
0.0
 33
0.0
 40
0.0
 40
0.0
 40
0.0
 40
0.0
 40
0.5
 40
0.5
 40
1.0
 40
1.0
 40
1.0
 40
1.0
 10
0.2000000000009164
 20
7.490187684419582
 30
0.0
 10
0.14730166140982
 20
7.490187684419584
 30
0.0
 10
0.0954781153130139
 20
7.505511354288727
 30
0.0
 10
0.021592583975532
 20
7.557822548721836
 30
0.0
 10
0.0000000000009159
 20
7.594501087781294
 30
0.0
 10
0.0000000000009159
 20
7.631700962259824
 30
0.0
  0
LINE
  5
8A
330
1F
100
AcDbEntity
  8
SK3
100
AcDbLine
 10
-16.7
 20
5.8618212134
 30
0.0
 11
-17.5660254038
 21
4.7994787285
 31
0.0
  0
LINE
  5
8B
330
1F
100
AcDbEntity
  8
SK3
100
AcDbLine
 10
-17.5660254038
 20
4.7994787285
 30
0.0
 11
-23.4
 21
4.7994787285
 31
0.0
  0
SPLINE
  5
8C
330
1F
100
AcDbEntity
  8
SK1
  6
Continuous
100
AcDbSpline
210
0.0
220
0.0
230
1.0
 70
     8
 71
     3
 72
    14
 73
    10
 74
     0
 42
0.0000000004252528
 43
0.0000000001
 12
1.0
 22
0.0
 32
0.0
 13
1.0
 23
0.0
 33
0.0
 40
0.0
 40
0.0
 40
0.0
 40
0.0
 40
0.1235909907309631
 40
0.1235909907309631
 40
0.1235909907309631
 40
0.8381641112638675
 40
0.8381641112638675
 40
0.8381641112638675
 40
1.0
 40
1.0
 40
1.0
 40
1.0
 10
-23.40000000000001
 20
6.790102869581723
 30
0.0
 10
-22.43599491837844
 20
6.885993619784532
 30
0.0
 10
-21.47198905842475
 20
6.981880457700971
 30
0.0
 10
-20.50798251505121
 20
7.077763860003227
 30
0.0
 10
-14.93433058729411
 20
7.63213842701775
 30
0.0
 10
-9.360656653164002
 20
8.186402370572884
 30
0.0
 10
-3.786971565144261
 20
8.74061021627787
 30
0.0
 10
-2.52464829282293
 20
8.866126719325413
 30
0.0
 10
-1.2623244129253
 20
8.991640167195333
 30
0.0
 10
0.0000000000000017
 20
9.117150934564883
 30
0.0
  0
SPLINE
  5
8D
330
1F
100
AcDbEntity
  8
SK3
100
AcDbSpline
210
0.0
220
0.0
230
1.0
 70
     8
 71
     3
 72
    10
 73
     6
 74
     0
 42
0.0000000240610248
 43
0.0000000001
 12
1.0
 22
0.0
 32
0.0
 13
1.0
 23
0.0
 33
0.0
 40
0.0
 40
0.0
 40
0.0
 40
0.0
 40
0.5
 40
0.5
 40
1.0
 40
1.0
 40
1.0
 40
1.0
 10
8.100000000000916
 20
5.787478358764262
 30
0.0
 10
8.10000000000092
 20
5.732183307441135
 30
0.0
 10
8.068057821841311
 20
5.676955307695063
 30
0.0
 10
7.956633585348441
 20
5.597897450480869
 30
0.0
 10
7.878226583899958
 20
5.575055251291594
 30
0.0
 10
7.79999999999945
 20
5.575055251283985
 30
0.0
  0
LINE
  5
8E
330
1F
100
AcDbEntity
  8
SK3
100
AcDbLine
 10
7.8
 20
5.5750552513
 30
0.0
 11
-12.7
 21
5.5750552513
 31
0.0
  0
LINE
  5
8F
330
1F
100
AcDbEntity
  8
SK3
100
AcDbLine
 10
-12.7
 20
5.5750552513
 30
0.0
 11
-12.7
 21
5.8618212134
 31
0.0
  0
LINE
  5
90
330
1F
100
AcDbEntity
  8
SK3
100
AcDbLine
 10
-12.7
 20
5.8618212134
 30
0.0
 11
-16.7
 21
5.8618212134
 31
0.0
  0
LINE
  5
91
330
1F
100
AcDbEntity
  8
SK1
  6
Continuous
100
AcDbLine
 10
-25.6029195794
 20
8.8927528675
 30
0.0
 11
-25.6029195794
 21
0.4000000998
 31
0.0
  0
LINE
  5
92
330
1F
100
AcDbEntity
  8
SK1
  6
Continuous
100
AcDbLine
 10
-25.9
 20
-8.5506413713
 30
0.0
 11
-25.9
 21
-0.3999999002
 31
0.0
  0
LINE
  5
93
330
1F
100
AcDbEntity
  8
SK1
  6
Continuous
100
AcDbLine
 10
-25.9
 20
-8.5506413713
 30
0.0
 11
-25.6029195794
 21
-8.8927526679
 31
0.0
  0
LINE
  5
94
330
1F
100
AcDbEntity
  8
SK1
  6
Continuous
100
AcDbLine
 10
-25.6029195794
 20
8.8927528675
 30
0.0
 11
-25.9
 21
8.5506415708
 31
0.0
  0
LINE
  5
95
330
1F
100
AcDbEntity
  8
SK1
  6
Continuous
100
AcDbLine
 10
0.0
 20
-12.493598261
 30
0.0
 11
0.0
 21
-9.117150735
 31
0.0
  0
LINE
  5
96
330
1F
100
AcDbEntity
  8
SK3
100
AcDbLine
 10
-16.7
 20
-7.8898668193
 30
0.0
 11
-16.7
 21
-5.8618210138
 31
0.0
  0
LINE
  5
97
330
1F
100
AcDbEntity
  8
SK3
100
AcDbLine
 10
-12.7
 20
-7.8898668193
 30
0.0
 11
-12.7
 21
-5.8618210138
 31
0.0
  0
LINE
  5
98
330
1F
100
AcDbEntity
  8
SK3
100
AcDbLine
 10
-16.7577350269
 20
7.7897369374
 30
0.0
 11
-16.7577350269
 21
7.7846907218
 31
0.0
  0
LINE
  5
99
330
1F
100
AcDbEntity
  8
SK1
  6
Continuous
100
AcDbLine
 10
0.2
 20
10.9927249667
 30
0.0
 11
0.2
 21
8.0558731094
 31
0.0
  0
LINE
  5
9A
330
1F
100
AcDbEntity
  8
SK1
  6
Continuous
100
AcDbLine
 10
2.6
 20
10.9927249667
 30
0.0
 11
2.6
 21
11.0000000998
 31
0.0
  0
LINE
  5
9B
330
1F
100
AcDbEntity
  8
SK3
100
AcDbLine
 10
2.6
 20
-7.4843185065
 30
0.0
 11
2.6
 21
-10.9927247672
 31
0.0
  0
LINE
  5
9C
330
1F
100
AcDbEntity
  8
SK1
  6
Continuous
100
AcDbLine
 10
2.6
 20
-10.9927247672
 30
0.0
 11
2.6
 21
-10.9999999002
 31
0.0
  0
LINE
  5
9D
330
1F
100
AcDbEntity
  8
SK3
100
AcDbLine
 10
2.6
 20
10.9927249667
 30
0.0
 11
2.6
 21
7.484318706
 31
0.0
  0
SPLINE
  5
9E
330
1F
100
AcDbEntity
  8
SK1
  6
Continuous
100
AcDbSpline
210
0.0
220
0.0
230
1.0
 70
     8
 71
     3
 72
    11
 73
     7
 74
     0
 42
0.000000000386774
 43
0.0000000001
 12
1.0
 22
0.0
 32
0.0
 13
1.0
 23
0.0
 33
0.0
 40
0.0
 40
0.0
 40
0.0
 40
0.0
 40
0.8487982854704745
 40
0.8487982854704745
 40
0.8487982854704745
 40
1.0
 40
1.0
 40
1.0
 40
1.0
 10
0.0000000000000017
 20
12.49359846053782
 30
0.0
 10
-7.243933860992501
 20
11.47500829744446
 30
0.0
 10
-14.48785198312092
 20
10.45630617092285
 30
0.0
 10
-21.73173172676849
 20
9.437331214235146
 30
0.0
 10
-23.02212905238066
 20
9.25581487140399
 30
0.0
 10
-24.31252508751518
 20
9.074289354248927
 30
0.0
 10
-25.60291957937753
 20
8.89275286746691
 30
0.0
  0
LINE
  5
9F
330
1F
100
AcDbEntity
  8
SK3
100
AcDbLine
 10
-16.7577350269
 20
7.7897369374
 30
0.0
 11
-16.7
 21
7.8898670188
 31
0.0
  0
LINE
  5
A0
330
1F
100
AcDbEntity
  8
SK3
100
AcDbLine
 10
-16.7
 20
7.8898670188
 30
0.0
 11
-12.7
 21
7.8898670188
 31
0.0
  0
LINE
  5
A1
330
1F
100
AcDbEntity
  8
SK3
100
AcDbLine
 10
-12.7
 20
7.484318706
 30
0.0
 11
2.6
 21
7.484318706
 31
0.0
  0
LINE
  5
A2
330
1F
100
AcDbEntity
  8
SK3
100
AcDbLine
 10
2.6
 20
-7.4843185065
 30
0.0
 11
-12.7
 21
-7.4843185065
 31
0.0
  0
LINE
  5
A3
330
1F
100
AcDbEntity
  8
SK3
100
AcDbLine
 10
-12.7
 20
-7.8898668193
 30
0.0
 11
-16.7
 21
-7.8898668193
 31
0.0
  0
LINE
  5
A4
330
1F
100
AcDbEntity
  8
SK3
100
AcDbLine
 10
-16.7
 20
-7.8898668193
 30
0.0
 11
-16.7577350269
 21
-7.7897367379
 31
0.0
  0
SPLINE
  5
A5
330
1F
100
AcDbEntity
  8
SK1
  6
Continuous
100
AcDbSpline
210
0.0
220
0.0
230
1.0
 70
     8
 71
     3
 72
    11
 73
     7
 74
     0
 42
0.000000000386774
 43
0.0000000001
 12
1.0
 22
0.0
 32
0.0
 13
1.0
 23
0.0
 33
0.0
 40
0.0
 40
0.0
 40
0.0
 40
0.0
 40
0.6044573081759647
 40
0.6044573081759647
 40
0.6044573081759647
 40
1.0
 40
1.0
 40
1.0
 40
1.0
 10
-25.60291957937753
 20
-8.892752667925528
 30
0.0
 10
-20.44432476353222
 20
-9.618478936524932
 30
0.0
 10
-15.28570615874358
 20
-10.34403611250882
 30
0.0
 10
-10.12707549945542
 20
-11.06950755374792
 30
0.0
 10
-6.751388532173826
 20
-11.54423905733336
 30
0.0
 10
-3.375696144098115
 20
-12.01893201583839
 30
0.0
 10
0.0000000000000017
 20
-12.49359826099644
 30
0.0
  0
SPLINE
  5
A6
330
1F
100
AcDbEntity
  8
SK1
  6
Continuous
100
AcDbSpline
210
0.0
220
0.0
230
1.0
 70
     8
 71
     3
 72
    10
 73
     6
 74
     0
 42
0.0000000310291255
 43
0.0000000001
 12
1.0
 22
0.0
 32
0.0
 13
1.0
 23
0.0
 33
0.0
 40
0.0
 40
0.0
 40
0.0
 40
0.0
 40
0.5
 40
0.5
 40
1.0
 40
1.0
 40
1.0
 40
1.0
 10
0.0000000000009159
 20
11.19285496347727
 30
0.0
 10
0.0000000000009125
 20
11.14068707322832
 30
0.0
 10
0.0212003295429024
 20
11.08878574489793
 30
0.0
 10
0.0958027261514956
 20
11.01405301819807
 30
0.0
 10
0.1471608956600361
 20
10.99272496669893
 30
0.0
 10
0.2000000000009164
 20
10.99272496669973
 30
0.0
  0
LINE
  5
A7
330
1F
100
AcDbEntity
  8
SK1
  6
Continuous
100
AcDbLine
 10
0.2
 20
10.9927249667
 30
0.0
 11
2.6
 21
10.9927249667
 31
0.0
  0
LINE
  5
A8
330
1F
100
AcDbEntity
  8
SK1
  6
Continuous
100
AcDbLine
 10
2.6
 20
-10.9927247672
 30
0.0
 11
0.2
 21
-10.9927247672
 31
0.0
  0
SPLINE
  5
A9
330
1F
100
AcDbEntity
  8
SK1
  6
Continuous
100
AcDbSpline
210
0.0
220
0.0
230
1.0
 70
     8
 71
     3
 72
    10
 73
     6
 74
     0
 42
0.0000000310369852
 43
0.0000000001
 12
1.0
 22
0.0
 32
0.0
 13
1.0
 23
0.0
 33
0.0
 40
0.0
 40
0.0
 40
0.0
 40
0.0
 40
0.5
 40
0.5
 40
1.0
 40
1.0
 40
1.0
 40
1.0
 10
0.2000000000009164
 20
-10.99272476715835
 30
0.0
 10
0.1471213835876721
 20
-10.99272476715835
 30
0.0
 10
0.0954001470474877
 20
-11.01445869479074
 30
0.0
 10
0.0216128281373441
 20
-11.0883697327514
 30
0.0
 10
0.0000000000009125
 20
-11.14064178462877
 30
0.0
 10
0.0000000000009159
 20
-11.19285476393589
 30
0.0
  0
LINE
  5
AA
330
1F
100
AcDbEntity
  8
SK3
100
AcDbLine
 10
-25.9
 20
-7.7897367379
 30
0.0
 11
-16.7577350269
 21
-7.7897367379
 31
0.0
  0
LINE
  5
AB
330
1F
100
AcDbEntity
  8
SK3
100
AcDbLine
 10
-16.7577350269
 20
7.7897369374
 30
0.0
 11
-25.9
 21
7.7897369374
 31
0.0
  0
LINE
  5
AC
330
1F
100
AcDbEntity
  8
SK1
  6
Continuous
100
AcDbLine
 10
8.1
 20
-10.118910987
 30
0.0
 11
8.1
 21
-7.4324006963
 31
0.0
  0
LINE
  5
AD
330
1F
100
AcDbEntity
  8
SK1
  6
Continuous
100
AcDbLine
 10
7.975
 20
-7.0199256221
 30
0.0
 11
7.975
 21
7.0199258217
 31
0.0
  0
SPLINE
  5
AE
330
1F
100
AcDbEntity
  8
SK1
  6
Continuous
100
AcDbSpline
210
0.0
220
0.0
230
1.0
 70
     8
 71
     3
 72
    10
 73
     6
 74
     0
 42
0.0000000469997246
 43
0.0000000001
 12
1.0
 22
0.0
 32
0.0
 13
1.0
 23
0.0
 33
0.0
 40
0.0
 40
0.0
 40
0.0
 40
0.0
 40
0.5
 40
0.5
 40
1.0
 40
1.0
 40
1.0
 40
1.0
 10
7.975000000000912
 20
-7.019925622110842
 30
0.0
 10
8.012583256409151
 20
-7.004570818142354
 30
0.0
 10
8.044949410701708
 20
-6.981646911667741
 30
0.0
 10
8.088279790434802
 20
-6.928431291782954
 30
0.0
 10
8.100000000000916
 20
-6.897790841845552
 30
0.0
 10
8.100000000000916
 20
-6.866715271362786
 30
0.0
  0
SPLINE
  5
AF
330
1F
100
AcDbEntity
  8
SK1
  6
Continuous
100
AcDbSpline
210
0.0
220
0.0
230
1.0
 70
     8
 71
     3
 72
    10
 73
     6
 74
     0
 42
0.0000000469997246
 43
0.0000000001
 12
1.0
 22
0.0
 32
0.0
 13
1.0
 23
0.0
 33
0.0
 40
0.0
 40
0.0
 40
0.0
 40
0.0
 40
0.5
 40
0.5
 40
1.0
 40
1.0
 40
1.0
 40
1.0
 10
7.975000000000912
 20
-7.585611047060079
 30
0.0
 10
8.012583256409151
 20
-7.570256243091592
 30
0.0
 10
8.044949410701708
 20
-7.54733233661698
 30
0.0
 10
8.088279790434802
 20
-7.494116716732193
 30
0.0
 10
8.100000000000916
 20
-7.463476266794792
 30
0.0
 10
8.100000000000916
 20
-7.432400696312024
 30
0.0
  0
LINE
  5
B0
330
1F
100
AcDbEntity
  8
SK1
  6
Continuous
100
AcDbLine
 10
3.1
 20
-9.0113085745
 30
0.0
 11
3.1
 21
9.0113087741
 31
0.0
  0
LINE
  5
B1
330
1F
100
AcDbEntity
  8
SK1
  6
Continuous
100
AcDbLine
 10
2.9
 20
-7.4901874849
 30
0.0
 11
2.9
 21
7.4901876844
 31
0.0
  0
LINE
  5
B2
330
1F
100
AcDbEntity
  8
SK3
100
AcDbLine
 10
-17.5660254038
 20
-4.233793104
 30
0.0
 11
-17.5660254038
 21
-2.3011590859
 31
0.0
  0
LINE
  5
B3
330
1F
100
AcDbEntity
  8
SK1
  6
Continuous
100
AcDbLine
 10
8.1
 20
7.4324008959
 30
0.0
 11
8.1
 21
10.1189111865
 31
0.0
  0
LINE
  5
B4
330
1F
100
AcDbEntity
  8
SK1
  6
Continuous
100
AcDbLine
 10
0.0
 20
-8.5514653101
 30
0.0
 11
0.0
 21
-0.3999999002
 31
0.0
  0
LINE
  5
B5
330
1F
100
AcDbEntity
  8
SK3
100
AcDbLine
 10
-16.7
 20
-5.2961355889
 30
0.0
 11
-16.7
 21
-0.3999999002
 31
0.0
  0
LINE
  5
B6
330
1F
100
AcDbEntity
  8
SK3
100
AcDbLine
 10
-12.7
 20
-5.2961355889
 30
0.0
 11
-12.7
 21
-0.3999999002
 31
0.0
  0
LINE
  5
B7
330
1F
100
AcDbEntity
  8
SK1
  6
Continuous
100
AcDbLine
 10
0.2
 20
-8.0558729098
 30
0.0
 11
0.2
 21
-10.9927247672
 31
0.0
  0
LINE
  5
B8
330
1F
100
AcDbEntity
  8
SK3
100
AcDbLine
 10
-23.4
 20
-6.2244172451
 30
0.0
 11
-23.4
 21
-4.233793104
 31
0.0
  0
SPLINE
  5
B9
330
1F
100
AcDbEntity
  8
SK1
  6
Continuous
100
AcDbSpline
210
0.0
220
0.0
230
1.0
 70
     8
 71
     3
 72
    14
 73
    10
 74
     0
 42
0.0000000004252528
 43
0.0000000001
 12
1.0
 22
0.0
 32
0.0
 13
1.0
 23
0.0
 33
0.0
 40
0.0
 40
0.0
 40
0.0
 40
0.0
 40
0.1265003683846884
 40
0.1265003683846884
 40
0.1265003683846884
 40
0.8417843559881684
 40
0.8417843559881684
 40
0.8417843559881684
 40
1.0
 40
1.0
 40
1.0
 40
1.0
 10
-23.40000000000001
 20
-6.790102670040337
 30
0.0
 10
-22.41330188205223
 20
-6.888250723984781
 30
0.0
 10
-21.42660294876307
 20
-6.986394679616865
 30
0.0
 10
-20.4399033017038
 20
-7.084535047052934
 30
0.0
 10
-14.86070644281089
 20
-7.639460176865044
 30
0.0
 10
-9.281487599559652
 20
-8.194274793688827
 30
0.0
 10
-3.702257613543866
 20
-8.7490333685738
 30
0.0
 10
-2.468172298201798
 20
-8.871741952471869
 30
0.0
 10
-1.234086403847796
 20
-8.994447624823543
 30
0.0
 10
0.0000000000000017
 20
-9.117150735023495
 30
0.0
  0
SPLINE
  5
BA
330
1F
100
AcDbEntity
  8
SK3
100
AcDbSpline
210
0.0
220
0.0
230
1.0
 70
     8
 71
     3
 72
    10
 73
     6
 74
     0
 42
0.0000000240589035
 43
0.0000000001
 12
1.0
 22
0.0
 32
0.0
 13
1.0
 23
0.0
 33
0.0
 40
0.0
 40
0.0
 40
0.0
 40
0.0
 40
0.5
 40
0.5
 40
1.0
 40
1.0
 40
1.0
 40
1.0
 10
8.100000000000916
 20
-5.787478159222877
 30
0.0
 10
8.10000000000092
 20
-5.732120765473804
 30
0.0
 10
8.068030836839814
 20
-5.676844193878294
 30
0.0
 10
7.956168565860792
 20
-5.597659482350732
 30
0.0
 10
7.878249730533981
 20
-5.575055051750761
 30
0.0
 10
7.800000000001694
 20
-5.575055051746049
 30
0.0
  0
LINE
  5
BB
330
1F
100
AcDbEntity
  8
SK3
100
AcDbLine
 10
7.8
 20
-5.5750550517
 30
0.0
 11
-12.7
 21
-5.5750550518
 31
0.0
  0
LINE
  5
BC
330
1F
100
AcDbEntity
  8
SK3
100
AcDbLine
 10
-12.7
 20
-5.5750550518
 30
0.0
 11
-12.7
 21
-5.8618210138
 31
0.0
  0
LINE
  5
BD
330
1F
100
AcDbEntity
  8
SK3
100
AcDbLine
 10
-12.7
 20
-5.8618210138
 30
0.0
 11
-16.7
 21
-5.8618210138
 31
0.0
  0
LINE
  5
BE
330
1F
100
AcDbEntity
  8
SK3
100
AcDbLine
 10
-16.7
 20
-5.8618210138
 30
0.0
 11
-17.5660254038
 21
-4.799478529
 31
0.0
  0
LINE
  5
BF
330
1F
100
AcDbEntity
  8
SK3
100
AcDbLine
 10
-17.5660254038
 20
-4.799478529
 30
0.0
 11
-23.4
 21
-4.799478529
 31
0.0
  0
LINE
  5
C0
330
1F
100
AcDbEntity
  8
SK1
  6
Continuous
100
AcDbLine
 10
7.975
 20
-7.0199256221
 30
0.0
 11
3.1
 21
-9.0113085745
 31
0.0
  0
SPLINE
  5
C1
330
1F
100
AcDbEntity
  8
SK1
  6
Continuous
100
AcDbSpline
210
0.0
220
0.0
230
1.0
 70
     8
 71
     3
 72
    10
 73
     6
 74
     0
 42
0.0000000360973485
 43
0.0000000001
 12
1.0
 22
0.0
 32
0.0
 13
1.0
 23
0.0
 33
0.0
 40
0.0
 40
0.0
 40
0.0
 40
0.0
 40
0.5
 40
0.5
 40
1.0
 40
1.0
 40
1.0
 40
1.0
 10
3.100000000000916
 20
-7.631700762718437
 30
0.0
 10
3.100000000000916
 20
-7.594700908217964
 30
0.0
 10
3.07861872281763
 20
-7.557958569952579
 30
0.0
 10
3.004238645967036
 20
-7.505324018888984
 30
0.0
 10
2.95227820747534
 20
-7.490187484878199
 30
0.0
 10
2.900000000000923
 20
-7.490187484878125
 30
0.0
  0
LINE
  5
C2
330
1F
100
AcDbEntity
  8
SK1
  6
Continuous
100
AcDbLine
 10
2.9
 20
-7.4901874849
 30
0.0
 11
0.2
 21
-7.4901874849
 31
0.0
  0
SPLINE
  5
C3
330
1F
100
AcDbEntity
  8
SK1
  6
Continuous
100
AcDbSpline
210
0.0
220
0.0
230
1.0
 70
     8
 71
     3
 72
    10
 73
     6
 74
     0
 42
0.0000000361073515
 43
0.0000000001
 12
1.0
 22
0.0
 32
0.0
 13
1.0
 23
0.0
 33
0.0
 40
0.0
 40
0.0
 40
0.0
 40
0.0
 40
0.5
 40
0.5
 40
1.0
 40
1.0
 40
1.0
 40
1.0
 10
0.2000000000009164
 20
-7.490187484878196
 30
0.0
 10
0.1478630860023717
 20
-7.490187484878195
 30
0.0
 10
0.0956421515453092
 20
-7.505457326342497
 30
0.0
 10
0.0217652248610291
 20
-7.557638092585273
 30
0.0
 10
0.0000000000015508
 20
-7.59485027005465
 30
0.0
 10
-0.0000000000134354
 20
-7.631700762717021
 30
0.0
  0
LINE
  5
C4
330
1F
100
AcDbEntity
  8
SK1
  6
Continuous
100
AcDbLine
 10
-23.4
 20
-6.79010267
 30
0.0
 11
-23.4
 21
-6.2244172451
 31
0.0
  0
LINE
  5
C5
330
1F
100
AcDbEntity
  8
SK1
  6
Continuous
100
AcDbLine
 10
8.1
 20
-6.8667152714
 30
0.0
 11
8.1
 21
-7.4324006963
 31
0.0
  0
LINE
  5
C6
330
1F
100
AcDbEntity
  8
SK1
  6
Continuous
100
AcDbLine
 10
7.975
 20
-7.5856110471
 30
0.0
 11
3.1
 21
-9.5769939995
 31
0.0
  0
LINE
  5
C7
330
1F
100
AcDbEntity
  8
SK1
  6
Continuous
100
AcDbLine
 10
3.1
 20
-9.5769939995
 30
0.0
 11
3.1
 21
-9.0113085745
 31
0.0
  0
SPLINE
  5
C8
330
1F
100
AcDbEntity
  8
SK1
  6
Continuous
100
AcDbSpline
210
0.0
220
0.0
230
1.0
 70
     8
 71
     3
 72
    10
 73
     6
 74
     0
 42
0.0000000360973485
 43
0.0000000001
 12
1.0
 22
0.0
 32
0.0
 13
1.0
 23
0.0
 33
0.0
 40
0.0
 40
0.0
 40
0.0
 40
0.0
 40
0.5
 40
0.5
 40
1.0
 40
1.0
 40
1.0
 40
1.0
 10
3.100000000000916
 20
-8.197386187667673
 30
0.0
 10
3.100000000000916
 20
-8.160386333167201
 30
0.0
 10
3.07861872281763
 20
-8.123643994901817
 30
0.0
 10
3.004238645967036
 20
-8.071009443838223
 30
0.0
 10
2.95227820747534
 20
-8.055872909827437
 30
0.0
 10
2.900000000000923
 20
-8.055872909827361
 30
0.0
  0
LINE
  5
C9
330
1F
100
AcDbEntity
  8
SK1
  6
Continuous
100
AcDbLine
 10
2.9
 20
-8.0558729098
 30
0.0
 11
0.2
 21
-8.0558729098
 31
0.0
  0
SPLINE
  5
CA
330
1F
100
AcDbEntity
  8
SK1
  6
Continuous
100
AcDbSpline
210
0.0
220
0.0
230
1.0
 70
     8
 71
     3
 72
    10
 73
     6
 74
     0
 42
0.0000000361073515
 43
0.0000000001
 12
1.0
 22
0.0
 32
0.0
 13
1.0
 23
0.0
 33
0.0
 40
0.0
 40
0.0
 40
0.0
 40
0.0
 40
0.5
 40
0.5
 40
1.0
 40
1.0
 40
1.0
 40
1.0
 10
0.2000000000009164
 20
-8.055872909827434
 30
0.0
 10
0.1478630860023717
 20
-8.055872909827432
 30
0.0
 10
0.0956421515453092
 20
-8.071142751291733
 30
0.0
 10
0.0217652248610291
 20
-8.12332351753451
 30
0.0
 10
0.0000000000015508
 20
-8.160535695003889
 30
0.0
 10
-0.0000000000134354
 20
-8.19738618766626
 30
0.0
  0
LINE
  5
CB
330
1F
100
AcDbEntity
  8
SK1
  6
Continuous
100
AcDbLine
 10
0.0
 20
-8.5514653101
 30
0.0
 11
0.0
 21
-9.117150735
 31
0.0
  0
LINE
  5
CC
330
1F
100
AcDbEntity
  8
SK3
100
AcDbLine
 10
-16.7
 20
-5.2961355889
 30
0.0
 11
-17.5660254038
 21
-4.233793104
 31
0.0
  0
LINE
  5
CD
330
1F
100
AcDbEntity
  8
SK3
100
AcDbLine
 10
-17.5660254038
 20
-4.233793104
 30
0.0
 11
-23.4
 21
-4.233793104
 31
0.0
  0
SPLINE
  5
CE
330
1F
100
AcDbEntity
  8
SK1
  6
Continuous
100
AcDbSpline
210
0.0
220
0.0
230
1.0
 70
     8
 71
     3
 72
    14
 73
    10
 74
     0
 42
0.0000000004252528
 43
0.0000000001
 12
1.0
 22
0.0
 32
0.0
 13
1.0
 23
0.0
 33
0.0
 40
0.0
 40
0.0
 40
0.0
 40
0.0
 40
0.1265003683846884
 40
0.1265003683846884
 40
0.1265003683846884
 40
0.8417843559881684
 40
0.8417843559881684
 40
0.8417843559881684
 40
1.0
 40
1.0
 40
1.0
 40
1.0
 10
-23.40000000000001
 20
-6.224417245091098
 30
0.0
 10
-22.41330188205223
 20
-6.322565299035543
 30
0.0
 10
-21.42660294876307
 20
-6.420709254667626
 30
0.0
 10
-20.4399033017038
 20
-6.518849622103697
 30
0.0
 10
-14.86070644281089
 20
-7.073774751915805
 30
0.0
 10
-9.281487599559652
 20
-7.628589368739587
 30
0.0
 10
-3.702257613543866
 20
-8.183347943624561
 30
0.0
 10
-2.468172298201798
 20
-8.306056527522628
 30
0.0
 10
-1.234086403847796
 20
-8.428762199874305
 30
0.0
 10
0.0000000000000017
 20
-8.55146531007426
 30
0.0
  0
SPLINE
  5
CF
330
1F
100
AcDbEntity
  8
SK3
100
AcDbSpline
210
0.0
220
0.0
230
1.0
 70
     8
 71
     3
 72
    10
 73
     6
 74
     0
 42
0.0000000240589035
 43
0.0000000001
 12
1.0
 22
0.0
 32
0.0
 13
1.0
 23
0.0
 33
0.0
 40
0.0
 40
0.0
 40
0.0
 40
0.0
 40
0.5
 40
0.5
 40
1.0
 40
1.0
 40
1.0
 40
1.0
 10
8.100000000000916
 20
-5.221792734273638
 30
0.0
 10
8.10000000000092
 20
-5.166435340524566
 30
0.0
 10
8.068030836839814
 20
-5.111158768929055
 30
0.0
 10
7.956168565860792
 20
-5.031974057401493
 30
0.0
 10
7.878249730533981
 20
-5.009369626801522
 30
0.0
 10
7.800000000001694
 20
-5.009369626796812
 30
0.0
  0
LINE
  5
D0
330
1F
100
AcDbEntity
  8
SK3
100
AcDbLine
 10
7.8
 20
-5.0093696268
 30
0.0
 11
-12.7
 21
-5.0093696268
 31
0.0
  0
LINE
  5
D1
330
1F
100
AcDbEntity
  8
SK3
100
AcDbLine
 10
-12.7
 20
-5.2961355889
 30
0.0
 11
-16.7
 21
-5.2961355889
 31
0.0
  0
LINE
  5
D2
330
1F
100
AcDbEntity
  8
SK3
100
AcDbLine
 10
-16.7577350269
 20
-0.3999999002
 30
0.0
 11
-16.7577350269
 21
-0.4884586181
 31
0.0
  0
LINE
  5
D3
330
1F
100
AcDbEntity
  8
SK1
  6
Continuous
100
AcDbLine
 10
-25.6029195794
 20
-0.3999999002
 30
0.0
 11
-25.6029195794
 21
-8.8927526679
 31
0.0
  0
LINE
  5
D4
330
1F
100
AcDbEntity
  8
SK1
  6
Continuous
100
AcDbLine
 10
-25.9
 20
0.4000000998
 30
0.0
 11
-25.9
 21
8.5506415708
 31
0.0
  0
LINE
  5
D5
330
1F
100
AcDbEntity
  8
SK1
  6
Continuous
100
AcDbLine
 10
0.0
 20
0.4000000998
 30
0.0
 11
0.0
 21
8.5514655096
 31
0.0
  0
LINE
  5
D6
330
1F
100
AcDbEntity
  8
SK3
100
AcDbLine
 10
-16.7
 20
0.4000000998
 30
0.0
 11
-16.7
 21
5.2961357884
 31
0.0
  0
LINE
  5
D7
330
1F
100
AcDbEntity
  8
SK3
100
AcDbLine
 10
-12.7
 20
0.4000000998
 30
0.0
 11
-12.7
 21
5.2961357884
 31
0.0
  0
LINE
  5
D8
330
1F
100
AcDbEntity
  8
SK1
  6
Continuous
100
AcDbLine
 10
0.2
 20
-0.3999999002
 30
0.0
 11
0.2
 21
-7.4901874849
 31
0.0
  0
LINE
  5
D9
330
1F
100
AcDbEntity
  8
SK1
  6
Continuous
100
AcDbLine
 10
2.6
 20
0.4000000998
 30
0.0
 11
2.6
 21
-0.3999999002
 31
0.0
  0
LINE
  5
DA
330
1F
100
AcDbEntity
  8
SK1
  6
Continuous
100
AcDbLine
 10
0.0
 20
-0.3999999002
 30
0.0
 11
-25.6029195794
 21
-0.3999999002
 31
0.0
  0
LINE
  5
DB
330
1F
100
AcDbEntity
  8
SK1
  6
Continuous
100
AcDbLine
 10
-25.6029195794
 20
-0.3999999002
 30
0.0
 11
-25.9
 21
-0.3999999002
 31
0.0
  0
LINE
  5
DC
330
1F
100
AcDbEntity
  8
SK1
  6
Continuous
100
AcDbLine
 10
0.0
 20
0.4000000998
 30
0.0
 11
0.2
 21
0.4000000998
 31
0.0
  0
LINE
  5
DD
330
1F
100
AcDbEntity
  8
SK1
  6
Continuous
100
AcDbLine
 10
0.2
 20
0.4000000998
 30
0.0
 11
2.6
 21
0.4000000998
 31
0.0
  0
LINE
  5
DE
330
1F
100
AcDbEntity
  8
SK1
  6
Continuous
100
AcDbLine
 10
0.0
 20
-0.3999999002
 30
0.0
 11
0.2
 21
-0.3999999002
 31
0.0
  0
LINE
  5
DF
330
1F
100
AcDbEntity
  8
SK1
  6
Continuous
100
AcDbLine
 10
0.2
 20
-0.3999999002
 30
0.0
 11
2.6
 21
-0.3999999002
 31
0.0
  0
LINE
  5
E0
330
1F
100
AcDbEntity
  8
SK1
  6
Continuous
100
AcDbLine
 10
0.0
 20
0.4000000998
 30
0.0
 11
-25.6029195794
 21
0.4000000998
 31
0.0
  0
LINE
  5
E1
330
1F
100
AcDbEntity
  8
SK1
  6
Continuous
100
AcDbLine
 10
-25.6029195794
 20
0.4000000998
 30
0.0
 11
-25.9
 21
0.4000000998
 31
0.0
  0
LINE
  5
E2
330
1F
100
AcDbEntity
  8
SK1
  6
Continuous
100
AcDbLine
 10
2.6
 20
-10.9999999002
 30
0.0
 11
2.9
 21
-10.9999999002
 31
0.0
  0
ARC
  5
E3
330
1F
100
AcDbEntity
  8
SK1
  6
Continuous
100
AcDbCircle
 10
2.9
 20
-11.1999999002
 30
0.0
 40
0.2000000000000003
100
AcDbArc
 50
0.0
 51
90.0
  0
LINE
  5
E4
330
1F
100
AcDbEntity
  8
SK3
100
AcDbLine
 10
2.6
 20
-7.4949999002
 30
0.0
 11
7.8
 21
-7.4949999002
 31
0.0
  0
LINE
  5
E5
330
1F
100
AcDbEntity
  8
SK1
  6
Continuous
100
AcDbLine
 10
3.1
 20
-13.1499999002
 30
0.0
 11
7.975
 21
-10.3354173379
 31
0.0
  0
ARC
  5
E6
330
1F
100
AcDbEntity
  8
SK3
100
AcDbCircle
 10
7.8
 20
-7.7949999002
 30
0.0
 40
0.3000000000000004
100
AcDbArc
 50
0.0
 51
90.0
  0
ARC
  5
E7
330
1F
100
AcDbEntity
  8
SK1
  6
Continuous
100
AcDbCircle
 10
7.85
 20
-10.118910987
 30
0.0
 40
0.2500000000000009
100
AcDbArc
 50
300.0
 51
360.0
  0
ARC
  5
E8
330
1F
100
AcDbEntity
  8
SK1
  6
Continuous
100
AcDbCircle
 10
7.85
 20
10.1189111865
 30
0.0
 40
0.2500000000000002
100
AcDbArc
 50
0.0
 51
60.0
  0
ARC
  5
E9
330
1F
100
AcDbEntity
  8
SK3
100
AcDbCircle
 10
7.8
 20
7.7950000998
 30
0.0
 40
0.3000000000000017
100
AcDbArc
 50
270.0
 51
0.0
  0
LINE
  5
EA
330
1F
100
AcDbEntity
  8
SK1
  6
Continuous
100
AcDbLine
 10
7.975
 20
10.3354175375
 30
0.0
 11
3.1
 21
13.1500000998
 31
0.0
  0
ARC
  5
EB
330
1F
100
AcDbEntity
  8
SK1
  6
Continuous
100
AcDbCircle
 10
2.9
 20
11.2000000998
 30
0.0
 40
0.2000000000000007
100
AcDbArc
 50
270.0
 51
0.0
  0
LINE
  5
EC
330
1F
100
AcDbEntity
  8
SK3
100
AcDbLine
 10
7.8
 20
7.4950000998
 30
0.0
 11
2.6
 21
7.4950000998
 31
0.0
  0
LINE
  5
ED
330
1F
100
AcDbEntity
  8
SK1
  6
Continuous
100
AcDbLine
 10
2.9
 20
11.0000000998
 30
0.0
 11
2.6
 21
11.0000000998
 31
0.0
  0
LINE
  5
EF
330
1F
100
AcDbEntity
  8
SK4
  6
Continuous
100
AcDbLine
 10
8.1
 20
0.0000000998
 30
0.0
 11
-25.9
 21
0.0000000998
 31
0.0
  0
DIMENSION
  5
104
330
1F
100
AcDbEntity
  8
SK2
  6
Continuous
 62
   136
100
AcDbDimension
  2
DMBLK9
 10
-25.9
 20
19.9999996967
 30
0.0
 11
-8.9000009239
 21
19.9999996967
 31
0.0
 70
   160
  1
\A1;<>
 71
     5
 42
-1.0
  3
DIN
100
AcDbAlignedDimension
 13
8.1
 23
10.1189111865
 33
0.0
 14
-25.9
 24
8.5506415708
 34
0.0
100
AcDbRotatedDimension
  0
DIMENSION
  5
10E
330
1F
100
AcDbEntity
  8
SK2
  6
Continuous
 62
   136
100
AcDbDimension
  2
DMBLK10
 10
17.6314625353
 20
-7.4949999002
 30
0.0
 11
17.6314625353
 21
12.3391366901
 31
0.0
 70
   161
  1
\A1;ø <>
 71
     5
 42
-1.0
  3
DIN
100
AcDbAlignedDimension
 13
2.6
 23
-7.4949999002
 33
0.0
 14
2.6
 24
7.4950000998
 34
0.0
  0
DIMENSION
  5
119
330
1F
100
AcDbEntity
  8
SK2
  6
Continuous
 62
   136
100
AcDbDimension
  2
DMBLK11
 10
8.1
 20
-20.0000000047
 30
0.0
 11
4.0500001051
 21
-20.0000000047
 31
0.0
 70
   160
  1
\A1;<>
 71
     5
 42
-1.0
  3
DIN
100
AcDbAlignedDimension
 13
0.0
 23
-12.493598261
 33
0.0
 14
8.1
 24
-7.4324006963
 34
0.0
100
AcDbRotatedDimension
  0
DIMENSION
  5
123
330
1F
100
AcDbEntity
  8
SK2
  6
Continuous
 62
   136
100
AcDbDimension
  2
DMBLK12
 10
-32.6392091811
 20
-12.493598261
 30
0.0
 11
-32.6392091811
 21
0.0000000139
 31
0.0
 70
   161
  1
\A1;ø <>
 71
     5
 42
-1.0
  3
DIN
100
AcDbAlignedDimension
 13
0.0
 23
-12.493598261
 33
0.0
 14
0.0
 24
12.4935984605
 34
0.0
1001
ACAD
1000
DSTYLE
1002
{
1070
   271
1070
     1
1070
   272
1070
     1
1070
     0
1002
}
  0
ENDSEC
  0
SECTION
  2
OBJECTS
  0
DICTIONARY
  5
C
330
0
100
AcDbDictionary
281
     1
  3
ACAD_GROUP
350
D
  3
ACAD_LAYOUT
350
1A
  3
ACAD_MATERIAL
350
3B
  3
ACAD_MLEADERSTYLE
350
130
  3
ACAD_MLINESTYLE
350
17
  3
ACAD_PLOTSETTINGS
350
19
  3
ACAD_PLOTSTYLENAME
350
E
  3
ACAD_VISUALSTYLE
350
2A
  3
AcDbVariableDictionary
350
12E
  0
DICTIONARY
  5
D
102
{ACAD_REACTORS
330
C
102
}
330
C
100
AcDbDictionary
281
     1
  0
DICTIONARY
  5
1A
102
{ACAD_REACTORS
330
C
102
}
330
C
100
AcDbDictionary
281
     1
  3
Layout1
350
1E
  3
Model
350
22
  0
DICTIONARY
  5
3B
102
{ACAD_REACTORS
330
C
102
}
330
C
100
AcDbDictionary
281
     1
  3
ByBlock
350
3D
  3
ByLayer
350
3C
  3
Global
350
3E
  0
DICTIONARY
  5
130
102
{ACAD_REACTORS
330
C
102
}
330
C
100
AcDbDictionary
281
     1
  0
DICTIONARY
  5
17
102
{ACAD_REACTORS
330
C
102
}
330
C
100
AcDbDictionary
281
     1
  3
Standard
350
18
  0
DICTIONARY
  5
19
102
{ACAD_REACTORS
330
C
102
}
330
C
100
AcDbDictionary
281
     1
  0
ACDBDICTIONARYWDFLT
  5
E
102
{ACAD_REACTORS
330
C
102
}
330
C
100
AcDbDictionary
281
     1
  3
Normal
350
F
100
AcDbDictionaryWithDefault
340
F
  0
DICTIONARY
  5
2A
102
{ACAD_REACTORS
330
C
102
}
330
C
100
AcDbDictionary
281
     1
  3
2dWireframe
350
2F
  3
3D Hidden
350
31
  3
3dWireframe
350
30
  3
Basic
350
32
  3
Brighten
350
36
  3
ColorChange
350
3A
  3
Conceptual
350
34
  3
Dim
350
35
  3
Facepattern
350
39
  3
Flat
350
2B
  3
FlatWithEdges
350
2C
  3
Gouraud
350
2D
  3
GouraudWithEdges
350
2E
  3
Linepattern
350
38
  3
Realistic
350
33
  3
Thicken
350
37
  0
DICTIONARY
  5
12E
102
{ACAD_REACTORS
330
C
102
}
330
C
100
AcDbDictionary
281
     1
  3
DIMASSOC
350
133
  3
HIDETEXT
350
134
  3
PSOLHEIGHT
350
132
  3
PSOLWIDTH
350
131
  0
LAYOUT
  5
1E
102
{ACAD_REACTORS
330
1A
102
}
330
1A
100
AcDbPlotSettings
  1

  2
none_device
  4

  6

 40
0.0
 41
0.0
 42
0.0
 43
0.0
 44
0.0
 45
0.0
 46
0.0
 47
0.0
 48
0.0
 49
0.0
140
0.0
141
0.0
142
1.0
143
1.0
 70
   688
 72
     0
 73
     0
 74
     5
  7

 75
    16
147
1.0
148
0.0
149
0.0
100
AcDbLayout
  1
Layout1
 70
     1
 71
     1
 10
0.0
 20
0.0
 11
210.0
 21
297.0
 12
0.0
 22
0.0
 32
0.0
 14
0.0
 24
0.0
 34
0.0
 15
210.0
 25
297.0
 35
0.0
146
0.0
 13
0.0
 23
0.0
 33
0.0
 16
1.0
 26
0.0
 36
0.0
 17
0.0
 27
1.0
 37
0.0
 76
     0
330
1B
  0
LAYOUT
  5
22
102
{ACAD_REACTORS
330
1A
102
}
330
1A
100
AcDbPlotSettings
  1

  2
none_device
  4

  6

 40
0.0
 41
0.0
 42
0.0
 43
0.0
 44
0.0
 45
0.0
 46
0.0
 47
0.0
 48
0.0
 49
0.0
140
0.0
141
0.0
142
1.0
143
1.0
 70
  1712
 72
     0
 73
     0
 74
     0
  7

 75
     0
147
1.0
148
0.0
149
0.0
100
AcDbLayout
  1
Model
 70
     1
 71
     0
 10
0.0
 20
0.0
 11
210.0
 21
297.0
 12
0.0
 22
0.0
 32
0.0
 14
0.0
 24
0.0
 34
0.0
 15
210.0
 25
297.0
 35
0.0
146
0.0
 13
0.0
 23
0.0
 33
0.0
 16
1.0
 26
0.0
 36
0.0
 17
0.0
 27
1.0
 37
0.0
 76
     0
330
1F
331
29
  0
MATERIAL
  5
3D
102
{ACAD_REACTORS
330
3B
102
}
102
{ACAD_XDICTIONARY
360
157
102
}
330
3B
100
AcDbMaterial
  1
ByBlock
  0
MATERIAL
  5
3C
102
{ACAD_REACTORS
330
3B
102
}
102
{ACAD_XDICTIONARY
360
155
102
}
330
3B
100
AcDbMaterial
  1
ByLayer
  0
MATERIAL
  5
3E
102
{ACAD_REACTORS
330
3B
102
}
102
{ACAD_XDICTIONARY
360
159
102
}
330
3B
100
AcDbMaterial
  1
Global
  0
MLINESTYLE
  5
18
102
{ACAD_REACTORS
330
17
102
}
330
17
100
AcDbMlineStyle
  2
Standard
 70
     0
  3

 62
   256
 51
90.0
 52
90.0
 71
     2
 49
0.5
 62
   256
  6
BYLAYER
 49
-0.5
 62
   256
  6
BYLAYER
  0
ACDBPLACEHOLDER
  5
F
102
{ACAD_REACTORS
330
E
102
}
330
E
  0
VISUALSTYLE
  5
2F
102
{ACAD_REACTORS
330
2A
102
}
102
{ACAD_XDICTIONARY
360
13D
102
}
330
2A
100
AcDbVisualStyle
  2
2dWireframe
 70
     4
 71
     0
 72
     2
 73
     0
 90
        0
 40
-0.6
 41
-30.0
 62
     5
 63
     7
 74
     1
 91
        4
 64
     7
 65
   257
 75
     1
175
     1
 42
1.0
 92
        0
 66
   257
 43
1.0
 76
     1
 77
     6
 78
     2
 67
     7
 79
     5
170
     0
171
     0
290
     0
174
     0
 93
        1
 44
0.0
173
     0
291
     0
 45
0.0
1001
ACAD
1000
AcDbSavedByObjectVersion
1070
     0
  0
VISUALSTYLE
  5
31
102
{ACAD_REACTORS
330
2A
102
}
102
{ACAD_XDICTIONARY
360
141
102
}
330
2A
100
AcDbVisualStyle
  2
3D Hidden
 70
     6
 71
     1
 72
     2
 73
     2
 90
        0
 40
-0.6
 41
-30.0
 62
     5
 63
     7
 74
     2
 91
        2
 64
     7
 65
   257
 75
     2
175
     1
 42
40.0
 92
        0
 66
   257
 43
1.0
 76
     1
 77
     6
 78
     2
 67
     7
 79
     3
170
     0
171
     0
290
     0
174
     0
 93
        1
 44
0.0
173
     0
291
     0
 45
0.0
1001
ACAD
1000
AcDbSavedByObjectVersion
1070
     0
  0
VISUALSTYLE
  5
30
102
{ACAD_REACTORS
330
2A
102
}
102
{ACAD_XDICTIONARY
360
13F
102
}
330
2A
100
AcDbVisualStyle
  2
3dWireframe
 70
     5
 71
     0
 72
     2
 73
     0
 90
        0
 40
-0.6
 41
-30.0
 62
     5
 63
     7
 74
     1
 91
        4
 64
     7
 65
   257
 75
     1
175
     1
 42
1.0
 92
        0
 66
   257
 43
1.0
 76
     1
 77
     6
 78
     2
 67
     7
 79
     5
170
     0
171
     0
290
     0
174
     0
 93
        1
 44
0.0
173
     0
291
     0
 45
0.0
1001
ACAD
1000
AcDbSavedByObjectVersion
1070
     0
  0
VISUALSTYLE
  5
32
102
{ACAD_REACTORS
330
2A
102
}
102
{ACAD_XDICTIONARY
360
143
102
}
330
2A
100
AcDbVisualStyle
  2
Basic
 70
     7
 71
     1
 72
     0
 73
     1
 90
        0
 40
-0.6
 41
-30.0
 62
     5
 63
     7
 74
     0
 91
        4
 64
     7
 65
   257
 75
     1
175
     1
 42
1.0
 92
        8
 66
     7
 43
1.0
 76
     1
 77
     6
 78
     2
 67
     7
 79
     5
170
     0
171
     0
290
     0
174
     0
 93
        1
 44
0.0
173
     0
291
     1
 45
0.0
1001
ACAD
1000
AcDbSavedByObjectVersion
1070
     0
  0
VISUALSTYLE
  5
36
102
{ACAD_REACTORS
330
2A
102
}
102
{ACAD_XDICTIONARY
360
14B
102
}
330
2A
100
AcDbVisualStyle
  2
Brighten
 70
    12
 71
     2
 72
     2
 73
     0
 90
        0
 40
-0.6
 41
-30.0
 62
     5
 63
     7
 74
     1
 91
        4
 64
     7
 65
   257
 75
     1
175
     1
 42
1.0
 92
        8
 66
     7
 43
1.0
 76
     1
 77
     6
 78
     2
 67
     7
 79
     5
170
     0
171
     0
290
     0
174
     0
 93
        1
 44
50.0
173
     0
291
     1
 45
0.0
1001
ACAD
1000
AcDbSavedByObjectVersion
1070
     0
  0
VISUALSTYLE
  5
3A
102
{ACAD_REACTORS
330
2A
102
}
102
{ACAD_XDICTIONARY
360
153
102
}
330
2A
100
AcDbVisualStyle
  2
ColorChange
 70
    16
 71
     2
 72
     2
 73
     3
 90
        0
 40
-0.6
 41
-30.0
 62
     5
 63
     8
 74
     1
 91
        4
 64
     7
 65
   257
 75
     1
175
     1
 42
1.0
 92
        8
 66
     8
 43
1.0
 76
     1
 77
     6
 78
     2
 67
     7
 79
     5
170
     0
171
     0
290
     0
174
     0
 93
        1
 44
0.0
173
     0
291
     1
 45
0.0
1001
ACAD
1000
AcDbSavedByObjectVersion
1070
     0
  0
VISUALSTYLE
  5
34
102
{ACAD_REACTORS
330
2A
102
}
102
{ACAD_XDICTIONARY
360
147
102
}
330
2A
100
AcDbVisualStyle
  2
Conceptual
 70
     9
 71
     3
 72
     2
 73
     0
 90
        0
 40
-0.6
 41
-30.0
 62
     5
 63
     7
 74
     2
 91
        2
 64
     7
 65
   257
 75
     1
175
     1
 42
40.0
 92
        8
 66
     7
 43
1.0
 76
     1
 77
     6
 78
     2
 67
     7
 79
     3
170
     0
171
     0
290
     0
174
     0
 93
        1
 44
0.0
173
     0
291
     0
 45
0.0
1001
ACAD
1000
AcDbSavedByObjectVersion
1070
     0
  0
VISUALSTYLE
  5
35
102
{ACAD_REACTORS
330
2A
102
}
102
{ACAD_XDICTIONARY
360
149
102
}
330
2A
100
AcDbVisualStyle
  2
Dim
 70
    11
 71
     2
 72
     2
 73
     0
 90
        0
 40
-0.6
 41
-30.0
 62
     5
 63
     7
 74
     1
 91
        4
 64
     7
 65
   257
 75
     1
175
     1
 42
1.0
 92
        8
 66
     7
 43
1.0
 76
     1
 77
     6
 78
     2
 67
     7
 79
     5
170
     0
171
     0
290
     0
174
     0
 93
        1
 44
-50.0
173
     0
291
     1
 45
0.0
1001
ACAD
1000
AcDbSavedByObjectVersion
1070
     0
  0
VISUALSTYLE
  5
39
102
{ACAD_REACTORS
330
2A
102
}
102
{ACAD_XDICTIONARY
360
151
102
}
330
2A
100
AcDbVisualStyle
  2
Facepattern
 70
    15
 71
     2
 72
     2
 73
     0
 90
        0
 40
-0.6
 41
-30.0
 62
     5
 63
     7
 74
     1
 91
        4
 64
     7
 65
   257
 75
     1
175
     1
 42
1.0
 92
        8
 66
     7
 43
1.0
 76
     1
 77
     6
 78
     2
 67
     7
 79
     5
170
     0
171
     0
290
     0
174
     0
 93
        1
 44
0.0
173
     0
291
     1
 45
0.0
1001
ACAD
1000
AcDbSavedByObjectVersion
1070
     0
  0
VISUALSTYLE
  5
2B
102
{ACAD_REACTORS
330
2A
102
}
102
{ACAD_XDICTIONARY
360
135
102
}
330
2A
100
AcDbVisualStyle
  2
Flat
 70
     0
 71
     2
 72
     1
 73
     1
 90
        2
 40
-0.6
 41
30.0
 62
     5
 63
     7
 74
     0
 91
        4
 64
     7
 65
   257
 75
     1
175
     1
 42
1.0
 92
        8
 66
     7
 43
1.0
 76
     1
 77
     6
 78
     2
 67
     7
 79
     5
170
     0
171
     0
290
     0
174
     0
 93
       13
 44
0.0
173
     0
291
     1
 45
0.0
1001
ACAD
1000
AcDbSavedByObjectVersion
1070
     0
  0
VISUALSTYLE
  5
2C
102
{ACAD_REACTORS
330
2A
102
}
102
{ACAD_XDICTIONARY
360
137
102
}
330
2A
100
AcDbVisualStyle
  2
FlatWithEdges
 70
     1
 71
     2
 72
     1
 73
     1
 90
        2
 40
-0.6
 41
30.0
 62
     5
 63
     7
 74
     1
 91
        4
 64
     7
 65
   257
 75
     1
175
     1
 42
1.0
 92
        0
 66
   257
 43
1.0
 76
     1
 77
     6
 78
     2
 67
     7
 79
     5
170
     0
171
     0
290
     0
174
     0
 93
       13
 44
0.0
173
     0
291
     1
 45
0.0
1001
ACAD
1000
AcDbSavedByObjectVersion
1070
     0
  0
VISUALSTYLE
  5
2D
102
{ACAD_REACTORS
330
2A
102
}
102
{ACAD_XDICTIONARY
360
139
102
}
330
2A
100
AcDbVisualStyle
  2
Gouraud
 70
     2
 71
     2
 72
     2
 73
     1
 90
        2
 40
-0.6
 41
30.0
 62
     5
 63
     7
 74
     0
 91
        4
 64
     7
 65
   257
 75
     1
175
     1
 42
1.0
 92
        0
 66
     7
 43
1.0
 76
     1
 77
     6
 78
     2
 67
     7
 79
     5
170
     0
171
     0
290
     0
174
     0
 93
       13
 44
0.0
173
     0
291
     1
 45
0.0
1001
ACAD
1000
AcDbSavedByObjectVersion
1070
     0
  0
VISUALSTYLE
  5
2E
102
{ACAD_REACTORS
330
2A
102
}
102
{ACAD_XDICTIONARY
360
13B
102
}
330
2A
100
AcDbVisualStyle
  2
GouraudWithEdges
 70
     3
 71
     2
 72
     2
 73
     1
 90
        2
 40
-0.6
 41
30.0
 62
     5
 63
     7
 74
     1
 91
        4
 64
     7
 65
   257
 75
     1
175
     1
 42
1.0
 92
        0
 66
   257
 43
1.0
 76
     1
 77
     6
 78
     2
 67
     7
 79
     5
170
     0
171
     0
290
     0
174
     0
 93
       13
 44
0.0
173
     0
291
     1
 45
0.0
1001
ACAD
1000
AcDbSavedByObjectVersion
1070
     0
  0
VISUALSTYLE
  5
38
102
{ACAD_REACTORS
330
2A
102
}
102
{ACAD_XDICTIONARY
360
14F
102
}
330
2A
100
AcDbVisualStyle
  2
Linepattern
 70
    14
 71
     2
 72
     2
 73
     0
 90
        0
 40
-0.6
 41
-30.0
 62
     5
 63
     7
 74
     1
 91
        4
 64
     7
 65
   257
 75
     7
175
     7
 42
1.0
 92
        8
 66
     7
 43
1.0
 76
     1
 77
     6
 78
     2
 67
     7
 79
     5
170
     0
171
     0
290
     0
174
     0
 93
        1
 44
0.0
173
     0
291
     1
 45
0.0
1001
ACAD
1000
AcDbSavedByObjectVersion
1070
     0
  0
VISUALSTYLE
  5
33
102
{ACAD_REACTORS
330
2A
102
}
102
{ACAD_XDICTIONARY
360
145
102
}
330
2A
100
AcDbVisualStyle
  2
Realistic
 70
     8
 71
     2
 72
     2
 73
     0
 90
        0
 40
-0.6
 41
-30.0
 62
     5
 63
     7
 74
     1
 91
        0
 64
     7
 65
   257
 75
     1
175
     1
 42
1.0
 92
        8
 66
     8
 43
1.0
 76
     1
 77
     6
 78
     2
 67
     7
 79
     5
170
     0
171
     0
290
     0
174
     0
 93
       13
 44
0.0
173
     0
291
     0
 45
0.0
1001
ACAD
1000
AcDbSavedByObjectVersion
1070
     0
  0
VISUALSTYLE
  5
37
102
{ACAD_REACTORS
330
2A
102
}
102
{ACAD_XDICTIONARY
360
14D
102
}
330
2A
100
AcDbVisualStyle
  2
Thicken
 70
    13
 71
     2
 72
     2
 73
     0
 90
        0
 40
-0.6
 41
-30.0
 62
     5
 63
     7
 74
     1
 91
        4
 64
     7
 65
   257
 75
     1
175
     1
 42
1.0
 92
       12
 66
     7
 43
1.0
 76
     1
 77
     6
 78
     2
 67
     7
 79
     5
170
     0
171
     0
290
     0
174
     0
 93
        1
 44
0.0
173
     0
291
     1
 45
0.0
1001
ACAD
1000
AcDbSavedByObjectVersion
1070
     0
  0
DICTIONARYVAR
  5
133
102
{ACAD_REACTORS
330
12E
102
}
330
12E
100
DictionaryVariables
280
     0
  1
2
  0
DICTIONARYVAR
  5
134
102
{ACAD_REACTORS
330
12E
102
}
330
12E
100
DictionaryVariables
280
     0
  1
1
  0
DICTIONARYVAR
  5
132
102
{ACAD_REACTORS
330
12E
102
}
330
12E
100
DictionaryVariables
280
     0
  1
80.000000
  0
DICTIONARYVAR
  5
131
102
{ACAD_REACTORS
330
12E
102
}
330
12E
100
DictionaryVariables
280
     0
  1
5.000000
  0
DICTIONARY
  5
157
330
3D
100
AcDbDictionary
280
     1
281
     1
  3
ACAD_XREC_ROUNDTRIP
360
158
  0
DICTIONARY
  5
155
330
3C
100
AcDbDictionary
280
     1
281
     1
  3
ACAD_XREC_ROUNDTRIP
360
156
  0
DICTIONARY
  5
159
330
3E
100
AcDbDictionary
280
     1
281
     1
  3
ACAD_XREC_ROUNDTRIP
360
15A
  0
DICTIONARY
  5
13D
330
2F
100
AcDbDictionary
280
     1
281
     1
  3
ACAD_XREC_ROUNDTRIP
360
13E
  0
DICTIONARY
  5
141
330
31
100
AcDbDictionary
280
     1
281
     1
  3
ACAD_XREC_ROUNDTRIP
360
142
  0
DICTIONARY
  5
13F
330
30
100
AcDbDictionary
280
     1
281
     1
  3
ACAD_XREC_ROUNDTRIP
360
140
  0
DICTIONARY
  5
143
330
32
100
AcDbDictionary
280
     1
281
     1
  3
ACAD_XREC_ROUNDTRIP
360
144
  0
DICTIONARY
  5
14B
330
36
100
AcDbDictionary
280
     1
281
     1
  3
ACAD_XREC_ROUNDTRIP
360
14C
  0
DICTIONARY
  5
153
330
3A
100
AcDbDictionary
280
     1
281
     1
  3
ACAD_XREC_ROUNDTRIP
360
154
  0
DICTIONARY
  5
147
330
34
100
AcDbDictionary
280
     1
281
     1
  3
ACAD_XREC_ROUNDTRIP
360
148
  0
DICTIONARY
  5
149
330
35
100
AcDbDictionary
280
     1
281
     1
  3
ACAD_XREC_ROUNDTRIP
360
14A
  0
DICTIONARY
  5
151
330
39
100
AcDbDictionary
280
     1
281
     1
  3
ACAD_XREC_ROUNDTRIP
360
152
  0
DICTIONARY
  5
135
330
2B
100
AcDbDictionary
280
     1
281
     1
  3
ACAD_XREC_ROUNDTRIP
360
136
  0
DICTIONARY
  5
137
330
2C
100
AcDbDictionary
280
     1
281
     1
  3
ACAD_XREC_ROUNDTRIP
360
138
  0
DICTIONARY
  5
139
330
2D
100
AcDbDictionary
280
     1
281
     1
  3
ACAD_XREC_ROUNDTRIP
360
13A
  0
DICTIONARY
  5
13B
330
2E
100
AcDbDictionary
280
     1
281
     1
  3
ACAD_XREC_ROUNDTRIP
360
13C
  0
DICTIONARY
  5
14F
330
38
100
AcDbDictionary
280
     1
281
     1
  3
ACAD_XREC_ROUNDTRIP
360
150
  0
DICTIONARY
  5
145
330
33
100
AcDbDictionary
280
     1
281
     1
  3
ACAD_XREC_ROUNDTRIP
360
146
  0
DICTIONARY
  5
14D
330
37
100
AcDbDictionary
280
     1
281
     1
  3
ACAD_XREC_ROUNDTRIP
360
14E
  0
XRECORD
  5
158
102
{ACAD_REACTORS
330
157
102
}
330
157
100
AcDbXrecord
280
     1
102
MATERIAL
148
0.0
149
0.0
149
0.0
 93
        0
 94
      127
282
     0
 72
     1
 77
     1
171
     1
175
     1
179
     1
273
     0
  0
XRECORD
  5
156
102
{ACAD_REACTORS
330
155
102
}
330
155
100
AcDbXrecord
280
     1
102
MATERIAL
148
0.0
149
0.0
149
0.0
 93
        0
 94
      127
282
     0
 72
     1
 77
     1
171
     1
175
     1
179
     1
273
     0
  0
XRECORD
  5
15A
102
{ACAD_REACTORS
330
159
102
}
330
159
100
AcDbXrecord
280
     1
102
MATERIAL
148
0.0
149
0.0
149
0.0
 93
        0
 94
      127
282
     0
 72
     1
 77
     1
171
     1
175
     1
179
     1
273
     0
  0
XRECORD
  5
13E
102
{ACAD_REACTORS
330
13D
102
}
330
13D
100
AcDbXrecord
280
     1
102
RTVSPropertyOp0
 70
     1
102
RTVSPropertyOp1
 70
     1
102
RTVSPropertyOp2
 70
     1
102
RTVSPropertyOp3
 70
     1
102
RTVSPropertyOp4
 70
     1
102
RTVSPropertyOp5
 70
     1
102
RTVSPropertyOp6
 70
     1
102
RTVSPropertyOp7
 70
     1
102
RTVSPropertyOp8
 70
     1
102
RTVSPropertyOp9
 70
     1
102
RTVSPropertyOp10
 70
     1
102
RTVSPropertyOp11
 70
     1
102
RTVSPropertyOp12
 70
     1
102
RTVSPropertyOp13
 70
     1
102
RTVSPropertyOp14
 70
     1
102
RTVSPropertyOp15
 70
     1
102
RTVSPropertyOp16
 70
     1
102
RTVSPropertyOp17
 70
     1
102
RTVSPropertyOp18
 70
     1
102
RTVSPropertyOp19
 70
     1
102
RTVSPropertyOp20
 70
     1
102
RTVSPropertyOp21
 70
     1
102
RTVSPropertyOp22
 70
     1
102
RTVSPropertyOp23
 70
     1
102
RTVSPropertyOp24
 70
     1
102
RTVSPropertyOp25
 70
     1
102
RTVSPropertyOp26
 70
     1
102
RTVSPropertyOp27
 70
     1
102
RTVSPropertyOp28
 70
     1
102
RTVSPropertyOp29
 70
     1
102
RTVSPropertyOp30
 70
     1
102
RTVSPropertyOp31
 70
     1
102
RTVSPropertyOp32
 70
     1
  0
XRECORD
  5
142
102
{ACAD_REACTORS
330
141
102
}
330
141
100
AcDbXrecord
280
     1
102
RTVSPropertyOp0
 70
     1
102
RTVSPropertyOp1
 70
     1
102
RTVSPropertyOp2
 70
     1
102
RTVSPropertyOp3
 70
     1
102
RTVSPropertyOp4
 70
     1
102
RTVSPropertyOp5
 70
     1
102
RTVSPropertyOp6
 70
     1
102
RTVSPropertyOp7
 70
     1
102
RTVSPropertyOp8
 70
     1
102
RTVSPropertyOp9
 70
     1
102
RTVSPropertyOp10
 70
     1
102
RTVSPropertyOp11
 70
     1
102
RTVSPropertyOp12
 70
     1
102
RTVSPropertyOp13
 70
     1
102
RTVSPropertyOp14
 70
     1
102
RTVSPropertyOp15
 70
     1
102
RTVSPropertyOp16
 70
     1
102
RTVSPropertyOp17
 70
     1
102
RTVSPropertyOp18
 70
     1
102
RTVSPropertyOp19
 70
     1
102
RTVSPropertyOp20
 70
     1
102
RTVSPropertyOp21
 70
     1
102
RTVSPropertyOp22
 70
     1
102
RTVSPropertyOp23
 70
     1
102
RTVSPropertyOp24
 70
     1
102
RTVSPropertyOp25
 70
     1
102
RTVSPropertyOp26
 70
     1
102
RTVSPropertyOp27
 70
     1
102
RTVSPropertyOp28
 70
     1
102
RTVSPropertyOp29
 70
     1
102
RTVSPropertyOp30
 70
     1
102
RTVSPropertyOp31
 70
     1
102
RTVSPropertyOp32
 70
     1
  0
XRECORD
  5
140
102
{ACAD_REACTORS
330
13F
102
}
330
13F
100
AcDbXrecord
280
     1
102
RTVSPropertyOp0
 70
     1
102
RTVSPropertyOp1
 70
     1
102
RTVSPropertyOp2
 70
     1
102
RTVSPropertyOp3
 70
     1
102
RTVSPropertyOp4
 70
     1
102
RTVSPropertyOp5
 70
     1
102
RTVSPropertyOp6
 70
     1
102
RTVSPropertyOp7
 70
     1
102
RTVSPropertyOp8
 70
     1
102
RTVSPropertyOp9
 70
     1
102
RTVSPropertyOp10
 70
     1
102
RTVSPropertyOp11
 70
     1
102
RTVSPropertyOp12
 70
     1
102
RTVSPropertyOp13
 70
     1
102
RTVSPropertyOp14
 70
     1
102
RTVSPropertyOp15
 70
     1
102
RTVSPropertyOp16
 70
     1
102
RTVSPropertyOp17
 70
     1
102
RTVSPropertyOp18
 70
     1
102
RTVSPropertyOp19
 70
     1
102
RTVSPropertyOp20
 70
     1
102
RTVSPropertyOp21
 70
     1
102
RTVSPropertyOp22
 70
     1
102
RTVSPropertyOp23
 70
     1
102
RTVSPropertyOp24
 70
     1
102
RTVSPropertyOp25
 70
     1
102
RTVSPropertyOp26
 70
     1
102
RTVSPropertyOp27
 70
     1
102
RTVSPropertyOp28
 70
     1
102
RTVSPropertyOp29
 70
     1
102
RTVSPropertyOp30
 70
     1
102
RTVSPropertyOp31
 70
     1
102
RTVSPropertyOp32
 70
     1
  0
XRECORD
  5
144
102
{ACAD_REACTORS
330
143
102
}
330
143
100
AcDbXrecord
280
     1
102
RTVSPropertyOp0
 70
     1
102
RTVSPropertyOp1
 70
     1
102
RTVSPropertyOp2
 70
     1
102
RTVSPropertyOp3
 70
     1
102
RTVSPropertyOp4
 70
     1
102
RTVSPropertyOp5
 70
     1
102
RTVSPropertyOp6
 70
     1
102
RTVSPropertyOp7
 70
     1
102
RTVSPropertyOp8
 70
     1
102
RTVSPropertyOp9
 70
     1
102
RTVSPropertyOp10
 70
     1
102
RTVSPropertyOp11
 70
     1
102
RTVSPropertyOp12
 70
     1
102
RTVSPropertyOp13
 70
     1
102
RTVSPropertyOp14
 70
     1
102
RTVSPropertyOp15
 70
     1
102
RTVSPropertyOp16
 70
     1
102
RTVSPropertyOp17
 70
     1
102
RTVSPropertyOp18
 70
     1
102
RTVSPropertyOp19
 70
     1
102
RTVSPropertyOp20
 70
     1
102
RTVSPropertyOp21
 70
     1
102
RTVSPropertyOp22
 70
     1
102
RTVSPropertyOp23
 70
     1
102
RTVSPropertyOp24
 70
     1
102
RTVSPropertyOp25
 70
     1
102
RTVSPropertyOp26
 70
     1
102
RTVSPropertyOp27
 70
     1
102
RTVSPropertyOp28
 70
     1
102
RTVSPropertyOp29
 70
     1
102
RTVSPropertyOp30
 70
     1
102
RTVSPropertyOp31
 70
     1
102
RTVSPropertyOp32
 70
     1
  0
XRECORD
  5
14C
102
{ACAD_REACTORS
330
14B
102
}
330
14B
100
AcDbXrecord
280
     1
102
RTVSPropertyOp0
 70
     1
102
RTVSPropertyOp1
 70
     1
102
RTVSPropertyOp2
 70
     1
102
RTVSPropertyOp3
 70
     1
102
RTVSPropertyOp4
 70
     1
102
RTVSPropertyOp5
 70
     1
102
RTVSPropertyOp6
 70
     1
102
RTVSPropertyOp7
 70
     1
102
RTVSPropertyOp8
 70
     1
102
RTVSPropertyOp9
 70
     1
102
RTVSPropertyOp10
 70
     1
102
RTVSPropertyOp11
 70
     1
102
RTVSPropertyOp12
 70
     1
102
RTVSPropertyOp13
 70
     1
102
RTVSPropertyOp14
 70
     1
102
RTVSPropertyOp15
 70
     1
102
RTVSPropertyOp16
 70
     1
102
RTVSPropertyOp17
 70
     1
102
RTVSPropertyOp18
 70
     1
102
RTVSPropertyOp19
 70
     1
102
RTVSPropertyOp20
 70
     1
102
RTVSPropertyOp21
 70
     1
102
RTVSPropertyOp22
 70
     1
102
RTVSPropertyOp23
 70
     1
102
RTVSPropertyOp24
 70
     1
102
RTVSPropertyOp25
 70
     1
102
RTVSPropertyOp26
 70
     1
102
RTVSPropertyOp27
 70
     1
102
RTVSPropertyOp28
 70
     1
102
RTVSPropertyOp29
 70
     1
102
RTVSPropertyOp30
 70
     1
102
RTVSPropertyOp31
 70
     1
102
RTVSPropertyOp32
 70
     1
  0
XRECORD
  5
154
102
{ACAD_REACTORS
330
153
102
}
330
153
100
AcDbXrecord
280
     1
102
RTVSPropertyOp0
 70
     1
102
RTVSPropertyOp1
 70
     1
102
RTVSPropertyOp2
 70
     1
102
RTVSPropertyOp3
 70
     1
102
RTVSPropertyOp4
 70
     1
102
RTVSPropertyOp5
 70
     1
102
RTVSPropertyOp6
 70
     1
102
RTVSPropertyOp7
 70
     1
102
RTVSPropertyOp8
 70
     1
102
RTVSPropertyOp9
 70
     1
102
RTVSPropertyOp10
 70
     1
102
RTVSPropertyOp11
 70
     1
102
RTVSPropertyOp12
 70
     1
102
RTVSPropertyOp13
 70
     1
102
RTVSPropertyOp14
 70
     1
102
RTVSPropertyOp15
 70
     1
102
RTVSPropertyOp16
 70
     1
102
RTVSPropertyOp17
 70
     1
102
RTVSPropertyOp18
 70
     1
102
RTVSPropertyOp19
 70
     1
102
RTVSPropertyOp20
 70
     1
102
RTVSPropertyOp21
 70
     1
102
RTVSPropertyOp22
 70
     1
102
RTVSPropertyOp23
 70
     1
102
RTVSPropertyOp24
 70
     1
102
RTVSPropertyOp25
 70
     1
102
RTVSPropertyOp26
 70
     1
102
RTVSPropertyOp27
 70
     1
102
RTVSPropertyOp28
 70
     1
102
RTVSPropertyOp29
 70
     1
102
RTVSPropertyOp30
 70
     1
102
RTVSPropertyOp31
 70
     1
102
RTVSPropertyOp32
 70
     1
  0
XRECORD
  5
148
102
{ACAD_REACTORS
330
147
102
}
330
147
100
AcDbXrecord
280
     1
102
RTVSPropertyOp0
 70
     1
102
RTVSPropertyOp1
 70
     1
102
RTVSPropertyOp2
 70
     1
102
RTVSPropertyOp3
 70
     1
102
RTVSPropertyOp4
 70
     1
102
RTVSPropertyOp5
 70
     1
102
RTVSPropertyOp6
 70
     1
102
RTVSPropertyOp7
 70
     1
102
RTVSPropertyOp8
 70
     1
102
RTVSPropertyOp9
 70
     1
102
RTVSPropertyOp10
 70
     1
102
RTVSPropertyOp11
 70
     1
102
RTVSPropertyOp12
 70
     1
102
RTVSPropertyOp13
 70
     1
102
RTVSPropertyOp14
 70
     1
102
RTVSPropertyOp15
 70
     1
102
RTVSPropertyOp16
 70
     1
102
RTVSPropertyOp17
 70
     1
102
RTVSPropertyOp18
 70
     1
102
RTVSPropertyOp19
 70
     1
102
RTVSPropertyOp20
 70
     1
102
RTVSPropertyOp21
 70
     1
102
RTVSPropertyOp22
 70
     1
102
RTVSPropertyOp23
 70
     1
102
RTVSPropertyOp24
 70
     1
102
RTVSPropertyOp25
 70
     1
102
RTVSPropertyOp26
 70
     1
102
RTVSPropertyOp27
 70
     1
102
RTVSPropertyOp28
 70
     1
102
RTVSPropertyOp29
 70
     1
102
RTVSPropertyOp30
 70
     1
102
RTVSPropertyOp31
 70
     1
102
RTVSPropertyOp32
 70
     1
  0
XRECORD
  5
14A
102
{ACAD_REACTORS
330
149
102
}
330
149
100
AcDbXrecord
280
     1
102
RTVSPropertyOp0
 70
     1
102
RTVSPropertyOp1
 70
     1
102
RTVSPropertyOp2
 70
     1
102
RTVSPropertyOp3
 70
     1
102
RTVSPropertyOp4
 70
     1
102
RTVSPropertyOp5
 70
     1
102
RTVSPropertyOp6
 70
     1
102
RTVSPropertyOp7
 70
     1
102
RTVSPropertyOp8
 70
     1
102
RTVSPropertyOp9
 70
     1
102
RTVSPropertyOp10
 70
     1
102
RTVSPropertyOp11
 70
     1
102
RTVSPropertyOp12
 70
     1
102
RTVSPropertyOp13
 70
     1
102
RTVSPropertyOp14
 70
     1
102
RTVSPropertyOp15
 70
     1
102
RTVSPropertyOp16
 70
     1
102
RTVSPropertyOp17
 70
     1
102
RTVSPropertyOp18
 70
     1
102
RTVSPropertyOp19
 70
     1
102
RTVSPropertyOp20
 70
     1
102
RTVSPropertyOp21
 70
     1
102
RTVSPropertyOp22
 70
     1
102
RTVSPropertyOp23
 70
     1
102
RTVSPropertyOp24
 70
     1
102
RTVSPropertyOp25
 70
     1
102
RTVSPropertyOp26
 70
     1
102
RTVSPropertyOp27
 70
     1
102
RTVSPropertyOp28
 70
     1
102
RTVSPropertyOp29
 70
     1
102
RTVSPropertyOp30
 70
     1
102
RTVSPropertyOp31
 70
     1
102
RTVSPropertyOp32
 70
     1
  0
XRECORD
  5
152
102
{ACAD_REACTORS
330
151
102
}
330
151
100
AcDbXrecord
280
     1
102
RTVSPropertyOp0
 70
     1
102
RTVSPropertyOp1
 70
     1
102
RTVSPropertyOp2
 70
     1
102
RTVSPropertyOp3
 70
     1
102
RTVSPropertyOp4
 70
     1
102
RTVSPropertyOp5
 70
     1
102
RTVSPropertyOp6
 70
     1
102
RTVSPropertyOp7
 70
     1
102
RTVSPropertyOp8
 70
     1
102
RTVSPropertyOp9
 70
     1
102
RTVSPropertyOp10
 70
     1
102
RTVSPropertyOp11
 70
     1
102
RTVSPropertyOp12
 70
     1
102
RTVSPropertyOp13
 70
     1
102
RTVSPropertyOp14
 70
     1
102
RTVSPropertyOp15
 70
     1
102
RTVSPropertyOp16
 70
     1
102
RTVSPropertyOp17
 70
     1
102
RTVSPropertyOp18
 70
     1
102
RTVSPropertyOp19
 70
     1
102
RTVSPropertyOp20
 70
     1
102
RTVSPropertyOp21
 70
     1
102
RTVSPropertyOp22
 70
     1
102
RTVSPropertyOp23
 70
     1
102
RTVSPropertyOp24
 70
     1
102
RTVSPropertyOp25
 70
     1
102
RTVSPropertyOp26
 70
     1
102
RTVSPropertyOp27
 70
     1
102
RTVSPropertyOp28
 70
     1
102
RTVSPropertyOp29
 70
     1
102
RTVSPropertyOp30
 70
     1
102
RTVSPropertyOp31
 70
     1
102
RTVSPropertyOp32
 70
     1
  0
XRECORD
  5
136
102
{ACAD_REACTORS
330
135
102
}
330
135
100
AcDbXrecord
280
     1
102
RTVSPropertyOp0
 70
     1
102
RTVSPropertyOp1
 70
     1
102
RTVSPropertyOp2
 70
     1
102
RTVSPropertyOp3
 70
     1
102
RTVSPropertyOp4
 70
     1
102
RTVSPropertyOp5
 70
     1
102
RTVSPropertyOp6
 70
     1
102
RTVSPropertyOp7
 70
     1
102
RTVSPropertyOp8
 70
     1
102
RTVSPropertyOp9
 70
     1
102
RTVSPropertyOp10
 70
     1
102
RTVSPropertyOp11
 70
     1
102
RTVSPropertyOp12
 70
     1
102
RTVSPropertyOp13
 70
     1
102
RTVSPropertyOp14
 70
     1
102
RTVSPropertyOp15
 70
     1
102
RTVSPropertyOp16
 70
     1
102
RTVSPropertyOp17
 70
     1
102
RTVSPropertyOp18
 70
     1
102
RTVSPropertyOp19
 70
     1
102
RTVSPropertyOp20
 70
     1
102
RTVSPropertyOp21
 70
     1
102
RTVSPropertyOp22
 70
     1
102
RTVSPropertyOp23
 70
     1
102
RTVSPropertyOp24
 70
     1
102
RTVSPropertyOp25
 70
     1
102
RTVSPropertyOp26
 70
     1
102
RTVSPropertyOp27
 70
     1
102
RTVSPropertyOp28
 70
     1
102
RTVSPropertyOp29
 70
     1
102
RTVSPropertyOp30
 70
     1
102
RTVSPropertyOp31
 70
     1
102
RTVSPropertyOp32
 70
     1
  0
XRECORD
  5
138
102
{ACAD_REACTORS
330
137
102
}
330
137
100
AcDbXrecord
280
     1
102
RTVSPropertyOp0
 70
     1
102
RTVSPropertyOp1
 70
     1
102
RTVSPropertyOp2
 70
     1
102
RTVSPropertyOp3
 70
     1
102
RTVSPropertyOp4
 70
     1
102
RTVSPropertyOp5
 70
     1
102
RTVSPropertyOp6
 70
     1
102
RTVSPropertyOp7
 70
     1
102
RTVSPropertyOp8
 70
     1
102
RTVSPropertyOp9
 70
     1
102
RTVSPropertyOp10
 70
     1
102
RTVSPropertyOp11
 70
     1
102
RTVSPropertyOp12
 70
     1
102
RTVSPropertyOp13
 70
     1
102
RTVSPropertyOp14
 70
     1
102
RTVSPropertyOp15
 70
     1
102
RTVSPropertyOp16
 70
     1
102
RTVSPropertyOp17
 70
     1
102
RTVSPropertyOp18
 70
     1
102
RTVSPropertyOp19
 70
     1
102
RTVSPropertyOp20
 70
     1
102
RTVSPropertyOp21
 70
     1
102
RTVSPropertyOp22
 70
     1
102
RTVSPropertyOp23
 70
     1
102
RTVSPropertyOp24
 70
     1
102
RTVSPropertyOp25
 70
     1
102
RTVSPropertyOp26
 70
     1
102
RTVSPropertyOp27
 70
     1
102
RTVSPropertyOp28
 70
     1
102
RTVSPropertyOp29
 70
     1
102
RTVSPropertyOp30
 70
     1
102
RTVSPropertyOp31
 70
     1
102
RTVSPropertyOp32
 70
     1
  0
XRECORD
  5
13A
102
{ACAD_REACTORS
330
139
102
}
330
139
100
AcDbXrecord
280
     1
102
RTVSPropertyOp0
 70
     1
102
RTVSPropertyOp1
 70
     1
102
RTVSPropertyOp2
 70
     1
102
RTVSPropertyOp3
 70
     1
102
RTVSPropertyOp4
 70
     1
102
RTVSPropertyOp5
 70
     1
102
RTVSPropertyOp6
 70
     1
102
RTVSPropertyOp7
 70
     1
102
RTVSPropertyOp8
 70
     1
102
RTVSPropertyOp9
 70
     1
102
RTVSPropertyOp10
 70
     1
102
RTVSPropertyOp11
 70
     1
102
RTVSPropertyOp12
 70
     1
102
RTVSPropertyOp13
 70
     1
102
RTVSPropertyOp14
 70
     1
102
RTVSPropertyOp15
 70
     1
102
RTVSPropertyOp16
 70
     1
102
RTVSPropertyOp17
 70
     1
102
RTVSPropertyOp18
 70
     1
102
RTVSPropertyOp19
 70
     1
102
RTVSPropertyOp20
 70
     1
102
RTVSPropertyOp21
 70
     1
102
RTVSPropertyOp22
 70
     1
102
RTVSPropertyOp23
 70
     1
102
RTVSPropertyOp24
 70
     1
102
RTVSPropertyOp25
 70
     1
102
RTVSPropertyOp26
 70
     1
102
RTVSPropertyOp27
 70
     1
102
RTVSPropertyOp28
 70
     1
102
RTVSPropertyOp29
 70
     1
102
RTVSPropertyOp30
 70
     1
102
RTVSPropertyOp31
 70
     1
102
RTVSPropertyOp32
 70
     1
  0
XRECORD
  5
13C
102
{ACAD_REACTORS
330
13B
102
}
330
13B
100
AcDbXrecord
280
     1
102
RTVSPropertyOp0
 70
     1
102
RTVSPropertyOp1
 70
     1
102
RTVSPropertyOp2
 70
     1
102
RTVSPropertyOp3
 70
     1
102
RTVSPropertyOp4
 70
     1
102
RTVSPropertyOp5
 70
     1
102
RTVSPropertyOp6
 70
     1
102
RTVSPropertyOp7
 70
     1
102
RTVSPropertyOp8
 70
     1
102
RTVSPropertyOp9
 70
     1
102
RTVSPropertyOp10
 70
     1
102
RTVSPropertyOp11
 70
     1
102
RTVSPropertyOp12
 70
     1
102
RTVSPropertyOp13
 70
     1
102
RTVSPropertyOp14
 70
     1
102
RTVSPropertyOp15
 70
     1
102
RTVSPropertyOp16
 70
     1
102
RTVSPropertyOp17
 70
     1
102
RTVSPropertyOp18
 70
     1
102
RTVSPropertyOp19
 70
     1
102
RTVSPropertyOp20
 70
     1
102
RTVSPropertyOp21
 70
     1
102
RTVSPropertyOp22
 70
     1
102
RTVSPropertyOp23
 70
     1
102
RTVSPropertyOp24
 70
     1
102
RTVSPropertyOp25
 70
     1
102
RTVSPropertyOp26
 70
     1
102
RTVSPropertyOp27
 70
     1
102
RTVSPropertyOp28
 70
     1
102
RTVSPropertyOp29
 70
     1
102
RTVSPropertyOp30
 70
     1
102
RTVSPropertyOp31
 70
     1
102
RTVSPropertyOp32
 70
     1
  0
XRECORD
  5
150
102
{ACAD_REACTORS
330
14F
102
}
330
14F
100
AcDbXrecord
280
     1
102
RTVSPropertyOp0
 70
     1
102
RTVSPropertyOp1
 70
     1
102
RTVSPropertyOp2
 70
     1
102
RTVSPropertyOp3
 70
     1
102
RTVSPropertyOp4
 70
     1
102
RTVSPropertyOp5
 70
     1
102
RTVSPropertyOp6
 70
     1
102
RTVSPropertyOp7
 70
     1
102
RTVSPropertyOp8
 70
     1
102
RTVSPropertyOp9
 70
     1
102
RTVSPropertyOp10
 70
     1
102
RTVSPropertyOp11
 70
     1
102
RTVSPropertyOp12
 70
     1
102
RTVSPropertyOp13
 70
     1
102
RTVSPropertyOp14
 70
     1
102
RTVSPropertyOp15
 70
     1
102
RTVSPropertyOp16
 70
     1
102
RTVSPropertyOp17
 70
     1
102
RTVSPropertyOp18
 70
     1
102
RTVSPropertyOp19
 70
     1
102
RTVSPropertyOp20
 70
     1
102
RTVSPropertyOp21
 70
     1
102
RTVSPropertyOp22
 70
     1
102
RTVSPropertyOp23
 70
     1
102
RTVSPropertyOp24
 70
     1
102
RTVSPropertyOp25
 70
     1
102
RTVSPropertyOp26
 70
     1
102
RTVSPropertyOp27
 70
     1
102
RTVSPropertyOp28
 70
     1
102
RTVSPropertyOp29
 70
     1
102
RTVSPropertyOp30
 70
     1
102
RTVSPropertyOp31
 70
     1
102
RTVSPropertyOp32
 70
     1
  0
XRECORD
  5
146
102
{ACAD_REACTORS
330
145
102
}
330
145
100
AcDbXrecord
280
     1
102
RTVSPropertyOp0
 70
     1
102
RTVSPropertyOp1
 70
     1
102
RTVSPropertyOp2
 70
     1
102
RTVSPropertyOp3
 70
     1
102
RTVSPropertyOp4
 70
     1
102
RTVSPropertyOp5
 70
     1
102
RTVSPropertyOp6
 70
     1
102
RTVSPropertyOp7
 70
     1
102
RTVSPropertyOp8
 70
     1
102
RTVSPropertyOp9
 70
     1
102
RTVSPropertyOp10
 70
     1
102
RTVSPropertyOp11
 70
     1
102
RTVSPropertyOp12
 70
     1
102
RTVSPropertyOp13
 70
     1
102
RTVSPropertyOp14
 70
     1
102
RTVSPropertyOp15
 70
     1
102
RTVSPropertyOp16
 70
     1
102
RTVSPropertyOp17
 70
     1
102
RTVSPropertyOp18
 70
     1
102
RTVSPropertyOp19
 70
     1
102
RTVSPropertyOp20
 70
     1
102
RTVSPropertyOp21
 70
     1
102
RTVSPropertyOp22
 70
     1
102
RTVSPropertyOp23
 70
     1
102
RTVSPropertyOp24
 70
     1
102
RTVSPropertyOp25
 70
     1
102
RTVSPropertyOp26
 70
     1
102
RTVSPropertyOp27
 70
     1
102
RTVSPropertyOp28
 70
     1
102
RTVSPropertyOp29
 70
     1
102
RTVSPropertyOp30
 70
     1
102
RTVSPropertyOp31
 70
     1
102
RTVSPropertyOp32
 70
     1
  0
XRECORD
  5
14E
102
{ACAD_REACTORS
330
14D
102
}
330
14D
100
AcDbXrecord
280
     1
102
RTVSPropertyOp0
 70
     1
102
RTVSPropertyOp1
 70
     1
102
RTVSPropertyOp2
 70
     1
102
RTVSPropertyOp3
 70
     1
102
RTVSPropertyOp4
 70
     1
102
RTVSPropertyOp5
 70
     1
102
RTVSPropertyOp6
 70
     1
102
RTVSPropertyOp7
 70
     1
102
RTVSPropertyOp8
 70
     1
102
RTVSPropertyOp9
 70
     1
102
RTVSPropertyOp10
 70
     1
102
RTVSPropertyOp11
 70
     1
102
RTVSPropertyOp12
 70
     1
102
RTVSPropertyOp13
 70
     1
102
RTVSPropertyOp14
 70
     1
102
RTVSPropertyOp15
 70
     1
102
RTVSPropertyOp16
 70
     1
102
RTVSPropertyOp17
 70
     1
102
RTVSPropertyOp18
 70
     1
102
RTVSPropertyOp19
 70
     1
102
RTVSPropertyOp20
 70
     1
102
RTVSPropertyOp21
 70
     1
102
RTVSPropertyOp22
 70
     1
102
RTVSPropertyOp23
 70
     1
102
RTVSPropertyOp24
 70
     1
102
RTVSPropertyOp25
 70
     1
102
RTVSPropertyOp26
 70
     1
102
RTVSPropertyOp27
 70
     1
102
RTVSPropertyOp28
 70
     1
102
RTVSPropertyOp29
 70
     1
102
RTVSPropertyOp30
 70
     1
102
RTVSPropertyOp31
 70
     1
102
RTVSPropertyOp32
 70
     1
  0
ENDSEC
  0
EOF
