  0
SECTION
  2
HEADER
  9
$ACADVER
  1
AC1015
  9
$ACADMAINTVER
 70
     6
  9
$DWGCODEPAGE
  3
ANSI_1252
  9
$INSBASE
 10
0.0
 20
0.0
 30
0.0
  9
$EXTMIN
 10
0.0
 20
0.0
 30
0.0
  9
$EXTMAX
 10
210.0
 20
297.0
 30
0.0
  9
$LIMMIN
 10
0.0
 20
0.0
  9
$LIMMAX
 10
210.0
 20
297.0
  9
$ORTHOMODE
 70
     0
  9
$REGENMODE
 70
     1
  9
$FILLMODE
 70
     1
  9
$QTEXTMODE
 70
     0
  9
$MIRRTEXT
 70
     1
  9
$LTSCALE
 40
1.0
  9
$ATTMODE
 70
     1
  9
$TEXTSIZE
 40
2.5
  9
$TRACEWID
 40
1.0
  9
$TEXTSTYLE
  7
Standard
  9
$CLAYER
  8
0
  9
$CELTYPE
  6
ByLayer
  9
$CECOLOR
 62
   256
  9
$CELTSCALE
 40
1.0
  9
$DISPSILH
 70
     0
  9
$DIMSCALE
 40
1.0
  9
$DIMASZ
 40
2.5
  9
$DIMEXO
 40
0.625
  9
$DIMDLI
 40
3.75
  9
$DIMRND
 40
0.0
  9
$DIMDLE
 40
0.0
  9
$DIMEXE
 40
1.25
  9
$DIMTP
 40
0.0
  9
$DIMTM
 40
0.0
  9
$DIMTXT
 40
2.5
  9
$DIMCEN
 40
2.5
  9
$DIMTSZ
 40
0.0
  9
$DIMTOL
 70
     0
  9
$DIMLIM
 70
     0
  9
$DIMTIH
 70
     0
  9
$DIMTOH
 70
     0
  9
$DIMSE1
 70
     0
  9
$DIMSE2
 70
     0
  9
$DIMTAD
 70
     1
  9
$DIMZIN
 70
     8
  9
$DIMBLK
  1

  9
$DIMASO
 70
     1
  9
$DIMSHO
 70
     1
  9
$DIMPOST
  1

  9
$DIMAPOST
  1

  9
$DIMALT
 70
     0
  9
$DIMALTD
 70
     3
  9
$DIMALTF
 40
0.0393700787
  9
$DIMLFAC
 40
1.0
  9
$DIMTOFL
 70
     1
  9
$DIMTVP
 40
0.0
  9
$DIMTIX
 70
     0
  9
$DIMSOXD
 70
     0
  9
$DIMSAH
 70
     0
  9
$DIMBLK1
  1

  9
$DIMBLK2
  1

  9
$DIMSTYLE
  2
ISO-25
  9
$DIMCLRD
 70
     0
  9
$DIMCLRE
 70
     0
  9
$DIMCLRT
 70
     0
  9
$DIMTFAC
 40
1.0
  9
$DIMGAP
 40
0.625
  9
$DIMJUST
 70
     0
  9
$DIMSD1
 70
     0
  9
$DIMSD2
 70
     0
  9
$DIMTOLJ
 70
     0
  9
$DIMTZIN
 70
     8
  9
$DIMALTZ
 70
     0
  9
$DIMALTTZ
 70
     0
  9
$DIMUPT
 70
     0
  9
$DIMDEC
 70
     2
  9
$DIMTDEC
 70
     2
  9
$DIMALTU
 70
     2
  9
$DIMALTTD
 70
     3
  9
$DIMTXSTY
  7
Standard
  9
$DIMAUNIT
 70
     0
  9
$DIMADEC
 70
     0
  9
$DIMALTRND
 40
0.0
  9
$DIMAZIN
 70
     0
  9
$DIMDSEP
 70
    44
  9
$DIMATFIT
 70
     3
  9
$DIMFRAC
 70
     0
  9
$DIMLDRBLK
  1

  9
$DIMLUNIT
 70
     2
  9
$DIMLWD
 70
    -2
  9
$DIMLWE
 70
    -2
  9
$DIMTMOVE
 70
     0
  9
$LUNITS
 70
     2
  9
$LUPREC
 70
     4
  9
$SKETCHINC
 40
1.0
  9
$FILLETRAD
 40
10.0
  9
$AUNITS
 70
     0
  9
$AUPREC
 70
     0
  9
$MENU
  1
.
  9
$ELEVATION
 40
0.0
  9
$PELEVATION
 40
0.0
  9
$THICKNESS
 40
0.0
  9
$LIMCHECK
 70
     0
  9
$CHAMFERA
 40
10.0
  9
$CHAMFERB
 40
10.0
  9
$CHAMFERC
 40
20.0
  9
$CHAMFERD
 40
0.0
  9
$SKPOLY
 70
     0
  9
$TDCREATE
 40
2457570.437897569
  9
$TDUCREATE
 40
2457570.354564236
  9
$TDUPDATE
 40
2457570.437922847
  9
$TDUUPDATE
 40
2457570.354589514
  9
$TDINDWG
 40
0.0000000116
  9
$TDUSRTIMER
 40
0.0000000116
  9
$USRTIMER
 70
     1
  9
$ANGBASE
 50
0.0
  9
$ANGDIR
 70
     0
  9
$PDMODE
 70
     0
  9
$PDSIZE
 40
0.0
  9
$PLINEWID
 40
0.0
  9
$SPLFRAME
 70
     0
  9
$SPLINETYPE
 70
     6
  9
$SPLINESEGS
 70
     8
  9
$HANDSEED
  5
16F
  9
$SURFTAB1
 70
     6
  9
$SURFTAB2
 70
     6
  9
$SURFTYPE
 70
     6
  9
$SURFU
 70
     6
  9
$SURFV
 70
     6
  9
$UCSBASE
  2

  9
$UCSNAME
  2

  9
$UCSORG
 10
0.0
 20
0.0
 30
0.0
  9
$UCSXDIR
 10
1.0
 20
0.0
 30
0.0
  9
$UCSYDIR
 10
0.0
 20
1.0
 30
0.0
  9
$UCSORTHOREF
  2

  9
$UCSORTHOVIEW
 70
     0
  9
$UCSORGTOP
 10
0.0
 20
0.0
 30
0.0
  9
$UCSORGBOTTOM
 10
0.0
 20
0.0
 30
0.0
  9
$UCSORGLEFT
 10
0.0
 20
0.0
 30
0.0
  9
$UCSORGRIGHT
 10
0.0
 20
0.0
 30
0.0
  9
$UCSORGFRONT
 10
0.0
 20
0.0
 30
0.0
  9
$UCSORGBACK
 10
0.0
 20
0.0
 30
0.0
  9
$PUCSBASE
  2

  9
$PUCSNAME
  2

  9
$PUCSORG
 10
0.0
 20
0.0
 30
0.0
  9
$PUCSXDIR
 10
1.0
 20
0.0
 30
0.0
  9
$PUCSYDIR
 10
0.0
 20
1.0
 30
0.0
  9
$PUCSORTHOREF
  2

  9
$PUCSORTHOVIEW
 70
     0
  9
$PUCSORGTOP
 10
0.0
 20
0.0
 30
0.0
  9
$PUCSORGBOTTOM
 10
0.0
 20
0.0
 30
0.0
  9
$PUCSORGLEFT
 10
0.0
 20
0.0
 30
0.0
  9
$PUCSORGRIGHT
 10
0.0
 20
0.0
 30
0.0
  9
$PUCSORGFRONT
 10
0.0
 20
0.0
 30
0.0
  9
$PUCSORGBACK
 10
0.0
 20
0.0
 30
0.0
  9
$USERI1
 70
     0
  9
$USERI2
 70
     0
  9
$USERI3
 70
     0
  9
$USERI4
 70
     0
  9
$USERI5
 70
     0
  9
$USERR1
 40
0.0
  9
$USERR2
 40
0.0
  9
$USERR3
 40
0.0
  9
$USERR4
 40
0.0
  9
$USERR5
 40
0.0
  9
$WORLDVIEW
 70
     1
  9
$SHADEDGE
 70
     3
  9
$SHADEDIF
 70
    70
  9
$TILEMODE
 70
     1
  9
$MAXACTVP
 70
    64
  9
$PINSBASE
 10
0.0
 20
0.0
 30
0.0
  9
$PLIMCHECK
 70
     0
  9
$PEXTMIN
 10
0.0
 20
0.0
 30
0.0
  9
$PEXTMAX
 10
210.0
 20
297.0
 30
0.0
  9
$PLIMMIN
 10
0.0
 20
0.0
  9
$PLIMMAX
 10
210.0
 20
297.0
  9
$UNITMODE
 70
     0
  9
$VISRETAIN
 70
     1
  9
$PLINEGEN
 70
     0
  9
$PSLTSCALE
 70
     1
  9
$TREEDEPTH
 70
  3020
  9
$CMLSTYLE
  2
Standard
  9
$CMLJUST
 70
     0
  9
$CMLSCALE
 40
20.0
  9
$PROXYGRAPHICS
 70
     1
  9
$MEASUREMENT
 70
     1
  9
$CELWEIGHT
370
    -1
  9
$ENDCAPS
280
     0
  9
$JOINSTYLE
280
     0
  9
$LWDISPLAY
290
     0
  9
$INSUNITS
 70
     4
  9
$HYPERLINKBASE
  1

  9
$STYLESHEET
  1

  9
$XEDIT
290
     1
  9
$CEPSNTYPE
380
     0
  9
$PSTYLEMODE
290
     1
  9
$FINGERPRINTGUID
  2
{6A2DDBCA-2E12-40DC-BDB9-7F0DA40F334C}
  9
$VERSIONGUID
  2
{FAEB1C32-E019-11D5-929B-00C0DF256EC4}
  9
$EXTNAMES
290
     1
  9
$PSVPSCALE
 40
0.0
  9
$OLESTARTUP
290
     0
  0
ENDSEC
  0
SECTION
  2
CLASSES
  0
CLASS
  1
ACDBDICTIONARYWDFLT
  2
AcDbDictionaryWithDefault
  3
ObjectDBX Classes
 90
        0
280
     0
281
     0
  0
CLASS
  1
VISUALSTYLE
  2
AcDbVisualStyle
  3
ObjectDBX Classes
 90
     4095
280
     0
281
     0
  0
CLASS
  1
MATERIAL
  2
AcDbMaterial
  3
ObjectDBX Classes
 90
     1153
280
     0
281
     0
  0
CLASS
  1
DICTIONARYVAR
  2
AcDbDictionaryVar
  3
ObjectDBX Classes
 90
        0
280
     0
281
     0
  0
CLASS
  1
ACDBPLACEHOLDER
  2
AcDbPlaceHolder
  3
ObjectDBX Classes
 90
        0
280
     0
281
     0
  0
CLASS
  1
LAYOUT
  2
AcDbLayout
  3
ObjectDBX Classes
 90
        0
280
     0
281
     0
  0
ENDSEC
  0
SECTION
  2
TABLES
  0
TABLE
  2
VPORT
  5
8
330
0
100
AcDbSymbolTable
 70
     1
  0
VPORT
  5
29
330
8
100
AcDbSymbolTableRecord
100
AcDbViewportTableRecord
  2
*Active
 70
     0
 10
0.0
 20
0.0
 11
1.0
 21
1.0
 12
344.1869158879
 22
148.5
 13
0.0
 23
0.0
 14
10.0
 24
10.0
 15
10.0
 25
10.0
 16
0.0
 26
0.0
 36
1.0
 17
0.0
 27
0.0
 37
0.0
 40
297.0
 41
1.9729729729
 42
50.0
 43
0.0
 44
0.0
 50
0.0
 51
0.0
 71
     0
 72
   100
 73
     1
 74
     3
 75
     0
 76
     0
 77
     0
 78
     0
281
     0
 65
     1
110
0.0
120
0.0
130
0.0
111
1.0
121
0.0
131
0.0
112
0.0
122
1.0
132
0.0
 79
     0
146
0.0
  0
ENDTAB
  0
TABLE
  2
LTYPE
  5
5
330
0
100
AcDbSymbolTable
 70
     2
  0
LTYPE
  5
14
330
5
100
AcDbSymbolTableRecord
100
AcDbLinetypeTableRecord
  2
ByBlock
 70
     0
  3

 72
    65
 73
     0
 40
0.0
  0
LTYPE
  5
15
330
5
100
AcDbSymbolTableRecord
100
AcDbLinetypeTableRecord
  2
ByLayer
 70
     0
  3

 72
    65
 73
     0
 40
0.0
  0
LTYPE
  5
16
330
5
100
AcDbSymbolTableRecord
100
AcDbLinetypeTableRecord
  2
Continuous
 70
     0
  3
Solid line
 72
    65
 73
     0
 40
0.0
  0
LTYPE
  5
59
330
5
100
AcDbSymbolTableRecord
100
AcDbLinetypeTableRecord
  2
HIDDEN2
 70
     0
  3
Hidden (.5x) _ _ _ _ _ _ _ _ _ _ _ _ _ _ _ _ _ 
 72
    65
 73
     2
 40
4.7625
 49
3.175
 74
     4
 75
     0
340
0
 46
0.0
 50
0.0
 44
0.0
 45
0.0
 49
-1.5875
 74
     4
 75
     0
340
0
 46
0.0
 50
0.0
 44
0.0
 45
0.0
  0
ENDTAB
  0
TABLE
  2
LAYER
  5
2
330
0
100
AcDbSymbolTable
 70
     5
  0
LAYER
  5
10
330
2
100
AcDbSymbolTableRecord
100
AcDbLayerTableRecord
  2
0
 70
     0
 62
     7
  6
Continuous
370
    -3
390
F
  0
LAYER
  5
3F
330
2
100
AcDbSymbolTableRecord
100
AcDbLayerTableRecord
  2
SK2
 70
     0
 62
     7
  6
Continuous
370
    15
390
F
  0
LAYER
  5
40
330
2
100
AcDbSymbolTableRecord
100
AcDbLayerTableRecord
  2
SK1
 70
     0
 62
     4
  6
Continuous
370
    18
390
F
  0
LAYER
  5
58
330
2
100
AcDbSymbolTableRecord
100
AcDbLayerTableRecord
  2
SK3
 70
     0
 62
     1
  6
HIDDEN2
370
    15
390
F
  0
LAYER
  5
102
330
2
100
AcDbSymbolTableRecord
100
AcDbLayerTableRecord
  2
SK4
 70
     0
 62
     2
  6
Continuous
370
    13
390
F
  0
ENDTAB
  0
TABLE
  2
STYLE
  5
3
330
0
100
AcDbSymbolTable
 70
     2
  0
STYLE
  5
11
330
3
100
AcDbSymbolTableRecord
100
AcDbTextStyleTableRecord
  2
Standard
 70
     0
 40
0.0
 41
1.0
 50
0.0
 71
     0
 42
2.5
  3
txt
  4

  0
STYLE
  5
116
330
3
100
AcDbSymbolTableRecord
100
AcDbTextStyleTableRecord
  2
SEACAD_Solid_Edge_ISO
 70
     0
 40
0.0
 41
1.0
 50
0.0
 71
     0
 42
0.2
  3
seiso.ttf
  4

1001
ACAD
1000
Solid Edge ISO
1071
        0
  0
ENDTAB
  0
TABLE
  2
VIEW
  5
6
330
0
100
AcDbSymbolTable
 70
     0
  0
ENDTAB
  0
TABLE
  2
UCS
  5
7
330
0
100
AcDbSymbolTable
 70
     0
  0
ENDTAB
  0
TABLE
  2
APPID
  5
9
330
0
100
AcDbSymbolTable
 70
     1
  0
APPID
  5
12
330
9
100
AcDbSymbolTableRecord
100
AcDbRegAppTableRecord
  2
ACAD
 70
     0
  0
ENDTAB
  0
TABLE
  2
DIMSTYLE
  5
A
330
0
100
AcDbSymbolTable
 70
     3
100
AcDbDimStyleTable
  0
DIMSTYLE
105
27
330
A
100
AcDbSymbolTableRecord
100
AcDbDimStyleTableRecord
  2
ISO-25
 70
     0
 41
2.5
 42
0.625
 43
3.75
 44
1.25
 73
     0
 74
     0
 77
     1
 78
     8
140
2.5
141
2.5
143
0.0393700787
147
0.625
171
     3
172
     1
178
     0
271
     2
272
     2
274
     3
278
    44
283
     0
284
     8
340
11
  0
DIMSTYLE
105
104
330
A
100
AcDbSymbolTableRecord
100
AcDbDimStyleTableRecord
  2
Standard
 70
     0
178
     0
340
11
  0
DIMSTYLE
105
117
102
{ACAD_REACTORS
330
118
330
123
330
12D
330
138
102
}
330
A
100
AcDbSymbolTableRecord
100
AcDbDimStyleTableRecord
  2
DIN
 70
     0
 41
3.5
 42
0.0
 44
1.75
 73
     0
 74
     0
 77
     1
 78
     8
140
3.5
141
1.75
147
1.75
172
     1
173
     1
178
     0
179
     3
271
     2
272
     2
278
    44
284
     8
340
116
343
111
344
111
  0
ENDTAB
  0
TABLE
  2
BLOCK_RECORD
  5
1
330
0
100
AcDbSymbolTable
 70
    10
  0
BLOCK_RECORD
  5
1F
330
1
100
AcDbSymbolTableRecord
100
AcDbBlockTableRecord
  2
*Model_Space
340
22
  0
BLOCK_RECORD
  5
1B
330
1
100
AcDbSymbolTableRecord
100
AcDbBlockTableRecord
  2
*Paper_Space
340
1E
  0
BLOCK_RECORD
  5
41
330
1
100
AcDbSymbolTableRecord
100
AcDbBlockTableRecord
  2
Nullpunkt
340
0
102
{BLKREFS
331
4B
102
}
  0
BLOCK_RECORD
  5
4C
330
1
100
AcDbSymbolTableRecord
100
AcDbBlockTableRecord
  2
Einfügepunkt
340
0
102
{BLKREFS
331
56
102
}
  0
BLOCK_RECORD
  5
105
330
1
100
AcDbSymbolTableRecord
100
AcDbBlockTableRecord
  2
_OBLIQUE
340
0
  0
BLOCK_RECORD
  5
109
330
1
100
AcDbSymbolTableRecord
100
AcDbBlockTableRecord
  2
_DOT
340
0
  0
BLOCK_RECORD
  5
111
330
1
100
AcDbSymbolTableRecord
100
AcDbBlockTableRecord
  2
_SE_FILLED
340
0
  0
BLOCK_RECORD
  5
119
330
1
100
AcDbSymbolTableRecord
100
AcDbBlockTableRecord
  2
DMBLK37
340
0
  0
BLOCK_RECORD
  5
124
330
1
100
AcDbSymbolTableRecord
100
AcDbBlockTableRecord
  2
DMBLK38
340
0
  0
BLOCK_RECORD
  5
12E
330
1
100
AcDbSymbolTableRecord
100
AcDbBlockTableRecord
  2
DMBLK39
340
0
  0
BLOCK_RECORD
  5
139
330
1
100
AcDbSymbolTableRecord
100
AcDbBlockTableRecord
  2
DMBLK40
340
0
  0
ENDTAB
  0
ENDSEC
  0
SECTION
  2
BLOCKS
  0
BLOCK
  5
20
330
1F
100
AcDbEntity
  8
0
100
AcDbBlockBegin
  2
*Model_Space
 70
     0
 10
0.0
 20
0.0
 30
0.0
  3
*Model_Space
  1

  0
ENDBLK
  5
21
330
1F
100
AcDbEntity
  8
0
100
AcDbBlockEnd
  0
BLOCK
  5
1C
330
1B
100
AcDbEntity
 67
     1
  8
0
100
AcDbBlockBegin
  2
*Paper_Space
 70
     0
 10
0.0
 20
0.0
 30
0.0
  3
*Paper_Space
  1

  0
ENDBLK
  5
1D
330
1B
100
AcDbEntity
 67
     1
  8
0
100
AcDbBlockEnd
  0
BLOCK
  5
49
330
41
100
AcDbEntity
  8
0
100
AcDbBlockBegin
  2
Nullpunkt
 70
     0
 10
0.0
 20
0.0
 30
0.0
  3
Nullpunkt
  1

  0
HATCH
  5
42
330
41
100
AcDbEntity
  8
SK2
  6
Continuous
 62
     7
100
AcDbHatch
 10
0.0
 20
0.0
 30
0.0
210
0.0
220
0.0
230
1.0
  2
SOLID
 70
     1
 71
     0
 91
        1
 92
        1
 93
        3
 72
     1
 10
-1.0
 20
0.0
 11
0.0000000000000009
 21
0.0
 72
     1
 10
0.0
 20
0.0
 11
0.0
 21
1.000000000000001
 72
     2
 10
0.0
 20
0.0
 40
1.0
 50
90.0
 51
180.0
 73
     1
 97
        0
 75
     0
 76
     1
 98
        0
  0
HATCH
  5
43
330
41
100
AcDbEntity
  8
SK2
  6
Continuous
 62
     7
100
AcDbHatch
 10
0.0
 20
0.0
 30
0.0
210
0.0
220
0.0
230
1.0
  2
SOLID
 70
     1
 71
     0
 91
        1
 92
        1
 93
        3
 72
     2
 10
0.0
 20
0.0
 40
1.0
 50
270.0
 51
360.0
 73
     1
 72
     1
 10
1.0
 20
0.0
 11
-0.0000000000000009
 21
0.0
 72
     1
 10
0.0
 20
0.0
 11
0.0
 21
-1.000000000000001
 97
        0
 75
     0
 76
     1
 98
        0
  0
CIRCLE
  5
44
330
41
100
AcDbEntity
  8
SK2
  6
Continuous
 62
     7
100
AcDbCircle
 10
0.0
 20
0.0
 30
0.0
 40
1.0
  0
LINE
  5
45
330
41
100
AcDbEntity
  8
SK1
  6
Continuous
100
AcDbLine
 10
-1.0
 20
0.0
 30
0.0
 11
1.0
 21
0.0
 31
0.0
  0
LINE
  5
46
330
41
100
AcDbEntity
  8
SK1
  6
Continuous
100
AcDbLine
 10
0.0
 20
1.0
 30
0.0
 11
0.0
 21
-1.0
 31
0.0
  0
POINT
  5
47
330
41
100
AcDbEntity
  8
SK1
  6
Continuous
100
AcDbPoint
 10
0.0
 20
0.0
 30
0.0
  0
POINT
  5
48
330
41
100
AcDbEntity
  8
SK1
  6
Continuous
100
AcDbPoint
 10
0.0
 20
0.0
 30
0.0
  0
ENDBLK
  5
4A
330
41
100
AcDbEntity
  8
0
100
AcDbBlockEnd
  0
BLOCK
  5
54
330
4C
100
AcDbEntity
  8
0
100
AcDbBlockBegin
  2
Einfügepunkt
 70
     0
 10
0.0
 20
0.0
 30
0.0
  3
Einfügepunkt
  1

  0
HATCH
  5
4D
330
4C
100
AcDbEntity
  8
SK2
  6
Continuous
 62
     7
100
AcDbHatch
 10
0.0
 20
0.0
 30
0.0
210
0.0
220
0.0
230
1.0
  2
SOLID
 70
     1
 71
     0
 91
        1
 92
        1
 93
        3
 72
     1
 10
-0.4502381196756744
 20
-0.0000000000000018
 11
0.0000000000000033
 21
-0.0000000000000018
 72
     1
 10
0.0
 20
-0.0000000000000018
 11
0.0
 21
0.4502381196756812
 72
     2
 10
0.0
 20
-0.0000000000000018
 40
0.4502381196756812
 50
90.0
 51
180.0
 73
     1
 97
        0
 75
     0
 76
     1
 98
        0
  0
HATCH
  5
4E
330
4C
100
AcDbEntity
  8
SK2
  6
Continuous
 62
     7
100
AcDbHatch
 10
0.0
 20
0.0
 30
0.0
210
0.0
220
0.0
230
1.0
  2
SOLID
 70
     1
 71
     0
 91
        1
 92
        1
 93
        3
 72
     2
 10
0.0
 20
-0.0000000000000018
 40
0.4502381196756812
 50
270.0
 51
360.0
 73
     1
 72
     1
 10
0.4502381196756815
 20
-0.0000000000000018
 11
0.0000000000000038
 21
-0.0000000000000018
 72
     1
 10
0.0
 20
-0.0000000000000018
 11
0.0
 21
-0.4502381196756812
 97
        0
 75
     0
 76
     1
 98
        0
  0
CIRCLE
  5
4F
330
4C
100
AcDbEntity
  8
SK2
  6
Continuous
 62
     7
100
AcDbCircle
 10
0.0
 20
0.0
 30
0.0
 40
0.4502381196756812
  0
LINE
  5
50
330
4C
100
AcDbEntity
  8
SK1
  6
Continuous
100
AcDbLine
 10
-0.4502381197
 20
0.0
 30
0.0
 11
0.4502381197
 21
0.0
 31
0.0
  0
LINE
  5
51
330
4C
100
AcDbEntity
  8
SK1
  6
Continuous
100
AcDbLine
 10
0.0
 20
0.4502381197
 30
0.0
 11
0.0
 21
-0.4502381197
 31
0.0
  0
POINT
  5
52
330
4C
100
AcDbEntity
  8
SK2
  6
Continuous
 62
     7
100
AcDbPoint
 10
0.0
 20
0.0
 30
0.0
  0
POINT
  5
53
330
4C
100
AcDbEntity
  8
SK2
  6
Continuous
 62
     7
100
AcDbPoint
 10
0.0
 20
0.0
 30
0.0
  0
ENDBLK
  5
55
330
4C
100
AcDbEntity
  8
0
100
AcDbBlockEnd
  0
BLOCK
  5
106
330
105
100
AcDbEntity
  8
0
100
AcDbBlockBegin
  2
_OBLIQUE
 70
     0
 10
0.0
 20
0.0
 30
0.0
  3
_OBLIQUE
  1

  0
LINE
  5
108
330
105
100
AcDbEntity
  8
0
  6
ByBlock
 62
     0
370
    -2
100
AcDbLine
 10
-0.5
 20
-0.5
 30
0.0
 11
0.5
 21
0.5
 31
0.0
  0
ENDBLK
  5
107
330
105
100
AcDbEntity
  8
0
100
AcDbBlockEnd
  0
BLOCK
  5
10A
330
109
100
AcDbEntity
  8
0
100
AcDbBlockBegin
  2
_DOT
 70
     0
 10
0.0
 20
0.0
 30
0.0
  3
_DOT
  1

  0
POLYLINE
  5
10C
330
109
100
AcDbEntity
  8
0
  6
ByBlock
 62
     0
100
AcDb2dPolyline
 66
     1
 10
0.0
 20
0.0
 30
0.0
 70
     1
 40
0.5
 41
0.5
  0
VERTEX
  5
10E
330
10C
100
AcDbEntity
  8
0
  6
ByBlock
 62
     0
100
AcDbVertex
100
AcDb2dVertex
 10
-0.25
 20
0.0
 30
0.0
 42
1.0
  0
VERTEX
  5
10F
330
10C
100
AcDbEntity
  8
0
  6
ByBlock
 62
     0
100
AcDbVertex
100
AcDb2dVertex
 10
0.25
 20
0.0
 30
0.0
 42
1.0
  0
SEQEND
  5
110
330
10C
100
AcDbEntity
  8
0
  6
ByBlock
 62
     0
  0
LINE
  5
10D
330
109
100
AcDbEntity
  8
0
  6
ByBlock
 62
     0
370
    -2
100
AcDbLine
 10
-0.5
 20
0.0
 30
0.0
 11
-1.0
 21
0.0
 31
0.0
  0
ENDBLK
  5
10B
330
109
100
AcDbEntity
  8
0
100
AcDbBlockEnd
  0
BLOCK
  5
114
330
111
100
AcDbEntity
  8
0
100
AcDbBlockBegin
  2
_SE_FILLED
 70
     0
 10
0.0
 20
0.0
 30
0.0
  3
_SE_FILLED
  1

  0
SOLID
  5
112
330
111
100
AcDbEntity
  8
0
 62
     0
100
AcDbTrace
 10
0.0
 20
0.0
 30
0.0
 11
-1.0
 21
-0.1665
 31
0.0
 12
-1.0
 22
0.1665
 32
0.0
 13
0.0
 23
0.0
 33
0.0
  0
LINE
  5
113
330
111
100
AcDbEntity
  8
0
 62
     0
100
AcDbLine
 10
0.0
 20
0.0
 30
0.0
 11
-1.0
 21
0.0
 31
0.0
  0
ENDBLK
  5
115
330
111
100
AcDbEntity
  8
0
100
AcDbBlockEnd
  0
BLOCK
  5
121
330
119
100
AcDbEntity
  8
0
100
AcDbBlockBegin
  2
DMBLK37
 70
     0
 10
0.0
 20
0.0
 30
0.0
  3
DMBLK37
  1

  0
HATCH
  5
11A
330
119
100
AcDbEntity
  8
SK2
  6
Continuous
 62
   136
100
AcDbHatch
 10
0.0
 20
0.0
 30
0.0
210
0.0
220
0.0
230
1.0
  2
SOLID
 70
     1
 71
     0
 91
        1
 92
        1
 93
        3
 72
     1
 10
18.70508086295801
 20
8.160000207803904
 11
17.5384141602802
 21
8.160000207803904
 72
     1
 10
17.5384141602802
 20
8.160000207803904
 11
18.12174751161911
 21
4.660000099770484
 72
     1
 10
18.12174751161911
 20
4.660000099770484
 11
18.70508086295801
 21
8.160000207803904
 97
        0
 75
     0
 76
     1
 98
        0
  0
HATCH
  5
11B
330
119
100
AcDbEntity
  8
SK2
  6
Continuous
 62
   136
100
AcDbHatch
 10
0.0
 20
0.0
 30
0.0
210
0.0
220
0.0
230
1.0
  2
SOLID
 70
     1
 71
     0
 91
        1
 92
        1
 93
        3
 72
     1
 10
18.70508086295801
 20
-8.160000008262932
 11
18.12174751161911
 21
-4.659999900229515
 72
     1
 10
18.12174751161911
 20
-4.659999900229515
 11
17.5384141602802
 21
-8.160000008262932
 72
     1
 10
17.5384141602802
 20
-8.160000008262932
 11
18.70508086295801
 21
-8.160000008262932
 97
        0
 75
     0
 76
     1
 98
        0
  0
LINE
  5
11C
330
119
100
AcDbEntity
  8
SK2
  6
Continuous
 62
   136
100
AcDbLine
 10
7.8
 20
4.6600000998
 30
0.0
 11
19.8717475656
 21
4.6600000998
 31
0.0
  0
LINE
  5
11D
330
119
100
AcDbEntity
  8
SK2
  6
Continuous
 62
   136
100
AcDbLine
 10
7.8
 20
-4.6599999002
 30
0.0
 11
19.8717475656
 21
-4.6599999002
 31
0.0
  0
LINE
  5
11E
330
119
100
AcDbEntity
  8
SK2
  6
Continuous
 62
   136
100
AcDbLine
 10
18.1217475116
 20
22.7368483385
 30
0.0
 11
18.1217475116
 21
-11.6599993715
 31
0.0
  0
TEXT
  5
11F
330
119
100
AcDbEntity
  8
SK2
  6
Continuous
 62
   136
100
AcDbText
 10
17.2467475116
 20
14.7504837735
 30
0.0
 40
3.5
  1
9,32
 50
90.0
  7
SEACAD_Solid_Edge_ISO
 11
13.7467475116
 21
14.7504837735
 31
0.0
100
AcDbText
 73
     3
  0
TEXT
  5
120
330
119
100
AcDbEntity
  8
SK2
  6
Continuous
 62
   136
100
AcDbText
 10
17.2467475116
 20
10.6777565008
 30
0.0
 40
3.5
  1
ø
 50
90.0
  7
SEACAD_Solid_Edge_ISO
 11
13.7467475116
 21
10.6777565008
 31
0.0
100
AcDbText
 73
     3
  0
ENDBLK
  5
122
330
119
100
AcDbEntity
  8
0
100
AcDbBlockEnd
  0
BLOCK
  5
12B
330
124
100
AcDbEntity
  8
0
100
AcDbBlockBegin
  2
DMBLK38
 70
     0
 10
0.0
 20
0.0
 30
0.0
  3
DMBLK38
  1

  0
HATCH
  5
125
330
124
100
AcDbEntity
  8
SK2
  6
Continuous
 62
   136
100
AcDbHatch
 10
0.0
 20
0.0
 30
0.0
210
0.0
220
0.0
230
1.0
  2
SOLID
 70
     1
 71
     0
 91
        1
 92
        1
 93
        3
 72
     1
 10
4.599999891961054
 20
20.28034960011756
 11
4.599999891961054
 21
19.11368289743975
 72
     1
 10
4.599999891961054
 20
19.11368289743975
 11
8.099999999994473
 21
19.69701624877866
 72
     1
 10
8.099999999994473
 20
19.69701624877866
 11
4.599999891961055
 21
20.28034960011756
 97
        0
 75
     0
 76
     1
 98
        0
  0
HATCH
  5
126
330
124
100
AcDbEntity
  8
SK2
  6
Continuous
 62
   136
100
AcDbHatch
 10
0.0
 20
0.0
 30
0.0
210
0.0
220
0.0
230
1.0
  2
SOLID
 70
     1
 71
     0
 91
        1
 92
        1
 93
        3
 72
     1
 10
-22.4000017397161
 20
20.28034960011756
 11
-25.90000184774951
 21
19.69701624877866
 72
     1
 10
-25.90000184774951
 20
19.69701624877866
 11
-22.4000017397161
 21
19.11368289743975
 72
     1
 10
-22.4000017397161
 20
19.11368289743975
 11
-22.4000017397161
 21
20.28034960011756
 97
        0
 75
     0
 76
     1
 98
        0
  0
LINE
  5
127
330
124
100
AcDbEntity
  8
SK2
  6
Continuous
 62
   136
100
AcDbLine
 10
8.1
 20
10.1189111865
 30
0.0
 11
8.1
 21
21.4470163028
 31
0.0
  0
LINE
  5
128
330
124
100
AcDbEntity
  8
SK2
  6
Continuous
 62
   136
100
AcDbLine
 10
-25.9
 20
8.5506415708
 30
0.0
 11
-25.9
 21
21.4470163028
 31
0.0
  0
LINE
  5
129
330
124
100
AcDbEntity
  8
SK2
  6
Continuous
 62
   136
100
AcDbLine
 10
8.1
 20
19.6970162488
 30
0.0
 11
-25.9000018477
 21
19.6970162488
 31
0.0
  0
TEXT
  5
12A
330
124
100
AcDbEntity
  8
SK2
  6
Continuous
 62
   136
100
AcDbText
 10
-10.8488645602
 20
20.5720162488
 30
0.0
 40
3.5
  1
34
  7
SEACAD_Solid_Edge_ISO
 11
-10.8488645602
 21
24.0720162488
 31
0.0
100
AcDbText
 73
     3
  0
ENDBLK
  5
12C
330
124
100
AcDbEntity
  8
0
100
AcDbBlockEnd
  0
BLOCK
  5
136
330
12E
100
AcDbEntity
  8
0
100
AcDbBlockBegin
  2
DMBLK39
 70
     0
 10
0.0
 20
0.0
 30
0.0
  3
DMBLK39
  1

  0
HATCH
  5
12F
330
12E
100
AcDbEntity
  8
SK2
  6
Continuous
 62
   136
100
AcDbHatch
 10
0.0
 20
0.0
 30
0.0
210
0.0
220
0.0
230
1.0
  2
SOLID
 70
     1
 71
     0
 91
        1
 92
        1
 93
        3
 72
     1
 10
-32.84231332752871
 20
8.993598352498605
 11
-31.67564662485091
 21
8.993598352498605
 72
     1
 10
-31.67564662485091
 20
8.993598352498605
 11
-32.25897997618981
 21
12.49359846053202
 72
     1
 10
-32.25897997618981
 20
12.49359846053202
 11
-32.84231332752871
 21
8.993598352498605
 97
        0
 75
     0
 76
     1
 98
        0
  0
HATCH
  5
130
330
12E
100
AcDbEntity
  8
SK2
  6
Continuous
 62
   136
100
AcDbHatch
 10
0.0
 20
0.0
 30
0.0
210
0.0
220
0.0
230
1.0
  2
SOLID
 70
     1
 71
     0
 91
        1
 92
        1
 93
        3
 72
     1
 10
-32.84231332752871
 20
-8.993597981207774
 11
-32.25897997618981
 21
-12.49359808924119
 72
     1
 10
-32.25897997618981
 20
-12.49359808924119
 11
-31.67564662485091
 21
-8.993597981207774
 72
     1
 10
-31.67564662485091
 20
-8.993597981207774
 11
-32.84231332752871
 21
-8.993597981207774
 97
        0
 75
     0
 76
     1
 98
        0
  0
LINE
  5
131
330
12E
100
AcDbEntity
  8
SK2
  6
Continuous
 62
   136
100
AcDbLine
 10
0.0
 20
12.4935984605
 30
0.0
 11
-34.0089800302
 21
12.4935984605
 31
0.0
  0
LINE
  5
132
330
12E
100
AcDbEntity
  8
SK2
  6
Continuous
 62
   136
100
AcDbLine
 10
0.0
 20
-12.493598261
 30
0.0
 11
-34.0089800302
 21
-12.493598261
 31
0.0
  0
LINE
  5
133
330
12E
100
AcDbEntity
  8
SK2
  6
Continuous
 62
   136
100
AcDbLine
 10
-32.2589799762
 20
12.4935984605
 30
0.0
 11
-32.2589799762
 21
-12.4935980892
 31
0.0
  0
TEXT
  5
134
330
12E
100
AcDbEntity
  8
SK2
  6
Continuous
 62
   136
100
AcDbText
 10
-33.1339799762
 20
-0.0318179962
 30
0.0
 40
3.5
  1
25
 50
90.0
  7
SEACAD_Solid_Edge_ISO
 11
-36.6339799762
 21
-0.0318179962
 31
0.0
100
AcDbText
 73
     3
  0
TEXT
  5
135
330
12E
100
AcDbEntity
  8
SK2
  6
Continuous
 62
   136
100
AcDbText
 10
-33.1339799762
 20
-4.1045452689
 30
0.0
 40
3.5
  1
ø
 50
90.0
  7
SEACAD_Solid_Edge_ISO
 11
-36.6339799762
 21
-4.1045452689
 31
0.0
100
AcDbText
 73
     3
  0
ENDBLK
  5
137
330
12E
100
AcDbEntity
  8
0
100
AcDbBlockEnd
  0
BLOCK
  5
140
330
139
100
AcDbEntity
  8
0
100
AcDbBlockBegin
  2
DMBLK40
 70
     0
 10
0.0
 20
0.0
 30
0.0
  3
DMBLK40
  1

  0
HATCH
  5
13A
330
139
100
AcDbEntity
  8
SK2
  6
Continuous
 62
   136
100
AcDbHatch
 10
0.0
 20
0.0
 30
0.0
210
0.0
220
0.0
230
1.0
  2
SOLID
 70
     1
 71
     0
 91
        1
 92
        1
 93
        3
 72
     1
 10
-3.5000001080281
 20
-20.47815118148777
 11
0.0000000000053189
 21
-19.89481783014887
 72
     1
 10
0.0000000000053187
 20
-19.89481783014887
 11
-3.5000001080281
 21
-19.31148447880997
 72
     1
 10
-3.5000001080281
 20
-19.31148447880997
 11
-3.5000001080281
 21
-20.47815118148777
 97
        0
 75
     0
 76
     1
 98
        0
  0
HATCH
  5
13B
330
139
100
AcDbEntity
  8
SK2
  6
Continuous
 62
   136
100
AcDbHatch
 10
0.0
 20
0.0
 30
0.0
210
0.0
220
0.0
230
1.0
  2
SOLID
 70
     1
 71
     0
 91
        1
 92
        1
 93
        3
 72
     1
 10
11.6000001080387
 20
-20.47815118148777
 11
11.6000001080387
 21
-19.31148447880997
 72
     1
 10
11.6000001080387
 20
-19.31148447880997
 11
8.100000000005284
 21
-19.89481783014887
 72
     1
 10
8.100000000005284
 20
-19.89481783014887
 11
11.6000001080387
 21
-20.47815118148777
 97
        0
 75
     0
 76
     1
 98
        0
  0
LINE
  5
13C
330
139
100
AcDbEntity
  8
SK2
  6
Continuous
 62
   136
100
AcDbLine
 10
0.0
 20
-12.493598261
 30
0.0
 11
0.0
 21
-21.6448178842
 31
0.0
  0
LINE
  5
13D
330
139
100
AcDbEntity
  8
SK2
  6
Continuous
 62
   136
100
AcDbLine
 10
8.1
 20
-10.118910987
 30
0.0
 11
8.1
 21
-21.6448178842
 31
0.0
  0
LINE
  5
13E
330
139
100
AcDbEntity
  8
SK2
  6
Continuous
 62
   136
100
AcDbLine
 10
-11.5487724543
 20
-19.8948178301
 30
0.0
 11
15.1000004262
 21
-19.8948178301
 31
0.0
  0
TEXT
  5
13F
330
139
100
AcDbEntity
  8
SK2
  6
Continuous
 62
   136
100
AcDbText
 10
-10.3237721444
 20
-19.0198178301
 30
0.0
 40
3.5
  1
8,1
  7
SEACAD_Solid_Edge_ISO
 11
-10.3237721444
 21
-15.5198178301
 31
0.0
100
AcDbText
 73
     3
  0
ENDBLK
  5
141
330
139
100
AcDbEntity
  8
0
100
AcDbBlockEnd
  0
ENDSEC
  0
SECTION
  2
ENTITIES
  0
INSERT
  5
4B
330
1F
100
AcDbEntity
  8
SK2
 62
     7
100
AcDbBlockReference
  2
Nullpunkt
 10
0.0
 20
0.0000000998
 30
0.0
  0
INSERT
  5
56
330
1F
100
AcDbEntity
  8
SK2
 62
     7
100
AcDbBlockReference
  2
Einfügepunkt
 10
8.1
 20
0.0000000998
 30
0.0
  0
LINE
  5
57
330
1F
100
AcDbEntity
  8
SK1
  6
Continuous
100
AcDbLine
 10
2.9
 20
-7.4901874849
 30
0.0
 11
2.9
 21
7.4901876844
 31
0.0
  0
LINE
  5
5A
330
1F
100
AcDbEntity
  8
SK3
100
AcDbLine
 10
-14.2484827557
 20
-3.86651828
 30
0.0
 11
-14.2484827557
 21
-3.2036729741
 31
0.0
  0
LINE
  5
5B
330
1F
100
AcDbEntity
  8
SK3
100
AcDbLine
 10
-14.2484827557
 20
1.5074932571
 30
0.0
 11
-14.2484827557
 21
2.6379877487
 31
0.0
  0
LINE
  5
5C
330
1F
100
AcDbEntity
  8
SK3
100
AcDbLine
 10
-13.8154700538
 20
-4.8744699542
 30
0.0
 11
-22.1
 21
-4.8744699542
 31
0.0
  0
LINE
  5
5D
330
1F
100
AcDbEntity
  8
SK3
100
AcDbLine
 10
-13.8154700538
 20
-4.8744699542
 30
0.0
 11
-13.8154700538
 21
-4.8836460791
 31
0.0
  0
ARC
  5
5E
330
1F
100
AcDbEntity
  8
SK3
100
AcDbCircle
 10
-7.6957202636
 20
-3.7255518792
 30
0.0
 40
6.917982452627229
100
AcDbArc
 50
152.2041579209
 51
161.2994423352
  0
LINE
  5
5F
330
1F
100
AcDbEntity
  8
SK3
100
AcDbLine
 10
-14.2484827557
 20
-1.5074930575
 30
0.0
 11
-22.1
 21
-1.5074930576
 31
0.0
  0
LINE
  5
60
330
1F
100
AcDbEntity
  8
SK3
100
AcDbLine
 10
-22.1
 20
-3.86651828
 30
0.0
 11
-14.2484827557
 21
-3.86651828
 31
0.0
  0
ARC
  5
61
330
1F
100
AcDbEntity
  8
SK3
100
AcDbCircle
 10
-7.6930591656
 20
-1.6473162594
 30
0.0
 40
6.920869602416769
100
AcDbArc
 50
198.7024587768
 51
207.7939409672
  0
LINE
  5
62
330
1F
100
AcDbEntity
  8
SK3
100
AcDbLine
 10
-13.8154700538
 20
-0.4995413833
 30
0.0
 11
-22.1
 21
-0.4995413833
 31
0.0
  0
LINE
  5
63
330
1F
100
AcDbEntity
  8
SK3
100
AcDbLine
 10
-13.8154700538
 20
0.4995415828
 30
0.0
 11
-22.1
 21
0.4995415828
 31
0.0
  0
LINE
  5
64
330
1F
100
AcDbEntity
  8
SK3
100
AcDbLine
 10
-13.8154700538
 20
0.4995415828
 30
0.0
 11
-13.8154700538
 21
0.4000000998
 31
0.0
  0
ARC
  5
65
330
1F
100
AcDbEntity
  8
SK3
100
AcDbCircle
 10
-7.6957202636
 20
1.6484596578
 30
0.0
 40
6.917982452622735
100
AcDbArc
 50
152.2041579209
 51
161.2994423352
  0
LINE
  5
66
330
1F
100
AcDbEntity
  8
SK3
100
AcDbLine
 10
-14.2484827557
 20
3.8665184795
 30
0.0
 11
-22.1
 21
3.8665184795
 31
0.0
  0
LINE
  5
67
330
1F
100
AcDbEntity
  8
SK3
100
AcDbLine
 10
-22.1
 20
1.507493257
 30
0.0
 11
-14.2484827557
 21
1.5074932571
 31
0.0
  0
ARC
  5
68
330
1F
100
AcDbEntity
  8
SK3
100
AcDbCircle
 10
-7.6930591656
 20
3.7266952776
 30
0.0
 40
6.920869602421492
100
AcDbArc
 50
198.7024587768
 51
207.7939409672
  0
LINE
  5
69
330
1F
100
AcDbEntity
  8
SK3
100
AcDbLine
 10
-13.8154700538
 20
4.8744701537
 30
0.0
 11
-22.1
 21
4.8744701537
 31
0.0
  0
LINE
  5
6A
330
1F
100
AcDbEntity
  8
SK1
  6
Continuous
100
AcDbLine
 10
-25.6029195794
 20
-0.3999999003
 30
0.0
 11
-25.6029195794
 21
-8.8927526679
 31
0.0
  0
LINE
  5
6B
330
1F
100
AcDbEntity
  8
SK1
  6
Continuous
100
AcDbLine
 10
7.975
 20
-7.0199256221
 30
0.0
 11
7.975
 21
7.0199258217
 31
0.0
  0
LINE
  5
6C
330
1F
100
AcDbEntity
  8
SK1
  6
Continuous
100
AcDbLine
 10
8.1
 20
7.4324008959
 30
0.0
 11
8.1
 21
10.1189111865
 31
0.0
  0
LINE
  5
6D
330
1F
100
AcDbEntity
  8
SK1
  6
Continuous
100
AcDbLine
 10
8.1
 20
-7.4324006963
 30
0.0
 11
8.1
 21
-10.118910987
 31
0.0
  0
SPLINE
  5
6E
330
1F
100
AcDbEntity
  8
SK1
  6
Continuous
100
AcDbSpline
210
0.0
220
0.0
230
1.0
 70
     8
 71
     3
 72
    10
 73
     6
 74
     0
 42
0.0000000469979642
 43
0.0000000001
 12
1.0
 22
0.0
 32
0.0
 13
1.0
 23
0.0
 33
0.0
 40
0.0
 40
0.0
 40
0.0
 40
0.0
 40
0.5
 40
0.5
 40
1.0
 40
1.0
 40
1.0
 40
1.0
 10
8.10000000000571
 20
-7.432400696312106
 30
0.0
 10
8.100000000004524
 20
-7.463135379114853
 30
0.0
 10
8.08839623043664
 20
-7.49401457803765
 30
0.0
 10
8.044668043707889
 20
-7.547636873665593
 30
0.0
 10
8.012795374075562
 20
-7.570169581491792
 30
0.0
 10
7.975000000004679
 20
-7.585611047060165
 30
0.0
  0
SPLINE
  5
6F
330
1F
100
AcDbEntity
  8
SK1
  6
Continuous
100
AcDbSpline
210
0.0
220
0.0
230
1.0
 70
     8
 71
     3
 72
    10
 73
     6
 74
     0
 42
0.0000000469979642
 43
0.0000000001
 12
1.0
 22
0.0
 32
0.0
 13
1.0
 23
0.0
 33
0.0
 40
0.0
 40
0.0
 40
0.0
 40
0.0
 40
0.5
 40
0.5
 40
1.0
 40
1.0
 40
1.0
 40
1.0
 10
8.10000000000547
 20
-6.866715271362869
 30
0.0
 10
8.100000000004288
 20
-6.897449954165615
 30
0.0
 10
8.0883962304364
 20
-6.928329153088411
 30
0.0
 10
8.04466804370765
 20
-6.981951448716355
 30
0.0
 10
8.012795374075322
 20
-7.004484156542553
 30
0.0
 10
7.975000000004441
 20
-7.019925622110928
 30
0.0
  0
LINE
  5
70
330
1F
100
AcDbEntity
  8
SK1
  6
Continuous
100
AcDbLine
 10
0.0
 20
-8.5514653101
 30
0.0
 11
0.0
 21
-0.3999999002
 31
0.0
  0
LINE
  5
71
330
1F
100
AcDbEntity
  8
SK1
  6
Continuous
100
AcDbLine
 10
-23.4
 20
-6.7901026701
 30
0.0
 11
-23.4
 21
-6.2244172451
 31
0.0
  0
LINE
  5
72
330
1F
100
AcDbEntity
  8
SK1
  6
Continuous
100
AcDbLine
 10
3.1
 20
-9.0113085745
 30
0.0
 11
3.1
 21
9.0113087741
 31
0.0
  0
LINE
  5
73
330
1F
100
AcDbEntity
  8
SK3
100
AcDbLine
 10
-22.1
 20
-3.3832177437
 30
0.0
 11
-22.1
 21
-0.3999999003
 31
0.0
  0
LINE
  5
74
330
1F
100
AcDbEntity
  8
SK3
100
AcDbLine
 10
-14.2484827557
 20
-2.6379875492
 30
0.0
 11
-14.2484827557
 21
-1.5074930575
 31
0.0
  0
LINE
  5
75
330
1F
100
AcDbEntity
  8
SK3
100
AcDbLine
 10
-13.7
 20
-3.3122927902
 30
0.0
 11
-13.7
 21
-0.3999999002
 31
0.0
  0
LINE
  5
76
330
1F
100
AcDbEntity
  8
SK3
100
AcDbLine
 10
-9.7
 20
-3.3122927902
 30
0.0
 11
-9.7
 21
-0.3999999002
 31
0.0
  0
LINE
  5
77
330
1F
100
AcDbEntity
  8
SK1
  6
Continuous
100
AcDbLine
 10
0.2
 20
-8.0558729098
 30
0.0
 11
0.2
 21
-10.9927247672
 31
0.0
  0
LINE
  5
78
330
1F
100
AcDbEntity
  8
SK3
100
AcDbLine
 10
-23.4
 20
-3.9503592855
 30
0.0
 11
-22.9
 21
-3.9503592855
 31
0.0
  0
LINE
  5
79
330
1F
100
AcDbEntity
  8
SK3
100
AcDbLine
 10
-22.1
 20
-2.6379875492
 30
0.0
 11
-14.2484827557
 21
-2.6379875492
 31
0.0
  0
LINE
  5
7A
330
1F
100
AcDbEntity
  8
SK3
100
AcDbLine
 10
-14.2484827557
 20
-2.6379875492
 30
0.0
 11
-13.7
 21
-3.3122927902
 31
0.0
  0
LINE
  5
7B
330
1F
100
AcDbEntity
  8
SK3
100
AcDbLine
 10
-13.7
 20
-3.3122927902
 30
0.0
 11
-9.7
 21
-3.3122927902
 31
0.0
  0
LINE
  5
7C
330
1F
100
AcDbEntity
  8
SK3
100
AcDbLine
 10
-9.7
 20
-3.0001131729
 30
0.0
 11
7.8
 21
-3.0001131728
 31
0.0
  0
SPLINE
  5
7D
330
1F
100
AcDbEntity
  8
SK3
100
AcDbSpline
210
0.0
220
0.0
230
1.0
 70
     8
 71
     3
 72
    10
 73
     6
 74
     0
 42
0.0000000240402952
 43
0.0000000001
 12
1.0
 22
0.0
 32
0.0
 13
1.0
 23
0.0
 33
0.0
 40
0.0
 40
0.0
 40
0.0
 40
0.0
 40
0.5
 40
0.5
 40
1.0
 40
1.0
 40
1.0
 40
1.0
 10
7.800000000000383
 20
-3.000113172838902
 30
0.0
 10
7.878500186962404
 20
-3.000113172839018
 30
0.0
 10
7.956545429099657
 20
-3.022966532236526
 30
0.0
 10
8.068033325192271
 20
-3.102199125222128
 30
0.0
 10
8.100000000000527
 20
-3.157408845136881
 30
0.0
 10
8.100000000000582
 20
-3.212983270385223
 30
0.0
  0
SPLINE
  5
7E
330
1F
100
AcDbEntity
  8
SK1
  6
Continuous
100
AcDbSpline
210
0.0
220
0.0
230
1.0
 70
     8
 71
     3
 72
    14
 73
    10
 74
     0
 42
0.0000000004252528
 43
0.0000000001
 12
1.0
 22
0.0
 32
0.0
 13
1.0
 23
0.0
 33
0.0
 40
0.0
 40
0.0
 40
0.0
 40
0.0
 40
0.1618358887361326
 40
0.1618358887361326
 40
0.1618358887361326
 40
0.8764090092690368
 40
0.8764090092690368
 40
0.8764090092690368
 40
1.0
 40
1.0
 40
1.0
 40
1.0
 10
0.000000000005081
 20
-8.55146531008006
 30
0.0
 10
-1.262324412920349
 20
-8.425954542711413
 30
0.0
 10
-2.524648292818106
 20
-8.3004410948424
 30
0.0
 10
-3.786971565139564
 20
-8.174924591795762
 30
0.0
 10
-9.360656653159866
 20
-7.62071674609477
 30
0.0
 10
-14.93433058729054
 20
-7.066452802543631
 30
0.0
 10
-20.5079825150482
 20
-6.512078235533104
 30
0.0
 10
-21.47198905842185
 20
-6.416194833231539
 30
0.0
 10
-22.43599491837563
 20
-6.320307995315789
 30
0.0
 10
-23.39999999999728
 20
-6.224417245113671
 30
0.0
  0
LINE
  5
7F
330
1F
100
AcDbEntity
  8
SK3
100
AcDbLine
 10
-23.4
 20
-3.9503592855
 30
0.0
 11
-23.4
 21
-6.2244172451
 31
0.0
  0
SPLINE
  5
80
330
1F
100
AcDbEntity
  8
SK1
  6
Continuous
100
AcDbSpline
210
0.0
220
0.0
230
1.0
 70
     8
 71
     3
 72
    10
 73
     6
 74
     0
 42
0.0000000360977188
 43
0.0000000001
 12
1.0
 22
0.0
 32
0.0
 13
1.0
 23
0.0
 33
0.0
 40
0.0
 40
0.0
 40
0.0
 40
0.0
 40
0.5
 40
0.5
 40
1.0
 40
1.0
 40
1.0
 40
1.0
 10
0.0000000000050602
 20
-7.631700762724239
 30
0.0
 10
0.0000000000050238
 20
-7.594638622166927
 30
0.0
 10
0.0214563595477175
 20
-7.557908929259048
 30
0.0
 10
0.0956674754094278
 20
-7.505386961529518
 30
0.0
 10
0.1476424570185896
 20
-7.490187484883892
 30
0.0
 10
0.2000000000049202
 20
-7.490187484883855
 30
0.0
  0
LINE
  5
81
330
1F
100
AcDbEntity
  8
SK1
  6
Continuous
100
AcDbLine
 10
0.2
 20
-7.4901874849
 30
0.0
 11
2.9
 21
-7.4901874849
 31
0.0
  0
SPLINE
  5
82
330
1F
100
AcDbEntity
  8
SK1
  6
Continuous
100
AcDbSpline
210
0.0
220
0.0
230
1.0
 70
     8
 71
     3
 72
    10
 73
     6
 74
     0
 42
0.0000000361066889
 43
0.0000000001
 12
1.0
 22
0.0
 32
0.0
 13
1.0
 23
0.0
 33
0.0
 40
0.0
 40
0.0
 40
0.0
 40
0.0
 40
0.5
 40
0.5
 40
1.0
 40
1.0
 40
1.0
 40
1.0
 10
2.90000000000197
 20
-7.490187484867517
 30
0.0
 10
2.952107763789492
 20
-7.490187484881239
 30
0.0
 10
3.004318976885077
 20
-7.505427768240956
 30
0.0
 10
3.078285038842508
 20
-7.55767569750398
 30
0.0
 10
3.100000000005024
 20
-7.594863972786592
 30
0.0
 10
3.100000000005062
 20
-7.631700762722017
 30
0.0
  0
SPLINE
  5
83
330
1F
100
AcDbEntity
  8
SK1
  6
Continuous
100
AcDbSpline
210
0.0
220
0.0
230
1.0
 70
     8
 71
     3
 72
     8
 73
     4
 74
     0
 42
0.0000000018989583
 43
0.0000000001
 12
1.0
 22
0.0
 32
0.0
 13
1.0
 23
0.0
 33
0.0
 40
0.0
 40
0.0
 40
0.0
 40
0.0
 40
1.0
 40
1.0
 40
1.0
 40
1.0
 10
3.10000000000646
 20
-9.011308574522092
 30
0.0
 10
4.725051290385951
 20
-8.347577026803089
 30
0.0
 10
6.350065306290051
 20
-7.683799806205267
 30
0.0
 10
7.975000000004441
 20
-7.019925622110928
 30
0.0
  0
SPLINE
  5
84
330
1F
100
AcDbEntity
  8
SK3
100
AcDbSpline
210
0.0
220
0.0
230
1.0
 70
     8
 71
     3
 72
    10
 73
     6
 74
     0
 42
0.0000000090172594
 43
0.0000000001
 12
1.0
 22
0.0
 32
0.0
 13
1.0
 23
0.0
 33
0.0
 40
0.0
 40
0.0
 40
0.0
 40
0.0
 40
0.5
 40
0.5
 40
1.0
 40
1.0
 40
1.0
 40
1.0
 10
-22.09999999999925
 20
-3.383217743741001
 30
0.0
 10
-22.09999999999908
 20
-3.531601205439408
 30
0.0
 10
-22.18516013530311
 20
-3.678406093842442
 30
0.0
 10
-22.48261054078311
 20
-3.889563690474535
 30
0.0
 10
-22.69031899914309
 20
-3.950359285480101
 30
0.0
 10
-22.89999999999867
 20
-3.950359285480273
 30
0.0
  0
LINE
  5
85
330
1F
100
AcDbEntity
  8
SK1
  6
Continuous
100
AcDbLine
 10
0.0
 20
-9.117150735
 30
0.0
 11
0.0
 21
-8.5514653101
 31
0.0
  0
SPLINE
  5
86
330
1F
100
AcDbEntity
  8
SK1
  6
Continuous
100
AcDbSpline
210
0.0
220
0.0
230
1.0
 70
     8
 71
     3
 72
    10
 73
     6
 74
     0
 42
0.0000000360977188
 43
0.0000000001
 12
1.0
 22
0.0
 32
0.0
 13
1.0
 23
0.0
 33
0.0
 40
0.0
 40
0.0
 40
0.0
 40
0.0
 40
0.5
 40
0.5
 40
1.0
 40
1.0
 40
1.0
 40
1.0
 10
0.0000000000052978
 20
-8.197386187673478
 30
0.0
 10
0.0000000000052632
 20
-8.160324047116164
 30
0.0
 10
0.0214563595479552
 20
-8.123594354208286
 30
0.0
 10
0.0956674754096654
 20
-8.071072386478757
 30
0.0
 10
0.1476424570188272
 20
-8.05587290983313
 30
0.0
 10
0.2000000000051579
 20
-8.055872909833093
 30
0.0
  0
LINE
  5
87
330
1F
100
AcDbEntity
  8
SK1
  6
Continuous
100
AcDbLine
 10
0.2
 20
-8.0558729098
 30
0.0
 11
2.9
 21
-8.0558729098
 31
0.0
  0
SPLINE
  5
88
330
1F
100
AcDbEntity
  8
SK1
  6
Continuous
100
AcDbSpline
210
0.0
220
0.0
230
1.0
 70
     8
 71
     3
 72
    10
 73
     6
 74
     0
 42
0.0000000361066889
 43
0.0000000001
 12
1.0
 22
0.0
 32
0.0
 13
1.0
 23
0.0
 33
0.0
 40
0.0
 40
0.0
 40
0.0
 40
0.0
 40
0.5
 40
0.5
 40
1.0
 40
1.0
 40
1.0
 40
1.0
 10
2.900000000002208
 20
-8.055872909816756
 30
0.0
 10
2.95210776378973
 20
-8.055872909830477
 30
0.0
 10
3.004318976885314
 20
-8.071113193190195
 30
0.0
 10
3.078285038842745
 20
-8.12336112245322
 30
0.0
 10
3.100000000005262
 20
-8.16054939773583
 30
0.0
 10
3.1000000000053
 20
-8.197386187671254
 30
0.0
  0
LINE
  5
89
330
1F
100
AcDbEntity
  8
SK1
  6
Continuous
100
AcDbLine
 10
3.1
 20
-9.0113085745
 30
0.0
 11
3.1
 21
-9.5769939995
 31
0.0
  0
SPLINE
  5
8A
330
1F
100
AcDbEntity
  8
SK1
  6
Continuous
100
AcDbSpline
210
0.0
220
0.0
230
1.0
 70
     8
 71
     3
 72
     8
 73
     4
 74
     0
 42
0.0000000018989583
 43
0.0000000001
 12
1.0
 22
0.0
 32
0.0
 13
1.0
 23
0.0
 33
0.0
 40
0.0
 40
0.0
 40
0.0
 40
0.0
 40
1.0
 40
1.0
 40
1.0
 40
1.0
 10
3.100000000006698
 20
-9.57699399947133
 30
0.0
 10
4.725051290386189
 20
-8.913262451752328
 30
0.0
 10
6.350065306290288
 20
-8.249485231154503
 30
0.0
 10
7.975000000004679
 20
-7.585611047060165
 30
0.0
  0
LINE
  5
8B
330
1F
100
AcDbEntity
  8
SK1
  6
Continuous
100
AcDbLine
 10
8.1
 20
-7.4324006963
 30
0.0
 11
8.1
 21
-6.8667152714
 31
0.0
  0
SPLINE
  5
8C
330
1F
100
AcDbEntity
  8
SK3
100
AcDbSpline
210
0.0
220
0.0
230
1.0
 70
     8
 71
     3
 72
    10
 73
     6
 74
     0
 42
0.0000000090172594
 43
0.0000000001
 12
1.0
 22
0.0
 32
0.0
 13
1.0
 23
0.0
 33
0.0
 40
0.0
 40
0.0
 40
0.0
 40
0.0
 40
0.5
 40
0.5
 40
1.0
 40
1.0
 40
1.0
 40
1.0
 10
-22.09999999999901
 20
-3.948903168690238
 30
0.0
 10
-22.09999999999885
 20
-4.097286630388645
 30
0.0
 10
-22.18516013530288
 20
-4.244091518791679
 30
0.0
 10
-22.48261054078286
 20
-4.455249115423773
 30
0.0
 10
-22.69031899914285
 20
-4.51604471042934
 30
0.0
 10
-22.89999999999844
 20
-4.516044710429511
 30
0.0
  0
LINE
  5
8D
330
1F
100
AcDbEntity
  8
SK3
100
AcDbLine
 10
-23.4
 20
-4.5160447104
 30
0.0
 11
-22.9
 21
-4.5160447104
 31
0.0
  0
LINE
  5
8E
330
1F
100
AcDbEntity
  8
SK3
100
AcDbLine
 10
-22.1
 20
-3.9489031687
 30
0.0
 11
-22.1
 21
-3.3832177437
 31
0.0
  0
LINE
  5
8F
330
1F
100
AcDbEntity
  8
SK3
100
AcDbLine
 10
-22.1
 20
-3.2036729741
 30
0.0
 11
-14.2484827557
 21
-3.2036729741
 31
0.0
  0
LINE
  5
90
330
1F
100
AcDbEntity
  8
SK3
100
AcDbLine
 10
-14.2484827557
 20
-3.2036729741
 30
0.0
 11
-13.7
 21
-3.8779782152
 31
0.0
  0
LINE
  5
91
330
1F
100
AcDbEntity
  8
SK3
100
AcDbLine
 10
-13.7
 20
-3.8779782152
 30
0.0
 11
-9.7
 21
-3.8779782152
 31
0.0
  0
LINE
  5
92
330
1F
100
AcDbEntity
  8
SK3
100
AcDbLine
 10
-9.7
 20
-3.8779782152
 30
0.0
 11
-9.7
 21
-3.5657985978
 31
0.0
  0
LINE
  5
93
330
1F
100
AcDbEntity
  8
SK3
100
AcDbLine
 10
-9.7
 20
-3.5657985978
 30
0.0
 11
7.8
 21
-3.5657985978
 31
0.0
  0
SPLINE
  5
94
330
1F
100
AcDbEntity
  8
SK3
100
AcDbSpline
210
0.0
220
0.0
230
1.0
 70
     8
 71
     3
 72
    10
 73
     6
 74
     0
 42
0.0000000240402952
 43
0.0000000001
 12
1.0
 22
0.0
 32
0.0
 13
1.0
 23
0.0
 33
0.0
 40
0.0
 40
0.0
 40
0.0
 40
0.0
 40
0.5
 40
0.5
 40
1.0
 40
1.0
 40
1.0
 40
1.0
 10
7.800000000000622
 20
-3.56579859778814
 30
0.0
 10
7.87850018696264
 20
-3.565798597788256
 30
0.0
 10
7.956545429099897
 20
-3.588651957185764
 30
0.0
 10
8.068033325192507
 20
-3.667884550171367
 30
0.0
 10
8.100000000000767
 20
-3.723094270086119
 30
0.0
 10
8.100000000000822
 20
-3.778668695334461
 30
0.0
  0
SPLINE
  5
95
330
1F
100
AcDbEntity
  8
SK1
  6
Continuous
100
AcDbSpline
210
0.0
220
0.0
230
1.0
 70
     8
 71
     3
 72
    14
 73
    10
 74
     0
 42
0.0000000004252528
 43
0.0000000001
 12
1.0
 22
0.0
 32
0.0
 13
1.0
 23
0.0
 33
0.0
 40
0.0
 40
0.0
 40
0.0
 40
0.0
 40
0.1618358887361326
 40
0.1618358887361326
 40
0.1618358887361326
 40
0.8764090092690368
 40
0.8764090092690368
 40
0.8764090092690368
 40
1.0
 40
1.0
 40
1.0
 40
1.0
 10
0.0000000000053187
 20
-9.117150735029298
 30
0.0
 10
-1.262324412920112
 20
-8.991639967660651
 30
0.0
 10
-2.524648292817868
 20
-8.866126519791639
 30
0.0
 10
-3.786971565139327
 20
-8.740610016745
 30
0.0
 10
-9.360656653159628
 20
-8.186402171044008
 30
0.0
 10
-14.9343305872903
 20
-7.632138227492869
 30
0.0
 10
-20.50798251504796
 20
-7.077763660482341
 30
0.0
 10
-21.47198905842161
 20
-6.981880258180776
 30
0.0
 10
-22.43599491837538
 20
-6.885993420265028
 30
0.0
 10
-23.39999999999705
 20
-6.790102670062908
 30
0.0
  0
LINE
  5
96
330
1F
100
AcDbEntity
  8
SK1
  6
Continuous
100
AcDbLine
 10
-25.9
 20
0.4000000997
 30
0.0
 11
-25.9
 21
8.5506415708
 31
0.0
  0
LINE
  5
97
330
1F
100
AcDbEntity
  8
SK1
  6
Continuous
100
AcDbLine
 10
-25.9
 20
-0.3999999003
 30
0.0
 11
-25.6029195794
 21
-0.3999999003
 31
0.0
  0
LINE
  5
98
330
1F
100
AcDbEntity
  8
SK1
  6
Continuous
100
AcDbLine
 10
-25.9
 20
0.4000000997
 30
0.0
 11
-25.6029195794
 21
0.4000000997
 31
0.0
  0
LINE
  5
99
330
1F
100
AcDbEntity
  8
SK1
  6
Continuous
100
AcDbLine
 10
0.0
 20
0.4000000998
 30
0.0
 11
0.0
 21
8.5514655096
 31
0.0
  0
LINE
  5
9A
330
1F
100
AcDbEntity
  8
SK3
100
AcDbLine
 10
-13.8154700538
 20
-0.3999999002
 30
0.0
 11
-13.8154700538
 21
-0.4995413833
 31
0.0
  0
LINE
  5
9B
330
1F
100
AcDbEntity
  8
SK3
100
AcDbLine
 10
-22.1
 20
0.4000000997
 30
0.0
 11
-22.1
 21
3.3832179432
 31
0.0
  0
LINE
  5
9C
330
1F
100
AcDbEntity
  8
SK3
100
AcDbLine
 10
-13.7
 20
0.4000000998
 30
0.0
 11
-13.7
 21
3.3122929897
 31
0.0
  0
LINE
  5
9D
330
1F
100
AcDbEntity
  8
SK3
100
AcDbLine
 10
-9.7
 20
0.4000000998
 30
0.0
 11
-9.7
 21
3.3122929897
 31
0.0
  0
LINE
  5
9E
330
1F
100
AcDbEntity
  8
SK1
  6
Continuous
100
AcDbLine
 10
0.2
 20
-0.3999999002
 30
0.0
 11
0.2
 21
-7.4901874849
 31
0.0
  0
LINE
  5
9F
330
1F
100
AcDbEntity
  8
SK1
  6
Continuous
100
AcDbLine
 10
2.6
 20
0.4000000998
 30
0.0
 11
2.6
 21
-0.3999999002
 31
0.0
  0
LINE
  5
A0
330
1F
100
AcDbEntity
  8
SK1
  6
Continuous
100
AcDbLine
 10
2.6
 20
0.4000000998
 30
0.0
 11
0.2
 21
0.4000000998
 31
0.0
  0
LINE
  5
A1
330
1F
100
AcDbEntity
  8
SK1
  6
Continuous
100
AcDbLine
 10
0.2
 20
0.4000000998
 30
0.0
 11
0.0
 21
0.4000000998
 31
0.0
  0
LINE
  5
A2
330
1F
100
AcDbEntity
  8
SK1
  6
Continuous
100
AcDbLine
 10
-25.6029195794
 20
-0.3999999003
 30
0.0
 11
0.0
 21
-0.3999999002
 31
0.0
  0
LINE
  5
A3
330
1F
100
AcDbEntity
  8
SK1
  6
Continuous
100
AcDbLine
 10
-25.6029195794
 20
0.4000000997
 30
0.0
 11
0.0
 21
0.4000000998
 31
0.0
  0
LINE
  5
A4
330
1F
100
AcDbEntity
  8
SK1
  6
Continuous
100
AcDbLine
 10
2.6
 20
-0.3999999002
 30
0.0
 11
0.2
 21
-0.3999999002
 31
0.0
  0
LINE
  5
A5
330
1F
100
AcDbEntity
  8
SK1
  6
Continuous
100
AcDbLine
 10
0.2
 20
-0.3999999002
 30
0.0
 11
0.0
 21
-0.3999999002
 31
0.0
  0
LINE
  5
A6
330
1F
100
AcDbEntity
  8
SK1
  6
Continuous
100
AcDbLine
 10
8.1
 20
6.8667154709
 30
0.0
 11
8.1
 21
-6.8667152714
 31
0.0
  0
LINE
  5
A7
330
1F
100
AcDbEntity
  8
SK1
  6
Continuous
100
AcDbLine
 10
7.975
 20
10.3354175375
 30
0.0
 11
7.975
 21
7.5856112466
 31
0.0
  0
SPLINE
  5
A8
330
1F
100
AcDbEntity
  8
SK1
  6
Continuous
100
AcDbSpline
210
0.0
220
0.0
230
1.0
 70
     8
 71
     3
 72
    10
 73
     6
 74
     0
 42
0.0000000469997246
 43
0.0000000001
 12
1.0
 22
0.0
 32
0.0
 13
1.0
 23
0.0
 33
0.0
 40
0.0
 40
0.0
 40
0.0
 40
0.0
 40
0.5
 40
0.5
 40
1.0
 40
1.0
 40
1.0
 40
1.0
 10
7.974999999993803
 20
7.585611246601385
 30
0.0
 10
8.01258325640205
 20
7.570256442632926
 30
0.0
 10
8.044949410694613
 20
7.547332536158335
 30
0.0
 10
8.088279790427727
 20
7.494116916273579
 30
0.0
 10
8.099999999993855
 20
7.463476466336186
 30
0.0
 10
8.09999999999387
 20
7.432400895853418
 30
0.0
  0
SPLINE
  5
A9
330
1F
100
AcDbEntity
  8
SK1
  6
Continuous
100
AcDbSpline
210
0.0
220
0.0
230
1.0
 70
     8
 71
     3
 72
    10
 73
     6
 74
     0
 42
0.0000000469997246
 43
0.0000000001
 12
1.0
 22
0.0
 32
0.0
 13
1.0
 23
0.0
 33
0.0
 40
0.0
 40
0.0
 40
0.0
 40
0.0
 40
0.5
 40
0.5
 40
1.0
 40
1.0
 40
1.0
 40
1.0
 10
7.974999999994376
 20
7.019925821652146
 30
0.0
 10
8.012583256402621
 20
7.004571017683687
 30
0.0
 10
8.044949410695189
 20
6.981647111209097
 30
0.0
 10
8.088279790428302
 20
6.928431491324342
 30
0.0
 10
8.09999999999443
 20
6.897791041386949
 30
0.0
 10
8.099999999994441
 20
6.86671547090418
 30
0.0
  0
LINE
  5
AA
330
1F
100
AcDbEntity
  8
SK1
  6
Continuous
100
AcDbLine
 10
3.1
 20
13.1500000998
 30
0.0
 11
3.1
 21
9.576994199
 31
0.0
  0
LINE
  5
AB
330
1F
100
AcDbEntity
  8
SK3
100
AcDbLine
 10
-14.2484827557
 20
3.2036731736
 30
0.0
 11
-14.2484827557
 21
3.8665184795
 31
0.0
  0
LINE
  5
AC
330
1F
100
AcDbEntity
  8
SK1
  6
Continuous
100
AcDbLine
 10
2.9
 20
8.0558731094
 30
0.0
 11
2.9
 21
11.0000000998
 31
0.0
  0
LINE
  5
AD
330
1F
100
AcDbEntity
  8
SK1
  6
Continuous
100
AcDbLine
 10
7.975
 20
-7.5856110471
 30
0.0
 11
7.975
 21
-10.3354173379
 31
0.0
  0
LINE
  5
AE
330
1F
100
AcDbEntity
  8
SK1
  6
Continuous
100
AcDbLine
 10
3.1
 20
-9.5769939995
 30
0.0
 11
3.1
 21
-13.1499999002
 31
0.0
  0
LINE
  5
AF
330
1F
100
AcDbEntity
  8
SK1
  6
Continuous
100
AcDbLine
 10
2.9
 20
-8.0558729098
 30
0.0
 11
2.9
 21
-10.9999999002
 31
0.0
  0
LINE
  5
B0
330
1F
100
AcDbEntity
  8
SK1
  6
Continuous
100
AcDbLine
 10
0.0
 20
9.1171509346
 30
0.0
 11
0.0
 21
12.4935984605
 31
0.0
  0
LINE
  5
B1
330
1F
100
AcDbEntity
  8
SK3
100
AcDbLine
 10
-22.1
 20
3.9489033682
 30
0.0
 11
-22.1
 21
5.1845926585
 31
0.0
  0
LINE
  5
B2
330
1F
100
AcDbEntity
  8
SK3
100
AcDbLine
 10
-13.7
 20
3.8779784147
 30
0.0
 11
-13.7
 21
5.0842896273
 31
0.0
  0
LINE
  5
B3
330
1F
100
AcDbEntity
  8
SK3
100
AcDbLine
 10
-9.7
 20
3.8779784147
 30
0.0
 11
-9.7
 21
5.0842896273
 31
0.0
  0
LINE
  5
B4
330
1F
100
AcDbEntity
  8
SK1
  6
Continuous
100
AcDbLine
 10
0.2
 20
7.4901876844
 30
0.0
 11
0.2
 21
0.4000000998
 31
0.0
  0
LINE
  5
B5
330
1F
100
AcDbEntity
  8
SK1
  6
Continuous
100
AcDbLine
 10
-23.4
 20
6.2244174446
 30
0.0
 11
-23.4
 21
6.7901028696
 31
0.0
  0
LINE
  5
B6
330
1F
100
AcDbEntity
  8
SK3
100
AcDbLine
 10
-23.4
 20
6.2244174446
 30
0.0
 11
-23.4
 21
3.950359485
 31
0.0
  0
SPLINE
  5
B7
330
1F
100
AcDbEntity
  8
SK1
  6
Continuous
100
AcDbSpline
210
0.0
220
0.0
230
1.0
 70
     8
 71
     3
 72
    14
 73
    10
 74
     0
 42
0.0000000004252528
 43
0.0000000001
 12
1.0
 22
0.0
 32
0.0
 13
1.0
 23
0.0
 33
0.0
 40
0.0
 40
0.0
 40
0.0
 40
0.0
 40
0.1265003683846884
 40
0.1265003683846884
 40
0.1265003683846884
 40
0.8417843559881684
 40
0.8417843559881684
 40
0.8417843559881684
 40
1.0
 40
1.0
 40
1.0
 40
1.0
 10
-23.40000000000621
 20
6.224417444609915
 30
0.0
 10
-22.41330188205848
 20
6.322565498555067
 30
0.0
 10
-21.42660294876936
 20
6.420709454187857
 30
0.0
 10
-20.43990330171013
 20
6.518849821624634
 30
0.0
 10
-14.86070644281745
 20
7.073774951440743
 30
0.0
 10
-9.281487599566445
 20
7.628589568268525
 30
0.0
 10
-3.702257613550892
 20
8.183348143157497
 30
0.0
 10
-2.468172298208875
 20
8.306056727056449
 30
0.0
 10
-1.234086403854924
 20
8.428762399409008
 30
0.0
 10
-0.0000000000071783
 20
8.551465509609848
 30
0.0
  0
SPLINE
  5
B8
330
1F
100
AcDbEntity
  8
SK3
100
AcDbSpline
210
0.0
220
0.0
230
1.0
 70
     8
 71
     3
 72
    10
 73
     6
 74
     0
 42
0.0000000240432426
 43
0.0000000001
 12
1.0
 22
0.0
 32
0.0
 13
1.0
 23
0.0
 33
0.0
 40
0.0
 40
0.0
 40
0.0
 40
0.0
 40
0.5
 40
0.5
 40
1.0
 40
1.0
 40
1.0
 40
1.0
 10
8.099999999995974
 20
3.212983469926622
 30
0.0
 10
8.099999999996
 20
3.157637238816855
 30
0.0
 10
8.06809596142169
 20
3.102310126401538
 30
0.0
 10
7.956837250773105
 20
3.023108048239812
 30
0.0
 10
7.878290961636423
 20
3.000113372379542
 30
0.0
 10
7.799999999993697
 20
3.000113372367495
 30
0.0
  0
LINE
  5
B9
330
1F
100
AcDbEntity
  8
SK3
100
AcDbLine
 10
7.8
 20
3.0001133724
 30
0.0
 11
-9.7
 21
3.0001133724
 31
0.0
  0
LINE
  5
BA
330
1F
100
AcDbEntity
  8
SK3
100
AcDbLine
 10
-9.7
 20
3.3122929897
 30
0.0
 11
-13.7
 21
3.3122929897
 31
0.0
  0
LINE
  5
BB
330
1F
100
AcDbEntity
  8
SK3
100
AcDbLine
 10
-13.7
 20
3.3122929897
 30
0.0
 11
-14.2484827557
 21
2.6379877487
 31
0.0
  0
LINE
  5
BC
330
1F
100
AcDbEntity
  8
SK3
100
AcDbLine
 10
-14.2484827557
 20
2.6379877487
 30
0.0
 11
-22.1
 21
2.6379877487
 31
0.0
  0
LINE
  5
BD
330
1F
100
AcDbEntity
  8
SK3
100
AcDbLine
 10
-22.9
 20
3.950359485
 30
0.0
 11
-23.4
 21
3.950359485
 31
0.0
  0
SPLINE
  5
BE
330
1F
100
AcDbEntity
  8
SK3
100
AcDbSpline
210
0.0
220
0.0
230
1.0
 70
     8
 71
     3
 72
    14
 73
    10
 74
     0
 42
0.0000000091874519
 43
0.0000000001
 12
1.0
 22
0.0
 32
0.0
 13
1.0
 23
0.0
 33
0.0
 40
0.0
 40
0.0
 40
0.0
 40
0.0
 40
0.25
 40
0.25
 40
0.5
 40
0.5
 40
0.75
 40
0.75
 40
1.0
 40
1.0
 40
1.0
 40
1.0
 10
-22.90000000000491
 20
4.516044909926444
 30
0.0
 10
-22.79571602137787
 20
4.516044909926519
 30
0.0
 10
-22.6903662332914
 20
4.50121643570969
 30
0.0
 10
-22.49740607145745
 20
4.444578225460276
 30
0.0
 10
-22.4072174368069
 20
4.401823871938613
 30
0.0
 10
-22.25952156244288
 20
4.296784113239926
 30
0.0
 10
-22.20031393012371
 20
4.233663369707968
 30
0.0
 10
-22.1208235879818
 20
4.097191849656797
 30
0.0
 10
-22.10000000000471
 20
4.02265100719582
 30
0.0
 10
-22.10000000000467
 20
3.948903368188344
 30
0.0
  0
LINE
  5
BF
330
1F
100
AcDbEntity
  8
SK1
  6
Continuous
100
AcDbLine
 10
8.1
 20
6.8667154709
 30
0.0
 11
8.1
 21
7.4324008959
 31
0.0
  0
LINE
  5
C0
330
1F
100
AcDbEntity
  8
SK1
  6
Continuous
100
AcDbLine
 10
7.975
 20
7.5856112466
 30
0.0
 11
3.1
 21
9.576994199
 31
0.0
  0
LINE
  5
C1
330
1F
100
AcDbEntity
  8
SK1
  6
Continuous
100
AcDbLine
 10
3.1
 20
9.576994199
 30
0.0
 11
3.1
 21
9.0113087741
 31
0.0
  0
SPLINE
  5
C2
330
1F
100
AcDbEntity
  8
SK1
  6
Continuous
100
AcDbSpline
210
0.0
220
0.0
230
1.0
 70
     8
 71
     3
 72
    10
 73
     6
 74
     0
 42
0.0000000360973485
 43
0.0000000001
 12
1.0
 22
0.0
 32
0.0
 13
1.0
 23
0.0
 33
0.0
 40
0.0
 40
0.0
 40
0.0
 40
0.0
 40
0.5
 40
0.5
 40
1.0
 40
1.0
 40
1.0
 40
1.0
 10
3.099999999993549
 20
8.197386387205487
 30
0.0
 10
3.099999999993564
 20
8.160386532705012
 30
0.0
 10
3.078618722810294
 20
8.123644194439612
 30
0.0
 10
3.004238645959723
 20
8.071009643375964
 30
0.0
 10
2.952278207468031
 20
8.055873109365141
 30
0.0
 10
2.899999999993614
 20
8.05587310936503
 30
0.0
  0
LINE
  5
C3
330
1F
100
AcDbEntity
  8
SK1
  6
Continuous
100
AcDbLine
 10
2.9
 20
8.0558731094
 30
0.0
 11
0.2
 21
8.0558731094
 31
0.0
  0
SPLINE
  5
C4
330
1F
100
AcDbEntity
  8
SK1
  6
Continuous
100
AcDbSpline
210
0.0
220
0.0
230
1.0
 70
     8
 71
     3
 72
    10
 73
     6
 74
     0
 42
0.0000000361073515
 43
0.0000000001
 12
1.0
 22
0.0
 32
0.0
 13
1.0
 23
0.0
 33
0.0
 40
0.0
 40
0.0
 40
0.0
 40
0.0
 40
0.5
 40
0.5
 40
1.0
 40
1.0
 40
1.0
 40
1.0
 10
0.1999999999936081
 20
8.055873109363166
 30
0.0
 10
0.1478630859950633
 20
8.055873109363128
 30
0.0
 10
0.0956421515379956
 20
8.071142950827392
 30
0.0
 10
0.0217652248536929
 20
8.123323717070116
 30
0.0
 10
-0.0000000000058009
 20
8.160535894539477
 30
0.0
 10
-0.0000000000208028
 20
8.197386387201847
 30
0.0
  0
LINE
  5
C5
330
1F
100
AcDbEntity
  8
SK1
  6
Continuous
100
AcDbLine
 10
0.0
 20
8.5514655096
 30
0.0
 11
0.0
 21
9.1171509346
 31
0.0
  0
SPLINE
  5
C6
330
1F
100
AcDbEntity
  8
SK3
100
AcDbSpline
210
0.0
220
0.0
230
1.0
 70
     8
 71
     3
 72
    14
 73
    10
 74
     0
 42
0.0000000091874519
 43
0.0000000001
 12
1.0
 22
0.0
 32
0.0
 13
1.0
 23
0.0
 33
0.0
 40
0.0
 40
0.0
 40
0.0
 40
0.0
 40
0.25
 40
0.25
 40
0.5
 40
0.5
 40
0.75
 40
0.75
 40
1.0
 40
1.0
 40
1.0
 40
1.0
 10
-22.90000000000434
 20
3.950359484977207
 30
0.0
 10
-22.7957160213773
 20
3.950359484977281
 30
0.0
 10
-22.69036623329083
 20
3.935531010760451
 30
0.0
 10
-22.49740607145688
 20
3.878892800511038
 30
0.0
 10
-22.40721743680633
 20
3.836138446989375
 30
0.0
 10
-22.25952156244231
 20
3.731098688290688
 30
0.0
 10
-22.20031393012314
 20
3.66797794475873
 30
0.0
 10
-22.12082358798122
 20
3.531506424707558
 30
0.0
 10
-22.10000000000413
 20
3.456965582246581
 30
0.0
 10
-22.1000000000041
 20
3.383217943239106
 30
0.0
  0
LINE
  5
C7
330
1F
100
AcDbEntity
  8
SK1
  6
Continuous
100
AcDbLine
 10
7.975
 20
7.0199258217
 30
0.0
 11
3.1
 21
9.0113087741
 31
0.0
  0
SPLINE
  5
C8
330
1F
100
AcDbEntity
  8
SK1
  6
Continuous
100
AcDbSpline
210
0.0
220
0.0
230
1.0
 70
     8
 71
     3
 72
    10
 73
     6
 74
     0
 42
0.0000000360973485
 43
0.0000000001
 12
1.0
 22
0.0
 32
0.0
 13
1.0
 23
0.0
 33
0.0
 40
0.0
 40
0.0
 40
0.0
 40
0.0
 40
0.5
 40
0.5
 40
1.0
 40
1.0
 40
1.0
 40
1.0
 10
3.099999999994121
 20
7.631700962256249
 30
0.0
 10
3.099999999994137
 20
7.594701107755776
 30
0.0
 10
3.078618722810867
 20
7.557958769490375
 30
0.0
 10
3.004238645960297
 20
7.505324218426728
 30
0.0
 10
2.952278207468604
 20
7.490187684415904
 30
0.0
 10
2.899999999994189
 20
7.490187684415793
 30
0.0
  0
LINE
  5
C9
330
1F
100
AcDbEntity
  8
SK1
  6
Continuous
100
AcDbLine
 10
2.9
 20
7.4901876844
 30
0.0
 11
0.2
 21
7.4901876844
 31
0.0
  0
SPLINE
  5
CA
330
1F
100
AcDbEntity
  8
SK1
  6
Continuous
100
AcDbSpline
210
0.0
220
0.0
230
1.0
 70
     8
 71
     3
 72
    10
 73
     6
 74
     0
 42
0.0000000361073515
 43
0.0000000001
 12
1.0
 22
0.0
 32
0.0
 13
1.0
 23
0.0
 33
0.0
 40
0.0
 40
0.0
 40
0.0
 40
0.0
 40
0.5
 40
0.5
 40
1.0
 40
1.0
 40
1.0
 40
1.0
 10
0.1999999999941823
 20
7.490187684413929
 30
0.0
 10
0.1478630859956375
 20
7.490187684413891
 30
0.0
 10
0.0956421515385698
 20
7.505457525878154
 30
0.0
 10
0.0217652248542671
 20
7.557638292120879
 30
0.0
 10
-0.0000000000052285
 20
7.59485046959024
 30
0.0
 10
-0.0000000000202286
 20
7.63170096225261
 30
0.0
  0
LINE
  5
CB
330
1F
100
AcDbEntity
  8
SK3
100
AcDbLine
 10
-22.9
 20
4.5160449099
 30
0.0
 11
-23.4
 21
4.5160449099
 31
0.0
  0
SPLINE
  5
CC
330
1F
100
AcDbEntity
  8
SK1
  6
Continuous
100
AcDbSpline
210
0.0
220
0.0
230
1.0
 70
     8
 71
     3
 72
    14
 73
    10
 74
     0
 42
0.0000000004252528
 43
0.0000000001
 12
1.0
 22
0.0
 32
0.0
 13
1.0
 23
0.0
 33
0.0
 40
0.0
 40
0.0
 40
0.0
 40
0.0
 40
0.1265003683846884
 40
0.1265003683846884
 40
0.1265003683846884
 40
0.8417843559881684
 40
0.8417843559881684
 40
0.8417843559881684
 40
1.0
 40
1.0
 40
1.0
 40
1.0
 10
-23.40000000000678
 20
6.790102869559152
 30
0.0
 10
-22.41330188205905
 20
6.888250923504305
 30
0.0
 10
-21.42660294876993
 20
6.986394879137094
 30
0.0
 10
-20.43990330171071
 20
7.084535246573873
 30
0.0
 10
-14.86070644281802
 20
7.639460376389981
 30
0.0
 10
-9.281487599567017
 20
8.194274993217762
 30
0.0
 10
-3.702257613551465
 20
8.749033568106736
 30
0.0
 10
-2.468172298209448
 20
8.871742152005687
 30
0.0
 10
-1.234086403855498
 20
8.994447824358247
 30
0.0
 10
-0.0000000000077525
 20
9.117150934559083
 30
0.0
  0
SPLINE
  5
CD
330
1F
100
AcDbEntity
  8
SK3
100
AcDbSpline
210
0.0
220
0.0
230
1.0
 70
     8
 71
     3
 72
    10
 73
     6
 74
     0
 42
0.0000000240432426
 43
0.0000000001
 12
1.0
 22
0.0
 32
0.0
 13
1.0
 23
0.0
 33
0.0
 40
0.0
 40
0.0
 40
0.0
 40
0.0
 40
0.5
 40
0.5
 40
1.0
 40
1.0
 40
1.0
 40
1.0
 10
8.099999999995402
 20
3.77866889487586
 30
0.0
 10
8.09999999999543
 20
3.723322663766094
 30
0.0
 10
8.068095961421117
 20
3.667995551350777
 30
0.0
 10
7.956837250772536
 20
3.588793473189051
 30
0.0
 10
7.878290961635847
 20
3.56579879732878
 30
0.0
 10
7.799999999993125
 20
3.565798797316734
 30
0.0
  0
LINE
  5
CE
330
1F
100
AcDbEntity
  8
SK3
100
AcDbLine
 10
7.8
 20
3.5657987973
 30
0.0
 11
-9.7
 21
3.5657987973
 31
0.0
  0
LINE
  5
CF
330
1F
100
AcDbEntity
  8
SK3
100
AcDbLine
 10
-9.7
 20
3.5657987973
 30
0.0
 11
-9.7
 21
3.8779784147
 31
0.0
  0
LINE
  5
D0
330
1F
100
AcDbEntity
  8
SK3
100
AcDbLine
 10
-9.7
 20
3.8779784147
 30
0.0
 11
-13.7
 21
3.8779784147
 31
0.0
  0
LINE
  5
D1
330
1F
100
AcDbEntity
  8
SK3
100
AcDbLine
 10
-13.7
 20
3.8779784147
 30
0.0
 11
-14.2484827557
 21
3.2036731736
 31
0.0
  0
LINE
  5
D2
330
1F
100
AcDbEntity
  8
SK3
100
AcDbLine
 10
-14.2484827557
 20
3.2036731736
 30
0.0
 11
-22.1
 21
3.2036731736
 31
0.0
  0
LINE
  5
D3
330
1F
100
AcDbEntity
  8
SK3
100
AcDbLine
 10
-22.1
 20
3.3832179432
 30
0.0
 11
-22.1
 21
3.9489033682
 31
0.0
  0
LINE
  5
D4
330
1F
100
AcDbEntity
  8
SK1
  6
Continuous
100
AcDbLine
 10
-25.9
 20
-8.5506413713
 30
0.0
 11
-25.9
 21
-0.3999999003
 31
0.0
  0
LINE
  5
D5
330
1F
100
AcDbEntity
  8
SK1
  6
Continuous
100
AcDbLine
 10
-25.9
 20
-8.5506413713
 30
0.0
 11
-25.6029195794
 21
-8.8927526679
 31
0.0
  0
LINE
  5
D6
330
1F
100
AcDbEntity
  8
SK1
  6
Continuous
100
AcDbLine
 10
0.0
 20
-12.493598261
 30
0.0
 11
0.0
 21
-9.117150735
 31
0.0
  0
LINE
  5
D7
330
1F
100
AcDbEntity
  8
SK3
100
AcDbLine
 10
-13.8154700538
 20
4.8836462786
 30
0.0
 11
-13.8154700538
 21
4.8744701537
 31
0.0
  0
LINE
  5
D8
330
1F
100
AcDbEntity
  8
SK3
100
AcDbLine
 10
-22.1
 20
-5.184592459
 30
0.0
 11
-22.1
 21
-3.9489031687
 31
0.0
  0
LINE
  5
D9
330
1F
100
AcDbEntity
  8
SK3
100
AcDbLine
 10
-13.7
 20
-5.0842894278
 30
0.0
 11
-13.7
 21
-3.8779782152
 31
0.0
  0
LINE
  5
DA
330
1F
100
AcDbEntity
  8
SK3
100
AcDbLine
 10
-9.7
 20
-5.0842894278
 30
0.0
 11
-9.7
 21
-3.8779782152
 31
0.0
  0
LINE
  5
DB
330
1F
100
AcDbEntity
  8
SK1
  6
Continuous
100
AcDbLine
 10
-25.6029195794
 20
8.8927528674
 30
0.0
 11
-25.6029195794
 21
0.4000000997
 31
0.0
  0
LINE
  5
DC
330
1F
100
AcDbEntity
  8
SK1
  6
Continuous
100
AcDbLine
 10
0.2
 20
10.9927249667
 30
0.0
 11
0.2
 21
8.0558731094
 31
0.0
  0
LINE
  5
DD
330
1F
100
AcDbEntity
  8
SK1
  6
Continuous
100
AcDbLine
 10
2.6
 20
10.9927249667
 30
0.0
 11
2.6
 21
11.0000000998
 31
0.0
  0
LINE
  5
DE
330
1F
100
AcDbEntity
  8
SK3
100
AcDbLine
 10
2.6
 20
-4.642800779
 30
0.0
 11
2.6
 21
-10.9927247672
 31
0.0
  0
LINE
  5
DF
330
1F
100
AcDbEntity
  8
SK1
  6
Continuous
100
AcDbLine
 10
2.6
 20
-10.9927247672
 30
0.0
 11
2.6
 21
-10.9999999002
 31
0.0
  0
LINE
  5
E0
330
1F
100
AcDbEntity
  8
SK3
100
AcDbLine
 10
2.6
 20
10.9927249667
 30
0.0
 11
2.6
 21
4.6428009785
 31
0.0
  0
SPLINE
  5
E1
330
1F
100
AcDbEntity
  8
SK1
  6
Continuous
100
AcDbSpline
210
0.0
220
0.0
230
1.0
 70
     8
 71
     3
 72
    11
 73
     7
 74
     0
 42
0.000000000386774
 43
0.0000000001
 12
1.0
 22
0.0
 32
0.0
 13
1.0
 23
0.0
 33
0.0
 40
0.0
 40
0.0
 40
0.0
 40
0.0
 40
0.8487982854704745
 40
0.8487982854704745
 40
0.8487982854704745
 40
1.0
 40
1.0
 40
1.0
 40
1.0
 10
-0.0000000000125924
 20
12.49359846053202
 30
0.0
 10
-7.243933861004368
 20
11.47500829743347
 30
0.0
 10
-14.48785198313206
 20
10.45630617090667
 30
0.0
 10
-21.7317317267789
 20
9.437331214213769
 30
0.0
 10
-23.02212905239094
 20
9.255814871381688
 30
0.0
 10
-24.31252508752533
 20
9.074289354225703
 30
0.0
 10
-25.60291957938755
 20
8.892752867442761
 30
0.0
  0
LINE
  5
E2
330
1F
100
AcDbEntity
  8
SK1
  6
Continuous
100
AcDbLine
 10
-25.6029195794
 20
8.8927528674
 30
0.0
 11
-25.9
 21
8.5506415708
 31
0.0
  0
SPLINE
  5
E3
330
1F
100
AcDbEntity
  8
SK3
100
AcDbSpline
210
0.0
220
0.0
230
1.0
 70
     8
 71
     3
 72
    10
 73
     6
 74
     0
 42
0.0000000206709996
 43
0.0000000001
 12
1.0
 22
0.0
 32
0.0
 13
1.0
 23
0.0
 33
0.0
 40
0.0
 40
0.0
 40
0.0
 40
0.0
 40
0.5
 40
0.5
 40
1.0
 40
1.0
 40
1.0
 40
1.0
 10
-25.9000000000114
 20
6.287288863593216
 30
0.0
 10
-25.90000000000795
 20
6.208975237599195
 30
0.0
 10
-25.86824901094807
 20
6.131053244961844
 30
0.0
 10
-25.75639914326815
 20
6.018757946401631
 30
0.0
 10
-25.67932094853379
 20
5.986651918584273
 30
0.0
 10
-25.60000000000793
 20
5.986651918584849
 30
0.0
  0
LINE
  5
E4
330
1F
100
AcDbEntity
  8
SK3
100
AcDbLine
 10
-25.6
 20
5.9866519186
 30
0.0
 11
-22.9
 21
5.9866519186
 31
0.0
  0
LINE
  5
E5
330
1F
100
AcDbEntity
  8
SK3
100
AcDbLine
 10
-13.8154700538
 20
4.8836462786
 30
0.0
 11
-13.7
 21
5.0842896273
 31
0.0
  0
LINE
  5
E6
330
1F
100
AcDbEntity
  8
SK3
100
AcDbLine
 10
-13.7
 20
5.0842896273
 30
0.0
 11
-9.7
 21
5.0842896273
 31
0.0
  0
LINE
  5
E7
330
1F
100
AcDbEntity
  8
SK3
100
AcDbLine
 10
-9.7
 20
4.6428009785
 30
0.0
 11
2.6
 21
4.6428009785
 31
0.0
  0
SPLINE
  5
E8
330
1F
100
AcDbEntity
  8
SK1
  6
Continuous
100
AcDbSpline
210
0.0
220
0.0
230
1.0
 70
     8
 71
     3
 72
    10
 73
     6
 74
     0
 42
0.0000000310291255
 43
0.0000000001
 12
1.0
 22
0.0
 32
0.0
 13
1.0
 23
0.0
 33
0.0
 40
0.0
 40
0.0
 40
0.0
 40
0.0
 40
0.5
 40
0.5
 40
1.0
 40
1.0
 40
1.0
 40
1.0
 10
-0.0000000000107449
 20
11.19285496347147
 30
0.0
 10
-0.0000000000107119
 20
11.14068707322252
 30
0.0
 10
0.0212003295313144
 20
11.08878574489215
 30
0.0
 10
0.0958027261399614
 20
11.01405301819235
 30
0.0
 10
0.1471608956485193
 20
10.99272496669324
 30
0.0
 10
0.1999999999893996
 20
10.99272496669407
 30
0.0
  0
LINE
  5
E9
330
1F
100
AcDbEntity
  8
SK1
  6
Continuous
100
AcDbLine
 10
0.2
 20
10.9927249667
 30
0.0
 11
2.6
 21
10.9927249667
 31
0.0
  0
LINE
  5
EA
330
1F
100
AcDbEntity
  8
SK1
  6
Continuous
100
AcDbLine
 10
2.6
 20
-10.9927247672
 30
0.0
 11
0.2
 21
-10.9927247672
 31
0.0
  0
SPLINE
  5
EB
330
1F
100
AcDbEntity
  8
SK1
  6
Continuous
100
AcDbSpline
210
0.0
220
0.0
230
1.0
 70
     8
 71
     3
 72
    10
 73
     6
 74
     0
 42
0.0000000310369852
 43
0.0000000001
 12
1.0
 22
0.0
 32
0.0
 13
1.0
 23
0.0
 33
0.0
 40
0.0
 40
0.0
 40
0.0
 40
0.0
 40
0.5
 40
0.5
 40
1.0
 40
1.0
 40
1.0
 40
1.0
 10
0.2000000000051579
 20
-10.992724767164
 30
0.0
 10
0.1471213835919152
 20
-10.99272476716404
 30
0.0
 10
0.0954001470517413
 20
-11.01445869479647
 30
0.0
 10
0.0216128281416532
 20
-11.08836973275719
 30
0.0
 10
0.0000000000052579
 20
-11.14064178463458
 30
0.0
 10
0.0000000000053013
 20
-11.19285476394169
 30
0.0
  0
SPLINE
  5
EC
330
1F
100
AcDbEntity
  8
SK3
100
AcDbSpline
210
0.0
220
0.0
230
1.0
 70
     8
 71
     3
 72
    12
 73
     8
 74
     0
 42
0.0000000078243687
 43
0.0000000001
 12
1.0
 22
0.0
 32
0.0
 13
1.0
 23
0.0
 33
0.0
 40
0.0
 40
0.0
 40
0.0
 40
0.0
 40
0.2500000000000017
 40
0.2500000000000017
 40
0.5000000000000031
 40
0.5000000000000031
 40
1.0
 40
1.0
 40
1.0
 40
1.0
 10
-22.89999999999844
 20
-5.986651719089826
 30
0.0
 10
-22.79412446484939
 20
-5.986651719089751
 30
0.0
 10
-22.69021245722806
 20
-5.96571609904363
 30
0.0
 10
-22.49627313490993
 20
-5.885012778034053
 30
0.0
 10
-22.40747284236209
 20
-5.825283366488697
 30
0.0
 10
-22.18621500025315
 20
-5.60302422851613
 30
0.0
 10
-22.09999999999847
 20
-5.393659243460285
 30
0.0
 10
-22.09999999999054
 20
-5.184592458976265
 30
0.0
  0
LINE
  5
ED
330
1F
100
AcDbEntity
  8
SK3
100
AcDbLine
 10
-22.1
 20
-4.8836460791
 30
0.0
 11
-13.8154700538
 21
-4.8836460791
 31
0.0
  0
LINE
  5
EE
330
1F
100
AcDbEntity
  8
SK3
100
AcDbLine
 10
-13.8154700538
 20
4.8836462786
 30
0.0
 11
-22.1
 21
4.8836462786
 31
0.0
  0
SPLINE
  5
EF
330
1F
100
AcDbEntity
  8
SK3
100
AcDbSpline
210
0.0
220
0.0
230
1.0
 70
     8
 71
     3
 72
    12
 73
     8
 74
     0
 42
0.0000000078214582
 43
0.0000000001
 12
1.0
 22
0.0
 32
0.0
 13
1.0
 23
0.0
 33
0.0
 40
0.0
 40
0.0
 40
0.0
 40
0.0
 40
0.2500000000000013
 40
0.2500000000000013
 40
0.5000000000000027
 40
0.5000000000000027
 40
1.0
 40
1.0
 40
1.0
 40
1.0
 10
-22.10000000000645
 20
5.184592658475341
 30
0.0
 10
-22.1000000000065
 20
5.289040285333062
 30
0.0
 10
-22.12065565650799
 20
5.393946422949135
 30
0.0
 10
-22.20059280556566
 20
5.587931230679043
 30
0.0
 10
-22.25913329090131
 20
5.676265273973455
 30
0.0
 10
-22.48281000852616
 20
5.900976532606919
 30
0.0
 10
-22.68841550377831
 20
5.986651918587132
 30
0.0
 10
-22.90000000000702
 20
5.986651918586785
 30
0.0
  0
LINE
  5
F0
330
1F
100
AcDbEntity
  8
SK3
100
AcDbLine
 10
2.6
 20
-4.642800779
 30
0.0
 11
-9.7
 21
-4.642800779
 31
0.0
  0
LINE
  5
F1
330
1F
100
AcDbEntity
  8
SK3
100
AcDbLine
 10
-9.7
 20
-5.0842894278
 30
0.0
 11
-13.7
 21
-5.0842894278
 31
0.0
  0
LINE
  5
F2
330
1F
100
AcDbEntity
  8
SK3
100
AcDbLine
 10
-13.7
 20
-5.0842894278
 30
0.0
 11
-13.8154700538
 21
-4.8836460791
 31
0.0
  0
LINE
  5
F3
330
1F
100
AcDbEntity
  8
SK3
100
AcDbLine
 10
-22.9
 20
-5.9866517191
 30
0.0
 11
-25.6
 21
-5.9866517191
 31
0.0
  0
SPLINE
  5
F4
330
1F
100
AcDbEntity
  8
SK3
100
AcDbSpline
210
0.0
220
0.0
230
1.0
 70
     8
 71
     3
 72
    10
 73
     6
 74
     0
 42
0.000000020676212
 43
0.0000000001
 12
1.0
 22
0.0
 32
0.0
 13
1.0
 23
0.0
 33
0.0
 40
0.0
 40
0.0
 40
0.0
 40
0.0
 40
0.5
 40
0.5
 40
1.0
 40
1.0
 40
1.0
 40
1.0
 10
-25.59999999999935
 20
-5.986651719091761
 30
0.0
 10
-25.67938082501748
 20
-5.986651719091819
 30
0.0
 10
-25.75699902517975
 20
-6.019364252819074
 30
0.0
 10
-25.8676329665068
 20
-6.130430313299638
 30
0.0
 10
-25.8999999999992
 20
-6.208909888746897
 30
0.0
 10
-25.89999999999914
 20
-6.28728866410093
 30
0.0
  0
SPLINE
  5
F5
330
1F
100
AcDbEntity
  8
SK1
  6
Continuous
100
AcDbSpline
210
0.0
220
0.0
230
1.0
 70
     8
 71
     3
 72
    11
 73
     7
 74
     0
 42
0.000000000386774
 43
0.0000000001
 12
1.0
 22
0.0
 32
0.0
 13
1.0
 23
0.0
 33
0.0
 40
0.0
 40
0.0
 40
0.0
 40
0.0
 40
0.6044573081759647
 40
0.6044573081759647
 40
0.6044573081759647
 40
1.0
 40
1.0
 40
1.0
 40
1.0
 10
-25.6029195793748
 20
-8.892752667949678
 30
0.0
 10
-20.44432476352897
 20
-9.618478936545385
 30
0.0
 10
-15.28570615873981
 20
-10.34403611252557
 30
0.0
 10
-10.12707549945113
 20
-11.06950755376098
 30
0.0
 10
-6.751388532169189
 20
-11.544239057344
 30
0.0
 10
-3.375696144093137
 20
-12.01893201584661
 30
0.0
 10
0.0000000000053187
 20
-12.49359826100224
 30
0.0
  0
ARC
  5
F6
330
1F
100
AcDbEntity
  8
SK1
  6
Continuous
100
AcDbCircle
 10
7.85
 20
-10.118910987
 30
0.0
 40
0.2500000000000009
100
AcDbArc
 50
300.0
 51
0.0
  0
ARC
  5
F7
330
1F
100
AcDbEntity
  8
SK3
100
AcDbCircle
 10
7.8
 20
-4.9599999002
 30
0.0
 40
0.2999999999999998
100
AcDbArc
 50
0.0
 51
90.0
  0
LINE
  5
F8
330
1F
100
AcDbEntity
  8
SK1
  6
Continuous
100
AcDbLine
 10
3.1
 20
-13.1499999002
 30
0.0
 11
7.975
 21
-10.3354173379
 31
0.0
  0
LINE
  5
F9
330
1F
100
AcDbEntity
  8
SK3
100
AcDbLine
 10
2.6
 20
-4.6599999002
 30
0.0
 11
7.8
 21
-4.6599999002
 31
0.0
  0
ARC
  5
FA
330
1F
100
AcDbEntity
  8
SK1
  6
Continuous
100
AcDbCircle
 10
2.9
 20
-11.1999999002
 30
0.0
 40
0.2000000000000003
100
AcDbArc
 50
0.0
 51
90.0
  0
LINE
  5
FB
330
1F
100
AcDbEntity
  8
SK1
  6
Continuous
100
AcDbLine
 10
2.6
 20
-10.9999999002
 30
0.0
 11
2.9
 21
-10.9999999002
 31
0.0
  0
ARC
  5
FC
330
1F
100
AcDbEntity
  8
SK1
  6
Continuous
100
AcDbCircle
 10
7.85
 20
10.1189111865
 30
0.0
 40
0.2500000000000002
100
AcDbArc
 50
0.0
 51
60.0
  0
ARC
  5
FD
330
1F
100
AcDbEntity
  8
SK3
100
AcDbCircle
 10
7.8
 20
4.9600000998
 30
0.0
 40
0.3000000000000017
100
AcDbArc
 50
270.0
 51
0.0
  0
LINE
  5
FE
330
1F
100
AcDbEntity
  8
SK1
  6
Continuous
100
AcDbLine
 10
7.975
 20
10.3354175375
 30
0.0
 11
3.1
 21
13.1500000998
 31
0.0
  0
ARC
  5
FF
330
1F
100
AcDbEntity
  8
SK1
  6
Continuous
100
AcDbCircle
 10
2.9
 20
11.2000000998
 30
0.0
 40
0.2000000000000007
100
AcDbArc
 50
270.0
 51
0.0
  0
LINE
  5
100
330
1F
100
AcDbEntity
  8
SK3
100
AcDbLine
 10
7.8
 20
4.6600000998
 30
0.0
 11
2.6
 21
4.6600000998
 31
0.0
  0
LINE
  5
101
330
1F
100
AcDbEntity
  8
SK1
  6
Continuous
100
AcDbLine
 10
2.9
 20
11.0000000998
 30
0.0
 11
2.6
 21
11.0000000998
 31
0.0
  0
LINE
  5
103
330
1F
100
AcDbEntity
  8
SK4
  6
Continuous
100
AcDbLine
 10
8.1
 20
0.0000000998
 30
0.0
 11
-25.9
 21
0.0000000998
 31
0.0
  0
DIMENSION
  5
118
330
1F
100
AcDbEntity
  8
SK2
  6
Continuous
 62
   136
100
AcDbDimension
  2
DMBLK37
 10
18.1217475116
 20
4.6600000998
 30
0.0
 11
18.1217475116
 21
9.4527565008
 31
0.0
 70
   161
  1
\A1;ø <>
 71
     5
 42
-1.0
  3
DIN
100
AcDbAlignedDimension
 13
7.8
 23
4.6600000998
 33
0.0
 14
7.8
 24
-4.6599999002
 34
0.0
  0
DIMENSION
  5
123
330
1F
100
AcDbEntity
  8
SK2
  6
Continuous
 62
   136
100
AcDbDimension
  2
DMBLK38
 10
-25.9
 20
19.6970162488
 30
0.0
 11
-8.9000009239
 21
19.6970162488
 31
0.0
 70
   160
  1
\A1;<>
 71
     5
 42
-1.0
  3
DIN
100
AcDbAlignedDimension
 13
8.1
 23
10.1189111865
 33
0.0
 14
-25.9
 24
8.5506415708
 34
0.0
100
AcDbRotatedDimension
  0
DIMENSION
  5
12D
330
1F
100
AcDbEntity
  8
SK2
  6
Continuous
 62
   136
100
AcDbDimension
  2
DMBLK39
 10
-32.2589799762
 20
12.4935984605
 30
0.0
 11
-32.2589799762
 21
0.0000001856
 31
0.0
 70
   161
  1
\A1;ø <>
 71
     5
 42
-1.0
  3
DIN
100
AcDbAlignedDimension
 13
0.0
 23
12.4935984605
 33
0.0
 14
0.0
 24
-12.493598261
 34
0.0
1001
ACAD
1000
DSTYLE
1002
{
1070
   271
1070
     0
1070
   272
1070
     0
1070
     0
1002
}
  0
DIMENSION
  5
138
330
1F
100
AcDbEntity
  8
SK2
  6
Continuous
 62
   136
100
AcDbDimension
  2
DMBLK40
 10
8.1
 20
-19.8948178301
 30
0.0
 11
-4.803317599
 21
-19.8948178301
 31
0.0
 70
   160
  1
\A1;<>
 71
     5
 42
-1.0
  3
DIN
100
AcDbAlignedDimension
 13
0.0
 23
-12.493598261
 33
0.0
 14
8.1
 24
-10.118910987
 34
0.0
100
AcDbRotatedDimension
  0
ENDSEC
  0
SECTION
  2
OBJECTS
  0
DICTIONARY
  5
C
330
0
100
AcDbDictionary
281
     1
  3
ACAD_GROUP
350
D
  3
ACAD_LAYOUT
350
1A
  3
ACAD_MATERIAL
350
3B
  3
ACAD_MLEADERSTYLE
350
144
  3
ACAD_MLINESTYLE
350
17
  3
ACAD_PLOTSETTINGS
350
19
  3
ACAD_PLOTSTYLENAME
350
E
  3
ACAD_VISUALSTYLE
350
2A
  3
AcDbVariableDictionary
350
142
  0
DICTIONARY
  5
D
102
{ACAD_REACTORS
330
C
102
}
330
C
100
AcDbDictionary
281
     1
  0
DICTIONARY
  5
1A
102
{ACAD_REACTORS
330
C
102
}
330
C
100
AcDbDictionary
281
     1
  3
Layout1
350
1E
  3
Model
350
22
  0
DICTIONARY
  5
3B
102
{ACAD_REACTORS
330
C
102
}
330
C
100
AcDbDictionary
281
     1
  3
ByBlock
350
3D
  3
ByLayer
350
3C
  3
Global
350
3E
  0
DICTIONARY
  5
144
102
{ACAD_REACTORS
330
C
102
}
330
C
100
AcDbDictionary
281
     1
  0
DICTIONARY
  5
17
102
{ACAD_REACTORS
330
C
102
}
330
C
100
AcDbDictionary
281
     1
  3
Standard
350
18
  0
DICTIONARY
  5
19
102
{ACAD_REACTORS
330
C
102
}
330
C
100
AcDbDictionary
281
     1
  0
ACDBDICTIONARYWDFLT
  5
E
102
{ACAD_REACTORS
330
C
102
}
330
C
100
AcDbDictionary
281
     1
  3
Normal
350
F
100
AcDbDictionaryWithDefault
340
F
  0
DICTIONARY
  5
2A
102
{ACAD_REACTORS
330
C
102
}
330
C
100
AcDbDictionary
281
     1
  3
2dWireframe
350
2F
  3
3D Hidden
350
31
  3
3dWireframe
350
30
  3
Basic
350
32
  3
Brighten
350
36
  3
ColorChange
350
3A
  3
Conceptual
350
34
  3
Dim
350
35
  3
Facepattern
350
39
  3
Flat
350
2B
  3
FlatWithEdges
350
2C
  3
Gouraud
350
2D
  3
GouraudWithEdges
350
2E
  3
Linepattern
350
38
  3
Realistic
350
33
  3
Thicken
350
37
  0
DICTIONARY
  5
142
102
{ACAD_REACTORS
330
C
102
}
330
C
100
AcDbDictionary
281
     1
  3
DIMASSOC
350
147
  3
HIDETEXT
350
148
  3
PSOLHEIGHT
350
146
  3
PSOLWIDTH
350
145
  0
LAYOUT
  5
1E
102
{ACAD_REACTORS
330
1A
102
}
330
1A
100
AcDbPlotSettings
  1

  2
none_device
  4

  6

 40
0.0
 41
0.0
 42
0.0
 43
0.0
 44
0.0
 45
0.0
 46
0.0
 47
0.0
 48
0.0
 49
0.0
140
0.0
141
0.0
142
1.0
143
1.0
 70
   688
 72
     0
 73
     0
 74
     5
  7

 75
    16
147
1.0
148
0.0
149
0.0
100
AcDbLayout
  1
Layout1
 70
     1
 71
     1
 10
0.0
 20
0.0
 11
210.0
 21
297.0
 12
0.0
 22
0.0
 32
0.0
 14
0.0
 24
0.0
 34
0.0
 15
210.0
 25
297.0
 35
0.0
146
0.0
 13
0.0
 23
0.0
 33
0.0
 16
1.0
 26
0.0
 36
0.0
 17
0.0
 27
1.0
 37
0.0
 76
     0
330
1B
  0
LAYOUT
  5
22
102
{ACAD_REACTORS
330
1A
102
}
330
1A
100
AcDbPlotSettings
  1

  2
none_device
  4

  6

 40
0.0
 41
0.0
 42
0.0
 43
0.0
 44
0.0
 45
0.0
 46
0.0
 47
0.0
 48
0.0
 49
0.0
140
0.0
141
0.0
142
1.0
143
1.0
 70
  1712
 72
     0
 73
     0
 74
     0
  7

 75
     0
147
1.0
148
0.0
149
0.0
100
AcDbLayout
  1
Model
 70
     1
 71
     0
 10
0.0
 20
0.0
 11
210.0
 21
297.0
 12
0.0
 22
0.0
 32
0.0
 14
0.0
 24
0.0
 34
0.0
 15
210.0
 25
297.0
 35
0.0
146
0.0
 13
0.0
 23
0.0
 33
0.0
 16
1.0
 26
0.0
 36
0.0
 17
0.0
 27
1.0
 37
0.0
 76
     0
330
1F
331
29
  0
MATERIAL
  5
3D
102
{ACAD_REACTORS
330
3B
102
}
102
{ACAD_XDICTIONARY
360
16B
102
}
330
3B
100
AcDbMaterial
  1
ByBlock
  0
MATERIAL
  5
3C
102
{ACAD_REACTORS
330
3B
102
}
102
{ACAD_XDICTIONARY
360
169
102
}
330
3B
100
AcDbMaterial
  1
ByLayer
  0
MATERIAL
  5
3E
102
{ACAD_REACTORS
330
3B
102
}
102
{ACAD_XDICTIONARY
360
16D
102
}
330
3B
100
AcDbMaterial
  1
Global
  0
MLINESTYLE
  5
18
102
{ACAD_REACTORS
330
17
102
}
330
17
100
AcDbMlineStyle
  2
Standard
 70
     0
  3

 62
   256
 51
90.0
 52
90.0
 71
     2
 49
0.5
 62
   256
  6
BYLAYER
 49
-0.5
 62
   256
  6
BYLAYER
  0
ACDBPLACEHOLDER
  5
F
102
{ACAD_REACTORS
330
E
102
}
330
E
  0
VISUALSTYLE
  5
2F
102
{ACAD_REACTORS
330
2A
102
}
102
{ACAD_XDICTIONARY
360
151
102
}
330
2A
100
AcDbVisualStyle
  2
2dWireframe
 70
     4
 71
     0
 72
     2
 73
     0
 90
        0
 40
-0.6
 41
-30.0
 62
     5
 63
     7
 74
     1
 91
        4
 64
     7
 65
   257
 75
     1
175
     1
 42
1.0
 92
        0
 66
   257
 43
1.0
 76
     1
 77
     6
 78
     2
 67
     7
 79
     5
170
     0
171
     0
290
     0
174
     0
 93
        1
 44
0.0
173
     0
291
     0
 45
0.0
1001
ACAD
1000
AcDbSavedByObjectVersion
1070
     0
  0
VISUALSTYLE
  5
31
102
{ACAD_REACTORS
330
2A
102
}
102
{ACAD_XDICTIONARY
360
155
102
}
330
2A
100
AcDbVisualStyle
  2
3D Hidden
 70
     6
 71
     1
 72
     2
 73
     2
 90
        0
 40
-0.6
 41
-30.0
 62
     5
 63
     7
 74
     2
 91
        2
 64
     7
 65
   257
 75
     2
175
     1
 42
40.0
 92
        0
 66
   257
 43
1.0
 76
     1
 77
     6
 78
     2
 67
     7
 79
     3
170
     0
171
     0
290
     0
174
     0
 93
        1
 44
0.0
173
     0
291
     0
 45
0.0
1001
ACAD
1000
AcDbSavedByObjectVersion
1070
     0
  0
VISUALSTYLE
  5
30
102
{ACAD_REACTORS
330
2A
102
}
102
{ACAD_XDICTIONARY
360
153
102
}
330
2A
100
AcDbVisualStyle
  2
3dWireframe
 70
     5
 71
     0
 72
     2
 73
     0
 90
        0
 40
-0.6
 41
-30.0
 62
     5
 63
     7
 74
     1
 91
        4
 64
     7
 65
   257
 75
     1
175
     1
 42
1.0
 92
        0
 66
   257
 43
1.0
 76
     1
 77
     6
 78
     2
 67
     7
 79
     5
170
     0
171
     0
290
     0
174
     0
 93
        1
 44
0.0
173
     0
291
     0
 45
0.0
1001
ACAD
1000
AcDbSavedByObjectVersion
1070
     0
  0
VISUALSTYLE
  5
32
102
{ACAD_REACTORS
330
2A
102
}
102
{ACAD_XDICTIONARY
360
157
102
}
330
2A
100
AcDbVisualStyle
  2
Basic
 70
     7
 71
     1
 72
     0
 73
     1
 90
        0
 40
-0.6
 41
-30.0
 62
     5
 63
     7
 74
     0
 91
        4
 64
     7
 65
   257
 75
     1
175
     1
 42
1.0
 92
        8
 66
     7
 43
1.0
 76
     1
 77
     6
 78
     2
 67
     7
 79
     5
170
     0
171
     0
290
     0
174
     0
 93
        1
 44
0.0
173
     0
291
     1
 45
0.0
1001
ACAD
1000
AcDbSavedByObjectVersion
1070
     0
  0
VISUALSTYLE
  5
36
102
{ACAD_REACTORS
330
2A
102
}
102
{ACAD_XDICTIONARY
360
15F
102
}
330
2A
100
AcDbVisualStyle
  2
Brighten
 70
    12
 71
     2
 72
     2
 73
     0
 90
        0
 40
-0.6
 41
-30.0
 62
     5
 63
     7
 74
     1
 91
        4
 64
     7
 65
   257
 75
     1
175
     1
 42
1.0
 92
        8
 66
     7
 43
1.0
 76
     1
 77
     6
 78
     2
 67
     7
 79
     5
170
     0
171
     0
290
     0
174
     0
 93
        1
 44
50.0
173
     0
291
     1
 45
0.0
1001
ACAD
1000
AcDbSavedByObjectVersion
1070
     0
  0
VISUALSTYLE
  5
3A
102
{ACAD_REACTORS
330
2A
102
}
102
{ACAD_XDICTIONARY
360
167
102
}
330
2A
100
AcDbVisualStyle
  2
ColorChange
 70
    16
 71
     2
 72
     2
 73
     3
 90
        0
 40
-0.6
 41
-30.0
 62
     5
 63
     8
 74
     1
 91
        4
 64
     7
 65
   257
 75
     1
175
     1
 42
1.0
 92
        8
 66
     8
 43
1.0
 76
     1
 77
     6
 78
     2
 67
     7
 79
     5
170
     0
171
     0
290
     0
174
     0
 93
        1
 44
0.0
173
     0
291
     1
 45
0.0
1001
ACAD
1000
AcDbSavedByObjectVersion
1070
     0
  0
VISUALSTYLE
  5
34
102
{ACAD_REACTORS
330
2A
102
}
102
{ACAD_XDICTIONARY
360
15B
102
}
330
2A
100
AcDbVisualStyle
  2
Conceptual
 70
     9
 71
     3
 72
     2
 73
     0
 90
        0
 40
-0.6
 41
-30.0
 62
     5
 63
     7
 74
     2
 91
        2
 64
     7
 65
   257
 75
     1
175
     1
 42
40.0
 92
        8
 66
     7
 43
1.0
 76
     1
 77
     6
 78
     2
 67
     7
 79
     3
170
     0
171
     0
290
     0
174
     0
 93
        1
 44
0.0
173
     0
291
     0
 45
0.0
1001
ACAD
1000
AcDbSavedByObjectVersion
1070
     0
  0
VISUALSTYLE
  5
35
102
{ACAD_REACTORS
330
2A
102
}
102
{ACAD_XDICTIONARY
360
15D
102
}
330
2A
100
AcDbVisualStyle
  2
Dim
 70
    11
 71
     2
 72
     2
 73
     0
 90
        0
 40
-0.6
 41
-30.0
 62
     5
 63
     7
 74
     1
 91
        4
 64
     7
 65
   257
 75
     1
175
     1
 42
1.0
 92
        8
 66
     7
 43
1.0
 76
     1
 77
     6
 78
     2
 67
     7
 79
     5
170
     0
171
     0
290
     0
174
     0
 93
        1
 44
-50.0
173
     0
291
     1
 45
0.0
1001
ACAD
1000
AcDbSavedByObjectVersion
1070
     0
  0
VISUALSTYLE
  5
39
102
{ACAD_REACTORS
330
2A
102
}
102
{ACAD_XDICTIONARY
360
165
102
}
330
2A
100
AcDbVisualStyle
  2
Facepattern
 70
    15
 71
     2
 72
     2
 73
     0
 90
        0
 40
-0.6
 41
-30.0
 62
     5
 63
     7
 74
     1
 91
        4
 64
     7
 65
   257
 75
     1
175
     1
 42
1.0
 92
        8
 66
     7
 43
1.0
 76
     1
 77
     6
 78
     2
 67
     7
 79
     5
170
     0
171
     0
290
     0
174
     0
 93
        1
 44
0.0
173
     0
291
     1
 45
0.0
1001
ACAD
1000
AcDbSavedByObjectVersion
1070
     0
  0
VISUALSTYLE
  5
2B
102
{ACAD_REACTORS
330
2A
102
}
102
{ACAD_XDICTIONARY
360
149
102
}
330
2A
100
AcDbVisualStyle
  2
Flat
 70
     0
 71
     2
 72
     1
 73
     1
 90
        2
 40
-0.6
 41
30.0
 62
     5
 63
     7
 74
     0
 91
        4
 64
     7
 65
   257
 75
     1
175
     1
 42
1.0
 92
        8
 66
     7
 43
1.0
 76
     1
 77
     6
 78
     2
 67
     7
 79
     5
170
     0
171
     0
290
     0
174
     0
 93
       13
 44
0.0
173
     0
291
     1
 45
0.0
1001
ACAD
1000
AcDbSavedByObjectVersion
1070
     0
  0
VISUALSTYLE
  5
2C
102
{ACAD_REACTORS
330
2A
102
}
102
{ACAD_XDICTIONARY
360
14B
102
}
330
2A
100
AcDbVisualStyle
  2
FlatWithEdges
 70
     1
 71
     2
 72
     1
 73
     1
 90
        2
 40
-0.6
 41
30.0
 62
     5
 63
     7
 74
     1
 91
        4
 64
     7
 65
   257
 75
     1
175
     1
 42
1.0
 92
        0
 66
   257
 43
1.0
 76
     1
 77
     6
 78
     2
 67
     7
 79
     5
170
     0
171
     0
290
     0
174
     0
 93
       13
 44
0.0
173
     0
291
     1
 45
0.0
1001
ACAD
1000
AcDbSavedByObjectVersion
1070
     0
  0
VISUALSTYLE
  5
2D
102
{ACAD_REACTORS
330
2A
102
}
102
{ACAD_XDICTIONARY
360
14D
102
}
330
2A
100
AcDbVisualStyle
  2
Gouraud
 70
     2
 71
     2
 72
     2
 73
     1
 90
        2
 40
-0.6
 41
30.0
 62
     5
 63
     7
 74
     0
 91
        4
 64
     7
 65
   257
 75
     1
175
     1
 42
1.0
 92
        0
 66
     7
 43
1.0
 76
     1
 77
     6
 78
     2
 67
     7
 79
     5
170
     0
171
     0
290
     0
174
     0
 93
       13
 44
0.0
173
     0
291
     1
 45
0.0
1001
ACAD
1000
AcDbSavedByObjectVersion
1070
     0
  0
VISUALSTYLE
  5
2E
102
{ACAD_REACTORS
330
2A
102
}
102
{ACAD_XDICTIONARY
360
14F
102
}
330
2A
100
AcDbVisualStyle
  2
GouraudWithEdges
 70
     3
 71
     2
 72
     2
 73
     1
 90
        2
 40
-0.6
 41
30.0
 62
     5
 63
     7
 74
     1
 91
        4
 64
     7
 65
   257
 75
     1
175
     1
 42
1.0
 92
        0
 66
   257
 43
1.0
 76
     1
 77
     6
 78
     2
 67
     7
 79
     5
170
     0
171
     0
290
     0
174
     0
 93
       13
 44
0.0
173
     0
291
     1
 45
0.0
1001
ACAD
1000
AcDbSavedByObjectVersion
1070
     0
  0
VISUALSTYLE
  5
38
102
{ACAD_REACTORS
330
2A
102
}
102
{ACAD_XDICTIONARY
360
163
102
}
330
2A
100
AcDbVisualStyle
  2
Linepattern
 70
    14
 71
     2
 72
     2
 73
     0
 90
        0
 40
-0.6
 41
-30.0
 62
     5
 63
     7
 74
     1
 91
        4
 64
     7
 65
   257
 75
     7
175
     7
 42
1.0
 92
        8
 66
     7
 43
1.0
 76
     1
 77
     6
 78
     2
 67
     7
 79
     5
170
     0
171
     0
290
     0
174
     0
 93
        1
 44
0.0
173
     0
291
     1
 45
0.0
1001
ACAD
1000
AcDbSavedByObjectVersion
1070
     0
  0
VISUALSTYLE
  5
33
102
{ACAD_REACTORS
330
2A
102
}
102
{ACAD_XDICTIONARY
360
159
102
}
330
2A
100
AcDbVisualStyle
  2
Realistic
 70
     8
 71
     2
 72
     2
 73
     0
 90
        0
 40
-0.6
 41
-30.0
 62
     5
 63
     7
 74
     1
 91
        0
 64
     7
 65
   257
 75
     1
175
     1
 42
1.0
 92
        8
 66
     8
 43
1.0
 76
     1
 77
     6
 78
     2
 67
     7
 79
     5
170
     0
171
     0
290
     0
174
     0
 93
       13
 44
0.0
173
     0
291
     0
 45
0.0
1001
ACAD
1000
AcDbSavedByObjectVersion
1070
     0
  0
VISUALSTYLE
  5
37
102
{ACAD_REACTORS
330
2A
102
}
102
{ACAD_XDICTIONARY
360
161
102
}
330
2A
100
AcDbVisualStyle
  2
Thicken
 70
    13
 71
     2
 72
     2
 73
     0
 90
        0
 40
-0.6
 41
-30.0
 62
     5
 63
     7
 74
     1
 91
        4
 64
     7
 65
   257
 75
     1
175
     1
 42
1.0
 92
       12
 66
     7
 43
1.0
 76
     1
 77
     6
 78
     2
 67
     7
 79
     5
170
     0
171
     0
290
     0
174
     0
 93
        1
 44
0.0
173
     0
291
     1
 45
0.0
1001
ACAD
1000
AcDbSavedByObjectVersion
1070
     0
  0
DICTIONARYVAR
  5
147
102
{ACAD_REACTORS
330
142
102
}
330
142
100
DictionaryVariables
280
     0
  1
2
  0
DICTIONARYVAR
  5
148
102
{ACAD_REACTORS
330
142
102
}
330
142
100
DictionaryVariables
280
     0
  1
1
  0
DICTIONARYVAR
  5
146
102
{ACAD_REACTORS
330
142
102
}
330
142
100
DictionaryVariables
280
     0
  1
80.000000
  0
DICTIONARYVAR
  5
145
102
{ACAD_REACTORS
330
142
102
}
330
142
100
DictionaryVariables
280
     0
  1
5.000000
  0
DICTIONARY
  5
16B
330
3D
100
AcDbDictionary
280
     1
281
     1
  3
ACAD_XREC_ROUNDTRIP
360
16C
  0
DICTIONARY
  5
169
330
3C
100
AcDbDictionary
280
     1
281
     1
  3
ACAD_XREC_ROUNDTRIP
360
16A
  0
DICTIONARY
  5
16D
330
3E
100
AcDbDictionary
280
     1
281
     1
  3
ACAD_XREC_ROUNDTRIP
360
16E
  0
DICTIONARY
  5
151
330
2F
100
AcDbDictionary
280
     1
281
     1
  3
ACAD_XREC_ROUNDTRIP
360
152
  0
DICTIONARY
  5
155
330
31
100
AcDbDictionary
280
     1
281
     1
  3
ACAD_XREC_ROUNDTRIP
360
156
  0
DICTIONARY
  5
153
330
30
100
AcDbDictionary
280
     1
281
     1
  3
ACAD_XREC_ROUNDTRIP
360
154
  0
DICTIONARY
  5
157
330
32
100
AcDbDictionary
280
     1
281
     1
  3
ACAD_XREC_ROUNDTRIP
360
158
  0
DICTIONARY
  5
15F
330
36
100
AcDbDictionary
280
     1
281
     1
  3
ACAD_XREC_ROUNDTRIP
360
160
  0
DICTIONARY
  5
167
330
3A
100
AcDbDictionary
280
     1
281
     1
  3
ACAD_XREC_ROUNDTRIP
360
168
  0
DICTIONARY
  5
15B
330
34
100
AcDbDictionary
280
     1
281
     1
  3
ACAD_XREC_ROUNDTRIP
360
15C
  0
DICTIONARY
  5
15D
330
35
100
AcDbDictionary
280
     1
281
     1
  3
ACAD_XREC_ROUNDTRIP
360
15E
  0
DICTIONARY
  5
165
330
39
100
AcDbDictionary
280
     1
281
     1
  3
ACAD_XREC_ROUNDTRIP
360
166
  0
DICTIONARY
  5
149
330
2B
100
AcDbDictionary
280
     1
281
     1
  3
ACAD_XREC_ROUNDTRIP
360
14A
  0
DICTIONARY
  5
14B
330
2C
100
AcDbDictionary
280
     1
281
     1
  3
ACAD_XREC_ROUNDTRIP
360
14C
  0
DICTIONARY
  5
14D
330
2D
100
AcDbDictionary
280
     1
281
     1
  3
ACAD_XREC_ROUNDTRIP
360
14E
  0
DICTIONARY
  5
14F
330
2E
100
AcDbDictionary
280
     1
281
     1
  3
ACAD_XREC_ROUNDTRIP
360
150
  0
DICTIONARY
  5
163
330
38
100
AcDbDictionary
280
     1
281
     1
  3
ACAD_XREC_ROUNDTRIP
360
164
  0
DICTIONARY
  5
159
330
33
100
AcDbDictionary
280
     1
281
     1
  3
ACAD_XREC_ROUNDTRIP
360
15A
  0
DICTIONARY
  5
161
330
37
100
AcDbDictionary
280
     1
281
     1
  3
ACAD_XREC_ROUNDTRIP
360
162
  0
XRECORD
  5
16C
102
{ACAD_REACTORS
330
16B
102
}
330
16B
100
AcDbXrecord
280
     1
102
MATERIAL
148
0.0
149
0.0
149
0.0
 93
        0
 94
      127
282
     0
 72
     1
 77
     1
171
     1
175
     1
179
     1
273
     0
  0
XRECORD
  5
16A
102
{ACAD_REACTORS
330
169
102
}
330
169
100
AcDbXrecord
280
     1
102
MATERIAL
148
0.0
149
0.0
149
0.0
 93
        0
 94
      127
282
     0
 72
     1
 77
     1
171
     1
175
     1
179
     1
273
     0
  0
XRECORD
  5
16E
102
{ACAD_REACTORS
330
16D
102
}
330
16D
100
AcDbXrecord
280
     1
102
MATERIAL
148
0.0
149
0.0
149
0.0
 93
        0
 94
      127
282
     0
 72
     1
 77
     1
171
     1
175
     1
179
     1
273
     0
  0
XRECORD
  5
152
102
{ACAD_REACTORS
330
151
102
}
330
151
100
AcDbXrecord
280
     1
102
RTVSPropertyOp0
 70
     1
102
RTVSPropertyOp1
 70
     1
102
RTVSPropertyOp2
 70
     1
102
RTVSPropertyOp3
 70
     1
102
RTVSPropertyOp4
 70
     1
102
RTVSPropertyOp5
 70
     1
102
RTVSPropertyOp6
 70
     1
102
RTVSPropertyOp7
 70
     1
102
RTVSPropertyOp8
 70
     1
102
RTVSPropertyOp9
 70
     1
102
RTVSPropertyOp10
 70
     1
102
RTVSPropertyOp11
 70
     1
102
RTVSPropertyOp12
 70
     1
102
RTVSPropertyOp13
 70
     1
102
RTVSPropertyOp14
 70
     1
102
RTVSPropertyOp15
 70
     1
102
RTVSPropertyOp16
 70
     1
102
RTVSPropertyOp17
 70
     1
102
RTVSPropertyOp18
 70
     1
102
RTVSPropertyOp19
 70
     1
102
RTVSPropertyOp20
 70
     1
102
RTVSPropertyOp21
 70
     1
102
RTVSPropertyOp22
 70
     1
102
RTVSPropertyOp23
 70
     1
102
RTVSPropertyOp24
 70
     1
102
RTVSPropertyOp25
 70
     1
102
RTVSPropertyOp26
 70
     1
102
RTVSPropertyOp27
 70
     1
102
RTVSPropertyOp28
 70
     1
102
RTVSPropertyOp29
 70
     1
102
RTVSPropertyOp30
 70
     1
102
RTVSPropertyOp31
 70
     1
102
RTVSPropertyOp32
 70
     1
  0
XRECORD
  5
156
102
{ACAD_REACTORS
330
155
102
}
330
155
100
AcDbXrecord
280
     1
102
RTVSPropertyOp0
 70
     1
102
RTVSPropertyOp1
 70
     1
102
RTVSPropertyOp2
 70
     1
102
RTVSPropertyOp3
 70
     1
102
RTVSPropertyOp4
 70
     1
102
RTVSPropertyOp5
 70
     1
102
RTVSPropertyOp6
 70
     1
102
RTVSPropertyOp7
 70
     1
102
RTVSPropertyOp8
 70
     1
102
RTVSPropertyOp9
 70
     1
102
RTVSPropertyOp10
 70
     1
102
RTVSPropertyOp11
 70
     1
102
RTVSPropertyOp12
 70
     1
102
RTVSPropertyOp13
 70
     1
102
RTVSPropertyOp14
 70
     1
102
RTVSPropertyOp15
 70
     1
102
RTVSPropertyOp16
 70
     1
102
RTVSPropertyOp17
 70
     1
102
RTVSPropertyOp18
 70
     1
102
RTVSPropertyOp19
 70
     1
102
RTVSPropertyOp20
 70
     1
102
RTVSPropertyOp21
 70
     1
102
RTVSPropertyOp22
 70
     1
102
RTVSPropertyOp23
 70
     1
102
RTVSPropertyOp24
 70
     1
102
RTVSPropertyOp25
 70
     1
102
RTVSPropertyOp26
 70
     1
102
RTVSPropertyOp27
 70
     1
102
RTVSPropertyOp28
 70
     1
102
RTVSPropertyOp29
 70
     1
102
RTVSPropertyOp30
 70
     1
102
RTVSPropertyOp31
 70
     1
102
RTVSPropertyOp32
 70
     1
  0
XRECORD
  5
154
102
{ACAD_REACTORS
330
153
102
}
330
153
100
AcDbXrecord
280
     1
102
RTVSPropertyOp0
 70
     1
102
RTVSPropertyOp1
 70
     1
102
RTVSPropertyOp2
 70
     1
102
RTVSPropertyOp3
 70
     1
102
RTVSPropertyOp4
 70
     1
102
RTVSPropertyOp5
 70
     1
102
RTVSPropertyOp6
 70
     1
102
RTVSPropertyOp7
 70
     1
102
RTVSPropertyOp8
 70
     1
102
RTVSPropertyOp9
 70
     1
102
RTVSPropertyOp10
 70
     1
102
RTVSPropertyOp11
 70
     1
102
RTVSPropertyOp12
 70
     1
102
RTVSPropertyOp13
 70
     1
102
RTVSPropertyOp14
 70
     1
102
RTVSPropertyOp15
 70
     1
102
RTVSPropertyOp16
 70
     1
102
RTVSPropertyOp17
 70
     1
102
RTVSPropertyOp18
 70
     1
102
RTVSPropertyOp19
 70
     1
102
RTVSPropertyOp20
 70
     1
102
RTVSPropertyOp21
 70
     1
102
RTVSPropertyOp22
 70
     1
102
RTVSPropertyOp23
 70
     1
102
RTVSPropertyOp24
 70
     1
102
RTVSPropertyOp25
 70
     1
102
RTVSPropertyOp26
 70
     1
102
RTVSPropertyOp27
 70
     1
102
RTVSPropertyOp28
 70
     1
102
RTVSPropertyOp29
 70
     1
102
RTVSPropertyOp30
 70
     1
102
RTVSPropertyOp31
 70
     1
102
RTVSPropertyOp32
 70
     1
  0
XRECORD
  5
158
102
{ACAD_REACTORS
330
157
102
}
330
157
100
AcDbXrecord
280
     1
102
RTVSPropertyOp0
 70
     1
102
RTVSPropertyOp1
 70
     1
102
RTVSPropertyOp2
 70
     1
102
RTVSPropertyOp3
 70
     1
102
RTVSPropertyOp4
 70
     1
102
RTVSPropertyOp5
 70
     1
102
RTVSPropertyOp6
 70
     1
102
RTVSPropertyOp7
 70
     1
102
RTVSPropertyOp8
 70
     1
102
RTVSPropertyOp9
 70
     1
102
RTVSPropertyOp10
 70
     1
102
RTVSPropertyOp11
 70
     1
102
RTVSPropertyOp12
 70
     1
102
RTVSPropertyOp13
 70
     1
102
RTVSPropertyOp14
 70
     1
102
RTVSPropertyOp15
 70
     1
102
RTVSPropertyOp16
 70
     1
102
RTVSPropertyOp17
 70
     1
102
RTVSPropertyOp18
 70
     1
102
RTVSPropertyOp19
 70
     1
102
RTVSPropertyOp20
 70
     1
102
RTVSPropertyOp21
 70
     1
102
RTVSPropertyOp22
 70
     1
102
RTVSPropertyOp23
 70
     1
102
RTVSPropertyOp24
 70
     1
102
RTVSPropertyOp25
 70
     1
102
RTVSPropertyOp26
 70
     1
102
RTVSPropertyOp27
 70
     1
102
RTVSPropertyOp28
 70
     1
102
RTVSPropertyOp29
 70
     1
102
RTVSPropertyOp30
 70
     1
102
RTVSPropertyOp31
 70
     1
102
RTVSPropertyOp32
 70
     1
  0
XRECORD
  5
160
102
{ACAD_REACTORS
330
15F
102
}
330
15F
100
AcDbXrecord
280
     1
102
RTVSPropertyOp0
 70
     1
102
RTVSPropertyOp1
 70
     1
102
RTVSPropertyOp2
 70
     1
102
RTVSPropertyOp3
 70
     1
102
RTVSPropertyOp4
 70
     1
102
RTVSPropertyOp5
 70
     1
102
RTVSPropertyOp6
 70
     1
102
RTVSPropertyOp7
 70
     1
102
RTVSPropertyOp8
 70
     1
102
RTVSPropertyOp9
 70
     1
102
RTVSPropertyOp10
 70
     1
102
RTVSPropertyOp11
 70
     1
102
RTVSPropertyOp12
 70
     1
102
RTVSPropertyOp13
 70
     1
102
RTVSPropertyOp14
 70
     1
102
RTVSPropertyOp15
 70
     1
102
RTVSPropertyOp16
 70
     1
102
RTVSPropertyOp17
 70
     1
102
RTVSPropertyOp18
 70
     1
102
RTVSPropertyOp19
 70
     1
102
RTVSPropertyOp20
 70
     1
102
RTVSPropertyOp21
 70
     1
102
RTVSPropertyOp22
 70
     1
102
RTVSPropertyOp23
 70
     1
102
RTVSPropertyOp24
 70
     1
102
RTVSPropertyOp25
 70
     1
102
RTVSPropertyOp26
 70
     1
102
RTVSPropertyOp27
 70
     1
102
RTVSPropertyOp28
 70
     1
102
RTVSPropertyOp29
 70
     1
102
RTVSPropertyOp30
 70
     1
102
RTVSPropertyOp31
 70
     1
102
RTVSPropertyOp32
 70
     1
  0
XRECORD
  5
168
102
{ACAD_REACTORS
330
167
102
}
330
167
100
AcDbXrecord
280
     1
102
RTVSPropertyOp0
 70
     1
102
RTVSPropertyOp1
 70
     1
102
RTVSPropertyOp2
 70
     1
102
RTVSPropertyOp3
 70
     1
102
RTVSPropertyOp4
 70
     1
102
RTVSPropertyOp5
 70
     1
102
RTVSPropertyOp6
 70
     1
102
RTVSPropertyOp7
 70
     1
102
RTVSPropertyOp8
 70
     1
102
RTVSPropertyOp9
 70
     1
102
RTVSPropertyOp10
 70
     1
102
RTVSPropertyOp11
 70
     1
102
RTVSPropertyOp12
 70
     1
102
RTVSPropertyOp13
 70
     1
102
RTVSPropertyOp14
 70
     1
102
RTVSPropertyOp15
 70
     1
102
RTVSPropertyOp16
 70
     1
102
RTVSPropertyOp17
 70
     1
102
RTVSPropertyOp18
 70
     1
102
RTVSPropertyOp19
 70
     1
102
RTVSPropertyOp20
 70
     1
102
RTVSPropertyOp21
 70
     1
102
RTVSPropertyOp22
 70
     1
102
RTVSPropertyOp23
 70
     1
102
RTVSPropertyOp24
 70
     1
102
RTVSPropertyOp25
 70
     1
102
RTVSPropertyOp26
 70
     1
102
RTVSPropertyOp27
 70
     1
102
RTVSPropertyOp28
 70
     1
102
RTVSPropertyOp29
 70
     1
102
RTVSPropertyOp30
 70
     1
102
RTVSPropertyOp31
 70
     1
102
RTVSPropertyOp32
 70
     1
  0
XRECORD
  5
15C
102
{ACAD_REACTORS
330
15B
102
}
330
15B
100
AcDbXrecord
280
     1
102
RTVSPropertyOp0
 70
     1
102
RTVSPropertyOp1
 70
     1
102
RTVSPropertyOp2
 70
     1
102
RTVSPropertyOp3
 70
     1
102
RTVSPropertyOp4
 70
     1
102
RTVSPropertyOp5
 70
     1
102
RTVSPropertyOp6
 70
     1
102
RTVSPropertyOp7
 70
     1
102
RTVSPropertyOp8
 70
     1
102
RTVSPropertyOp9
 70
     1
102
RTVSPropertyOp10
 70
     1
102
RTVSPropertyOp11
 70
     1
102
RTVSPropertyOp12
 70
     1
102
RTVSPropertyOp13
 70
     1
102
RTVSPropertyOp14
 70
     1
102
RTVSPropertyOp15
 70
     1
102
RTVSPropertyOp16
 70
     1
102
RTVSPropertyOp17
 70
     1
102
RTVSPropertyOp18
 70
     1
102
RTVSPropertyOp19
 70
     1
102
RTVSPropertyOp20
 70
     1
102
RTVSPropertyOp21
 70
     1
102
RTVSPropertyOp22
 70
     1
102
RTVSPropertyOp23
 70
     1
102
RTVSPropertyOp24
 70
     1
102
RTVSPropertyOp25
 70
     1
102
RTVSPropertyOp26
 70
     1
102
RTVSPropertyOp27
 70
     1
102
RTVSPropertyOp28
 70
     1
102
RTVSPropertyOp29
 70
     1
102
RTVSPropertyOp30
 70
     1
102
RTVSPropertyOp31
 70
     1
102
RTVSPropertyOp32
 70
     1
  0
XRECORD
  5
15E
102
{ACAD_REACTORS
330
15D
102
}
330
15D
100
AcDbXrecord
280
     1
102
RTVSPropertyOp0
 70
     1
102
RTVSPropertyOp1
 70
     1
102
RTVSPropertyOp2
 70
     1
102
RTVSPropertyOp3
 70
     1
102
RTVSPropertyOp4
 70
     1
102
RTVSPropertyOp5
 70
     1
102
RTVSPropertyOp6
 70
     1
102
RTVSPropertyOp7
 70
     1
102
RTVSPropertyOp8
 70
     1
102
RTVSPropertyOp9
 70
     1
102
RTVSPropertyOp10
 70
     1
102
RTVSPropertyOp11
 70
     1
102
RTVSPropertyOp12
 70
     1
102
RTVSPropertyOp13
 70
     1
102
RTVSPropertyOp14
 70
     1
102
RTVSPropertyOp15
 70
     1
102
RTVSPropertyOp16
 70
     1
102
RTVSPropertyOp17
 70
     1
102
RTVSPropertyOp18
 70
     1
102
RTVSPropertyOp19
 70
     1
102
RTVSPropertyOp20
 70
     1
102
RTVSPropertyOp21
 70
     1
102
RTVSPropertyOp22
 70
     1
102
RTVSPropertyOp23
 70
     1
102
RTVSPropertyOp24
 70
     1
102
RTVSPropertyOp25
 70
     1
102
RTVSPropertyOp26
 70
     1
102
RTVSPropertyOp27
 70
     1
102
RTVSPropertyOp28
 70
     1
102
RTVSPropertyOp29
 70
     1
102
RTVSPropertyOp30
 70
     1
102
RTVSPropertyOp31
 70
     1
102
RTVSPropertyOp32
 70
     1
  0
XRECORD
  5
166
102
{ACAD_REACTORS
330
165
102
}
330
165
100
AcDbXrecord
280
     1
102
RTVSPropertyOp0
 70
     1
102
RTVSPropertyOp1
 70
     1
102
RTVSPropertyOp2
 70
     1
102
RTVSPropertyOp3
 70
     1
102
RTVSPropertyOp4
 70
     1
102
RTVSPropertyOp5
 70
     1
102
RTVSPropertyOp6
 70
     1
102
RTVSPropertyOp7
 70
     1
102
RTVSPropertyOp8
 70
     1
102
RTVSPropertyOp9
 70
     1
102
RTVSPropertyOp10
 70
     1
102
RTVSPropertyOp11
 70
     1
102
RTVSPropertyOp12
 70
     1
102
RTVSPropertyOp13
 70
     1
102
RTVSPropertyOp14
 70
     1
102
RTVSPropertyOp15
 70
     1
102
RTVSPropertyOp16
 70
     1
102
RTVSPropertyOp17
 70
     1
102
RTVSPropertyOp18
 70
     1
102
RTVSPropertyOp19
 70
     1
102
RTVSPropertyOp20
 70
     1
102
RTVSPropertyOp21
 70
     1
102
RTVSPropertyOp22
 70
     1
102
RTVSPropertyOp23
 70
     1
102
RTVSPropertyOp24
 70
     1
102
RTVSPropertyOp25
 70
     1
102
RTVSPropertyOp26
 70
     1
102
RTVSPropertyOp27
 70
     1
102
RTVSPropertyOp28
 70
     1
102
RTVSPropertyOp29
 70
     1
102
RTVSPropertyOp30
 70
     1
102
RTVSPropertyOp31
 70
     1
102
RTVSPropertyOp32
 70
     1
  0
XRECORD
  5
14A
102
{ACAD_REACTORS
330
149
102
}
330
149
100
AcDbXrecord
280
     1
102
RTVSPropertyOp0
 70
     1
102
RTVSPropertyOp1
 70
     1
102
RTVSPropertyOp2
 70
     1
102
RTVSPropertyOp3
 70
     1
102
RTVSPropertyOp4
 70
     1
102
RTVSPropertyOp5
 70
     1
102
RTVSPropertyOp6
 70
     1
102
RTVSPropertyOp7
 70
     1
102
RTVSPropertyOp8
 70
     1
102
RTVSPropertyOp9
 70
     1
102
RTVSPropertyOp10
 70
     1
102
RTVSPropertyOp11
 70
     1
102
RTVSPropertyOp12
 70
     1
102
RTVSPropertyOp13
 70
     1
102
RTVSPropertyOp14
 70
     1
102
RTVSPropertyOp15
 70
     1
102
RTVSPropertyOp16
 70
     1
102
RTVSPropertyOp17
 70
     1
102
RTVSPropertyOp18
 70
     1
102
RTVSPropertyOp19
 70
     1
102
RTVSPropertyOp20
 70
     1
102
RTVSPropertyOp21
 70
     1
102
RTVSPropertyOp22
 70
     1
102
RTVSPropertyOp23
 70
     1
102
RTVSPropertyOp24
 70
     1
102
RTVSPropertyOp25
 70
     1
102
RTVSPropertyOp26
 70
     1
102
RTVSPropertyOp27
 70
     1
102
RTVSPropertyOp28
 70
     1
102
RTVSPropertyOp29
 70
     1
102
RTVSPropertyOp30
 70
     1
102
RTVSPropertyOp31
 70
     1
102
RTVSPropertyOp32
 70
     1
  0
XRECORD
  5
14C
102
{ACAD_REACTORS
330
14B
102
}
330
14B
100
AcDbXrecord
280
     1
102
RTVSPropertyOp0
 70
     1
102
RTVSPropertyOp1
 70
     1
102
RTVSPropertyOp2
 70
     1
102
RTVSPropertyOp3
 70
     1
102
RTVSPropertyOp4
 70
     1
102
RTVSPropertyOp5
 70
     1
102
RTVSPropertyOp6
 70
     1
102
RTVSPropertyOp7
 70
     1
102
RTVSPropertyOp8
 70
     1
102
RTVSPropertyOp9
 70
     1
102
RTVSPropertyOp10
 70
     1
102
RTVSPropertyOp11
 70
     1
102
RTVSPropertyOp12
 70
     1
102
RTVSPropertyOp13
 70
     1
102
RTVSPropertyOp14
 70
     1
102
RTVSPropertyOp15
 70
     1
102
RTVSPropertyOp16
 70
     1
102
RTVSPropertyOp17
 70
     1
102
RTVSPropertyOp18
 70
     1
102
RTVSPropertyOp19
 70
     1
102
RTVSPropertyOp20
 70
     1
102
RTVSPropertyOp21
 70
     1
102
RTVSPropertyOp22
 70
     1
102
RTVSPropertyOp23
 70
     1
102
RTVSPropertyOp24
 70
     1
102
RTVSPropertyOp25
 70
     1
102
RTVSPropertyOp26
 70
     1
102
RTVSPropertyOp27
 70
     1
102
RTVSPropertyOp28
 70
     1
102
RTVSPropertyOp29
 70
     1
102
RTVSPropertyOp30
 70
     1
102
RTVSPropertyOp31
 70
     1
102
RTVSPropertyOp32
 70
     1
  0
XRECORD
  5
14E
102
{ACAD_REACTORS
330
14D
102
}
330
14D
100
AcDbXrecord
280
     1
102
RTVSPropertyOp0
 70
     1
102
RTVSPropertyOp1
 70
     1
102
RTVSPropertyOp2
 70
     1
102
RTVSPropertyOp3
 70
     1
102
RTVSPropertyOp4
 70
     1
102
RTVSPropertyOp5
 70
     1
102
RTVSPropertyOp6
 70
     1
102
RTVSPropertyOp7
 70
     1
102
RTVSPropertyOp8
 70
     1
102
RTVSPropertyOp9
 70
     1
102
RTVSPropertyOp10
 70
     1
102
RTVSPropertyOp11
 70
     1
102
RTVSPropertyOp12
 70
     1
102
RTVSPropertyOp13
 70
     1
102
RTVSPropertyOp14
 70
     1
102
RTVSPropertyOp15
 70
     1
102
RTVSPropertyOp16
 70
     1
102
RTVSPropertyOp17
 70
     1
102
RTVSPropertyOp18
 70
     1
102
RTVSPropertyOp19
 70
     1
102
RTVSPropertyOp20
 70
     1
102
RTVSPropertyOp21
 70
     1
102
RTVSPropertyOp22
 70
     1
102
RTVSPropertyOp23
 70
     1
102
RTVSPropertyOp24
 70
     1
102
RTVSPropertyOp25
 70
     1
102
RTVSPropertyOp26
 70
     1
102
RTVSPropertyOp27
 70
     1
102
RTVSPropertyOp28
 70
     1
102
RTVSPropertyOp29
 70
     1
102
RTVSPropertyOp30
 70
     1
102
RTVSPropertyOp31
 70
     1
102
RTVSPropertyOp32
 70
     1
  0
XRECORD
  5
150
102
{ACAD_REACTORS
330
14F
102
}
330
14F
100
AcDbXrecord
280
     1
102
RTVSPropertyOp0
 70
     1
102
RTVSPropertyOp1
 70
     1
102
RTVSPropertyOp2
 70
     1
102
RTVSPropertyOp3
 70
     1
102
RTVSPropertyOp4
 70
     1
102
RTVSPropertyOp5
 70
     1
102
RTVSPropertyOp6
 70
     1
102
RTVSPropertyOp7
 70
     1
102
RTVSPropertyOp8
 70
     1
102
RTVSPropertyOp9
 70
     1
102
RTVSPropertyOp10
 70
     1
102
RTVSPropertyOp11
 70
     1
102
RTVSPropertyOp12
 70
     1
102
RTVSPropertyOp13
 70
     1
102
RTVSPropertyOp14
 70
     1
102
RTVSPropertyOp15
 70
     1
102
RTVSPropertyOp16
 70
     1
102
RTVSPropertyOp17
 70
     1
102
RTVSPropertyOp18
 70
     1
102
RTVSPropertyOp19
 70
     1
102
RTVSPropertyOp20
 70
     1
102
RTVSPropertyOp21
 70
     1
102
RTVSPropertyOp22
 70
     1
102
RTVSPropertyOp23
 70
     1
102
RTVSPropertyOp24
 70
     1
102
RTVSPropertyOp25
 70
     1
102
RTVSPropertyOp26
 70
     1
102
RTVSPropertyOp27
 70
     1
102
RTVSPropertyOp28
 70
     1
102
RTVSPropertyOp29
 70
     1
102
RTVSPropertyOp30
 70
     1
102
RTVSPropertyOp31
 70
     1
102
RTVSPropertyOp32
 70
     1
  0
XRECORD
  5
164
102
{ACAD_REACTORS
330
163
102
}
330
163
100
AcDbXrecord
280
     1
102
RTVSPropertyOp0
 70
     1
102
RTVSPropertyOp1
 70
     1
102
RTVSPropertyOp2
 70
     1
102
RTVSPropertyOp3
 70
     1
102
RTVSPropertyOp4
 70
     1
102
RTVSPropertyOp5
 70
     1
102
RTVSPropertyOp6
 70
     1
102
RTVSPropertyOp7
 70
     1
102
RTVSPropertyOp8
 70
     1
102
RTVSPropertyOp9
 70
     1
102
RTVSPropertyOp10
 70
     1
102
RTVSPropertyOp11
 70
     1
102
RTVSPropertyOp12
 70
     1
102
RTVSPropertyOp13
 70
     1
102
RTVSPropertyOp14
 70
     1
102
RTVSPropertyOp15
 70
     1
102
RTVSPropertyOp16
 70
     1
102
RTVSPropertyOp17
 70
     1
102
RTVSPropertyOp18
 70
     1
102
RTVSPropertyOp19
 70
     1
102
RTVSPropertyOp20
 70
     1
102
RTVSPropertyOp21
 70
     1
102
RTVSPropertyOp22
 70
     1
102
RTVSPropertyOp23
 70
     1
102
RTVSPropertyOp24
 70
     1
102
RTVSPropertyOp25
 70
     1
102
RTVSPropertyOp26
 70
     1
102
RTVSPropertyOp27
 70
     1
102
RTVSPropertyOp28
 70
     1
102
RTVSPropertyOp29
 70
     1
102
RTVSPropertyOp30
 70
     1
102
RTVSPropertyOp31
 70
     1
102
RTVSPropertyOp32
 70
     1
  0
XRECORD
  5
15A
102
{ACAD_REACTORS
330
159
102
}
330
159
100
AcDbXrecord
280
     1
102
RTVSPropertyOp0
 70
     1
102
RTVSPropertyOp1
 70
     1
102
RTVSPropertyOp2
 70
     1
102
RTVSPropertyOp3
 70
     1
102
RTVSPropertyOp4
 70
     1
102
RTVSPropertyOp5
 70
     1
102
RTVSPropertyOp6
 70
     1
102
RTVSPropertyOp7
 70
     1
102
RTVSPropertyOp8
 70
     1
102
RTVSPropertyOp9
 70
     1
102
RTVSPropertyOp10
 70
     1
102
RTVSPropertyOp11
 70
     1
102
RTVSPropertyOp12
 70
     1
102
RTVSPropertyOp13
 70
     1
102
RTVSPropertyOp14
 70
     1
102
RTVSPropertyOp15
 70
     1
102
RTVSPropertyOp16
 70
     1
102
RTVSPropertyOp17
 70
     1
102
RTVSPropertyOp18
 70
     1
102
RTVSPropertyOp19
 70
     1
102
RTVSPropertyOp20
 70
     1
102
RTVSPropertyOp21
 70
     1
102
RTVSPropertyOp22
 70
     1
102
RTVSPropertyOp23
 70
     1
102
RTVSPropertyOp24
 70
     1
102
RTVSPropertyOp25
 70
     1
102
RTVSPropertyOp26
 70
     1
102
RTVSPropertyOp27
 70
     1
102
RTVSPropertyOp28
 70
     1
102
RTVSPropertyOp29
 70
     1
102
RTVSPropertyOp30
 70
     1
102
RTVSPropertyOp31
 70
     1
102
RTVSPropertyOp32
 70
     1
  0
XRECORD
  5
162
102
{ACAD_REACTORS
330
161
102
}
330
161
100
AcDbXrecord
280
     1
102
RTVSPropertyOp0
 70
     1
102
RTVSPropertyOp1
 70
     1
102
RTVSPropertyOp2
 70
     1
102
RTVSPropertyOp3
 70
     1
102
RTVSPropertyOp4
 70
     1
102
RTVSPropertyOp5
 70
     1
102
RTVSPropertyOp6
 70
     1
102
RTVSPropertyOp7
 70
     1
102
RTVSPropertyOp8
 70
     1
102
RTVSPropertyOp9
 70
     1
102
RTVSPropertyOp10
 70
     1
102
RTVSPropertyOp11
 70
     1
102
RTVSPropertyOp12
 70
     1
102
RTVSPropertyOp13
 70
     1
102
RTVSPropertyOp14
 70
     1
102
RTVSPropertyOp15
 70
     1
102
RTVSPropertyOp16
 70
     1
102
RTVSPropertyOp17
 70
     1
102
RTVSPropertyOp18
 70
     1
102
RTVSPropertyOp19
 70
     1
102
RTVSPropertyOp20
 70
     1
102
RTVSPropertyOp21
 70
     1
102
RTVSPropertyOp22
 70
     1
102
RTVSPropertyOp23
 70
     1
102
RTVSPropertyOp24
 70
     1
102
RTVSPropertyOp25
 70
     1
102
RTVSPropertyOp26
 70
     1
102
RTVSPropertyOp27
 70
     1
102
RTVSPropertyOp28
 70
     1
102
RTVSPropertyOp29
 70
     1
102
RTVSPropertyOp30
 70
     1
102
RTVSPropertyOp31
 70
     1
102
RTVSPropertyOp32
 70
     1
  0
ENDSEC
  0
EOF
