  0
SECTION
  2
HEADER
  9
$ACADVER
  1
AC1015
  9
$ACADMAINTVER
 70
     6
  9
$DWGCODEPAGE
  3
ANSI_1252
  9
$INSBASE
 10
0.0
 20
0.0
 30
0.0
  9
$EXTMIN
 10
0.0
 20
0.0
 30
0.0
  9
$EXTMAX
 10
210.0
 20
297.0
 30
0.0
  9
$LIMMIN
 10
0.0
 20
0.0
  9
$LIMMAX
 10
210.0
 20
297.0
  9
$ORTHOMODE
 70
     0
  9
$REGENMODE
 70
     1
  9
$FILLMODE
 70
     1
  9
$QTEXTMODE
 70
     0
  9
$MIRRTEXT
 70
     1
  9
$LTSCALE
 40
1.0
  9
$ATTMODE
 70
     1
  9
$TEXTSIZE
 40
2.5
  9
$TRACEWID
 40
1.0
  9
$TEXTSTYLE
  7
Standard
  9
$CLAYER
  8
0
  9
$CELTYPE
  6
ByLayer
  9
$CECOLOR
 62
   256
  9
$CELTSCALE
 40
1.0
  9
$DISPSILH
 70
     0
  9
$DIMSCALE
 40
1.0
  9
$DIMASZ
 40
2.5
  9
$DIMEXO
 40
0.625
  9
$DIMDLI
 40
3.75
  9
$DIMRND
 40
0.0
  9
$DIMDLE
 40
0.0
  9
$DIMEXE
 40
1.25
  9
$DIMTP
 40
0.0
  9
$DIMTM
 40
0.0
  9
$DIMTXT
 40
2.5
  9
$DIMCEN
 40
2.5
  9
$DIMTSZ
 40
0.0
  9
$DIMTOL
 70
     0
  9
$DIMLIM
 70
     0
  9
$DIMTIH
 70
     0
  9
$DIMTOH
 70
     0
  9
$DIMSE1
 70
     0
  9
$DIMSE2
 70
     0
  9
$DIMTAD
 70
     1
  9
$DIMZIN
 70
     8
  9
$DIMBLK
  1

  9
$DIMASO
 70
     1
  9
$DIMSHO
 70
     1
  9
$DIMPOST
  1

  9
$DIMAPOST
  1

  9
$DIMALT
 70
     0
  9
$DIMALTD
 70
     3
  9
$DIMALTF
 40
0.0393700787
  9
$DIMLFAC
 40
1.0
  9
$DIMTOFL
 70
     1
  9
$DIMTVP
 40
0.0
  9
$DIMTIX
 70
     0
  9
$DIMSOXD
 70
     0
  9
$DIMSAH
 70
     0
  9
$DIMBLK1
  1

  9
$DIMBLK2
  1

  9
$DIMSTYLE
  2
ISO-25
  9
$DIMCLRD
 70
     0
  9
$DIMCLRE
 70
     0
  9
$DIMCLRT
 70
     0
  9
$DIMTFAC
 40
1.0
  9
$DIMGAP
 40
0.625
  9
$DIMJUST
 70
     0
  9
$DIMSD1
 70
     0
  9
$DIMSD2
 70
     0
  9
$DIMTOLJ
 70
     0
  9
$DIMTZIN
 70
     8
  9
$DIMALTZ
 70
     0
  9
$DIMALTTZ
 70
     0
  9
$DIMUPT
 70
     0
  9
$DIMDEC
 70
     2
  9
$DIMTDEC
 70
     2
  9
$DIMALTU
 70
     2
  9
$DIMALTTD
 70
     3
  9
$DIMTXSTY
  7
Standard
  9
$DIMAUNIT
 70
     0
  9
$DIMADEC
 70
     0
  9
$DIMALTRND
 40
0.0
  9
$DIMAZIN
 70
     0
  9
$DIMDSEP
 70
    44
  9
$DIMATFIT
 70
     3
  9
$DIMFRAC
 70
     0
  9
$DIMLDRBLK
  1

  9
$DIMLUNIT
 70
     2
  9
$DIMLWD
 70
    -2
  9
$DIMLWE
 70
    -2
  9
$DIMTMOVE
 70
     0
  9
$LUNITS
 70
     2
  9
$LUPREC
 70
     4
  9
$SKETCHINC
 40
1.0
  9
$FILLETRAD
 40
10.0
  9
$AUNITS
 70
     0
  9
$AUPREC
 70
     0
  9
$MENU
  1
.
  9
$ELEVATION
 40
0.0
  9
$PELEVATION
 40
0.0
  9
$THICKNESS
 40
0.0
  9
$LIMCHECK
 70
     0
  9
$CHAMFERA
 40
10.0
  9
$CHAMFERB
 40
10.0
  9
$CHAMFERC
 40
20.0
  9
$CHAMFERD
 40
0.0
  9
$SKPOLY
 70
     0
  9
$TDCREATE
 40
2457570.415588889
  9
$TDUCREATE
 40
2457570.332255556
  9
$TDUPDATE
 40
2457570.415614711
  9
$TDUUPDATE
 40
2457570.332281377
  9
$TDINDWG
 40
0.0000000116
  9
$TDUSRTIMER
 40
0.0000000116
  9
$USRTIMER
 70
     1
  9
$ANGBASE
 50
0.0
  9
$ANGDIR
 70
     0
  9
$PDMODE
 70
     0
  9
$PDSIZE
 40
0.0
  9
$PLINEWID
 40
0.0
  9
$SPLFRAME
 70
     0
  9
$SPLINETYPE
 70
     6
  9
$SPLINESEGS
 70
     8
  9
$HANDSEED
  5
189
  9
$SURFTAB1
 70
     6
  9
$SURFTAB2
 70
     6
  9
$SURFTYPE
 70
     6
  9
$SURFU
 70
     6
  9
$SURFV
 70
     6
  9
$UCSBASE
  2

  9
$UCSNAME
  2

  9
$UCSORG
 10
0.0
 20
0.0
 30
0.0
  9
$UCSXDIR
 10
1.0
 20
0.0
 30
0.0
  9
$UCSYDIR
 10
0.0
 20
1.0
 30
0.0
  9
$UCSORTHOREF
  2

  9
$UCSORTHOVIEW
 70
     0
  9
$UCSORGTOP
 10
0.0
 20
0.0
 30
0.0
  9
$UCSORGBOTTOM
 10
0.0
 20
0.0
 30
0.0
  9
$UCSORGLEFT
 10
0.0
 20
0.0
 30
0.0
  9
$UCSORGRIGHT
 10
0.0
 20
0.0
 30
0.0
  9
$UCSORGFRONT
 10
0.0
 20
0.0
 30
0.0
  9
$UCSORGBACK
 10
0.0
 20
0.0
 30
0.0
  9
$PUCSBASE
  2

  9
$PUCSNAME
  2

  9
$PUCSORG
 10
0.0
 20
0.0
 30
0.0
  9
$PUCSXDIR
 10
1.0
 20
0.0
 30
0.0
  9
$PUCSYDIR
 10
0.0
 20
1.0
 30
0.0
  9
$PUCSORTHOREF
  2

  9
$PUCSORTHOVIEW
 70
     0
  9
$PUCSORGTOP
 10
0.0
 20
0.0
 30
0.0
  9
$PUCSORGBOTTOM
 10
0.0
 20
0.0
 30
0.0
  9
$PUCSORGLEFT
 10
0.0
 20
0.0
 30
0.0
  9
$PUCSORGRIGHT
 10
0.0
 20
0.0
 30
0.0
  9
$PUCSORGFRONT
 10
0.0
 20
0.0
 30
0.0
  9
$PUCSORGBACK
 10
0.0
 20
0.0
 30
0.0
  9
$USERI1
 70
     0
  9
$USERI2
 70
     0
  9
$USERI3
 70
     0
  9
$USERI4
 70
     0
  9
$USERI5
 70
     0
  9
$USERR1
 40
0.0
  9
$USERR2
 40
0.0
  9
$USERR3
 40
0.0
  9
$USERR4
 40
0.0
  9
$USERR5
 40
0.0
  9
$WORLDVIEW
 70
     1
  9
$SHADEDGE
 70
     3
  9
$SHADEDIF
 70
    70
  9
$TILEMODE
 70
     1
  9
$MAXACTVP
 70
    64
  9
$PINSBASE
 10
0.0
 20
0.0
 30
0.0
  9
$PLIMCHECK
 70
     0
  9
$PEXTMIN
 10
0.0
 20
0.0
 30
0.0
  9
$PEXTMAX
 10
210.0
 20
297.0
 30
0.0
  9
$PLIMMIN
 10
0.0
 20
0.0
  9
$PLIMMAX
 10
210.0
 20
297.0
  9
$UNITMODE
 70
     0
  9
$VISRETAIN
 70
     1
  9
$PLINEGEN
 70
     0
  9
$PSLTSCALE
 70
     1
  9
$TREEDEPTH
 70
  3020
  9
$CMLSTYLE
  2
Standard
  9
$CMLJUST
 70
     0
  9
$CMLSCALE
 40
20.0
  9
$PROXYGRAPHICS
 70
     1
  9
$MEASUREMENT
 70
     1
  9
$CELWEIGHT
370
    -1
  9
$ENDCAPS
280
     0
  9
$JOINSTYLE
280
     0
  9
$LWDISPLAY
290
     0
  9
$INSUNITS
 70
     4
  9
$HYPERLINKBASE
  1

  9
$STYLESHEET
  1

  9
$XEDIT
290
     1
  9
$CEPSNTYPE
380
     0
  9
$PSTYLEMODE
290
     1
  9
$FINGERPRINTGUID
  2
{676A193F-A348-4BCD-87B2-F9849DB1EB12}
  9
$VERSIONGUID
  2
{FAEB1C32-E019-11D5-929B-00C0DF256EC4}
  9
$EXTNAMES
290
     1
  9
$PSVPSCALE
 40
0.0
  9
$OLESTARTUP
290
     0
  0
ENDSEC
  0
SECTION
  2
CLASSES
  0
CLASS
  1
ACDBDICTIONARYWDFLT
  2
AcDbDictionaryWithDefault
  3
ObjectDBX Classes
 90
        0
280
     0
281
     0
  0
CLASS
  1
VISUALSTYLE
  2
AcDbVisualStyle
  3
ObjectDBX Classes
 90
     4095
280
     0
281
     0
  0
CLASS
  1
MATERIAL
  2
AcDbMaterial
  3
ObjectDBX Classes
 90
     1153
280
     0
281
     0
  0
CLASS
  1
DICTIONARYVAR
  2
AcDbDictionaryVar
  3
ObjectDBX Classes
 90
        0
280
     0
281
     0
  0
CLASS
  1
ACDBPLACEHOLDER
  2
AcDbPlaceHolder
  3
ObjectDBX Classes
 90
        0
280
     0
281
     0
  0
CLASS
  1
LAYOUT
  2
AcDbLayout
  3
ObjectDBX Classes
 90
        0
280
     0
281
     0
  0
ENDSEC
  0
SECTION
  2
TABLES
  0
TABLE
  2
VPORT
  5
8
330
0
100
AcDbSymbolTable
 70
     1
  0
VPORT
  5
29
330
8
100
AcDbSymbolTableRecord
100
AcDbViewportTableRecord
  2
*Active
 70
     0
 10
0.0
 20
0.0
 11
1.0
 21
1.0
 12
344.1869158879
 22
148.5
 13
0.0
 23
0.0
 14
10.0
 24
10.0
 15
10.0
 25
10.0
 16
0.0
 26
0.0
 36
1.0
 17
0.0
 27
0.0
 37
0.0
 40
297.0
 41
1.9729729729
 42
50.0
 43
0.0
 44
0.0
 50
0.0
 51
0.0
 71
     0
 72
   100
 73
     1
 74
     3
 75
     0
 76
     0
 77
     0
 78
     0
281
     0
 65
     1
110
0.0
120
0.0
130
0.0
111
1.0
121
0.0
131
0.0
112
0.0
122
1.0
132
0.0
 79
     0
146
0.0
  0
ENDTAB
  0
TABLE
  2
LTYPE
  5
5
330
0
100
AcDbSymbolTable
 70
     2
  0
LTYPE
  5
14
330
5
100
AcDbSymbolTableRecord
100
AcDbLinetypeTableRecord
  2
ByBlock
 70
     0
  3

 72
    65
 73
     0
 40
0.0
  0
LTYPE
  5
15
330
5
100
AcDbSymbolTableRecord
100
AcDbLinetypeTableRecord
  2
ByLayer
 70
     0
  3

 72
    65
 73
     0
 40
0.0
  0
LTYPE
  5
16
330
5
100
AcDbSymbolTableRecord
100
AcDbLinetypeTableRecord
  2
Continuous
 70
     0
  3
Solid line
 72
    65
 73
     0
 40
0.0
  0
LTYPE
  5
5A
330
5
100
AcDbSymbolTableRecord
100
AcDbLinetypeTableRecord
  2
HIDDEN2
 70
     0
  3
Hidden (.5x) _ _ _ _ _ _ _ _ _ _ _ _ _ _ _ _ _ 
 72
    65
 73
     2
 40
4.7625
 49
3.175
 74
     4
 75
     0
340
0
 46
0.0
 50
0.0
 44
0.0
 45
0.0
 49
-1.5875
 74
     4
 75
     0
340
0
 46
0.0
 50
0.0
 44
0.0
 45
0.0
  0
ENDTAB
  0
TABLE
  2
LAYER
  5
2
330
0
100
AcDbSymbolTable
 70
     5
  0
LAYER
  5
10
330
2
100
AcDbSymbolTableRecord
100
AcDbLayerTableRecord
  2
0
 70
     0
 62
     7
  6
Continuous
370
    -3
390
F
  0
LAYER
  5
3F
330
2
100
AcDbSymbolTableRecord
100
AcDbLayerTableRecord
  2
SK2
 70
     0
 62
     7
  6
Continuous
370
    15
390
F
  0
LAYER
  5
40
330
2
100
AcDbSymbolTableRecord
100
AcDbLayerTableRecord
  2
SK1
 70
     0
 62
     4
  6
Continuous
370
    18
390
F
  0
LAYER
  5
59
330
2
100
AcDbSymbolTableRecord
100
AcDbLayerTableRecord
  2
SK3
 70
     0
 62
     1
  6
HIDDEN2
370
    15
390
F
  0
LAYER
  5
11C
330
2
100
AcDbSymbolTableRecord
100
AcDbLayerTableRecord
  2
SK4
 70
     0
 62
     2
  6
Continuous
370
    13
390
F
  0
ENDTAB
  0
TABLE
  2
STYLE
  5
3
330
0
100
AcDbSymbolTable
 70
     2
  0
STYLE
  5
11
330
3
100
AcDbSymbolTableRecord
100
AcDbTextStyleTableRecord
  2
Standard
 70
     0
 40
0.0
 41
1.0
 50
0.0
 71
     0
 42
2.5
  3
txt
  4

  0
STYLE
  5
130
330
3
100
AcDbSymbolTableRecord
100
AcDbTextStyleTableRecord
  2
SEACAD_Solid_Edge_ISO
 70
     0
 40
0.0
 41
1.0
 50
0.0
 71
     0
 42
0.2
  3
seiso.ttf
  4

1001
ACAD
1000
Solid Edge ISO
1071
        0
  0
ENDTAB
  0
TABLE
  2
VIEW
  5
6
330
0
100
AcDbSymbolTable
 70
     0
  0
ENDTAB
  0
TABLE
  2
UCS
  5
7
330
0
100
AcDbSymbolTable
 70
     0
  0
ENDTAB
  0
TABLE
  2
APPID
  5
9
330
0
100
AcDbSymbolTable
 70
     1
  0
APPID
  5
12
330
9
100
AcDbSymbolTableRecord
100
AcDbRegAppTableRecord
  2
ACAD
 70
     0
  0
ENDTAB
  0
TABLE
  2
DIMSTYLE
  5
A
330
0
100
AcDbSymbolTable
 70
     3
100
AcDbDimStyleTable
  0
DIMSTYLE
105
27
330
A
100
AcDbSymbolTableRecord
100
AcDbDimStyleTableRecord
  2
ISO-25
 70
     0
 41
2.5
 42
0.625
 43
3.75
 44
1.25
 73
     0
 74
     0
 77
     1
 78
     8
140
2.5
141
2.5
143
0.0393700787
147
0.625
171
     3
172
     1
178
     0
271
     2
272
     2
274
     3
278
    44
283
     0
284
     8
340
11
  0
DIMSTYLE
105
11E
330
A
100
AcDbSymbolTableRecord
100
AcDbDimStyleTableRecord
  2
Standard
 70
     0
178
     0
340
11
  0
DIMSTYLE
105
131
102
{ACAD_REACTORS
330
132
330
13D
330
147
330
152
102
}
330
A
100
AcDbSymbolTableRecord
100
AcDbDimStyleTableRecord
  2
DIN
 70
     0
 41
3.5
 42
0.0
 44
1.75
 73
     0
 74
     0
 77
     1
 78
     8
140
3.5
141
1.75
147
1.75
172
     1
173
     1
178
     0
179
     3
271
     2
272
     2
278
    44
284
     8
340
130
343
12B
344
12B
  0
ENDTAB
  0
TABLE
  2
BLOCK_RECORD
  5
1
330
0
100
AcDbSymbolTable
 70
    10
  0
BLOCK_RECORD
  5
1F
330
1
100
AcDbSymbolTableRecord
100
AcDbBlockTableRecord
  2
*Model_Space
340
22
  0
BLOCK_RECORD
  5
1B
330
1
100
AcDbSymbolTableRecord
100
AcDbBlockTableRecord
  2
*Paper_Space
340
1E
  0
BLOCK_RECORD
  5
41
330
1
100
AcDbSymbolTableRecord
100
AcDbBlockTableRecord
  2
Nullpunkt
340
0
102
{BLKREFS
331
4B
102
}
  0
BLOCK_RECORD
  5
4C
330
1
100
AcDbSymbolTableRecord
100
AcDbBlockTableRecord
  2
Einfügepunkt
340
0
102
{BLKREFS
331
56
102
}
  0
BLOCK_RECORD
  5
11F
330
1
100
AcDbSymbolTableRecord
100
AcDbBlockTableRecord
  2
_OBLIQUE
340
0
  0
BLOCK_RECORD
  5
123
330
1
100
AcDbSymbolTableRecord
100
AcDbBlockTableRecord
  2
_DOT
340
0
  0
BLOCK_RECORD
  5
12B
330
1
100
AcDbSymbolTableRecord
100
AcDbBlockTableRecord
  2
_SE_FILLED
340
0
  0
BLOCK_RECORD
  5
133
330
1
100
AcDbSymbolTableRecord
100
AcDbBlockTableRecord
  2
DMBLK29
340
0
  0
BLOCK_RECORD
  5
13E
330
1
100
AcDbSymbolTableRecord
100
AcDbBlockTableRecord
  2
DMBLK30
340
0
  0
BLOCK_RECORD
  5
148
330
1
100
AcDbSymbolTableRecord
100
AcDbBlockTableRecord
  2
DMBLK31
340
0
  0
BLOCK_RECORD
  5
153
330
1
100
AcDbSymbolTableRecord
100
AcDbBlockTableRecord
  2
DMBLK32
340
0
  0
ENDTAB
  0
ENDSEC
  0
SECTION
  2
BLOCKS
  0
BLOCK
  5
20
330
1F
100
AcDbEntity
  8
0
100
AcDbBlockBegin
  2
*Model_Space
 70
     0
 10
0.0
 20
0.0
 30
0.0
  3
*Model_Space
  1

  0
ENDBLK
  5
21
330
1F
100
AcDbEntity
  8
0
100
AcDbBlockEnd
  0
BLOCK
  5
1C
330
1B
100
AcDbEntity
 67
     1
  8
0
100
AcDbBlockBegin
  2
*Paper_Space
 70
     0
 10
0.0
 20
0.0
 30
0.0
  3
*Paper_Space
  1

  0
ENDBLK
  5
1D
330
1B
100
AcDbEntity
 67
     1
  8
0
100
AcDbBlockEnd
  0
BLOCK
  5
49
330
41
100
AcDbEntity
  8
0
100
AcDbBlockBegin
  2
Nullpunkt
 70
     0
 10
0.0
 20
0.0
 30
0.0
  3
Nullpunkt
  1

  0
HATCH
  5
42
330
41
100
AcDbEntity
  8
SK2
  6
Continuous
 62
     7
100
AcDbHatch
 10
0.0
 20
0.0
 30
0.0
210
0.0
220
0.0
230
1.0
  2
SOLID
 70
     1
 71
     0
 91
        1
 92
        1
 93
        3
 72
     1
 10
-1.0
 20
0.0
 11
0.0000000000000009
 21
0.0
 72
     1
 10
0.0
 20
0.0
 11
0.0
 21
1.000000000000001
 72
     2
 10
0.0
 20
0.0
 40
1.0
 50
90.0
 51
180.0
 73
     1
 97
        0
 75
     0
 76
     1
 98
        0
  0
HATCH
  5
43
330
41
100
AcDbEntity
  8
SK2
  6
Continuous
 62
     7
100
AcDbHatch
 10
0.0
 20
0.0
 30
0.0
210
0.0
220
0.0
230
1.0
  2
SOLID
 70
     1
 71
     0
 91
        1
 92
        1
 93
        3
 72
     2
 10
0.0
 20
0.0
 40
1.0
 50
270.0
 51
360.0
 73
     1
 72
     1
 10
1.0
 20
0.0
 11
-0.0000000000000009
 21
0.0
 72
     1
 10
0.0
 20
0.0
 11
0.0
 21
-1.000000000000001
 97
        0
 75
     0
 76
     1
 98
        0
  0
CIRCLE
  5
44
330
41
100
AcDbEntity
  8
SK2
  6
Continuous
 62
     7
100
AcDbCircle
 10
0.0
 20
0.0
 30
0.0
 40
1.0
  0
LINE
  5
45
330
41
100
AcDbEntity
  8
SK1
  6
Continuous
100
AcDbLine
 10
-1.0
 20
0.0
 30
0.0
 11
1.0
 21
0.0
 31
0.0
  0
LINE
  5
46
330
41
100
AcDbEntity
  8
SK1
  6
Continuous
100
AcDbLine
 10
0.0
 20
1.0
 30
0.0
 11
0.0
 21
-1.0
 31
0.0
  0
POINT
  5
47
330
41
100
AcDbEntity
  8
SK1
  6
Continuous
100
AcDbPoint
 10
0.0
 20
0.0
 30
0.0
  0
POINT
  5
48
330
41
100
AcDbEntity
  8
SK1
  6
Continuous
100
AcDbPoint
 10
0.0
 20
0.0
 30
0.0
  0
ENDBLK
  5
4A
330
41
100
AcDbEntity
  8
0
100
AcDbBlockEnd
  0
BLOCK
  5
54
330
4C
100
AcDbEntity
  8
0
100
AcDbBlockBegin
  2
Einfügepunkt
 70
     0
 10
0.0
 20
0.0
 30
0.0
  3
Einfügepunkt
  1

  0
HATCH
  5
4D
330
4C
100
AcDbEntity
  8
SK2
  6
Continuous
 62
     7
100
AcDbHatch
 10
0.0
 20
0.0
 30
0.0
210
0.0
220
0.0
230
1.0
  2
SOLID
 70
     1
 71
     0
 91
        1
 92
        1
 93
        3
 72
     1
 10
-0.4502381196756744
 20
-0.0000000000000018
 11
0.0000000000000033
 21
-0.0000000000000018
 72
     1
 10
0.0
 20
-0.0000000000000018
 11
0.0
 21
0.4502381196756812
 72
     2
 10
0.0
 20
-0.0000000000000018
 40
0.4502381196756812
 50
90.0
 51
180.0
 73
     1
 97
        0
 75
     0
 76
     1
 98
        0
  0
HATCH
  5
4E
330
4C
100
AcDbEntity
  8
SK2
  6
Continuous
 62
     7
100
AcDbHatch
 10
0.0
 20
0.0
 30
0.0
210
0.0
220
0.0
230
1.0
  2
SOLID
 70
     1
 71
     0
 91
        1
 92
        1
 93
        3
 72
     2
 10
0.0
 20
-0.0000000000000018
 40
0.4502381196756812
 50
270.0
 51
360.0
 73
     1
 72
     1
 10
0.4502381196756815
 20
-0.0000000000000018
 11
0.0000000000000038
 21
-0.0000000000000018
 72
     1
 10
0.0
 20
-0.0000000000000018
 11
0.0
 21
-0.4502381196756812
 97
        0
 75
     0
 76
     1
 98
        0
  0
CIRCLE
  5
4F
330
4C
100
AcDbEntity
  8
SK2
  6
Continuous
 62
     7
100
AcDbCircle
 10
0.0
 20
0.0
 30
0.0
 40
0.4502381196756812
  0
LINE
  5
50
330
4C
100
AcDbEntity
  8
SK1
  6
Continuous
100
AcDbLine
 10
-0.4502381197
 20
0.0
 30
0.0
 11
0.4502381197
 21
0.0
 31
0.0
  0
LINE
  5
51
330
4C
100
AcDbEntity
  8
SK1
  6
Continuous
100
AcDbLine
 10
0.0
 20
0.4502381197
 30
0.0
 11
0.0
 21
-0.4502381197
 31
0.0
  0
POINT
  5
52
330
4C
100
AcDbEntity
  8
SK2
  6
Continuous
 62
     7
100
AcDbPoint
 10
0.0
 20
0.0
 30
0.0
  0
POINT
  5
53
330
4C
100
AcDbEntity
  8
SK2
  6
Continuous
 62
     7
100
AcDbPoint
 10
0.0
 20
0.0
 30
0.0
  0
ENDBLK
  5
55
330
4C
100
AcDbEntity
  8
0
100
AcDbBlockEnd
  0
BLOCK
  5
120
330
11F
100
AcDbEntity
  8
0
100
AcDbBlockBegin
  2
_OBLIQUE
 70
     0
 10
0.0
 20
0.0
 30
0.0
  3
_OBLIQUE
  1

  0
LINE
  5
122
330
11F
100
AcDbEntity
  8
0
  6
ByBlock
 62
     0
370
    -2
100
AcDbLine
 10
-0.5
 20
-0.5
 30
0.0
 11
0.5
 21
0.5
 31
0.0
  0
ENDBLK
  5
121
330
11F
100
AcDbEntity
  8
0
100
AcDbBlockEnd
  0
BLOCK
  5
124
330
123
100
AcDbEntity
  8
0
100
AcDbBlockBegin
  2
_DOT
 70
     0
 10
0.0
 20
0.0
 30
0.0
  3
_DOT
  1

  0
POLYLINE
  5
126
330
123
100
AcDbEntity
  8
0
  6
ByBlock
 62
     0
100
AcDb2dPolyline
 66
     1
 10
0.0
 20
0.0
 30
0.0
 70
     1
 40
0.5
 41
0.5
  0
VERTEX
  5
128
330
126
100
AcDbEntity
  8
0
  6
ByBlock
 62
     0
100
AcDbVertex
100
AcDb2dVertex
 10
-0.25
 20
0.0
 30
0.0
 42
1.0
  0
VERTEX
  5
129
330
126
100
AcDbEntity
  8
0
  6
ByBlock
 62
     0
100
AcDbVertex
100
AcDb2dVertex
 10
0.25
 20
0.0
 30
0.0
 42
1.0
  0
SEQEND
  5
12A
330
126
100
AcDbEntity
  8
0
  6
ByBlock
 62
     0
  0
LINE
  5
127
330
123
100
AcDbEntity
  8
0
  6
ByBlock
 62
     0
370
    -2
100
AcDbLine
 10
-0.5
 20
0.0
 30
0.0
 11
-1.0
 21
0.0
 31
0.0
  0
ENDBLK
  5
125
330
123
100
AcDbEntity
  8
0
100
AcDbBlockEnd
  0
BLOCK
  5
12E
330
12B
100
AcDbEntity
  8
0
100
AcDbBlockBegin
  2
_SE_FILLED
 70
     0
 10
0.0
 20
0.0
 30
0.0
  3
_SE_FILLED
  1

  0
SOLID
  5
12C
330
12B
100
AcDbEntity
  8
0
 62
     0
100
AcDbTrace
 10
0.0
 20
0.0
 30
0.0
 11
-1.0
 21
-0.1665
 31
0.0
 12
-1.0
 22
0.1665
 32
0.0
 13
0.0
 23
0.0
 33
0.0
  0
LINE
  5
12D
330
12B
100
AcDbEntity
  8
0
 62
     0
100
AcDbLine
 10
0.0
 20
0.0
 30
0.0
 11
-1.0
 21
0.0
 31
0.0
  0
ENDBLK
  5
12F
330
12B
100
AcDbEntity
  8
0
100
AcDbBlockEnd
  0
BLOCK
  5
13B
330
133
100
AcDbEntity
  8
0
100
AcDbBlockBegin
  2
DMBLK29
 70
     0
 10
0.0
 20
0.0
 30
0.0
  3
DMBLK29
  1

  0
HATCH
  5
134
330
133
100
AcDbEntity
  8
SK2
  6
Continuous
 62
   136
100
AcDbHatch
 10
0.0
 20
0.0
 30
0.0
210
0.0
220
0.0
230
1.0
  2
SOLID
 70
     1
 71
     0
 91
        1
 92
        1
 93
        3
 72
     1
 10
16.71856134148936
 20
-7.60500000826284
 11
16.13522799015045
 21
-4.104999900229421
 72
     1
 10
16.13522799015045
 20
-4.104999900229421
 11
15.55189463881155
 21
-7.60500000826284
 72
     1
 10
15.55189463881155
 20
-7.60500000826284
 11
16.71856134148936
 21
-7.60500000826284
 97
        0
 75
     0
 76
     1
 98
        0
  0
HATCH
  5
135
330
133
100
AcDbEntity
  8
SK2
  6
Continuous
 62
   136
100
AcDbHatch
 10
0.0
 20
0.0
 30
0.0
210
0.0
220
0.0
230
1.0
  2
SOLID
 70
     1
 71
     0
 91
        1
 92
        1
 93
        3
 72
     1
 10
16.71856134148936
 20
7.605000207803996
 11
15.55189463881155
 21
7.605000207803996
 72
     1
 10
15.55189463881155
 20
7.605000207803996
 11
16.13522799015045
 21
4.105000099770578
 72
     1
 10
16.13522799015045
 20
4.105000099770577
 11
16.71856134148936
 21
7.605000207803996
 97
        0
 75
     0
 76
     1
 98
        0
  0
LINE
  5
136
330
133
100
AcDbEntity
  8
SK2
  6
Continuous
 62
   136
100
AcDbLine
 10
7.2
 20
-4.1049999002
 30
0.0
 11
17.8852280442
 21
-4.1049999002
 31
0.0
  0
LINE
  5
137
330
133
100
AcDbEntity
  8
SK2
  6
Continuous
 62
   136
100
AcDbLine
 10
7.2
 20
4.1050000998
 30
0.0
 11
17.8852280442
 21
4.1050000998
 31
0.0
  0
LINE
  5
138
330
133
100
AcDbEntity
  8
SK2
  6
Continuous
 62
   136
100
AcDbLine
 10
16.1352279902
 20
-11.1050001163
 30
0.0
 11
16.1352279902
 21
21.7101293799
 31
0.0
  0
TEXT
  5
139
330
133
100
AcDbEntity
  8
SK2
  6
Continuous
 62
   136
100
AcDbText
 10
15.2602279902
 20
14.0419474472
 30
0.0
 40
3.5
  1
8,21
 50
90.0
  7
SEACAD_Solid_Edge_ISO
 11
11.7602279902
 21
14.0419474472
 31
0.0
100
AcDbText
 73
     3
  0
TEXT
  5
13A
330
133
100
AcDbEntity
  8
SK2
  6
Continuous
 62
   136
100
AcDbText
 10
15.2602279902
 20
9.9692201745
 30
0.0
 40
3.5
  1
ø
 50
90.0
  7
SEACAD_Solid_Edge_ISO
 11
11.7602279902
 21
9.9692201745
 31
0.0
100
AcDbText
 73
     3
  0
ENDBLK
  5
13C
330
133
100
AcDbEntity
  8
0
100
AcDbBlockEnd
  0
BLOCK
  5
145
330
13E
100
AcDbEntity
  8
0
100
AcDbBlockBegin
  2
DMBLK30
 70
     0
 10
0.0
 20
0.0
 30
0.0
  3
DMBLK30
  1

  0
HATCH
  5
13F
330
13E
100
AcDbEntity
  8
SK2
  6
Continuous
 62
   136
100
AcDbHatch
 10
0.0
 20
0.0
 30
0.0
210
0.0
220
0.0
230
1.0
  2
SOLID
 70
     1
 71
     0
 91
        1
 92
        1
 93
        3
 72
     1
 10
4.099999891966664
 20
17.19349056084248
 11
4.099999891966664
 21
16.02682385816467
 72
     1
 10
4.099999891966664
 20
16.02682385816467
 11
7.600000000000082
 21
16.61015720950358
 72
     1
 10
7.600000000000082
 20
16.61015720950358
 11
4.099999891966664
 21
17.19349056084248
 97
        0
 75
     0
 76
     1
 98
        0
  0
HATCH
  5
140
330
13E
100
AcDbEntity
  8
SK2
  6
Continuous
 62
   136
100
AcDbHatch
 10
0.0
 20
0.0
 30
0.0
210
0.0
220
0.0
230
1.0
  2
SOLID
 70
     1
 71
     0
 91
        1
 92
        1
 93
        3
 72
     1
 10
-20.40000039860598
 20
17.19349056084248
 11
-23.9000005066394
 21
16.61015720950358
 72
     1
 10
-23.9000005066394
 20
16.61015720950358
 11
-20.40000039860598
 21
16.02682385816467
 72
     1
 10
-20.40000039860598
 20
16.02682385816467
 11
-20.40000039860598
 21
17.19349056084248
 97
        0
 75
     0
 76
     1
 98
        0
  0
LINE
  5
141
330
13E
100
AcDbEntity
  8
SK2
  6
Continuous
 62
   136
100
AcDbLine
 10
7.6
 20
7.7343811272
 30
0.0
 11
7.6
 21
18.3601572635
 31
0.0
  0
LINE
  5
142
330
13E
100
AcDbEntity
  8
SK2
  6
Continuous
 62
   136
100
AcDbLine
 10
-23.9
 20
6.3677371654
 30
0.0
 11
-23.9
 21
18.3601572635
 31
0.0
  0
LINE
  5
143
330
13E
100
AcDbEntity
  8
SK2
  6
Continuous
 62
   136
100
AcDbLine
 10
7.6
 20
16.6101572095
 30
0.0
 11
-23.9000005066
 21
16.6101572095
 31
0.0
  0
TEXT
  5
144
330
13E
100
AcDbEntity
  8
SK2
  6
Continuous
 62
   136
100
AcDbText
 10
-11.0931820715
 20
17.4851572095
 30
0.0
 40
3.5
  1
31,5
  7
SEACAD_Solid_Edge_ISO
 11
-11.0931820715
 21
20.9851572095
 31
0.0
100
AcDbText
 73
     3
  0
ENDBLK
  5
146
330
13E
100
AcDbEntity
  8
0
100
AcDbBlockEnd
  0
BLOCK
  5
150
330
148
100
AcDbEntity
  8
0
100
AcDbBlockBegin
  2
DMBLK31
 70
     0
 10
0.0
 20
0.0
 30
0.0
  3
DMBLK31
  1

  0
HATCH
  5
149
330
148
100
AcDbEntity
  8
SK2
  6
Continuous
 62
   136
100
AcDbHatch
 10
0.0
 20
0.0
 30
0.0
210
0.0
220
0.0
230
1.0
  2
SOLID
 70
     1
 71
     0
 91
        1
 92
        1
 93
        3
 72
     1
 10
-29.49065951442095
 20
6.427905029110629
 11
-28.32399281174314
 21
6.427905029110629
 72
     1
 10
-28.32399281174314
 20
6.427905029110629
 11
-28.90732616308204
 21
9.927905137144048
 72
     1
 10
-28.90732616308204
 20
9.927905137144046
 11
-29.49065951442095
 21
6.427905029110628
 97
        0
 75
     0
 76
     1
 98
        0
  0
HATCH
  5
14A
330
148
100
AcDbEntity
  8
SK2
  6
Continuous
 62
   136
100
AcDbHatch
 10
0.0
 20
0.0
 30
0.0
210
0.0
220
0.0
230
1.0
  2
SOLID
 70
     1
 71
     0
 91
        1
 92
        1
 93
        3
 72
     1
 10
-29.49065951442095
 20
-6.427905084140581
 11
-28.90732616308204
 21
-9.927905192173998
 72
     1
 10
-28.90732616308204
 20
-9.927905192174
 11
-28.32399281174314
 21
-6.427905084140582
 72
     1
 10
-28.32399281174314
 20
-6.427905084140581
 11
-29.49065951442095
 21
-6.427905084140581
 97
        0
 75
     0
 76
     1
 98
        0
  0
LINE
  5
14B
330
148
100
AcDbEntity
  8
SK2
  6
Continuous
 62
   136
100
AcDbLine
 10
-0.4556692404
 20
9.9279051371
 30
0.0
 11
-30.6573262171
 21
9.9279051371
 31
0.0
  0
LINE
  5
14C
330
148
100
AcDbEntity
  8
SK2
  6
Continuous
 62
   136
100
AcDbLine
 10
-0.4556692404
 20
-9.9279049376
 30
0.0
 11
-30.6573262171
 21
-9.9279049376
 31
0.0
  0
LINE
  5
14D
330
148
100
AcDbEntity
  8
SK2
  6
Continuous
 62
   136
100
AcDbLine
 10
-28.9073261631
 20
9.9279051371
 30
0.0
 11
-28.9073261631
 21
-9.9279051922
 31
0.0
  0
TEXT
  5
14E
330
148
100
AcDbEntity
  8
SK2
  6
Continuous
 62
   136
100
AcDbText
 10
-29.7823261631
 20
-0.0715909366
 30
0.0
 40
3.5
  1
20
 50
90.0
  7
SEACAD_Solid_Edge_ISO
 11
-33.2823261631
 21
-0.0715909366
 31
0.0
100
AcDbText
 73
     3
  0
TEXT
  5
14F
330
148
100
AcDbEntity
  8
SK2
  6
Continuous
 62
   136
100
AcDbText
 10
-29.7823261631
 20
-4.1443182093
 30
0.0
 40
3.5
  1
ø
 50
90.0
  7
SEACAD_Solid_Edge_ISO
 11
-33.2823261631
 21
-4.1443182093
 31
0.0
100
AcDbText
 73
     3
  0
ENDBLK
  5
151
330
148
100
AcDbEntity
  8
0
100
AcDbBlockEnd
  0
BLOCK
  5
15A
330
153
100
AcDbEntity
  8
0
100
AcDbBlockBegin
  2
DMBLK32
 70
     0
 10
0.0
 20
0.0
 30
0.0
  3
DMBLK32
  1

  0
HATCH
  5
154
330
153
100
AcDbEntity
  8
SK2
  6
Continuous
 62
   136
100
AcDbHatch
 10
0.0
 20
0.0
 30
0.0
210
0.0
220
0.0
230
1.0
  2
SOLID
 70
     1
 71
     0
 91
        1
 92
        1
 93
        3
 72
     1
 10
-3.500000108033419
 20
-17.65027073222842
 11
0.0
 21
-17.06693738088952
 72
     1
 10
0.0
 20
-17.06693738088952
 11
-3.500000108033419
 21
-16.48360402955062
 72
     1
 10
-3.500000108033419
 20
-16.48360402955062
 11
-3.500000108033419
 21
-17.65027073222842
 97
        0
 75
     0
 76
     1
 98
        0
  0
HATCH
  5
155
330
153
100
AcDbEntity
  8
SK2
  6
Continuous
 62
   136
100
AcDbHatch
 10
0.0
 20
0.0
 30
0.0
210
0.0
220
0.0
230
1.0
  2
SOLID
 70
     1
 71
     0
 91
        1
 92
        1
 93
        3
 72
     1
 10
11.10000010806476
 20
-17.65027073222842
 11
11.10000010806476
 21
-16.48360402955062
 72
     1
 10
11.10000010806476
 20
-16.48360402955062
 11
7.600000000031345
 21
-17.06693738088952
 72
     1
 10
7.600000000031345
 20
-17.06693738088952
 11
11.10000010806476
 21
-17.65027073222842
 97
        0
 75
     0
 76
     1
 98
        0
  0
LINE
  5
156
330
153
100
AcDbEntity
  8
SK2
  6
Continuous
 62
   136
100
AcDbLine
 10
0.0
 20
-9.531463006
 30
0.0
 11
0.0
 21
-18.8169374349
 31
0.0
  0
LINE
  5
157
330
153
100
AcDbEntity
  8
SK2
  6
Continuous
 62
   136
100
AcDbLine
 10
7.6
 20
-7.7343810408
 30
0.0
 11
7.6
 21
-18.8169374349
 31
0.0
  0
LINE
  5
158
330
153
100
AcDbEntity
  8
SK2
  6
Continuous
 62
   136
100
AcDbLine
 10
-12.9830241203
 20
-17.0669373809
 30
0.0
 11
14.6000003442
 21
-17.0669373809
 31
0.0
  0
TEXT
  5
159
330
153
100
AcDbEntity
  8
SK2
  6
Continuous
 62
   136
100
AcDbText
 10
-11.758024307
 20
-16.1919373809
 30
0.0
 40
3.5
  1
7,6
  7
SEACAD_Solid_Edge_ISO
 11
-11.758024307
 21
-12.6919373809
 31
0.0
100
AcDbText
 73
     3
  0
ENDBLK
  5
15B
330
153
100
AcDbEntity
  8
0
100
AcDbBlockEnd
  0
ENDSEC
  0
SECTION
  2
ENTITIES
  0
INSERT
  5
4B
330
1F
100
AcDbEntity
  8
SK2
 62
     7
100
AcDbBlockReference
  2
Nullpunkt
 10
0.0
 20
0.0000000998
 30
0.0
  0
INSERT
  5
56
330
1F
100
AcDbEntity
  8
SK2
 62
     7
100
AcDbBlockReference
  2
Einfügepunkt
 10
7.6
 20
0.0000000998
 30
0.0
  0
LINE
  5
57
330
1F
100
AcDbEntity
  8
SK1
  6
Continuous
100
AcDbLine
 10
2.6
 20
-8.6999999002
 30
0.0
 11
2.6
 21
-6.4281660379
 31
0.0
  0
LINE
  5
58
330
1F
100
AcDbEntity
  8
SK1
  6
Continuous
100
AcDbLine
 10
0.2
 20
5.8624808125
 30
0.0
 11
0.2
 21
0.4000000998
 31
0.0
  0
LINE
  5
5B
330
1F
100
AcDbEntity
  8
SK3
100
AcDbLine
 10
-10.2
 20
3.4522276106
 30
0.0
 11
-10.2
 21
4.482187066
 31
0.0
  0
LINE
  5
5C
330
1F
100
AcDbEntity
  8
SK3
100
AcDbLine
 10
-14.2
 20
3.4522276106
 30
0.0
 11
-14.2
 21
4.482187066
 31
0.0
  0
LINE
  5
5D
330
1F
100
AcDbEntity
  8
SK3
100
AcDbLine
 10
-21.1
 20
3.8070448496
 30
0.0
 11
-21.1
 21
4.9839744175
 31
0.0
  0
LINE
  5
5E
330
1F
100
AcDbEntity
  8
SK3
100
AcDbLine
 10
-14.6907477288
 20
-3.342912124
 30
0.0
 11
-14.6907477288
 21
-2.8482373192
 31
0.0
  0
LINE
  5
5F
330
1F
100
AcDbEntity
  8
SK3
100
AcDbLine
 10
-14.6907477288
 20
1.465413988
 30
0.0
 11
-14.6907477288
 21
2.2825520938
 31
0.0
  0
LINE
  5
60
330
1F
100
AcDbEntity
  8
SK3
100
AcDbLine
 10
-14.2866025404
 20
0.4855047704
 30
0.0
 11
-21.1
 21
0.4855047704
 31
0.0
  0
LINE
  5
61
330
1F
100
AcDbEntity
  8
SK3
100
AcDbLine
 10
-14.2866025404
 20
0.4855047704
 30
0.0
 11
-14.2866025404
 21
0.4000000998
 31
0.0
  0
ARC
  5
62
330
1F
100
AcDbEntity
  8
SK3
100
AcDbCircle
 10
-9.1275755381
 20
1.6217818976
 30
0.0
 40
5.823330212788313
100
AcDbArc
 50
152.3654233251
 51
162.8090139682
  0
LINE
  5
63
330
1F
100
AcDbEntity
  8
SK3
100
AcDbLine
 10
-14.6907477288
 20
3.3429123236
 30
0.0
 11
-21.1
 21
3.3429123236
 31
0.0
  0
LINE
  5
64
330
1F
100
AcDbEntity
  8
SK3
100
AcDbLine
 10
-21.1
 20
1.465413988
 30
0.0
 11
-14.6907477288
 21
1.465413988
 31
0.0
  0
ARC
  5
65
330
1F
100
AcDbEntity
  8
SK3
100
AcDbCircle
 10
-9.1278491025
 20
3.1864315875
 30
0.0
 40
5.82303552315465
100
AcDbArc
 50
197.1907210353
 51
207.6348416714
  0
LINE
  5
66
330
1F
100
AcDbEntity
  8
SK3
100
AcDbLine
 10
-14.2866025404
 20
4.3228215412
 30
0.0
 11
-21.1
 21
4.3228215412
 31
0.0
  0
LINE
  5
67
330
1F
100
AcDbEntity
  8
SK3
100
AcDbLine
 10
-14.2866025404
 20
-4.3228213417
 30
0.0
 11
-21.1
 21
-4.3228213417
 31
0.0
  0
LINE
  5
68
330
1F
100
AcDbEntity
  8
SK3
100
AcDbLine
 10
-14.2866025404
 20
-4.3228213417
 30
0.0
 11
-14.2866025404
 21
-4.3315700543
 31
0.0
  0
ARC
  5
69
330
1F
100
AcDbEntity
  8
SK3
100
AcDbCircle
 10
-9.1275755381
 20
-3.1865442145
 30
0.0
 40
5.823330212788283
100
AcDbArc
 50
152.3654233251
 51
162.8090139682
  0
LINE
  5
6A
330
1F
100
AcDbEntity
  8
SK3
100
AcDbLine
 10
-14.6907477288
 20
-1.4654137885
 30
0.0
 11
-21.1
 21
-1.4654137885
 31
0.0
  0
LINE
  5
6B
330
1F
100
AcDbEntity
  8
SK3
100
AcDbLine
 10
-21.1
 20
-3.342912124
 30
0.0
 11
-14.6907477288
 21
-3.342912124
 31
0.0
  0
ARC
  5
6C
330
1F
100
AcDbEntity
  8
SK3
100
AcDbCircle
 10
-9.1278491025
 20
-1.6218945246
 30
0.0
 40
5.823035523154664
100
AcDbArc
 50
197.1907210353
 51
207.6348416714
  0
LINE
  5
6D
330
1F
100
AcDbEntity
  8
SK3
100
AcDbLine
 10
-14.2866025404
 20
-0.4855045708
 30
0.0
 11
-21.1
 21
-0.4855045708
 31
0.0
  0
LINE
  5
6E
330
1F
100
AcDbEntity
  8
SK1
  6
Continuous
100
AcDbLine
 10
3.1794228634
 20
10.4309402074
 30
0.0
 11
3.1794228634
 21
7.6532061523
 31
0.0
  0
LINE
  5
6F
330
1F
100
AcDbEntity
  8
SK1
  6
Continuous
100
AcDbLine
 10
2.8
 20
10.2118803151
 30
0.0
 11
2.8
 21
7.4981909512
 31
0.0
  0
LINE
  5
70
330
1F
100
AcDbEntity
  8
SK1
  6
Continuous
100
AcDbLine
 10
-0.4556692404
 20
7.3029317871
 30
0.0
 11
-0.4556692404
 21
9.9279051371
 31
0.0
  0
LINE
  5
71
330
1F
100
AcDbEntity
  8
SK1
  6
Continuous
100
AcDbLine
 10
0.0
 20
7.0226049868
 30
0.0
 11
0.0
 21
9.5314631741
 31
0.0
  0
LINE
  5
72
330
1F
100
AcDbEntity
  8
SK1
  6
Continuous
100
AcDbLine
 10
7.475
 20
-5.8978498212
 30
0.0
 11
7.475
 21
-7.9508873918
 31
0.0
  0
LINE
  5
73
330
1F
100
AcDbEntity
  8
SK1
  6
Continuous
100
AcDbLine
 10
7.6
 20
5.1788719362
 30
0.0
 11
7.6
 21
-5.1788717367
 31
0.0
  0
LINE
  5
74
330
1F
100
AcDbEntity
  8
SK1
  6
Continuous
100
AcDbLine
 10
7.475
 20
7.9508875913
 30
0.0
 11
7.475
 21
5.8978500207
 31
0.0
  0
SPLINE
  5
75
330
1F
100
AcDbEntity
  8
SK1
  6
Continuous
100
AcDbSpline
210
0.0
220
0.0
230
1.0
 70
     8
 71
     3
 72
    10
 73
     6
 74
     0
 42
0.0000000469833378
 43
0.0000000001
 12
1.0
 22
0.0
 32
0.0
 13
1.0
 23
0.0
 33
0.0
 40
0.0
 40
0.0
 40
0.0
 40
0.0
 40
0.5
 40
0.5
 40
1.0
 40
1.0
 40
1.0
 40
1.0
 10
7.475000000021391
 20
5.332164595818828
 30
0.0
 10
7.51264629061214
 20
5.316776075655945
 30
0.0
 10
7.544707906803651
 20
5.29414511602922
 30
0.0
 10
7.588450517183713
 20
5.240429736587759
 30
0.0
 10
7.600000000000065
 20
5.209662642676009
 30
0.0
 10
7.600000000002108
 20
5.178871936224145
 30
0.0
  0
SPLINE
  5
76
330
1F
100
AcDbEntity
  8
SK1
  6
Continuous
100
AcDbSpline
210
0.0
220
0.0
230
1.0
 70
     8
 71
     3
 72
    38
 73
    34
 74
     0
 42
0.0000000090869775
 43
0.0000000001
 12
1.0
 22
0.0
 32
0.0
 13
1.0
 23
0.0
 33
0.0
 40
0.0
 40
0.0
 40
0.0
 40
0.0
 40
0.0277678947950884
 40
0.0277678947950884
 40
0.0277678947950884
 40
0.1410278096774132
 40
0.1410278096774132
 40
0.1410278096774132
 40
0.2522431483975262
 40
0.2522431483975262
 40
0.2522431483975262
 40
0.3604647865491164
 40
0.3604647865491164
 40
0.3604647865491164
 40
0.4662262962029021
 40
0.4662262962029021
 40
0.4662262962029021
 40
0.5000795511568586
 40
0.5000795511568586
 40
0.5000795511568586
 40
0.6044461896762386
 40
0.6044461896762386
 40
0.6044461896762386
 40
0.7087698068997237
 40
0.7087698068997237
 40
0.7087698068997237
 40
0.8137775638829271
 40
0.8137775638829271
 40
0.8137775638829271
 40
0.9207089614033248
 40
0.9207089614033248
 40
0.9207089614033248
 40
1.0
 40
1.0
 40
1.0
 40
1.0
 10
-21.49235111132024
 20
4.644260030622016
 30
0.0
 10
-21.50405370932045
 20
4.643095142476428
 30
0.0
 10
-21.51577042287073
 20
4.64229668700242
 30
0.0
 10
-21.52744007422584
 20
4.641870267859793
 30
0.0
 10
-21.57463389702023
 20
4.640145764801313
 30
0.0
 10
-21.62190148179538
 20
4.644648982167129
 30
0.0
 10
-21.6651148559143
 20
4.655067028616632
 30
0.0
 10
-21.70754810177625
 20
4.665296998745243
 30
0.0
 10
-21.74727795064589
 20
4.681531343978091
 30
0.0
 10
-21.7806895109134
 20
4.702337369234848
 30
0.0
 10
-21.81321354467296
 20
4.722590714557098
 30
0.0
 10
-21.84067025982533
 20
4.747748838775201
 30
0.0
 10
-21.86055014655571
 20
4.775551546418495
 30
0.0
 10
-21.87998636221068
 20
4.802733764751831
 30
0.0
 10
-21.89272661338491
 20
4.833201317764876
 30
0.0
 10
-21.89762433470783
 20
4.864301350745703
 30
0.0
 10
-21.89921285617689
 20
4.874388300741706
 30
0.0
 10
-21.90000730587563
 20
4.884600844589289
 30
0.0
 10
-21.89999994921711
 20
4.894844774184739
 30
0.0
 10
-21.89997755878293
 20
4.9260227921527
 30
0.0
 10
-21.89233356108123
 20
4.958070872251007
 30
0.0
 10
-21.87774152187061
 20
4.98837284194267
 30
0.0
 10
-21.86315281038306
 20
5.018667901252438
 30
0.0
 10
-21.84122700868107
 20
5.048050839985461
 30
0.0
 10
-21.81385721821308
 20
5.074269701244179
 30
0.0
 10
-21.7863035590948
 20
5.100664699278127
 30
0.0
 10
-21.75250168031975
 20
5.124572970572475
 30
0.0
 10
-21.71527876136072
 20
5.144301212243526
 30
0.0
 10
-21.67737526198278
 20
5.164390163266678
 30
0.0
 10
-21.63492442510034
 20
5.180692782588718
 30
0.0
 10
-21.59136103080347
 20
5.192142235274334
 30
0.0
 10
-21.5590325185602
 20
5.20063890495079
 30
0.0
 10
-21.52555780758931
 20
5.206640028277491
 30
0.0
 10
-21.49235111132024
 20
5.209945455571254
 30
0.0
  0
LINE
  5
77
330
1F
100
AcDbEntity
  8
SK1
  6
Continuous
100
AcDbLine
 10
2.8
 20
-10.2118801156
 30
0.0
 11
2.8
 21
-7.4981907517
 31
0.0
  0
LINE
  5
78
330
1F
100
AcDbEntity
  8
SK1
  6
Continuous
100
AcDbLine
 10
3.1794228634
 20
-10.4309400079
 30
0.0
 11
3.1794228634
 21
-7.6532059528
 31
0.0
  0
LINE
  5
79
330
1F
100
AcDbEntity
  8
SK3
100
AcDbLine
 10
-14.6907477288
 20
2.8482375187
 30
0.0
 11
-14.6907477288
 21
3.3429123236
 31
0.0
  0
LINE
  5
7A
330
1F
100
AcDbEntity
  8
SK1
  6
Continuous
100
AcDbLine
 10
2.6
 20
8.7000000998
 30
0.0
 11
2.6
 21
6.4281662374
 31
0.0
  0
SPLINE
  5
7B
330
1F
100
AcDbEntity
  8
SK3
100
AcDbSpline
210
0.0
220
0.0
230
1.0
 70
     8
 71
     3
 72
    38
 73
    34
 74
     0
 42
0.0000000092121795
 43
0.0000000001
 12
1.0
 22
0.0
 32
0.0
 13
1.0
 23
0.0
 33
0.0
 40
0.0
 40
0.0
 40
0.0
 40
0.0
 40
0.0353536599693716
 40
0.0353536599693716
 40
0.0353536599693716
 40
0.143218745139627
 40
0.143218745139627
 40
0.143218745139627
 40
0.2504978036141848
 40
0.2504978036141848
 40
0.2504978036141848
 40
0.3576511821212018
 40
0.3576511821212018
 40
0.3576511821212018
 40
0.4649245310125361
 40
0.4649245310125361
 40
0.4649245310125361
 40
0.4996227731278958
 40
0.4996227731278958
 40
0.4996227731278958
 40
0.6069668412590197
 40
0.6069668412590197
 40
0.6069668412590197
 40
0.7143123481200787
 40
0.7143123481200787
 40
0.7143123481200787
 40
0.8216287460096728
 40
0.8216287460096728
 40
0.8216287460096728
 40
0.92882188073602
 40
0.92882188073602
 40
0.92882188073602
 40
1.0
 40
1.0
 40
1.0
 40
1.0
 10
-21.68418961612408
 20
3.807044849586417
 30
0.0
 10
-21.69902728276069
 20
3.807044849586573
 30
0.0
 10
-21.71388780883288
 20
3.806509874749831
 30
0.0
 10
-21.72863400947737
 20
3.80544286994991
 30
0.0
 10
-21.77333420983347
 20
3.802208455236096
 30
0.0
 10
-21.81779481727971
 20
3.793906911443115
 30
0.0
 10
-21.8582890358456
 20
3.781098478464704
 30
0.0
 10
-21.8985687630285
 20
3.768357889702103
 30
0.0
 10
-21.93603776604762
 20
3.75079890895075
 30
0.0
 10
-21.96759374332774
 20
3.729676373210494
 30
0.0
 10
-21.99911450171026
 20
3.70857741184465
 30
0.0
 10
-22.02560631742254
 20
3.683332530444387
 30
0.0
 10
-22.0448986000589
 20
3.655832711576852
 30
0.0
 10
-22.06421209431975
 20
3.628302657000969
 30
0.0
 10
-22.07684361459903
 20
3.59774642707361
 30
0.0
 10
-22.08176071254684
 20
3.566581802295401
 30
0.0
 10
-22.083371608007
 20
3.556371927872366
 30
0.0
 10
-22.0841843358781
 20
3.546038931927911
 30
0.0
 10
-22.08419164079021
 20
3.535675424231127
 30
0.0
 10
-22.08421395253857
 20
3.504021658576084
 30
0.0
 10
-22.07653398366782
 20
3.47148021432959
 30
0.0
 10
-22.06177993455226
 20
3.440813971591503
 30
0.0
 10
-22.04702578262172
 20
3.410147515152819
 30
0.0
 10
-22.02478916070242
 20
3.380516237399342
 30
0.0
 10
-21.99689441948046
 20
3.354551864094644
 30
0.0
 10
-21.96900764278605
 20
3.328594904157405
 30
0.0
 10
-21.93469376129308
 20
3.305596328338134
 30
0.0
 10
-21.89678817071588
 20
3.287669683244113
 30
0.0
 10
-21.85892500782679
 20
3.269763103425299
 30
0.0
 10
-21.81643429164892
 20
3.256432826374579
 30
0.0
 10
-21.77283858276962
 20
3.248911894343904
 30
0.0
 10
-21.74384165268527
 20
3.243909476769586
 30
0.0
 10
-21.71392398436883
 20
3.241359424637337
 30
0.0
 10
-21.68418961612408
 20
3.241359424637179
 30
0.0
  0
SPLINE
  5
7C
330
1F
100
AcDbEntity
  8
SK1
  6
Continuous
100
AcDbSpline
210
0.0
220
0.0
230
1.0
 70
     8
 71
     3
 72
    14
 73
    10
 74
     0
 42
0.0000000004730247
 43
0.0000000001
 12
1.0
 22
0.0
 32
0.0
 13
1.0
 23
0.0
 33
0.0
 40
0.0
 40
0.0
 40
0.0
 40
0.0
 40
0.1097530841145284
 40
0.1097530841145284
 40
0.1097530841145284
 40
0.7133718511905289
 40
0.7133718511905289
 40
0.7133718511905289
 40
1.0
 40
1.0
 40
1.0
 40
1.0
 10
-21.49235111132024
 20
4.644260030622016
 30
0.0
 10
-20.72274486260108
 20
4.720867395575755
 30
0.0
 10
-19.95313747053814
 20
4.797469017614818
 30
0.0
 10
-19.18352908166429
 20
4.874065631681306
 30
0.0
 10
-14.95084559743013
 20
5.295330820567686
 30
0.0
 10
-10.71813306493637
 20
5.71645008204669
 30
0.0
 10
-6.485405825509194
 20
6.137495396148862
 30
0.0
 10
-4.475496857926586
 20
6.33742860816635
 30
0.0
 10
-2.465584386931851
 20
6.537344210901381
 30
0.0
 10
-0.4556692403865211
 20
6.737246362205339
 30
0.0
  0
SPLINE
  5
7D
330
1F
100
AcDbEntity
  8
SK1
  6
Continuous
100
AcDbSpline
210
0.0
220
0.0
230
1.0
 70
     8
 71
     3
 72
    10
 73
     6
 74
     0
 42
0.0000000163103516
 43
0.0000000001
 12
1.0
 22
0.0
 32
0.0
 13
1.0
 23
0.0
 33
0.0
 40
0.0
 40
0.0
 40
0.0
 40
0.0
 40
0.5
 40
0.5
 40
1.0
 40
1.0
 40
1.0
 40
1.0
 10
-0.4556692403865211
 20
6.737246362205339
 30
0.0
 10
-0.3431195016110784
 20
6.748440334714526
 30
0.0
 10
-0.2240745321124664
 20
6.723763730611431
 30
0.0
 10
-0.0511601720509635
 20
6.617418235896825
 30
0.0
 10
0.0000000000000035
 20
6.537221387205556
 30
0.0
 10
0.0
 20
6.456919561802013
 30
0.0
  0
SPLINE
  5
7E
330
1F
100
AcDbEntity
  8
SK3
100
AcDbSpline
210
0.0
220
0.0
230
1.0
 70
     8
 71
     3
 72
    10
 73
     6
 74
     0
 42
0.0000000180296784
 43
0.0000000001
 12
1.0
 22
0.0
 32
0.0
 13
1.0
 23
0.0
 33
0.0
 40
0.0
 40
0.0
 40
0.0
 40
0.0
 40
0.5
 40
0.5
 40
1.0
 40
1.0
 40
1.0
 40
1.0
 10
7.599999999999996
 20
2.890091754723057
 30
0.0
 10
7.600000000000006
 20
2.816197073200739
 30
0.0
 10
7.557019894060595
 20
2.742155119357006
 30
0.0
 10
7.409857228009932
 20
2.637183569714546
 30
0.0
 10
7.304473950908504
 20
2.606017456596987
 30
0.0
 10
7.200000000001334
 20
2.606017456588737
 30
0.0
  0
LINE
  5
7F
330
1F
100
AcDbEntity
  8
SK3
100
AcDbLine
 10
7.2
 20
2.6060174566
 30
0.0
 11
-10.2
 21
2.6060174566
 31
0.0
  0
LINE
  5
80
330
1F
100
AcDbEntity
  8
SK3
100
AcDbLine
 10
-10.2
 20
2.8865421856
 30
0.0
 11
-14.2
 21
2.8865421856
 31
0.0
  0
LINE
  5
81
330
1F
100
AcDbEntity
  8
SK3
100
AcDbLine
 10
-14.2
 20
2.8865421856
 30
0.0
 11
-14.6907477288
 21
2.2825520938
 31
0.0
  0
LINE
  5
82
330
1F
100
AcDbEntity
  8
SK3
100
AcDbLine
 10
-14.6907477288
 20
2.2825520938
 30
0.0
 11
-21.1
 21
2.2825520938
 31
0.0
  0
LINE
  5
83
330
1F
100
AcDbEntity
  8
SK3
100
AcDbLine
 10
-21.1
 20
3.2413594246
 30
0.0
 11
-21.6841896161
 21
3.2413594246
 31
0.0
  0
SPLINE
  5
84
330
1F
100
AcDbEntity
  8
SK1
  6
Continuous
100
AcDbSpline
210
0.0
220
0.0
230
1.0
 70
     8
 71
     3
 72
    11
 73
     7
 74
     0
 42
0.0000000021549893
 43
0.0000000001
 12
1.0
 22
0.0
 32
0.0
 13
1.0
 23
0.0
 33
0.0
 40
0.0
 40
0.0
 40
0.0
 40
0.0
 40
0.4806353935802233
 40
0.4806353935802233
 40
0.4806353935802233
 40
1.0
 40
1.0
 40
1.0
 40
1.0
 10
7.475000000021391
 20
5.332164595818828
 30
0.0
 10
6.786849828733128
 20
5.613456925000805
 30
0.0
 10
6.098667433624485
 20
5.894709839625536
 30
0.0
 10
5.410463987103191
 20
6.175936992789588
 30
0.0
 10
4.666805652652557
 20
6.479825206923665
 30
0.0
 10
3.923122551579691
 20
6.783683118138875
 30
0.0
 10
3.17942286340599
 20
7.087520727387162
 30
0.0
  0
LINE
  5
85
330
1F
100
AcDbEntity
  8
SK1
  6
Continuous
100
AcDbLine
 10
3.1794228634
 20
7.0875207274
 30
0.0
 11
2.8
 21
6.9325055263
 31
0.0
  0
SPLINE
  5
86
330
1F
100
AcDbEntity
  8
SK1
  6
Continuous
100
AcDbSpline
210
0.0
220
0.0
230
1.0
 70
     8
 71
     3
 72
    10
 73
     6
 74
     0
 42
0.0000000361022747
 43
0.0000000001
 12
1.0
 22
0.0
 32
0.0
 13
1.0
 23
0.0
 33
0.0
 40
0.0
 40
0.0
 40
0.0
 40
0.0
 40
0.5
 40
0.5
 40
1.0
 40
1.0
 40
1.0
 40
1.0
 10
2.799999999999997
 20
6.004048510895923
 30
0.0
 10
2.800000000000004
 20
5.967161421014999
 30
0.0
 10
2.778440850106138
 20
5.930218953276477
 30
0.0
 10
2.704775281368407
 20
5.877937168068424
 30
0.0
 10
2.65214359355455
 20
5.862480812470803
 30
0.0
 10
2.6000000000009
 20
5.862480812465653
 30
0.0
  0
LINE
  5
87
330
1F
100
AcDbEntity
  8
SK1
  6
Continuous
100
AcDbLine
 10
2.6
 20
5.8624808125
 30
0.0
 11
0.2
 21
5.8624808125
 31
0.0
  0
SPLINE
  5
88
330
1F
100
AcDbEntity
  8
SK1
  6
Continuous
100
AcDbSpline
210
0.0
220
0.0
230
1.0
 70
     8
 71
     3
 72
    10
 73
     6
 74
     0
 42
0.000000036101554
 43
0.0000000001
 12
1.0
 22
0.0
 32
0.0
 13
1.0
 23
0.0
 33
0.0
 40
0.0
 40
0.0
 40
0.0
 40
0.0
 40
0.5
 40
0.5
 40
1.0
 40
1.0
 40
1.0
 40
1.0
 10
0.1999999999999988
 20
5.862480812470586
 30
0.0
 10
0.1477708908094316
 20
5.862480812470584
 30
0.0
 10
0.0951825507247758
 20
5.87796898897879
 30
0.0
 10
0.0216115616243802
 20
5.930179862402976
 30
0.0
 10
-0.0000000000000104
 20
5.967083921042866
 30
0.0
 10
-0.0000000000001405
 20
6.00404851089593
 30
0.0
  0
SPLINE
  5
89
330
1F
100
AcDbEntity
  8
SK1
  6
Continuous
100
AcDbSpline
210
0.0
220
0.0
230
1.0
 70
     8
 71
     3
 72
    14
 73
    10
 74
     0
 42
0.0000000004730247
 43
0.0000000001
 12
1.0
 22
0.0
 32
0.0
 13
1.0
 23
0.0
 33
0.0
 40
0.0
 40
0.0
 40
0.0
 40
0.0
 40
0.1097530841145222
 40
0.1097530841145222
 40
0.1097530841145222
 40
0.7133718511904891
 40
0.7133718511904891
 40
0.7133718511904891
 40
1.0
 40
1.0
 40
1.0
 40
1.0
 10
-21.49235111132024
 20
5.209945455571254
 30
0.0
 10
-20.72274486260108
 20
5.286552820524993
 30
0.0
 10
-19.95313747053814
 20
5.363154442564056
 30
0.0
 10
-19.18352908166429
 20
5.439751056630545
 30
0.0
 10
-14.95084559743013
 20
5.861016245516923
 30
0.0
 10
-10.71813306493637
 20
6.282135506995928
 30
0.0
 10
-6.485405825509194
 20
6.7031808210981
 30
0.0
 10
-4.475496857926195
 20
6.903114033115628
 30
0.0
 10
-2.465584386931067
 20
7.103029635850696
 30
0.0
 10
-0.455669240384024
 20
7.302931787148063
 30
0.0
  0
LINE
  5
8A
330
1F
100
AcDbEntity
  8
SK1
  6
Continuous
100
AcDbLine
 10
7.6
 20
5.1788719362
 30
0.0
 11
7.6
 21
5.7445573612
 31
0.0
  0
SPLINE
  5
8B
330
1F
100
AcDbEntity
  8
SK1
  6
Continuous
100
AcDbSpline
210
0.0
220
0.0
230
1.0
 70
     8
 71
     3
 72
    11
 73
     7
 74
     0
 42
0.0000000021549893
 43
0.0000000001
 12
1.0
 22
0.0
 32
0.0
 13
1.0
 23
0.0
 33
0.0
 40
0.0
 40
0.0
 40
0.0
 40
0.0
 40
0.480635393579684
 40
0.480635393579684
 40
0.480635393579684
 40
1.0
 40
1.0
 40
1.0
 40
1.0
 10
7.474999999999993
 20
5.897850020749184
 30
0.0
 10
6.786849828730155
 20
6.179142349951261
 30
0.0
 10
6.098667433622997
 20
6.460395264575382
 30
0.0
 10
5.410463987103191
 20
6.741622417738826
 30
0.0
 10
4.666805652652558
 20
7.045510631872902
 30
0.0
 10
3.923122551579691
 20
7.349368543088114
 30
0.0
 10
3.17942286340599
 20
7.6532061523364
 30
0.0
  0
LINE
  5
8C
330
1F
100
AcDbEntity
  8
SK1
  6
Continuous
100
AcDbLine
 10
3.1794228634
 20
7.6532061523
 30
0.0
 11
2.8
 21
7.4981909512
 31
0.0
  0
LINE
  5
8D
330
1F
100
AcDbEntity
  8
SK1
  6
Continuous
100
AcDbLine
 10
2.8
 20
7.4981909512
 30
0.0
 11
2.8
 21
6.9325055263
 31
0.0
  0
SPLINE
  5
8E
330
1F
100
AcDbEntity
  8
SK1
  6
Continuous
100
AcDbSpline
210
0.0
220
0.0
230
1.0
 70
     8
 71
     3
 72
    10
 73
     6
 74
     0
 42
0.0000000361022747
 43
0.0000000001
 12
1.0
 22
0.0
 32
0.0
 13
1.0
 23
0.0
 33
0.0
 40
0.0
 40
0.0
 40
0.0
 40
0.0
 40
0.5
 40
0.5
 40
1.0
 40
1.0
 40
1.0
 40
1.0
 10
2.800000000003151
 20
6.569733935845427
 30
0.0
 10
2.800000000000143
 20
6.532846845964407
 30
0.0
 10
2.778440850106175
 20
6.495904378225656
 30
0.0
 10
2.704775281367911
 20
6.443622593017396
 30
0.0
 10
2.652143593553637
 20
6.428166237419823
 30
0.0
 10
2.599999999999998
 20
6.428166237419823
 30
0.0
  0
LINE
  5
8F
330
1F
100
AcDbEntity
  8
SK1
  6
Continuous
100
AcDbLine
 10
2.6
 20
6.4281662374
 30
0.0
 11
0.2
 21
6.4281662374
 31
0.0
  0
SPLINE
  5
90
330
1F
100
AcDbEntity
  8
SK1
  6
Continuous
100
AcDbSpline
210
0.0
220
0.0
230
1.0
 70
     8
 71
     3
 72
    10
 73
     6
 74
     0
 42
0.000000036101554
 43
0.0000000001
 12
1.0
 22
0.0
 32
0.0
 13
1.0
 23
0.0
 33
0.0
 40
0.0
 40
0.0
 40
0.0
 40
0.0
 40
0.5
 40
0.5
 40
1.0
 40
1.0
 40
1.0
 40
1.0
 10
0.1999999999999502
 20
6.428166237419471
 30
0.0
 10
0.147770890809364
 20
6.428166237419839
 30
0.0
 10
0.0951825507247341
 20
6.443654413928049
 30
0.0
 10
0.0216115616243767
 20
6.495865287352221
 30
0.0
 10
-0.0000000000000052
 20
6.532769345992103
 30
0.0
 10
-0.0000000000000035
 20
6.569733935845161
 30
0.0
  0
LINE
  5
91
330
1F
100
AcDbEntity
  8
SK1
  6
Continuous
100
AcDbLine
 10
0.0
 20
6.5697339358
 30
0.0
 11
0.0
 21
7.0226049868
 31
0.0
  0
ELLIPSE
  5
92
330
1F
100
AcDbEntity
  8
SK1
  6
Continuous
100
AcDbEllipse
 10
40.2154870513
 20
0.2828428281
 30
0.0
 11
-62.09999977009756
 21
-3.163121313278152E-8
 31
0.0
210
0.0
220
0.0
230
1.0
 40
0.7071067825
 41
-0.1124425146502359
 42
-0.0995369543737965
  0
LINE
  5
93
330
1F
100
AcDbEntity
  8
SK3
100
AcDbLine
 10
-21.1
 20
3.2413594246
 30
0.0
 11
-21.1
 21
3.8070448496
 31
0.0
  0
LINE
  5
94
330
1F
100
AcDbEntity
  8
SK3
100
AcDbLine
 10
-21.1
 20
3.8070448496
 30
0.0
 11
-21.6841896161
 21
3.8070448496
 31
0.0
  0
SPLINE
  5
95
330
1F
100
AcDbEntity
  8
SK1
  6
Continuous
100
AcDbSpline
210
0.0
220
0.0
230
1.0
 70
     8
 71
     3
 72
    10
 73
     6
 74
     0
 42
0.0000000163103516
 43
0.0000000001
 12
1.0
 22
0.0
 32
0.0
 13
1.0
 23
0.0
 33
0.0
 40
0.0
 40
0.0
 40
0.0
 40
0.0
 40
0.5
 40
0.5
 40
1.0
 40
1.0
 40
1.0
 40
1.0
 10
-0.455669240384024
 20
7.302931787148063
 30
0.0
 10
-0.3431195016096958
 20
7.314125759663574
 30
0.0
 10
-0.2240745321115123
 20
7.289449155560302
 30
0.0
 10
-0.0511601720506825
 20
7.183103660845669
 30
0.0
 10
0.0000000000000035
 20
7.102906812154602
 30
0.0
 10
0.0
 20
7.022604986751251
 30
0.0
  0
SPLINE
  5
96
330
1F
100
AcDbEntity
  8
SK1
  6
Continuous
100
AcDbSpline
210
0.0
220
0.0
230
1.0
 70
     8
 71
     3
 72
    10
 73
     6
 74
     0
 42
0.0000000469833378
 43
0.0000000001
 12
1.0
 22
0.0
 32
0.0
 13
1.0
 23
0.0
 33
0.0
 40
0.0
 40
0.0
 40
0.0
 40
0.0
 40
0.4999999999999958
 40
0.4999999999999958
 40
1.0
 40
1.0
 40
1.0
 40
1.0
 10
7.474999999999993
 20
5.897850020749184
 30
0.0
 10
7.512646290608369
 20
5.882461500607564
 30
0.0
 10
7.544707906801184
 20
5.859830540980749
 30
0.0
 10
7.58845051718321
 20
5.806115161538357
 30
0.0
 10
7.600000000000065
 20
5.775348067625943
 30
0.0
 10
7.600000000002108
 20
5.744557361173383
 30
0.0
  0
SPLINE
  5
97
330
1F
100
AcDbEntity
  8
SK3
100
AcDbSpline
210
0.0
220
0.0
230
1.0
 70
     8
 71
     3
 72
    10
 73
     6
 74
     0
 42
0.0000000180296784
 43
0.0000000001
 12
1.0
 22
0.0
 32
0.0
 13
1.0
 23
0.0
 33
0.0
 40
0.0
 40
0.0
 40
0.0
 40
0.0
 40
0.5
 40
0.5
 40
1.0
 40
1.0
 40
1.0
 40
1.0
 10
7.599999999999996
 20
3.455777179672296
 30
0.0
 10
7.600000000000006
 20
3.381882498149976
 30
0.0
 10
7.557019894060595
 20
3.307840544306245
 30
0.0
 10
7.409857228009932
 20
3.202868994663785
 30
0.0
 10
7.304473950908504
 20
3.171702881546225
 30
0.0
 10
7.200000000001334
 20
3.171702881537975
 30
0.0
  0
LINE
  5
98
330
1F
100
AcDbEntity
  8
SK3
100
AcDbLine
 10
7.2
 20
3.1717028815
 30
0.0
 11
-10.2
 21
3.1717028815
 31
0.0
  0
LINE
  5
99
330
1F
100
AcDbEntity
  8
SK3
100
AcDbLine
 10
-10.2
 20
3.1717028815
 30
0.0
 11
-10.2
 21
3.4522276106
 31
0.0
  0
LINE
  5
9A
330
1F
100
AcDbEntity
  8
SK3
100
AcDbLine
 10
-10.2
 20
3.4522276106
 30
0.0
 11
-14.2
 21
3.4522276106
 31
0.0
  0
LINE
  5
9B
330
1F
100
AcDbEntity
  8
SK3
100
AcDbLine
 10
-14.2
 20
3.4522276106
 30
0.0
 11
-14.6907477288
 21
2.8482375187
 31
0.0
  0
LINE
  5
9C
330
1F
100
AcDbEntity
  8
SK3
100
AcDbLine
 10
-14.6907477288
 20
2.8482375187
 30
0.0
 11
-21.1
 21
2.8482375187
 31
0.0
  0
SPLINE
  5
9D
330
1F
100
AcDbEntity
  8
SK3
100
AcDbSpline
210
0.0
220
0.0
230
1.0
 70
     8
 71
     3
 72
    10
 73
     6
 74
     0
 42
0.0000000206669255
 43
0.0000000001
 12
1.0
 22
0.0
 32
0.0
 13
1.0
 23
0.0
 33
0.0
 40
0.0
 40
0.0
 40
0.0
 40
0.0
 40
0.4999999999999993
 40
0.4999999999999993
 40
1.0
 40
1.0
 40
1.0
 40
1.0
 10
-23.6
 20
-4.983974217980266
 30
0.0
 10
-23.67941694441981
 20
-4.983974217980266
 30
0.0
 10
-23.75705996043802
 20
-5.016756617995666
 30
0.0
 10
-23.86766377176527
 20
-5.127944603896686
 30
0.0
 10
-23.90000000000015
 20
-5.206467694865639
 30
0.0
 10
-23.90000000000302
 20
-5.284884004919289
 30
0.0
  0
SPLINE
  5
9E
330
1F
100
AcDbEntity
  8
SK3
100
AcDbSpline
210
0.0
220
0.0
230
1.0
 70
     8
 71
     3
 72
    10
 73
     6
 74
     0
 42
0.0000000206617038
 43
0.0000000001
 12
1.0
 22
0.0
 32
0.0
 13
1.0
 23
0.0
 33
0.0
 40
0.0
 40
0.0
 40
0.0
 40
0.0
 40
0.5
 40
0.5
 40
1.0
 40
1.0
 40
1.0
 40
1.0
 10
-23.90000000000306
 20
5.284884204459754
 30
0.0
 10
-23.89999999999987
 20
5.206531725150469
 30
0.0
 10
-23.86828035191587
 20
5.128569054714436
 30
0.0
 10
-23.75646002359354
 20
5.016149298128075
 30
0.0
 10
-23.6793583882358
 20
4.983974417520905
 30
0.0
 10
-23.6
 20
4.983974417521424
 30
0.0
  0
LINE
  5
9F
330
1F
100
AcDbEntity
  8
SK1
  6
Continuous
100
AcDbLine
 10
-23.6417519303
 20
6.6653770145
 30
0.0
 11
-23.6417519303
 21
0.4000000998
 31
0.0
  0
LINE
  5
A0
330
1F
100
AcDbEntity
  8
SK1
  6
Continuous
100
AcDbLine
 10
-23.9
 20
-6.3677369658
 30
0.0
 11
-23.9
 21
-0.3999999002
 31
0.0
  0
LINE
  5
A1
330
1F
100
AcDbEntity
  8
SK1
  6
Continuous
100
AcDbLine
 10
0.0
 20
-9.5314629746
 30
0.0
 11
0.0
 21
-7.0226047872
 31
0.0
  0
LINE
  5
A2
330
1F
100
AcDbEntity
  8
SK1
  6
Continuous
100
AcDbLine
 10
-0.4556692404
 20
-9.9279049376
 30
0.0
 11
-0.4556692404
 21
-7.3029315876
 31
0.0
  0
LINE
  5
A3
330
1F
100
AcDbEntity
  8
SK3
100
AcDbLine
 10
-14.2866025404
 20
4.3315702539
 30
0.0
 11
-14.2866025404
 21
4.3228215412
 31
0.0
  0
LINE
  5
A4
330
1F
100
AcDbEntity
  8
SK3
100
AcDbLine
 10
-21.1
 20
-4.983974218
 30
0.0
 11
-21.1
 21
-3.80704465
 31
0.0
  0
LINE
  5
A5
330
1F
100
AcDbEntity
  8
SK3
100
AcDbLine
 10
-14.2
 20
-4.4821868664
 30
0.0
 11
-14.2
 21
-3.4522274111
 31
0.0
  0
LINE
  5
A6
330
1F
100
AcDbEntity
  8
SK3
100
AcDbLine
 10
-10.2
 20
-4.4821868664
 30
0.0
 11
-10.2
 21
-3.4522274111
 31
0.0
  0
ARC
  5
A7
330
1F
100
AcDbEntity
  8
SK3
100
AcDbCircle
 10
2.1738713766
 20
-8.1834857398
 30
0.0
 40
4.098020750469201
100
AcDbArc
 50
84.4034065298
 51
89.9989288438
  0
LINE
  5
A8
330
1F
100
AcDbEntity
  8
SK1
  6
Continuous
100
AcDbLine
 10
0.2
 20
8.6907998328
 30
0.0
 11
0.2
 21
6.4281662374
 31
0.0
  0
ARC
  5
A9
330
1F
100
AcDbEntity
  8
SK1
  6
Continuous
100
AcDbCircle
 10
1.6978683939
 20
17.4853845409
 30
0.0
 40
8.79458472379697
100
AcDbArc
 50
269.9965756986
 51
272.6205028853
  0
ARC
  5
AA
330
1F
100
AcDbEntity
  8
SK3
100
AcDbCircle
 10
2.173912247
 20
8.1833716299
 30
0.0
 40
4.097906440483102
100
AcDbArc
 50
270.0004997478
 51
275.5956737533
  0
ARC
  5
AB
330
1F
100
AcDbEntity
  8
SK1
  6
Continuous
100
AcDbCircle
 10
1.6978524732
 20
-17.4855027378
 30
0.0
 40
8.794703119318692
100
AcDbArc
 50
87.3793429685
 51
90.0033205348
  0
SPLINE
  5
AC
330
1F
100
AcDbEntity
  8
SK1
  6
Continuous
100
AcDbSpline
210
0.0
220
0.0
230
1.0
 70
     8
 71
     3
 72
    10
 73
     6
 74
     0
 42
0.0000000141859536
 43
0.0000000001
 12
1.0
 22
0.0
 32
0.0
 13
1.0
 23
0.0
 33
0.0
 40
0.0
 40
0.0
 40
0.0
 40
0.0
 40
0.5
 40
0.5
 40
1.0
 40
1.0
 40
1.0
 40
1.0
 10
0.0
 20
9.531463174126221
 30
0.0
 10
0.0
 20
9.646158829570016
 30
0.0
 10
-0.0517181530703958
 20
9.75879791695568
 30
0.0
 10
-0.2229962594106124
 20
9.908029548797776
 30
0.0
 10
-0.3416408739175041
 20
9.943943781063336
 30
0.0
 10
-0.455669240384024
 20
9.927905137144046
 30
0.0
  0
SPLINE
  5
AD
330
1F
100
AcDbEntity
  8
SK1
  6
Continuous
100
AcDbSpline
210
0.0
220
0.0
230
1.0
 70
     8
 71
     3
 72
    11
 73
     7
 74
     0
 42
0.0000000004270859
 43
0.0000000001
 12
1.0
 22
0.0
 32
0.0
 13
1.0
 23
0.0
 33
0.0
 40
0.0
 40
0.0
 40
0.0
 40
0.0
 40
0.745009018235521
 40
0.745009018235521
 40
0.745009018235521
 40
1.0
 40
1.0
 40
1.0
 40
1.0
 10
-0.455669240384024
 20
9.927905137144046
 30
0.0
 10
-6.213660435917612
 20
9.118015691761496
 30
0.0
 10
-11.97163181570543
 20
8.307985298569173
 30
0.0
 10
-17.72955481920708
 20
7.497611182909665
 30
0.0
 10
-19.7002939712163
 20
7.220247974590657
 30
0.0
 10
-21.67102718968037
 20
6.942842600394167
 30
0.0
 10
-23.64175193028802
 20
6.66537701451383
 30
0.0
  0
ARC
  5
AE
330
1F
100
AcDbEntity
  8
SK1
  6
Continuous
100
AcDbCircle
 10
-23.5996297504
 20
6.36797482
 30
0.0
 40
0.3003703436640535
100
AcDbArc
 50
98.0613957409
 51
180.0453327334
  0
LINE
  5
AF
330
1F
100
AcDbEntity
  8
SK3
100
AcDbLine
 10
-23.6
 20
4.9839744175
 30
0.0
 11
-21.1
 21
4.9839744175
 31
0.0
  0
LINE
  5
B0
330
1F
100
AcDbEntity
  8
SK3
100
AcDbLine
 10
-14.2866025404
 20
4.3315702539
 30
0.0
 11
-14.2
 21
4.482187066
 31
0.0
  0
LINE
  5
B1
330
1F
100
AcDbEntity
  8
SK3
100
AcDbLine
 10
-14.2
 20
4.482187066
 30
0.0
 11
-10.2
 21
4.482187066
 31
0.0
  0
LINE
  5
B2
330
1F
100
AcDbEntity
  8
SK3
100
AcDbLine
 10
-10.2
 20
4.0854651896
 30
0.0
 11
2.1739479899
 21
4.0854651896
 31
0.0
  0
LINE
  5
B3
330
1F
100
AcDbEntity
  8
SK3
100
AcDbLine
 10
2.1739479899
 20
-4.08546499
 30
0.0
 11
-10.2
 21
-4.08546499
 31
0.0
  0
LINE
  5
B4
330
1F
100
AcDbEntity
  8
SK3
100
AcDbLine
 10
-10.2
 20
-4.4821868664
 30
0.0
 11
-14.2
 21
-4.4821868664
 31
0.0
  0
LINE
  5
B5
330
1F
100
AcDbEntity
  8
SK3
100
AcDbLine
 10
-14.2
 20
-4.4821868664
 30
0.0
 11
-14.2866025404
 21
-4.3315700543
 31
0.0
  0
LINE
  5
B6
330
1F
100
AcDbEntity
  8
SK3
100
AcDbLine
 10
-21.1
 20
-4.983974218
 30
0.0
 11
-23.6
 21
-4.983974218
 31
0.0
  0
ARC
  5
B7
330
1F
100
AcDbEntity
  8
SK1
  6
Continuous
100
AcDbCircle
 10
-23.5996295685
 20
-6.3679744627
 30
0.0
 40
0.3003705253420283
100
AcDbArc
 50
179.9546973833
 51
261.9385741424
  0
SPLINE
  5
B8
330
1F
100
AcDbEntity
  8
SK1
  6
Continuous
100
AcDbSpline
210
0.0
220
0.0
230
1.0
 70
     8
 71
     3
 72
    11
 73
     7
 74
     0
 42
0.0000000004270859
 43
0.0000000001
 12
1.0
 22
0.0
 32
0.0
 13
1.0
 23
0.0
 33
0.0
 40
0.0
 40
0.0
 40
0.0
 40
0.0
 40
0.5006699563657115
 40
0.5006699563657115
 40
0.5006699563657115
 40
1.0
 40
1.0
 40
1.0
 40
1.0
 10
-23.64175193028802
 20
-6.66537681497267
 30
0.0
 10
-19.772271283312
 20
-7.210175229811054
 30
0.0
 10
-15.90275882788117
 20
-7.754747730566663
 30
0.0
 10
-12.03323027602602
 20
-8.299205788189303
 30
0.0
 10
-8.1740575078309
 20
-8.842206745862647
 30
0.0
 10
-4.314868157278387
 20
-9.385089854306315
 30
0.0
 10
-0.455669240384024
 20
-9.92790493760289
 30
0.0
  0
SPLINE
  5
B9
330
1F
100
AcDbEntity
  8
SK1
  6
Continuous
100
AcDbSpline
210
0.0
220
0.0
230
1.0
 70
     8
 71
     3
 72
    10
 73
     6
 74
     0
 42
0.0000000141861471
 43
0.0000000001
 12
1.0
 22
0.0
 32
0.0
 13
1.0
 23
0.0
 33
0.0
 40
0.0
 40
0.0
 40
0.0
 40
0.0
 40
0.5
 40
0.5
 40
1.0
 40
1.0
 40
1.0
 40
1.0
 10
-0.455669240384024
 20
-9.92790493760289
 30
0.0
 10
-0.3416464863252849
 20
-9.943942792109729
 30
0.0
 10
-0.223196283650787
 20
-9.9081073171434
 30
0.0
 10
-0.0519036720037173
 20
-9.759055449992754
 30
0.0
 10
0.0
 20
-9.646162989151923
 30
0.0
 10
0.0
 20
-9.531462974585066
 30
0.0
  0
SPLINE
  5
BA
330
1F
100
AcDbEntity
  8
SK1
  6
Continuous
100
AcDbSpline
210
0.0
220
0.0
230
1.0
 70
     8
 71
     3
 72
    10
 73
     6
 74
     0
 42
0.0000000310231735
 43
0.0000000001
 12
1.0
 22
0.0
 32
0.0
 13
1.0
 23
0.0
 33
0.0
 40
0.0
 40
0.0
 40
0.0
 40
0.0
 40
0.5
 40
0.5
 40
1.0
 40
1.0
 40
1.0
 40
1.0
 10
-0.0000000000000035
 20
8.891006791928671
 30
0.0
 10
-0.0000000000000069
 20
8.838827846172007
 30
0.0
 10
0.0211908836106403
 20
8.786914832017857
 30
0.0
 10
0.0957851820281765
 20
8.712146843038907
 30
0.0
 10
0.1471502738570555
 20
8.690799832820819
 30
0.0
 10
0.1999999999999988
 20
8.69079983282162
 30
0.0
  0
LINE
  5
BB
330
1F
100
AcDbEntity
  8
SK1
  6
Continuous
100
AcDbLine
 10
0.2
 20
8.6907998328
 30
0.0
 11
1.6973427826
 21
8.6907998328
 31
0.0
  0
LINE
  5
BC
330
1F
100
AcDbEntity
  8
SK1
  6
Continuous
100
AcDbLine
 10
1.6973427826
 20
-8.6907996333
 30
0.0
 11
0.2
 21
-8.6907996333
 31
0.0
  0
SPLINE
  5
BD
330
1F
100
AcDbEntity
  8
SK1
  6
Continuous
100
AcDbSpline
210
0.0
220
0.0
230
1.0
 70
     8
 71
     3
 72
    10
 73
     6
 74
     0
 42
0.0000000310310407
 43
0.0000000001
 12
1.0
 22
0.0
 32
0.0
 13
1.0
 23
0.0
 33
0.0
 40
0.0
 40
0.0
 40
0.0
 40
0.0
 40
0.5
 40
0.5
 40
1.0
 40
1.0
 40
1.0
 40
1.0
 10
0.1999999999999988
 20
-8.690799633280461
 30
0.0
 10
0.1471111354501165
 20
-8.690799633280458
 30
0.0
 10
0.0953825998800638
 20
-8.712552819885287
 30
0.0
 10
0.0216036209834056
 20
-8.786498277584046
 30
0.0
 10
-0.0000000000000069
 20
-8.838782930428616
 30
0.0
 10
-0.0000000000000035
 20
-8.891006592387518
 30
0.0
  0
LINE
  5
BE
330
1F
100
AcDbEntity
  8
SK3
100
AcDbLine
 10
-21.1
 20
-4.3315700543
 30
0.0
 11
-14.2866025404
 21
-4.3315700543
 31
0.0
  0
LINE
  5
BF
330
1F
100
AcDbEntity
  8
SK3
100
AcDbLine
 10
-14.2866025404
 20
4.3315702539
 30
0.0
 11
-21.1
 21
4.3315702539
 31
0.0
  0
LINE
  5
C0
330
1F
100
AcDbEntity
  8
SK1
  6
Continuous
100
AcDbLine
 10
7.6
 20
-7.7343810408
 30
0.0
 11
7.6
 21
-5.7445571616
 31
0.0
  0
LINE
  5
C1
330
1F
100
AcDbEntity
  8
SK1
  6
Continuous
100
AcDbLine
 10
7.475
 20
-5.3321643963
 30
0.0
 11
7.475
 21
5.3321645958
 31
0.0
  0
SPLINE
  5
C2
330
1F
100
AcDbEntity
  8
SK1
  6
Continuous
100
AcDbSpline
210
0.0
220
0.0
230
1.0
 70
     8
 71
     3
 72
    10
 73
     6
 74
     0
 42
0.0000000469791461
 43
0.0000000001
 12
1.0
 22
0.0
 32
0.0
 13
1.0
 23
0.0
 33
0.0
 40
0.0
 40
0.0
 40
0.0
 40
0.0
 40
0.5
 40
0.5
 40
1.0
 40
1.0
 40
1.0
 40
1.0
 10
7.474999999999993
 20
-5.897849821208024
 30
0.0
 10
7.512989614356008
 20
-5.882320962023156
 30
0.0
 10
7.544632236047642
 20
-5.859933233014752
 30
0.0
 10
7.5885661265352
 20
-5.805963017256603
 30
0.0
 10
7.600000000001255
 20
-5.775269951070639
 30
0.0
 10
7.600000000042205
 20
-5.744557161627834
 30
0.0
  0
LINE
  5
C3
330
1F
100
AcDbEntity
  8
SK1
  6
Continuous
100
AcDbLine
 10
2.8
 20
-6.9325053267
 30
0.0
 11
2.8
 21
6.9325055263
 31
0.0
  0
LINE
  5
C4
330
1F
100
AcDbEntity
  8
SK1
  6
Continuous
100
AcDbLine
 10
3.1794228634
 20
-7.0875205278
 30
0.0
 11
3.1794228634
 21
7.0875207274
 31
0.0
  0
LINE
  5
C5
330
1F
100
AcDbEntity
  8
SK3
100
AcDbLine
 10
-14.6907477288
 20
-2.2825518942
 30
0.0
 11
-14.6907477288
 21
-1.4654137885
 31
0.0
  0
LINE
  5
C6
330
1F
100
AcDbEntity
  8
SK1
  6
Continuous
100
AcDbLine
 10
2.6
 20
-5.8624806129
 30
0.0
 11
2.6
 21
5.8624808125
 31
0.0
  0
LINE
  5
C7
330
1F
100
AcDbEntity
  8
SK1
  6
Continuous
100
AcDbLine
 10
7.6
 20
5.7445573612
 30
0.0
 11
7.6
 21
7.7343812404
 31
0.0
  0
LINE
  5
C8
330
1F
100
AcDbEntity
  8
SK1
  6
Continuous
100
AcDbLine
 10
-0.4556692404
 20
-6.7372461627
 30
0.0
 11
-0.4556692404
 21
-0.3999999002
 31
0.0
  0
LINE
  5
C9
330
1F
100
AcDbEntity
  8
SK1
  6
Continuous
100
AcDbLine
 10
0.0
 20
-6.4569193623
 30
0.0
 11
0.0
 21
-0.3999999002
 31
0.0
  0
LINE
  5
CA
330
1F
100
AcDbEntity
  8
SK3
100
AcDbLine
 10
-21.1
 20
-3.2413592251
 30
0.0
 11
-21.1
 21
-0.3999999002
 31
0.0
  0
LINE
  5
CB
330
1F
100
AcDbEntity
  8
SK3
100
AcDbLine
 10
-14.2
 20
-2.8865419861
 30
0.0
 11
-14.2
 21
-0.3999999002
 31
0.0
  0
LINE
  5
CC
330
1F
100
AcDbEntity
  8
SK3
100
AcDbLine
 10
-10.2
 20
-2.8865419861
 30
0.0
 11
-10.2
 21
-0.3999999002
 31
0.0
  0
LINE
  5
CD
330
1F
100
AcDbEntity
  8
SK1
  6
Continuous
100
AcDbLine
 10
0.2
 20
-6.4281660379
 30
0.0
 11
0.2
 21
-8.6907996333
 31
0.0
  0
SPLINE
  5
CE
330
1F
100
AcDbEntity
  8
SK3
100
AcDbSpline
210
0.0
220
0.0
230
1.0
 70
     8
 71
     3
 72
    38
 73
    34
 74
     0
 42
0.0000000092120523
 43
0.0000000001
 12
1.0
 22
0.0
 32
0.0
 13
1.0
 23
0.0
 33
0.0
 40
0.0
 40
0.0
 40
0.0
 40
0.0
 40
0.0353536599693551
 40
0.0353536599693551
 40
0.0353536599693551
 40
0.1432187451396155
 40
0.1432187451396155
 40
0.1432187451396155
 40
0.2504978036141648
 40
0.2504978036141648
 40
0.2504978036141648
 40
0.3576511821211863
 40
0.3576511821211863
 40
0.3576511821211863
 40
0.4649245310125171
 40
0.4649245310125171
 40
0.4649245310125171
 40
0.4996227731279127
 40
0.4996227731279127
 40
0.4996227731279127
 40
0.6069668412590379
 40
0.6069668412590379
 40
0.6069668412590379
 40
0.7143123481200979
 40
0.7143123481200979
 40
0.7143123481200979
 40
0.8216287460096905
 40
0.8216287460096905
 40
0.8216287460096905
 40
0.9288218807360314
 40
0.9288218807360314
 40
0.9288218807360314
 40
1.0
 40
1.0
 40
1.0
 40
1.0
 10
-21.68418961612408
 20
-3.24135922509602
 30
0.0
 10
-21.69902728276068
 20
-3.241359225096172
 30
0.0
 10
-21.71388780883286
 20
-3.241987876595953
 30
0.0
 10
-21.72863400947735
 20
-3.243239842461545
 30
0.0
 10
-21.77333420983345
 20
-3.247034930184831
 30
0.0
 10
-21.81779481727969
 20
-3.256785784294979
 30
0.0
 10
-21.85828903584558
 20
-3.271588971405174
 30
0.0
 10
-21.89856876302848
 20
-3.286313748406754
 30
0.0
 10
-21.9360377660476
 20
-3.306435157637637
 30
0.0
 10
-21.96759374332772
 20
-3.330092225577062
 30
0.0
 10
-21.99911450171024
 20
-3.353722890409213
 30
0.0
 10
-22.02560631742252
 20
-3.381521324925308
 30
0.0
 10
-22.04489860005889
 20
-3.410995050395077
 30
0.0
 10
-22.06421209431973
 20
-3.440501181858919
 30
0.0
 10
-22.07684361459902
 20
-3.4724916155953
 30
0.0
 10
-22.08176071254683
 20
-3.504210932575361
 30
0.0
 10
-22.083371608007
 20
-3.514602530274867
 30
0.0
 10
-22.0841843358781
 20
-3.52502804516693
 30
0.0
 10
-22.0841916407902
 20
-3.535392381977506
 30
0.0
 10
-22.08421395253856
 20
-3.567048680035099
 30
0.0
 10
-22.07653398366782
 20
-3.59869580497614
 30
0.0
 10
-22.06177993455225
 20
-3.627781577712891
 30
0.0
 10
-22.04702578262171
 20
-3.656867553136586
 30
0.0
 10
-22.02478916070241
 20
-3.684200849846556
 30
0.0
 10
-21.99689441948044
 20
-3.707692236504154
 30
0.0
 10
-21.96900764278604
 20
-3.731176915883307
 30
0.0
 10
-21.93469376129306
 20
-3.751479569124369
 30
0.0
 10
-21.89678817071587
 20
-3.767124627379162
 30
0.0
 10
-21.85892500782678
 20
-3.782752174136525
 30
0.0
 10
-21.81643429164891
 20
-3.794172246893735
 30
0.0
 10
-21.77283858276961
 20
-3.800601451442378
 30
0.0
 10
-21.74384165268526
 20
-3.804877725405744
 30
0.0
 10
-21.71392398436882
 20
-3.80704465004544
 30
0.0
 10
-21.68418961612408
 20
-3.807044650045257
 30
0.0
  0
SPLINE
  5
CF
330
1F
100
AcDbEntity
  8
SK1
  6
Continuous
100
AcDbSpline
210
0.0
220
0.0
230
1.0
 70
     8
 71
     3
 72
    38
 73
    34
 74
     0
 42
0.0000000090872963
 43
0.0000000001
 12
1.0
 22
0.0
 32
0.0
 13
1.0
 23
0.0
 33
0.0
 40
0.0
 40
0.0
 40
0.0
 40
0.0
 40
0.0277678947951048
 40
0.0277678947951048
 40
0.0277678947951048
 40
0.141027809677437
 40
0.141027809677437
 40
0.141027809677437
 40
0.2522431483975406
 40
0.2522431483975406
 40
0.2522431483975406
 40
0.3604647865491323
 40
0.3604647865491323
 40
0.3604647865491323
 40
0.466226296202914
 40
0.466226296202914
 40
0.466226296202914
 40
0.5000795511562125
 40
0.5000795511562125
 40
0.5000795511562125
 40
0.6044461896755876
 40
0.6044461896755876
 40
0.6044461896755876
 40
0.7087698068990675
 40
0.7087698068990675
 40
0.7087698068990675
 40
0.8137775638822645
 40
0.8137775638822645
 40
0.8137775638822645
 40
0.9207089614026467
 40
0.9207089614026467
 40
0.9207089614026467
 40
1.0
 40
1.0
 40
1.0
 40
1.0
 10
-21.49235111132024
 20
-5.209945256030093
 30
0.0
 10
-21.50405370932046
 20
-5.208780367884508
 30
0.0
 10
-21.51577042287075
 20
-5.207286243392232
 30
0.0
 10
-21.52744007422586
 20
-5.205469066267375
 30
0.0
 10
-21.57463389702025
 20
-5.198120129044922
 30
0.0
 10
-21.62190148179541
 20
-5.185217148471108
 30
0.0
 10
-21.66511485591433
 20
-5.167658495206083
 30
0.0
 10
-21.70754810177628
 20
-5.150416827176431
 30
0.0
 10
-21.74727795064592
 20
-5.128174991560279
 30
0.0
 10
-21.78068951091342
 20
-5.102615556645481
 30
0.0
 10
-21.81321354467298
 20
-5.077735068653048
 30
0.0
 10
-21.84067025982534
 20
-5.048991148977594
 30
0.0
 10
-21.86055014655571
 20
-5.018678626767037
 30
0.0
 10
-21.87998636221068
 20
-4.989042606868087
 30
0.0
 10
-21.89272661338492
 20
-4.957068497559416
 30
0.0
 10
-21.89762433470784
 20
-4.925386745360507
 30
0.0
 10
-21.89921285617687
 20
-4.915111121202584
 30
0.0
 10
-21.90000730587559
 20
-4.904804791280057
 30
0.0
 10
-21.89999994921711
 20
-4.894561731930549
 30
0.0
 10
-21.89997755878302
 20
-4.86338636260803
 30
0.0
 10
-21.89233356108141
 20
-4.832226979917631
 30
0.0
 10
-21.87774152187088
 20
-4.80371670137427
 30
0.0
 10
-21.86315281038342
 20
-4.775212924616594
 30
0.0
 10
-21.84122700868152
 20
-4.748581270936066
 30
0.0
 10
-21.8138572182136
 20
-4.726074554273357
 30
0.0
 10
-21.78630355909539
 20
-4.703416638805525
 30
0.0
 10
-21.7525016803204
 20
-4.684331757820431
 30
0.0
 10
-21.71527876136143
 20
-4.67038428600279
 30
0.0
 10
-21.67737526198355
 20
-4.656181799896162
 30
0.0
 10
-21.63492442510114
 20
-4.646924999260041
 30
0.0
 10
-21.5913610308043
 20
-4.643306637690613
 30
0.0
 10
-21.55903251856078
 20
-4.640621441824064
 30
0.0
 10
-21.5255578075896
 20
-4.640954403787044
 30
0.0
 10
-21.49235111132024
 20
-4.644259831080855
 30
0.0
  0
SPLINE
  5
D0
330
1F
100
AcDbEntity
  8
SK1
  6
Continuous
100
AcDbSpline
210
0.0
220
0.0
230
1.0
 70
     8
 71
     3
 72
    14
 73
    10
 74
     0
 42
0.0000000004730247
 43
0.0000000001
 12
1.0
 22
0.0
 32
0.0
 13
1.0
 23
0.0
 33
0.0
 40
0.0
 40
0.0
 40
0.0
 40
0.0
 40
0.1123756873659621
 40
0.1123756873659621
 40
0.1123756873659621
 40
0.716635244163524
 40
0.716635244163524
 40
0.716635244163524
 40
1.0
 40
1.0
 40
1.0
 40
1.0
 10
-21.49235111132024
 20
-5.209945256030093
 30
0.0
 10
-20.70435474750318
 20
-5.288383191176306
 30
0.0
 10
-19.9163571851575
 20
-5.36681510622225
 30
0.0
 10
-19.12835858123836
 20
-5.445241788385913
 30
0.0
 10
-14.89118150168221
 20
-5.866952865584227
 30
0.0
 10
-10.65397540502332
 20
-6.288518171421186
 30
0.0
 10
-6.416754617124843
 20
-6.710009608689226
 30
0.0
 10
-4.429729305892397
 20
-6.907666090671777
 30
0.0
 10
-2.442700580911067
 20
-7.105305414009953
 30
0.0
 10
-0.455669240384024
 20
-7.302931587606904
 30
0.0
  0
SPLINE
  5
D1
330
1F
100
AcDbEntity
  8
SK1
  6
Continuous
100
AcDbSpline
210
0.0
220
0.0
230
1.0
 70
     8
 71
     3
 72
    10
 73
     6
 74
     0
 42
0.0000000163102613
 43
0.0000000001
 12
1.0
 22
0.0
 32
0.0
 13
1.0
 23
0.0
 33
0.0
 40
0.0
 40
0.0
 40
0.0
 40
0.0
 40
0.5
 40
0.5
 40
1.0
 40
1.0
 40
1.0
 40
1.0
 10
-0.455669240384024
 20
-7.302931587606904
 30
0.0
 10
-0.3433128680686613
 20
-7.314106328280111
 30
0.0
 10
-0.2228138299080751
 20
-7.288788391299548
 30
0.0
 10
-0.0517680916116495
 20
-7.183362114038605
 30
0.0
 10
0.0
 20
-7.103968923286925
 30
0.0
 10
0.0
 20
-7.02260478721009
 30
0.0
  0
SPLINE
  5
D2
330
1F
100
AcDbEntity
  8
SK3
100
AcDbSpline
210
0.0
220
0.0
230
1.0
 70
     8
 71
     3
 72
    10
 73
     6
 74
     0
 42
0.0000000180249208
 43
0.0000000001
 12
1.0
 22
0.0
 32
0.0
 13
1.0
 23
0.0
 33
0.0
 40
0.0
 40
0.0
 40
0.0
 40
0.0
 40
0.5
 40
0.5
 40
1.0
 40
1.0
 40
1.0
 40
1.0
 10
7.599999999999996
 20
-3.455776980131139
 30
0.0
 10
7.600000000000002
 20
-3.381457117487151
 30
0.0
 10
7.557164125196723
 20
-3.307826010382617
 30
0.0
 10
7.409083999462354
 20
-3.202434963087066
 30
0.0
 10
7.305029094351035
 20
-3.171702682004732
 30
0.0
 10
7.199999999999998
 20
-3.171702682004729
 30
0.0
  0
LINE
  5
D3
330
1F
100
AcDbEntity
  8
SK3
100
AcDbLine
 10
7.2
 20
-3.171702682
 30
0.0
 11
-10.2
 21
-3.171702682
 31
0.0
  0
LINE
  5
D4
330
1F
100
AcDbEntity
  8
SK3
100
AcDbLine
 10
-10.2
 20
-3.171702682
 30
0.0
 11
-10.2
 21
-3.4522274111
 31
0.0
  0
LINE
  5
D5
330
1F
100
AcDbEntity
  8
SK3
100
AcDbLine
 10
-10.2
 20
-3.4522274111
 30
0.0
 11
-14.2
 21
-3.4522274111
 31
0.0
  0
LINE
  5
D6
330
1F
100
AcDbEntity
  8
SK3
100
AcDbLine
 10
-14.2
 20
-3.4522274111
 30
0.0
 11
-14.6907477288
 21
-2.8482373192
 31
0.0
  0
LINE
  5
D7
330
1F
100
AcDbEntity
  8
SK3
100
AcDbLine
 10
-14.6907477288
 20
-2.8482373192
 30
0.0
 11
-21.1
 21
-2.8482373192
 31
0.0
  0
LINE
  5
D8
330
1F
100
AcDbEntity
  8
SK3
100
AcDbLine
 10
-21.1
 20
-3.2413592251
 30
0.0
 11
-21.1
 21
-3.80704465
 31
0.0
  0
LINE
  5
D9
330
1F
100
AcDbEntity
  8
SK3
100
AcDbLine
 10
-21.1
 20
-3.80704465
 30
0.0
 11
-21.6841896161
 21
-3.80704465
 31
0.0
  0
LINE
  5
DA
330
1F
100
AcDbEntity
  8
SK1
  6
Continuous
100
AcDbLine
 10
7.6
 20
-5.1788717367
 30
0.0
 11
7.6
 21
-5.7445571616
 31
0.0
  0
SPLINE
  5
DB
330
1F
100
AcDbEntity
  8
SK1
  6
Continuous
100
AcDbSpline
210
0.0
220
0.0
230
1.0
 70
     8
 71
     3
 72
    11
 73
     7
 74
     0
 42
0.0000000021549893
 43
0.0000000001
 12
1.0
 22
0.0
 32
0.0
 13
1.0
 23
0.0
 33
0.0
 40
0.0
 40
0.0
 40
0.0
 40
0.0
 40
0.6687249745603274
 40
0.6687249745603274
 40
0.6687249745603274
 40
1.0
 40
1.0
 40
1.0
 40
1.0
 10
7.474999999999993
 20
-5.897849821208024
 30
0.0
 10
6.517552396216967
 20
-6.289221759777908
 30
0.0
 10
5.560043227284916
 20
-6.680518394606531
 30
0.0
 10
4.602499727443188
 20
-7.071773010234647
 30
0.0
 10
4.128148888802625
 20
-7.265593922888606
 30
0.0
 10
3.653789293743553
 20
-7.459404120693697
 30
0.0
 10
3.17942286340599
 20
-7.653205952795239
 30
0.0
  0
LINE
  5
DC
330
1F
100
AcDbEntity
  8
SK1
  6
Continuous
100
AcDbLine
 10
3.1794228634
 20
-7.6532059528
 30
0.0
 11
2.8
 21
-7.4981907517
 31
0.0
  0
LINE
  5
DD
330
1F
100
AcDbEntity
  8
SK1
  6
Continuous
100
AcDbLine
 10
2.8
 20
-7.4981907517
 30
0.0
 11
2.8
 21
-6.9325053267
 31
0.0
  0
SPLINE
  5
DE
330
1F
100
AcDbEntity
  8
SK1
  6
Continuous
100
AcDbSpline
210
0.0
220
0.0
230
1.0
 70
     8
 71
     3
 72
    10
 73
     6
 74
     0
 42
0.0000000360920709
 43
0.0000000001
 12
1.0
 22
0.0
 32
0.0
 13
1.0
 23
0.0
 33
0.0
 40
0.0
 40
0.0
 40
0.0
 40
0.0
 40
0.5
 40
0.5
 40
1.0
 40
1.0
 40
1.0
 40
1.0
 10
2.799999999999997
 20
-6.569733736304
 30
0.0
 10
2.799999999999998
 20
-6.532531211769852
 30
0.0
 10
2.778429845123121
 20
-6.495836620640889
 30
0.0
 10
2.704463532564422
 20
-6.443461148755564
 30
0.0
 10
2.652543534305947
 20
-6.428166037878665
 30
0.0
 10
2.599999999999998
 20
-6.428166037878666
 30
0.0
  0
LINE
  5
DF
330
1F
100
AcDbEntity
  8
SK1
  6
Continuous
100
AcDbLine
 10
2.6
 20
-6.4281660379
 30
0.0
 11
0.2
 21
-6.4281660379
 31
0.0
  0
SPLINE
  5
E0
330
1F
100
AcDbEntity
  8
SK1
  6
Continuous
100
AcDbSpline
210
0.0
220
0.0
230
1.0
 70
     8
 71
     3
 72
    10
 73
     6
 74
     0
 42
0.0000000360942195
 43
0.0000000001
 12
1.0
 22
0.0
 32
0.0
 13
1.0
 23
0.0
 33
0.0
 40
0.0
 40
0.0
 40
0.0
 40
0.0
 40
0.5
 40
0.5
 40
1.0
 40
1.0
 40
1.0
 40
1.0
 10
0.1999999999999988
 20
-6.428166037878665
 30
0.0
 10
0.1472873428742059
 20
-6.428166037878664
 30
0.0
 10
0.0954883391972097
 20
-6.443521759810809
 30
0.0
 10
0.0217619733438052
 20
-6.495674314350389
 30
0.0
 10
-0.0000000000000017
 20
-6.532526408652139
 30
0.0
 10
-0.0000000000000017
 20
-6.569733736304001
 30
0.0
  0
LINE
  5
E1
330
1F
100
AcDbEntity
  8
SK1
  6
Continuous
100
AcDbLine
 10
0.0
 20
-6.5697337363
 30
0.0
 11
0.0
 21
-7.0226047872
 31
0.0
  0
ELLIPSE
  5
E2
330
1F
100
AcDbEntity
  8
SK1
  6
Continuous
100
AcDbEllipse
 10
40.2154870513
 20
-0.2828426286
 30
0.0
 11
-62.09999977008042
 21
3.163659965798365E-8
 31
0.0
210
0.0
220
0.0
230
1.0
 40
0.7071067825
 41
0.0994823676289971
 42
0.1124425146502835
  0
SPLINE
  5
E3
330
1F
100
AcDbEntity
  8
SK1
  6
Continuous
100
AcDbSpline
210
0.0
220
0.0
230
1.0
 70
     8
 71
     3
 72
    11
 73
     7
 74
     0
 42
0.0000000021549893
 43
0.0000000001
 12
1.0
 22
0.0
 32
0.0
 13
1.0
 23
0.0
 33
0.0
 40
0.0
 40
0.0
 40
0.0
 40
0.0
 40
0.6687249745603274
 40
0.6687249745603274
 40
0.6687249745603274
 40
1.0
 40
1.0
 40
1.0
 40
1.0
 10
7.474999999999993
 20
-5.332164396258785
 30
0.0
 10
6.517552396216967
 20
-5.723536334828667
 30
0.0
 10
5.560043227284917
 20
-6.114832969657292
 30
0.0
 10
4.602499727443188
 20
-6.506087585285409
 30
0.0
 10
4.128148888802627
 20
-6.699908497939367
 30
0.0
 10
3.653789293743555
 20
-6.893718695744459
 30
0.0
 10
3.17942286340599
 20
-7.087520527846002
 30
0.0
  0
LINE
  5
E4
330
1F
100
AcDbEntity
  8
SK1
  6
Continuous
100
AcDbLine
 10
3.1794228634
 20
-7.0875205278
 30
0.0
 11
2.8
 21
-6.9325053267
 31
0.0
  0
SPLINE
  5
E5
330
1F
100
AcDbEntity
  8
SK1
  6
Continuous
100
AcDbSpline
210
0.0
220
0.0
230
1.0
 70
     8
 71
     3
 72
    10
 73
     6
 74
     0
 42
0.0000000360920709
 43
0.0000000001
 12
1.0
 22
0.0
 32
0.0
 13
1.0
 23
0.0
 33
0.0
 40
0.0
 40
0.0
 40
0.0
 40
0.0
 40
0.5
 40
0.5
 40
1.0
 40
1.0
 40
1.0
 40
1.0
 10
2.799999999999998
 20
-6.004048311354762
 30
0.0
 10
2.799999999999998
 20
-5.966845786820615
 30
0.0
 10
2.778429845123121
 20
-5.930151195691649
 30
0.0
 10
2.704463532564422
 20
-5.877775723806325
 30
0.0
 10
2.652543534305947
 20
-5.862480612929427
 30
0.0
 10
2.599999999999998
 20
-5.862480612929427
 30
0.0
  0
LINE
  5
E6
330
1F
100
AcDbEntity
  8
SK1
  6
Continuous
100
AcDbLine
 10
2.6
 20
-5.8624806129
 30
0.0
 11
0.2
 21
-5.8624806129
 31
0.0
  0
SPLINE
  5
E7
330
1F
100
AcDbEntity
  8
SK1
  6
Continuous
100
AcDbSpline
210
0.0
220
0.0
230
1.0
 70
     8
 71
     3
 72
    10
 73
     6
 74
     0
 42
0.0000000360942195
 43
0.0000000001
 12
1.0
 22
0.0
 32
0.0
 13
1.0
 23
0.0
 33
0.0
 40
0.0
 40
0.0
 40
0.0
 40
0.0
 40
0.5
 40
0.5
 40
1.0
 40
1.0
 40
1.0
 40
1.0
 10
0.1999999999999988
 20
-5.862480612929427
 30
0.0
 10
0.1472873428742059
 20
-5.862480612929424
 30
0.0
 10
0.095488339197208
 20
-5.877836334861571
 30
0.0
 10
0.0217619733438069
 20
-5.929988889401152
 30
0.0
 10
-0.0000000000000017
 20
-5.966840983702901
 30
0.0
 10
-0.0000000000000035
 20
-6.004048311354762
 30
0.0
  0
LINE
  5
E8
330
1F
100
AcDbEntity
  8
SK3
100
AcDbLine
 10
-21.1
 20
-3.2413592251
 30
0.0
 11
-21.6841896161
 21
-3.2413592251
 31
0.0
  0
SPLINE
  5
E9
330
1F
100
AcDbEntity
  8
SK1
  6
Continuous
100
AcDbSpline
210
0.0
220
0.0
230
1.0
 70
     8
 71
     3
 72
    14
 73
    10
 74
     0
 42
0.0000000004730247
 43
0.0000000001
 12
1.0
 22
0.0
 32
0.0
 13
1.0
 23
0.0
 33
0.0
 40
0.0
 40
0.0
 40
0.0
 40
0.0
 40
0.1123756873659621
 40
0.1123756873659621
 40
0.1123756873659621
 40
0.716635244163524
 40
0.716635244163524
 40
0.716635244163524
 40
1.0
 40
1.0
 40
1.0
 40
1.0
 10
-21.49235111132024
 20
-4.644259831080855
 30
0.0
 10
-20.70435474750318
 20
-4.722697766227067
 30
0.0
 10
-19.9163571851575
 20
-4.801129681273013
 30
0.0
 10
-19.12835858123836
 20
-4.879556363436675
 30
0.0
 10
-14.89118150168221
 20
-5.301267440634988
 30
0.0
 10
-10.65397540502332
 20
-5.722832746471947
 30
0.0
 10
-6.416754617124843
 20
-6.144324183739988
 30
0.0
 10
-4.429729305892397
 20
-6.341980665722539
 30
0.0
 10
-2.442700580911067
 20
-6.539619989060714
 30
0.0
 10
-0.455669240384024
 20
-6.737246162657663
 30
0.0
  0
SPLINE
  5
EA
330
1F
100
AcDbEntity
  8
SK1
  6
Continuous
100
AcDbSpline
210
0.0
220
0.0
230
1.0
 70
     8
 71
     3
 72
    10
 73
     6
 74
     0
 42
0.0000000163102613
 43
0.0000000001
 12
1.0
 22
0.0
 32
0.0
 13
1.0
 23
0.0
 33
0.0
 40
0.0
 40
0.0
 40
0.0
 40
0.0
 40
0.5
 40
0.5
 40
1.0
 40
1.0
 40
1.0
 40
1.0
 10
-0.455669240384024
 20
-6.737246162657663
 30
0.0
 10
-0.3433128680686622
 20
-6.748420903330874
 30
0.0
 10
-0.2228138299080768
 20
-6.723102966350309
 30
0.0
 10
-0.0517680916116512
 20
-6.617676689089367
 30
0.0
 10
-0.0000000000000017
 20
-6.538283498337688
 30
0.0
 10
0.0
 20
-6.456919362260853
 30
0.0
  0
SPLINE
  5
EB
330
1F
100
AcDbEntity
  8
SK1
  6
Continuous
100
AcDbSpline
210
0.0
220
0.0
230
1.0
 70
     8
 71
     3
 72
    10
 73
     6
 74
     0
 42
0.0000000469791461
 43
0.0000000001
 12
1.0
 22
0.0
 32
0.0
 13
1.0
 23
0.0
 33
0.0
 40
0.0
 40
0.0
 40
0.0
 40
0.0
 40
0.5
 40
0.5
 40
1.0
 40
1.0
 40
1.0
 40
1.0
 10
7.474999999999993
 20
-5.332164396258785
 30
0.0
 10
7.512989614356008
 20
-5.316635537073918
 30
0.0
 10
7.544632236047642
 20
-5.294247808065514
 30
0.0
 10
7.5885661265352
 20
-5.240277592307366
 30
0.0
 10
7.600000000001255
 20
-5.2095845261214
 30
0.0
 10
7.600000000042205
 20
-5.178871736678597
 30
0.0
  0
SPLINE
  5
EC
330
1F
100
AcDbEntity
  8
SK3
100
AcDbSpline
210
0.0
220
0.0
230
1.0
 70
     8
 71
     3
 72
    10
 73
     6
 74
     0
 42
0.0000000180249208
 43
0.0000000001
 12
1.0
 22
0.0
 32
0.0
 13
1.0
 23
0.0
 33
0.0
 40
0.0
 40
0.0
 40
0.0
 40
0.0
 40
0.5
 40
0.5
 40
1.0
 40
1.0
 40
1.0
 40
1.0
 10
7.599999999999996
 20
-2.8900915551819
 30
0.0
 10
7.600000000000002
 20
-2.815771692537912
 30
0.0
 10
7.557164125196723
 20
-2.742140585433378
 30
0.0
 10
7.409083999462354
 20
-2.636749538137828
 30
0.0
 10
7.305029094351035
 20
-2.606017257055493
 30
0.0
 10
7.199999999999998
 20
-2.606017257055491
 30
0.0
  0
LINE
  5
ED
330
1F
100
AcDbEntity
  8
SK3
100
AcDbLine
 10
7.2
 20
-2.6060172571
 30
0.0
 11
-10.2
 21
-2.6060172571
 31
0.0
  0
LINE
  5
EE
330
1F
100
AcDbEntity
  8
SK3
100
AcDbLine
 10
-10.2
 20
-2.8865419861
 30
0.0
 11
-14.2
 21
-2.8865419861
 31
0.0
  0
LINE
  5
EF
330
1F
100
AcDbEntity
  8
SK3
100
AcDbLine
 10
-14.2
 20
-2.8865419861
 30
0.0
 11
-14.6907477288
 21
-2.2825518942
 31
0.0
  0
LINE
  5
F0
330
1F
100
AcDbEntity
  8
SK3
100
AcDbLine
 10
-14.6907477288
 20
-2.2825518942
 30
0.0
 11
-21.1
 21
-2.2825518942
 31
0.0
  0
LINE
  5
F1
330
1F
100
AcDbEntity
  8
SK3
100
AcDbLine
 10
-23.6
 20
-0.3999999002
 30
0.0
 11
-23.618325403
 21
-0.3999999002
 31
0.0
  0
LINE
  5
F2
330
1F
100
AcDbEntity
  8
SK3
100
AcDbLine
 10
-14.2866025404
 20
-0.3999999002
 30
0.0
 11
-14.2866025404
 21
-0.4855045708
 31
0.0
  0
LINE
  5
F3
330
1F
100
AcDbEntity
  8
SK1
  6
Continuous
100
AcDbLine
 10
-23.6417519303
 20
-0.3999999002
 30
0.0
 11
-23.6417519303
 21
-6.665376815
 31
0.0
  0
LINE
  5
F4
330
1F
100
AcDbEntity
  8
SK1
  6
Continuous
100
AcDbLine
 10
-23.9
 20
0.4000000998
 30
0.0
 11
-23.9
 21
6.3677371654
 31
0.0
  0
LINE
  5
F5
330
1F
100
AcDbEntity
  8
SK1
  6
Continuous
100
AcDbLine
 10
-0.4556692404
 20
0.4000000998
 30
0.0
 11
-0.4556692404
 21
6.7372463622
 31
0.0
  0
LINE
  5
F6
330
1F
100
AcDbEntity
  8
SK3
100
AcDbLine
 10
-21.1
 20
0.4000000998
 30
0.0
 11
-21.1
 21
3.2413594246
 31
0.0
  0
LINE
  5
F7
330
1F
100
AcDbEntity
  8
SK1
  6
Continuous
100
AcDbLine
 10
0.0
 20
0.4000000998
 30
0.0
 11
0.0
 21
6.4569195618
 31
0.0
  0
LINE
  5
F8
330
1F
100
AcDbEntity
  8
SK3
100
AcDbLine
 10
-14.2
 20
0.4000000998
 30
0.0
 11
-14.2
 21
2.8865421856
 31
0.0
  0
LINE
  5
F9
330
1F
100
AcDbEntity
  8
SK3
100
AcDbLine
 10
-10.2
 20
0.4000000998
 30
0.0
 11
-10.2
 21
2.8865421856
 31
0.0
  0
LINE
  5
FA
330
1F
100
AcDbEntity
  8
SK1
  6
Continuous
100
AcDbLine
 10
0.2
 20
-0.3999999002
 30
0.0
 11
0.2
 21
-5.8624806129
 31
0.0
  0
ARC
  5
FB
330
1F
100
AcDbEntity
  8
SK1
  6
Continuous
100
AcDbCircle
 10
1.6999491009
 20
0.0000000998
 30
0.0
 40
0.4000084910287041
100
AcDbArc
 50
269.6266776871
 51
90.3733223129
  0
LINE
  5
FC
330
1F
100
AcDbEntity
  8
SK3
100
AcDbLine
 10
1.6973427826
 20
-0.3999999002
 30
0.0
 11
2.1739479899
 21
-0.3999999002
 31
0.0
  0
ARC
  5
FD
330
1F
100
AcDbEntity
  8
SK3
100
AcDbCircle
 10
2.1735997078
 20
0.0000000998
 30
0.0
 40
0.4000001516255164
100
AcDbArc
 50
270.0498877265
 51
89.9501122735
  0
LINE
  5
FE
330
1F
100
AcDbEntity
  8
SK1
  6
Continuous
100
AcDbLine
 10
0.0
 20
-0.3999999002
 30
0.0
 11
-0.4556692404
 21
-0.3999999002
 31
0.0
  0
LINE
  5
FF
330
1F
100
AcDbEntity
  8
SK1
  6
Continuous
100
AcDbLine
 10
-0.4556692404
 20
-0.3999999002
 30
0.0
 11
-23.6417519303
 21
-0.3999999002
 31
0.0
  0
LINE
  5
100
330
1F
100
AcDbEntity
  8
SK1
  6
Continuous
100
AcDbLine
 10
-23.6417519303
 20
-0.3999999002
 30
0.0
 11
-23.9
 21
-0.3999999002
 31
0.0
  0
LINE
  5
101
330
1F
100
AcDbEntity
  8
SK1
  6
Continuous
100
AcDbLine
 10
0.0
 20
-0.3999999002
 30
0.0
 11
0.2
 21
-0.3999999002
 31
0.0
  0
LINE
  5
102
330
1F
100
AcDbEntity
  8
SK1
  6
Continuous
100
AcDbLine
 10
0.2
 20
-0.3999999002
 30
0.0
 11
1.6973427826
 21
-0.3999999002
 31
0.0
  0
LINE
  5
103
330
1F
100
AcDbEntity
  8
SK3
100
AcDbLine
 10
-23.6
 20
0.4000000998
 30
0.0
 11
-23.618325403
 21
0.4000000998
 31
0.0
  0
LINE
  5
104
330
1F
100
AcDbEntity
  8
SK1
  6
Continuous
100
AcDbLine
 10
0.0
 20
0.4000000998
 30
0.0
 11
0.2
 21
0.4000000998
 31
0.0
  0
LINE
  5
105
330
1F
100
AcDbEntity
  8
SK1
  6
Continuous
100
AcDbLine
 10
0.2
 20
0.4000000998
 30
0.0
 11
1.6973427826
 21
0.4000000998
 31
0.0
  0
LINE
  5
106
330
1F
100
AcDbEntity
  8
SK3
100
AcDbLine
 10
1.6973427826
 20
0.4000000998
 30
0.0
 11
2.1739479899
 21
0.4000000998
 31
0.0
  0
LINE
  5
107
330
1F
100
AcDbEntity
  8
SK1
  6
Continuous
100
AcDbLine
 10
0.0
 20
0.4000000998
 30
0.0
 11
-0.4556692404
 21
0.4000000998
 31
0.0
  0
LINE
  5
108
330
1F
100
AcDbEntity
  8
SK1
  6
Continuous
100
AcDbLine
 10
-0.4556692404
 20
0.4000000998
 30
0.0
 11
-23.6417519303
 21
0.4000000998
 31
0.0
  0
LINE
  5
109
330
1F
100
AcDbEntity
  8
SK1
  6
Continuous
100
AcDbLine
 10
-23.6417519303
 20
0.4000000998
 30
0.0
 11
-23.9
 21
0.4000000998
 31
0.0
  0
LINE
  5
10A
330
1F
100
AcDbEntity
  8
SK1
  6
Continuous
100
AcDbLine
 10
2.0954330336
 20
-8.6999999002
 30
0.0
 11
2.6
 21
-8.6999999002
 31
0.0
  0
ARC
  5
10B
330
1F
100
AcDbEntity
  8
SK1
  6
Continuous
100
AcDbCircle
 10
2.6
 20
-8.8999999002
 30
0.0
 40
0.2000000000000015
100
AcDbArc
 50
0.0
 51
90.0
  0
LINE
  5
10C
330
1F
100
AcDbEntity
  8
SK3
100
AcDbLine
 10
2.5720974996
 20
-4.1049999002
 30
0.0
 11
7.2
 21
-4.1049999002
 31
0.0
  0
LINE
  5
10D
330
1F
100
AcDbEntity
  8
SK1
  6
Continuous
100
AcDbLine
 10
3.1794228634
 20
-10.4309400079
 30
0.0
 11
7.475
 21
-7.9508873918
 31
0.0
  0
LINE
  5
10E
330
1F
100
AcDbEntity
  8
SK1
  6
Continuous
100
AcDbLine
 10
2.8
 20
-10.2118801156
 30
0.0
 11
3.1794228634
 21
-10.4309400079
 31
0.0
  0
ARC
  5
10F
330
1F
100
AcDbEntity
  8
SK3
100
AcDbCircle
 10
7.2
 20
-4.5049999002
 30
0.0
 40
0.4
100
AcDbArc
 50
0.0
 51
90.0
  0
ARC
  5
110
330
1F
100
AcDbEntity
  8
SK1
  6
Continuous
100
AcDbCircle
 10
7.35
 20
-7.7343810408
 30
0.0
 40
0.2500000000000001
100
AcDbArc
 50
300.0
 51
0.0
  0
ARC
  5
111
330
1F
100
AcDbEntity
  8
SK3
100
AcDbCircle
 10
8.234884056
 20
0.1364777465
 30
0.0
 40
30.51027089354893
100
AcDbArc
 50
170.9671329761
 51
173.5773710737
  0
ARC
  5
112
330
1F
100
AcDbEntity
  8
SK3
100
AcDbCircle
 10
-59.7915179972
 20
0.0000000998
 30
0.0
 40
62.5
100
AcDbArc
 50
3.7657915348
 51
8.0021252577
  0
ARC
  5
113
330
1F
100
AcDbEntity
  8
SK3
100
AcDbCircle
 10
-59.7915179972
 20
0.0000000998
 30
0.0
 40
62.5
100
AcDbArc
 50
351.9980190939
 51
356.2341578951
  0
ARC
  5
114
330
1F
100
AcDbEntity
  8
SK1
  6
Continuous
100
AcDbCircle
 10
7.35
 20
7.7343812404
 30
0.0
 40
0.2500000000000002
100
AcDbArc
 50
0.0
 51
60.0
  0
ARC
  5
115
330
1F
100
AcDbEntity
  8
SK3
100
AcDbCircle
 10
7.2
 20
4.5050000998
 30
0.0
 40
0.3999999999999993
100
AcDbArc
 50
270.0
 51
0.0
  0
LINE
  5
116
330
1F
100
AcDbEntity
  8
SK1
  6
Continuous
100
AcDbLine
 10
3.1794228634
 20
10.4309402074
 30
0.0
 11
2.8
 21
10.2118803151
 31
0.0
  0
LINE
  5
117
330
1F
100
AcDbEntity
  8
SK1
  6
Continuous
100
AcDbLine
 10
7.475
 20
7.9508875913
 30
0.0
 11
3.1794228634
 21
10.4309402074
 31
0.0
  0
ARC
  5
118
330
1F
100
AcDbEntity
  8
SK1
  6
Continuous
100
AcDbCircle
 10
2.6
 20
8.9000000998
 30
0.0
 40
0.1999999999999994
100
AcDbArc
 50
270.0
 51
0.0
  0
LINE
  5
119
330
1F
100
AcDbEntity
  8
SK3
100
AcDbLine
 10
7.2
 20
4.1050000998
 30
0.0
 11
2.5679955777
 21
4.1050000998
 31
0.0
  0
LINE
  5
11A
330
1F
100
AcDbEntity
  8
SK1
  6
Continuous
100
AcDbLine
 10
2.6
 20
8.7000000998
 30
0.0
 11
2.0944233701
 21
8.7000000998
 31
0.0
  0
ARC
  5
11B
330
1F
100
AcDbEntity
  8
SK3
100
AcDbCircle
 10
9.2915354199
 20
0.0009176656
 30
0.0
 40
31.57566506543275
100
AcDbArc
 50
186.4558976719
 51
188.9768365532
  0
LINE
  5
11D
330
1F
100
AcDbEntity
  8
SK4
  6
Continuous
100
AcDbLine
 10
7.6
 20
0.0000000998
 30
0.0
 11
-23.9
 21
0.0000000998
 31
0.0
  0
DIMENSION
  5
132
330
1F
100
AcDbEntity
  8
SK2
  6
Continuous
 62
   136
100
AcDbDimension
  2
DMBLK29
 10
16.1352279902
 20
-4.1049999002
 30
0.0
 11
16.1352279902
 21
8.7442201745
 31
0.0
 70
   161
  1
\A1;ø <>
 71
     5
 42
-1.0
  3
DIN
100
AcDbAlignedDimension
 13
7.2
 23
-4.1049999002
 33
0.0
 14
7.2
 24
4.1050000998
 34
0.0
  0
DIMENSION
  5
13D
330
1F
100
AcDbEntity
  8
SK2
  6
Continuous
 62
   136
100
AcDbDimension
  2
DMBLK30
 10
-23.9
 20
16.6101572095
 30
0.0
 11
-8.1500002533
 21
16.6101572095
 31
0.0
 70
   160
  1
\A1;<>
 71
     5
 42
-1.0
  3
DIN
100
AcDbAlignedDimension
 13
7.6
 23
5.7445573612
 33
0.0
 14
-23.9
 24
6.3677371654
 34
0.0
100
AcDbRotatedDimension
  0
DIMENSION
  5
147
330
1F
100
AcDbEntity
  8
SK2
  6
Continuous
 62
   136
100
AcDbDimension
  2
DMBLK31
 10
-28.9073261631
 20
9.9279051371
 30
0.0
 11
-28.9073261631
 21
-0.0000000275
 31
0.0
 70
   161
  1
\A1;ø <>
 71
     5
 42
-1.0
  3
DIN
100
AcDbAlignedDimension
 13
-0.4556692404
 23
9.9279051371
 33
0.0
 14
-0.4556692404
 24
-9.9279049376
 34
0.0
1001
ACAD
1000
DSTYLE
1002
{
1070
   271
1070
     0
1070
   272
1070
     0
1070
     0
1002
}
  0
DIMENSION
  5
152
330
1F
100
AcDbEntity
  8
SK2
  6
Continuous
 62
   136
100
AcDbDimension
  2
DMBLK32
 10
7.6
 20
-17.0669373809
 30
0.0
 11
-5.5216606706
 21
-17.0669373809
 31
0.0
 70
   160
  1
\A1;<>
 71
     5
 42
-1.0
  3
DIN
100
AcDbAlignedDimension
 13
0.0
 23
-7.0226047872
 33
0.0
 14
7.6
 24
-7.7343810408
 34
0.0
100
AcDbRotatedDimension
  0
ENDSEC
  0
SECTION
  2
OBJECTS
  0
DICTIONARY
  5
C
330
0
100
AcDbDictionary
281
     1
  3
ACAD_GROUP
350
D
  3
ACAD_LAYOUT
350
1A
  3
ACAD_MATERIAL
350
3B
  3
ACAD_MLEADERSTYLE
350
15E
  3
ACAD_MLINESTYLE
350
17
  3
ACAD_PLOTSETTINGS
350
19
  3
ACAD_PLOTSTYLENAME
350
E
  3
ACAD_VISUALSTYLE
350
2A
  3
AcDbVariableDictionary
350
15C
  0
DICTIONARY
  5
D
102
{ACAD_REACTORS
330
C
102
}
330
C
100
AcDbDictionary
281
     1
  0
DICTIONARY
  5
1A
102
{ACAD_REACTORS
330
C
102
}
330
C
100
AcDbDictionary
281
     1
  3
Layout1
350
1E
  3
Model
350
22
  0
DICTIONARY
  5
3B
102
{ACAD_REACTORS
330
C
102
}
330
C
100
AcDbDictionary
281
     1
  3
ByBlock
350
3D
  3
ByLayer
350
3C
  3
Global
350
3E
  0
DICTIONARY
  5
15E
102
{ACAD_REACTORS
330
C
102
}
330
C
100
AcDbDictionary
281
     1
  0
DICTIONARY
  5
17
102
{ACAD_REACTORS
330
C
102
}
330
C
100
AcDbDictionary
281
     1
  3
Standard
350
18
  0
DICTIONARY
  5
19
102
{ACAD_REACTORS
330
C
102
}
330
C
100
AcDbDictionary
281
     1
  0
ACDBDICTIONARYWDFLT
  5
E
102
{ACAD_REACTORS
330
C
102
}
330
C
100
AcDbDictionary
281
     1
  3
Normal
350
F
100
AcDbDictionaryWithDefault
340
F
  0
DICTIONARY
  5
2A
102
{ACAD_REACTORS
330
C
102
}
330
C
100
AcDbDictionary
281
     1
  3
2dWireframe
350
2F
  3
3D Hidden
350
31
  3
3dWireframe
350
30
  3
Basic
350
32
  3
Brighten
350
36
  3
ColorChange
350
3A
  3
Conceptual
350
34
  3
Dim
350
35
  3
Facepattern
350
39
  3
Flat
350
2B
  3
FlatWithEdges
350
2C
  3
Gouraud
350
2D
  3
GouraudWithEdges
350
2E
  3
Linepattern
350
38
  3
Realistic
350
33
  3
Thicken
350
37
  0
DICTIONARY
  5
15C
102
{ACAD_REACTORS
330
C
102
}
330
C
100
AcDbDictionary
281
     1
  3
DIMASSOC
350
161
  3
HIDETEXT
350
162
  3
PSOLHEIGHT
350
160
  3
PSOLWIDTH
350
15F
  0
LAYOUT
  5
1E
102
{ACAD_REACTORS
330
1A
102
}
330
1A
100
AcDbPlotSettings
  1

  2
none_device
  4

  6

 40
0.0
 41
0.0
 42
0.0
 43
0.0
 44
0.0
 45
0.0
 46
0.0
 47
0.0
 48
0.0
 49
0.0
140
0.0
141
0.0
142
1.0
143
1.0
 70
   688
 72
     0
 73
     0
 74
     5
  7

 75
    16
147
1.0
148
0.0
149
0.0
100
AcDbLayout
  1
Layout1
 70
     1
 71
     1
 10
0.0
 20
0.0
 11
210.0
 21
297.0
 12
0.0
 22
0.0
 32
0.0
 14
0.0
 24
0.0
 34
0.0
 15
210.0
 25
297.0
 35
0.0
146
0.0
 13
0.0
 23
0.0
 33
0.0
 16
1.0
 26
0.0
 36
0.0
 17
0.0
 27
1.0
 37
0.0
 76
     0
330
1B
  0
LAYOUT
  5
22
102
{ACAD_REACTORS
330
1A
102
}
330
1A
100
AcDbPlotSettings
  1

  2
none_device
  4

  6

 40
0.0
 41
0.0
 42
0.0
 43
0.0
 44
0.0
 45
0.0
 46
0.0
 47
0.0
 48
0.0
 49
0.0
140
0.0
141
0.0
142
1.0
143
1.0
 70
  1712
 72
     0
 73
     0
 74
     0
  7

 75
     0
147
1.0
148
0.0
149
0.0
100
AcDbLayout
  1
Model
 70
     1
 71
     0
 10
0.0
 20
0.0
 11
210.0
 21
297.0
 12
0.0
 22
0.0
 32
0.0
 14
0.0
 24
0.0
 34
0.0
 15
210.0
 25
297.0
 35
0.0
146
0.0
 13
0.0
 23
0.0
 33
0.0
 16
1.0
 26
0.0
 36
0.0
 17
0.0
 27
1.0
 37
0.0
 76
     0
330
1F
331
29
  0
MATERIAL
  5
3D
102
{ACAD_REACTORS
330
3B
102
}
102
{ACAD_XDICTIONARY
360
185
102
}
330
3B
100
AcDbMaterial
  1
ByBlock
  0
MATERIAL
  5
3C
102
{ACAD_REACTORS
330
3B
102
}
102
{ACAD_XDICTIONARY
360
183
102
}
330
3B
100
AcDbMaterial
  1
ByLayer
  0
MATERIAL
  5
3E
102
{ACAD_REACTORS
330
3B
102
}
102
{ACAD_XDICTIONARY
360
187
102
}
330
3B
100
AcDbMaterial
  1
Global
  0
MLINESTYLE
  5
18
102
{ACAD_REACTORS
330
17
102
}
330
17
100
AcDbMlineStyle
  2
Standard
 70
     0
  3

 62
   256
 51
90.0
 52
90.0
 71
     2
 49
0.5
 62
   256
  6
BYLAYER
 49
-0.5
 62
   256
  6
BYLAYER
  0
ACDBPLACEHOLDER
  5
F
102
{ACAD_REACTORS
330
E
102
}
330
E
  0
VISUALSTYLE
  5
2F
102
{ACAD_REACTORS
330
2A
102
}
102
{ACAD_XDICTIONARY
360
16B
102
}
330
2A
100
AcDbVisualStyle
  2
2dWireframe
 70
     4
 71
     0
 72
     2
 73
     0
 90
        0
 40
-0.6
 41
-30.0
 62
     5
 63
     7
 74
     1
 91
        4
 64
     7
 65
   257
 75
     1
175
     1
 42
1.0
 92
        0
 66
   257
 43
1.0
 76
     1
 77
     6
 78
     2
 67
     7
 79
     5
170
     0
171
     0
290
     0
174
     0
 93
        1
 44
0.0
173
     0
291
     0
 45
0.0
1001
ACAD
1000
AcDbSavedByObjectVersion
1070
     0
  0
VISUALSTYLE
  5
31
102
{ACAD_REACTORS
330
2A
102
}
102
{ACAD_XDICTIONARY
360
16F
102
}
330
2A
100
AcDbVisualStyle
  2
3D Hidden
 70
     6
 71
     1
 72
     2
 73
     2
 90
        0
 40
-0.6
 41
-30.0
 62
     5
 63
     7
 74
     2
 91
        2
 64
     7
 65
   257
 75
     2
175
     1
 42
40.0
 92
        0
 66
   257
 43
1.0
 76
     1
 77
     6
 78
     2
 67
     7
 79
     3
170
     0
171
     0
290
     0
174
     0
 93
        1
 44
0.0
173
     0
291
     0
 45
0.0
1001
ACAD
1000
AcDbSavedByObjectVersion
1070
     0
  0
VISUALSTYLE
  5
30
102
{ACAD_REACTORS
330
2A
102
}
102
{ACAD_XDICTIONARY
360
16D
102
}
330
2A
100
AcDbVisualStyle
  2
3dWireframe
 70
     5
 71
     0
 72
     2
 73
     0
 90
        0
 40
-0.6
 41
-30.0
 62
     5
 63
     7
 74
     1
 91
        4
 64
     7
 65
   257
 75
     1
175
     1
 42
1.0
 92
        0
 66
   257
 43
1.0
 76
     1
 77
     6
 78
     2
 67
     7
 79
     5
170
     0
171
     0
290
     0
174
     0
 93
        1
 44
0.0
173
     0
291
     0
 45
0.0
1001
ACAD
1000
AcDbSavedByObjectVersion
1070
     0
  0
VISUALSTYLE
  5
32
102
{ACAD_REACTORS
330
2A
102
}
102
{ACAD_XDICTIONARY
360
171
102
}
330
2A
100
AcDbVisualStyle
  2
Basic
 70
     7
 71
     1
 72
     0
 73
     1
 90
        0
 40
-0.6
 41
-30.0
 62
     5
 63
     7
 74
     0
 91
        4
 64
     7
 65
   257
 75
     1
175
     1
 42
1.0
 92
        8
 66
     7
 43
1.0
 76
     1
 77
     6
 78
     2
 67
     7
 79
     5
170
     0
171
     0
290
     0
174
     0
 93
        1
 44
0.0
173
     0
291
     1
 45
0.0
1001
ACAD
1000
AcDbSavedByObjectVersion
1070
     0
  0
VISUALSTYLE
  5
36
102
{ACAD_REACTORS
330
2A
102
}
102
{ACAD_XDICTIONARY
360
179
102
}
330
2A
100
AcDbVisualStyle
  2
Brighten
 70
    12
 71
     2
 72
     2
 73
     0
 90
        0
 40
-0.6
 41
-30.0
 62
     5
 63
     7
 74
     1
 91
        4
 64
     7
 65
   257
 75
     1
175
     1
 42
1.0
 92
        8
 66
     7
 43
1.0
 76
     1
 77
     6
 78
     2
 67
     7
 79
     5
170
     0
171
     0
290
     0
174
     0
 93
        1
 44
50.0
173
     0
291
     1
 45
0.0
1001
ACAD
1000
AcDbSavedByObjectVersion
1070
     0
  0
VISUALSTYLE
  5
3A
102
{ACAD_REACTORS
330
2A
102
}
102
{ACAD_XDICTIONARY
360
181
102
}
330
2A
100
AcDbVisualStyle
  2
ColorChange
 70
    16
 71
     2
 72
     2
 73
     3
 90
        0
 40
-0.6
 41
-30.0
 62
     5
 63
     8
 74
     1
 91
        4
 64
     7
 65
   257
 75
     1
175
     1
 42
1.0
 92
        8
 66
     8
 43
1.0
 76
     1
 77
     6
 78
     2
 67
     7
 79
     5
170
     0
171
     0
290
     0
174
     0
 93
        1
 44
0.0
173
     0
291
     1
 45
0.0
1001
ACAD
1000
AcDbSavedByObjectVersion
1070
     0
  0
VISUALSTYLE
  5
34
102
{ACAD_REACTORS
330
2A
102
}
102
{ACAD_XDICTIONARY
360
175
102
}
330
2A
100
AcDbVisualStyle
  2
Conceptual
 70
     9
 71
     3
 72
     2
 73
     0
 90
        0
 40
-0.6
 41
-30.0
 62
     5
 63
     7
 74
     2
 91
        2
 64
     7
 65
   257
 75
     1
175
     1
 42
40.0
 92
        8
 66
     7
 43
1.0
 76
     1
 77
     6
 78
     2
 67
     7
 79
     3
170
     0
171
     0
290
     0
174
     0
 93
        1
 44
0.0
173
     0
291
     0
 45
0.0
1001
ACAD
1000
AcDbSavedByObjectVersion
1070
     0
  0
VISUALSTYLE
  5
35
102
{ACAD_REACTORS
330
2A
102
}
102
{ACAD_XDICTIONARY
360
177
102
}
330
2A
100
AcDbVisualStyle
  2
Dim
 70
    11
 71
     2
 72
     2
 73
     0
 90
        0
 40
-0.6
 41
-30.0
 62
     5
 63
     7
 74
     1
 91
        4
 64
     7
 65
   257
 75
     1
175
     1
 42
1.0
 92
        8
 66
     7
 43
1.0
 76
     1
 77
     6
 78
     2
 67
     7
 79
     5
170
     0
171
     0
290
     0
174
     0
 93
        1
 44
-50.0
173
     0
291
     1
 45
0.0
1001
ACAD
1000
AcDbSavedByObjectVersion
1070
     0
  0
VISUALSTYLE
  5
39
102
{ACAD_REACTORS
330
2A
102
}
102
{ACAD_XDICTIONARY
360
17F
102
}
330
2A
100
AcDbVisualStyle
  2
Facepattern
 70
    15
 71
     2
 72
     2
 73
     0
 90
        0
 40
-0.6
 41
-30.0
 62
     5
 63
     7
 74
     1
 91
        4
 64
     7
 65
   257
 75
     1
175
     1
 42
1.0
 92
        8
 66
     7
 43
1.0
 76
     1
 77
     6
 78
     2
 67
     7
 79
     5
170
     0
171
     0
290
     0
174
     0
 93
        1
 44
0.0
173
     0
291
     1
 45
0.0
1001
ACAD
1000
AcDbSavedByObjectVersion
1070
     0
  0
VISUALSTYLE
  5
2B
102
{ACAD_REACTORS
330
2A
102
}
102
{ACAD_XDICTIONARY
360
163
102
}
330
2A
100
AcDbVisualStyle
  2
Flat
 70
     0
 71
     2
 72
     1
 73
     1
 90
        2
 40
-0.6
 41
30.0
 62
     5
 63
     7
 74
     0
 91
        4
 64
     7
 65
   257
 75
     1
175
     1
 42
1.0
 92
        8
 66
     7
 43
1.0
 76
     1
 77
     6
 78
     2
 67
     7
 79
     5
170
     0
171
     0
290
     0
174
     0
 93
       13
 44
0.0
173
     0
291
     1
 45
0.0
1001
ACAD
1000
AcDbSavedByObjectVersion
1070
     0
  0
VISUALSTYLE
  5
2C
102
{ACAD_REACTORS
330
2A
102
}
102
{ACAD_XDICTIONARY
360
165
102
}
330
2A
100
AcDbVisualStyle
  2
FlatWithEdges
 70
     1
 71
     2
 72
     1
 73
     1
 90
        2
 40
-0.6
 41
30.0
 62
     5
 63
     7
 74
     1
 91
        4
 64
     7
 65
   257
 75
     1
175
     1
 42
1.0
 92
        0
 66
   257
 43
1.0
 76
     1
 77
     6
 78
     2
 67
     7
 79
     5
170
     0
171
     0
290
     0
174
     0
 93
       13
 44
0.0
173
     0
291
     1
 45
0.0
1001
ACAD
1000
AcDbSavedByObjectVersion
1070
     0
  0
VISUALSTYLE
  5
2D
102
{ACAD_REACTORS
330
2A
102
}
102
{ACAD_XDICTIONARY
360
167
102
}
330
2A
100
AcDbVisualStyle
  2
Gouraud
 70
     2
 71
     2
 72
     2
 73
     1
 90
        2
 40
-0.6
 41
30.0
 62
     5
 63
     7
 74
     0
 91
        4
 64
     7
 65
   257
 75
     1
175
     1
 42
1.0
 92
        0
 66
     7
 43
1.0
 76
     1
 77
     6
 78
     2
 67
     7
 79
     5
170
     0
171
     0
290
     0
174
     0
 93
       13
 44
0.0
173
     0
291
     1
 45
0.0
1001
ACAD
1000
AcDbSavedByObjectVersion
1070
     0
  0
VISUALSTYLE
  5
2E
102
{ACAD_REACTORS
330
2A
102
}
102
{ACAD_XDICTIONARY
360
169
102
}
330
2A
100
AcDbVisualStyle
  2
GouraudWithEdges
 70
     3
 71
     2
 72
     2
 73
     1
 90
        2
 40
-0.6
 41
30.0
 62
     5
 63
     7
 74
     1
 91
        4
 64
     7
 65
   257
 75
     1
175
     1
 42
1.0
 92
        0
 66
   257
 43
1.0
 76
     1
 77
     6
 78
     2
 67
     7
 79
     5
170
     0
171
     0
290
     0
174
     0
 93
       13
 44
0.0
173
     0
291
     1
 45
0.0
1001
ACAD
1000
AcDbSavedByObjectVersion
1070
     0
  0
VISUALSTYLE
  5
38
102
{ACAD_REACTORS
330
2A
102
}
102
{ACAD_XDICTIONARY
360
17D
102
}
330
2A
100
AcDbVisualStyle
  2
Linepattern
 70
    14
 71
     2
 72
     2
 73
     0
 90
        0
 40
-0.6
 41
-30.0
 62
     5
 63
     7
 74
     1
 91
        4
 64
     7
 65
   257
 75
     7
175
     7
 42
1.0
 92
        8
 66
     7
 43
1.0
 76
     1
 77
     6
 78
     2
 67
     7
 79
     5
170
     0
171
     0
290
     0
174
     0
 93
        1
 44
0.0
173
     0
291
     1
 45
0.0
1001
ACAD
1000
AcDbSavedByObjectVersion
1070
     0
  0
VISUALSTYLE
  5
33
102
{ACAD_REACTORS
330
2A
102
}
102
{ACAD_XDICTIONARY
360
173
102
}
330
2A
100
AcDbVisualStyle
  2
Realistic
 70
     8
 71
     2
 72
     2
 73
     0
 90
        0
 40
-0.6
 41
-30.0
 62
     5
 63
     7
 74
     1
 91
        0
 64
     7
 65
   257
 75
     1
175
     1
 42
1.0
 92
        8
 66
     8
 43
1.0
 76
     1
 77
     6
 78
     2
 67
     7
 79
     5
170
     0
171
     0
290
     0
174
     0
 93
       13
 44
0.0
173
     0
291
     0
 45
0.0
1001
ACAD
1000
AcDbSavedByObjectVersion
1070
     0
  0
VISUALSTYLE
  5
37
102
{ACAD_REACTORS
330
2A
102
}
102
{ACAD_XDICTIONARY
360
17B
102
}
330
2A
100
AcDbVisualStyle
  2
Thicken
 70
    13
 71
     2
 72
     2
 73
     0
 90
        0
 40
-0.6
 41
-30.0
 62
     5
 63
     7
 74
     1
 91
        4
 64
     7
 65
   257
 75
     1
175
     1
 42
1.0
 92
       12
 66
     7
 43
1.0
 76
     1
 77
     6
 78
     2
 67
     7
 79
     5
170
     0
171
     0
290
     0
174
     0
 93
        1
 44
0.0
173
     0
291
     1
 45
0.0
1001
ACAD
1000
AcDbSavedByObjectVersion
1070
     0
  0
DICTIONARYVAR
  5
161
102
{ACAD_REACTORS
330
15C
102
}
330
15C
100
DictionaryVariables
280
     0
  1
2
  0
DICTIONARYVAR
  5
162
102
{ACAD_REACTORS
330
15C
102
}
330
15C
100
DictionaryVariables
280
     0
  1
1
  0
DICTIONARYVAR
  5
160
102
{ACAD_REACTORS
330
15C
102
}
330
15C
100
DictionaryVariables
280
     0
  1
80.000000
  0
DICTIONARYVAR
  5
15F
102
{ACAD_REACTORS
330
15C
102
}
330
15C
100
DictionaryVariables
280
     0
  1
5.000000
  0
DICTIONARY
  5
185
330
3D
100
AcDbDictionary
280
     1
281
     1
  3
ACAD_XREC_ROUNDTRIP
360
186
  0
DICTIONARY
  5
183
330
3C
100
AcDbDictionary
280
     1
281
     1
  3
ACAD_XREC_ROUNDTRIP
360
184
  0
DICTIONARY
  5
187
330
3E
100
AcDbDictionary
280
     1
281
     1
  3
ACAD_XREC_ROUNDTRIP
360
188
  0
DICTIONARY
  5
16B
330
2F
100
AcDbDictionary
280
     1
281
     1
  3
ACAD_XREC_ROUNDTRIP
360
16C
  0
DICTIONARY
  5
16F
330
31
100
AcDbDictionary
280
     1
281
     1
  3
ACAD_XREC_ROUNDTRIP
360
170
  0
DICTIONARY
  5
16D
330
30
100
AcDbDictionary
280
     1
281
     1
  3
ACAD_XREC_ROUNDTRIP
360
16E
  0
DICTIONARY
  5
171
330
32
100
AcDbDictionary
280
     1
281
     1
  3
ACAD_XREC_ROUNDTRIP
360
172
  0
DICTIONARY
  5
179
330
36
100
AcDbDictionary
280
     1
281
     1
  3
ACAD_XREC_ROUNDTRIP
360
17A
  0
DICTIONARY
  5
181
330
3A
100
AcDbDictionary
280
     1
281
     1
  3
ACAD_XREC_ROUNDTRIP
360
182
  0
DICTIONARY
  5
175
330
34
100
AcDbDictionary
280
     1
281
     1
  3
ACAD_XREC_ROUNDTRIP
360
176
  0
DICTIONARY
  5
177
330
35
100
AcDbDictionary
280
     1
281
     1
  3
ACAD_XREC_ROUNDTRIP
360
178
  0
DICTIONARY
  5
17F
330
39
100
AcDbDictionary
280
     1
281
     1
  3
ACAD_XREC_ROUNDTRIP
360
180
  0
DICTIONARY
  5
163
330
2B
100
AcDbDictionary
280
     1
281
     1
  3
ACAD_XREC_ROUNDTRIP
360
164
  0
DICTIONARY
  5
165
330
2C
100
AcDbDictionary
280
     1
281
     1
  3
ACAD_XREC_ROUNDTRIP
360
166
  0
DICTIONARY
  5
167
330
2D
100
AcDbDictionary
280
     1
281
     1
  3
ACAD_XREC_ROUNDTRIP
360
168
  0
DICTIONARY
  5
169
330
2E
100
AcDbDictionary
280
     1
281
     1
  3
ACAD_XREC_ROUNDTRIP
360
16A
  0
DICTIONARY
  5
17D
330
38
100
AcDbDictionary
280
     1
281
     1
  3
ACAD_XREC_ROUNDTRIP
360
17E
  0
DICTIONARY
  5
173
330
33
100
AcDbDictionary
280
     1
281
     1
  3
ACAD_XREC_ROUNDTRIP
360
174
  0
DICTIONARY
  5
17B
330
37
100
AcDbDictionary
280
     1
281
     1
  3
ACAD_XREC_ROUNDTRIP
360
17C
  0
XRECORD
  5
186
102
{ACAD_REACTORS
330
185
102
}
330
185
100
AcDbXrecord
280
     1
102
MATERIAL
148
0.0
149
0.0
149
0.0
 93
        0
 94
      127
282
     0
 72
     1
 77
     1
171
     1
175
     1
179
     1
273
     0
  0
XRECORD
  5
184
102
{ACAD_REACTORS
330
183
102
}
330
183
100
AcDbXrecord
280
     1
102
MATERIAL
148
0.0
149
0.0
149
0.0
 93
        0
 94
      127
282
     0
 72
     1
 77
     1
171
     1
175
     1
179
     1
273
     0
  0
XRECORD
  5
188
102
{ACAD_REACTORS
330
187
102
}
330
187
100
AcDbXrecord
280
     1
102
MATERIAL
148
0.0
149
0.0
149
0.0
 93
        0
 94
      127
282
     0
 72
     1
 77
     1
171
     1
175
     1
179
     1
273
     0
  0
XRECORD
  5
16C
102
{ACAD_REACTORS
330
16B
102
}
330
16B
100
AcDbXrecord
280
     1
102
RTVSPropertyOp0
 70
     1
102
RTVSPropertyOp1
 70
     1
102
RTVSPropertyOp2
 70
     1
102
RTVSPropertyOp3
 70
     1
102
RTVSPropertyOp4
 70
     1
102
RTVSPropertyOp5
 70
     1
102
RTVSPropertyOp6
 70
     1
102
RTVSPropertyOp7
 70
     1
102
RTVSPropertyOp8
 70
     1
102
RTVSPropertyOp9
 70
     1
102
RTVSPropertyOp10
 70
     1
102
RTVSPropertyOp11
 70
     1
102
RTVSPropertyOp12
 70
     1
102
RTVSPropertyOp13
 70
     1
102
RTVSPropertyOp14
 70
     1
102
RTVSPropertyOp15
 70
     1
102
RTVSPropertyOp16
 70
     1
102
RTVSPropertyOp17
 70
     1
102
RTVSPropertyOp18
 70
     1
102
RTVSPropertyOp19
 70
     1
102
RTVSPropertyOp20
 70
     1
102
RTVSPropertyOp21
 70
     1
102
RTVSPropertyOp22
 70
     1
102
RTVSPropertyOp23
 70
     1
102
RTVSPropertyOp24
 70
     1
102
RTVSPropertyOp25
 70
     1
102
RTVSPropertyOp26
 70
     1
102
RTVSPropertyOp27
 70
     1
102
RTVSPropertyOp28
 70
     1
102
RTVSPropertyOp29
 70
     1
102
RTVSPropertyOp30
 70
     1
102
RTVSPropertyOp31
 70
     1
102
RTVSPropertyOp32
 70
     1
  0
XRECORD
  5
170
102
{ACAD_REACTORS
330
16F
102
}
330
16F
100
AcDbXrecord
280
     1
102
RTVSPropertyOp0
 70
     1
102
RTVSPropertyOp1
 70
     1
102
RTVSPropertyOp2
 70
     1
102
RTVSPropertyOp3
 70
     1
102
RTVSPropertyOp4
 70
     1
102
RTVSPropertyOp5
 70
     1
102
RTVSPropertyOp6
 70
     1
102
RTVSPropertyOp7
 70
     1
102
RTVSPropertyOp8
 70
     1
102
RTVSPropertyOp9
 70
     1
102
RTVSPropertyOp10
 70
     1
102
RTVSPropertyOp11
 70
     1
102
RTVSPropertyOp12
 70
     1
102
RTVSPropertyOp13
 70
     1
102
RTVSPropertyOp14
 70
     1
102
RTVSPropertyOp15
 70
     1
102
RTVSPropertyOp16
 70
     1
102
RTVSPropertyOp17
 70
     1
102
RTVSPropertyOp18
 70
     1
102
RTVSPropertyOp19
 70
     1
102
RTVSPropertyOp20
 70
     1
102
RTVSPropertyOp21
 70
     1
102
RTVSPropertyOp22
 70
     1
102
RTVSPropertyOp23
 70
     1
102
RTVSPropertyOp24
 70
     1
102
RTVSPropertyOp25
 70
     1
102
RTVSPropertyOp26
 70
     1
102
RTVSPropertyOp27
 70
     1
102
RTVSPropertyOp28
 70
     1
102
RTVSPropertyOp29
 70
     1
102
RTVSPropertyOp30
 70
     1
102
RTVSPropertyOp31
 70
     1
102
RTVSPropertyOp32
 70
     1
  0
XRECORD
  5
16E
102
{ACAD_REACTORS
330
16D
102
}
330
16D
100
AcDbXrecord
280
     1
102
RTVSPropertyOp0
 70
     1
102
RTVSPropertyOp1
 70
     1
102
RTVSPropertyOp2
 70
     1
102
RTVSPropertyOp3
 70
     1
102
RTVSPropertyOp4
 70
     1
102
RTVSPropertyOp5
 70
     1
102
RTVSPropertyOp6
 70
     1
102
RTVSPropertyOp7
 70
     1
102
RTVSPropertyOp8
 70
     1
102
RTVSPropertyOp9
 70
     1
102
RTVSPropertyOp10
 70
     1
102
RTVSPropertyOp11
 70
     1
102
RTVSPropertyOp12
 70
     1
102
RTVSPropertyOp13
 70
     1
102
RTVSPropertyOp14
 70
     1
102
RTVSPropertyOp15
 70
     1
102
RTVSPropertyOp16
 70
     1
102
RTVSPropertyOp17
 70
     1
102
RTVSPropertyOp18
 70
     1
102
RTVSPropertyOp19
 70
     1
102
RTVSPropertyOp20
 70
     1
102
RTVSPropertyOp21
 70
     1
102
RTVSPropertyOp22
 70
     1
102
RTVSPropertyOp23
 70
     1
102
RTVSPropertyOp24
 70
     1
102
RTVSPropertyOp25
 70
     1
102
RTVSPropertyOp26
 70
     1
102
RTVSPropertyOp27
 70
     1
102
RTVSPropertyOp28
 70
     1
102
RTVSPropertyOp29
 70
     1
102
RTVSPropertyOp30
 70
     1
102
RTVSPropertyOp31
 70
     1
102
RTVSPropertyOp32
 70
     1
  0
XRECORD
  5
172
102
{ACAD_REACTORS
330
171
102
}
330
171
100
AcDbXrecord
280
     1
102
RTVSPropertyOp0
 70
     1
102
RTVSPropertyOp1
 70
     1
102
RTVSPropertyOp2
 70
     1
102
RTVSPropertyOp3
 70
     1
102
RTVSPropertyOp4
 70
     1
102
RTVSPropertyOp5
 70
     1
102
RTVSPropertyOp6
 70
     1
102
RTVSPropertyOp7
 70
     1
102
RTVSPropertyOp8
 70
     1
102
RTVSPropertyOp9
 70
     1
102
RTVSPropertyOp10
 70
     1
102
RTVSPropertyOp11
 70
     1
102
RTVSPropertyOp12
 70
     1
102
RTVSPropertyOp13
 70
     1
102
RTVSPropertyOp14
 70
     1
102
RTVSPropertyOp15
 70
     1
102
RTVSPropertyOp16
 70
     1
102
RTVSPropertyOp17
 70
     1
102
RTVSPropertyOp18
 70
     1
102
RTVSPropertyOp19
 70
     1
102
RTVSPropertyOp20
 70
     1
102
RTVSPropertyOp21
 70
     1
102
RTVSPropertyOp22
 70
     1
102
RTVSPropertyOp23
 70
     1
102
RTVSPropertyOp24
 70
     1
102
RTVSPropertyOp25
 70
     1
102
RTVSPropertyOp26
 70
     1
102
RTVSPropertyOp27
 70
     1
102
RTVSPropertyOp28
 70
     1
102
RTVSPropertyOp29
 70
     1
102
RTVSPropertyOp30
 70
     1
102
RTVSPropertyOp31
 70
     1
102
RTVSPropertyOp32
 70
     1
  0
XRECORD
  5
17A
102
{ACAD_REACTORS
330
179
102
}
330
179
100
AcDbXrecord
280
     1
102
RTVSPropertyOp0
 70
     1
102
RTVSPropertyOp1
 70
     1
102
RTVSPropertyOp2
 70
     1
102
RTVSPropertyOp3
 70
     1
102
RTVSPropertyOp4
 70
     1
102
RTVSPropertyOp5
 70
     1
102
RTVSPropertyOp6
 70
     1
102
RTVSPropertyOp7
 70
     1
102
RTVSPropertyOp8
 70
     1
102
RTVSPropertyOp9
 70
     1
102
RTVSPropertyOp10
 70
     1
102
RTVSPropertyOp11
 70
     1
102
RTVSPropertyOp12
 70
     1
102
RTVSPropertyOp13
 70
     1
102
RTVSPropertyOp14
 70
     1
102
RTVSPropertyOp15
 70
     1
102
RTVSPropertyOp16
 70
     1
102
RTVSPropertyOp17
 70
     1
102
RTVSPropertyOp18
 70
     1
102
RTVSPropertyOp19
 70
     1
102
RTVSPropertyOp20
 70
     1
102
RTVSPropertyOp21
 70
     1
102
RTVSPropertyOp22
 70
     1
102
RTVSPropertyOp23
 70
     1
102
RTVSPropertyOp24
 70
     1
102
RTVSPropertyOp25
 70
     1
102
RTVSPropertyOp26
 70
     1
102
RTVSPropertyOp27
 70
     1
102
RTVSPropertyOp28
 70
     1
102
RTVSPropertyOp29
 70
     1
102
RTVSPropertyOp30
 70
     1
102
RTVSPropertyOp31
 70
     1
102
RTVSPropertyOp32
 70
     1
  0
XRECORD
  5
182
102
{ACAD_REACTORS
330
181
102
}
330
181
100
AcDbXrecord
280
     1
102
RTVSPropertyOp0
 70
     1
102
RTVSPropertyOp1
 70
     1
102
RTVSPropertyOp2
 70
     1
102
RTVSPropertyOp3
 70
     1
102
RTVSPropertyOp4
 70
     1
102
RTVSPropertyOp5
 70
     1
102
RTVSPropertyOp6
 70
     1
102
RTVSPropertyOp7
 70
     1
102
RTVSPropertyOp8
 70
     1
102
RTVSPropertyOp9
 70
     1
102
RTVSPropertyOp10
 70
     1
102
RTVSPropertyOp11
 70
     1
102
RTVSPropertyOp12
 70
     1
102
RTVSPropertyOp13
 70
     1
102
RTVSPropertyOp14
 70
     1
102
RTVSPropertyOp15
 70
     1
102
RTVSPropertyOp16
 70
     1
102
RTVSPropertyOp17
 70
     1
102
RTVSPropertyOp18
 70
     1
102
RTVSPropertyOp19
 70
     1
102
RTVSPropertyOp20
 70
     1
102
RTVSPropertyOp21
 70
     1
102
RTVSPropertyOp22
 70
     1
102
RTVSPropertyOp23
 70
     1
102
RTVSPropertyOp24
 70
     1
102
RTVSPropertyOp25
 70
     1
102
RTVSPropertyOp26
 70
     1
102
RTVSPropertyOp27
 70
     1
102
RTVSPropertyOp28
 70
     1
102
RTVSPropertyOp29
 70
     1
102
RTVSPropertyOp30
 70
     1
102
RTVSPropertyOp31
 70
     1
102
RTVSPropertyOp32
 70
     1
  0
XRECORD
  5
176
102
{ACAD_REACTORS
330
175
102
}
330
175
100
AcDbXrecord
280
     1
102
RTVSPropertyOp0
 70
     1
102
RTVSPropertyOp1
 70
     1
102
RTVSPropertyOp2
 70
     1
102
RTVSPropertyOp3
 70
     1
102
RTVSPropertyOp4
 70
     1
102
RTVSPropertyOp5
 70
     1
102
RTVSPropertyOp6
 70
     1
102
RTVSPropertyOp7
 70
     1
102
RTVSPropertyOp8
 70
     1
102
RTVSPropertyOp9
 70
     1
102
RTVSPropertyOp10
 70
     1
102
RTVSPropertyOp11
 70
     1
102
RTVSPropertyOp12
 70
     1
102
RTVSPropertyOp13
 70
     1
102
RTVSPropertyOp14
 70
     1
102
RTVSPropertyOp15
 70
     1
102
RTVSPropertyOp16
 70
     1
102
RTVSPropertyOp17
 70
     1
102
RTVSPropertyOp18
 70
     1
102
RTVSPropertyOp19
 70
     1
102
RTVSPropertyOp20
 70
     1
102
RTVSPropertyOp21
 70
     1
102
RTVSPropertyOp22
 70
     1
102
RTVSPropertyOp23
 70
     1
102
RTVSPropertyOp24
 70
     1
102
RTVSPropertyOp25
 70
     1
102
RTVSPropertyOp26
 70
     1
102
RTVSPropertyOp27
 70
     1
102
RTVSPropertyOp28
 70
     1
102
RTVSPropertyOp29
 70
     1
102
RTVSPropertyOp30
 70
     1
102
RTVSPropertyOp31
 70
     1
102
RTVSPropertyOp32
 70
     1
  0
XRECORD
  5
178
102
{ACAD_REACTORS
330
177
102
}
330
177
100
AcDbXrecord
280
     1
102
RTVSPropertyOp0
 70
     1
102
RTVSPropertyOp1
 70
     1
102
RTVSPropertyOp2
 70
     1
102
RTVSPropertyOp3
 70
     1
102
RTVSPropertyOp4
 70
     1
102
RTVSPropertyOp5
 70
     1
102
RTVSPropertyOp6
 70
     1
102
RTVSPropertyOp7
 70
     1
102
RTVSPropertyOp8
 70
     1
102
RTVSPropertyOp9
 70
     1
102
RTVSPropertyOp10
 70
     1
102
RTVSPropertyOp11
 70
     1
102
RTVSPropertyOp12
 70
     1
102
RTVSPropertyOp13
 70
     1
102
RTVSPropertyOp14
 70
     1
102
RTVSPropertyOp15
 70
     1
102
RTVSPropertyOp16
 70
     1
102
RTVSPropertyOp17
 70
     1
102
RTVSPropertyOp18
 70
     1
102
RTVSPropertyOp19
 70
     1
102
RTVSPropertyOp20
 70
     1
102
RTVSPropertyOp21
 70
     1
102
RTVSPropertyOp22
 70
     1
102
RTVSPropertyOp23
 70
     1
102
RTVSPropertyOp24
 70
     1
102
RTVSPropertyOp25
 70
     1
102
RTVSPropertyOp26
 70
     1
102
RTVSPropertyOp27
 70
     1
102
RTVSPropertyOp28
 70
     1
102
RTVSPropertyOp29
 70
     1
102
RTVSPropertyOp30
 70
     1
102
RTVSPropertyOp31
 70
     1
102
RTVSPropertyOp32
 70
     1
  0
XRECORD
  5
180
102
{ACAD_REACTORS
330
17F
102
}
330
17F
100
AcDbXrecord
280
     1
102
RTVSPropertyOp0
 70
     1
102
RTVSPropertyOp1
 70
     1
102
RTVSPropertyOp2
 70
     1
102
RTVSPropertyOp3
 70
     1
102
RTVSPropertyOp4
 70
     1
102
RTVSPropertyOp5
 70
     1
102
RTVSPropertyOp6
 70
     1
102
RTVSPropertyOp7
 70
     1
102
RTVSPropertyOp8
 70
     1
102
RTVSPropertyOp9
 70
     1
102
RTVSPropertyOp10
 70
     1
102
RTVSPropertyOp11
 70
     1
102
RTVSPropertyOp12
 70
     1
102
RTVSPropertyOp13
 70
     1
102
RTVSPropertyOp14
 70
     1
102
RTVSPropertyOp15
 70
     1
102
RTVSPropertyOp16
 70
     1
102
RTVSPropertyOp17
 70
     1
102
RTVSPropertyOp18
 70
     1
102
RTVSPropertyOp19
 70
     1
102
RTVSPropertyOp20
 70
     1
102
RTVSPropertyOp21
 70
     1
102
RTVSPropertyOp22
 70
     1
102
RTVSPropertyOp23
 70
     1
102
RTVSPropertyOp24
 70
     1
102
RTVSPropertyOp25
 70
     1
102
RTVSPropertyOp26
 70
     1
102
RTVSPropertyOp27
 70
     1
102
RTVSPropertyOp28
 70
     1
102
RTVSPropertyOp29
 70
     1
102
RTVSPropertyOp30
 70
     1
102
RTVSPropertyOp31
 70
     1
102
RTVSPropertyOp32
 70
     1
  0
XRECORD
  5
164
102
{ACAD_REACTORS
330
163
102
}
330
163
100
AcDbXrecord
280
     1
102
RTVSPropertyOp0
 70
     1
102
RTVSPropertyOp1
 70
     1
102
RTVSPropertyOp2
 70
     1
102
RTVSPropertyOp3
 70
     1
102
RTVSPropertyOp4
 70
     1
102
RTVSPropertyOp5
 70
     1
102
RTVSPropertyOp6
 70
     1
102
RTVSPropertyOp7
 70
     1
102
RTVSPropertyOp8
 70
     1
102
RTVSPropertyOp9
 70
     1
102
RTVSPropertyOp10
 70
     1
102
RTVSPropertyOp11
 70
     1
102
RTVSPropertyOp12
 70
     1
102
RTVSPropertyOp13
 70
     1
102
RTVSPropertyOp14
 70
     1
102
RTVSPropertyOp15
 70
     1
102
RTVSPropertyOp16
 70
     1
102
RTVSPropertyOp17
 70
     1
102
RTVSPropertyOp18
 70
     1
102
RTVSPropertyOp19
 70
     1
102
RTVSPropertyOp20
 70
     1
102
RTVSPropertyOp21
 70
     1
102
RTVSPropertyOp22
 70
     1
102
RTVSPropertyOp23
 70
     1
102
RTVSPropertyOp24
 70
     1
102
RTVSPropertyOp25
 70
     1
102
RTVSPropertyOp26
 70
     1
102
RTVSPropertyOp27
 70
     1
102
RTVSPropertyOp28
 70
     1
102
RTVSPropertyOp29
 70
     1
102
RTVSPropertyOp30
 70
     1
102
RTVSPropertyOp31
 70
     1
102
RTVSPropertyOp32
 70
     1
  0
XRECORD
  5
166
102
{ACAD_REACTORS
330
165
102
}
330
165
100
AcDbXrecord
280
     1
102
RTVSPropertyOp0
 70
     1
102
RTVSPropertyOp1
 70
     1
102
RTVSPropertyOp2
 70
     1
102
RTVSPropertyOp3
 70
     1
102
RTVSPropertyOp4
 70
     1
102
RTVSPropertyOp5
 70
     1
102
RTVSPropertyOp6
 70
     1
102
RTVSPropertyOp7
 70
     1
102
RTVSPropertyOp8
 70
     1
102
RTVSPropertyOp9
 70
     1
102
RTVSPropertyOp10
 70
     1
102
RTVSPropertyOp11
 70
     1
102
RTVSPropertyOp12
 70
     1
102
RTVSPropertyOp13
 70
     1
102
RTVSPropertyOp14
 70
     1
102
RTVSPropertyOp15
 70
     1
102
RTVSPropertyOp16
 70
     1
102
RTVSPropertyOp17
 70
     1
102
RTVSPropertyOp18
 70
     1
102
RTVSPropertyOp19
 70
     1
102
RTVSPropertyOp20
 70
     1
102
RTVSPropertyOp21
 70
     1
102
RTVSPropertyOp22
 70
     1
102
RTVSPropertyOp23
 70
     1
102
RTVSPropertyOp24
 70
     1
102
RTVSPropertyOp25
 70
     1
102
RTVSPropertyOp26
 70
     1
102
RTVSPropertyOp27
 70
     1
102
RTVSPropertyOp28
 70
     1
102
RTVSPropertyOp29
 70
     1
102
RTVSPropertyOp30
 70
     1
102
RTVSPropertyOp31
 70
     1
102
RTVSPropertyOp32
 70
     1
  0
XRECORD
  5
168
102
{ACAD_REACTORS
330
167
102
}
330
167
100
AcDbXrecord
280
     1
102
RTVSPropertyOp0
 70
     1
102
RTVSPropertyOp1
 70
     1
102
RTVSPropertyOp2
 70
     1
102
RTVSPropertyOp3
 70
     1
102
RTVSPropertyOp4
 70
     1
102
RTVSPropertyOp5
 70
     1
102
RTVSPropertyOp6
 70
     1
102
RTVSPropertyOp7
 70
     1
102
RTVSPropertyOp8
 70
     1
102
RTVSPropertyOp9
 70
     1
102
RTVSPropertyOp10
 70
     1
102
RTVSPropertyOp11
 70
     1
102
RTVSPropertyOp12
 70
     1
102
RTVSPropertyOp13
 70
     1
102
RTVSPropertyOp14
 70
     1
102
RTVSPropertyOp15
 70
     1
102
RTVSPropertyOp16
 70
     1
102
RTVSPropertyOp17
 70
     1
102
RTVSPropertyOp18
 70
     1
102
RTVSPropertyOp19
 70
     1
102
RTVSPropertyOp20
 70
     1
102
RTVSPropertyOp21
 70
     1
102
RTVSPropertyOp22
 70
     1
102
RTVSPropertyOp23
 70
     1
102
RTVSPropertyOp24
 70
     1
102
RTVSPropertyOp25
 70
     1
102
RTVSPropertyOp26
 70
     1
102
RTVSPropertyOp27
 70
     1
102
RTVSPropertyOp28
 70
     1
102
RTVSPropertyOp29
 70
     1
102
RTVSPropertyOp30
 70
     1
102
RTVSPropertyOp31
 70
     1
102
RTVSPropertyOp32
 70
     1
  0
XRECORD
  5
16A
102
{ACAD_REACTORS
330
169
102
}
330
169
100
AcDbXrecord
280
     1
102
RTVSPropertyOp0
 70
     1
102
RTVSPropertyOp1
 70
     1
102
RTVSPropertyOp2
 70
     1
102
RTVSPropertyOp3
 70
     1
102
RTVSPropertyOp4
 70
     1
102
RTVSPropertyOp5
 70
     1
102
RTVSPropertyOp6
 70
     1
102
RTVSPropertyOp7
 70
     1
102
RTVSPropertyOp8
 70
     1
102
RTVSPropertyOp9
 70
     1
102
RTVSPropertyOp10
 70
     1
102
RTVSPropertyOp11
 70
     1
102
RTVSPropertyOp12
 70
     1
102
RTVSPropertyOp13
 70
     1
102
RTVSPropertyOp14
 70
     1
102
RTVSPropertyOp15
 70
     1
102
RTVSPropertyOp16
 70
     1
102
RTVSPropertyOp17
 70
     1
102
RTVSPropertyOp18
 70
     1
102
RTVSPropertyOp19
 70
     1
102
RTVSPropertyOp20
 70
     1
102
RTVSPropertyOp21
 70
     1
102
RTVSPropertyOp22
 70
     1
102
RTVSPropertyOp23
 70
     1
102
RTVSPropertyOp24
 70
     1
102
RTVSPropertyOp25
 70
     1
102
RTVSPropertyOp26
 70
     1
102
RTVSPropertyOp27
 70
     1
102
RTVSPropertyOp28
 70
     1
102
RTVSPropertyOp29
 70
     1
102
RTVSPropertyOp30
 70
     1
102
RTVSPropertyOp31
 70
     1
102
RTVSPropertyOp32
 70
     1
  0
XRECORD
  5
17E
102
{ACAD_REACTORS
330
17D
102
}
330
17D
100
AcDbXrecord
280
     1
102
RTVSPropertyOp0
 70
     1
102
RTVSPropertyOp1
 70
     1
102
RTVSPropertyOp2
 70
     1
102
RTVSPropertyOp3
 70
     1
102
RTVSPropertyOp4
 70
     1
102
RTVSPropertyOp5
 70
     1
102
RTVSPropertyOp6
 70
     1
102
RTVSPropertyOp7
 70
     1
102
RTVSPropertyOp8
 70
     1
102
RTVSPropertyOp9
 70
     1
102
RTVSPropertyOp10
 70
     1
102
RTVSPropertyOp11
 70
     1
102
RTVSPropertyOp12
 70
     1
102
RTVSPropertyOp13
 70
     1
102
RTVSPropertyOp14
 70
     1
102
RTVSPropertyOp15
 70
     1
102
RTVSPropertyOp16
 70
     1
102
RTVSPropertyOp17
 70
     1
102
RTVSPropertyOp18
 70
     1
102
RTVSPropertyOp19
 70
     1
102
RTVSPropertyOp20
 70
     1
102
RTVSPropertyOp21
 70
     1
102
RTVSPropertyOp22
 70
     1
102
RTVSPropertyOp23
 70
     1
102
RTVSPropertyOp24
 70
     1
102
RTVSPropertyOp25
 70
     1
102
RTVSPropertyOp26
 70
     1
102
RTVSPropertyOp27
 70
     1
102
RTVSPropertyOp28
 70
     1
102
RTVSPropertyOp29
 70
     1
102
RTVSPropertyOp30
 70
     1
102
RTVSPropertyOp31
 70
     1
102
RTVSPropertyOp32
 70
     1
  0
XRECORD
  5
174
102
{ACAD_REACTORS
330
173
102
}
330
173
100
AcDbXrecord
280
     1
102
RTVSPropertyOp0
 70
     1
102
RTVSPropertyOp1
 70
     1
102
RTVSPropertyOp2
 70
     1
102
RTVSPropertyOp3
 70
     1
102
RTVSPropertyOp4
 70
     1
102
RTVSPropertyOp5
 70
     1
102
RTVSPropertyOp6
 70
     1
102
RTVSPropertyOp7
 70
     1
102
RTVSPropertyOp8
 70
     1
102
RTVSPropertyOp9
 70
     1
102
RTVSPropertyOp10
 70
     1
102
RTVSPropertyOp11
 70
     1
102
RTVSPropertyOp12
 70
     1
102
RTVSPropertyOp13
 70
     1
102
RTVSPropertyOp14
 70
     1
102
RTVSPropertyOp15
 70
     1
102
RTVSPropertyOp16
 70
     1
102
RTVSPropertyOp17
 70
     1
102
RTVSPropertyOp18
 70
     1
102
RTVSPropertyOp19
 70
     1
102
RTVSPropertyOp20
 70
     1
102
RTVSPropertyOp21
 70
     1
102
RTVSPropertyOp22
 70
     1
102
RTVSPropertyOp23
 70
     1
102
RTVSPropertyOp24
 70
     1
102
RTVSPropertyOp25
 70
     1
102
RTVSPropertyOp26
 70
     1
102
RTVSPropertyOp27
 70
     1
102
RTVSPropertyOp28
 70
     1
102
RTVSPropertyOp29
 70
     1
102
RTVSPropertyOp30
 70
     1
102
RTVSPropertyOp31
 70
     1
102
RTVSPropertyOp32
 70
     1
  0
XRECORD
  5
17C
102
{ACAD_REACTORS
330
17B
102
}
330
17B
100
AcDbXrecord
280
     1
102
RTVSPropertyOp0
 70
     1
102
RTVSPropertyOp1
 70
     1
102
RTVSPropertyOp2
 70
     1
102
RTVSPropertyOp3
 70
     1
102
RTVSPropertyOp4
 70
     1
102
RTVSPropertyOp5
 70
     1
102
RTVSPropertyOp6
 70
     1
102
RTVSPropertyOp7
 70
     1
102
RTVSPropertyOp8
 70
     1
102
RTVSPropertyOp9
 70
     1
102
RTVSPropertyOp10
 70
     1
102
RTVSPropertyOp11
 70
     1
102
RTVSPropertyOp12
 70
     1
102
RTVSPropertyOp13
 70
     1
102
RTVSPropertyOp14
 70
     1
102
RTVSPropertyOp15
 70
     1
102
RTVSPropertyOp16
 70
     1
102
RTVSPropertyOp17
 70
     1
102
RTVSPropertyOp18
 70
     1
102
RTVSPropertyOp19
 70
     1
102
RTVSPropertyOp20
 70
     1
102
RTVSPropertyOp21
 70
     1
102
RTVSPropertyOp22
 70
     1
102
RTVSPropertyOp23
 70
     1
102
RTVSPropertyOp24
 70
     1
102
RTVSPropertyOp25
 70
     1
102
RTVSPropertyOp26
 70
     1
102
RTVSPropertyOp27
 70
     1
102
RTVSPropertyOp28
 70
     1
102
RTVSPropertyOp29
 70
     1
102
RTVSPropertyOp30
 70
     1
102
RTVSPropertyOp31
 70
     1
102
RTVSPropertyOp32
 70
     1
  0
ENDSEC
  0
EOF
