  0
SECTION
  2
HEADER
  9
$ACADVER
  1
AC1015
  9
$ACADMAINTVER
 70
     6
  9
$DWGCODEPAGE
  3
ANSI_1252
  9
$INSBASE
 10
0.0
 20
0.0
 30
0.0
  9
$EXTMIN
 10
0.0
 20
0.0
 30
0.0
  9
$EXTMAX
 10
210.0
 20
297.0
 30
0.0
  9
$LIMMIN
 10
0.0
 20
0.0
  9
$LIMMAX
 10
210.0
 20
297.0
  9
$ORTHOMODE
 70
     0
  9
$REGENMODE
 70
     1
  9
$FILLMODE
 70
     1
  9
$QTEXTMODE
 70
     0
  9
$MIRRTEXT
 70
     1
  9
$LTSCALE
 40
1.0
  9
$ATTMODE
 70
     1
  9
$TEXTSIZE
 40
2.5
  9
$TRACEWID
 40
1.0
  9
$TEXTSTYLE
  7
Standard
  9
$CLAYER
  8
0
  9
$CELTYPE
  6
ByLayer
  9
$CECOLOR
 62
   256
  9
$CELTSCALE
 40
1.0
  9
$DISPSILH
 70
     0
  9
$DIMSCALE
 40
1.0
  9
$DIMASZ
 40
2.5
  9
$DIMEXO
 40
0.625
  9
$DIMDLI
 40
3.75
  9
$DIMRND
 40
0.0
  9
$DIMDLE
 40
0.0
  9
$DIMEXE
 40
1.25
  9
$DIMTP
 40
0.0
  9
$DIMTM
 40
0.0
  9
$DIMTXT
 40
2.5
  9
$DIMCEN
 40
2.5
  9
$DIMTSZ
 40
0.0
  9
$DIMTOL
 70
     0
  9
$DIMLIM
 70
     0
  9
$DIMTIH
 70
     0
  9
$DIMTOH
 70
     0
  9
$DIMSE1
 70
     0
  9
$DIMSE2
 70
     0
  9
$DIMTAD
 70
     1
  9
$DIMZIN
 70
     8
  9
$DIMBLK
  1

  9
$DIMASO
 70
     1
  9
$DIMSHO
 70
     1
  9
$DIMPOST
  1

  9
$DIMAPOST
  1

  9
$DIMALT
 70
     0
  9
$DIMALTD
 70
     3
  9
$DIMALTF
 40
0.0393700787
  9
$DIMLFAC
 40
1.0
  9
$DIMTOFL
 70
     1
  9
$DIMTVP
 40
0.0
  9
$DIMTIX
 70
     0
  9
$DIMSOXD
 70
     0
  9
$DIMSAH
 70
     0
  9
$DIMBLK1
  1

  9
$DIMBLK2
  1

  9
$DIMSTYLE
  2
ISO-25
  9
$DIMCLRD
 70
     0
  9
$DIMCLRE
 70
     0
  9
$DIMCLRT
 70
     0
  9
$DIMTFAC
 40
1.0
  9
$DIMGAP
 40
0.625
  9
$DIMJUST
 70
     0
  9
$DIMSD1
 70
     0
  9
$DIMSD2
 70
     0
  9
$DIMTOLJ
 70
     0
  9
$DIMTZIN
 70
     8
  9
$DIMALTZ
 70
     0
  9
$DIMALTTZ
 70
     0
  9
$DIMUPT
 70
     0
  9
$DIMDEC
 70
     2
  9
$DIMTDEC
 70
     2
  9
$DIMALTU
 70
     2
  9
$DIMALTTD
 70
     3
  9
$DIMTXSTY
  7
Standard
  9
$DIMAUNIT
 70
     0
  9
$DIMADEC
 70
     0
  9
$DIMALTRND
 40
0.0
  9
$DIMAZIN
 70
     0
  9
$DIMDSEP
 70
    44
  9
$DIMATFIT
 70
     3
  9
$DIMFRAC
 70
     0
  9
$DIMLDRBLK
  1

  9
$DIMLUNIT
 70
     2
  9
$DIMLWD
 70
    -2
  9
$DIMLWE
 70
    -2
  9
$DIMTMOVE
 70
     0
  9
$LUNITS
 70
     2
  9
$LUPREC
 70
     4
  9
$SKETCHINC
 40
1.0
  9
$FILLETRAD
 40
10.0
  9
$AUNITS
 70
     0
  9
$AUPREC
 70
     0
  9
$MENU
  1
.
  9
$ELEVATION
 40
0.0
  9
$PELEVATION
 40
0.0
  9
$THICKNESS
 40
0.0
  9
$LIMCHECK
 70
     0
  9
$CHAMFERA
 40
10.0
  9
$CHAMFERB
 40
10.0
  9
$CHAMFERC
 40
20.0
  9
$CHAMFERD
 40
0.0
  9
$SKPOLY
 70
     0
  9
$TDCREATE
 40
2457570.382220139
  9
$TDUCREATE
 40
2457570.298886806
  9
$TDUPDATE
 40
2457570.382221945
  9
$TDUUPDATE
 40
2457570.298888611
  9
$TDINDWG
 40
0.0000000116
  9
$TDUSRTIMER
 40
0.0000000116
  9
$USRTIMER
 70
     1
  9
$ANGBASE
 50
0.0
  9
$ANGDIR
 70
     0
  9
$PDMODE
 70
     0
  9
$PDSIZE
 40
0.0
  9
$PLINEWID
 40
0.0
  9
$SPLFRAME
 70
     0
  9
$SPLINETYPE
 70
     6
  9
$SPLINESEGS
 70
     8
  9
$HANDSEED
  5
181
  9
$SURFTAB1
 70
     6
  9
$SURFTAB2
 70
     6
  9
$SURFTYPE
 70
     6
  9
$SURFU
 70
     6
  9
$SURFV
 70
     6
  9
$UCSBASE
  2

  9
$UCSNAME
  2

  9
$UCSORG
 10
0.0
 20
0.0
 30
0.0
  9
$UCSXDIR
 10
1.0
 20
0.0
 30
0.0
  9
$UCSYDIR
 10
0.0
 20
1.0
 30
0.0
  9
$UCSORTHOREF
  2

  9
$UCSORTHOVIEW
 70
     0
  9
$UCSORGTOP
 10
0.0
 20
0.0
 30
0.0
  9
$UCSORGBOTTOM
 10
0.0
 20
0.0
 30
0.0
  9
$UCSORGLEFT
 10
0.0
 20
0.0
 30
0.0
  9
$UCSORGRIGHT
 10
0.0
 20
0.0
 30
0.0
  9
$UCSORGFRONT
 10
0.0
 20
0.0
 30
0.0
  9
$UCSORGBACK
 10
0.0
 20
0.0
 30
0.0
  9
$PUCSBASE
  2

  9
$PUCSNAME
  2

  9
$PUCSORG
 10
0.0
 20
0.0
 30
0.0
  9
$PUCSXDIR
 10
1.0
 20
0.0
 30
0.0
  9
$PUCSYDIR
 10
0.0
 20
1.0
 30
0.0
  9
$PUCSORTHOREF
  2

  9
$PUCSORTHOVIEW
 70
     0
  9
$PUCSORGTOP
 10
0.0
 20
0.0
 30
0.0
  9
$PUCSORGBOTTOM
 10
0.0
 20
0.0
 30
0.0
  9
$PUCSORGLEFT
 10
0.0
 20
0.0
 30
0.0
  9
$PUCSORGRIGHT
 10
0.0
 20
0.0
 30
0.0
  9
$PUCSORGFRONT
 10
0.0
 20
0.0
 30
0.0
  9
$PUCSORGBACK
 10
0.0
 20
0.0
 30
0.0
  9
$USERI1
 70
     0
  9
$USERI2
 70
     0
  9
$USERI3
 70
     0
  9
$USERI4
 70
     0
  9
$USERI5
 70
     0
  9
$USERR1
 40
0.0
  9
$USERR2
 40
0.0
  9
$USERR3
 40
0.0
  9
$USERR4
 40
0.0
  9
$USERR5
 40
0.0
  9
$WORLDVIEW
 70
     1
  9
$SHADEDGE
 70
     3
  9
$SHADEDIF
 70
    70
  9
$TILEMODE
 70
     1
  9
$MAXACTVP
 70
    64
  9
$PINSBASE
 10
0.0
 20
0.0
 30
0.0
  9
$PLIMCHECK
 70
     0
  9
$PEXTMIN
 10
0.0
 20
0.0
 30
0.0
  9
$PEXTMAX
 10
210.0
 20
297.0
 30
0.0
  9
$PLIMMIN
 10
0.0
 20
0.0
  9
$PLIMMAX
 10
210.0
 20
297.0
  9
$UNITMODE
 70
     0
  9
$VISRETAIN
 70
     1
  9
$PLINEGEN
 70
     0
  9
$PSLTSCALE
 70
     1
  9
$TREEDEPTH
 70
  3020
  9
$CMLSTYLE
  2
Standard
  9
$CMLJUST
 70
     0
  9
$CMLSCALE
 40
20.0
  9
$PROXYGRAPHICS
 70
     1
  9
$MEASUREMENT
 70
     1
  9
$CELWEIGHT
370
    -1
  9
$ENDCAPS
280
     0
  9
$JOINSTYLE
280
     0
  9
$LWDISPLAY
290
     0
  9
$INSUNITS
 70
     4
  9
$HYPERLINKBASE
  1

  9
$STYLESHEET
  1

  9
$XEDIT
290
     1
  9
$CEPSNTYPE
380
     0
  9
$PSTYLEMODE
290
     1
  9
$FINGERPRINTGUID
  2
{61C25BBD-5537-421B-90C2-8017EAE247B6}
  9
$VERSIONGUID
  2
{FAEB1C32-E019-11D5-929B-00C0DF256EC4}
  9
$EXTNAMES
290
     1
  9
$PSVPSCALE
 40
0.0
  9
$OLESTARTUP
290
     0
  0
ENDSEC
  0
SECTION
  2
CLASSES
  0
CLASS
  1
ACDBDICTIONARYWDFLT
  2
AcDbDictionaryWithDefault
  3
ObjectDBX Classes
 90
        0
280
     0
281
     0
  0
CLASS
  1
VISUALSTYLE
  2
AcDbVisualStyle
  3
ObjectDBX Classes
 90
     4095
280
     0
281
     0
  0
CLASS
  1
MATERIAL
  2
AcDbMaterial
  3
ObjectDBX Classes
 90
     1153
280
     0
281
     0
  0
CLASS
  1
DICTIONARYVAR
  2
AcDbDictionaryVar
  3
ObjectDBX Classes
 90
        0
280
     0
281
     0
  0
CLASS
  1
ACDBPLACEHOLDER
  2
AcDbPlaceHolder
  3
ObjectDBX Classes
 90
        0
280
     0
281
     0
  0
CLASS
  1
LAYOUT
  2
AcDbLayout
  3
ObjectDBX Classes
 90
        0
280
     0
281
     0
  0
ENDSEC
  0
SECTION
  2
TABLES
  0
TABLE
  2
VPORT
  5
8
330
0
100
AcDbSymbolTable
 70
     1
  0
VPORT
  5
29
330
8
100
AcDbSymbolTableRecord
100
AcDbViewportTableRecord
  2
*Active
 70
     0
 10
0.0
 20
0.0
 11
1.0
 21
1.0
 12
344.1869158879
 22
148.5
 13
0.0
 23
0.0
 14
10.0
 24
10.0
 15
10.0
 25
10.0
 16
0.0
 26
0.0
 36
1.0
 17
0.0
 27
0.0
 37
0.0
 40
297.0
 41
1.9729729729
 42
50.0
 43
0.0
 44
0.0
 50
0.0
 51
0.0
 71
     0
 72
   100
 73
     1
 74
     3
 75
     0
 76
     0
 77
     0
 78
     0
281
     0
 65
     1
110
0.0
120
0.0
130
0.0
111
1.0
121
0.0
131
0.0
112
0.0
122
1.0
132
0.0
 79
     0
146
0.0
  0
ENDTAB
  0
TABLE
  2
LTYPE
  5
5
330
0
100
AcDbSymbolTable
 70
     2
  0
LTYPE
  5
14
330
5
100
AcDbSymbolTableRecord
100
AcDbLinetypeTableRecord
  2
ByBlock
 70
     0
  3

 72
    65
 73
     0
 40
0.0
  0
LTYPE
  5
15
330
5
100
AcDbSymbolTableRecord
100
AcDbLinetypeTableRecord
  2
ByLayer
 70
     0
  3

 72
    65
 73
     0
 40
0.0
  0
LTYPE
  5
16
330
5
100
AcDbSymbolTableRecord
100
AcDbLinetypeTableRecord
  2
Continuous
 70
     0
  3
Solid line
 72
    65
 73
     0
 40
0.0
  0
LTYPE
  5
5A
330
5
100
AcDbSymbolTableRecord
100
AcDbLinetypeTableRecord
  2
HIDDEN2
 70
     0
  3
Hidden (.5x) _ _ _ _ _ _ _ _ _ _ _ _ _ _ _ _ _ 
 72
    65
 73
     2
 40
4.7625
 49
3.175
 74
     4
 75
     0
340
0
 46
0.0
 50
0.0
 44
0.0
 45
0.0
 49
-1.5875
 74
     4
 75
     0
340
0
 46
0.0
 50
0.0
 44
0.0
 45
0.0
  0
ENDTAB
  0
TABLE
  2
LAYER
  5
2
330
0
100
AcDbSymbolTable
 70
     5
  0
LAYER
  5
10
330
2
100
AcDbSymbolTableRecord
100
AcDbLayerTableRecord
  2
0
 70
     0
 62
     7
  6
Continuous
370
    -3
390
F
  0
LAYER
  5
3F
330
2
100
AcDbSymbolTableRecord
100
AcDbLayerTableRecord
  2
SK2
 70
     0
 62
     7
  6
Continuous
370
    15
390
F
  0
LAYER
  5
40
330
2
100
AcDbSymbolTableRecord
100
AcDbLayerTableRecord
  2
SK1
 70
     0
 62
     4
  6
Continuous
370
    18
390
F
  0
LAYER
  5
59
330
2
100
AcDbSymbolTableRecord
100
AcDbLayerTableRecord
  2
SK3
 70
     0
 62
     1
  6
HIDDEN2
370
    15
390
F
  0
LAYER
  5
114
330
2
100
AcDbSymbolTableRecord
100
AcDbLayerTableRecord
  2
SK4
 70
     0
 62
     2
  6
Continuous
370
    13
390
F
  0
ENDTAB
  0
TABLE
  2
STYLE
  5
3
330
0
100
AcDbSymbolTable
 70
     2
  0
STYLE
  5
11
330
3
100
AcDbSymbolTableRecord
100
AcDbTextStyleTableRecord
  2
Standard
 70
     0
 40
0.0
 41
1.0
 50
0.0
 71
     0
 42
2.5
  3
txt
  4

  0
STYLE
  5
128
330
3
100
AcDbSymbolTableRecord
100
AcDbTextStyleTableRecord
  2
SEACAD_Solid_Edge_ISO
 70
     0
 40
0.0
 41
1.0
 50
0.0
 71
     0
 42
0.2
  3
seiso.ttf
  4

1001
ACAD
1000
Solid Edge ISO
1071
        0
  0
ENDTAB
  0
TABLE
  2
VIEW
  5
6
330
0
100
AcDbSymbolTable
 70
     0
  0
ENDTAB
  0
TABLE
  2
UCS
  5
7
330
0
100
AcDbSymbolTable
 70
     0
  0
ENDTAB
  0
TABLE
  2
APPID
  5
9
330
0
100
AcDbSymbolTable
 70
     1
  0
APPID
  5
12
330
9
100
AcDbSymbolTableRecord
100
AcDbRegAppTableRecord
  2
ACAD
 70
     0
  0
ENDTAB
  0
TABLE
  2
DIMSTYLE
  5
A
330
0
100
AcDbSymbolTable
 70
     3
100
AcDbDimStyleTable
  0
DIMSTYLE
105
27
330
A
100
AcDbSymbolTableRecord
100
AcDbDimStyleTableRecord
  2
ISO-25
 70
     0
 41
2.5
 42
0.625
 43
3.75
 44
1.25
 73
     0
 74
     0
 77
     1
 78
     8
140
2.5
141
2.5
143
0.0393700787
147
0.625
171
     3
172
     1
178
     0
271
     2
272
     2
274
     3
278
    44
283
     0
284
     8
340
11
  0
DIMSTYLE
105
116
330
A
100
AcDbSymbolTableRecord
100
AcDbDimStyleTableRecord
  2
Standard
 70
     0
178
     0
340
11
  0
DIMSTYLE
105
129
102
{ACAD_REACTORS
330
12A
330
135
330
13F
330
14A
102
}
330
A
100
AcDbSymbolTableRecord
100
AcDbDimStyleTableRecord
  2
DIN
 70
     0
 41
3.5
 42
0.0
 44
1.75
 73
     0
 74
     0
 77
     1
 78
     8
140
3.5
141
1.75
147
1.75
172
     1
173
     1
178
     0
179
     3
271
     2
272
     2
278
    44
284
     8
340
128
343
123
344
123
  0
ENDTAB
  0
TABLE
  2
BLOCK_RECORD
  5
1
330
0
100
AcDbSymbolTable
 70
    10
  0
BLOCK_RECORD
  5
1F
330
1
100
AcDbSymbolTableRecord
100
AcDbBlockTableRecord
  2
*Model_Space
340
22
  0
BLOCK_RECORD
  5
1B
330
1
100
AcDbSymbolTableRecord
100
AcDbBlockTableRecord
  2
*Paper_Space
340
1E
  0
BLOCK_RECORD
  5
41
330
1
100
AcDbSymbolTableRecord
100
AcDbBlockTableRecord
  2
Nullpunkt
340
0
102
{BLKREFS
331
4B
102
}
  0
BLOCK_RECORD
  5
4C
330
1
100
AcDbSymbolTableRecord
100
AcDbBlockTableRecord
  2
Einfügepunkt
340
0
102
{BLKREFS
331
56
102
}
  0
BLOCK_RECORD
  5
117
330
1
100
AcDbSymbolTableRecord
100
AcDbBlockTableRecord
  2
_OBLIQUE
340
0
  0
BLOCK_RECORD
  5
11B
330
1
100
AcDbSymbolTableRecord
100
AcDbBlockTableRecord
  2
_DOT
340
0
  0
BLOCK_RECORD
  5
123
330
1
100
AcDbSymbolTableRecord
100
AcDbBlockTableRecord
  2
_SE_FILLED
340
0
  0
BLOCK_RECORD
  5
12B
330
1
100
AcDbSymbolTableRecord
100
AcDbBlockTableRecord
  2
DMBLK13
340
0
  0
BLOCK_RECORD
  5
136
330
1
100
AcDbSymbolTableRecord
100
AcDbBlockTableRecord
  2
DMBLK14
340
0
  0
BLOCK_RECORD
  5
140
330
1
100
AcDbSymbolTableRecord
100
AcDbBlockTableRecord
  2
DMBLK15
340
0
  0
BLOCK_RECORD
  5
14B
330
1
100
AcDbSymbolTableRecord
100
AcDbBlockTableRecord
  2
DMBLK16
340
0
  0
ENDTAB
  0
ENDSEC
  0
SECTION
  2
BLOCKS
  0
BLOCK
  5
20
330
1F
100
AcDbEntity
  8
0
100
AcDbBlockBegin
  2
*Model_Space
 70
     0
 10
0.0
 20
0.0
 30
0.0
  3
*Model_Space
  1

  0
ENDBLK
  5
21
330
1F
100
AcDbEntity
  8
0
100
AcDbBlockEnd
  0
BLOCK
  5
1C
330
1B
100
AcDbEntity
 67
     1
  8
0
100
AcDbBlockBegin
  2
*Paper_Space
 70
     0
 10
0.0
 20
0.0
 30
0.0
  3
*Paper_Space
  1

  0
ENDBLK
  5
1D
330
1B
100
AcDbEntity
 67
     1
  8
0
100
AcDbBlockEnd
  0
BLOCK
  5
49
330
41
100
AcDbEntity
  8
0
100
AcDbBlockBegin
  2
Nullpunkt
 70
     0
 10
0.0
 20
0.0
 30
0.0
  3
Nullpunkt
  1

  0
HATCH
  5
42
330
41
100
AcDbEntity
  8
SK2
  6
Continuous
 62
     7
100
AcDbHatch
 10
0.0
 20
0.0
 30
0.0
210
0.0
220
0.0
230
1.0
  2
SOLID
 70
     1
 71
     0
 91
        1
 92
        1
 93
        3
 72
     1
 10
-1.0
 20
0.0
 11
0.0000000000000009
 21
0.0
 72
     1
 10
0.0
 20
0.0
 11
0.0
 21
1.000000000000001
 72
     2
 10
0.0
 20
0.0
 40
1.0
 50
90.0
 51
180.0
 73
     1
 97
        0
 75
     0
 76
     1
 98
        0
  0
HATCH
  5
43
330
41
100
AcDbEntity
  8
SK2
  6
Continuous
 62
     7
100
AcDbHatch
 10
0.0
 20
0.0
 30
0.0
210
0.0
220
0.0
230
1.0
  2
SOLID
 70
     1
 71
     0
 91
        1
 92
        1
 93
        3
 72
     2
 10
0.0
 20
0.0
 40
1.0
 50
270.0
 51
360.0
 73
     1
 72
     1
 10
1.0
 20
0.0
 11
-0.0000000000000009
 21
0.0
 72
     1
 10
0.0
 20
0.0
 11
0.0
 21
-1.000000000000001
 97
        0
 75
     0
 76
     1
 98
        0
  0
CIRCLE
  5
44
330
41
100
AcDbEntity
  8
SK2
  6
Continuous
 62
     7
100
AcDbCircle
 10
0.0
 20
0.0
 30
0.0
 40
1.0
  0
LINE
  5
45
330
41
100
AcDbEntity
  8
SK1
  6
Continuous
100
AcDbLine
 10
-1.0
 20
0.0
 30
0.0
 11
1.0
 21
0.0
 31
0.0
  0
LINE
  5
46
330
41
100
AcDbEntity
  8
SK1
  6
Continuous
100
AcDbLine
 10
0.0
 20
1.0
 30
0.0
 11
0.0
 21
-1.0
 31
0.0
  0
POINT
  5
47
330
41
100
AcDbEntity
  8
SK1
  6
Continuous
100
AcDbPoint
 10
0.0
 20
0.0
 30
0.0
  0
POINT
  5
48
330
41
100
AcDbEntity
  8
SK1
  6
Continuous
100
AcDbPoint
 10
0.0
 20
0.0
 30
0.0
  0
ENDBLK
  5
4A
330
41
100
AcDbEntity
  8
0
100
AcDbBlockEnd
  0
BLOCK
  5
54
330
4C
100
AcDbEntity
  8
0
100
AcDbBlockBegin
  2
Einfügepunkt
 70
     0
 10
0.0
 20
0.0
 30
0.0
  3
Einfügepunkt
  1

  0
HATCH
  5
4D
330
4C
100
AcDbEntity
  8
SK2
  6
Continuous
 62
     7
100
AcDbHatch
 10
0.0
 20
0.0
 30
0.0
210
0.0
220
0.0
230
1.0
  2
SOLID
 70
     1
 71
     0
 91
        1
 92
        1
 93
        3
 72
     1
 10
-0.4502381196756744
 20
-0.0000000000000018
 11
0.0000000000000033
 21
-0.0000000000000018
 72
     1
 10
0.0
 20
-0.0000000000000018
 11
0.0
 21
0.4502381196756812
 72
     2
 10
0.0
 20
-0.0000000000000018
 40
0.4502381196756812
 50
90.0
 51
180.0
 73
     1
 97
        0
 75
     0
 76
     1
 98
        0
  0
HATCH
  5
4E
330
4C
100
AcDbEntity
  8
SK2
  6
Continuous
 62
     7
100
AcDbHatch
 10
0.0
 20
0.0
 30
0.0
210
0.0
220
0.0
230
1.0
  2
SOLID
 70
     1
 71
     0
 91
        1
 92
        1
 93
        3
 72
     2
 10
0.0
 20
-0.0000000000000018
 40
0.4502381196756812
 50
270.0
 51
360.0
 73
     1
 72
     1
 10
0.4502381196756815
 20
-0.0000000000000018
 11
0.0000000000000038
 21
-0.0000000000000018
 72
     1
 10
0.0
 20
-0.0000000000000018
 11
0.0
 21
-0.4502381196756812
 97
        0
 75
     0
 76
     1
 98
        0
  0
CIRCLE
  5
4F
330
4C
100
AcDbEntity
  8
SK2
  6
Continuous
 62
     7
100
AcDbCircle
 10
0.0
 20
0.0
 30
0.0
 40
0.4502381196756812
  0
LINE
  5
50
330
4C
100
AcDbEntity
  8
SK1
  6
Continuous
100
AcDbLine
 10
-0.4502381197
 20
0.0
 30
0.0
 11
0.4502381197
 21
0.0
 31
0.0
  0
LINE
  5
51
330
4C
100
AcDbEntity
  8
SK1
  6
Continuous
100
AcDbLine
 10
0.0
 20
0.4502381197
 30
0.0
 11
0.0
 21
-0.4502381197
 31
0.0
  0
POINT
  5
52
330
4C
100
AcDbEntity
  8
SK2
  6
Continuous
 62
     7
100
AcDbPoint
 10
0.0
 20
0.0
 30
0.0
  0
POINT
  5
53
330
4C
100
AcDbEntity
  8
SK2
  6
Continuous
 62
     7
100
AcDbPoint
 10
0.0
 20
0.0
 30
0.0
  0
ENDBLK
  5
55
330
4C
100
AcDbEntity
  8
0
100
AcDbBlockEnd
  0
BLOCK
  5
118
330
117
100
AcDbEntity
  8
0
100
AcDbBlockBegin
  2
_OBLIQUE
 70
     0
 10
0.0
 20
0.0
 30
0.0
  3
_OBLIQUE
  1

  0
LINE
  5
11A
330
117
100
AcDbEntity
  8
0
  6
ByBlock
 62
     0
370
    -2
100
AcDbLine
 10
-0.5
 20
-0.5
 30
0.0
 11
0.5
 21
0.5
 31
0.0
  0
ENDBLK
  5
119
330
117
100
AcDbEntity
  8
0
100
AcDbBlockEnd
  0
BLOCK
  5
11C
330
11B
100
AcDbEntity
  8
0
100
AcDbBlockBegin
  2
_DOT
 70
     0
 10
0.0
 20
0.0
 30
0.0
  3
_DOT
  1

  0
POLYLINE
  5
11E
330
11B
100
AcDbEntity
  8
0
  6
ByBlock
 62
     0
100
AcDb2dPolyline
 66
     1
 10
0.0
 20
0.0
 30
0.0
 70
     1
 40
0.5
 41
0.5
  0
VERTEX
  5
120
330
11E
100
AcDbEntity
  8
0
  6
ByBlock
 62
     0
100
AcDbVertex
100
AcDb2dVertex
 10
-0.25
 20
0.0
 30
0.0
 42
1.0
  0
VERTEX
  5
121
330
11E
100
AcDbEntity
  8
0
  6
ByBlock
 62
     0
100
AcDbVertex
100
AcDb2dVertex
 10
0.25
 20
0.0
 30
0.0
 42
1.0
  0
SEQEND
  5
122
330
11E
100
AcDbEntity
  8
0
  6
ByBlock
 62
     0
  0
LINE
  5
11F
330
11B
100
AcDbEntity
  8
0
  6
ByBlock
 62
     0
370
    -2
100
AcDbLine
 10
-0.5
 20
0.0
 30
0.0
 11
-1.0
 21
0.0
 31
0.0
  0
ENDBLK
  5
11D
330
11B
100
AcDbEntity
  8
0
100
AcDbBlockEnd
  0
BLOCK
  5
126
330
123
100
AcDbEntity
  8
0
100
AcDbBlockBegin
  2
_SE_FILLED
 70
     0
 10
0.0
 20
0.0
 30
0.0
  3
_SE_FILLED
  1

  0
SOLID
  5
124
330
123
100
AcDbEntity
  8
0
 62
     0
100
AcDbTrace
 10
0.0
 20
0.0
 30
0.0
 11
-1.0
 21
-0.1665
 31
0.0
 12
-1.0
 22
0.1665
 32
0.0
 13
0.0
 23
0.0
 33
0.0
  0
LINE
  5
125
330
123
100
AcDbEntity
  8
0
 62
     0
100
AcDbLine
 10
0.0
 20
0.0
 30
0.0
 11
-1.0
 21
0.0
 31
0.0
  0
ENDBLK
  5
127
330
123
100
AcDbEntity
  8
0
100
AcDbBlockEnd
  0
BLOCK
  5
133
330
12B
100
AcDbEntity
  8
0
100
AcDbBlockBegin
  2
DMBLK13
 70
     0
 10
0.0
 20
0.0
 30
0.0
  3
DMBLK13
  1

  0
HATCH
  5
12C
330
12B
100
AcDbEntity
  8
SK2
  6
Continuous
 62
   136
100
AcDbHatch
 10
0.0
 20
0.0
 30
0.0
210
0.0
220
0.0
230
1.0
  2
SOLID
 70
     1
 71
     0
 91
        1
 92
        1
 93
        3
 72
     1
 10
18.67121322962145
 20
-5.965000008262838
 11
18.08787987828255
 21
-2.464999900229419
 72
     1
 10
18.08787987828255
 20
-2.464999900229419
 11
17.50454652694365
 21
-5.965000008262838
 72
     1
 10
17.50454652694365
 20
-5.965000008262838
 11
18.67121322962145
 21
-5.965000008262838
 97
        0
 75
     0
 76
     1
 98
        0
  0
HATCH
  5
12D
330
12B
100
AcDbEntity
  8
SK2
  6
Continuous
 62
   136
100
AcDbHatch
 10
0.0
 20
0.0
 30
0.0
210
0.0
220
0.0
230
1.0
  2
SOLID
 70
     1
 71
     0
 91
        1
 92
        1
 93
        3
 72
     1
 10
18.67121322962145
 20
5.965000207804
 11
17.50454652694365
 21
5.965000207804
 72
     1
 10
17.50454652694365
 20
5.965000207804
 11
18.08787987828255
 21
2.465000099770581
 72
     1
 10
18.08787987828255
 20
2.465000099770581
 11
18.67121322962145
 21
5.965000207804
 97
        0
 75
     0
 76
     1
 98
        0
  0
LINE
  5
12E
330
12B
100
AcDbEntity
  8
SK2
  6
Continuous
 62
   136
100
AcDbLine
 10
7.2
 20
-2.4649999002
 30
0.0
 11
19.8378799323
 21
-2.4649999002
 31
0.0
  0
LINE
  5
12F
330
12B
100
AcDbEntity
  8
SK2
  6
Continuous
 62
   136
100
AcDbLine
 10
7.2
 20
2.4650000998
 30
0.0
 11
19.8378799323
 21
2.4650000998
 31
0.0
  0
LINE
  5
130
330
12B
100
AcDbEntity
  8
SK2
  6
Continuous
 62
   136
100
AcDbLine
 10
18.0878798783
 20
-9.4650001163
 30
0.0
 11
18.0878798783
 21
20.2033878406
 31
0.0
  0
TEXT
  5
131
330
12B
100
AcDbEntity
  8
SK2
  6
Continuous
 62
   136
100
AcDbText
 10
17.2128798783
 20
12.2965703307
 30
0.0
 40
3.5
  1
4,93
 50
90.0
  7
SEACAD_Solid_Edge_ISO
 11
13.7128798783
 21
12.2965703307
 31
0.0
100
AcDbText
 73
     3
  0
TEXT
  5
132
330
12B
100
AcDbEntity
  8
SK2
  6
Continuous
 62
   136
100
AcDbText
 10
17.2128798783
 20
8.223843058
 30
0.0
 40
3.5
  1
ø
 50
90.0
  7
SEACAD_Solid_Edge_ISO
 11
13.7128798783
 21
8.223843058
 31
0.0
100
AcDbText
 73
     3
  0
ENDBLK
  5
134
330
12B
100
AcDbEntity
  8
0
100
AcDbBlockEnd
  0
BLOCK
  5
13D
330
136
100
AcDbEntity
  8
0
100
AcDbBlockBegin
  2
DMBLK14
 70
     0
 10
0.0
 20
0.0
 30
0.0
  3
DMBLK14
  1

  0
HATCH
  5
137
330
136
100
AcDbEntity
  8
SK2
  6
Continuous
 62
   136
100
AcDbHatch
 10
0.0
 20
0.0
 30
0.0
210
0.0
220
0.0
230
1.0
  2
SOLID
 70
     1
 71
     0
 91
        1
 92
        1
 93
        3
 72
     1
 10
4.099999891966667
 20
16.88825051833483
 11
4.099999891966667
 21
15.72158381565702
 72
     1
 10
4.099999891966667
 20
15.72158381565702
 11
7.600000000000086
 21
16.30491716699593
 72
     1
 10
7.600000000000086
 20
16.30491716699593
 11
4.099999891966667
 21
16.88825051833483
 97
        0
 75
     0
 76
     1
 98
        0
  0
HATCH
  5
138
330
136
100
AcDbEntity
  8
SK2
  6
Continuous
 62
   136
100
AcDbHatch
 10
0.0
 20
0.0
 30
0.0
210
0.0
220
0.0
230
1.0
  2
SOLID
 70
     1
 71
     0
 91
        1
 92
        1
 93
        3
 72
     1
 10
-20.40000039860598
 20
16.88825051833483
 11
-23.90000050663939
 21
16.30491716699593
 72
     1
 10
-23.90000050663939
 20
16.30491716699593
 11
-20.40000039860598
 21
15.72158381565702
 72
     1
 10
-20.40000039860598
 20
15.72158381565702
 11
-20.40000039860598
 21
16.88825051833483
 97
        0
 75
     0
 76
     1
 98
        0
  0
LINE
  5
139
330
136
100
AcDbEntity
  8
SK2
  6
Continuous
 62
   136
100
AcDbLine
 10
7.6
 20
7.7343811272
 30
0.0
 11
7.6
 21
18.054917221
 31
0.0
  0
LINE
  5
13A
330
136
100
AcDbEntity
  8
SK2
  6
Continuous
 62
   136
100
AcDbLine
 10
-23.9
 20
6.3677371654
 30
0.0
 11
-23.9
 21
18.054917221
 31
0.0
  0
LINE
  5
13B
330
136
100
AcDbEntity
  8
SK2
  6
Continuous
 62
   136
100
AcDbLine
 10
7.6
 20
16.304917167
 30
0.0
 11
-23.9000005066
 21
16.304917167
 31
0.0
  0
TEXT
  5
13C
330
136
100
AcDbEntity
  8
SK2
  6
Continuous
 62
   136
100
AcDbText
 10
-11.0931820715
 20
17.179917167
 30
0.0
 40
3.5
  1
31,5
  7
SEACAD_Solid_Edge_ISO
 11
-11.0931820715
 21
20.679917167
 31
0.0
100
AcDbText
 73
     3
  0
ENDBLK
  5
13E
330
136
100
AcDbEntity
  8
0
100
AcDbBlockEnd
  0
BLOCK
  5
148
330
140
100
AcDbEntity
  8
0
100
AcDbBlockBegin
  2
DMBLK15
 70
     0
 10
0.0
 20
0.0
 30
0.0
  3
DMBLK15
  1

  0
HATCH
  5
141
330
140
100
AcDbEntity
  8
SK2
  6
Continuous
 62
   136
100
AcDbHatch
 10
0.0
 20
0.0
 30
0.0
210
0.0
220
0.0
230
1.0
  2
SOLID
 70
     1
 71
     0
 91
        1
 92
        1
 93
        3
 72
     1
 10
-29.88589605128141
 20
6.427905029110632
 11
-28.7192293486036
 21
6.427905029110632
 72
     1
 10
-28.7192293486036
 20
6.427905029110632
 11
-29.30256269994251
 21
9.927905137144052
 72
     1
 10
-29.30256269994251
 20
9.92790513714405
 11
-29.88589605128141
 21
6.427905029110631
 97
        0
 75
     0
 76
     1
 98
        0
  0
HATCH
  5
142
330
140
100
AcDbEntity
  8
SK2
  6
Continuous
 62
   136
100
AcDbHatch
 10
0.0
 20
0.0
 30
0.0
210
0.0
220
0.0
230
1.0
  2
SOLID
 70
     1
 71
     0
 91
        1
 92
        1
 93
        3
 72
     1
 10
-29.88589605128141
 20
-6.427905084140577
 11
-29.30256269994251
 21
-9.927905192173995
 72
     1
 10
-29.30256269994251
 20
-9.927905192173997
 11
-28.7192293486036
 21
-6.427905084140578
 72
     1
 10
-28.7192293486036
 20
-6.427905084140577
 11
-29.88589605128141
 21
-6.427905084140577
 97
        0
 75
     0
 76
     1
 98
        0
  0
LINE
  5
143
330
140
100
AcDbEntity
  8
SK2
  6
Continuous
 62
   136
100
AcDbLine
 10
-0.4556692404
 20
9.9279051371
 30
0.0
 11
-31.052562754
 21
9.9279051371
 31
0.0
  0
LINE
  5
144
330
140
100
AcDbEntity
  8
SK2
  6
Continuous
 62
   136
100
AcDbLine
 10
-0.4556692404
 20
-9.9279049376
 30
0.0
 11
-31.052562754
 21
-9.9279049376
 31
0.0
  0
LINE
  5
145
330
140
100
AcDbEntity
  8
SK2
  6
Continuous
 62
   136
100
AcDbLine
 10
-29.3025626999
 20
9.9279051371
 30
0.0
 11
-29.3025626999
 21
-9.9279051922
 31
0.0
  0
TEXT
  5
146
330
140
100
AcDbEntity
  8
SK2
  6
Continuous
 62
   136
100
AcDbText
 10
-30.1775626999
 20
-0.0715909366
 30
0.0
 40
3.5
  1
20
 50
90.0
  7
SEACAD_Solid_Edge_ISO
 11
-33.6775626999
 21
-0.0715909366
 31
0.0
100
AcDbText
 73
     3
  0
TEXT
  5
147
330
140
100
AcDbEntity
  8
SK2
  6
Continuous
 62
   136
100
AcDbText
 10
-30.1775626999
 20
-4.1443182093
 30
0.0
 40
3.5
  1
ø
 50
90.0
  7
SEACAD_Solid_Edge_ISO
 11
-33.6775626999
 21
-4.1443182093
 31
0.0
100
AcDbText
 73
     3
  0
ENDBLK
  5
149
330
140
100
AcDbEntity
  8
0
100
AcDbBlockEnd
  0
BLOCK
  5
152
330
14B
100
AcDbEntity
  8
0
100
AcDbBlockBegin
  2
DMBLK16
 70
     0
 10
0.0
 20
0.0
 30
0.0
  3
DMBLK16
  1

  0
HATCH
  5
14C
330
14B
100
AcDbEntity
  8
SK2
  6
Continuous
 62
   136
100
AcDbHatch
 10
0.0
 20
0.0
 30
0.0
210
0.0
220
0.0
230
1.0
  2
SOLID
 70
     1
 71
     0
 91
        1
 92
        1
 93
        3
 72
     1
 10
-3.500000108033415
 20
-18.22516215628581
 11
0.0000000000000036
 21
-17.64182880494691
 72
     1
 10
0.0000000000000035
 20
-17.64182880494691
 11
-3.500000108033415
 21
-17.058495453608
 72
     1
 10
-3.500000108033415
 20
-17.058495453608
 11
-3.500000108033415
 21
-18.22516215628581
 97
        0
 75
     0
 76
     1
 98
        0
  0
HATCH
  5
14D
330
14B
100
AcDbEntity
  8
SK2
  6
Continuous
 62
   136
100
AcDbHatch
 10
0.0
 20
0.0
 30
0.0
210
0.0
220
0.0
230
1.0
  2
SOLID
 70
     1
 71
     0
 91
        1
 92
        1
 93
        3
 72
     1
 10
11.10000010806477
 20
-18.22516215628581
 11
11.10000010806477
 21
-17.058495453608
 72
     1
 10
11.10000010806477
 20
-17.058495453608
 11
7.600000000031349
 21
-17.64182880494691
 72
     1
 10
7.600000000031349
 20
-17.64182880494691
 11
11.10000010806477
 21
-18.22516215628581
 97
        0
 75
     0
 76
     1
 98
        0
  0
LINE
  5
14E
330
14B
100
AcDbEntity
  8
SK2
  6
Continuous
 62
   136
100
AcDbLine
 10
0.0
 20
-9.5314629746
 30
0.0
 11
0.0
 21
-19.391828859
 31
0.0
  0
LINE
  5
14F
330
14B
100
AcDbEntity
  8
SK2
  6
Continuous
 62
   136
100
AcDbLine
 10
7.6
 20
-7.7343810408
 30
0.0
 11
7.6
 21
-19.391828859
 31
0.0
  0
LINE
  5
150
330
14B
100
AcDbEntity
  8
SK2
  6
Continuous
 62
   136
100
AcDbLine
 10
-11.5848947316
 20
-17.6418288049
 30
0.0
 11
14.6000003442
 21
-17.6418288049
 31
0.0
  0
TEXT
  5
151
330
14B
100
AcDbEntity
  8
SK2
  6
Continuous
 62
   136
100
AcDbText
 10
-10.3598949183
 20
-16.7668288049
 30
0.0
 40
3.5
  1
7,6
  7
SEACAD_Solid_Edge_ISO
 11
-10.3598949183
 21
-13.2668288049
 31
0.0
100
AcDbText
 73
     3
  0
ENDBLK
  5
153
330
14B
100
AcDbEntity
  8
0
100
AcDbBlockEnd
  0
ENDSEC
  0
SECTION
  2
ENTITIES
  0
INSERT
  5
4B
330
1F
100
AcDbEntity
  8
SK2
 62
     7
100
AcDbBlockReference
  2
Nullpunkt
 10
0.0
 20
0.0000000998
 30
0.0
  0
INSERT
  5
56
330
1F
100
AcDbEntity
  8
SK2
 62
     7
100
AcDbBlockReference
  2
Einfügepunkt
 10
7.6
 20
0.0
 30
0.0
  0
LINE
  5
57
330
1F
100
AcDbEntity
  8
SK1
  6
Continuous
100
AcDbLine
 10
2.6
 20
-8.6999999002
 30
0.0
 11
2.6
 21
-6.4281660379
 31
0.0
  0
LINE
  5
58
330
1F
100
AcDbEntity
  8
SK1
  6
Continuous
100
AcDbLine
 10
0.2
 20
5.8624808125
 30
0.0
 11
0.2
 21
0.4000000998
 31
0.0
  0
LINE
  5
5B
330
1F
100
AcDbEntity
  8
SK3
100
AcDbLine
 10
-6.2
 20
2.206706113
 30
0.0
 11
-6.2
 21
2.7207536719
 31
0.0
  0
LINE
  5
5C
330
1F
100
AcDbEntity
  8
SK3
100
AcDbLine
 10
-10.2
 20
2.206706113
 30
0.0
 11
-10.2
 21
2.7207536719
 31
0.0
  0
LINE
  5
5D
330
1F
100
AcDbEntity
  8
SK3
100
AcDbLine
 10
-14.1
 20
3.4522276106
 30
0.0
 11
-14.1
 21
4.482187066
 31
0.0
  0
LINE
  5
5E
330
1F
100
AcDbEntity
  8
SK3
100
AcDbLine
 10
-10.4886751346
 20
-2.0561071237
 30
0.0
 11
-10.4886751346
 21
-1.8484894439
 31
0.0
  0
LINE
  5
5F
330
1F
100
AcDbEntity
  8
SK3
100
AcDbLine
 10
-10.4886751346
 20
0.9137413573
 30
0.0
 11
-10.4886751346
 21
1.2828042185
 31
0.0
  0
ARC
  5
60
330
1F
100
AcDbEntity
  8
SK3
100
AcDbCircle
 10
-7.254997226
 20
1.0780997413
 30
0.0
 40
3.37833859272903
100
AcDbArc
 50
153.7963598808
 51
163.172355771
  0
LINE
  5
61
330
1F
100
AcDbEntity
  8
SK3
100
AcDbLine
 10
-10.4886751346
 20
2.0561073232
 30
0.0
 11
-14.1
 21
2.0561073232
 31
0.0
  0
LINE
  5
62
330
1F
100
AcDbEntity
  8
SK3
100
AcDbLine
 10
-14.1
 20
0.9137413573
 30
0.0
 11
-10.4886751346
 21
0.9137413573
 31
0.0
  0
ARC
  5
63
330
1F
100
AcDbEntity
  8
SK3
100
AcDbCircle
 10
-7.2592501056
 20
1.8900723441
 30
0.0
 40
3.373782478706947
100
AcDbArc
 50
196.8212991423
 51
206.2099852059
  0
ARC
  5
64
330
1F
100
AcDbEntity
  8
SK3
100
AcDbCircle
 10
-7.254997226
 20
-1.8917487397
 30
0.0
 40
3.378338592729067
100
AcDbArc
 50
153.7963598808
 51
163.172355771
  0
LINE
  5
65
330
1F
100
AcDbEntity
  8
SK3
100
AcDbLine
 10
-10.4886751346
 20
-0.9137411578
 30
0.0
 11
-14.1
 21
-0.9137411578
 31
0.0
  0
LINE
  5
66
330
1F
100
AcDbEntity
  8
SK3
100
AcDbLine
 10
-14.1
 20
-2.0561071237
 30
0.0
 11
-10.4886751346
 21
-2.0561071237
 31
0.0
  0
ARC
  5
67
330
1F
100
AcDbEntity
  8
SK3
100
AcDbCircle
 10
-7.2592501056
 20
-1.0797761369
 30
0.0
 40
3.373782478706945
100
AcDbArc
 50
196.8212991423
 51
206.2099852059
  0
LINE
  5
68
330
1F
100
AcDbEntity
  8
SK1
  6
Continuous
100
AcDbLine
 10
3.1794228634
 20
10.4309402074
 30
0.0
 11
3.1794228634
 21
7.6532061523
 31
0.0
  0
LINE
  5
69
330
1F
100
AcDbEntity
  8
SK1
  6
Continuous
100
AcDbLine
 10
2.8
 20
10.2118803151
 30
0.0
 11
2.8
 21
7.4981909512
 31
0.0
  0
LINE
  5
6A
330
1F
100
AcDbEntity
  8
SK1
  6
Continuous
100
AcDbLine
 10
-0.4556692404
 20
7.3029317871
 30
0.0
 11
-0.4556692404
 21
9.9279051371
 31
0.0
  0
LINE
  5
6B
330
1F
100
AcDbEntity
  8
SK1
  6
Continuous
100
AcDbLine
 10
0.0
 20
7.0226049868
 30
0.0
 11
0.0
 21
9.5314631741
 31
0.0
  0
LINE
  5
6C
330
1F
100
AcDbEntity
  8
SK1
  6
Continuous
100
AcDbLine
 10
7.475
 20
-5.8978498212
 30
0.0
 11
7.475
 21
-7.9508873918
 31
0.0
  0
LINE
  5
6D
330
1F
100
AcDbEntity
  8
SK1
  6
Continuous
100
AcDbLine
 10
7.6
 20
5.1788719362
 30
0.0
 11
7.6
 21
-5.1788717367
 31
0.0
  0
LINE
  5
6E
330
1F
100
AcDbEntity
  8
SK1
  6
Continuous
100
AcDbLine
 10
7.475
 20
7.9508875913
 30
0.0
 11
7.475
 21
5.8978500207
 31
0.0
  0
SPLINE
  5
6F
330
1F
100
AcDbEntity
  8
SK1
  6
Continuous
100
AcDbSpline
210
0.0
220
0.0
230
1.0
 70
     8
 71
     3
 72
    10
 73
     6
 74
     0
 42
0.0000000469833378
 43
0.0000000001
 12
1.0
 22
0.0
 32
0.0
 13
1.0
 23
0.0
 33
0.0
 40
0.0
 40
0.0
 40
0.0
 40
0.0
 40
0.5
 40
0.5
 40
1.0
 40
1.0
 40
1.0
 40
1.0
 10
7.475000000021395
 20
5.332164595818829
 30
0.0
 10
7.512646290612143
 20
5.316776075655945
 30
0.0
 10
7.544707906803658
 20
5.294145116029223
 30
0.0
 10
7.588450517183716
 20
5.24042973658776
 30
0.0
 10
7.600000000000069
 20
5.20966264267601
 30
0.0
 10
7.600000000002112
 20
5.178871936224146
 30
0.0
  0
SPLINE
  5
70
330
1F
100
AcDbEntity
  8
SK1
  6
Continuous
100
AcDbSpline
210
0.0
220
0.0
230
1.0
 70
     8
 71
     3
 72
    38
 73
    34
 74
     0
 42
0.0000000090869775
 43
0.0000000001
 12
1.0
 22
0.0
 32
0.0
 13
1.0
 23
0.0
 33
0.0
 40
0.0
 40
0.0
 40
0.0
 40
0.0
 40
0.0277678947950884
 40
0.0277678947950884
 40
0.0277678947950884
 40
0.1410278096774132
 40
0.1410278096774132
 40
0.1410278096774132
 40
0.2522431483975262
 40
0.2522431483975262
 40
0.2522431483975262
 40
0.3604647865491164
 40
0.3604647865491164
 40
0.3604647865491164
 40
0.4662262962029021
 40
0.4662262962029021
 40
0.4662262962029021
 40
0.5000795511568586
 40
0.5000795511568586
 40
0.5000795511568586
 40
0.6044461896762386
 40
0.6044461896762386
 40
0.6044461896762386
 40
0.7087698068997237
 40
0.7087698068997237
 40
0.7087698068997237
 40
0.8137775638829271
 40
0.8137775638829271
 40
0.8137775638829271
 40
0.9207089614033248
 40
0.9207089614033248
 40
0.9207089614033248
 40
1.0
 40
1.0
 40
1.0
 40
1.0
 10
-21.49235111132024
 20
4.644260030622016
 30
0.0
 10
-21.50405370932045
 20
4.643095142476429
 30
0.0
 10
-21.51577042287073
 20
4.64229668700242
 30
0.0
 10
-21.52744007422584
 20
4.641870267859794
 30
0.0
 10
-21.57463389702022
 20
4.640145764801315
 30
0.0
 10
-21.62190148179538
 20
4.64464898216713
 30
0.0
 10
-21.6651148559143
 20
4.655067028616633
 30
0.0
 10
-21.70754810177625
 20
4.665296998745244
 30
0.0
 10
-21.74727795064589
 20
4.681531343978092
 30
0.0
 10
-21.7806895109134
 20
4.70233736923485
 30
0.0
 10
-21.81321354467296
 20
4.722590714557099
 30
0.0
 10
-21.84067025982533
 20
4.747748838775201
 30
0.0
 10
-21.86055014655571
 20
4.775551546418496
 30
0.0
 10
-21.87998636221067
 20
4.802733764751832
 30
0.0
 10
-21.89272661338491
 20
4.833201317764877
 30
0.0
 10
-21.89762433470782
 20
4.864301350745704
 30
0.0
 10
-21.89921285617689
 20
4.874388300741708
 30
0.0
 10
-21.90000730587562
 20
4.88460084458929
 30
0.0
 10
-21.89999994921711
 20
4.89484477418474
 30
0.0
 10
-21.89997755878293
 20
4.9260227921527
 30
0.0
 10
-21.89233356108122
 20
4.958070872251008
 30
0.0
 10
-21.8777415218706
 20
4.988372841942671
 30
0.0
 10
-21.86315281038306
 20
5.018667901252439
 30
0.0
 10
-21.84122700868107
 20
5.048050839985462
 30
0.0
 10
-21.81385721821308
 20
5.07426970124418
 30
0.0
 10
-21.7863035590948
 20
5.100664699278128
 30
0.0
 10
-21.75250168031975
 20
5.124572970572475
 30
0.0
 10
-21.71527876136072
 20
5.144301212243528
 30
0.0
 10
-21.67737526198278
 20
5.164390163266678
 30
0.0
 10
-21.63492442510033
 20
5.180692782588719
 30
0.0
 10
-21.59136103080347
 20
5.192142235274336
 30
0.0
 10
-21.5590325185602
 20
5.200638904950791
 30
0.0
 10
-21.52555780758931
 20
5.206640028277492
 30
0.0
 10
-21.49235111132024
 20
5.209945455571255
 30
0.0
  0
LINE
  5
71
330
1F
100
AcDbEntity
  8
SK1
  6
Continuous
100
AcDbLine
 10
2.8
 20
-10.2118801156
 30
0.0
 11
2.8
 21
-7.4981907517
 31
0.0
  0
LINE
  5
72
330
1F
100
AcDbEntity
  8
SK1
  6
Continuous
100
AcDbLine
 10
3.1794228634
 20
-10.4309400079
 30
0.0
 11
3.1794228634
 21
-7.6532059528
 31
0.0
  0
LINE
  5
73
330
1F
100
AcDbEntity
  8
SK3
100
AcDbLine
 10
-10.4886751346
 20
1.8484896434
 30
0.0
 11
-10.4886751346
 21
2.0561073232
 31
0.0
  0
LINE
  5
74
330
1F
100
AcDbEntity
  8
SK1
  6
Continuous
100
AcDbLine
 10
2.6
 20
8.7000000998
 30
0.0
 11
2.6
 21
6.4281662374
 31
0.0
  0
SPLINE
  5
75
330
1F
100
AcDbEntity
  8
SK3
100
AcDbSpline
210
0.0
220
0.0
230
1.0
 70
     8
 71
     3
 72
    38
 73
    34
 74
     0
 42
0.0000000092154012
 43
0.0000000001
 12
1.0
 22
0.0
 32
0.0
 13
1.0
 23
0.0
 33
0.0
 40
0.0
 40
0.0
 40
0.0
 40
0.0
 40
0.0353829103522529
 40
0.0353829103522529
 40
0.0353829103522529
 40
0.1430612113274123
 40
0.1430612113274123
 40
0.1430612113274123
 40
0.2501966873617181
 40
0.2501966873617181
 40
0.2501966873617181
 40
0.3573299727738334
 40
0.3573299727738334
 40
0.3573299727738334
 40
0.464651651469029
 40
0.464651651469029
 40
0.464651651469029
 40
0.4996183450717703
 40
0.4996183450717703
 40
0.4996183450717703
 40
0.6069898514382476
 40
0.6069898514382476
 40
0.6069898514382476
 40
0.7143611845704914
 40
0.7143611845704914
 40
0.7143611845704914
 40
0.8217259935198812
 40
0.8217259935198812
 40
0.8217259935198812
 40
0.928940314707264
 40
0.928940314707264
 40
0.928940314707264
 40
1.0
 40
1.0
 40
1.0
 40
1.0
 10
-21.72254626841401
 20
3.452227610593296
 30
0.0
 10
-21.73739285848331
 20
3.452227610593469
 30
0.0
 10
-21.75226243750443
 20
3.451696572289773
 30
0.0
 10
-21.76701703498535
 20
3.450637361826937
 30
0.0
 10
-21.81162978549928
 20
3.447434679260957
 30
0.0
 10
-21.85599995792916
 20
3.439227965102439
 30
0.0
 10
-21.89641361499344
 20
3.42655989570051
 30
0.0
 10
-21.93662947721314
 20
3.413953827092385
 30
0.0
 10
-21.97403843647281
 20
3.396574749685747
 30
0.0
 10
-22.00555548550457
 20
3.375640452479645
 30
0.0
 10
-22.0370729704673
 20
3.35470586571888
 30
0.0
 10
-22.06356867913481
 20
3.329629493036619
 30
0.0
 10
-22.08287775864681
 20
3.302264108982999
 30
0.0
 10
-22.10221997896717
 20
3.274851756820511
 30
0.0
 10
-22.11488461309781
 20
3.244378331439568
 30
0.0
 10
-22.11983635169198
 20
3.213242728581965
 30
0.0
 10
-22.12147038393196
 20
3.202968240558594
 30
0.0
 10
-22.12229481582111
 20
3.192563148870736
 30
0.0
 10
-22.12230217096991
 20
3.182122033323585
 30
0.0
 10
-22.12232446983141
 20
3.150467338651771
 30
0.0
 10
-22.11464864870143
 20
3.117875145306294
 30
0.0
 10
-22.09990278283981
 20
3.087120281098612
 30
0.0
 10
-22.08515694290677
 20
3.056365470969142
 30
0.0
 10
-22.0629334402212
 20
3.026606091671259
 30
0.0
 10
-22.03505266724701
 20
3.00050218678921
 30
0.0
 10
-22.00717430256955
 20
2.974400536720855
 30
0.0
 10
-21.97286687410564
 20
2.951243955270669
 30
0.0
 10
-21.93496152065908
 20
2.933184938198673
 30
0.0
 10
-21.89710870423097
 20
2.915150951018946
 30
0.0
 10
-21.8546222436942
 20
2.901713571480854
 30
0.0
 10
-21.81102840959537
 20
2.894137257347217
 30
0.0
 10
-21.78208603341544
 20
2.889107267711161
 30
0.0
 10
-21.75222470159219
 20
2.886542185644233
 30
0.0
 10
-21.72254626841401
 20
2.886542185644057
 30
0.0
  0
SPLINE
  5
76
330
1F
100
AcDbEntity
  8
SK1
  6
Continuous
100
AcDbSpline
210
0.0
220
0.0
230
1.0
 70
     8
 71
     3
 72
    14
 73
    10
 74
     0
 42
0.0000000004730247
 43
0.0000000001
 12
1.0
 22
0.0
 32
0.0
 13
1.0
 23
0.0
 33
0.0
 40
0.0
 40
0.0
 40
0.0
 40
0.0
 40
0.1097530841145284
 40
0.1097530841145284
 40
0.1097530841145284
 40
0.7133718511905289
 40
0.7133718511905289
 40
0.7133718511905289
 40
1.0
 40
1.0
 40
1.0
 40
1.0
 10
-21.49235111132024
 20
4.644260030622016
 30
0.0
 10
-20.72274486260108
 20
4.720867395575756
 30
0.0
 10
-19.95313747053813
 20
4.797469017614818
 30
0.0
 10
-19.18352908166429
 20
4.874065631681307
 30
0.0
 10
-14.95084559743013
 20
5.295330820567687
 30
0.0
 10
-10.71813306493636
 20
5.716450082046691
 30
0.0
 10
-6.48540582550919
 20
6.137495396148863
 30
0.0
 10
-4.475496857926583
 20
6.337428608166352
 30
0.0
 10
-2.465584386931848
 20
6.537344210901382
 30
0.0
 10
-0.4556692403865177
 20
6.737246362205341
 30
0.0
  0
SPLINE
  5
77
330
1F
100
AcDbEntity
  8
SK1
  6
Continuous
100
AcDbSpline
210
0.0
220
0.0
230
1.0
 70
     8
 71
     3
 72
    10
 73
     6
 74
     0
 42
0.0000000163103516
 43
0.0000000001
 12
1.0
 22
0.0
 32
0.0
 13
1.0
 23
0.0
 33
0.0
 40
0.0
 40
0.0
 40
0.0
 40
0.0
 40
0.5
 40
0.5
 40
1.0
 40
1.0
 40
1.0
 40
1.0
 10
-0.4556692403865177
 20
6.737246362205341
 30
0.0
 10
-0.343119501611075
 20
6.748440334714527
 30
0.0
 10
-0.2240745321124629
 20
6.723763730611432
 30
0.0
 10
-0.05116017205096
 20
6.617418235896826
 30
0.0
 10
0.0000000000000069
 20
6.537221387205557
 30
0.0
 10
0.0000000000000035
 20
6.456919561802015
 30
0.0
  0
SPLINE
  5
78
330
1F
100
AcDbEntity
  8
SK3
100
AcDbSpline
210
0.0
220
0.0
230
1.0
 70
     8
 71
     3
 72
    10
 73
     6
 74
     0
 42
0.0000000179812321
 43
0.0000000001
 12
1.0
 22
0.0
 32
0.0
 13
1.0
 23
0.0
 33
0.0
 40
0.0
 40
0.0
 40
0.0
 40
0.0
 40
0.5
 40
0.5
 40
1.0
 40
1.0
 40
1.0
 40
1.0
 10
7.599999999999999
 20
1.723176455001949
 30
0.0
 10
7.600000000000002
 20
1.648521395268711
 30
0.0
 10
7.557161999741338
 20
1.574531179628422
 30
0.0
 10
7.410440596253711
 20
1.468801315781827
 30
0.0
 10
7.305593640968328
 20
1.437073809683979
 30
0.0
 10
7.200000000000002
 20
1.43707380968398
 30
0.0
  0
LINE
  5
79
330
1F
100
AcDbEntity
  8
SK3
100
AcDbLine
 10
7.2
 20
1.4370738097
 30
0.0
 11
-6.2
 21
1.4370738097
 31
0.0
  0
LINE
  5
7A
330
1F
100
AcDbEntity
  8
SK3
100
AcDbLine
 10
-6.2
 20
1.6410206881
 30
0.0
 11
-10.2
 21
1.6410206881
 31
0.0
  0
LINE
  5
7B
330
1F
100
AcDbEntity
  8
SK3
100
AcDbLine
 10
-10.2
 20
1.6410206881
 30
0.0
 11
-10.4886751346
 21
1.2828042185
 31
0.0
  0
LINE
  5
7C
330
1F
100
AcDbEntity
  8
SK3
100
AcDbLine
 10
-10.4886751346
 20
1.2828042185
 30
0.0
 11
-14.1
 21
1.2828042185
 31
0.0
  0
LINE
  5
7D
330
1F
100
AcDbEntity
  8
SK3
100
AcDbLine
 10
-14.1
 20
2.8865421856
 30
0.0
 11
-21.7225462684
 21
2.8865421856
 31
0.0
  0
SPLINE
  5
7E
330
1F
100
AcDbEntity
  8
SK1
  6
Continuous
100
AcDbSpline
210
0.0
220
0.0
230
1.0
 70
     8
 71
     3
 72
    11
 73
     7
 74
     0
 42
0.0000000021549893
 43
0.0000000001
 12
1.0
 22
0.0
 32
0.0
 13
1.0
 23
0.0
 33
0.0
 40
0.0
 40
0.0
 40
0.0
 40
0.0
 40
0.4806353935802233
 40
0.4806353935802233
 40
0.4806353935802233
 40
1.0
 40
1.0
 40
1.0
 40
1.0
 10
7.475000000021395
 20
5.332164595818829
 30
0.0
 10
6.786849828733132
 20
5.613456925000807
 30
0.0
 10
6.098667433624489
 20
5.894709839625538
 30
0.0
 10
5.410463987103195
 20
6.17593699278959
 30
0.0
 10
4.66680565265256
 20
6.479825206923666
 30
0.0
 10
3.923122551579693
 20
6.783683118138877
 30
0.0
 10
3.179422863405994
 20
7.087520727387164
 30
0.0
  0
LINE
  5
7F
330
1F
100
AcDbEntity
  8
SK1
  6
Continuous
100
AcDbLine
 10
3.1794228634
 20
7.0875207274
 30
0.0
 11
2.8
 21
6.9325055263
 31
0.0
  0
SPLINE
  5
80
330
1F
100
AcDbEntity
  8
SK1
  6
Continuous
100
AcDbSpline
210
0.0
220
0.0
230
1.0
 70
     8
 71
     3
 72
    10
 73
     6
 74
     0
 42
0.0000000361022747
 43
0.0000000001
 12
1.0
 22
0.0
 32
0.0
 13
1.0
 23
0.0
 33
0.0
 40
0.0
 40
0.0
 40
0.0
 40
0.0
 40
0.5
 40
0.5
 40
1.0
 40
1.0
 40
1.0
 40
1.0
 10
2.8
 20
6.004048510895924
 30
0.0
 10
2.800000000000006
 20
5.967161421015
 30
0.0
 10
2.778440850106142
 20
5.930218953276478
 30
0.0
 10
2.704775281368409
 20
5.877937168068425
 30
0.0
 10
2.652143593554554
 20
5.862480812470804
 30
0.0
 10
2.600000000000904
 20
5.862480812465654
 30
0.0
  0
LINE
  5
81
330
1F
100
AcDbEntity
  8
SK1
  6
Continuous
100
AcDbLine
 10
2.6
 20
5.8624808125
 30
0.0
 11
0.2
 21
5.8624808125
 31
0.0
  0
SPLINE
  5
82
330
1F
100
AcDbEntity
  8
SK1
  6
Continuous
100
AcDbSpline
210
0.0
220
0.0
230
1.0
 70
     8
 71
     3
 72
    10
 73
     6
 74
     0
 42
0.000000036101554
 43
0.0000000001
 12
1.0
 22
0.0
 32
0.0
 13
1.0
 23
0.0
 33
0.0
 40
0.0
 40
0.0
 40
0.0
 40
0.0
 40
0.5
 40
0.5
 40
1.0
 40
1.0
 40
1.0
 40
1.0
 10
0.2000000000000023
 20
5.862480812470587
 30
0.0
 10
0.1477708908094351
 20
5.862480812470586
 30
0.0
 10
0.0951825507247792
 20
5.877968988978792
 30
0.0
 10
0.0216115616243837
 20
5.930179862402978
 30
0.0
 10
-0.0000000000000069
 20
5.967083921042868
 30
0.0
 10
-0.000000000000137
 20
6.004048510895933
 30
0.0
  0
SPLINE
  5
83
330
1F
100
AcDbEntity
  8
SK1
  6
Continuous
100
AcDbSpline
210
0.0
220
0.0
230
1.0
 70
     8
 71
     3
 72
    14
 73
    10
 74
     0
 42
0.0000000004730247
 43
0.0000000001
 12
1.0
 22
0.0
 32
0.0
 13
1.0
 23
0.0
 33
0.0
 40
0.0
 40
0.0
 40
0.0
 40
0.0
 40
0.1097530841145222
 40
0.1097530841145222
 40
0.1097530841145222
 40
0.7133718511904891
 40
0.7133718511904891
 40
0.7133718511904891
 40
1.0
 40
1.0
 40
1.0
 40
1.0
 10
-21.49235111132024
 20
5.209945455571255
 30
0.0
 10
-20.72274486260108
 20
5.286552820524994
 30
0.0
 10
-19.95313747053813
 20
5.363154442564057
 30
0.0
 10
-19.18352908166429
 20
5.439751056630545
 30
0.0
 10
-14.95084559743013
 20
5.861016245516924
 30
0.0
 10
-10.71813306493636
 20
6.282135506995929
 30
0.0
 10
-6.48540582550919
 20
6.703180821098102
 30
0.0
 10
-4.475496857926191
 20
6.903114033115628
 30
0.0
 10
-2.465584386931063
 20
7.103029635850697
 30
0.0
 10
-0.4556692403840206
 20
7.302931787148064
 30
0.0
  0
LINE
  5
84
330
1F
100
AcDbEntity
  8
SK1
  6
Continuous
100
AcDbLine
 10
7.6
 20
5.1788719362
 30
0.0
 11
7.6
 21
5.7445573612
 31
0.0
  0
SPLINE
  5
85
330
1F
100
AcDbEntity
  8
SK1
  6
Continuous
100
AcDbSpline
210
0.0
220
0.0
230
1.0
 70
     8
 71
     3
 72
    11
 73
     7
 74
     0
 42
0.0000000021549893
 43
0.0000000001
 12
1.0
 22
0.0
 32
0.0
 13
1.0
 23
0.0
 33
0.0
 40
0.0
 40
0.0
 40
0.0
 40
0.0
 40
0.480635393579684
 40
0.480635393579684
 40
0.480635393579684
 40
1.0
 40
1.0
 40
1.0
 40
1.0
 10
7.474999999999997
 20
5.897850020749186
 30
0.0
 10
6.786849828730158
 20
6.179142349951261
 30
0.0
 10
6.098667433623
 20
6.460395264575385
 30
0.0
 10
5.410463987103195
 20
6.741622417738828
 30
0.0
 10
4.66680565265256
 20
7.045510631872904
 30
0.0
 10
3.923122551579695
 20
7.349368543088115
 30
0.0
 10
3.179422863405994
 20
7.653206152336402
 30
0.0
  0
LINE
  5
86
330
1F
100
AcDbEntity
  8
SK1
  6
Continuous
100
AcDbLine
 10
3.1794228634
 20
7.6532061523
 30
0.0
 11
2.8
 21
7.4981909512
 31
0.0
  0
LINE
  5
87
330
1F
100
AcDbEntity
  8
SK1
  6
Continuous
100
AcDbLine
 10
2.8
 20
7.4981909512
 30
0.0
 11
2.8
 21
6.9325055263
 31
0.0
  0
SPLINE
  5
88
330
1F
100
AcDbEntity
  8
SK1
  6
Continuous
100
AcDbSpline
210
0.0
220
0.0
230
1.0
 70
     8
 71
     3
 72
    10
 73
     6
 74
     0
 42
0.0000000361022747
 43
0.0000000001
 12
1.0
 22
0.0
 32
0.0
 13
1.0
 23
0.0
 33
0.0
 40
0.0
 40
0.0
 40
0.0
 40
0.0
 40
0.5
 40
0.5
 40
1.0
 40
1.0
 40
1.0
 40
1.0
 10
2.800000000003154
 20
6.569733935845428
 30
0.0
 10
2.800000000000146
 20
6.532846845964408
 30
0.0
 10
2.778440850106178
 20
6.495904378225657
 30
0.0
 10
2.704775281367913
 20
6.443622593017396
 30
0.0
 10
2.652143593553641
 20
6.428166237419824
 30
0.0
 10
2.600000000000001
 20
6.428166237419826
 30
0.0
  0
LINE
  5
89
330
1F
100
AcDbEntity
  8
SK1
  6
Continuous
100
AcDbLine
 10
2.6
 20
6.4281662374
 30
0.0
 11
0.2
 21
6.4281662374
 31
0.0
  0
SPLINE
  5
8A
330
1F
100
AcDbEntity
  8
SK1
  6
Continuous
100
AcDbSpline
210
0.0
220
0.0
230
1.0
 70
     8
 71
     3
 72
    10
 73
     6
 74
     0
 42
0.000000036101554
 43
0.0000000001
 12
1.0
 22
0.0
 32
0.0
 13
1.0
 23
0.0
 33
0.0
 40
0.0
 40
0.0
 40
0.0
 40
0.0
 40
0.5
 40
0.5
 40
1.0
 40
1.0
 40
1.0
 40
1.0
 10
0.1999999999999537
 20
6.428166237419473
 30
0.0
 10
0.1477708908093675
 20
6.42816623741984
 30
0.0
 10
0.0951825507247376
 20
6.443654413928051
 30
0.0
 10
0.0216115616243802
 20
6.495865287352224
 30
0.0
 10
-0.0000000000000017
 20
6.532769345992103
 30
0.0
 10
0.0
 20
6.569733935845163
 30
0.0
  0
LINE
  5
8B
330
1F
100
AcDbEntity
  8
SK1
  6
Continuous
100
AcDbLine
 10
0.0
 20
6.5697339358
 30
0.0
 11
0.0
 21
7.0226049868
 31
0.0
  0
ELLIPSE
  5
8C
330
1F
100
AcDbEntity
  8
SK1
  6
Continuous
100
AcDbEllipse
 10
40.2154871811
 20
0.282842819
 30
0.0
 11
-62.09999989986665
 21
-1.344242995785067E-8
 31
0.0
210
0.0
220
0.0
230
1.0
 40
0.7071067817
 41
-0.1124425143257515
 42
-0.0995349118340494
  0
LINE
  5
8D
330
1F
100
AcDbEntity
  8
SK3
100
AcDbLine
 10
-14.1
 20
2.8865421856
 30
0.0
 11
-14.1
 21
3.4522276106
 31
0.0
  0
LINE
  5
8E
330
1F
100
AcDbEntity
  8
SK3
100
AcDbLine
 10
-14.1
 20
3.4522276106
 30
0.0
 11
-21.7225462684
 21
3.4522276106
 31
0.0
  0
SPLINE
  5
8F
330
1F
100
AcDbEntity
  8
SK1
  6
Continuous
100
AcDbSpline
210
0.0
220
0.0
230
1.0
 70
     8
 71
     3
 72
    10
 73
     6
 74
     0
 42
0.0000000163103516
 43
0.0000000001
 12
1.0
 22
0.0
 32
0.0
 13
1.0
 23
0.0
 33
0.0
 40
0.0
 40
0.0
 40
0.0
 40
0.0
 40
0.5
 40
0.5
 40
1.0
 40
1.0
 40
1.0
 40
1.0
 10
-0.4556692403840206
 20
7.302931787148064
 30
0.0
 10
-0.3431195016096924
 20
7.314125759663575
 30
0.0
 10
-0.2240745321115088
 20
7.289449155560303
 30
0.0
 10
-0.051160172050679
 20
7.18310366084567
 30
0.0
 10
0.0000000000000069
 20
7.102906812154604
 30
0.0
 10
0.0000000000000035
 20
7.022604986751253
 30
0.0
  0
SPLINE
  5
90
330
1F
100
AcDbEntity
  8
SK1
  6
Continuous
100
AcDbSpline
210
0.0
220
0.0
230
1.0
 70
     8
 71
     3
 72
    10
 73
     6
 74
     0
 42
0.0000000469833378
 43
0.0000000001
 12
1.0
 22
0.0
 32
0.0
 13
1.0
 23
0.0
 33
0.0
 40
0.0
 40
0.0
 40
0.0
 40
0.0
 40
0.4999999999999958
 40
0.4999999999999958
 40
1.0
 40
1.0
 40
1.0
 40
1.0
 10
7.474999999999997
 20
5.897850020749186
 30
0.0
 10
7.512646290608376
 20
5.882461500607566
 30
0.0
 10
7.544707906801188
 20
5.859830540980751
 30
0.0
 10
7.588450517183213
 20
5.806115161538358
 30
0.0
 10
7.600000000000069
 20
5.775348067625944
 30
0.0
 10
7.600000000002112
 20
5.744557361173386
 30
0.0
  0
SPLINE
  5
91
330
1F
100
AcDbEntity
  8
SK3
100
AcDbSpline
210
0.0
220
0.0
230
1.0
 70
     8
 71
     3
 72
    10
 73
     6
 74
     0
 42
0.0000000179812321
 43
0.0000000001
 12
1.0
 22
0.0
 32
0.0
 13
1.0
 23
0.0
 33
0.0
 40
0.0
 40
0.0
 40
0.0
 40
0.0
 40
0.5
 40
0.5
 40
1.0
 40
1.0
 40
1.0
 40
1.0
 10
7.599999999999999
 20
2.288861879951187
 30
0.0
 10
7.600000000000002
 20
2.214206820217949
 30
0.0
 10
7.557161999741338
 20
2.14021660457766
 30
0.0
 10
7.410440596253711
 20
2.034486740731065
 30
0.0
 10
7.305593640968328
 20
2.002759234633217
 30
0.0
 10
7.200000000000002
 20
2.002759234633218
 30
0.0
  0
LINE
  5
92
330
1F
100
AcDbEntity
  8
SK3
100
AcDbLine
 10
7.2
 20
2.0027592346
 30
0.0
 11
-6.2
 21
2.0027592346
 31
0.0
  0
LINE
  5
93
330
1F
100
AcDbEntity
  8
SK3
100
AcDbLine
 10
-6.2
 20
2.0027592346
 30
0.0
 11
-6.2
 21
2.206706113
 31
0.0
  0
LINE
  5
94
330
1F
100
AcDbEntity
  8
SK3
100
AcDbLine
 10
-6.2
 20
2.206706113
 30
0.0
 11
-10.2
 21
2.206706113
 31
0.0
  0
LINE
  5
95
330
1F
100
AcDbEntity
  8
SK3
100
AcDbLine
 10
-10.2
 20
2.206706113
 30
0.0
 11
-10.4886751346
 21
1.8484896434
 31
0.0
  0
LINE
  5
96
330
1F
100
AcDbEntity
  8
SK3
100
AcDbLine
 10
-10.4886751346
 20
1.8484896434
 30
0.0
 11
-14.1
 21
1.8484896434
 31
0.0
  0
SPLINE
  5
97
330
1F
100
AcDbEntity
  8
SK3
100
AcDbSpline
210
0.0
220
0.0
230
1.0
 70
     8
 71
     3
 72
    10
 73
     6
 74
     0
 42
0.0000000206598773
 43
0.0000000001
 12
1.0
 22
0.0
 32
0.0
 13
1.0
 23
0.0
 33
0.0
 40
0.0
 40
0.0
 40
0.0
 40
0.0
 40
0.5
 40
0.5
 40
1.0
 40
1.0
 40
1.0
 40
1.0
 10
-23.6
 20
-4.482186866432412
 30
0.0
 10
-23.67944438222893
 20
-4.482186866432412
 30
0.0
 10
-23.75710604178845
 20
-4.515022707960519
 30
0.0
 10
-23.86768686893196
 20
-4.626303435141142
 30
0.0
 10
-23.90000000000013
 20
-4.704859374331742
 30
0.0
 10
-23.90000000000287
 20
-4.783304197470304
 30
0.0
  0
SPLINE
  5
98
330
1F
100
AcDbEntity
  8
SK3
100
AcDbSpline
210
0.0
220
0.0
230
1.0
 70
     8
 71
     3
 72
    10
 73
     6
 74
     0
 42
0.0000000206546491
 43
0.0000000001
 12
1.0
 22
0.0
 32
0.0
 13
1.0
 23
0.0
 33
0.0
 40
0.0
 40
0.0
 40
0.0
 40
0.0
 40
0.5
 40
0.5
 40
1.0
 40
1.0
 40
1.0
 40
1.0
 10
-23.90000000000292
 20
4.783304397010808
 30
0.0
 10
-23.89999999999987
 20
4.704922409055778
 30
0.0
 10
-23.86830378930227
 20
4.626928960904316
 30
0.0
 10
-23.75650607506572
 20
4.514414642914636
 30
0.0
 10
-23.67938683413823
 20
4.482187065973055
 30
0.0
 10
-23.6
 20
4.482187065973575
 30
0.0
  0
LINE
  5
99
330
1F
100
AcDbEntity
  8
SK1
  6
Continuous
100
AcDbLine
 10
-23.6417519303
 20
6.6653770145
 30
0.0
 11
-23.6417519303
 21
0.4000000998
 31
0.0
  0
LINE
  5
9A
330
1F
100
AcDbEntity
  8
SK1
  6
Continuous
100
AcDbLine
 10
-23.9
 20
-6.3677369658
 30
0.0
 11
-23.9
 21
-0.3999999002
 31
0.0
  0
LINE
  5
9B
330
1F
100
AcDbEntity
  8
SK1
  6
Continuous
100
AcDbLine
 10
0.0
 20
-9.5314629746
 30
0.0
 11
0.0
 21
-7.0226047872
 31
0.0
  0
LINE
  5
9C
330
1F
100
AcDbEntity
  8
SK1
  6
Continuous
100
AcDbLine
 10
-0.4556692404
 20
-9.9279049376
 30
0.0
 11
-0.4556692404
 21
-7.3029315876
 31
0.0
  0
LINE
  5
9D
330
1F
100
AcDbEntity
  8
SK3
100
AcDbLine
 10
-14.1
 20
-4.4821868664
 30
0.0
 11
-14.1
 21
-3.4522274111
 31
0.0
  0
LINE
  5
9E
330
1F
100
AcDbEntity
  8
SK3
100
AcDbLine
 10
-10.2
 20
-2.7207534723
 30
0.0
 11
-10.2
 21
-2.2067059135
 31
0.0
  0
LINE
  5
9F
330
1F
100
AcDbEntity
  8
SK3
100
AcDbLine
 10
-6.2
 20
-2.7207534723
 30
0.0
 11
-6.2
 21
-2.2067059135
 31
0.0
  0
ARC
  5
A0
330
1F
100
AcDbEntity
  8
SK3
100
AcDbCircle
 10
2.2594926879
 20
-4.901821998
 30
0.0
 40
2.46949332868178
100
AcDbArc
 50
80.6701019461
 51
89.9689943122
  0
LINE
  5
A1
330
1F
100
AcDbEntity
  8
SK1
  6
Continuous
100
AcDbLine
 10
0.2
 20
8.6907998328
 30
0.0
 11
0.2
 21
6.4281662374
 31
0.0
  0
ARC
  5
A2
330
1F
100
AcDbEntity
  8
SK1
  6
Continuous
100
AcDbCircle
 10
1.6978683939
 20
17.4853845409
 30
0.0
 40
8.79458472379697
100
AcDbArc
 50
269.9965756986
 51
272.6205028853
  0
ARC
  5
A3
330
1F
100
AcDbEntity
  8
SK3
100
AcDbCircle
 10
2.2595495287
 20
4.9013779637
 30
0.0
 40
2.469049064757653
100
AcDbArc
 50
270.0296922418
 51
279.3297419821
  0
ARC
  5
A4
330
1F
100
AcDbEntity
  8
SK1
  6
Continuous
100
AcDbCircle
 10
1.6978524732
 20
-17.4855027378
 30
0.0
 40
8.794703119317816
100
AcDbArc
 50
87.3793429685
 51
90.0033205348
  0
SPLINE
  5
A5
330
1F
100
AcDbEntity
  8
SK1
  6
Continuous
100
AcDbSpline
210
0.0
220
0.0
230
1.0
 70
     8
 71
     3
 72
    10
 73
     6
 74
     0
 42
0.0000000141859536
 43
0.0000000001
 12
1.0
 22
0.0
 32
0.0
 13
1.0
 23
0.0
 33
0.0
 40
0.0
 40
0.0
 40
0.0
 40
0.0
 40
0.5
 40
0.5
 40
1.0
 40
1.0
 40
1.0
 40
1.0
 10
0.0000000000000035
 20
9.531463174126223
 30
0.0
 10
0.0000000000000035
 20
9.646158829570018
 30
0.0
 10
-0.0517181530703924
 20
9.758797916955684
 30
0.0
 10
-0.2229962594106089
 20
9.90802954879778
 30
0.0
 10
-0.3416408739175007
 20
9.94394378106334
 30
0.0
 10
-0.4556692403840206
 20
9.92790513714405
 30
0.0
  0
SPLINE
  5
A6
330
1F
100
AcDbEntity
  8
SK1
  6
Continuous
100
AcDbSpline
210
0.0
220
0.0
230
1.0
 70
     8
 71
     3
 72
    11
 73
     7
 74
     0
 42
0.0000000004270859
 43
0.0000000001
 12
1.0
 22
0.0
 32
0.0
 13
1.0
 23
0.0
 33
0.0
 40
0.0
 40
0.0
 40
0.0
 40
0.0
 40
0.745009018235521
 40
0.745009018235521
 40
0.745009018235521
 40
1.0
 40
1.0
 40
1.0
 40
1.0
 10
-0.4556692403840206
 20
9.92790513714405
 30
0.0
 10
-6.213660435917609
 20
9.118015691761498
 30
0.0
 10
-11.97163181570543
 20
8.307985298569175
 30
0.0
 10
-17.72955481920708
 20
7.497611182909666
 30
0.0
 10
-19.7002939712163
 20
7.220247974590658
 30
0.0
 10
-21.67102718968036
 20
6.942842600394169
 30
0.0
 10
-23.64175193028802
 20
6.665377014513831
 30
0.0
  0
ARC
  5
A7
330
1F
100
AcDbEntity
  8
SK1
  6
Continuous
100
AcDbCircle
 10
-23.5996297504
 20
6.36797482
 30
0.0
 40
0.3003703436640547
100
AcDbArc
 50
98.0613957409
 51
180.0453327334
  0
LINE
  5
A8
330
1F
100
AcDbEntity
  8
SK3
100
AcDbLine
 10
-23.6
 20
4.482187066
 30
0.0
 11
-14.1
 21
4.482187066
 31
0.0
  0
LINE
  5
A9
330
1F
100
AcDbEntity
  8
SK3
100
AcDbLine
 10
-10.2861450361
 20
2.5698485808
 30
0.0
 11
-10.2
 21
2.7207536719
 31
0.0
  0
LINE
  5
AA
330
1F
100
AcDbEntity
  8
SK3
100
AcDbLine
 10
-10.2
 20
2.7207536719
 30
0.0
 11
-6.2
 21
2.7207536719
 31
0.0
  0
LINE
  5
AB
330
1F
100
AcDbEntity
  8
SK3
100
AcDbLine
 10
-6.2
 20
2.4323292305
 30
0.0
 11
2.2608290575
 21
2.4323292305
 31
0.0
  0
LINE
  5
AC
330
1F
100
AcDbEntity
  8
SK3
100
AcDbLine
 10
2.2608290575
 20
-2.4323290309
 30
0.0
 11
-6.2
 21
-2.4323290309
 31
0.0
  0
LINE
  5
AD
330
1F
100
AcDbEntity
  8
SK3
100
AcDbLine
 10
-6.2
 20
-2.7207534723
 30
0.0
 11
-10.2
 21
-2.7207534723
 31
0.0
  0
LINE
  5
AE
330
1F
100
AcDbEntity
  8
SK3
100
AcDbLine
 10
-10.2
 20
-2.7207534723
 30
0.0
 11
-10.2861450361
 21
-2.5698483812
 31
0.0
  0
LINE
  5
AF
330
1F
100
AcDbEntity
  8
SK3
100
AcDbLine
 10
-14.1
 20
-4.4821868664
 30
0.0
 11
-23.6
 21
-4.4821868664
 31
0.0
  0
ARC
  5
B0
330
1F
100
AcDbEntity
  8
SK1
  6
Continuous
100
AcDbCircle
 10
-23.5996295685
 20
-6.3679744627
 30
0.0
 40
0.3003705253420278
100
AcDbArc
 50
179.9546973833
 51
261.9385741424
  0
SPLINE
  5
B1
330
1F
100
AcDbEntity
  8
SK1
  6
Continuous
100
AcDbSpline
210
0.0
220
0.0
230
1.0
 70
     8
 71
     3
 72
    11
 73
     7
 74
     0
 42
0.0000000004270859
 43
0.0000000001
 12
1.0
 22
0.0
 32
0.0
 13
1.0
 23
0.0
 33
0.0
 40
0.0
 40
0.0
 40
0.0
 40
0.0
 40
0.5006699563657115
 40
0.5006699563657115
 40
0.5006699563657115
 40
1.0
 40
1.0
 40
1.0
 40
1.0
 10
-23.64175193028802
 20
-6.665376814972668
 30
0.0
 10
-19.77227128331199
 20
-7.210175229811052
 30
0.0
 10
-15.90275882788117
 20
-7.754747730566661
 30
0.0
 10
-12.03323027602601
 20
-8.299205788189303
 30
0.0
 10
-8.174057507830897
 20
-8.842206745862647
 30
0.0
 10
-4.314868157278385
 20
-9.385089854306312
 30
0.0
 10
-0.4556692403840206
 20
-9.927904937602886
 30
0.0
  0
SPLINE
  5
B2
330
1F
100
AcDbEntity
  8
SK1
  6
Continuous
100
AcDbSpline
210
0.0
220
0.0
230
1.0
 70
     8
 71
     3
 72
    10
 73
     6
 74
     0
 42
0.0000000141861471
 43
0.0000000001
 12
1.0
 22
0.0
 32
0.0
 13
1.0
 23
0.0
 33
0.0
 40
0.0
 40
0.0
 40
0.0
 40
0.0
 40
0.5
 40
0.5
 40
1.0
 40
1.0
 40
1.0
 40
1.0
 10
-0.4556692403840206
 20
-9.927904937602886
 30
0.0
 10
-0.3416464863252814
 20
-9.943942792109727
 30
0.0
 10
-0.2231962836507836
 20
-9.9081073171434
 30
0.0
 10
-0.0519036720037138
 20
-9.759055449992752
 30
0.0
 10
0.0000000000000035
 20
-9.64616298915192
 30
0.0
 10
0.0000000000000035
 20
-9.531462974585063
 30
0.0
  0
SPLINE
  5
B3
330
1F
100
AcDbEntity
  8
SK1
  6
Continuous
100
AcDbSpline
210
0.0
220
0.0
230
1.0
 70
     8
 71
     3
 72
    10
 73
     6
 74
     0
 42
0.0000000310231735
 43
0.0000000001
 12
1.0
 22
0.0
 32
0.0
 13
1.0
 23
0.0
 33
0.0
 40
0.0
 40
0.0
 40
0.0
 40
0.0
 40
0.5
 40
0.5
 40
1.0
 40
1.0
 40
1.0
 40
1.0
 10
0.0
 20
8.891006791928675
 30
0.0
 10
-0.0000000000000035
 20
8.83882784617201
 30
0.0
 10
0.0211908836106438
 20
8.78691483201786
 30
0.0
 10
0.09578518202818
 20
8.71214684303891
 30
0.0
 10
0.147150273857059
 20
8.690799832820822
 30
0.0
 10
0.2000000000000023
 20
8.690799832821622
 30
0.0
  0
LINE
  5
B4
330
1F
100
AcDbEntity
  8
SK1
  6
Continuous
100
AcDbLine
 10
0.2
 20
8.6907998328
 30
0.0
 11
1.6973427826
 21
8.6907998328
 31
0.0
  0
LINE
  5
B5
330
1F
100
AcDbEntity
  8
SK1
  6
Continuous
100
AcDbLine
 10
1.6973427826
 20
-8.6907996333
 30
0.0
 11
0.2
 21
-8.6907996333
 31
0.0
  0
SPLINE
  5
B6
330
1F
100
AcDbEntity
  8
SK1
  6
Continuous
100
AcDbSpline
210
0.0
220
0.0
230
1.0
 70
     8
 71
     3
 72
    10
 73
     6
 74
     0
 42
0.0000000310310407
 43
0.0000000001
 12
1.0
 22
0.0
 32
0.0
 13
1.0
 23
0.0
 33
0.0
 40
0.0
 40
0.0
 40
0.0
 40
0.0
 40
0.5
 40
0.5
 40
1.0
 40
1.0
 40
1.0
 40
1.0
 10
0.2000000000000023
 20
-8.690799633280458
 30
0.0
 10
0.14711113545012
 20
-8.690799633280458
 30
0.0
 10
0.0953825998800673
 20
-8.712552819885284
 30
0.0
 10
0.021603620983409
 20
-8.786498277584043
 30
0.0
 10
-0.0000000000000035
 20
-8.838782930428613
 30
0.0
 10
0.0
 20
-8.891006592387514
 30
0.0
  0
LINE
  5
B7
330
1F
100
AcDbEntity
  8
SK3
100
AcDbLine
 10
-14.1
 20
-2.5698483812
 30
0.0
 11
-10.2861450361
 21
-2.5698483812
 31
0.0
  0
LINE
  5
B8
330
1F
100
AcDbEntity
  8
SK3
100
AcDbLine
 10
-10.2861450361
 20
2.5698485808
 30
0.0
 11
-14.1
 21
2.5698485808
 31
0.0
  0
LINE
  5
B9
330
1F
100
AcDbEntity
  8
SK1
  6
Continuous
100
AcDbLine
 10
7.6
 20
-7.7343810408
 30
0.0
 11
7.6
 21
-5.7445571616
 31
0.0
  0
LINE
  5
BA
330
1F
100
AcDbEntity
  8
SK1
  6
Continuous
100
AcDbLine
 10
7.475
 20
-5.3321643963
 30
0.0
 11
7.475
 21
5.3321645958
 31
0.0
  0
SPLINE
  5
BB
330
1F
100
AcDbEntity
  8
SK1
  6
Continuous
100
AcDbSpline
210
0.0
220
0.0
230
1.0
 70
     8
 71
     3
 72
    10
 73
     6
 74
     0
 42
0.0000000469791461
 43
0.0000000001
 12
1.0
 22
0.0
 32
0.0
 13
1.0
 23
0.0
 33
0.0
 40
0.0
 40
0.0
 40
0.0
 40
0.0
 40
0.5
 40
0.5
 40
1.0
 40
1.0
 40
1.0
 40
1.0
 10
7.474999999999997
 20
-5.897849821208022
 30
0.0
 10
7.512989614356012
 20
-5.882320962023154
 30
0.0
 10
7.544632236047649
 20
-5.85993323301475
 30
0.0
 10
7.588566126535204
 20
-5.805963017256602
 30
0.0
 10
7.600000000001258
 20
-5.775269951070637
 30
0.0
 10
7.600000000042209
 20
-5.744557161627833
 30
0.0
  0
LINE
  5
BC
330
1F
100
AcDbEntity
  8
SK1
  6
Continuous
100
AcDbLine
 10
2.8
 20
-6.9325053267
 30
0.0
 11
2.8
 21
6.9325055263
 31
0.0
  0
LINE
  5
BD
330
1F
100
AcDbEntity
  8
SK1
  6
Continuous
100
AcDbLine
 10
3.1794228634
 20
-7.0875205278
 30
0.0
 11
3.1794228634
 21
7.0875207274
 31
0.0
  0
LINE
  5
BE
330
1F
100
AcDbEntity
  8
SK3
100
AcDbLine
 10
-10.4886751346
 20
-1.2828040189
 30
0.0
 11
-10.4886751346
 21
-0.9137411578
 31
0.0
  0
LINE
  5
BF
330
1F
100
AcDbEntity
  8
SK1
  6
Continuous
100
AcDbLine
 10
2.6
 20
-5.8624806129
 30
0.0
 11
2.6
 21
5.8624808125
 31
0.0
  0
LINE
  5
C0
330
1F
100
AcDbEntity
  8
SK1
  6
Continuous
100
AcDbLine
 10
7.6
 20
5.7445573612
 30
0.0
 11
7.6
 21
7.7343812404
 31
0.0
  0
LINE
  5
C1
330
1F
100
AcDbEntity
  8
SK1
  6
Continuous
100
AcDbLine
 10
-0.4556692404
 20
-6.7372461627
 30
0.0
 11
-0.4556692404
 21
-0.3999999002
 31
0.0
  0
LINE
  5
C2
330
1F
100
AcDbEntity
  8
SK1
  6
Continuous
100
AcDbLine
 10
0.0
 20
-6.4569193623
 30
0.0
 11
0.0
 21
-0.3999999002
 31
0.0
  0
LINE
  5
C3
330
1F
100
AcDbEntity
  8
SK3
100
AcDbLine
 10
-14.1
 20
-2.8865419861
 30
0.0
 11
-14.1
 21
-0.3999999002
 31
0.0
  0
LINE
  5
C4
330
1F
100
AcDbEntity
  8
SK3
100
AcDbLine
 10
-10.2
 20
-1.6410204885
 30
0.0
 11
-10.2
 21
-0.3999999002
 31
0.0
  0
LINE
  5
C5
330
1F
100
AcDbEntity
  8
SK3
100
AcDbLine
 10
-6.2
 20
-1.6410204885
 30
0.0
 11
-6.2
 21
-0.3999999002
 31
0.0
  0
LINE
  5
C6
330
1F
100
AcDbEntity
  8
SK1
  6
Continuous
100
AcDbLine
 10
0.2
 20
-6.4281660379
 30
0.0
 11
0.2
 21
-8.6907996333
 31
0.0
  0
SPLINE
  5
C7
330
1F
100
AcDbEntity
  8
SK3
100
AcDbSpline
210
0.0
220
0.0
230
1.0
 70
     8
 71
     3
 72
    38
 73
    34
 74
     0
 42
0.0000000092152628
 43
0.0000000001
 12
1.0
 22
0.0
 32
0.0
 13
1.0
 23
0.0
 33
0.0
 40
0.0
 40
0.0
 40
0.0
 40
0.0
 40
0.035382910352239
 40
0.035382910352239
 40
0.035382910352239
 40
0.1430612113274037
 40
0.1430612113274037
 40
0.1430612113274037
 40
0.2501966873617041
 40
0.2501966873617041
 40
0.2501966873617041
 40
0.3573299727738166
 40
0.3573299727738166
 40
0.3573299727738166
 40
0.4646516514690131
 40
0.4646516514690131
 40
0.4646516514690131
 40
0.499618345071784
 40
0.499618345071784
 40
0.499618345071784
 40
0.6069898514382622
 40
0.6069898514382622
 40
0.6069898514382622
 40
0.7143611845705056
 40
0.7143611845705056
 40
0.7143611845705056
 40
0.8217259935198974
 40
0.8217259935198974
 40
0.8217259935198974
 40
0.9289403147072749
 40
0.9289403147072749
 40
0.9289403147072749
 40
1.0
 40
1.0
 40
1.0
 40
1.0
 10
-21.72254626841401
 20
-2.886541986102896
 30
0.0
 10
-21.73739285848331
 20
-2.886541986103065
 30
0.0
 10
-21.75226243750441
 20
-2.887177446673077
 30
0.0
 10
-21.76701703498534
 20
-2.888442817392263
 30
0.0
 10
-21.81162978549926
 20
-2.892268856582805
 30
0.0
 10
-21.85599995792914
 20
-2.902084258050099
 30
0.0
 10
-21.89641361499343
 20
-2.916965440806925
 30
0.0
 10
-21.93662947721313
 20
-2.931773791223289
 30
0.0
 10
-21.9740384364728
 20
-2.951996316039544
 30
0.0
 10
-22.00555548550455
 20
-2.975743875970974
 30
0.0
 10
-22.03707297046729
 20
-2.999491764368972
 30
0.0
 10
-22.06356867913479
 20
-3.027406518761482
 30
0.0
 10
-22.0828777586468
 20
-3.056967746553655
 30
0.0
 10
-22.10221997896716
 20
-3.086579711253541
 30
0.0
 10
-22.11488461309781
 20
-3.118651499422347
 30
0.0
 10
-22.11983635169198
 20
-3.15040809733487
 30
0.0
 10
-22.12147038393196
 20
-3.160887508522368
 30
0.0
 10
-22.12229481582111
 20
-3.171396947382391
 30
0.0
 10
-22.12230217096991
 20
-3.181838991069962
 30
0.0
 10
-22.12232446983141
 20
-3.213496499617478
 30
0.0
 10
-22.11464864870142
 20
-3.24509496476993
 30
0.0
 10
-22.0999027828398
 20
-3.274093513130135
 30
0.0
 10
-22.08515694290676
 20
-3.303092010500368
 30
0.0
 10
-22.06293344022119
 20
-3.330297641164983
 30
0.0
 10
-22.035052667247
 20
-3.353652718545131
 30
0.0
 10
-22.00717430256953
 20
-3.377005778550926
 30
0.0
 10
-21.97286687410563
 20
-3.397164417046073
 30
0.0
 10
-21.93496152065907
 20
-3.412686042202574
 30
0.0
 10
-21.89710870423096
 20
-3.428186154305291
 30
0.0
 10
-21.85462224369418
 20
-3.439499401552836
 30
0.0
 10
-21.81102840959535
 20
-3.4458626533196
 30
0.0
 10
-21.78208603341542
 20
-3.45008727889265
 30
0.0
 10
-21.75222470159219
 20
-3.452227411052334
 30
0.0
 10
-21.72254626841401
 20
-3.452227411052134
 30
0.0
  0
SPLINE
  5
C8
330
1F
100
AcDbEntity
  8
SK1
  6
Continuous
100
AcDbSpline
210
0.0
220
0.0
230
1.0
 70
     8
 71
     3
 72
    38
 73
    34
 74
     0
 42
0.0000000090872963
 43
0.0000000001
 12
1.0
 22
0.0
 32
0.0
 13
1.0
 23
0.0
 33
0.0
 40
0.0
 40
0.0
 40
0.0
 40
0.0
 40
0.0277678947951048
 40
0.0277678947951048
 40
0.0277678947951048
 40
0.141027809677437
 40
0.141027809677437
 40
0.141027809677437
 40
0.2522431483975406
 40
0.2522431483975406
 40
0.2522431483975406
 40
0.3604647865491323
 40
0.3604647865491323
 40
0.3604647865491323
 40
0.466226296202914
 40
0.466226296202914
 40
0.466226296202914
 40
0.5000795511562125
 40
0.5000795511562125
 40
0.5000795511562125
 40
0.6044461896755876
 40
0.6044461896755876
 40
0.6044461896755876
 40
0.7087698068990675
 40
0.7087698068990675
 40
0.7087698068990675
 40
0.8137775638822645
 40
0.8137775638822645
 40
0.8137775638822645
 40
0.9207089614026467
 40
0.9207089614026467
 40
0.9207089614026467
 40
1.0
 40
1.0
 40
1.0
 40
1.0
 10
-21.49235111132024
 20
-5.209945256030092
 30
0.0
 10
-21.50405370932046
 20
-5.208780367884507
 30
0.0
 10
-21.51577042287074
 20
-5.207286243392232
 30
0.0
 10
-21.52744007422586
 20
-5.205469066267373
 30
0.0
 10
-21.57463389702025
 20
-5.198120129044921
 30
0.0
 10
-21.62190148179541
 20
-5.185217148471107
 30
0.0
 10
-21.66511485591433
 20
-5.167658495206082
 30
0.0
 10
-21.70754810177628
 20
-5.150416827176429
 30
0.0
 10
-21.74727795064591
 20
-5.128174991560278
 30
0.0
 10
-21.78068951091342
 20
-5.102615556645479
 30
0.0
 10
-21.81321354467297
 20
-5.077735068653047
 30
0.0
 10
-21.84067025982534
 20
-5.048991148977592
 30
0.0
 10
-21.86055014655571
 20
-5.018678626767036
 30
0.0
 10
-21.87998636221068
 20
-4.989042606868086
 30
0.0
 10
-21.89272661338492
 20
-4.957068497559415
 30
0.0
 10
-21.89762433470783
 20
-4.925386745360506
 30
0.0
 10
-21.89921285617686
 20
-4.915111121202583
 30
0.0
 10
-21.90000730587559
 20
-4.904804791280056
 30
0.0
 10
-21.89999994921711
 20
-4.894561731930547
 30
0.0
 10
-21.89997755878302
 20
-4.863386362608029
 30
0.0
 10
-21.89233356108141
 20
-4.83222697991763
 30
0.0
 10
-21.87774152187088
 20
-4.803716701374269
 30
0.0
 10
-21.86315281038342
 20
-4.775212924616593
 30
0.0
 10
-21.84122700868152
 20
-4.748581270936065
 30
0.0
 10
-21.8138572182136
 20
-4.726074554273356
 30
0.0
 10
-21.78630355909539
 20
-4.703416638805525
 30
0.0
 10
-21.7525016803204
 20
-4.68433175782043
 30
0.0
 10
-21.71527876136143
 20
-4.67038428600279
 30
0.0
 10
-21.67737526198354
 20
-4.656181799896161
 30
0.0
 10
-21.63492442510114
 20
-4.64692499926004
 30
0.0
 10
-21.5913610308043
 20
-4.643306637690613
 30
0.0
 10
-21.55903251856077
 20
-4.640621441824063
 30
0.0
 10
-21.52555780758959
 20
-4.640954403787044
 30
0.0
 10
-21.49235111132024
 20
-4.644259831080854
 30
0.0
  0
SPLINE
  5
C9
330
1F
100
AcDbEntity
  8
SK1
  6
Continuous
100
AcDbSpline
210
0.0
220
0.0
230
1.0
 70
     8
 71
     3
 72
    14
 73
    10
 74
     0
 42
0.0000000004730247
 43
0.0000000001
 12
1.0
 22
0.0
 32
0.0
 13
1.0
 23
0.0
 33
0.0
 40
0.0
 40
0.0
 40
0.0
 40
0.0
 40
0.1123756873659621
 40
0.1123756873659621
 40
0.1123756873659621
 40
0.716635244163524
 40
0.716635244163524
 40
0.716635244163524
 40
1.0
 40
1.0
 40
1.0
 40
1.0
 10
-21.49235111132024
 20
-5.209945256030092
 30
0.0
 10
-20.70435474750317
 20
-5.288383191176305
 30
0.0
 10
-19.9163571851575
 20
-5.36681510622225
 30
0.0
 10
-19.12835858123836
 20
-5.445241788385912
 30
0.0
 10
-14.8911815016822
 20
-5.866952865584225
 30
0.0
 10
-10.65397540502332
 20
-6.288518171421184
 30
0.0
 10
-6.416754617124839
 20
-6.710009608689226
 30
0.0
 10
-4.429729305892393
 20
-6.907666090671776
 30
0.0
 10
-2.442700580911063
 20
-7.105305414009952
 30
0.0
 10
-0.4556692403840206
 20
-7.302931587606903
 30
0.0
  0
SPLINE
  5
CA
330
1F
100
AcDbEntity
  8
SK1
  6
Continuous
100
AcDbSpline
210
0.0
220
0.0
230
1.0
 70
     8
 71
     3
 72
    10
 73
     6
 74
     0
 42
0.0000000163102613
 43
0.0000000001
 12
1.0
 22
0.0
 32
0.0
 13
1.0
 23
0.0
 33
0.0
 40
0.0
 40
0.0
 40
0.0
 40
0.0
 40
0.5
 40
0.5
 40
1.0
 40
1.0
 40
1.0
 40
1.0
 10
-0.4556692403840206
 20
-7.302931587606903
 30
0.0
 10
-0.3433128680686579
 20
-7.31410632828011
 30
0.0
 10
-0.2228138299080716
 20
-7.288788391299546
 30
0.0
 10
-0.051768091611646
 20
-7.183362114038603
 30
0.0
 10
0.0000000000000035
 20
-7.103968923286923
 30
0.0
 10
0.0000000000000035
 20
-7.022604787210089
 30
0.0
  0
SPLINE
  5
CB
330
1F
100
AcDbEntity
  8
SK3
100
AcDbSpline
210
0.0
220
0.0
230
1.0
 70
     8
 71
     3
 72
    10
 73
     6
 74
     0
 42
0.0000000179778786
 43
0.0000000001
 12
1.0
 22
0.0
 32
0.0
 13
1.0
 23
0.0
 33
0.0
 40
0.0
 40
0.0
 40
0.0
 40
0.0
 40
0.5
 40
0.5
 40
1.0
 40
1.0
 40
1.0
 40
1.0
 10
7.599999999999999
 20
-2.288861680410025
 30
0.0
 10
7.600000000000002
 20
-2.213794156628231
 30
0.0
 10
7.557059333731592
 20
-2.140023200420263
 30
0.0
 10
7.409906122236989
 20
-2.034221129809378
 30
0.0
 10
7.306179842987679
 20
-2.002759035092015
 30
0.0
 10
7.199999999999802
 20
-2.002759035092121
 30
0.0
  0
LINE
  5
CC
330
1F
100
AcDbEntity
  8
SK3
100
AcDbLine
 10
7.2
 20
-2.0027590351
 30
0.0
 11
-6.2
 21
-2.0027590351
 31
0.0
  0
LINE
  5
CD
330
1F
100
AcDbEntity
  8
SK3
100
AcDbLine
 10
-6.2
 20
-2.0027590351
 30
0.0
 11
-6.2
 21
-2.2067059135
 31
0.0
  0
LINE
  5
CE
330
1F
100
AcDbEntity
  8
SK3
100
AcDbLine
 10
-6.2
 20
-2.2067059135
 30
0.0
 11
-10.2
 21
-2.2067059135
 31
0.0
  0
LINE
  5
CF
330
1F
100
AcDbEntity
  8
SK3
100
AcDbLine
 10
-10.2
 20
-2.2067059135
 30
0.0
 11
-10.4886751346
 21
-1.8484894439
 31
0.0
  0
LINE
  5
D0
330
1F
100
AcDbEntity
  8
SK3
100
AcDbLine
 10
-10.4886751346
 20
-1.8484894439
 30
0.0
 11
-14.1
 21
-1.8484894439
 31
0.0
  0
LINE
  5
D1
330
1F
100
AcDbEntity
  8
SK3
100
AcDbLine
 10
-14.1
 20
-2.8865419861
 30
0.0
 11
-14.1
 21
-3.4522274111
 31
0.0
  0
LINE
  5
D2
330
1F
100
AcDbEntity
  8
SK3
100
AcDbLine
 10
-14.1
 20
-3.4522274111
 30
0.0
 11
-21.7225462684
 21
-3.4522274111
 31
0.0
  0
LINE
  5
D3
330
1F
100
AcDbEntity
  8
SK1
  6
Continuous
100
AcDbLine
 10
7.6
 20
-5.1788717367
 30
0.0
 11
7.6
 21
-5.7445571616
 31
0.0
  0
SPLINE
  5
D4
330
1F
100
AcDbEntity
  8
SK1
  6
Continuous
100
AcDbSpline
210
0.0
220
0.0
230
1.0
 70
     8
 71
     3
 72
    11
 73
     7
 74
     0
 42
0.0000000021549893
 43
0.0000000001
 12
1.0
 22
0.0
 32
0.0
 13
1.0
 23
0.0
 33
0.0
 40
0.0
 40
0.0
 40
0.0
 40
0.0
 40
0.6687249745603274
 40
0.6687249745603274
 40
0.6687249745603274
 40
1.0
 40
1.0
 40
1.0
 40
1.0
 10
7.474999999999997
 20
-5.897849821208022
 30
0.0
 10
6.51755239621697
 20
-6.289221759777905
 30
0.0
 10
5.560043227284919
 20
-6.68051839460653
 30
0.0
 10
4.602499727443192
 20
-7.071773010234646
 30
0.0
 10
4.128148888802628
 20
-7.265593922888605
 30
0.0
 10
3.653789293743557
 20
-7.459404120693696
 30
0.0
 10
3.179422863405994
 20
-7.653205952795238
 30
0.0
  0
LINE
  5
D5
330
1F
100
AcDbEntity
  8
SK1
  6
Continuous
100
AcDbLine
 10
3.1794228634
 20
-7.6532059528
 30
0.0
 11
2.8
 21
-7.4981907517
 31
0.0
  0
LINE
  5
D6
330
1F
100
AcDbEntity
  8
SK1
  6
Continuous
100
AcDbLine
 10
2.8
 20
-7.4981907517
 30
0.0
 11
2.8
 21
-6.9325053267
 31
0.0
  0
SPLINE
  5
D7
330
1F
100
AcDbEntity
  8
SK1
  6
Continuous
100
AcDbSpline
210
0.0
220
0.0
230
1.0
 70
     8
 71
     3
 72
    10
 73
     6
 74
     0
 42
0.0000000360920709
 43
0.0000000001
 12
1.0
 22
0.0
 32
0.0
 13
1.0
 23
0.0
 33
0.0
 40
0.0
 40
0.0
 40
0.0
 40
0.0
 40
0.5
 40
0.5
 40
1.0
 40
1.0
 40
1.0
 40
1.0
 10
2.8
 20
-6.569733736303998
 30
0.0
 10
2.800000000000002
 20
-6.532531211769851
 30
0.0
 10
2.778429845123125
 20
-6.495836620640887
 30
0.0
 10
2.704463532564426
 20
-6.443461148755563
 30
0.0
 10
2.65254353430595
 20
-6.428166037878663
 30
0.0
 10
2.600000000000001
 20
-6.428166037878664
 30
0.0
  0
LINE
  5
D8
330
1F
100
AcDbEntity
  8
SK1
  6
Continuous
100
AcDbLine
 10
2.6
 20
-6.4281660379
 30
0.0
 11
0.2
 21
-6.4281660379
 31
0.0
  0
SPLINE
  5
D9
330
1F
100
AcDbEntity
  8
SK1
  6
Continuous
100
AcDbSpline
210
0.0
220
0.0
230
1.0
 70
     8
 71
     3
 72
    10
 73
     6
 74
     0
 42
0.0000000360942195
 43
0.0000000001
 12
1.0
 22
0.0
 32
0.0
 13
1.0
 23
0.0
 33
0.0
 40
0.0
 40
0.0
 40
0.0
 40
0.0
 40
0.5
 40
0.5
 40
1.0
 40
1.0
 40
1.0
 40
1.0
 10
0.2000000000000023
 20
-6.428166037878663
 30
0.0
 10
0.1472873428742094
 20
-6.428166037878661
 30
0.0
 10
0.0954883391972132
 20
-6.443521759810807
 30
0.0
 10
0.0217619733438087
 20
-6.495674314350386
 30
0.0
 10
0.0000000000000017
 20
-6.532526408652137
 30
0.0
 10
0.0000000000000017
 20
-6.569733736304
 30
0.0
  0
LINE
  5
DA
330
1F
100
AcDbEntity
  8
SK1
  6
Continuous
100
AcDbLine
 10
0.0
 20
-6.5697337363
 30
0.0
 11
0.0
 21
-7.0226047872
 31
0.0
  0
ELLIPSE
  5
DB
330
1F
100
AcDbEntity
  8
SK1
  6
Continuous
100
AcDbEllipse
 10
40.2154871811
 20
-0.2828426195
 30
0.0
 11
-62.0999998998711
 21
1.344047991528334E-8
 31
0.0
210
0.0
220
0.0
230
1.0
 40
0.7071067817
 41
0.0994869480718415
 42
0.1124425143257251
  0
SPLINE
  5
DC
330
1F
100
AcDbEntity
  8
SK1
  6
Continuous
100
AcDbSpline
210
0.0
220
0.0
230
1.0
 70
     8
 71
     3
 72
    11
 73
     7
 74
     0
 42
0.0000000021549893
 43
0.0000000001
 12
1.0
 22
0.0
 32
0.0
 13
1.0
 23
0.0
 33
0.0
 40
0.0
 40
0.0
 40
0.0
 40
0.0
 40
0.6687249745603274
 40
0.6687249745603274
 40
0.6687249745603274
 40
1.0
 40
1.0
 40
1.0
 40
1.0
 10
7.474999999999997
 20
-5.332164396258785
 30
0.0
 10
6.51755239621697
 20
-5.723536334828666
 30
0.0
 10
5.560043227284921
 20
-6.114832969657291
 30
0.0
 10
4.602499727443194
 20
-6.506087585285408
 30
0.0
 10
4.12814888880263
 20
-6.699908497939366
 30
0.0
 10
3.653789293743558
 20
-6.893718695744457
 30
0.0
 10
3.179422863405994
 20
-7.087520527846001
 30
0.0
  0
LINE
  5
DD
330
1F
100
AcDbEntity
  8
SK1
  6
Continuous
100
AcDbLine
 10
3.1794228634
 20
-7.0875205278
 30
0.0
 11
2.8
 21
-6.9325053267
 31
0.0
  0
SPLINE
  5
DE
330
1F
100
AcDbEntity
  8
SK1
  6
Continuous
100
AcDbSpline
210
0.0
220
0.0
230
1.0
 70
     8
 71
     3
 72
    10
 73
     6
 74
     0
 42
0.0000000360920709
 43
0.0000000001
 12
1.0
 22
0.0
 32
0.0
 13
1.0
 23
0.0
 33
0.0
 40
0.0
 40
0.0
 40
0.0
 40
0.0
 40
0.5
 40
0.5
 40
1.0
 40
1.0
 40
1.0
 40
1.0
 10
2.800000000000002
 20
-6.004048311354761
 30
0.0
 10
2.800000000000002
 20
-5.966845786820613
 30
0.0
 10
2.778429845123125
 20
-5.930151195691648
 30
0.0
 10
2.704463532564426
 20
-5.877775723806324
 30
0.0
 10
2.65254353430595
 20
-5.862480612929424
 30
0.0
 10
2.600000000000001
 20
-5.862480612929424
 30
0.0
  0
LINE
  5
DF
330
1F
100
AcDbEntity
  8
SK1
  6
Continuous
100
AcDbLine
 10
2.6
 20
-5.8624806129
 30
0.0
 11
0.2
 21
-5.8624806129
 31
0.0
  0
SPLINE
  5
E0
330
1F
100
AcDbEntity
  8
SK1
  6
Continuous
100
AcDbSpline
210
0.0
220
0.0
230
1.0
 70
     8
 71
     3
 72
    10
 73
     6
 74
     0
 42
0.0000000360942195
 43
0.0000000001
 12
1.0
 22
0.0
 32
0.0
 13
1.0
 23
0.0
 33
0.0
 40
0.0
 40
0.0
 40
0.0
 40
0.0
 40
0.5
 40
0.5
 40
1.0
 40
1.0
 40
1.0
 40
1.0
 10
0.2000000000000023
 20
-5.862480612929426
 30
0.0
 10
0.1472873428742094
 20
-5.862480612929422
 30
0.0
 10
0.0954883391972115
 20
-5.877836334861569
 30
0.0
 10
0.0217619733438104
 20
-5.92998888940115
 30
0.0
 10
0.0000000000000017
 20
-5.9668409837029
 30
0.0
 10
0.0
 20
-6.004048311354761
 30
0.0
  0
LINE
  5
E1
330
1F
100
AcDbEntity
  8
SK3
100
AcDbLine
 10
-14.1
 20
-2.8865419861
 30
0.0
 11
-21.7225462684
 21
-2.8865419861
 31
0.0
  0
SPLINE
  5
E2
330
1F
100
AcDbEntity
  8
SK1
  6
Continuous
100
AcDbSpline
210
0.0
220
0.0
230
1.0
 70
     8
 71
     3
 72
    14
 73
    10
 74
     0
 42
0.0000000004730247
 43
0.0000000001
 12
1.0
 22
0.0
 32
0.0
 13
1.0
 23
0.0
 33
0.0
 40
0.0
 40
0.0
 40
0.0
 40
0.0
 40
0.1123756873659621
 40
0.1123756873659621
 40
0.1123756873659621
 40
0.716635244163524
 40
0.716635244163524
 40
0.716635244163524
 40
1.0
 40
1.0
 40
1.0
 40
1.0
 10
-21.49235111132024
 20
-4.644259831080854
 30
0.0
 10
-20.70435474750317
 20
-4.722697766227066
 30
0.0
 10
-19.9163571851575
 20
-4.801129681273012
 30
0.0
 10
-19.12835858123836
 20
-4.879556363436675
 30
0.0
 10
-14.8911815016822
 20
-5.301267440634987
 30
0.0
 10
-10.65397540502332
 20
-5.722832746471946
 30
0.0
 10
-6.416754617124839
 20
-6.144324183739986
 30
0.0
 10
-4.429729305892393
 20
-6.341980665722538
 30
0.0
 10
-2.442700580911063
 20
-6.539619989060713
 30
0.0
 10
-0.4556692403840206
 20
-6.737246162657661
 30
0.0
  0
SPLINE
  5
E3
330
1F
100
AcDbEntity
  8
SK1
  6
Continuous
100
AcDbSpline
210
0.0
220
0.0
230
1.0
 70
     8
 71
     3
 72
    10
 73
     6
 74
     0
 42
0.0000000163102613
 43
0.0000000001
 12
1.0
 22
0.0
 32
0.0
 13
1.0
 23
0.0
 33
0.0
 40
0.0
 40
0.0
 40
0.0
 40
0.0
 40
0.5
 40
0.5
 40
1.0
 40
1.0
 40
1.0
 40
1.0
 10
-0.4556692403840206
 20
-6.737246162657661
 30
0.0
 10
-0.3433128680686579
 20
-6.748420903330872
 30
0.0
 10
-0.2228138299080716
 20
-6.723102966350308
 30
0.0
 10
-0.051768091611646
 20
-6.617676689089366
 30
0.0
 10
0.0000000000000035
 20
-6.538283498337686
 30
0.0
 10
0.0000000000000035
 20
-6.456919362260852
 30
0.0
  0
SPLINE
  5
E4
330
1F
100
AcDbEntity
  8
SK1
  6
Continuous
100
AcDbSpline
210
0.0
220
0.0
230
1.0
 70
     8
 71
     3
 72
    10
 73
     6
 74
     0
 42
0.0000000469791461
 43
0.0000000001
 12
1.0
 22
0.0
 32
0.0
 13
1.0
 23
0.0
 33
0.0
 40
0.0
 40
0.0
 40
0.0
 40
0.0
 40
0.5
 40
0.5
 40
1.0
 40
1.0
 40
1.0
 40
1.0
 10
7.474999999999997
 20
-5.332164396258785
 30
0.0
 10
7.512989614356012
 20
-5.316635537073916
 30
0.0
 10
7.544632236047649
 20
-5.294247808065513
 30
0.0
 10
7.588566126535204
 20
-5.240277592307363
 30
0.0
 10
7.600000000001258
 20
-5.209584526121398
 30
0.0
 10
7.600000000042209
 20
-5.178871736678595
 30
0.0
  0
SPLINE
  5
E5
330
1F
100
AcDbEntity
  8
SK3
100
AcDbSpline
210
0.0
220
0.0
230
1.0
 70
     8
 71
     3
 72
    10
 73
     6
 74
     0
 42
0.0000000179778786
 43
0.0000000001
 12
1.0
 22
0.0
 32
0.0
 13
1.0
 23
0.0
 33
0.0
 40
0.0
 40
0.0
 40
0.0
 40
0.0
 40
0.5
 40
0.5
 40
1.0
 40
1.0
 40
1.0
 40
1.0
 10
7.599999999999999
 20
-1.723176255460787
 30
0.0
 10
7.600000000000002
 20
-1.648108731678993
 30
0.0
 10
7.557059333731592
 20
-1.574337775471025
 30
0.0
 10
7.409906122236989
 20
-1.468535704860139
 30
0.0
 10
7.306179842987681
 20
-1.437073610142777
 30
0.0
 10
7.199999999999802
 20
-1.437073610142883
 30
0.0
  0
LINE
  5
E6
330
1F
100
AcDbEntity
  8
SK3
100
AcDbLine
 10
7.2
 20
-1.4370736101
 30
0.0
 11
-6.2
 21
-1.4370736101
 31
0.0
  0
LINE
  5
E7
330
1F
100
AcDbEntity
  8
SK3
100
AcDbLine
 10
-6.2
 20
-1.6410204885
 30
0.0
 11
-10.2
 21
-1.6410204885
 31
0.0
  0
LINE
  5
E8
330
1F
100
AcDbEntity
  8
SK3
100
AcDbLine
 10
-10.2
 20
-1.6410204885
 30
0.0
 11
-10.4886751346
 21
-1.2828040189
 31
0.0
  0
LINE
  5
E9
330
1F
100
AcDbEntity
  8
SK3
100
AcDbLine
 10
-10.4886751346
 20
-1.2828040189
 30
0.0
 11
-14.1
 21
-1.2828040189
 31
0.0
  0
LINE
  5
EA
330
1F
100
AcDbEntity
  8
SK3
100
AcDbLine
 10
-23.6
 20
-0.3999999002
 30
0.0
 11
-23.618325547
 21
-0.3999999002
 31
0.0
  0
LINE
  5
EB
330
1F
100
AcDbEntity
  8
SK1
  6
Continuous
100
AcDbLine
 10
-23.6417519303
 20
-0.3999999002
 30
0.0
 11
-23.6417519303
 21
-6.665376815
 31
0.0
  0
LINE
  5
EC
330
1F
100
AcDbEntity
  8
SK1
  6
Continuous
100
AcDbLine
 10
-23.9
 20
0.4000000998
 30
0.0
 11
-23.9
 21
6.3677371654
 31
0.0
  0
LINE
  5
ED
330
1F
100
AcDbEntity
  8
SK1
  6
Continuous
100
AcDbLine
 10
-0.4556692404
 20
0.4000000998
 30
0.0
 11
-0.4556692404
 21
6.7372463622
 31
0.0
  0
LINE
  5
EE
330
1F
100
AcDbEntity
  8
SK3
100
AcDbLine
 10
-14.1
 20
0.4000000998
 30
0.0
 11
-14.1
 21
2.8865421856
 31
0.0
  0
LINE
  5
EF
330
1F
100
AcDbEntity
  8
SK1
  6
Continuous
100
AcDbLine
 10
0.0
 20
0.4000000998
 30
0.0
 11
0.0
 21
6.4569195618
 31
0.0
  0
LINE
  5
F0
330
1F
100
AcDbEntity
  8
SK3
100
AcDbLine
 10
-10.2
 20
0.4000000998
 30
0.0
 11
-10.2
 21
1.6410206881
 31
0.0
  0
LINE
  5
F1
330
1F
100
AcDbEntity
  8
SK3
100
AcDbLine
 10
-6.2
 20
0.4000000998
 30
0.0
 11
-6.2
 21
1.6410206881
 31
0.0
  0
LINE
  5
F2
330
1F
100
AcDbEntity
  8
SK1
  6
Continuous
100
AcDbLine
 10
0.2
 20
-0.3999999002
 30
0.0
 11
0.2
 21
-5.8624806129
 31
0.0
  0
ARC
  5
F3
330
1F
100
AcDbEntity
  8
SK1
  6
Continuous
100
AcDbCircle
 10
1.6999491009
 20
0.0000000998
 30
0.0
 40
0.4000084910287041
100
AcDbArc
 50
269.6266776871
 51
90.3733223129
  0
LINE
  5
F4
330
1F
100
AcDbEntity
  8
SK3
100
AcDbLine
 10
1.6973427826
 20
-0.3999999002
 30
0.0
 11
2.2608290575
 21
-0.3999999002
 31
0.0
  0
ARC
  5
F5
330
1F
100
AcDbEntity
  8
SK3
100
AcDbCircle
 10
2.2599326893
 20
0.0000000998
 30
0.0
 40
0.4000010043437878
100
AcDbArc
 50
270.1283950791
 51
89.8716049209
  0
LINE
  5
F6
330
1F
100
AcDbEntity
  8
SK1
  6
Continuous
100
AcDbLine
 10
0.0
 20
-0.3999999002
 30
0.0
 11
-0.4556692404
 21
-0.3999999002
 31
0.0
  0
LINE
  5
F7
330
1F
100
AcDbEntity
  8
SK1
  6
Continuous
100
AcDbLine
 10
-0.4556692404
 20
-0.3999999002
 30
0.0
 11
-23.6417519303
 21
-0.3999999002
 31
0.0
  0
LINE
  5
F8
330
1F
100
AcDbEntity
  8
SK1
  6
Continuous
100
AcDbLine
 10
-23.6417519303
 20
-0.3999999002
 30
0.0
 11
-23.9
 21
-0.3999999002
 31
0.0
  0
LINE
  5
F9
330
1F
100
AcDbEntity
  8
SK1
  6
Continuous
100
AcDbLine
 10
0.0
 20
-0.3999999002
 30
0.0
 11
0.2
 21
-0.3999999002
 31
0.0
  0
LINE
  5
FA
330
1F
100
AcDbEntity
  8
SK1
  6
Continuous
100
AcDbLine
 10
0.2
 20
-0.3999999002
 30
0.0
 11
1.6973427826
 21
-0.3999999002
 31
0.0
  0
LINE
  5
FB
330
1F
100
AcDbEntity
  8
SK3
100
AcDbLine
 10
-23.6
 20
0.4000000998
 30
0.0
 11
-23.618325547
 21
0.4000000998
 31
0.0
  0
LINE
  5
FC
330
1F
100
AcDbEntity
  8
SK1
  6
Continuous
100
AcDbLine
 10
0.0
 20
0.4000000998
 30
0.0
 11
0.2
 21
0.4000000998
 31
0.0
  0
LINE
  5
FD
330
1F
100
AcDbEntity
  8
SK1
  6
Continuous
100
AcDbLine
 10
0.2
 20
0.4000000998
 30
0.0
 11
1.6973427826
 21
0.4000000998
 31
0.0
  0
LINE
  5
FE
330
1F
100
AcDbEntity
  8
SK3
100
AcDbLine
 10
1.6973427826
 20
0.4000000998
 30
0.0
 11
2.2608290575
 21
0.4000000998
 31
0.0
  0
LINE
  5
FF
330
1F
100
AcDbEntity
  8
SK1
  6
Continuous
100
AcDbLine
 10
0.0
 20
0.4000000998
 30
0.0
 11
-0.4556692404
 21
0.4000000998
 31
0.0
  0
LINE
  5
100
330
1F
100
AcDbEntity
  8
SK1
  6
Continuous
100
AcDbLine
 10
-0.4556692404
 20
0.4000000998
 30
0.0
 11
-23.6417519303
 21
0.4000000998
 31
0.0
  0
LINE
  5
101
330
1F
100
AcDbEntity
  8
SK1
  6
Continuous
100
AcDbLine
 10
-23.6417519303
 20
0.4000000998
 30
0.0
 11
-23.9
 21
0.4000000998
 31
0.0
  0
LINE
  5
102
330
1F
100
AcDbEntity
  8
SK1
  6
Continuous
100
AcDbLine
 10
2.0954330336
 20
-8.6999999002
 30
0.0
 11
2.6
 21
-8.6999999002
 31
0.0
  0
ARC
  5
103
330
1F
100
AcDbEntity
  8
SK1
  6
Continuous
100
AcDbCircle
 10
2.6
 20
-8.8999999002
 30
0.0
 40
0.2000000000000015
100
AcDbArc
 50
0.0
 51
90.0
  0
LINE
  5
104
330
1F
100
AcDbEntity
  8
SK3
100
AcDbLine
 10
2.6571091538
 20
-2.4649999002
 30
0.0
 11
7.2
 21
-2.4649999002
 31
0.0
  0
LINE
  5
105
330
1F
100
AcDbEntity
  8
SK1
  6
Continuous
100
AcDbLine
 10
3.1794228634
 20
-10.4309400079
 30
0.0
 11
7.475
 21
-7.9508873918
 31
0.0
  0
LINE
  5
106
330
1F
100
AcDbEntity
  8
SK1
  6
Continuous
100
AcDbLine
 10
2.8
 20
-10.2118801156
 30
0.0
 11
3.1794228634
 21
-10.4309400079
 31
0.0
  0
ARC
  5
107
330
1F
100
AcDbEntity
  8
SK3
100
AcDbCircle
 10
7.2
 20
-2.8649999002
 30
0.0
 40
0.4000000000000003
100
AcDbArc
 50
0.0
 51
90.0
  0
ARC
  5
108
330
1F
100
AcDbEntity
  8
SK1
  6
Continuous
100
AcDbCircle
 10
7.35
 20
-7.7343810408
 30
0.0
 40
0.2500000000000012
100
AcDbArc
 50
300.0
 51
0.0
  0
ARC
  5
109
330
1F
100
AcDbEntity
  8
SK3
100
AcDbCircle
 10
8.8714240234
 20
0.0480936714
 30
0.0
 40
31.15278604185153
100
AcDbArc
 50
170.9903958941
 51
174.209837714
  0
ARC
  5
10A
330
1F
100
AcDbEntity
  8
SK3
100
AcDbCircle
 10
-59.7915179972
 20
0.0000000998
 30
0.0
 40
62.50000000000001
100
AcDbArc
 50
2.2597778134
 51
8.0021252577
  0
ARC
  5
10B
330
1F
100
AcDbEntity
  8
SK3
100
AcDbCircle
 10
-59.7915179972
 20
0.0000000998
 30
0.0
 40
62.50000000000001
100
AcDbArc
 50
351.9980190939
 51
357.7399831744
  0
ARC
  5
10C
330
1F
100
AcDbEntity
  8
SK1
  6
Continuous
100
AcDbCircle
 10
7.35
 20
7.7343812404
 30
0.0
 40
0.2500000000000002
100
AcDbArc
 50
0.0
 51
60.0
  0
ARC
  5
10D
330
1F
100
AcDbEntity
  8
SK3
100
AcDbCircle
 10
7.2
 20
2.8650000998
 30
0.0
 40
0.3999999999999993
100
AcDbArc
 50
270.0
 51
0.0
  0
LINE
  5
10E
330
1F
100
AcDbEntity
  8
SK1
  6
Continuous
100
AcDbLine
 10
3.1794228634
 20
10.4309402074
 30
0.0
 11
2.8
 21
10.2118803151
 31
0.0
  0
LINE
  5
10F
330
1F
100
AcDbEntity
  8
SK1
  6
Continuous
100
AcDbLine
 10
7.475
 20
7.9508875913
 30
0.0
 11
3.1794228634
 21
10.4309402074
 31
0.0
  0
ARC
  5
110
330
1F
100
AcDbEntity
  8
SK1
  6
Continuous
100
AcDbCircle
 10
2.6
 20
8.9000000998
 30
0.0
 40
0.1999999999999994
100
AcDbArc
 50
270.0
 51
0.0
  0
LINE
  5
111
330
1F
100
AcDbEntity
  8
SK3
100
AcDbLine
 10
7.2
 20
2.4650000998
 30
0.0
 11
2.6549073615
 21
2.4650000998
 31
0.0
  0
LINE
  5
112
330
1F
100
AcDbEntity
  8
SK1
  6
Continuous
100
AcDbLine
 10
2.6
 20
8.7000000998
 30
0.0
 11
2.0944233701
 21
8.7000000998
 31
0.0
  0
ARC
  5
113
330
1F
100
AcDbEntity
  8
SK3
100
AcDbCircle
 10
8.5892287827
 20
-0.0818608841
 30
0.0
 40
30.86862433254499
100
AcDbArc
 50
185.7806483278
 51
189.0285464492
  0
LINE
  5
115
330
1F
100
AcDbEntity
  8
SK4
  6
Continuous
100
AcDbLine
 10
7.6
 20
0.0000000998
 30
0.0
 11
-23.9
 21
0.0000000998
 31
0.0
  0
DIMENSION
  5
12A
330
1F
100
AcDbEntity
  8
SK2
  6
Continuous
 62
   136
100
AcDbDimension
  2
DMBLK13
 10
18.0878798783
 20
-2.4649999002
 30
0.0
 11
18.0878798783
 21
6.998843058
 31
0.0
 70
   161
  1
\A1;ø <>
 71
     5
 42
-1.0
  3
DIN
100
AcDbAlignedDimension
 13
7.2
 23
-2.4649999002
 33
0.0
 14
7.2
 24
2.4650000998
 34
0.0
  0
DIMENSION
  5
135
330
1F
100
AcDbEntity
  8
SK2
  6
Continuous
 62
   136
100
AcDbDimension
  2
DMBLK14
 10
-23.9
 20
16.304917167
 30
0.0
 11
-8.1500002533
 21
16.304917167
 31
0.0
 70
   160
  1
\A1;<>
 71
     5
 42
-1.0
  3
DIN
100
AcDbAlignedDimension
 13
7.6
 23
5.7445573612
 33
0.0
 14
-23.9
 24
6.3677371654
 34
0.0
100
AcDbRotatedDimension
  0
DIMENSION
  5
13F
330
1F
100
AcDbEntity
  8
SK2
  6
Continuous
 62
   136
100
AcDbDimension
  2
DMBLK15
 10
-29.3025626999
 20
9.9279051371
 30
0.0
 11
-29.3025626999
 21
-0.0000000275
 31
0.0
 70
   161
  1
\A1;ø <>
 71
     5
 42
-1.0
  3
DIN
100
AcDbAlignedDimension
 13
-0.4556692404
 23
9.9279051371
 33
0.0
 14
-0.4556692404
 24
-9.9279049376
 34
0.0
1001
ACAD
1000
DSTYLE
1002
{
1070
   271
1070
     0
1070
   272
1070
     0
1070
     0
1002
}
  0
DIMENSION
  5
14A
330
1F
100
AcDbEntity
  8
SK2
  6
Continuous
 62
   136
100
AcDbDimension
  2
DMBLK16
 10
7.6
 20
-17.6418288049
 30
0.0
 11
-4.1235312819
 21
-17.6418288049
 31
0.0
 70
   160
  1
\A1;<>
 71
     5
 42
-1.0
  3
DIN
100
AcDbAlignedDimension
 13
0.0
 23
-9.5314629746
 33
0.0
 14
7.6
 24
-7.7343810408
 34
0.0
100
AcDbRotatedDimension
  0
ENDSEC
  0
SECTION
  2
OBJECTS
  0
DICTIONARY
  5
C
330
0
100
AcDbDictionary
281
     1
  3
ACAD_GROUP
350
D
  3
ACAD_LAYOUT
350
1A
  3
ACAD_MATERIAL
350
3B
  3
ACAD_MLEADERSTYLE
350
156
  3
ACAD_MLINESTYLE
350
17
  3
ACAD_PLOTSETTINGS
350
19
  3
ACAD_PLOTSTYLENAME
350
E
  3
ACAD_VISUALSTYLE
350
2A
  3
AcDbVariableDictionary
350
154
  0
DICTIONARY
  5
D
102
{ACAD_REACTORS
330
C
102
}
330
C
100
AcDbDictionary
281
     1
  0
DICTIONARY
  5
1A
102
{ACAD_REACTORS
330
C
102
}
330
C
100
AcDbDictionary
281
     1
  3
Layout1
350
1E
  3
Model
350
22
  0
DICTIONARY
  5
3B
102
{ACAD_REACTORS
330
C
102
}
330
C
100
AcDbDictionary
281
     1
  3
ByBlock
350
3D
  3
ByLayer
350
3C
  3
Global
350
3E
  0
DICTIONARY
  5
156
102
{ACAD_REACTORS
330
C
102
}
330
C
100
AcDbDictionary
281
     1
  0
DICTIONARY
  5
17
102
{ACAD_REACTORS
330
C
102
}
330
C
100
AcDbDictionary
281
     1
  3
Standard
350
18
  0
DICTIONARY
  5
19
102
{ACAD_REACTORS
330
C
102
}
330
C
100
AcDbDictionary
281
     1
  0
ACDBDICTIONARYWDFLT
  5
E
102
{ACAD_REACTORS
330
C
102
}
330
C
100
AcDbDictionary
281
     1
  3
Normal
350
F
100
AcDbDictionaryWithDefault
340
F
  0
DICTIONARY
  5
2A
102
{ACAD_REACTORS
330
C
102
}
330
C
100
AcDbDictionary
281
     1
  3
2dWireframe
350
2F
  3
3D Hidden
350
31
  3
3dWireframe
350
30
  3
Basic
350
32
  3
Brighten
350
36
  3
ColorChange
350
3A
  3
Conceptual
350
34
  3
Dim
350
35
  3
Facepattern
350
39
  3
Flat
350
2B
  3
FlatWithEdges
350
2C
  3
Gouraud
350
2D
  3
GouraudWithEdges
350
2E
  3
Linepattern
350
38
  3
Realistic
350
33
  3
Thicken
350
37
  0
DICTIONARY
  5
154
102
{ACAD_REACTORS
330
C
102
}
330
C
100
AcDbDictionary
281
     1
  3
DIMASSOC
350
159
  3
HIDETEXT
350
15A
  3
PSOLHEIGHT
350
158
  3
PSOLWIDTH
350
157
  0
LAYOUT
  5
1E
102
{ACAD_REACTORS
330
1A
102
}
330
1A
100
AcDbPlotSettings
  1

  2
none_device
  4

  6

 40
0.0
 41
0.0
 42
0.0
 43
0.0
 44
0.0
 45
0.0
 46
0.0
 47
0.0
 48
0.0
 49
0.0
140
0.0
141
0.0
142
1.0
143
1.0
 70
   688
 72
     0
 73
     0
 74
     5
  7

 75
    16
147
1.0
148
0.0
149
0.0
100
AcDbLayout
  1
Layout1
 70
     1
 71
     1
 10
0.0
 20
0.0
 11
210.0
 21
297.0
 12
0.0
 22
0.0
 32
0.0
 14
0.0
 24
0.0
 34
0.0
 15
210.0
 25
297.0
 35
0.0
146
0.0
 13
0.0
 23
0.0
 33
0.0
 16
1.0
 26
0.0
 36
0.0
 17
0.0
 27
1.0
 37
0.0
 76
     0
330
1B
  0
LAYOUT
  5
22
102
{ACAD_REACTORS
330
1A
102
}
330
1A
100
AcDbPlotSettings
  1

  2
none_device
  4

  6

 40
0.0
 41
0.0
 42
0.0
 43
0.0
 44
0.0
 45
0.0
 46
0.0
 47
0.0
 48
0.0
 49
0.0
140
0.0
141
0.0
142
1.0
143
1.0
 70
  1712
 72
     0
 73
     0
 74
     0
  7

 75
     0
147
1.0
148
0.0
149
0.0
100
AcDbLayout
  1
Model
 70
     1
 71
     0
 10
0.0
 20
0.0
 11
210.0
 21
297.0
 12
0.0
 22
0.0
 32
0.0
 14
0.0
 24
0.0
 34
0.0
 15
210.0
 25
297.0
 35
0.0
146
0.0
 13
0.0
 23
0.0
 33
0.0
 16
1.0
 26
0.0
 36
0.0
 17
0.0
 27
1.0
 37
0.0
 76
     0
330
1F
331
29
  0
MATERIAL
  5
3D
102
{ACAD_REACTORS
330
3B
102
}
102
{ACAD_XDICTIONARY
360
17D
102
}
330
3B
100
AcDbMaterial
  1
ByBlock
  0
MATERIAL
  5
3C
102
{ACAD_REACTORS
330
3B
102
}
102
{ACAD_XDICTIONARY
360
17B
102
}
330
3B
100
AcDbMaterial
  1
ByLayer
  0
MATERIAL
  5
3E
102
{ACAD_REACTORS
330
3B
102
}
102
{ACAD_XDICTIONARY
360
17F
102
}
330
3B
100
AcDbMaterial
  1
Global
  0
MLINESTYLE
  5
18
102
{ACAD_REACTORS
330
17
102
}
330
17
100
AcDbMlineStyle
  2
Standard
 70
     0
  3

 62
   256
 51
90.0
 52
90.0
 71
     2
 49
0.5
 62
   256
  6
BYLAYER
 49
-0.5
 62
   256
  6
BYLAYER
  0
ACDBPLACEHOLDER
  5
F
102
{ACAD_REACTORS
330
E
102
}
330
E
  0
VISUALSTYLE
  5
2F
102
{ACAD_REACTORS
330
2A
102
}
102
{ACAD_XDICTIONARY
360
163
102
}
330
2A
100
AcDbVisualStyle
  2
2dWireframe
 70
     4
 71
     0
 72
     2
 73
     0
 90
        0
 40
-0.6
 41
-30.0
 62
     5
 63
     7
 74
     1
 91
        4
 64
     7
 65
   257
 75
     1
175
     1
 42
1.0
 92
        0
 66
   257
 43
1.0
 76
     1
 77
     6
 78
     2
 67
     7
 79
     5
170
     0
171
     0
290
     0
174
     0
 93
        1
 44
0.0
173
     0
291
     0
 45
0.0
1001
ACAD
1000
AcDbSavedByObjectVersion
1070
     0
  0
VISUALSTYLE
  5
31
102
{ACAD_REACTORS
330
2A
102
}
102
{ACAD_XDICTIONARY
360
167
102
}
330
2A
100
AcDbVisualStyle
  2
3D Hidden
 70
     6
 71
     1
 72
     2
 73
     2
 90
        0
 40
-0.6
 41
-30.0
 62
     5
 63
     7
 74
     2
 91
        2
 64
     7
 65
   257
 75
     2
175
     1
 42
40.0
 92
        0
 66
   257
 43
1.0
 76
     1
 77
     6
 78
     2
 67
     7
 79
     3
170
     0
171
     0
290
     0
174
     0
 93
        1
 44
0.0
173
     0
291
     0
 45
0.0
1001
ACAD
1000
AcDbSavedByObjectVersion
1070
     0
  0
VISUALSTYLE
  5
30
102
{ACAD_REACTORS
330
2A
102
}
102
{ACAD_XDICTIONARY
360
165
102
}
330
2A
100
AcDbVisualStyle
  2
3dWireframe
 70
     5
 71
     0
 72
     2
 73
     0
 90
        0
 40
-0.6
 41
-30.0
 62
     5
 63
     7
 74
     1
 91
        4
 64
     7
 65
   257
 75
     1
175
     1
 42
1.0
 92
        0
 66
   257
 43
1.0
 76
     1
 77
     6
 78
     2
 67
     7
 79
     5
170
     0
171
     0
290
     0
174
     0
 93
        1
 44
0.0
173
     0
291
     0
 45
0.0
1001
ACAD
1000
AcDbSavedByObjectVersion
1070
     0
  0
VISUALSTYLE
  5
32
102
{ACAD_REACTORS
330
2A
102
}
102
{ACAD_XDICTIONARY
360
169
102
}
330
2A
100
AcDbVisualStyle
  2
Basic
 70
     7
 71
     1
 72
     0
 73
     1
 90
        0
 40
-0.6
 41
-30.0
 62
     5
 63
     7
 74
     0
 91
        4
 64
     7
 65
   257
 75
     1
175
     1
 42
1.0
 92
        8
 66
     7
 43
1.0
 76
     1
 77
     6
 78
     2
 67
     7
 79
     5
170
     0
171
     0
290
     0
174
     0
 93
        1
 44
0.0
173
     0
291
     1
 45
0.0
1001
ACAD
1000
AcDbSavedByObjectVersion
1070
     0
  0
VISUALSTYLE
  5
36
102
{ACAD_REACTORS
330
2A
102
}
102
{ACAD_XDICTIONARY
360
171
102
}
330
2A
100
AcDbVisualStyle
  2
Brighten
 70
    12
 71
     2
 72
     2
 73
     0
 90
        0
 40
-0.6
 41
-30.0
 62
     5
 63
     7
 74
     1
 91
        4
 64
     7
 65
   257
 75
     1
175
     1
 42
1.0
 92
        8
 66
     7
 43
1.0
 76
     1
 77
     6
 78
     2
 67
     7
 79
     5
170
     0
171
     0
290
     0
174
     0
 93
        1
 44
50.0
173
     0
291
     1
 45
0.0
1001
ACAD
1000
AcDbSavedByObjectVersion
1070
     0
  0
VISUALSTYLE
  5
3A
102
{ACAD_REACTORS
330
2A
102
}
102
{ACAD_XDICTIONARY
360
179
102
}
330
2A
100
AcDbVisualStyle
  2
ColorChange
 70
    16
 71
     2
 72
     2
 73
     3
 90
        0
 40
-0.6
 41
-30.0
 62
     5
 63
     8
 74
     1
 91
        4
 64
     7
 65
   257
 75
     1
175
     1
 42
1.0
 92
        8
 66
     8
 43
1.0
 76
     1
 77
     6
 78
     2
 67
     7
 79
     5
170
     0
171
     0
290
     0
174
     0
 93
        1
 44
0.0
173
     0
291
     1
 45
0.0
1001
ACAD
1000
AcDbSavedByObjectVersion
1070
     0
  0
VISUALSTYLE
  5
34
102
{ACAD_REACTORS
330
2A
102
}
102
{ACAD_XDICTIONARY
360
16D
102
}
330
2A
100
AcDbVisualStyle
  2
Conceptual
 70
     9
 71
     3
 72
     2
 73
     0
 90
        0
 40
-0.6
 41
-30.0
 62
     5
 63
     7
 74
     2
 91
        2
 64
     7
 65
   257
 75
     1
175
     1
 42
40.0
 92
        8
 66
     7
 43
1.0
 76
     1
 77
     6
 78
     2
 67
     7
 79
     3
170
     0
171
     0
290
     0
174
     0
 93
        1
 44
0.0
173
     0
291
     0
 45
0.0
1001
ACAD
1000
AcDbSavedByObjectVersion
1070
     0
  0
VISUALSTYLE
  5
35
102
{ACAD_REACTORS
330
2A
102
}
102
{ACAD_XDICTIONARY
360
16F
102
}
330
2A
100
AcDbVisualStyle
  2
Dim
 70
    11
 71
     2
 72
     2
 73
     0
 90
        0
 40
-0.6
 41
-30.0
 62
     5
 63
     7
 74
     1
 91
        4
 64
     7
 65
   257
 75
     1
175
     1
 42
1.0
 92
        8
 66
     7
 43
1.0
 76
     1
 77
     6
 78
     2
 67
     7
 79
     5
170
     0
171
     0
290
     0
174
     0
 93
        1
 44
-50.0
173
     0
291
     1
 45
0.0
1001
ACAD
1000
AcDbSavedByObjectVersion
1070
     0
  0
VISUALSTYLE
  5
39
102
{ACAD_REACTORS
330
2A
102
}
102
{ACAD_XDICTIONARY
360
177
102
}
330
2A
100
AcDbVisualStyle
  2
Facepattern
 70
    15
 71
     2
 72
     2
 73
     0
 90
        0
 40
-0.6
 41
-30.0
 62
     5
 63
     7
 74
     1
 91
        4
 64
     7
 65
   257
 75
     1
175
     1
 42
1.0
 92
        8
 66
     7
 43
1.0
 76
     1
 77
     6
 78
     2
 67
     7
 79
     5
170
     0
171
     0
290
     0
174
     0
 93
        1
 44
0.0
173
     0
291
     1
 45
0.0
1001
ACAD
1000
AcDbSavedByObjectVersion
1070
     0
  0
VISUALSTYLE
  5
2B
102
{ACAD_REACTORS
330
2A
102
}
102
{ACAD_XDICTIONARY
360
15B
102
}
330
2A
100
AcDbVisualStyle
  2
Flat
 70
     0
 71
     2
 72
     1
 73
     1
 90
        2
 40
-0.6
 41
30.0
 62
     5
 63
     7
 74
     0
 91
        4
 64
     7
 65
   257
 75
     1
175
     1
 42
1.0
 92
        8
 66
     7
 43
1.0
 76
     1
 77
     6
 78
     2
 67
     7
 79
     5
170
     0
171
     0
290
     0
174
     0
 93
       13
 44
0.0
173
     0
291
     1
 45
0.0
1001
ACAD
1000
AcDbSavedByObjectVersion
1070
     0
  0
VISUALSTYLE
  5
2C
102
{ACAD_REACTORS
330
2A
102
}
102
{ACAD_XDICTIONARY
360
15D
102
}
330
2A
100
AcDbVisualStyle
  2
FlatWithEdges
 70
     1
 71
     2
 72
     1
 73
     1
 90
        2
 40
-0.6
 41
30.0
 62
     5
 63
     7
 74
     1
 91
        4
 64
     7
 65
   257
 75
     1
175
     1
 42
1.0
 92
        0
 66
   257
 43
1.0
 76
     1
 77
     6
 78
     2
 67
     7
 79
     5
170
     0
171
     0
290
     0
174
     0
 93
       13
 44
0.0
173
     0
291
     1
 45
0.0
1001
ACAD
1000
AcDbSavedByObjectVersion
1070
     0
  0
VISUALSTYLE
  5
2D
102
{ACAD_REACTORS
330
2A
102
}
102
{ACAD_XDICTIONARY
360
15F
102
}
330
2A
100
AcDbVisualStyle
  2
Gouraud
 70
     2
 71
     2
 72
     2
 73
     1
 90
        2
 40
-0.6
 41
30.0
 62
     5
 63
     7
 74
     0
 91
        4
 64
     7
 65
   257
 75
     1
175
     1
 42
1.0
 92
        0
 66
     7
 43
1.0
 76
     1
 77
     6
 78
     2
 67
     7
 79
     5
170
     0
171
     0
290
     0
174
     0
 93
       13
 44
0.0
173
     0
291
     1
 45
0.0
1001
ACAD
1000
AcDbSavedByObjectVersion
1070
     0
  0
VISUALSTYLE
  5
2E
102
{ACAD_REACTORS
330
2A
102
}
102
{ACAD_XDICTIONARY
360
161
102
}
330
2A
100
AcDbVisualStyle
  2
GouraudWithEdges
 70
     3
 71
     2
 72
     2
 73
     1
 90
        2
 40
-0.6
 41
30.0
 62
     5
 63
     7
 74
     1
 91
        4
 64
     7
 65
   257
 75
     1
175
     1
 42
1.0
 92
        0
 66
   257
 43
1.0
 76
     1
 77
     6
 78
     2
 67
     7
 79
     5
170
     0
171
     0
290
     0
174
     0
 93
       13
 44
0.0
173
     0
291
     1
 45
0.0
1001
ACAD
1000
AcDbSavedByObjectVersion
1070
     0
  0
VISUALSTYLE
  5
38
102
{ACAD_REACTORS
330
2A
102
}
102
{ACAD_XDICTIONARY
360
175
102
}
330
2A
100
AcDbVisualStyle
  2
Linepattern
 70
    14
 71
     2
 72
     2
 73
     0
 90
        0
 40
-0.6
 41
-30.0
 62
     5
 63
     7
 74
     1
 91
        4
 64
     7
 65
   257
 75
     7
175
     7
 42
1.0
 92
        8
 66
     7
 43
1.0
 76
     1
 77
     6
 78
     2
 67
     7
 79
     5
170
     0
171
     0
290
     0
174
     0
 93
        1
 44
0.0
173
     0
291
     1
 45
0.0
1001
ACAD
1000
AcDbSavedByObjectVersion
1070
     0
  0
VISUALSTYLE
  5
33
102
{ACAD_REACTORS
330
2A
102
}
102
{ACAD_XDICTIONARY
360
16B
102
}
330
2A
100
AcDbVisualStyle
  2
Realistic
 70
     8
 71
     2
 72
     2
 73
     0
 90
        0
 40
-0.6
 41
-30.0
 62
     5
 63
     7
 74
     1
 91
        0
 64
     7
 65
   257
 75
     1
175
     1
 42
1.0
 92
        8
 66
     8
 43
1.0
 76
     1
 77
     6
 78
     2
 67
     7
 79
     5
170
     0
171
     0
290
     0
174
     0
 93
       13
 44
0.0
173
     0
291
     0
 45
0.0
1001
ACAD
1000
AcDbSavedByObjectVersion
1070
     0
  0
VISUALSTYLE
  5
37
102
{ACAD_REACTORS
330
2A
102
}
102
{ACAD_XDICTIONARY
360
173
102
}
330
2A
100
AcDbVisualStyle
  2
Thicken
 70
    13
 71
     2
 72
     2
 73
     0
 90
        0
 40
-0.6
 41
-30.0
 62
     5
 63
     7
 74
     1
 91
        4
 64
     7
 65
   257
 75
     1
175
     1
 42
1.0
 92
       12
 66
     7
 43
1.0
 76
     1
 77
     6
 78
     2
 67
     7
 79
     5
170
     0
171
     0
290
     0
174
     0
 93
        1
 44
0.0
173
     0
291
     1
 45
0.0
1001
ACAD
1000
AcDbSavedByObjectVersion
1070
     0
  0
DICTIONARYVAR
  5
159
102
{ACAD_REACTORS
330
154
102
}
330
154
100
DictionaryVariables
280
     0
  1
2
  0
DICTIONARYVAR
  5
15A
102
{ACAD_REACTORS
330
154
102
}
330
154
100
DictionaryVariables
280
     0
  1
1
  0
DICTIONARYVAR
  5
158
102
{ACAD_REACTORS
330
154
102
}
330
154
100
DictionaryVariables
280
     0
  1
80.000000
  0
DICTIONARYVAR
  5
157
102
{ACAD_REACTORS
330
154
102
}
330
154
100
DictionaryVariables
280
     0
  1
5.000000
  0
DICTIONARY
  5
17D
330
3D
100
AcDbDictionary
280
     1
281
     1
  3
ACAD_XREC_ROUNDTRIP
360
17E
  0
DICTIONARY
  5
17B
330
3C
100
AcDbDictionary
280
     1
281
     1
  3
ACAD_XREC_ROUNDTRIP
360
17C
  0
DICTIONARY
  5
17F
330
3E
100
AcDbDictionary
280
     1
281
     1
  3
ACAD_XREC_ROUNDTRIP
360
180
  0
DICTIONARY
  5
163
330
2F
100
AcDbDictionary
280
     1
281
     1
  3
ACAD_XREC_ROUNDTRIP
360
164
  0
DICTIONARY
  5
167
330
31
100
AcDbDictionary
280
     1
281
     1
  3
ACAD_XREC_ROUNDTRIP
360
168
  0
DICTIONARY
  5
165
330
30
100
AcDbDictionary
280
     1
281
     1
  3
ACAD_XREC_ROUNDTRIP
360
166
  0
DICTIONARY
  5
169
330
32
100
AcDbDictionary
280
     1
281
     1
  3
ACAD_XREC_ROUNDTRIP
360
16A
  0
DICTIONARY
  5
171
330
36
100
AcDbDictionary
280
     1
281
     1
  3
ACAD_XREC_ROUNDTRIP
360
172
  0
DICTIONARY
  5
179
330
3A
100
AcDbDictionary
280
     1
281
     1
  3
ACAD_XREC_ROUNDTRIP
360
17A
  0
DICTIONARY
  5
16D
330
34
100
AcDbDictionary
280
     1
281
     1
  3
ACAD_XREC_ROUNDTRIP
360
16E
  0
DICTIONARY
  5
16F
330
35
100
AcDbDictionary
280
     1
281
     1
  3
ACAD_XREC_ROUNDTRIP
360
170
  0
DICTIONARY
  5
177
330
39
100
AcDbDictionary
280
     1
281
     1
  3
ACAD_XREC_ROUNDTRIP
360
178
  0
DICTIONARY
  5
15B
330
2B
100
AcDbDictionary
280
     1
281
     1
  3
ACAD_XREC_ROUNDTRIP
360
15C
  0
DICTIONARY
  5
15D
330
2C
100
AcDbDictionary
280
     1
281
     1
  3
ACAD_XREC_ROUNDTRIP
360
15E
  0
DICTIONARY
  5
15F
330
2D
100
AcDbDictionary
280
     1
281
     1
  3
ACAD_XREC_ROUNDTRIP
360
160
  0
DICTIONARY
  5
161
330
2E
100
AcDbDictionary
280
     1
281
     1
  3
ACAD_XREC_ROUNDTRIP
360
162
  0
DICTIONARY
  5
175
330
38
100
AcDbDictionary
280
     1
281
     1
  3
ACAD_XREC_ROUNDTRIP
360
176
  0
DICTIONARY
  5
16B
330
33
100
AcDbDictionary
280
     1
281
     1
  3
ACAD_XREC_ROUNDTRIP
360
16C
  0
DICTIONARY
  5
173
330
37
100
AcDbDictionary
280
     1
281
     1
  3
ACAD_XREC_ROUNDTRIP
360
174
  0
XRECORD
  5
17E
102
{ACAD_REACTORS
330
17D
102
}
330
17D
100
AcDbXrecord
280
     1
102
MATERIAL
148
0.0
149
0.0
149
0.0
 93
        0
 94
      127
282
     0
 72
     1
 77
     1
171
     1
175
     1
179
     1
273
     0
  0
XRECORD
  5
17C
102
{ACAD_REACTORS
330
17B
102
}
330
17B
100
AcDbXrecord
280
     1
102
MATERIAL
148
0.0
149
0.0
149
0.0
 93
        0
 94
      127
282
     0
 72
     1
 77
     1
171
     1
175
     1
179
     1
273
     0
  0
XRECORD
  5
180
102
{ACAD_REACTORS
330
17F
102
}
330
17F
100
AcDbXrecord
280
     1
102
MATERIAL
148
0.0
149
0.0
149
0.0
 93
        0
 94
      127
282
     0
 72
     1
 77
     1
171
     1
175
     1
179
     1
273
     0
  0
XRECORD
  5
164
102
{ACAD_REACTORS
330
163
102
}
330
163
100
AcDbXrecord
280
     1
102
RTVSPropertyOp0
 70
     1
102
RTVSPropertyOp1
 70
     1
102
RTVSPropertyOp2
 70
     1
102
RTVSPropertyOp3
 70
     1
102
RTVSPropertyOp4
 70
     1
102
RTVSPropertyOp5
 70
     1
102
RTVSPropertyOp6
 70
     1
102
RTVSPropertyOp7
 70
     1
102
RTVSPropertyOp8
 70
     1
102
RTVSPropertyOp9
 70
     1
102
RTVSPropertyOp10
 70
     1
102
RTVSPropertyOp11
 70
     1
102
RTVSPropertyOp12
 70
     1
102
RTVSPropertyOp13
 70
     1
102
RTVSPropertyOp14
 70
     1
102
RTVSPropertyOp15
 70
     1
102
RTVSPropertyOp16
 70
     1
102
RTVSPropertyOp17
 70
     1
102
RTVSPropertyOp18
 70
     1
102
RTVSPropertyOp19
 70
     1
102
RTVSPropertyOp20
 70
     1
102
RTVSPropertyOp21
 70
     1
102
RTVSPropertyOp22
 70
     1
102
RTVSPropertyOp23
 70
     1
102
RTVSPropertyOp24
 70
     1
102
RTVSPropertyOp25
 70
     1
102
RTVSPropertyOp26
 70
     1
102
RTVSPropertyOp27
 70
     1
102
RTVSPropertyOp28
 70
     1
102
RTVSPropertyOp29
 70
     1
102
RTVSPropertyOp30
 70
     1
102
RTVSPropertyOp31
 70
     1
102
RTVSPropertyOp32
 70
     1
  0
XRECORD
  5
168
102
{ACAD_REACTORS
330
167
102
}
330
167
100
AcDbXrecord
280
     1
102
RTVSPropertyOp0
 70
     1
102
RTVSPropertyOp1
 70
     1
102
RTVSPropertyOp2
 70
     1
102
RTVSPropertyOp3
 70
     1
102
RTVSPropertyOp4
 70
     1
102
RTVSPropertyOp5
 70
     1
102
RTVSPropertyOp6
 70
     1
102
RTVSPropertyOp7
 70
     1
102
RTVSPropertyOp8
 70
     1
102
RTVSPropertyOp9
 70
     1
102
RTVSPropertyOp10
 70
     1
102
RTVSPropertyOp11
 70
     1
102
RTVSPropertyOp12
 70
     1
102
RTVSPropertyOp13
 70
     1
102
RTVSPropertyOp14
 70
     1
102
RTVSPropertyOp15
 70
     1
102
RTVSPropertyOp16
 70
     1
102
RTVSPropertyOp17
 70
     1
102
RTVSPropertyOp18
 70
     1
102
RTVSPropertyOp19
 70
     1
102
RTVSPropertyOp20
 70
     1
102
RTVSPropertyOp21
 70
     1
102
RTVSPropertyOp22
 70
     1
102
RTVSPropertyOp23
 70
     1
102
RTVSPropertyOp24
 70
     1
102
RTVSPropertyOp25
 70
     1
102
RTVSPropertyOp26
 70
     1
102
RTVSPropertyOp27
 70
     1
102
RTVSPropertyOp28
 70
     1
102
RTVSPropertyOp29
 70
     1
102
RTVSPropertyOp30
 70
     1
102
RTVSPropertyOp31
 70
     1
102
RTVSPropertyOp32
 70
     1
  0
XRECORD
  5
166
102
{ACAD_REACTORS
330
165
102
}
330
165
100
AcDbXrecord
280
     1
102
RTVSPropertyOp0
 70
     1
102
RTVSPropertyOp1
 70
     1
102
RTVSPropertyOp2
 70
     1
102
RTVSPropertyOp3
 70
     1
102
RTVSPropertyOp4
 70
     1
102
RTVSPropertyOp5
 70
     1
102
RTVSPropertyOp6
 70
     1
102
RTVSPropertyOp7
 70
     1
102
RTVSPropertyOp8
 70
     1
102
RTVSPropertyOp9
 70
     1
102
RTVSPropertyOp10
 70
     1
102
RTVSPropertyOp11
 70
     1
102
RTVSPropertyOp12
 70
     1
102
RTVSPropertyOp13
 70
     1
102
RTVSPropertyOp14
 70
     1
102
RTVSPropertyOp15
 70
     1
102
RTVSPropertyOp16
 70
     1
102
RTVSPropertyOp17
 70
     1
102
RTVSPropertyOp18
 70
     1
102
RTVSPropertyOp19
 70
     1
102
RTVSPropertyOp20
 70
     1
102
RTVSPropertyOp21
 70
     1
102
RTVSPropertyOp22
 70
     1
102
RTVSPropertyOp23
 70
     1
102
RTVSPropertyOp24
 70
     1
102
RTVSPropertyOp25
 70
     1
102
RTVSPropertyOp26
 70
     1
102
RTVSPropertyOp27
 70
     1
102
RTVSPropertyOp28
 70
     1
102
RTVSPropertyOp29
 70
     1
102
RTVSPropertyOp30
 70
     1
102
RTVSPropertyOp31
 70
     1
102
RTVSPropertyOp32
 70
     1
  0
XRECORD
  5
16A
102
{ACAD_REACTORS
330
169
102
}
330
169
100
AcDbXrecord
280
     1
102
RTVSPropertyOp0
 70
     1
102
RTVSPropertyOp1
 70
     1
102
RTVSPropertyOp2
 70
     1
102
RTVSPropertyOp3
 70
     1
102
RTVSPropertyOp4
 70
     1
102
RTVSPropertyOp5
 70
     1
102
RTVSPropertyOp6
 70
     1
102
RTVSPropertyOp7
 70
     1
102
RTVSPropertyOp8
 70
     1
102
RTVSPropertyOp9
 70
     1
102
RTVSPropertyOp10
 70
     1
102
RTVSPropertyOp11
 70
     1
102
RTVSPropertyOp12
 70
     1
102
RTVSPropertyOp13
 70
     1
102
RTVSPropertyOp14
 70
     1
102
RTVSPropertyOp15
 70
     1
102
RTVSPropertyOp16
 70
     1
102
RTVSPropertyOp17
 70
     1
102
RTVSPropertyOp18
 70
     1
102
RTVSPropertyOp19
 70
     1
102
RTVSPropertyOp20
 70
     1
102
RTVSPropertyOp21
 70
     1
102
RTVSPropertyOp22
 70
     1
102
RTVSPropertyOp23
 70
     1
102
RTVSPropertyOp24
 70
     1
102
RTVSPropertyOp25
 70
     1
102
RTVSPropertyOp26
 70
     1
102
RTVSPropertyOp27
 70
     1
102
RTVSPropertyOp28
 70
     1
102
RTVSPropertyOp29
 70
     1
102
RTVSPropertyOp30
 70
     1
102
RTVSPropertyOp31
 70
     1
102
RTVSPropertyOp32
 70
     1
  0
XRECORD
  5
172
102
{ACAD_REACTORS
330
171
102
}
330
171
100
AcDbXrecord
280
     1
102
RTVSPropertyOp0
 70
     1
102
RTVSPropertyOp1
 70
     1
102
RTVSPropertyOp2
 70
     1
102
RTVSPropertyOp3
 70
     1
102
RTVSPropertyOp4
 70
     1
102
RTVSPropertyOp5
 70
     1
102
RTVSPropertyOp6
 70
     1
102
RTVSPropertyOp7
 70
     1
102
RTVSPropertyOp8
 70
     1
102
RTVSPropertyOp9
 70
     1
102
RTVSPropertyOp10
 70
     1
102
RTVSPropertyOp11
 70
     1
102
RTVSPropertyOp12
 70
     1
102
RTVSPropertyOp13
 70
     1
102
RTVSPropertyOp14
 70
     1
102
RTVSPropertyOp15
 70
     1
102
RTVSPropertyOp16
 70
     1
102
RTVSPropertyOp17
 70
     1
102
RTVSPropertyOp18
 70
     1
102
RTVSPropertyOp19
 70
     1
102
RTVSPropertyOp20
 70
     1
102
RTVSPropertyOp21
 70
     1
102
RTVSPropertyOp22
 70
     1
102
RTVSPropertyOp23
 70
     1
102
RTVSPropertyOp24
 70
     1
102
RTVSPropertyOp25
 70
     1
102
RTVSPropertyOp26
 70
     1
102
RTVSPropertyOp27
 70
     1
102
RTVSPropertyOp28
 70
     1
102
RTVSPropertyOp29
 70
     1
102
RTVSPropertyOp30
 70
     1
102
RTVSPropertyOp31
 70
     1
102
RTVSPropertyOp32
 70
     1
  0
XRECORD
  5
17A
102
{ACAD_REACTORS
330
179
102
}
330
179
100
AcDbXrecord
280
     1
102
RTVSPropertyOp0
 70
     1
102
RTVSPropertyOp1
 70
     1
102
RTVSPropertyOp2
 70
     1
102
RTVSPropertyOp3
 70
     1
102
RTVSPropertyOp4
 70
     1
102
RTVSPropertyOp5
 70
     1
102
RTVSPropertyOp6
 70
     1
102
RTVSPropertyOp7
 70
     1
102
RTVSPropertyOp8
 70
     1
102
RTVSPropertyOp9
 70
     1
102
RTVSPropertyOp10
 70
     1
102
RTVSPropertyOp11
 70
     1
102
RTVSPropertyOp12
 70
     1
102
RTVSPropertyOp13
 70
     1
102
RTVSPropertyOp14
 70
     1
102
RTVSPropertyOp15
 70
     1
102
RTVSPropertyOp16
 70
     1
102
RTVSPropertyOp17
 70
     1
102
RTVSPropertyOp18
 70
     1
102
RTVSPropertyOp19
 70
     1
102
RTVSPropertyOp20
 70
     1
102
RTVSPropertyOp21
 70
     1
102
RTVSPropertyOp22
 70
     1
102
RTVSPropertyOp23
 70
     1
102
RTVSPropertyOp24
 70
     1
102
RTVSPropertyOp25
 70
     1
102
RTVSPropertyOp26
 70
     1
102
RTVSPropertyOp27
 70
     1
102
RTVSPropertyOp28
 70
     1
102
RTVSPropertyOp29
 70
     1
102
RTVSPropertyOp30
 70
     1
102
RTVSPropertyOp31
 70
     1
102
RTVSPropertyOp32
 70
     1
  0
XRECORD
  5
16E
102
{ACAD_REACTORS
330
16D
102
}
330
16D
100
AcDbXrecord
280
     1
102
RTVSPropertyOp0
 70
     1
102
RTVSPropertyOp1
 70
     1
102
RTVSPropertyOp2
 70
     1
102
RTVSPropertyOp3
 70
     1
102
RTVSPropertyOp4
 70
     1
102
RTVSPropertyOp5
 70
     1
102
RTVSPropertyOp6
 70
     1
102
RTVSPropertyOp7
 70
     1
102
RTVSPropertyOp8
 70
     1
102
RTVSPropertyOp9
 70
     1
102
RTVSPropertyOp10
 70
     1
102
RTVSPropertyOp11
 70
     1
102
RTVSPropertyOp12
 70
     1
102
RTVSPropertyOp13
 70
     1
102
RTVSPropertyOp14
 70
     1
102
RTVSPropertyOp15
 70
     1
102
RTVSPropertyOp16
 70
     1
102
RTVSPropertyOp17
 70
     1
102
RTVSPropertyOp18
 70
     1
102
RTVSPropertyOp19
 70
     1
102
RTVSPropertyOp20
 70
     1
102
RTVSPropertyOp21
 70
     1
102
RTVSPropertyOp22
 70
     1
102
RTVSPropertyOp23
 70
     1
102
RTVSPropertyOp24
 70
     1
102
RTVSPropertyOp25
 70
     1
102
RTVSPropertyOp26
 70
     1
102
RTVSPropertyOp27
 70
     1
102
RTVSPropertyOp28
 70
     1
102
RTVSPropertyOp29
 70
     1
102
RTVSPropertyOp30
 70
     1
102
RTVSPropertyOp31
 70
     1
102
RTVSPropertyOp32
 70
     1
  0
XRECORD
  5
170
102
{ACAD_REACTORS
330
16F
102
}
330
16F
100
AcDbXrecord
280
     1
102
RTVSPropertyOp0
 70
     1
102
RTVSPropertyOp1
 70
     1
102
RTVSPropertyOp2
 70
     1
102
RTVSPropertyOp3
 70
     1
102
RTVSPropertyOp4
 70
     1
102
RTVSPropertyOp5
 70
     1
102
RTVSPropertyOp6
 70
     1
102
RTVSPropertyOp7
 70
     1
102
RTVSPropertyOp8
 70
     1
102
RTVSPropertyOp9
 70
     1
102
RTVSPropertyOp10
 70
     1
102
RTVSPropertyOp11
 70
     1
102
RTVSPropertyOp12
 70
     1
102
RTVSPropertyOp13
 70
     1
102
RTVSPropertyOp14
 70
     1
102
RTVSPropertyOp15
 70
     1
102
RTVSPropertyOp16
 70
     1
102
RTVSPropertyOp17
 70
     1
102
RTVSPropertyOp18
 70
     1
102
RTVSPropertyOp19
 70
     1
102
RTVSPropertyOp20
 70
     1
102
RTVSPropertyOp21
 70
     1
102
RTVSPropertyOp22
 70
     1
102
RTVSPropertyOp23
 70
     1
102
RTVSPropertyOp24
 70
     1
102
RTVSPropertyOp25
 70
     1
102
RTVSPropertyOp26
 70
     1
102
RTVSPropertyOp27
 70
     1
102
RTVSPropertyOp28
 70
     1
102
RTVSPropertyOp29
 70
     1
102
RTVSPropertyOp30
 70
     1
102
RTVSPropertyOp31
 70
     1
102
RTVSPropertyOp32
 70
     1
  0
XRECORD
  5
178
102
{ACAD_REACTORS
330
177
102
}
330
177
100
AcDbXrecord
280
     1
102
RTVSPropertyOp0
 70
     1
102
RTVSPropertyOp1
 70
     1
102
RTVSPropertyOp2
 70
     1
102
RTVSPropertyOp3
 70
     1
102
RTVSPropertyOp4
 70
     1
102
RTVSPropertyOp5
 70
     1
102
RTVSPropertyOp6
 70
     1
102
RTVSPropertyOp7
 70
     1
102
RTVSPropertyOp8
 70
     1
102
RTVSPropertyOp9
 70
     1
102
RTVSPropertyOp10
 70
     1
102
RTVSPropertyOp11
 70
     1
102
RTVSPropertyOp12
 70
     1
102
RTVSPropertyOp13
 70
     1
102
RTVSPropertyOp14
 70
     1
102
RTVSPropertyOp15
 70
     1
102
RTVSPropertyOp16
 70
     1
102
RTVSPropertyOp17
 70
     1
102
RTVSPropertyOp18
 70
     1
102
RTVSPropertyOp19
 70
     1
102
RTVSPropertyOp20
 70
     1
102
RTVSPropertyOp21
 70
     1
102
RTVSPropertyOp22
 70
     1
102
RTVSPropertyOp23
 70
     1
102
RTVSPropertyOp24
 70
     1
102
RTVSPropertyOp25
 70
     1
102
RTVSPropertyOp26
 70
     1
102
RTVSPropertyOp27
 70
     1
102
RTVSPropertyOp28
 70
     1
102
RTVSPropertyOp29
 70
     1
102
RTVSPropertyOp30
 70
     1
102
RTVSPropertyOp31
 70
     1
102
RTVSPropertyOp32
 70
     1
  0
XRECORD
  5
15C
102
{ACAD_REACTORS
330
15B
102
}
330
15B
100
AcDbXrecord
280
     1
102
RTVSPropertyOp0
 70
     1
102
RTVSPropertyOp1
 70
     1
102
RTVSPropertyOp2
 70
     1
102
RTVSPropertyOp3
 70
     1
102
RTVSPropertyOp4
 70
     1
102
RTVSPropertyOp5
 70
     1
102
RTVSPropertyOp6
 70
     1
102
RTVSPropertyOp7
 70
     1
102
RTVSPropertyOp8
 70
     1
102
RTVSPropertyOp9
 70
     1
102
RTVSPropertyOp10
 70
     1
102
RTVSPropertyOp11
 70
     1
102
RTVSPropertyOp12
 70
     1
102
RTVSPropertyOp13
 70
     1
102
RTVSPropertyOp14
 70
     1
102
RTVSPropertyOp15
 70
     1
102
RTVSPropertyOp16
 70
     1
102
RTVSPropertyOp17
 70
     1
102
RTVSPropertyOp18
 70
     1
102
RTVSPropertyOp19
 70
     1
102
RTVSPropertyOp20
 70
     1
102
RTVSPropertyOp21
 70
     1
102
RTVSPropertyOp22
 70
     1
102
RTVSPropertyOp23
 70
     1
102
RTVSPropertyOp24
 70
     1
102
RTVSPropertyOp25
 70
     1
102
RTVSPropertyOp26
 70
     1
102
RTVSPropertyOp27
 70
     1
102
RTVSPropertyOp28
 70
     1
102
RTVSPropertyOp29
 70
     1
102
RTVSPropertyOp30
 70
     1
102
RTVSPropertyOp31
 70
     1
102
RTVSPropertyOp32
 70
     1
  0
XRECORD
  5
15E
102
{ACAD_REACTORS
330
15D
102
}
330
15D
100
AcDbXrecord
280
     1
102
RTVSPropertyOp0
 70
     1
102
RTVSPropertyOp1
 70
     1
102
RTVSPropertyOp2
 70
     1
102
RTVSPropertyOp3
 70
     1
102
RTVSPropertyOp4
 70
     1
102
RTVSPropertyOp5
 70
     1
102
RTVSPropertyOp6
 70
     1
102
RTVSPropertyOp7
 70
     1
102
RTVSPropertyOp8
 70
     1
102
RTVSPropertyOp9
 70
     1
102
RTVSPropertyOp10
 70
     1
102
RTVSPropertyOp11
 70
     1
102
RTVSPropertyOp12
 70
     1
102
RTVSPropertyOp13
 70
     1
102
RTVSPropertyOp14
 70
     1
102
RTVSPropertyOp15
 70
     1
102
RTVSPropertyOp16
 70
     1
102
RTVSPropertyOp17
 70
     1
102
RTVSPropertyOp18
 70
     1
102
RTVSPropertyOp19
 70
     1
102
RTVSPropertyOp20
 70
     1
102
RTVSPropertyOp21
 70
     1
102
RTVSPropertyOp22
 70
     1
102
RTVSPropertyOp23
 70
     1
102
RTVSPropertyOp24
 70
     1
102
RTVSPropertyOp25
 70
     1
102
RTVSPropertyOp26
 70
     1
102
RTVSPropertyOp27
 70
     1
102
RTVSPropertyOp28
 70
     1
102
RTVSPropertyOp29
 70
     1
102
RTVSPropertyOp30
 70
     1
102
RTVSPropertyOp31
 70
     1
102
RTVSPropertyOp32
 70
     1
  0
XRECORD
  5
160
102
{ACAD_REACTORS
330
15F
102
}
330
15F
100
AcDbXrecord
280
     1
102
RTVSPropertyOp0
 70
     1
102
RTVSPropertyOp1
 70
     1
102
RTVSPropertyOp2
 70
     1
102
RTVSPropertyOp3
 70
     1
102
RTVSPropertyOp4
 70
     1
102
RTVSPropertyOp5
 70
     1
102
RTVSPropertyOp6
 70
     1
102
RTVSPropertyOp7
 70
     1
102
RTVSPropertyOp8
 70
     1
102
RTVSPropertyOp9
 70
     1
102
RTVSPropertyOp10
 70
     1
102
RTVSPropertyOp11
 70
     1
102
RTVSPropertyOp12
 70
     1
102
RTVSPropertyOp13
 70
     1
102
RTVSPropertyOp14
 70
     1
102
RTVSPropertyOp15
 70
     1
102
RTVSPropertyOp16
 70
     1
102
RTVSPropertyOp17
 70
     1
102
RTVSPropertyOp18
 70
     1
102
RTVSPropertyOp19
 70
     1
102
RTVSPropertyOp20
 70
     1
102
RTVSPropertyOp21
 70
     1
102
RTVSPropertyOp22
 70
     1
102
RTVSPropertyOp23
 70
     1
102
RTVSPropertyOp24
 70
     1
102
RTVSPropertyOp25
 70
     1
102
RTVSPropertyOp26
 70
     1
102
RTVSPropertyOp27
 70
     1
102
RTVSPropertyOp28
 70
     1
102
RTVSPropertyOp29
 70
     1
102
RTVSPropertyOp30
 70
     1
102
RTVSPropertyOp31
 70
     1
102
RTVSPropertyOp32
 70
     1
  0
XRECORD
  5
162
102
{ACAD_REACTORS
330
161
102
}
330
161
100
AcDbXrecord
280
     1
102
RTVSPropertyOp0
 70
     1
102
RTVSPropertyOp1
 70
     1
102
RTVSPropertyOp2
 70
     1
102
RTVSPropertyOp3
 70
     1
102
RTVSPropertyOp4
 70
     1
102
RTVSPropertyOp5
 70
     1
102
RTVSPropertyOp6
 70
     1
102
RTVSPropertyOp7
 70
     1
102
RTVSPropertyOp8
 70
     1
102
RTVSPropertyOp9
 70
     1
102
RTVSPropertyOp10
 70
     1
102
RTVSPropertyOp11
 70
     1
102
RTVSPropertyOp12
 70
     1
102
RTVSPropertyOp13
 70
     1
102
RTVSPropertyOp14
 70
     1
102
RTVSPropertyOp15
 70
     1
102
RTVSPropertyOp16
 70
     1
102
RTVSPropertyOp17
 70
     1
102
RTVSPropertyOp18
 70
     1
102
RTVSPropertyOp19
 70
     1
102
RTVSPropertyOp20
 70
     1
102
RTVSPropertyOp21
 70
     1
102
RTVSPropertyOp22
 70
     1
102
RTVSPropertyOp23
 70
     1
102
RTVSPropertyOp24
 70
     1
102
RTVSPropertyOp25
 70
     1
102
RTVSPropertyOp26
 70
     1
102
RTVSPropertyOp27
 70
     1
102
RTVSPropertyOp28
 70
     1
102
RTVSPropertyOp29
 70
     1
102
RTVSPropertyOp30
 70
     1
102
RTVSPropertyOp31
 70
     1
102
RTVSPropertyOp32
 70
     1
  0
XRECORD
  5
176
102
{ACAD_REACTORS
330
175
102
}
330
175
100
AcDbXrecord
280
     1
102
RTVSPropertyOp0
 70
     1
102
RTVSPropertyOp1
 70
     1
102
RTVSPropertyOp2
 70
     1
102
RTVSPropertyOp3
 70
     1
102
RTVSPropertyOp4
 70
     1
102
RTVSPropertyOp5
 70
     1
102
RTVSPropertyOp6
 70
     1
102
RTVSPropertyOp7
 70
     1
102
RTVSPropertyOp8
 70
     1
102
RTVSPropertyOp9
 70
     1
102
RTVSPropertyOp10
 70
     1
102
RTVSPropertyOp11
 70
     1
102
RTVSPropertyOp12
 70
     1
102
RTVSPropertyOp13
 70
     1
102
RTVSPropertyOp14
 70
     1
102
RTVSPropertyOp15
 70
     1
102
RTVSPropertyOp16
 70
     1
102
RTVSPropertyOp17
 70
     1
102
RTVSPropertyOp18
 70
     1
102
RTVSPropertyOp19
 70
     1
102
RTVSPropertyOp20
 70
     1
102
RTVSPropertyOp21
 70
     1
102
RTVSPropertyOp22
 70
     1
102
RTVSPropertyOp23
 70
     1
102
RTVSPropertyOp24
 70
     1
102
RTVSPropertyOp25
 70
     1
102
RTVSPropertyOp26
 70
     1
102
RTVSPropertyOp27
 70
     1
102
RTVSPropertyOp28
 70
     1
102
RTVSPropertyOp29
 70
     1
102
RTVSPropertyOp30
 70
     1
102
RTVSPropertyOp31
 70
     1
102
RTVSPropertyOp32
 70
     1
  0
XRECORD
  5
16C
102
{ACAD_REACTORS
330
16B
102
}
330
16B
100
AcDbXrecord
280
     1
102
RTVSPropertyOp0
 70
     1
102
RTVSPropertyOp1
 70
     1
102
RTVSPropertyOp2
 70
     1
102
RTVSPropertyOp3
 70
     1
102
RTVSPropertyOp4
 70
     1
102
RTVSPropertyOp5
 70
     1
102
RTVSPropertyOp6
 70
     1
102
RTVSPropertyOp7
 70
     1
102
RTVSPropertyOp8
 70
     1
102
RTVSPropertyOp9
 70
     1
102
RTVSPropertyOp10
 70
     1
102
RTVSPropertyOp11
 70
     1
102
RTVSPropertyOp12
 70
     1
102
RTVSPropertyOp13
 70
     1
102
RTVSPropertyOp14
 70
     1
102
RTVSPropertyOp15
 70
     1
102
RTVSPropertyOp16
 70
     1
102
RTVSPropertyOp17
 70
     1
102
RTVSPropertyOp18
 70
     1
102
RTVSPropertyOp19
 70
     1
102
RTVSPropertyOp20
 70
     1
102
RTVSPropertyOp21
 70
     1
102
RTVSPropertyOp22
 70
     1
102
RTVSPropertyOp23
 70
     1
102
RTVSPropertyOp24
 70
     1
102
RTVSPropertyOp25
 70
     1
102
RTVSPropertyOp26
 70
     1
102
RTVSPropertyOp27
 70
     1
102
RTVSPropertyOp28
 70
     1
102
RTVSPropertyOp29
 70
     1
102
RTVSPropertyOp30
 70
     1
102
RTVSPropertyOp31
 70
     1
102
RTVSPropertyOp32
 70
     1
  0
XRECORD
  5
174
102
{ACAD_REACTORS
330
173
102
}
330
173
100
AcDbXrecord
280
     1
102
RTVSPropertyOp0
 70
     1
102
RTVSPropertyOp1
 70
     1
102
RTVSPropertyOp2
 70
     1
102
RTVSPropertyOp3
 70
     1
102
RTVSPropertyOp4
 70
     1
102
RTVSPropertyOp5
 70
     1
102
RTVSPropertyOp6
 70
     1
102
RTVSPropertyOp7
 70
     1
102
RTVSPropertyOp8
 70
     1
102
RTVSPropertyOp9
 70
     1
102
RTVSPropertyOp10
 70
     1
102
RTVSPropertyOp11
 70
     1
102
RTVSPropertyOp12
 70
     1
102
RTVSPropertyOp13
 70
     1
102
RTVSPropertyOp14
 70
     1
102
RTVSPropertyOp15
 70
     1
102
RTVSPropertyOp16
 70
     1
102
RTVSPropertyOp17
 70
     1
102
RTVSPropertyOp18
 70
     1
102
RTVSPropertyOp19
 70
     1
102
RTVSPropertyOp20
 70
     1
102
RTVSPropertyOp21
 70
     1
102
RTVSPropertyOp22
 70
     1
102
RTVSPropertyOp23
 70
     1
102
RTVSPropertyOp24
 70
     1
102
RTVSPropertyOp25
 70
     1
102
RTVSPropertyOp26
 70
     1
102
RTVSPropertyOp27
 70
     1
102
RTVSPropertyOp28
 70
     1
102
RTVSPropertyOp29
 70
     1
102
RTVSPropertyOp30
 70
     1
102
RTVSPropertyOp31
 70
     1
102
RTVSPropertyOp32
 70
     1
  0
ENDSEC
  0
EOF
