0
SECTION
2
HEADER
9
$ACADVER
1
AC1015
9
$DWGCODEPAGE
3
ANSI_1252
9
$HANDSEED
5
184
9
$ANGBASE
50
0
9
$ANGDIR
70
0
9
$ATTMODE
70
1
9
$AUNITS
70
0
9
$AUPREC
70
0
9
$CECOLOR
62
256
9
$CELTSCALE
40
1
9
$CELTYPE
6
ByLayer
9
$CELWEIGHT
370
-1
9
$CLAYER
8
0
9
$CMLJUST
70
0
9
$CMLSCALE
40
1
9
$CMLSTYLE
2
Standard
9
$DIMSTYLE
2
Standard
9
$TEXTSIZE
40
0.2
9
$TEXTSTYLE
7
Standard
9
$LUNITS
70
2
9
$LUPREC
70
4
9
$EXTNAMES
290
1
9
$INSUNITS
70
4
9
$LTSCALE
40
1
9
$LWDISPLAY
290
0
9
$PDMODE
70
0
9
$PDSIZE
40
0
9
$PLINEGEN
70
0
0
ENDSEC
0
SECTION
2
CLASSES
0
CLASS
1
RASTERVARIABLES
2
AcDbRasterVariables
3
ISM
90
0
280
0
281
0
0
ENDSEC
0
SECTION
2
TABLES
0
TABLE
2
VPORT
5
17a
100
AcDbSymbolTable
0
VPORT
5
1
100
AcDbSymbolTableRecord
100
AcDbViewportTableRecord
2
*Active
70
0
10
0
20
0
11
1
21
1
12
-1
22
1
13
0
23
0
14
0.5
24
0.5
15
10
25
10
16
0
26
0
36
1
17
0
27
0
37
0
0
ENDTAB
0
TABLE
2
LTYPE
5
17b
100
AcDbSymbolTable
0
LTYPE
5
14
100
AcDbSymbolTableRecord
100
AcDbLinetypeTableRecord
70
0
2
ByBlock
3

72
65
73
0
40
0
0
LTYPE
5
15
100
AcDbSymbolTableRecord
100
AcDbLinetypeTableRecord
70
0
2
ByLayer
3

72
65
73
0
40
0
0
LTYPE
5
16
100
AcDbSymbolTableRecord
100
AcDbLinetypeTableRecord
70
0
2
CONTINUOUS
3
Solid line
72
65
73
0
40
0
0
LTYPE
5
3B
100
AcDbSymbolTableRecord
100
AcDbLinetypeTableRecord
70
0
2
DASHED
3
__ __ __ __ __ __ __ __ __
72
65
73
2
40
25.72
49
12.86
74
0
49
-12.86
74
0
0
LTYPE
5
3C
100
AcDbSymbolTableRecord
100
AcDbLinetypeTableRecord
70
0
2
HIDDEN
3
_ _ _ _ _ _ _ _ _ _ _ _ _ _ _
72
65
73
2
40
0.5
49
0.25
74
0
49
-0.25
74
0
0
LTYPE
5
3D
100
AcDbSymbolTableRecord
100
AcDbLinetypeTableRecord
70
0
2
PHANTOM
3
____ _ _ ____ _ _ _____ _ _ ____
72
65
73
6
40
50.5
49
18
74
0
49
-6.5
74
0
49
6.5
74
0
49
-6.5
74
0
49
6.5
74
0
49
-6.5
74
0
0
LTYPE
5
3E
100
AcDbSymbolTableRecord
100
AcDbLinetypeTableRecord
70
0
2
CENTER
3
____ _ ____ _ ____ _ ____
72
65
73
4
40
47.5
49
22
74
0
49
-8.5
74
0
49
8.5
74
0
49
-8.5
74
0
0
LTYPE
5
3F
100
AcDbSymbolTableRecord
100
AcDbLinetypeTableRecord
70
0
2
DOT
3
.........................
72
65
73
2
40
10
49
0
74
0
49
-10
74
0
0
LTYPE
5
40
100
AcDbSymbolTableRecord
100
AcDbLinetypeTableRecord
70
0
2
DASHDOT
3
_._._._._._._._._._._._._._._._.
72
65
73
4
40
70
49
31
74
0
49
-13
74
0
49
13
74
0
49
-13
74
0
0
ENDTAB
0
TABLE
2
LAYER
5
17c
100
AcDbSymbolTable
0
LAYER
5
10
100
AcDbSymbolTableRecord
100
AcDbLayerTableRecord
2
0
70
0
62
7
6
CONTINUOUS
290
1
370
-3
390
0
0
LAYER
5
42
100
AcDbSymbolTableRecord
100
AcDbLayerTableRecord
2
80
70
0
62
-6
6
CONTINUOUS
290
1
370
-3
390
0
0
LAYER
5
44
100
AcDbSymbolTableRecord
100
AcDbLayerTableRecord
2
81
70
0
62
-3
6
CONTINUOUS
290
1
370
-3
390
0
0
LAYER
5
46
100
AcDbSymbolTableRecord
100
AcDbLayerTableRecord
2
1
70
0
62
4
6
CONTINUOUS
290
1
370
-3
390
0
0
LAYER
5
48
100
AcDbSymbolTableRecord
100
AcDbLayerTableRecord
2
2
70
0
62
7
6
CONTINUOUS
290
1
370
-3
390
0
0
LAYER
5
4F
100
AcDbSymbolTableRecord
100
AcDbLayerTableRecord
2
4
70
0
62
-2
6
CENTER
290
1
370
-3
390
0
0
LAYER
5
166
100
AcDbSymbolTableRecord
100
AcDbLayerTableRecord
2
SK4
70
0
62
2
6
CENTER
290
1
370
-3
390
0
0
LAYER
5
167
100
AcDbSymbolTableRecord
100
AcDbLayerTableRecord
2
SK1
70
0
62
4
6
CONTINUOUS
290
1
370
-3
390
0
0
LAYER
5
168
100
AcDbSymbolTableRecord
100
AcDbLayerTableRecord
2
SK6
70
0
62
5
6
CONTINUOUS
290
1
370
-3
390
0
0
LAYER
5
169
100
AcDbSymbolTableRecord
100
AcDbLayerTableRecord
2
SK2
70
0
62
7
6
CONTINUOUS
290
1
370
-3
390
0
0
ENDTAB
0
TABLE
2
STYLE
5
17d
100
AcDbSymbolTable
0
STYLE
5
11
100
AcDbSymbolTableRecord
100
AcDbTextStyleTableRecord
2
Standard
3
txt
70
0
71
0
40
0
41
1
42
0
50
0
0
STYLE
5
E2
100
AcDbSymbolTableRecord
100
AcDbTextStyleTableRecord
2
DEFAULT
3
simplex.shx
70
0
71
0
40
0
41
1
42
0
50
0
0
STYLE
5
105
100
AcDbSymbolTableRecord
100
AcDbTextStyleTableRecord
2
DWGDirectTextStyle
3
SIMPLEX
70
0
71
0
40
0
41
1
42
0
50
0
0
ENDTAB
0
TABLE
2
DIMSTYLE
5
17e
100
AcDbSymbolTable
100
AcDbDimStyleTable
0
DIMSTYLE
105
27
100
AcDbSymbolTableRecord
100
AcDbDimStyleTableRecord
2
Standard
70
0
3
<>
41
0.18
42
0.0625
44
0.18
140
0.18
147
0.09
73
0
74
0
77
1
271
2
275
0
278
52
280
0
340
11
0
ENDTAB
0
TABLE
2
VIEW
5
17f
100
AcDbSymbolTable
0
ENDTAB
0
TABLE
2
UCS
5
180
100
AcDbSymbolTable
0
ENDTAB
0
TABLE
2
APPID
5
181
100
AcDbSymbolTable
0
APPID
5
12
100
AcDbSymbolTableRecord
100
AcDbRegAppTableRecord
2
ACAD
70
0
0
ENDTAB
0
TABLE
2
BLOCK_RECORD
5
182
100
AcDbSymbolTable
0
BLOCK_RECORD
5
1F
100
AcDbSymbolTableRecord
100
AcDbBlockTableRecord
2
*Model_Space
340
0
70
0
0
BLOCK_RECORD
5
1B
100
AcDbSymbolTableRecord
100
AcDbBlockTableRecord
2
*Paper_Space
340
0
70
0
0
BLOCK_RECORD
5
23
100
AcDbSymbolTableRecord
100
AcDbBlockTableRecord
2
*Paper_Space0
340
0
70
0
0
BLOCK_RECORD
5
107
100
AcDbSymbolTableRecord
100
AcDbBlockTableRecord
2
DimnDraft3D1
340
0
70
0
0
BLOCK_RECORD
5
115
100
AcDbSymbolTableRecord
100
AcDbBlockTableRecord
2
_CLOSED
340
0
70
0
0
BLOCK_RECORD
5
11C
100
AcDbSymbolTableRecord
100
AcDbBlockTableRecord
2
DimnDraft3D2
340
0
70
0
0
BLOCK_RECORD
5
12B
100
AcDbSymbolTableRecord
100
AcDbBlockTableRecord
2
DimnDraft3D3
340
0
70
0
0
BLOCK_RECORD
5
139
100
AcDbSymbolTableRecord
100
AcDbBlockTableRecord
2
DimnDraft3D4
340
0
70
0
0
ENDTAB
0
ENDSEC
0
SECTION
2
BLOCKS
0
BLOCK
5
20
100
AcDbEntity
8
0
100
AcDbBlockBegin
2
*Model_Space
70
0
10
0
20
0
30
0
3
*Model_Space
0
ENDBLK
5
21
100
AcDbEntity
8
0
100
AcDbBlockEnd
0
BLOCK
5
1C
100
AcDbEntity
8
0
100
AcDbBlockBegin
2
*Paper_Space
70
0
10
0
20
0
30
0
3
*Paper_Space
0
ENDBLK
5
1D
100
AcDbEntity
8
0
100
AcDbBlockEnd
0
BLOCK
5
24
100
AcDbEntity
8
0
100
AcDbBlockBegin
2
*Paper_Space0
70
0
10
0
20
0
30
0
3
*Paper_Space0
0
ENDBLK
5
25
100
AcDbEntity
8
0
100
AcDbBlockEnd
0
BLOCK
5
112
100
AcDbEntity
8
0
100
AcDbBlockBegin
2
DimnDraft3D1
70
0
10
0
20
0
30
0
3
DimnDraft3D1
0
MTEXT
5
108
100
AcDbEntity
8
2
62
256
6
ByLayer
370
-1
48
1
60
0
100
AcDbMText
10
139.039
20
-14.988158
30
0
210
0
220
0
230
1
1
\W01.000;\fsimplex.shx,bigfont.shx;22.0 
40
4.5
41
0
44
1.084337
50
90
71
7
72
5
7
DEFAULT
0
LINE
5
109
100
AcDbEntity
8
2
62
256
6
ByLayer
370
-1
48
1
60
0
100
AcDbLine
10
129.914
20
-21.9
30
0
11
142.164
21
-21.9
31
0
39
0
210
0
220
0
230
1
0
LINE
5
10A
100
AcDbEntity
8
2
62
256
6
ByLayer
370
-1
48
1
60
0
100
AcDbLine
10
129.914
20
0
30
0
11
142.164
21
0
31
0
39
0
210
0
220
0
230
1
0
LINE
5
10B
100
AcDbEntity
8
2
62
256
6
ByLayer
370
-1
48
1
60
0
100
AcDbLine
10
140.164
20
-21.9
30
0
11
140.164
21
0
31
0
39
0
210
0
220
0
230
1
0
LINE
5
10C
100
AcDbEntity
8
2
62
256
6
ByLayer
370
-1
48
1
60
0
100
AcDbLine
10
140.164
20
-21.9
30
0
11
139.746003
21
-18.725002
31
0
39
0
210
0
220
0
230
1
0
LINE
5
10D
100
AcDbEntity
8
2
62
256
6
ByLayer
370
-1
48
1
60
0
100
AcDbLine
10
140.164
20
-21.9
30
0
11
140.581997
21
-18.724998
31
0
39
0
210
0
220
0
230
1
0
LINE
5
10E
100
AcDbEntity
8
2
62
256
6
ByLayer
370
-1
48
1
60
0
100
AcDbLine
10
139.746003
20
-18.725002
30
0
11
140.581997
21
-18.724998
31
0
39
0
210
0
220
0
230
1
0
LINE
5
10F
100
AcDbEntity
8
2
62
256
6
ByLayer
370
-1
48
1
60
0
100
AcDbLine
10
140.164
20
0
30
0
11
140.581997
21
-3.174998
31
0
39
0
210
0
220
0
230
1
0
LINE
5
110
100
AcDbEntity
8
2
62
256
6
ByLayer
370
-1
48
1
60
0
100
AcDbLine
10
140.164
20
0
30
0
11
139.746003
21
-3.175002
31
0
39
0
210
0
220
0
230
1
0
LINE
5
111
100
AcDbEntity
8
2
62
256
6
ByLayer
370
-1
48
1
60
0
100
AcDbLine
10
140.581997
20
-3.174998
30
0
11
139.746003
21
-3.175002
31
0
39
0
210
0
220
0
230
1
0
ENDBLK
5
113
100
AcDbEntity
8
0
100
AcDbBlockEnd
0
BLOCK
5
116
100
AcDbEntity
8
0
100
AcDbBlockBegin
2
_CLOSED
70
0
10
0
20
0
30
0
3
_CLOSED
0
LINE
5
118
100
AcDbEntity
8
0
62
256
6
ByLayer
370
-2
48
1
60
0
100
AcDbLine
10
-1
20
0.166667
30
0
11
0
21
0
31
0
39
0
210
0
220
0
230
1
0
LINE
5
119
100
AcDbEntity
8
0
62
256
6
ByLayer
370
-2
48
1
60
0
100
AcDbLine
10
0
20
0
30
0
11
-1
21
-0.166667
31
0
39
0
210
0
220
0
230
1
0
LINE
5
11A
100
AcDbEntity
8
0
62
256
6
ByLayer
370
-2
48
1
60
0
100
AcDbLine
10
-1
20
0.166667
30
0
11
-1
21
-0.166667
31
0
39
0
210
0
220
0
230
1
0
LINE
5
11B
100
AcDbEntity
8
0
62
256
6
ByLayer
370
-2
48
1
60
0
100
AcDbLine
10
0
20
0
30
0
11
-1
21
0
31
0
39
0
210
0
220
0
230
1
0
ENDBLK
5
117
100
AcDbEntity
8
0
100
AcDbBlockEnd
0
BLOCK
5
128
100
AcDbEntity
8
0
100
AcDbBlockBegin
2
DimnDraft3D2
70
0
10
0
20
0
30
0
3
DimnDraft3D2
0
MTEXT
5
11D
100
AcDbEntity
8
SK2
62
256
6
ByLayer
370
-1
48
1
60
0
100
AcDbMText
10
-184.211
20
-3.659211
30
0
210
0
220
0
230
1
1
\W01.000;\fsimplex.shx,bigfont.shx;%%c32 
40
4.5
41
0
44
1.084337
50
90
71
7
72
5
7
DEFAULT
0
LINE
5
11F
100
AcDbEntity
8
SK2
62
256
6
ByLayer
370
-1
48
1
60
0
100
AcDbLine
10
-175.336
20
-15.98925
30
0
11
-185.086
21
-15.98925
31
0
39
0
210
0
220
0
230
1
0
LINE
5
120
100
AcDbEntity
8
SK2
62
256
6
ByLayer
370
-1
48
1
60
0
100
AcDbLine
10
-175.336
20
15.98925
30
0
11
-185.086
21
15.98925
31
0
39
0
210
0
220
0
230
1
0
LINE
5
121
100
AcDbEntity
8
SK2
62
256
6
ByLayer
370
-1
48
1
60
0
100
AcDbLine
10
-183.086
20
-15.98925
30
0
11
-183.086
21
15.98925
31
0
39
0
210
0
220
0
230
1
0
LINE
5
122
100
AcDbEntity
8
SK2
62
256
6
ByLayer
370
-1
48
1
60
0
100
AcDbLine
10
-183.086
20
-15.98925
30
0
11
-183.503997
21
-12.814252
31
0
39
0
210
0
220
0
230
1
0
LINE
5
123
100
AcDbEntity
8
SK2
62
256
6
ByLayer
370
-1
48
1
60
0
100
AcDbLine
10
-183.086
20
-15.98925
30
0
11
-182.668003
21
-12.814248
31
0
39
0
210
0
220
0
230
1
0
LINE
5
124
100
AcDbEntity
8
SK2
62
256
6
ByLayer
370
-1
48
1
60
0
100
AcDbLine
10
-183.503997
20
-12.814252
30
0
11
-182.668003
21
-12.814248
31
0
39
0
210
0
220
0
230
1
0
LINE
5
125
100
AcDbEntity
8
SK2
62
256
6
ByLayer
370
-1
48
1
60
0
100
AcDbLine
10
-183.086
20
15.98925
30
0
11
-182.668003
21
12.814252
31
0
39
0
210
0
220
0
230
1
0
LINE
5
126
100
AcDbEntity
8
SK2
62
256
6
ByLayer
370
-1
48
1
60
0
100
AcDbLine
10
-183.086
20
15.98925
30
0
11
-183.503997
21
12.814248
31
0
39
0
210
0
220
0
230
1
0
LINE
5
127
100
AcDbEntity
8
SK2
62
256
6
ByLayer
370
-1
48
1
60
0
100
AcDbLine
10
-182.668003
20
12.814252
30
0
11
-183.503997
21
12.814248
31
0
39
0
210
0
220
0
230
1
0
ENDBLK
5
129
100
AcDbEntity
8
0
100
AcDbBlockEnd
0
BLOCK
5
136
100
AcDbEntity
8
0
100
AcDbBlockBegin
2
DimnDraft3D3
70
0
10
0
20
0
30
0
3
DimnDraft3D3
0
MTEXT
5
12C
100
AcDbEntity
8
SK2
62
256
6
ByLayer
370
-1
48
1
60
0
100
AcDbMText
10
-28.401132
20
-38.025
30
0
210
0
220
0
230
1
1
\W01.000;\fsimplex.shx,bigfont.shx;300.0 
40
4.5
41
0
44
1.084337
50
0
71
7
72
5
7
DEFAULT
0
LINE
5
12D
100
AcDbEntity
8
SK2
62
256
6
ByLayer
370
-1
48
1
60
0
100
AcDbLine
10
-173.336
20
-17.98925
30
0
11
-173.336
21
-41.15
31
0
39
0
210
0
220
0
230
1
0
LINE
5
12E
100
AcDbEntity
8
SK2
62
256
6
ByLayer
370
-1
48
1
60
0
100
AcDbLine
10
127.914
20
-23.9
30
0
11
127.914
21
-41.15
31
0
39
0
210
0
220
0
230
1
0
LINE
5
12F
100
AcDbEntity
8
SK2
62
256
6
ByLayer
370
-1
48
1
60
0
100
AcDbLine
10
-173.336
20
-39.15
30
0
11
127.914
21
-39.15
31
0
39
0
210
0
220
0
230
1
0
LINE
5
130
100
AcDbEntity
8
SK2
62
256
6
ByLayer
370
-1
48
1
60
0
100
AcDbLine
10
-173.336
20
-39.15
30
0
11
-170.161002
21
-38.732003
31
0
39
0
210
0
220
0
230
1
0
LINE
5
131
100
AcDbEntity
8
SK2
62
256
6
ByLayer
370
-1
48
1
60
0
100
AcDbLine
10
-173.336
20
-39.15
30
0
11
-170.160998
21
-39.567997
31
0
39
0
210
0
220
0
230
1
0
LINE
5
132
100
AcDbEntity
8
SK2
62
256
6
ByLayer
370
-1
48
1
60
0
100
AcDbLine
10
-170.161002
20
-38.732003
30
0
11
-170.160998
21
-39.567997
31
0
39
0
210
0
220
0
230
1
0
LINE
5
133
100
AcDbEntity
8
SK2
62
256
6
ByLayer
370
-1
48
1
60
0
100
AcDbLine
10
127.914
20
-39.15
30
0
11
124.739002
21
-39.567997
31
0
39
0
210
0
220
0
230
1
0
LINE
5
134
100
AcDbEntity
8
SK2
62
256
6
ByLayer
370
-1
48
1
60
0
100
AcDbLine
10
127.914
20
-39.15
30
0
11
124.738998
21
-38.732003
31
0
39
0
210
0
220
0
230
1
0
LINE
5
135
100
AcDbEntity
8
SK2
62
256
6
ByLayer
370
-1
48
1
60
0
100
AcDbLine
10
124.739002
20
-39.567997
30
0
11
124.738998
21
-38.732003
31
0
39
0
210
0
220
0
230
1
0
ENDBLK
5
137
100
AcDbEntity
8
0
100
AcDbBlockEnd
0
BLOCK
5
144
100
AcDbEntity
8
0
100
AcDbBlockBegin
2
DimnDraft3D4
70
0
10
0
20
0
30
0
3
DimnDraft3D4
0
MTEXT
5
13A
100
AcDbEntity
8
2
62
256
6
ByLayer
370
-1
48
1
60
0
100
AcDbMText
10
149.842132
20
31.938034
30
0
210
0
220
0
230
1
1
\W01.000;\fsimplex.shx,bigfont.shx;93%%d0' 
40
4.5
41
0
44
1.084337
50
316.5
71
7
72
5
7
DEFAULT
0
LINE
5
13B
100
AcDbEntity
8
2
62
256
6
ByLayer
370
-1
48
1
60
0
100
AcDbLine
10
126.971953
20
-3.924668
30
0
11
124.676683
21
39.871689
31
0
39
0
210
0
220
0
230
1
0
LINE
5
13C
100
AcDbEntity
8
2
62
256
6
ByLayer
370
-1
48
1
60
0
100
AcDbLine
10
129.914
20
0
30
0
11
166.692676
21
0
31
0
39
0
210
0
220
0
230
1
0
ARC
5
13D
100
AcDbEntity
8
2
62
256
6
ByLayer
370
-1
48
1
60
0
100
AcDbCircle
39
0
10
126.76627
20
0
30
0
40
37.9264068640929
210
0
220
0
230
1
100
AcDbArc
50
0
51
93
0
LINE
5
13E
100
AcDbEntity
8
2
62
256
6
ByLayer
370
-1
48
1
60
0
100
AcDbLine
10
124.781355
20
37.87443
30
0
11
127.941643
21
38.392036
31
0
39
0
210
0
220
0
230
1
0
LINE
5
13F
100
AcDbEntity
8
2
62
256
6
ByLayer
370
-1
48
1
60
0
100
AcDbLine
10
124.781355
20
37.87443
30
0
11
127.967928
21
37.556456
31
0
39
0
210
0
220
0
230
1
0
LINE
5
140
100
AcDbEntity
8
2
62
256
6
ByLayer
370
-1
48
1
60
0
100
AcDbLine
10
127.941643
20
38.392036
30
0
11
127.967928
21
37.556456
31
0
39
0
210
0
220
0
230
1
0
LINE
5
141
100
AcDbEntity
8
2
62
256
6
ByLayer
370
-1
48
1
60
0
100
AcDbLine
10
164.692676
20
0
30
0
11
164.208366
21
3.165562
31
0
39
0
210
0
220
0
230
1
0
LINE
5
142
100
AcDbEntity
8
2
62
256
6
ByLayer
370
-1
48
1
60
0
100
AcDbLine
10
164.692676
20
0
30
0
11
165.044177
21
3.183049
31
0
39
0
210
0
220
0
230
1
0
LINE
5
143
100
AcDbEntity
8
2
62
256
6
ByLayer
370
-1
48
1
60
0
100
AcDbLine
10
164.208366
20
3.165562
30
0
11
165.044177
21
3.183049
31
0
39
0
210
0
220
0
230
1
0
ENDBLK
5
145
100
AcDbEntity
8
0
100
AcDbBlockEnd
0
ENDSEC
0
SECTION
2
ENTITIES
0
ELLIPSE
5
8D
100
AcDbEntity
8
1
62
256
6
ByLayer
370
-1
48
1
60
0
100
AcDbEllipse
10
117.324299
20
4.817392
30
0
11
-1.49794430213186
21
-0.0785039343644313
31
0
210
0
220
0
230
1
40
0.985307
41
2.35827684290264
42
0.104917041938725
0
ELLIPSE
5
8E
100
AcDbEntity
8
1
62
256
6
ByLayer
370
-1
48
1
60
0
100
AcDbEllipse
10
117.2938
20
5.399357
30
0
11
1.63106029070087
21
-2.66653415964503
31
0
210
0
220
0
230
-1
40
0.065169
41
-1.1306118205197
42
-0.903001141498235
0
ELLIPSE
5
8F
100
AcDbEntity
8
1
62
256
6
ByLayer
370
-1
48
1
60
0
100
AcDbEllipse
10
117.257706
20
6.088062
30
0
11
-1.49794430213186
21
-0.0785039343644313
31
0
210
0
220
0
230
1
40
0.985307
41
0.445016480436369
42
2.13066616624787
0
ELLIPSE
5
90
100
AcDbEntity
8
1
62
256
6
ByLayer
370
-1
48
1
60
0
100
AcDbEllipse
10
117.251896
20
6.198925
30
0
11
1.49794430213186
21
0.0785039343644102
31
0
210
0
220
0
230
1
40
0.985307
41
-2.65447624307013
42
-0.486973506224949
0
ELLIPSE
5
91
100
AcDbEntity
8
1
62
256
6
ByLayer
370
-1
48
1
60
0
100
AcDbEllipse
10
72.141082
20
-157.326049
30
0
11
61.1349916330271
21
224.917771032693
31
0
210
3.88267476788467E-31
220
1.62739666586313E-16
230
1
40
0.162473
41
0.806223360888536
42
0.875037122444325
0
ELLIPSE
5
92
100
AcDbEntity
8
1
62
256
6
ByLayer
370
-1
48
1
60
0
100
AcDbEllipse
10
134.304845
20
-8.191146
30
0
11
7.9890362780364
21
0.41868764994351
31
0
210
0
220
0
230
1
40
0.985307
41
2.80370887997075
42
2.84709268197063
0
ELLIPSE
5
93
100
AcDbEntity
8
1
62
256
6
ByLayer
370
-1
48
1
60
0
100
AcDbEllipse
10
113.948903
20
-16.999429
30
0
11
-7.98903627803657
21
-0.418687649943633
31
0
210
0
220
0
230
1
40
0.985307
41
-1.98232187549901
42
-1.11473687826671
0
ELLIPSE
5
94
100
AcDbEntity
8
1
62
256
6
ByLayer
370
-1
48
1
60
0
100
AcDbEllipse
10
110.556159
20
-15.995634
30
0
11
53.4152919337906
21
53.02430416279
31
0
210
0
220
0
230
-1
40
0.064176
41
-1.58857361140156
42
-1.54939984503135
0
ELLIPSE
5
95
100
AcDbEntity
8
1
62
256
6
ByLayer
370
-1
48
1
60
0
100
AcDbEllipse
10
116.720256
20
2.853708
30
0
11
1.9623147490498
21
0.102840558252051
31
0
210
0
220
0
230
1
40
0.985307
41
1.98218070164046
42
-2.53072741539163
0
ELLIPSE
5
96
100
AcDbEntity
8
1
62
256
6
ByLayer
370
-1
48
1
60
0
100
AcDbEllipse
10
116.653663
20
4.124378
30
0
11
-1.62277299397618
21
-0.0850459288948005
31
0
210
0
220
0
230
1
40
0.985307
41
0.163280806483359
42
0.610865238198022
0
ELLIPSE
5
97
100
AcDbEntity
8
1
62
256
6
ByLayer
370
-1
48
1
60
0
100
AcDbEllipse
10
116.680908
20
3.604511
30
0
11
-1.62277299397618
21
-0.0850459288948005
31
0
210
0
220
0
230
1
40
0.985307
41
-0.26033016832815
42
0.610865238197978
0
ELLIPSE
5
98
100
AcDbEntity
8
1
62
256
6
ByLayer
370
-1
48
1
60
0
100
AcDbEllipse
10
117.992153
20
3.681657
30
0
11
0.79371297400712
21
-0.0319157730355829
31
0
210
0
220
0
230
-1
40
0.988189
41
-2.33847153138947
42
-1.59910044437721
0
ELLIPSE
5
99
100
AcDbEntity
8
1
62
256
6
ByLayer
370
-1
48
1
60
0
100
AcDbEllipse
10
117.889163
20
3.254049
30
0
11
0.793712974004492
21
-0.0319157735941446
31
0
210
0
220
0
230
-1
40
0.988189
41
-3.11042883676019
42
-0.827143140407184
0
ELLIPSE
5
9A
100
AcDbEntity
8
1
62
256
6
ByLayer
370
-1
48
1
60
0
100
AcDbEllipse
10
118.16795
20
4.411557
30
0
11
0.987573025714143
21
1.40733509559507
31
0
210
0
220
0
230
-1
40
0.301661
41
-2.48846178545633
42
-1.879242757753
0
ELLIPSE
5
9B
100
AcDbEntity
8
1
62
256
6
ByLayer
370
-1
48
1
60
0
100
AcDbEllipse
10
126.791974
20
-7.359076
30
0
11
0.398772300213993
21
0.0472260420357056
31
0
210
0
220
0
230
-1
40
0.981776
41
-0.544137103998428
42
0.0643289731358194
0
ELLIPSE
5
9C
100
AcDbEntity
8
1
62
256
6
ByLayer
370
-1
48
1
60
0
100
AcDbEllipse
10
126.340322
20
-6.698216
30
0
11
0.398772300291527
21
0.0472260439614189
31
0
210
0
220
0
230
-1
40
0.981776
41
-0.544137099134126
42
-0.474125849663321
0
ELLIPSE
5
9D
100
AcDbEntity
8
1
62
256
6
ByLayer
370
-1
48
1
60
0
100
AcDbEllipse
10
122.507883
20
-8.940261
30
0
11
3.04036173350947
21
0.159338606670357
31
0
210
0
220
0
230
1
40
0.985307
41
0
42
6.28318530717959
0
ELLIPSE
5
9E
100
AcDbEntity
8
1
62
256
6
ByLayer
370
-1
48
1
60
0
100
AcDbEllipse
10
118.223793
20
-10.521446
30
0
11
0.398772300195568
21
0.0472260412053911
31
0
210
0
220
0
230
-1
40
0.981776
41
2.59745554749977
42
-3.07726368245434
0
ELLIPSE
5
9F
100
AcDbEntity
8
1
62
256
6
ByLayer
370
-1
48
1
60
0
100
AcDbEllipse
10
122.498766
20
-8.766292
30
0
11
2.99588860426389
21
0.157007868728829
31
0
210
0
220
0
230
1
40
0.985307
41
3.08845356455897
42
0
0
ELLIPSE
5
A0
100
AcDbEntity
8
1
62
256
6
ByLayer
370
-1
48
1
60
0
100
AcDbEllipse
10
122.498766
20
-8.766292
30
0
11
2.99588860426389
21
0.157007868728829
31
0
210
0
220
0
230
1
40
0.985307
41
0
42
0.226069853841456
0
ELLIPSE
5
A1
100
AcDbEntity
8
1
62
256
6
ByLayer
370
-1
48
1
60
0
100
AcDbEllipse
10
122.498766
20
-8.766292
30
0
11
2.99588860426389
21
0.157007868728829
31
0
210
0
220
0
230
1
40
0.985307
41
2.91537128685176
42
3.08845356455897
0
ELLIPSE
5
A2
100
AcDbEntity
8
1
62
256
6
ByLayer
370
-1
48
1
60
0
100
AcDbEllipse
10
122.497325
20
-8.738795
30
0
11
2.94041639042792
21
0.154100693189772
31
0
210
0
220
0
230
1
40
0.985307
41
3.08845354132606
42
0
0
ELLIPSE
5
A3
100
AcDbEntity
8
1
62
256
6
ByLayer
370
-1
48
1
60
0
100
AcDbEllipse
10
122.497325
20
-8.738795
30
0
11
2.94041639042792
21
0.154100693189772
31
0
210
0
220
0
230
1
40
0.985307
41
0
42
0.48063711620988
0
ELLIPSE
5
A4
100
AcDbEntity
8
1
62
256
6
ByLayer
370
-1
48
1
60
0
100
AcDbEllipse
10
122.497325
20
-8.738795
30
0
11
2.94041639042792
21
0.154100693189772
31
0
210
0
220
0
230
1
40
0.985307
41
2.66090234825645
42
3.08845354132607
0
ELLIPSE
5
A5
100
AcDbEntity
8
1
62
256
6
ByLayer
370
-1
48
1
60
0
100
AcDbEllipse
10
127.126603
20
-21.134571
30
0
11
0.7937129740047
21
-0.0319157735907651
31
0
210
0
220
0
230
-1
40
0.988189
41
0.0311638168339076
42
2.31444951318692
0
ELLIPSE
5
A6
100
AcDbEntity
8
1
62
256
6
ByLayer
370
-1
48
1
60
0
100
AcDbEllipse
10
118.16795
20
4.411557
30
0
11
0.591524578242862
21
-0.919006637431592
31
0
210
0
220
0
230
-1
40
0.101829
41
0.92407161890171
42
1.69602892365036
0
ELLIPSE
5
A7
100
AcDbEntity
8
1
62
256
6
ByLayer
370
-1
48
1
60
0
100
AcDbEllipse
10
122.181318
20
-10.486355
30
0
11
-0.685059860841637
21
-0.0359024659826666
31
0
210
0
220
0
230
1
40
0.985307
41
-2.57155785307436
42
-1.7875672094534
0
ELLIPSE
5
A8
100
AcDbEntity
8
1
62
256
6
ByLayer
370
-1
48
1
60
0
100
AcDbEllipse
10
122.505225
20
-8.889538
30
0
11
1.67420241501603
21
0.0877412306412884
31
0
210
0
220
0
230
1
40
0.985307
41
2.92063594940912
42
-2.30977071121108
0
ELLIPSE
5
A9
100
AcDbEntity
8
1
62
256
6
ByLayer
370
-1
48
1
60
0
100
AcDbEllipse
10
122.505225
20
-8.889538
30
0
11
1.67420241501603
21
0.0877412306412884
31
0
210
0
220
0
230
1
40
0.985307
41
-0.220956704180668
42
0.831821942378587
0
ELLIPSE
5
AA
100
AcDbEntity
8
1
62
256
6
ByLayer
370
-1
48
1
60
0
100
AcDbEllipse
10
122.505225
20
-8.889538
30
0
11
1.67420241501603
21
0.0877412306412884
31
0
210
0
220
0
230
1
40
0.985307
41
0.831821942378587
42
1.8762289458939
0
ELLIPSE
5
AB
100
AcDbEntity
8
1
62
256
6
ByLayer
370
-1
48
1
60
0
100
AcDbEllipse
10
122.492711
20
-8.650758
30
0
11
2.62140252873075
21
0.137381885137717
31
0
210
0
220
0
230
1
40
0.985307
41
3.08845351623168
42
-3.14152100026004
0
ELLIPSE
5
AC
100
AcDbEntity
8
1
62
256
6
ByLayer
370
-1
48
1
60
0
100
AcDbEllipse
10
122.492711
20
-8.650758
30
0
11
2.62140252873075
21
0.137381885137717
31
0
210
0
220
0
230
1
40
0.985307
41
0
42
3.0884532638336
0
ELLIPSE
5
AD
100
AcDbEntity
8
1
62
256
6
ByLayer
370
-1
48
1
60
0
100
AcDbEllipse
10
122.492488
20
-8.646494
30
0
11
-1.20484653368138
21
-0.063143331207123
31
0
210
0
220
0
230
1
40
0.985307
41
0.374465252510396
42
1.35402544413633
0
ELLIPSE
5
AE
100
AcDbEntity
8
1
62
256
6
ByLayer
370
-1
48
1
60
0
100
AcDbEllipse
10
123.950121
20
-9.83352
30
0
11
-0.685059860841637
21
-0.0359024659826666
31
0
210
0
220
0
230
1
40
0.985307
41
-1.5271508495592
42
-0.74316020593823
0
ELLIPSE
5
AF
100
AcDbEntity
8
1
62
256
6
ByLayer
370
-1
48
1
60
0
100
AcDbEllipse
10
123.950121
20
-9.83352
30
0
11
-0.685059860841637
21
-0.0359024659826666
31
0
210
0
220
0
230
1
40
0.985307
41
-0.74316020593823
42
-1.0907179704823E-05
0
ELLIPSE
5
B0
100
AcDbEntity
8
1
62
256
6
ByLayer
370
-1
48
1
60
0
100
AcDbEllipse
10
122.492488
20
-8.646494
30
0
11
1.20484653368138
21
0.0631433312071064
31
0
210
0
220
0
230
1
40
0.985307
41
-2.90519266790201
42
-2.76712740107942
0
ELLIPSE
5
B1
100
AcDbEntity
8
1
62
256
6
ByLayer
370
-1
48
1
60
0
100
AcDbEllipse
10
122.505225
20
-8.889538
30
0
11
1.79753316255822
21
0.0942047212372912
31
0
210
0
220
0
230
1
40
0.985307
41
0
42
6.28318530717959
0
ELLIPSE
5
B2
100
AcDbEntity
8
1
62
256
6
ByLayer
370
-1
48
1
60
0
100
AcDbEllipse
10
122.492488
20
-8.646494
30
0
11
1.20484653368138
21
0.0631433312071064
31
0
210
0
220
0
230
1
40
0.985307
41
-0.743160205938265
42
0.025687363170435
0
ELLIPSE
5
B3
100
AcDbEntity
8
1
62
256
6
ByLayer
370
-1
48
1
60
0
100
AcDbEllipse
10
123.857124
20
-8.87436
30
0
11
-0.291599824148335
21
-0.0152820992229425
31
0
210
0
220
0
230
1
40
0.985307
41
1.61444180403051
42
2.70579885378761
0
ELLIPSE
5
B4
100
AcDbEntity
8
1
62
256
6
ByLayer
370
-1
48
1
60
0
100
AcDbEllipse
10
122.505225
20
-8.889538
30
0
11
1.67420241501603
21
0.0877412306412884
31
0
210
0
220
0
230
1
40
0.985307
41
-2.30977071121108
42
-1.26536370769597
0
ELLIPSE
5
B5
100
AcDbEntity
8
1
62
256
6
ByLayer
370
-1
48
1
60
0
100
AcDbEllipse
10
120.726837
20
-9.298165
30
0
11
-0.685059860841637
21
-0.0359024659826666
31
0
210
0
220
0
230
1
40
0.985307
41
3.14158328212193
42
-2.95777407570659
0
ELLIPSE
5
B6
100
AcDbEntity
8
1
62
256
6
ByLayer
370
-1
48
1
60
0
100
AcDbEllipse
10
122.492488
20
-8.646494
30
0
11
-1.20484653368138
21
-0.063143331207123
31
0
210
0
220
0
230
1
40
0.985307
41
1.35402544413633
42
2.39843244765157
0
ELLIPSE
5
B7
100
AcDbEntity
8
1
62
256
6
ByLayer
370
-1
48
1
60
0
100
AcDbEllipse
10
122.502763
20
-8.84256
30
0
11
2.62140252873074
21
0.137381885137717
31
0
210
0
220
0
230
1
40
0.985307
41
0
42
6.28318530717959
0
ELLIPSE
5
B8
100
AcDbEntity
8
1
62
256
6
ByLayer
370
-1
48
1
60
0
100
AcDbEllipse
10
122.976334
20
-9.923942
30
0
11
-0.291599824148335
21
-0.0152820992229425
31
0
210
0
220
0
230
1
40
0.985307
41
0.570034800515489
42
3.06682467483985
0
ELLIPSE
5
B9
100
AcDbEntity
8
1
62
256
6
ByLayer
370
-1
48
1
60
0
100
AcDbEllipse
10
122.492488
20
-8.646494
30
0
11
-1.20484653368138
21
-0.063143331207123
31
0
210
0
220
0
230
1
40
0.985307
41
-2.74175042560601
42
-2.15231579570069
0
ELLIPSE
5
BA
100
AcDbEntity
8
1
62
256
6
ByLayer
370
-1
48
1
60
0
100
AcDbEllipse
10
120.726837
20
-9.298165
30
0
11
-0.685059860841637
21
-0.0359024659826666
31
0
210
0
220
0
230
1
40
0.985307
41
-2.71454599327494
42
-2.04489869956977
0
ELLIPSE
5
BB
100
AcDbEntity
8
1
62
256
6
ByLayer
370
-1
48
1
60
0
100
AcDbEllipse
10
124.258138
20
-7.994822
30
0
11
-0.685059860841637
21
-0.0359024659826666
31
0
210
0
220
0
230
1
40
0.985307
41
-0.485828715822188
42
-9.69223481578104E-06
0
ELLIPSE
5
BC
100
AcDbEntity
8
1
62
256
6
ByLayer
370
-1
48
1
60
0
100
AcDbEllipse
10
122.181318
20
-10.486355
30
0
11
-0.685059860841637
21
-0.0359024659826666
31
0
210
0
220
0
230
1
40
0.985307
41
-1.7875672094534
42
-1.00357656583277
0
ELLIPSE
5
BD
100
AcDbEntity
8
1
62
256
6
ByLayer
370
-1
48
1
60
0
100
AcDbEllipse
10
122.492488
20
-8.646494
30
0
11
-1.20484653368138
21
-0.063143331207123
31
0
210
0
220
0
230
1
40
0.985307
41
-0.401676323246453
42
0.236399985687798
0
ELLIPSE
5
BE
100
AcDbEntity
8
1
62
256
6
ByLayer
370
-1
48
1
60
0
100
AcDbEllipse
10
121.127851
20
-8.418628
30
0
11
-0.291599824148335
21
-0.0152820992229425
31
0
210
0
220
0
230
1
40
0.985307
41
0.432206722871266
42
1.09669395402028
0
ELLIPSE
5
BF
100
AcDbEntity
8
1
62
256
6
ByLayer
370
-1
48
1
60
0
100
AcDbEllipse
10
122.505225
20
-8.889538
30
0
11
1.67420241501603
21
0.0877412306412884
31
0
210
0
220
0
230
1
40
0.985307
41
1.8762289458939
42
2.92063594940912
0
ELLIPSE
5
C0
100
AcDbEntity
8
1
62
256
6
ByLayer
370
-1
48
1
60
0
100
AcDbEllipse
10
121.614035
20
-9.702246
30
0
11
-0.291599824148335
21
-0.0152820992229425
31
0
210
0
220
0
230
1
40
0.985307
41
0.397381749993114
42
2.13801608775709
0
ELLIPSE
5
C1
100
AcDbEntity
8
1
62
256
6
ByLayer
370
-1
48
1
60
0
100
AcDbEllipse
10
122.492488
20
-8.646494
30
0
11
-1.20484653368138
21
-0.063143331207123
31
0
210
0
220
0
230
1
40
0.985307
41
-1.47127524491871
42
-0.909009109286689
0
ELLIPSE
5
C2
100
AcDbEntity
8
1
62
256
6
ByLayer
370
-1
48
1
60
0
100
AcDbEllipse
10
122.502799
20
-8.843257
30
0
11
1.20484653368139
21
0.0631433312071072
31
0
210
0
220
0
230
1
40
0.985307
41
-2.90519266790209
42
-2.76712740107938
0
ELLIPSE
5
C3
100
AcDbEntity
8
1
62
256
6
ByLayer
370
-1
48
1
60
0
100
AcDbEllipse
10
122.505225
20
-8.889538
30
0
11
1.67420241501603
21
0.0877412306412884
31
0
210
0
220
0
230
1
40
0.985307
41
-1.26536370769597
42
-0.220956704180668
0
ELLIPSE
5
C4
100
AcDbEntity
8
1
62
256
6
ByLayer
370
-1
48
1
60
0
100
AcDbEllipse
10
122.502799
20
-8.843257
30
0
11
1.20484653368139
21
0.0631433312071072
31
0
210
0
220
0
230
1
40
0.985307
41
0.236399985687362
42
0.374465252510544
0
ELLIPSE
5
C5
100
AcDbEntity
8
1
62
256
6
ByLayer
370
-1
48
1
60
0
100
AcDbEllipse
10
117.889016
20
4.236225
30
0
11
-0.429410699944467
21
-0.0225044611844701
31
0
210
0
220
0
230
1
40
0.985307
41
-2.22913647448028
42
-0.11273775555718
0
POINT
5
41
100
AcDbEntity
8
80
62
256
6
ByLayer
370
-1
48
1
60
0
100
AcDbPoint
10
0
20
0
30
0
39
0
210
0
220
0
230
1
50
360
0
POINT
5
43
100
AcDbEntity
8
81
62
256
6
ByLayer
370
-1
48
1
60
0
100
AcDbPoint
10
127.914
20
-21.9
30
0
39
0
210
0
220
0
230
1
50
360
0
POINT
5
45
100
AcDbEntity
8
1
62
256
6
ByLayer
370
-1
48
1
60
0
100
AcDbPoint
10
-173.336
20
0
30
0
39
0
210
0
220
0
230
1
50
360
0
POINT
5
47
100
AcDbEntity
8
2
62
256
6
ByLayer
370
-1
48
1
60
0
100
AcDbPoint
10
127.914
20
21.9
30
0
39
0
210
0
220
0
230
1
50
360
0
POINT
5
49
100
AcDbEntity
8
2
62
256
6
ByLayer
370
-1
48
1
60
0
100
AcDbPoint
10
127.807637
20
19.305813
30
0
39
0
210
0
220
0
230
1
50
360
0
SPLINE
5
C6
100
AcDbEntity
8
1
62
256
6
ByLayer
370
-1
48
1
60
0
100
AcDbSpline
70
4
71
3
72
10
73
6
40
0
40
0
40
0
40
0
40
0.5
40
0.5
40
1
40
1
40
1
40
1
41
1
10
83.2774339318427
20
-5.53679650723265
30
0
41
1
10
83.1086808370388
20
-7.29754056690751
30
0
41
1
10
83.2857129812498
20
-8.96483365921125
30
0
41
1
10
84.446160801977
20
-11.6946805046189
30
0
41
1
10
85.4247090386247
20
-12.7489755873629
30
0
41
1
10
86.6647918976025
20
-13.5107500000006
30
0
0
SPLINE
5
C7
100
AcDbEntity
8
1
62
256
6
ByLayer
370
-1
48
1
60
0
100
AcDbSpline
70
4
71
3
72
8
73
4
40
0
40
0
40
0
40
0
40
1
40
1
40
1
40
1
41
1
10
108.296838469985
20
-11.4339675021701
30
0
41
1
10
108.822701278297
20
-10.9133858014133
30
0
41
1
10
109.410374238275
20
-10.4738022715523
30
0
41
1
10
110.060049072415
20
-10.1166926171909
30
0
0
SPLINE
5
C8
100
AcDbEntity
8
1
62
256
6
ByLayer
370
-1
48
1
60
0
100
AcDbSpline
70
4
71
3
72
36
73
32
40
-0.125000000000024
40
-0.125000000000024
40
0
40
0
40
0.124999999999985
40
0.124999999999985
40
0.18749999999998
40
0.18749999999998
40
0.218749999999978
40
0.218749999999978
40
0.249999999999975
40
0.249999999999975
40
0.31249999999997
40
0.31249999999997
40
0.374999999999965
40
0.374999999999965
40
0.499999999999956
40
0.499999999999956
40
0.624999999999946
40
0.624999999999946
40
0.687499999999941
40
0.687499999999941
40
0.718749999999942
40
0.718749999999942
40
0.734374999999945
40
0.734374999999945
40
0.749999999999948
40
0.749999999999948
40
0.812499999999962
40
0.812499999999962
40
0.874999999999976
40
0.874999999999976
40
1
40
1
40
1.12499999999998
40
1.12499999999998
41
1
10
101.394151731479
20
-7.50490449008382
30
0
41
1
10
99.5126137610565
20
-6.59680656211034
30
0
41
1
10
98.5459280119695
20
-6.22903238346782
30
0
41
1
10
97.01575454649
20
-6.04000796921406
30
0
41
1
10
96.4867370448274
20
-6.03354370022026
30
0
41
1
10
95.7354074339322
20
-6.29284824191799
30
0
41
1
10
95.4841867539607
20
-6.4349458730382
30
0
41
1
10
95.1288018286173
20
-6.87029018707543
30
0
41
1
10
95.0470682918325
20
-7.16058796620169
30
0
41
1
10
95.0903337564721
20
-7.96127805254326
30
0
41
1
10
95.3959129215256
20
-8.40562788828146
30
0
41
1
10
96.0736356742337
20
-9.14155069876423
30
0
41
1
10
96.478007400556
20
-9.4483665791208
30
0
41
1
10
97.7569447753079
20
-10.2530508877601
30
0
41
1
10
98.7250483503811
20
-10.65223318549
30
0
41
1
10
100.714374663601
20
-11.2897956918485
30
0
41
1
10
101.748413863792
20
-11.5357255463988
30
0
41
1
10
103.370091326303
20
-11.7633979556293
30
0
41
1
10
103.920921595033
20
-11.820561274967
30
0
41
1
10
104.745386195623
20
-11.7833402537035
30
0
41
1
10
105.034186509365
20
-11.7615686417899
30
0
41
1
10
105.407550703404
20
-11.5616198830647
30
0
41
1
10
105.513081827328
20
-11.4482462046221
30
0
41
1
10
105.556221952655
20
-11.1715934523194
30
0
41
1
10
105.511476995615
20
-11.0349194109299
30
0
41
1
10
105.221086292386
20
-10.4146582136712
30
0
41
1
10
104.805258102704
20
-10.039223091219
30
0
41
1
10
104.007957036759
20
-9.31775159833617
30
0
41
1
10
103.58879355836
20
-8.98832038571305
30
0
41
1
10
102.300268687502
20
-8.05566432363054
30
0
41
1
10
101.394151731479
20
-7.50490449008382
30
0
41
1
10
99.5126137610565
20
-6.59680656211034
30
0
0
SPLINE
5
C9
100
AcDbEntity
8
1
62
256
6
ByLayer
370
-1
48
1
60
0
100
AcDbSpline
70
4
71
3
72
14
73
10
40
0
40
0
40
0
40
0
40
0.25
40
0.25
40
0.5
40
0.5
40
0.75
40
0.75
40
1
40
1
40
1
40
1
41
1
10
113.086054544147
20
14.7557336602017
30
0
41
1
10
110.692820373174
20
14.6600955527158
30
0
41
1
10
108.337692027838
20
14.4813539214612
30
0
41
1
10
103.704950024791
20
13.8549851522041
30
0
41
1
10
101.426291161134
20
13.4018340387362
30
0
41
1
10
97.1374860241842
20
12.0797317362656
30
0
41
1
10
95.0812429378842
20
11.1959191258732
30
0
41
1
10
91.2986845350007
20
8.82651826711628
30
0
41
1
10
89.573711216224
20
7.33828947522565
30
0
41
1
10
88.0881786046883
20
5.53679650723211
30
0
0
SPLINE
5
CA
100
AcDbEntity
8
1
62
256
6
ByLayer
370
-1
48
1
60
0
100
AcDbSpline
70
4
71
3
72
10
73
6
40
0
40
0
40
0
40
0
40
0.679347771445112
40
0.679347771445112
40
1
40
1
40
1
40
1
41
1
10
115.896945885981
20
5.00582789561628
30
0
41
1
10
115.876477138291
20
4.90642302686231
30
0
41
1
10
115.861307441092
20
4.80984563176122
30
0
41
1
10
115.847541357564
20
4.67162911078492
30
0
41
1
10
115.844427694645
20
4.62790464831497
30
0
41
1
10
115.842692452338
20
4.58475291012942
30
0
0
SPLINE
5
CB
100
AcDbEntity
8
SK1
62
256
6
ByLayer
370
-1
48
1
60
0
100
AcDbSpline
70
4
71
3
72
12
73
8
40
0
40
0
40
0
40
0
40
0.0003053505528132
40
0.0003053505528132
40
0.500152675276407
40
0.500152675276407
40
1
40
1
40
1
40
1
41
1
10
-173.314499024952
20
-13.51075
30
0
41
1
10
-173.31450101572
20
-13.51075
30
0
41
1
10
-173.314499006088
20
-13.51075
30
0
41
1
10
-173.314242838719
20
-13.51075
30
0
41
1
10
-173.049966672914
20
-13.51075
30
0
41
1
10
-172.160962318699
20
-13.51075
30
0
41
1
10
-171.546229659649
20
-13.51075
30
0
41
1
10
-170.836
20
-13.51075
30
0
0
SPLINE
5
CC
100
AcDbEntity
8
SK1
62
256
6
ByLayer
370
-1
48
1
60
0
100
AcDbSpline
70
4
71
3
72
10
73
6
40
0
40
0
40
0
40
0
40
0.5
40
0.5
40
1
40
1
40
1
40
1
41
1
10
-170.836
20
-5.53679650723234
30
0
41
1
10
-171.455109452747
20
-3.74892227266315
30
0
41
1
10
-171.82407495792
20
-1.90868703143693
30
0
41
1
10
-171.82641932943
20
1.89017327916392
30
0
41
1
10
-171.452083151065
20
3.75766167533217
30
0
41
1
10
-170.836
20
5.53679650723237
30
0
0
SPLINE
5
CD
100
AcDbEntity
8
1
62
256
6
ByLayer
370
-1
48
1
60
0
100
AcDbSpline
70
4
71
3
72
16
73
12
40
0
40
0
40
0
40
0
40
0.0938454952139998
40
0.0938454952139998
40
0.316270305547174
40
0.316270305547174
40
0.543229641589637
40
0.543229641589637
40
0.786047660959245
40
0.786047660959245
40
1
40
1
40
1
40
1
41
1
10
124.157671640882
20
-9.16546237631377
30
0
41
1
10
124.15556066123
20
-9.17762988623971
30
0
41
1
10
124.152641944593
20
-9.18962863548535
30
0
41
1
10
124.140280403325
20
-9.22878320981079
30
0
41
1
10
124.127098697789
20
-9.25480846350413
30
0
41
1
10
124.093897690408
20
-9.30047073886143
30
0
41
1
10
124.073344153855
20
-9.32056101211066
30
0
41
1
10
124.026655715658
20
-9.35357132969247
30
0
41
1
10
123.999667265802
20
-9.36633182077779
30
0
41
1
10
123.947444639533
20
-9.3814521889781
30
0
41
1
10
123.921951344382
20
-9.38502648113936
30
0
41
1
10
123.896653461227
20
-9.38519780659431
30
0
0
SPLINE
5
CE
100
AcDbEntity
8
1
62
256
6
ByLayer
370
-1
48
1
60
0
100
AcDbSpline
70
4
71
3
72
18
73
14
40
0
40
0
40
0
40
0
40
0.201579919900506
40
0.201579919900506
40
0.377650919135899
40
0.377650919135899
40
0.555530962744372
40
0.555530962744372
40
0.70891774964296
40
0.70891774964296
40
0.909874605125413
40
0.909874605125413
40
1
40
1
40
1
40
1
41
1
10
121.795171514968
20
-10.1608192832522
30
0
41
1
10
121.849699314307
20
-10.1162993088988
30
0
41
1
10
121.91177157164
20
-10.0789568458758
30
0
41
1
10
122.037500708512
20
-10.0294079198604
30
0
41
1
10
122.101467663383
20
-10.0142376200975
30
0
41
1
10
122.232133137243
20
-10.0053240699021
30
0
41
1
10
122.300839380127
20
-10.0119272112615
30
0
41
1
10
122.421086969895
20
-10.0444402347569
30
0
41
1
10
122.475146263627
20
-10.0678522333318
30
0
41
1
10
122.587747122208
20
-10.1351725234275
30
0
41
1
10
122.644531049035
20
-10.18407506925
30
0
41
1
10
122.713191064922
20
-10.2632522828841
30
0
41
1
10
122.732875456763
20
-10.2892934991511
30
0
41
1
10
122.750731206103
20
-10.3163241840591
30
0
0
SPLINE
5
CF
100
AcDbEntity
8
1
62
256
6
ByLayer
370
-1
48
1
60
0
100
AcDbSpline
70
4
71
3
72
12
73
8
40
0
40
0
40
0
40
0
40
0.308906074568105
40
0.308906074568105
40
0.774343997884655
40
0.774343997884655
40
1
40
1
40
1
40
1
41
1
10
121.404201630093
20
-9.3362516892648
30
0
41
1
10
121.415900798705
20
-9.38502795619408
30
0
41
1
10
121.422188208769
20
-9.43578654735018
30
0
41
1
10
121.424859788179
20
-9.56075178863654
30
0
41
1
10
121.414796267777
20
-9.63585127911452
30
0
41
1
10
121.386167933114
20
-9.74014602369425
30
0
41
1
10
121.374517546186
20
-9.77356285143543
30
0
41
1
10
121.360893683048
20
-9.80576666249834
30
0
0
SPLINE
5
D0
100
AcDbEntity
8
1
62
256
6
ByLayer
370
-1
48
1
60
0
100
AcDbSpline
70
4
71
3
72
16
73
12
40
0
40
0
40
0
40
0
40
0.0602445927838106
40
0.0602445927838106
40
0.281026657472057
40
0.281026657472057
40
0.504458094976152
40
0.504458094976152
40
0.742110855137119
40
0.742110855137119
40
1
40
1
40
1
40
1
41
1
10
121.441500999596
20
-10.1679550636276
30
0
41
1
10
121.435210581391
20
-10.1628760353776
30
0
41
1
10
121.429128452833
20
-10.1575037067306
30
0
41
1
10
121.402054439483
20
-10.1313799430397
30
0
41
1
10
121.383821549919
20
-10.1070225376342
30
0
41
1
10
121.355801105414
20
-10.0544120442814
30
0
41
1
10
121.345740086227
20
-10.0254580812234
30
0
41
1
10
121.334069894468
20
-9.96521251772572
30
0
41
1
10
121.332862036967
20
-9.93314230100236
30
0
41
1
10
121.339478052814
20
-9.86880148970718
30
0
41
1
10
121.348124323335
20
-9.83595061571751
30
0
41
1
10
121.360893683048
20
-9.8057666624984
30
0
0
SPLINE
5
D1
100
AcDbEntity
8
1
62
256
6
ByLayer
370
-1
48
1
60
0
100
AcDbSpline
70
4
71
3
72
18
73
14
40
0
40
0
40
0
40
0
40
0.0257929969950936
40
0.0257929969950936
40
0.249495897554713
40
0.249495897554713
40
0.473847686676647
40
0.473847686676647
40
0.710912541549007
40
0.710912541549007
40
0.97026285431031
40
0.97026285431031
40
1
40
1
40
1
40
1
41
1
10
121.919331780151
20
-7.34266741313232
30
0
41
1
10
121.922577737864
20
-7.34146938498867
30
0
41
1
10
121.925845621578
20
-7.34032302657474
30
0
41
1
10
121.957321404453
20
-7.32984981784625
30
0
41
1
10
121.987306672799
20
-7.32435543384722
30
0
41
1
10
122.04601482445
20
-7.32172054866069
30
0
41
1
10
122.075484193795
20
-7.32455017162513
30
0
41
1
10
122.131853712149
20
-7.33776240631497
30
0
41
1
10
122.15922919684
20
-7.34870150654024
30
0
41
1
10
122.209700809046
20
-7.37779186750601
30
0
41
1
10
122.232806158776
20
-7.39686129075801
30
0
41
1
10
122.253614969442
20
-7.42056914343814
30
0
41
1
10
122.255721311788
20
-7.42306442747565
30
0
41
1
10
122.257771107821
20
-7.42558963712958
30
0
0
SPLINE
5
D2
100
AcDbEntity
8
1
62
256
6
ByLayer
370
-1
48
1
60
0
100
AcDbSpline
70
4
71
3
72
12
73
8
40
0
40
0
40
0
40
0
40
0.473213500237657
40
0.473213500237657
40
0.882043948577934
40
0.882043948577934
40
1
40
1
40
1
40
1
41
1
10
121.019869272829
20
-8.90539662190739
30
0
41
1
10
121.081694843157
20
-8.92677528475045
30
0
41
1
10
121.141246987562
20
-8.95857448249745
30
0
41
1
10
121.240542070387
20
-9.03736979199658
30
0
41
1
10
121.282909254086
20
-9.08277149165869
30
0
41
1
10
121.327730582956
20
-9.15042461297168
30
0
41
1
10
121.337225409989
20
-9.16628542402756
30
0
41
1
10
121.346033962363
20
-9.18267785764007
30
0
0
SPLINE
5
D3
100
AcDbEntity
8
1
62
256
6
ByLayer
370
-1
48
1
60
0
100
AcDbSpline
70
4
71
3
72
12
73
8
40
0
40
0
40
0
40
0
40
0.320525169969393
40
0.320525169969393
40
0.788848291737299
40
0.788848291737299
40
1
40
1
40
1
40
1
41
1
10
123.601397253289
20
-8.35026137687032
30
0
41
1
10
123.589344036455
20
-8.30152258064709
30
0
41
1
10
123.583233592037
20
-8.25245107705359
30
0
41
1
10
123.582170520169
20
-8.13732848167848
30
0
41
1
10
123.593471862949
20
-8.0718882590181
30
0
41
1
10
123.623349337983
20
-7.98590115349472
30
0
41
1
10
123.634602481681
20
-7.96012907976365
30
0
41
1
10
123.647577539624
20
-7.93555390222909
30
0
0
SPLINE
5
D4
100
AcDbEntity
8
1
62
256
6
ByLayer
370
-1
48
1
60
0
100
AcDbSpline
70
4
71
3
72
16
73
12
40
0
40
0
40
0
40
0
40
0.0354927743420419
40
0.0354927743420419
40
0.34752194670585
40
0.34752194670585
40
0.632013593557515
40
0.632013593557515
40
0.882507662978299
40
0.882507662978299
40
1
40
1
40
1
40
1
41
1
10
121.019869272829
20
-8.90539662190736
30
0
41
1
10
121.015995817578
20
-8.90405721988637
30
0
41
1
10
121.012151870479
20
-8.90262696167125
30
0
41
1
10
120.975301754693
20
-8.88791887041478
30
0
41
1
10
120.944274724885
20
-8.86745535308739
30
0
41
1
10
120.895939969987
20
-8.81693320536331
30
0
41
1
10
120.876960323745
20
-8.78702605751579
30
0
41
1
10
120.854076454219
20
-8.72495279042653
30
0
41
1
10
120.848352981925
20
-8.6925397799663
30
0
41
1
10
120.848701760831
20
-8.64459689188965
30
0
41
1
10
120.850105361101
20
-8.62902023975838
30
0
41
1
10
120.852778270326
20
-8.613613814833
30
0
0
SPLINE
5
D5
100
AcDbEntity
8
1
62
256
6
ByLayer
370
-1
48
1
60
0
100
AcDbSpline
70
4
71
3
72
16
73
12
40
0
40
0
40
0
40
0
40
0.101471882709924
40
0.101471882709924
40
0.323770480273838
40
0.323770480273838
40
0.551026726631609
40
0.551026726631609
40
0.79447863479219
40
0.79447863479219
40
1
40
1
40
1
40
1
41
1
10
123.091118131057
20
-10.4364087780145
30
0
41
1
10
123.078433615768
20
-10.4410904182717
30
0
41
1
10
123.065376574575
20
-10.4448338334456
30
0
41
1
10
123.023361356192
20
-10.4535730960563
30
0
41
1
10
122.993309090003
20
-10.454810982399
30
0
41
1
10
122.934839610271
20
-10.4479859443593
30
0
41
1
10
122.905730644395
20
-10.4396546553262
30
0
41
1
10
122.850512295594
20
-10.4143639819359
30
0
41
1
10
122.824061243234
20
-10.3965467990069
30
0
41
1
10
122.781996155718
20
-10.3580066017337
30
0
41
1
10
122.764983085207
20
-10.3378991986987
30
0
41
1
10
122.750731206103
20
-10.3163241840593
30
0
0
SPLINE
5
D6
100
AcDbEntity
8
1
62
256
6
ByLayer
370
-1
48
1
60
0
100
AcDbSpline
70
4
71
3
72
14
73
10
40
0
40
0
40
0
40
0
40
0.231607254460444
40
0.231607254460444
40
0.524486495426913
40
0.524486495426913
40
0.789099111171883
40
0.789099111171883
40
1
40
1
40
1
40
1
41
1
10
121.729662236778
20
-7.62050569773282
30
0
41
1
10
121.727263693835
20
-7.59608145675253
30
0
41
1
10
121.728693027919
20
-7.5705775291265
30
0
41
1
10
121.741239975529
20
-7.51359297807352
30
0
41
1
10
121.755132733873
20
-7.48137068079981
30
0
41
1
10
121.793640388401
20
-7.42601076456975
30
0
41
1
10
121.817735234313
20
-7.40148358842288
30
0
41
1
10
121.867833540487
20
-7.36571615164914
30
0
41
1
10
121.89302072229
20
-7.35237837999887
30
0
41
1
10
121.919331780151
20
-7.34266741313232
30
0
0
SPLINE
5
D7
100
AcDbEntity
8
1
62
256
6
ByLayer
370
-1
48
1
60
0
100
AcDbSpline
70
4
71
3
72
14
73
10
40
0
40
0
40
0
40
0
40
0.247412557756446
40
0.247412557756446
40
0.538320120938397
40
0.538320120938397
40
0.801253922522059
40
0.801253922522059
40
1
40
1
40
1
40
1
41
1
10
123.213330798954
20
-7.58109453794003
30
0
41
1
10
123.237270612952
20
-7.56693925580501
30
0
41
1
10
123.26440275784
20
-7.55582857238161
30
0
41
1
10
123.327152050559
20
-7.54065437660404
30
0
41
1
10
123.364479447144
20
-7.53800795885542
30
0
41
1
10
123.43518397203
20
-7.54568915152251
30
0
41
1
10
123.469667985863
20
-7.55497175401698
30
0
41
1
10
123.525451147722
20
-7.58042275221641
30
0
41
1
10
123.54848981526
20
-7.59460198284958
30
0
41
1
10
123.568948911613
20
-7.61112112751914
30
0
0
SPLINE
5
D8
100
AcDbEntity
8
1
62
256
6
ByLayer
370
-1
48
1
60
0
100
AcDbSpline
70
4
71
3
72
14
73
10
40
0
40
0
40
0
40
0
40
0.280875973387803
40
0.280875973387803
40
0.567586949982107
40
0.567586949982107
40
0.827064391134668
40
0.827064391134668
40
1
40
1
40
1
40
1
41
1
10
121.795171514968
20
-10.1608192832523
30
0
41
1
10
121.768312716853
20
-10.1827485196733
30
0
41
1
10
121.737251662957
20
-10.2004863048714
30
0
41
1
10
121.670433321374
20
-10.2238297608347
30
0
41
1
10
121.633534689259
20
-10.2294748994997
30
0
41
1
10
121.564085774727
20
-10.2258501273035
30
0
41
1
10
121.530412065902
20
-10.2178290626058
30
0
41
1
10
121.47902637642
20
-10.1944894520346
30
0
41
1
10
121.459313153307
20
-10.1823370059659
30
0
41
1
10
121.441500999596
20
-10.1679550636276
30
0
0
SPLINE
5
D9
100
AcDbEntity
8
1
62
256
6
ByLayer
370
-1
48
1
60
0
100
AcDbSpline
70
4
71
3
72
16
73
12
40
0
40
0
40
0
40
0
40
0.111453334990326
40
0.111453334990326
40
0.33388008733595
40
0.33388008733595
40
0.561813880313159
40
0.561813880313159
40
0.806394796636529
40
0.806394796636529
40
1
40
1
40
1
40
1
41
1
10
120.852778270326
20
-8.613613814833
30
0
41
1
10
120.85528099857
20
-8.59918829882736
30
0
41
1
10
120.858913390853
20
-8.58480732203438
30
0
41
1
10
120.872898982244
20
-8.54283874262978
30
0
41
1
10
120.88661754332
20
-8.5157630587957
30
0
41
1
10
120.920707157631
20
-8.46675139763659
30
0
41
1
10
120.941645154502
20
-8.44432491747617
30
0
41
1
10
120.988951963927
20
-8.40552012959131
30
0
41
1
10
121.016177746574
20
-8.38919273705412
30
0
41
1
10
121.066200375447
20
-8.36780119831454
30
0
41
1
10
121.089100149308
20
-8.36093292741191
30
0
41
1
10
121.111848852698
20
-8.35671601459578
30
0
0
SPLINE
5
DA
100
AcDbEntity
8
1
62
256
6
ByLayer
370
-1
48
1
60
0
100
AcDbSpline
70
4
71
3
72
12
73
8
40
0
40
0
40
0
40
0
40
0.49369386104405
40
0.49369386104405
40
0.898931831081567
40
0.898931831081567
40
1
40
1
40
1
40
1
41
1
10
123.988601949843
20
-8.83592394282016
30
0
41
1
10
123.923450506966
20
-8.80098834582316
30
0
41
1
10
123.860761256542
20
-8.75535618686047
30
0
41
1
10
123.759635515167
20
-8.65572215931533
30
0
41
1
10
123.717834277248
20
-8.60347484083096
30
0
41
1
10
123.675249681689
20
-8.53296223360439
30
0
41
1
10
123.667151122574
20
-8.51850648160024
30
0
41
1
10
123.659564921019
20
-8.50383520849556
30
0
0
SPLINE
5
DB
100
AcDbEntity
8
1
62
256
6
ByLayer
370
-1
48
1
60
0
100
AcDbSpline
70
4
71
3
72
18
73
14
40
0
40
0
40
0
40
0
40
0.199575459553529
40
0.199575459553529
40
0.37601121509452
40
0.37601121509452
40
0.554279295835127
40
0.554279295835127
40
0.707754612338175
40
0.707754612338175
40
0.908370748391952
40
0.908370748391952
40
1
40
1
40
1
40
1
41
1
10
123.278840077147
20
-10.1214081234573
30
0
41
1
10
123.272379531602
20
-10.0501221975437
30
0
41
1
10
123.275547694301
20
-9.97624488598279
30
0
41
1
10
123.30224073616
20
-9.84014164847741
30
0
41
1
10
123.323840766839
20
-9.77604781216996
30
0
41
1
10
123.385025353454
20
-9.65767464929445
30
0
41
1
10
123.425910975213
20
-9.60186077077867
30
0
41
1
10
123.513490771978
20
-9.51628987696608
30
0
41
1
10
123.559575675225
20
-9.48288425271204
30
0
41
1
10
123.669845673536
20
-9.42389026045706
30
0
41
1
10
123.737007510923
20
-9.40257832696705
30
0
41
1
10
123.834670500697
20
-9.38778294842655
30
0
41
1
10
123.865723799972
20
-9.38540727227374
30
0
41
1
10
123.896653461227
20
-9.38519780659419
30
0
0
SPLINE
5
DC
100
AcDbEntity
8
1
62
256
6
ByLayer
370
-1
48
1
60
0
100
AcDbSpline
70
4
71
3
72
16
73
12
40
0
40
0
40
0
40
0
40
0.0085389664227078
40
0.0085389664227078
40
0.327859883711048
40
0.327859883711048
40
0.61675236009462
40
0.61675236009462
40
0.870882526501636
40
0.870882526501636
40
1
40
1
40
1
40
1
41
1
10
123.278840077147
20
-10.1214081234573
30
0
41
1
10
123.278939054848
20
-10.122500247498
30
0
41
1
10
123.279032737596
20
-10.1235932103733
30
0
41
1
10
123.282372818469
20
-10.1649345643439
30
0
41
1
10
123.278249154288
20
-10.2070391206489
30
0
41
1
10
123.255250435986
20
-10.2823925755235
30
0
41
1
10
123.237373905522
20
-10.3172692428377
30
0
41
1
10
123.192801582451
20
-10.3733888042073
30
0
41
1
10
123.166716605135
20
-10.3965667170473
30
0
41
1
10
123.122985994214
20
-10.4228914128861
30
0
41
1
10
123.10728763821
20
-10.4304408861481
30
0
41
1
10
123.091118131057
20
-10.4364087780145
30
0
0
SPLINE
5
DD
100
AcDbEntity
8
1
62
256
6
ByLayer
370
-1
48
1
60
0
100
AcDbSpline
70
4
71
3
72
20
73
16
40
0
40
0
40
0
40
0
40
0.0929893239117124
40
0.0929893239117124
40
0.291363419348032
40
0.291363419348032
40
0.452625335498208
40
0.452625335498208
40
0.614636967705359
40
0.614636967705359
40
0.767190467303928
40
0.767190467303928
40
0.984886641319881
40
0.984886641319881
40
1
40
1
40
1
40
1
41
1
10
121.729662236779
20
-7.62050569773271
30
0
41
1
10
121.732393916384
20
-7.64832225241182
30
0
41
1
10
121.733041455007
20
-7.676743968989
30
0
41
1
10
121.728126278106
20
-7.76667998395996
30
0
41
1
10
121.71449018737
20
-7.83065417369764
30
0
41
1
10
121.669429902734
20
-7.94472744555321
30
0
41
1
10
121.641160768785
20
-7.99642927048356
30
0
41
1
10
121.571229184885
20
-8.09292350155559
30
0
41
1
10
121.528548076671
20
-8.1389055310741
30
0
41
1
10
121.438566550506
20
-8.21580763952417
30
0
41
1
10
121.390695348999
20
-8.24840810511088
30
0
41
1
10
121.27242694748
20
-8.31246749672786
30
0
41
1
10
121.199076701341
20
-8.33884363787283
30
0
41
1
10
121.121973701889
20
-8.3547852062504
30
0
41
1
10
121.116910250073
20
-8.35577778655303
30
0
41
1
10
121.111848852698
20
-8.35671601459578
30
0
0
SPLINE
5
DE
100
AcDbEntity
8
1
62
256
6
ByLayer
370
-1
48
1
60
0
100
AcDbSpline
70
4
71
3
72
18
73
14
40
0
40
0
40
0
40
0
40
0.211569195564632
40
0.211569195564632
40
0.38584328479173
40
0.38584328479173
40
0.561809430063031
40
0.561809430063031
40
0.714792837938311
40
0.714792837938311
40
0.917478368512912
40
0.917478368512912
40
1
40
1
40
1
40
1
41
1
10
123.213330798954
20
-7.58109453794017
30
0
41
1
10
123.155440316809
20
-7.61532438232385
30
0
41
1
10
123.089207354663
20
-7.64236864413888
30
0
41
1
10
122.958778494744
20
-7.67362954756422
30
0
41
1
10
122.894760985861
20
-7.68126462379541
30
0
41
1
10
122.764746410029
20
-7.68072704080967
30
0
41
1
10
122.696804496521
20
-7.67225644150741
30
0
41
1
10
122.577997189112
20
-7.64238226933153
30
0
41
1
10
122.524619281372
20
-7.62251242007341
30
0
41
1
10
122.413082320238
20
-7.56678457917852
30
0
41
1
10
122.356945867839
20
-7.52701686067857
30
0
41
1
10
122.291470358745
20
-7.46451099848935
30
0
41
1
10
122.27385338224
20
-7.44540190818762
30
0
41
1
10
122.257771107821
20
-7.42558963712955
30
0
0
SPLINE
5
DF
100
AcDbEntity
8
1
62
256
6
ByLayer
370
-1
48
1
60
0
100
AcDbSpline
70
4
71
3
72
16
73
12
40
0
40
0
40
0
40
0
40
0.0098942046621934
40
0.0098942046621934
40
0.323939403583
40
0.323939403583
40
0.611163269388483
40
0.611163269388483
40
0.863967514313112
40
0.863967514313112
40
1
40
1
40
1
40
1
41
1
10
123.988601949843
20
-8.83592394282019
30
0
41
1
10
123.989695516921
20
-8.83651033687451
30
0
41
1
10
123.990786712849
20
-8.83710336621945
30
0
41
1
10
124.02589519137
20
-8.85644015062312
30
0
41
1
10
124.058065282633
20
-8.88219108298375
30
0
41
1
10
124.108838917992
20
-8.94149045978943
30
0
41
1
10
124.129111260603
20
-8.9751792059127
30
0
41
1
10
124.154305479801
20
-9.04278341544321
30
0
41
1
10
124.16109824052
20
-9.07721748389716
30
0
41
1
10
124.162138761335
20
-9.12929494491937
30
0
41
1
10
124.160763505075
20
-9.14764113004273
30
0
41
1
10
124.157671640882
20
-9.16546237631377
30
0
0
SPLINE
5
E0
100
AcDbEntity
8
1
62
256
6
ByLayer
370
-1
48
1
60
0
100
AcDbSpline
70
4
71
3
72
18
73
14
40
0
40
0
40
0
40
0
40
0.0366174807677087
40
0.0366174807677087
40
0.257943236928147
40
0.257943236928147
40
0.480557834443722
40
0.480557834443722
40
0.716292151274669
40
0.716292151274669
40
0.974496839716053
40
0.974496839716053
40
1
40
1
40
1
40
1
41
1
10
123.568948911613
20
-7.61112112751914
30
0
41
1
10
123.572781146599
20
-7.61421536213487
30
0
41
1
10
123.576534156418
20
-7.61739694522652
30
0
41
1
10
123.602140434022
20
-7.64018301516481
30
0
41
1
10
123.621165932022
20
-7.66295712616846
30
0
41
1
10
123.650661932429
20
-7.71124781093846
30
0
41
1
10
123.661477974124
20
-7.73738606290937
30
0
41
1
10
123.674627598705
20
-7.79093144958341
30
0
41
1
10
123.676619044434
20
-7.81898788839709
30
0
41
1
10
123.671550963037
20
-7.87472092220418
30
0
41
1
10
123.663582660113
20
-7.90281003845337
30
0
41
1
10
123.650144747479
20
-7.93058646645483
30
0
41
1
10
123.6488820874
20
-7.93308304673513
30
0
41
1
10
123.647577539624
20
-7.93555390222903
30
0
0
LINE
5
4A
100
AcDbEntity
8
80
62
256
6
ByLayer
370
-1
48
1
60
0
100
AcDbLine
10
0
20
0
30
0
11
-10
21
0
31
0
39
0
210
0
220
0
230
1
0
LINE
5
4B
100
AcDbEntity
8
81
62
256
6
ByLayer
370
-1
48
1
60
0
100
AcDbLine
10
127.914
20
-21.9
30
0
11
137.914
21
-21.9
31
0
39
0
210
0
220
0
230
1
0
LINE
5
4C
100
AcDbEntity
8
SK4
62
256
6
ByLayer
370
-1
48
0.05
60
0
100
AcDbLine
10
-178.336
20
0
30
0
11
132.807637
21
0
31
0
39
0
210
0
220
0
230
1
0
LINE
5
4E
100
AcDbEntity
8
4
62
256
6
ByLayer
370
-1
48
0.05
60
0
100
AcDbLine
10
0
20
0
30
0
11
132.807637
21
0
31
0
39
0
210
0
220
0
230
1
0
LINE
5
50
100
AcDbEntity
8
1
62
256
6
ByLayer
370
-1
48
1
60
0
100
AcDbLine
10
119.871308
20
-8.78814
30
0
11
119.88136
21
-8.979942
31
0
39
0
210
0
220
0
230
1
0
LINE
5
51
100
AcDbEntity
8
1
62
256
6
ByLayer
370
-1
48
1
60
0
100
AcDbLine
10
125.124165
20
-8.705178
30
0
11
125.114114
21
-8.513376
31
0
39
0
210
0
220
0
230
1
0
LINE
5
52
100
AcDbEntity
8
1
62
256
6
ByLayer
370
-1
48
1
60
0
100
AcDbLine
10
121.731553
20
-7.645667
30
0
11
121.72997
21
-7.615454
31
0
39
0
210
0
220
0
230
1
0
LINE
5
53
100
AcDbEntity
8
1
62
256
6
ByLayer
370
-1
48
1
60
0
100
AcDbLine
10
123.573078
20
-8.030724
30
0
11
123.58362
21
-8.231873
31
0
39
0
210
0
220
0
230
1
0
LINE
5
54
100
AcDbEntity
8
1
62
256
6
ByLayer
370
-1
48
1
60
0
100
AcDbLine
10
123.265062
20
-9.869422
30
0
11
123.276711
21
-10.091704
31
0
39
0
210
0
220
0
230
1
0
LINE
5
55
100
AcDbEntity
8
1
62
256
6
ByLayer
370
-1
48
1
60
0
100
AcDbLine
10
121.422435
20
-9.46334
30
0
11
121.411897
21
-9.262263
31
0
39
0
210
0
220
0
230
1
0
LINE
5
56
100
AcDbEntity
8
1
62
256
6
ByLayer
370
-1
48
1
60
0
100
AcDbLine
10
111.383619
20
15.98925
30
0
11
0
21
15.98925
31
0
39
0
210
0
220
0
230
1
0
LINE
5
57
100
AcDbEntity
8
1
62
256
6
ByLayer
370
-1
48
1
60
0
100
AcDbLine
10
117.125652
20
3.474906
30
0
11
117.116401
21
3.436499
31
0
39
0
210
0
220
0
230
1
0
LINE
5
58
100
AcDbEntity
8
1
62
256
6
ByLayer
370
-1
48
1
60
0
100
AcDbLine
10
127.125589
20
-7.138312
30
0
11
126.673937
21
-6.477452
31
0
39
0
210
0
220
0
230
1
0
LINE
5
59
100
AcDbEntity
8
SK1
62
256
6
ByLayer
370
-1
48
1
60
0
100
AcDbLine
10
-170.836
20
15.98925
30
0
11
-173.336
21
13.48925
31
0
39
0
210
0
220
0
230
1
0
LINE
5
5B
100
AcDbEntity
8
SK1
62
256
6
ByLayer
370
-1
48
1
60
0
100
AcDbLine
10
-173.336
20
-13.48925
30
0
11
-173.3145
21
-13.51075
31
0
39
0
210
0
220
0
230
1
0
LINE
5
5C
100
AcDbEntity
8
SK1
62
256
6
ByLayer
370
-1
48
1
60
0
100
AcDbLine
10
0
20
15.98925
30
0
11
-170.836
21
15.98925
31
0
39
0
210
0
220
0
230
1
0
LINE
5
5D
100
AcDbEntity
8
1
62
256
6
ByLayer
370
-1
48
1
60
0
100
AcDbLine
10
115.399673
20
2.617737
30
0
11
117.255837
21
0.275797
31
0
39
0
210
0
220
0
230
1
0
LINE
5
5E
100
AcDbEntity
8
1
62
256
6
ByLayer
370
-1
48
1
60
0
100
AcDbLine
10
115.372428
20
3.137604
30
0
11
115.399673
21
2.617737
31
0
39
0
210
0
220
0
230
1
0
LINE
5
5F
100
AcDbEntity
8
1
62
256
6
ByLayer
370
-1
48
1
60
0
100
AcDbLine
10
118.11877
20
4.879158
30
0
11
118.146015
21
4.359291
31
0
39
0
210
0
220
0
230
1
0
LINE
5
60
100
AcDbEntity
8
1
62
256
6
ByLayer
370
-1
48
1
60
0
100
AcDbLine
10
127.100014
20
-5.803557
30
0
11
126.308402
21
-6.095727
31
0
39
0
210
0
220
0
230
1
0
LINE
5
61
100
AcDbEntity
8
1
62
256
6
ByLayer
370
-1
48
1
60
0
100
AcDbLine
10
0
20
-5.536797
30
0
11
0
21
5.536797
31
0
39
0
210
0
220
0
230
1
0
LINE
5
62
100
AcDbEntity
8
1
62
256
6
ByLayer
370
-1
48
1
60
0
100
AcDbLine
10
115.170942
20
1.660466
30
0
11
115.399673
21
2.617737
31
0
39
0
210
0
220
0
230
1
0
LINE
5
63
100
AcDbEntity
8
1
62
256
6
ByLayer
370
-1
48
1
60
0
100
AcDbLine
10
0
20
5.536797
30
0
11
88.088179
21
5.536797
31
0
39
0
210
0
220
0
230
1
0
LINE
5
64
100
AcDbEntity
8
1
62
256
6
ByLayer
370
-1
48
1
60
0
100
AcDbLine
10
0
20
5.536797
30
0
11
0
21
15.98925
31
0
39
0
210
0
220
0
230
1
0
LINE
5
65
100
AcDbEntity
8
1
62
256
6
ByLayer
370
-1
48
1
60
0
100
AcDbLine
10
115.896946
20
5.005828
30
0
11
115.885114
21
5.231596
31
0
39
0
210
0
220
0
230
1
0
LINE
5
66
100
AcDbEntity
8
1
62
256
6
ByLayer
370
-1
48
1
60
0
100
AcDbLine
10
0
20
-5.536797
30
0
11
0
21
-13.51075
31
0
39
0
210
0
220
0
230
1
0
LINE
5
67
100
AcDbEntity
8
1
62
256
6
ByLayer
370
-1
48
1
60
0
100
AcDbLine
10
113.086055
20
14.755734
30
0
11
111.383619
21
15.98925
31
0
39
0
210
0
220
0
230
1
0
LINE
5
68
100
AcDbEntity
8
1
62
256
6
ByLayer
370
-1
48
1
60
0
100
AcDbLine
10
113.086055
20
14.755734
30
0
11
116.206152
21
12.495036
31
0
39
0
210
0
220
0
230
1
0
LINE
5
69
100
AcDbEntity
8
1
62
256
6
ByLayer
370
-1
48
1
60
0
100
AcDbLine
10
0
20
-13.51075
30
0
11
86.664792
21
-13.51075
31
0
39
0
210
0
220
0
230
1
0
LINE
5
6A
100
AcDbEntity
8
1
62
256
6
ByLayer
370
-1
48
1
60
0
100
AcDbLine
10
126.308402
20
-6.095727
30
0
11
118.44029
21
3.83155
31
0
39
0
210
0
220
0
230
1
0
LINE
5
6B
100
AcDbEntity
8
1
62
256
6
ByLayer
370
-1
48
1
60
0
100
AcDbLine
10
116.206152
20
12.495036
30
0
11
126.533169
21
5.012496
31
0
39
0
210
0
220
0
230
1
0
LINE
5
6C
100
AcDbEntity
8
1
62
256
6
ByLayer
370
-1
48
1
60
0
100
AcDbLine
10
116.766487
20
-9.617487
30
0
11
117.755199
21
-9.25257
31
0
39
0
210
0
220
0
230
1
0
LINE
5
6D
100
AcDbEntity
8
1
62
256
6
ByLayer
370
-1
48
1
60
0
100
AcDbLine
10
110.060049
20
-10.116693
30
0
11
116.206152
21
12.495036
31
0
39
0
210
0
220
0
230
1
0
LINE
5
6E
100
AcDbEntity
8
1
62
256
6
ByLayer
370
-1
48
1
60
0
100
AcDbLine
10
115.372428
20
3.137604
30
0
11
117.228592
21
0.795664
31
0
39
0
210
0
220
0
230
1
0
LINE
5
6F
100
AcDbEntity
8
1
62
256
6
ByLayer
370
-1
48
1
60
0
100
AcDbLine
10
117.325768
20
-1.058301
30
0
11
115.170942
21
1.660466
31
0
39
0
210
0
220
0
230
1
0
LINE
5
70
100
AcDbEntity
8
1
62
256
6
ByLayer
370
-1
48
1
60
0
100
AcDbLine
10
86.664792
20
-13.51075
30
0
11
106.204256
21
-13.51075
31
0
39
0
210
0
220
0
230
1
0
LINE
5
71
100
AcDbEntity
8
1
62
256
6
ByLayer
370
-1
48
1
60
0
100
AcDbLine
10
83.277434
20
-5.536797
30
0
11
0
21
-5.536797
31
0
39
0
210
0
220
0
230
1
0
LINE
5
72
100
AcDbEntity
8
1
62
256
6
ByLayer
370
-1
48
1
60
0
100
AcDbLine
10
127.100014
20
-5.803557
30
0
11
126.533169
21
5.012496
31
0
39
0
210
0
220
0
230
1
0
LINE
5
73
100
AcDbEntity
8
SK1
62
256
6
ByLayer
370
-1
48
1
60
0
100
AcDbLine
10
0
20
-5.536797
30
0
11
-170.836
21
-5.536797
31
0
39
0
210
0
220
0
230
1
0
LINE
5
74
100
AcDbEntity
8
SK1
62
256
6
ByLayer
370
-1
48
1
60
0
100
AcDbLine
10
0
20
15.98925
30
0
11
0
21
5.536797
31
0
39
0
210
0
220
0
230
1
0
LINE
5
75
100
AcDbEntity
8
SK1
62
256
6
ByLayer
370
-1
48
1
60
0
100
AcDbLine
10
-170.836
20
-13.51075
30
0
11
0
21
-13.51075
31
0
39
0
210
0
220
0
230
1
0
LINE
5
76
100
AcDbEntity
8
SK1
62
256
6
ByLayer
370
-1
48
1
60
0
100
AcDbLine
10
-170.836
20
5.536797
30
0
11
0
21
5.536797
31
0
39
0
210
0
220
0
230
1
0
LINE
5
77
100
AcDbEntity
8
1
62
256
6
ByLayer
370
-1
48
1
60
0
100
AcDbLine
10
117.096818
20
3.310388
30
0
11
117.822865
21
-10.543407
31
0
39
0
210
0
220
0
230
1
0
LINE
5
78
100
AcDbEntity
8
1
62
256
6
ByLayer
370
-1
48
1
60
0
100
AcDbLine
10
126.657499
20
-6.455136
30
0
11
126.358046
21
-6.077312
31
0
39
0
210
0
220
0
230
1
0
LINE
5
79
100
AcDbEntity
8
1
62
256
6
ByLayer
370
-1
48
1
60
0
100
AcDbLine
10
118.293907
20
4.097293
30
0
11
118.001216
21
4.466584
31
0
39
0
210
0
220
0
230
1
0
LINE
5
7A
100
AcDbEntity
8
1
62
256
6
ByLayer
370
-1
48
1
60
0
100
AcDbLine
10
117.906616
20
-10.764526
30
0
11
126.566062
21
-21.690238
31
0
39
0
210
0
220
0
230
1
0
LINE
5
7B
100
AcDbEntity
8
1
62
256
6
ByLayer
370
-1
48
1
60
0
100
AcDbLine
10
127.109151
20
-7.115996
30
0
11
118.449704
21
3.809716
31
0
39
0
210
0
220
0
230
1
0
LINE
5
7C
100
AcDbEntity
8
1
62
256
6
ByLayer
370
-1
48
1
60
0
100
AcDbLine
10
126.657499
20
-6.455136
30
0
11
127.109151
21
-7.115996
31
0
39
0
210
0
220
0
230
1
0
LINE
5
7D
100
AcDbEntity
8
1
62
256
6
ByLayer
370
-1
48
1
60
0
100
AcDbLine
10
127.918948
20
-21.19091
30
0
11
127.192902
21
-7.337115
31
0
39
0
210
0
220
0
230
1
0
LINE
5
7E
100
AcDbEntity
8
1
62
256
6
ByLayer
370
-1
48
1
60
0
100
AcDbLine
10
121.346034
20
-9.182678
30
0
11
121.335722
21
-8.985915
31
0
39
0
210
0
220
0
230
1
0
LINE
5
7F
100
AcDbEntity
8
1
62
256
6
ByLayer
370
-1
48
1
60
0
100
AcDbLine
10
123.635829
20
-7.711387
30
0
11
123.647578
21
-7.935554
31
0
39
0
210
0
220
0
230
1
0
LINE
5
80
100
AcDbEntity
8
1
62
256
6
ByLayer
370
-1
48
1
60
0
100
AcDbLine
10
121.008121
20
-8.68123
30
0
11
121.019869
21
-8.905397
31
0
39
0
210
0
220
0
230
1
0
LINE
5
81
100
AcDbEntity
8
1
62
256
6
ByLayer
370
-1
48
1
60
0
100
AcDbLine
10
121.783408
20
-9.936356
30
0
11
121.795172
21
-10.160819
31
0
39
0
210
0
220
0
230
1
0
LINE
5
82
100
AcDbEntity
8
1
62
256
6
ByLayer
370
-1
48
1
60
0
100
AcDbLine
10
122.738968
20
-10.091861
30
0
11
122.750731
21
-10.316324
31
0
39
0
210
0
220
0
230
1
0
LINE
5
83
100
AcDbEntity
8
1
62
256
6
ByLayer
370
-1
48
1
60
0
100
AcDbLine
10
123.88489
20
-9.160735
30
0
11
123.896653
21
-9.385198
31
0
39
0
210
0
220
0
230
1
0
LINE
5
84
100
AcDbEntity
8
1
62
256
6
ByLayer
370
-1
48
1
60
0
100
AcDbLine
10
121.39389
20
-9.139489
30
0
11
121.404202
21
-9.336252
31
0
39
0
210
0
220
0
230
1
0
LINE
5
85
100
AcDbEntity
8
1
62
256
6
ByLayer
370
-1
48
1
60
0
100
AcDbLine
10
118.245837
20
4.157948
30
0
11
118.244387
21
4.185622
31
0
39
0
210
0
220
0
230
1
0
LINE
5
86
100
AcDbEntity
8
1
62
256
6
ByLayer
370
-1
48
1
60
0
100
AcDbLine
10
126.414175
20
-6.148132
30
0
11
126.409474
21
-6.058428
31
0
39
0
210
0
220
0
230
1
0
LINE
5
87
100
AcDbEntity
8
SK1
62
256
6
ByLayer
370
-1
48
1
60
0
100
AcDbLine
10
0
20
-5.536797
30
0
11
0
21
-13.51075
31
0
39
0
210
0
220
0
230
1
0
LINE
5
88
100
AcDbEntity
8
SK1
62
256
6
ByLayer
370
-1
48
1
60
0
100
AcDbLine
10
0
20
-5.536797
30
0
11
0
21
5.536797
31
0
39
0
210
0
220
0
230
1
0
LINE
5
89
100
AcDbEntity
8
SK1
62
256
6
ByLayer
370
-1
48
1
60
0
100
AcDbLine
10
-173.336
20
13.48925
30
0
11
-173.336
21
-13.48925
31
0
39
0
210
0
220
0
230
1
0
LINE
5
8A
100
AcDbEntity
8
SK1
62
256
6
ByLayer
370
-1
48
1
60
0
100
AcDbLine
10
-170.836
20
-5.536797
30
0
11
-170.836
21
-13.51075
31
0
39
0
210
0
220
0
230
1
0
LINE
5
8B
100
AcDbEntity
8
SK1
62
256
6
ByLayer
370
-1
48
1
60
0
100
AcDbLine
10
-170.836
20
15.98925
30
0
11
-170.836
21
5.536797
31
0
39
0
210
0
220
0
230
1
0
LINE
5
8C
100
AcDbEntity
8
2
62
256
6
ByLayer
370
-1
48
1
60
1
100
AcDbLine
10
127.914
20
0
30
0
11
127.915
21
0.001
31
0
39
0
210
0
220
0
230
1
0
MTEXT
5
E1
100
AcDbEntity
8
SK6
62
256
6
ByLayer
370
-1
48
1
60
0
100
AcDbMText
10
-19.336
20
22.149096
30
0
210
0
220
0
230
1
1
\W00.796;\fsimplex.shx,bigfont.shx;A32T-SVUBL 16 
40
3.5
41
0
44
1.084337
50
0
71
7
72
5
7
DEFAULT
0
DIMENSION
5
114
100
AcDbEntity
8
2
62
256
6
ByLayer
370
-3
48
1
60
0
100
AcDbDimension
2
DimnDraft3D1
10
140.164
20
0
30
0
11
140.164
21
-16.113158
31
0
70
32
71
5
72
1
41
1
210
0
220
0
230
1
3
Standard
100
AcDbAlignedDimension
13
129.914
23
-21.9
33
0
14
129.914
24
0
34
0
50
90
100
AcDbRotatedDimension
1001
ACAD
1000
DSTYLE
1002
{
1070
    74
1070
     0
1070
   279
1070
     0
1070
   172
1070
     1
1070
   173
1070
     1
1070
   340
1005
E2
1070
    77
1070
     1
1070
    73
1070
     0
1070
   171
1070
     4
1070
   274
1070
     4
1070
   177
1070
     2
1070
   176
1070
     2
1070
   178
1070
     7
1070
    78
1070
     8
1070
    41
1041
3.175
1070
   147
1041
2.25
1070
    42
1041
2.0
1070
    44
1041
2.0
1070
   140
1041
4.5
1070
   343
1005
115
1070
   344
1005
115
1002
}
0
DIMENSION
5
12A
100
AcDbEntity
8
SK2
62
256
6
ByLayer
370
-3
48
1
60
0
100
AcDbDimension
2
DimnDraft3D2
10
-183.086
20
15.98925
30
0
11
-183.086
21
-4.784211
31
0
70
32
71
5
72
1
41
1
210
0
220
0
230
1
3
Standard
100
AcDbAlignedDimension
13
-175.336
23
-15.98925
33
0
14
-175.336
24
15.98925
34
0
50
90
100
AcDbRotatedDimension
1001
ACAD
1000
DSTYLE
1002
{
1070
    74
1070
     0
1070
   279
1070
     0
1070
   172
1070
     1
1070
   173
1070
     1
1070
   340
1005
E2
1070
    77
1070
     1
1070
    73
1070
     0
1070
   171
1070
     4
1070
   274
1070
     4
1070
   177
1070
     2
1070
   176
1070
     2
1070
   178
1070
     7
1070
    78
1070
     8
1070
    41
1041
3.175
1070
   147
1041
2.25
1070
    42
1041
2.0
1070
    44
1041
2.0
1070
   140
1041
4.5
1070
   343
1005
115
1070
   344
1005
115
1002
}
0
DIMENSION
5
138
100
AcDbEntity
8
SK2
62
256
6
ByLayer
370
-3
48
1
60
0
100
AcDbDimension
2
DimnDraft3D3
10
127.914
20
-39.15
30
0
11
-29.526132
21
-39.15
31
0
70
32
71
5
72
1
41
1
210
0
220
0
230
1
3
Standard
100
AcDbAlignedDimension
13
-173.336
23
-17.98925
33
0
14
127.914
24
-23.9
34
0
50
0
100
AcDbRotatedDimension
1001
ACAD
1000
DSTYLE
1002
{
1070
   279
1070
     0
1070
   172
1070
     1
1070
   173
1070
     1
1070
   340
1005
E2
1070
    77
1070
     1
1070
    73
1070
     0
1070
   171
1070
     4
1070
   274
1070
     4
1070
   177
1070
     2
1070
   176
1070
     2
1070
   178
1070
     7
1070
    78
1070
     8
1070
    41
1041
3.175
1070
   147
1041
2.25
1070
    42
1041
2.0
1070
    44
1041
2.0
1070
   140
1041
4.5
1070
   343
1005
115
1070
   344
1005
115
1002
}
0
DIMENSION
5
146
100
AcDbEntity
8
2
62
256
6
ByLayer
370
-3
48
1
60
0
100
AcDbDimension
2
DimnDraft3D4
10
166.692676
20
0
30
0
11
149.800485
21
33.528479
31
0
70
34
71
5
72
1
41
1
210
0
220
0
230
1
3
Standard
100
AcDb2LineAngularDimension
13
126.971953
23
-3.924668
33
0
14
124.676683
24
39.871689
34
0
15
129.914
25
0
35
0
16
155.970681
26
30.775028
36
0
40
0
0
ENDSEC
0
SECTION
2
OBJECTS
0
DICTIONARY
5
177
330
0
100
AcDbDictionary
280
0
281
1
3
ACAD_GROUP
350
178
3
ACAD_MLINESTYLE
350
179
0
DICTIONARY
5
178
330
0
100
AcDbDictionary
280
0
281
1
0
DICTIONARY
5
179
330
0
100
AcDbDictionary
280
0
281
1
3
Standard
350
18
0
MLINESTYLE
5
18
330
179
100
AcDbMlineStyle
2
Standard
70
0
3

62
256
51
90
52
90
71
2
49
-0.5
62
256
6
ByLayer
49
0.5
62
256
6
ByLayer
0
RASTERVARIABLES
5
165
330

100
AcDbRasterVariables
90
0
70
1
71
1
72
1
0
ENDSEC
0
EOF
