0
SECTION
2
HEADER
9
$ACADVER
1
AC1015
9
$DWGCODEPAGE
3
ANSI_1252
9
$HANDSEED
5
183
9
$ANGBASE
50
0
9
$ANGDIR
70
0
9
$ATTMODE
70
1
9
$AUNITS
70
0
9
$AUPREC
70
0
9
$CECOLOR
62
256
9
$CELTSCALE
40
1
9
$CELTYPE
6
ByLayer
9
$CELWEIGHT
370
-1
9
$CLAYER
8
0
9
$CMLJUST
70
0
9
$CMLSCALE
40
1
9
$CMLSTYLE
2
Standard
9
$DIMSTYLE
2
Standard
9
$TEXTSIZE
40
0.2
9
$TEXTSTYLE
7
Standard
9
$LUNITS
70
2
9
$LUPREC
70
4
9
$EXTNAMES
290
1
9
$INSUNITS
70
4
9
$LTSCALE
40
1
9
$LWDISPLAY
290
0
9
$PDMODE
70
0
9
$PDSIZE
40
0
9
$PLINEGEN
70
0
0
ENDSEC
0
SECTION
2
CLASSES
0
CLASS
1
RASTERVARIABLES
2
AcDbRasterVariables
3
ISM
90
0
280
0
281
0
0
ENDSEC
0
SECTION
2
TABLES
0
TABLE
2
VPORT
5
179
100
AcDbSymbolTable
0
VPORT
5
1
100
AcDbSymbolTableRecord
100
AcDbViewportTableRecord
2
*Active
70
0
10
0
20
0
11
1
21
1
12
-1
22
1
13
0
23
0
14
0.5
24
0.5
15
10
25
10
16
0
26
0
36
1
17
0
27
0
37
0
0
ENDTAB
0
TABLE
2
LTYPE
5
17a
100
AcDbSymbolTable
0
LTYPE
5
14
100
AcDbSymbolTableRecord
100
AcDbLinetypeTableRecord
70
0
2
ByBlock
3

72
65
73
0
40
0
0
LTYPE
5
15
100
AcDbSymbolTableRecord
100
AcDbLinetypeTableRecord
70
0
2
ByLayer
3

72
65
73
0
40
0
0
LTYPE
5
16
100
AcDbSymbolTableRecord
100
AcDbLinetypeTableRecord
70
0
2
CONTINUOUS
3
Solid line
72
65
73
0
40
0
0
LTYPE
5
3B
100
AcDbSymbolTableRecord
100
AcDbLinetypeTableRecord
70
0
2
DASHED
3
__ __ __ __ __ __ __ __ __
72
65
73
2
40
25.72
49
12.86
74
0
49
-12.86
74
0
0
LTYPE
5
3C
100
AcDbSymbolTableRecord
100
AcDbLinetypeTableRecord
70
0
2
HIDDEN
3
_ _ _ _ _ _ _ _ _ _ _ _ _ _ _
72
65
73
2
40
0.5
49
0.25
74
0
49
-0.25
74
0
0
LTYPE
5
3D
100
AcDbSymbolTableRecord
100
AcDbLinetypeTableRecord
70
0
2
PHANTOM
3
____ _ _ ____ _ _ _____ _ _ ____
72
65
73
6
40
50.5
49
18
74
0
49
-6.5
74
0
49
6.5
74
0
49
-6.5
74
0
49
6.5
74
0
49
-6.5
74
0
0
LTYPE
5
3E
100
AcDbSymbolTableRecord
100
AcDbLinetypeTableRecord
70
0
2
CENTER
3
____ _ ____ _ ____ _ ____
72
65
73
4
40
47.5
49
22
74
0
49
-8.5
74
0
49
8.5
74
0
49
-8.5
74
0
0
LTYPE
5
3F
100
AcDbSymbolTableRecord
100
AcDbLinetypeTableRecord
70
0
2
DOT
3
.........................
72
65
73
2
40
10
49
0
74
0
49
-10
74
0
0
LTYPE
5
40
100
AcDbSymbolTableRecord
100
AcDbLinetypeTableRecord
70
0
2
DASHDOT
3
_._._._._._._._._._._._._._._._.
72
65
73
4
40
70
49
31
74
0
49
-13
74
0
49
13
74
0
49
-13
74
0
0
ENDTAB
0
TABLE
2
LAYER
5
17b
100
AcDbSymbolTable
0
LAYER
5
10
100
AcDbSymbolTableRecord
100
AcDbLayerTableRecord
2
0
70
0
62
7
6
CONTINUOUS
290
1
370
-3
390
0
0
LAYER
5
42
100
AcDbSymbolTableRecord
100
AcDbLayerTableRecord
2
80
70
0
62
-6
6
CONTINUOUS
290
1
370
-3
390
0
0
LAYER
5
44
100
AcDbSymbolTableRecord
100
AcDbLayerTableRecord
2
81
70
0
62
-3
6
CONTINUOUS
290
1
370
-3
390
0
0
LAYER
5
46
100
AcDbSymbolTableRecord
100
AcDbLayerTableRecord
2
1
70
0
62
4
6
CONTINUOUS
290
1
370
-3
390
0
0
LAYER
5
48
100
AcDbSymbolTableRecord
100
AcDbLayerTableRecord
2
2
70
0
62
7
6
CONTINUOUS
290
1
370
-3
390
0
0
LAYER
5
4F
100
AcDbSymbolTableRecord
100
AcDbLayerTableRecord
2
4
70
0
62
-2
6
CENTER
290
1
370
-3
390
0
0
LAYER
5
165
100
AcDbSymbolTableRecord
100
AcDbLayerTableRecord
2
SK4
70
0
62
2
6
CENTER
290
1
370
-3
390
0
0
LAYER
5
166
100
AcDbSymbolTableRecord
100
AcDbLayerTableRecord
2
SK1
70
0
62
4
6
CONTINUOUS
290
1
370
-3
390
0
0
LAYER
5
167
100
AcDbSymbolTableRecord
100
AcDbLayerTableRecord
2
SK6
70
0
62
5
6
CONTINUOUS
290
1
370
-3
390
0
0
LAYER
5
168
100
AcDbSymbolTableRecord
100
AcDbLayerTableRecord
2
SK2
70
0
62
7
6
CONTINUOUS
290
1
370
-3
390
0
0
ENDTAB
0
TABLE
2
STYLE
5
17c
100
AcDbSymbolTable
0
STYLE
5
11
100
AcDbSymbolTableRecord
100
AcDbTextStyleTableRecord
2
Standard
3
txt
70
0
71
0
40
0
41
1
42
0
50
0
0
STYLE
5
E1
100
AcDbSymbolTableRecord
100
AcDbTextStyleTableRecord
2
DEFAULT
3
simplex.shx
70
0
71
0
40
0
41
1
42
0
50
0
0
STYLE
5
104
100
AcDbSymbolTableRecord
100
AcDbTextStyleTableRecord
2
DWGDirectTextStyle
3
SIMPLEX
70
0
71
0
40
0
41
1
42
0
50
0
0
ENDTAB
0
TABLE
2
DIMSTYLE
5
17d
100
AcDbSymbolTable
100
AcDbDimStyleTable
0
DIMSTYLE
105
27
100
AcDbSymbolTableRecord
100
AcDbDimStyleTableRecord
2
Standard
70
0
3
<>
41
0.18
42
0.0625
44
0.18
140
0.18
147
0.09
73
0
74
0
77
1
271
2
275
0
278
52
280
0
340
11
0
ENDTAB
0
TABLE
2
VIEW
5
17e
100
AcDbSymbolTable
0
ENDTAB
0
TABLE
2
UCS
5
17f
100
AcDbSymbolTable
0
ENDTAB
0
TABLE
2
APPID
5
180
100
AcDbSymbolTable
0
APPID
5
12
100
AcDbSymbolTableRecord
100
AcDbRegAppTableRecord
2
ACAD
70
0
0
ENDTAB
0
TABLE
2
BLOCK_RECORD
5
181
100
AcDbSymbolTable
0
BLOCK_RECORD
5
1F
100
AcDbSymbolTableRecord
100
AcDbBlockTableRecord
2
*Model_Space
340
0
70
0
0
BLOCK_RECORD
5
1B
100
AcDbSymbolTableRecord
100
AcDbBlockTableRecord
2
*Paper_Space
340
0
70
0
0
BLOCK_RECORD
5
23
100
AcDbSymbolTableRecord
100
AcDbBlockTableRecord
2
*Paper_Space0
340
0
70
0
0
BLOCK_RECORD
5
106
100
AcDbSymbolTableRecord
100
AcDbBlockTableRecord
2
DimnDraft3D1
340
0
70
0
0
BLOCK_RECORD
5
114
100
AcDbSymbolTableRecord
100
AcDbBlockTableRecord
2
_CLOSED
340
0
70
0
0
BLOCK_RECORD
5
11B
100
AcDbSymbolTableRecord
100
AcDbBlockTableRecord
2
DimnDraft3D2
340
0
70
0
0
BLOCK_RECORD
5
12A
100
AcDbSymbolTableRecord
100
AcDbBlockTableRecord
2
DimnDraft3D3
340
0
70
0
0
BLOCK_RECORD
5
138
100
AcDbSymbolTableRecord
100
AcDbBlockTableRecord
2
DimnDraft3D4
340
0
70
0
0
ENDTAB
0
ENDSEC
0
SECTION
2
BLOCKS
0
BLOCK
5
20
100
AcDbEntity
8
0
100
AcDbBlockBegin
2
*Model_Space
70
0
10
0
20
0
30
0
3
*Model_Space
0
ENDBLK
5
21
100
AcDbEntity
8
0
100
AcDbBlockEnd
0
BLOCK
5
1C
100
AcDbEntity
8
0
100
AcDbBlockBegin
2
*Paper_Space
70
0
10
0
20
0
30
0
3
*Paper_Space
0
ENDBLK
5
1D
100
AcDbEntity
8
0
100
AcDbBlockEnd
0
BLOCK
5
24
100
AcDbEntity
8
0
100
AcDbBlockBegin
2
*Paper_Space0
70
0
10
0
20
0
30
0
3
*Paper_Space0
0
ENDBLK
5
25
100
AcDbEntity
8
0
100
AcDbBlockEnd
0
BLOCK
5
111
100
AcDbEntity
8
0
100
AcDbBlockBegin
2
DimnDraft3D1
70
0
10
0
20
0
30
0
3
DimnDraft3D1
0
MTEXT
5
107
100
AcDbEntity
8
2
62
256
6
ByLayer
370
-1
48
1
60
0
100
AcDbMText
10
139.039
20
-14.988158
30
0
210
0
220
0
230
1
1
\W01.000;\fsimplex.shx,bigfont.shx;22.0 
40
4.5
41
0
44
1.084337
50
90
71
7
72
5
7
DEFAULT
0
LINE
5
108
100
AcDbEntity
8
2
62
256
6
ByLayer
370
-1
48
1
60
0
100
AcDbLine
10
129.914
20
-21.9
30
0
11
142.164
21
-21.9
31
0
39
0
210
0
220
0
230
1
0
LINE
5
109
100
AcDbEntity
8
2
62
256
6
ByLayer
370
-1
48
1
60
0
100
AcDbLine
10
129.914
20
0
30
0
11
142.164
21
0
31
0
39
0
210
0
220
0
230
1
0
LINE
5
10A
100
AcDbEntity
8
2
62
256
6
ByLayer
370
-1
48
1
60
0
100
AcDbLine
10
140.164
20
-21.9
30
0
11
140.164
21
0
31
0
39
0
210
0
220
0
230
1
0
LINE
5
10B
100
AcDbEntity
8
2
62
256
6
ByLayer
370
-1
48
1
60
0
100
AcDbLine
10
140.164
20
-21.9
30
0
11
139.746003
21
-18.725002
31
0
39
0
210
0
220
0
230
1
0
LINE
5
10C
100
AcDbEntity
8
2
62
256
6
ByLayer
370
-1
48
1
60
0
100
AcDbLine
10
140.164
20
-21.9
30
0
11
140.581997
21
-18.724998
31
0
39
0
210
0
220
0
230
1
0
LINE
5
10D
100
AcDbEntity
8
2
62
256
6
ByLayer
370
-1
48
1
60
0
100
AcDbLine
10
139.746003
20
-18.725002
30
0
11
140.581997
21
-18.724998
31
0
39
0
210
0
220
0
230
1
0
LINE
5
10E
100
AcDbEntity
8
2
62
256
6
ByLayer
370
-1
48
1
60
0
100
AcDbLine
10
140.164
20
0
30
0
11
140.581997
21
-3.174998
31
0
39
0
210
0
220
0
230
1
0
LINE
5
10F
100
AcDbEntity
8
2
62
256
6
ByLayer
370
-1
48
1
60
0
100
AcDbLine
10
140.164
20
0
30
0
11
139.746003
21
-3.175002
31
0
39
0
210
0
220
0
230
1
0
LINE
5
110
100
AcDbEntity
8
2
62
256
6
ByLayer
370
-1
48
1
60
0
100
AcDbLine
10
140.581997
20
-3.174998
30
0
11
139.746003
21
-3.175002
31
0
39
0
210
0
220
0
230
1
0
ENDBLK
5
112
100
AcDbEntity
8
0
100
AcDbBlockEnd
0
BLOCK
5
115
100
AcDbEntity
8
0
100
AcDbBlockBegin
2
_CLOSED
70
0
10
0
20
0
30
0
3
_CLOSED
0
LINE
5
117
100
AcDbEntity
8
0
62
256
6
ByLayer
370
-2
48
1
60
0
100
AcDbLine
10
-1
20
0.166667
30
0
11
0
21
0
31
0
39
0
210
0
220
0
230
1
0
LINE
5
118
100
AcDbEntity
8
0
62
256
6
ByLayer
370
-2
48
1
60
0
100
AcDbLine
10
0
20
0
30
0
11
-1
21
-0.166667
31
0
39
0
210
0
220
0
230
1
0
LINE
5
119
100
AcDbEntity
8
0
62
256
6
ByLayer
370
-2
48
1
60
0
100
AcDbLine
10
-1
20
0.166667
30
0
11
-1
21
-0.166667
31
0
39
0
210
0
220
0
230
1
0
LINE
5
11A
100
AcDbEntity
8
0
62
256
6
ByLayer
370
-2
48
1
60
0
100
AcDbLine
10
0
20
0
30
0
11
-1
21
0
31
0
39
0
210
0
220
0
230
1
0
ENDBLK
5
116
100
AcDbEntity
8
0
100
AcDbBlockEnd
0
BLOCK
5
127
100
AcDbEntity
8
0
100
AcDbBlockBegin
2
DimnDraft3D2
70
0
10
0
20
0
30
0
3
DimnDraft3D2
0
MTEXT
5
11C
100
AcDbEntity
8
SK2
62
256
6
ByLayer
370
-1
48
1
60
0
100
AcDbMText
10
-184.211
20
-3.659211
30
0
210
0
220
0
230
1
1
\W01.000;\fsimplex.shx,bigfont.shx;%%c32 
40
4.5
41
0
44
1.084337
50
90
71
7
72
5
7
DEFAULT
0
LINE
5
11E
100
AcDbEntity
8
SK2
62
256
6
ByLayer
370
-1
48
1
60
0
100
AcDbLine
10
-175.336
20
-15.98925
30
0
11
-185.086
21
-15.98925
31
0
39
0
210
0
220
0
230
1
0
LINE
5
11F
100
AcDbEntity
8
SK2
62
256
6
ByLayer
370
-1
48
1
60
0
100
AcDbLine
10
-175.336
20
15.98925
30
0
11
-185.086
21
15.98925
31
0
39
0
210
0
220
0
230
1
0
LINE
5
120
100
AcDbEntity
8
SK2
62
256
6
ByLayer
370
-1
48
1
60
0
100
AcDbLine
10
-183.086
20
-15.98925
30
0
11
-183.086
21
15.98925
31
0
39
0
210
0
220
0
230
1
0
LINE
5
121
100
AcDbEntity
8
SK2
62
256
6
ByLayer
370
-1
48
1
60
0
100
AcDbLine
10
-183.086
20
-15.98925
30
0
11
-183.503997
21
-12.814252
31
0
39
0
210
0
220
0
230
1
0
LINE
5
122
100
AcDbEntity
8
SK2
62
256
6
ByLayer
370
-1
48
1
60
0
100
AcDbLine
10
-183.086
20
-15.98925
30
0
11
-182.668003
21
-12.814248
31
0
39
0
210
0
220
0
230
1
0
LINE
5
123
100
AcDbEntity
8
SK2
62
256
6
ByLayer
370
-1
48
1
60
0
100
AcDbLine
10
-183.503997
20
-12.814252
30
0
11
-182.668003
21
-12.814248
31
0
39
0
210
0
220
0
230
1
0
LINE
5
124
100
AcDbEntity
8
SK2
62
256
6
ByLayer
370
-1
48
1
60
0
100
AcDbLine
10
-183.086
20
15.98925
30
0
11
-182.668003
21
12.814252
31
0
39
0
210
0
220
0
230
1
0
LINE
5
125
100
AcDbEntity
8
SK2
62
256
6
ByLayer
370
-1
48
1
60
0
100
AcDbLine
10
-183.086
20
15.98925
30
0
11
-183.503997
21
12.814248
31
0
39
0
210
0
220
0
230
1
0
LINE
5
126
100
AcDbEntity
8
SK2
62
256
6
ByLayer
370
-1
48
1
60
0
100
AcDbLine
10
-182.668003
20
12.814252
30
0
11
-183.503997
21
12.814248
31
0
39
0
210
0
220
0
230
1
0
ENDBLK
5
128
100
AcDbEntity
8
0
100
AcDbBlockEnd
0
BLOCK
5
135
100
AcDbEntity
8
0
100
AcDbBlockBegin
2
DimnDraft3D3
70
0
10
0
20
0
30
0
3
DimnDraft3D3
0
MTEXT
5
12B
100
AcDbEntity
8
SK2
62
256
6
ByLayer
370
-1
48
1
60
0
100
AcDbMText
10
-28.401132
20
-38.025
30
0
210
0
220
0
230
1
1
\W01.000;\fsimplex.shx,bigfont.shx;300.0 
40
4.5
41
0
44
1.084337
50
0
71
7
72
5
7
DEFAULT
0
LINE
5
12C
100
AcDbEntity
8
SK2
62
256
6
ByLayer
370
-1
48
1
60
0
100
AcDbLine
10
-173.336
20
-17.98925
30
0
11
-173.336
21
-41.15
31
0
39
0
210
0
220
0
230
1
0
LINE
5
12D
100
AcDbEntity
8
SK2
62
256
6
ByLayer
370
-1
48
1
60
0
100
AcDbLine
10
127.914
20
-23.9
30
0
11
127.914
21
-41.15
31
0
39
0
210
0
220
0
230
1
0
LINE
5
12E
100
AcDbEntity
8
SK2
62
256
6
ByLayer
370
-1
48
1
60
0
100
AcDbLine
10
-173.336
20
-39.15
30
0
11
127.914
21
-39.15
31
0
39
0
210
0
220
0
230
1
0
LINE
5
12F
100
AcDbEntity
8
SK2
62
256
6
ByLayer
370
-1
48
1
60
0
100
AcDbLine
10
-173.336
20
-39.15
30
0
11
-170.161002
21
-38.732003
31
0
39
0
210
0
220
0
230
1
0
LINE
5
130
100
AcDbEntity
8
SK2
62
256
6
ByLayer
370
-1
48
1
60
0
100
AcDbLine
10
-173.336
20
-39.15
30
0
11
-170.160998
21
-39.567997
31
0
39
0
210
0
220
0
230
1
0
LINE
5
131
100
AcDbEntity
8
SK2
62
256
6
ByLayer
370
-1
48
1
60
0
100
AcDbLine
10
-170.161002
20
-38.732003
30
0
11
-170.160998
21
-39.567997
31
0
39
0
210
0
220
0
230
1
0
LINE
5
132
100
AcDbEntity
8
SK2
62
256
6
ByLayer
370
-1
48
1
60
0
100
AcDbLine
10
127.914
20
-39.15
30
0
11
124.739002
21
-39.567997
31
0
39
0
210
0
220
0
230
1
0
LINE
5
133
100
AcDbEntity
8
SK2
62
256
6
ByLayer
370
-1
48
1
60
0
100
AcDbLine
10
127.914
20
-39.15
30
0
11
124.738998
21
-38.732003
31
0
39
0
210
0
220
0
230
1
0
LINE
5
134
100
AcDbEntity
8
SK2
62
256
6
ByLayer
370
-1
48
1
60
0
100
AcDbLine
10
124.739002
20
-39.567997
30
0
11
124.738998
21
-38.732003
31
0
39
0
210
0
220
0
230
1
0
ENDBLK
5
136
100
AcDbEntity
8
0
100
AcDbBlockEnd
0
BLOCK
5
143
100
AcDbEntity
8
0
100
AcDbBlockBegin
2
DimnDraft3D4
70
0
10
0
20
0
30
0
3
DimnDraft3D4
0
MTEXT
5
139
100
AcDbEntity
8
2
62
256
6
ByLayer
370
-1
48
1
60
0
100
AcDbMText
10
137.658954
20
36.215882
30
0
210
0
220
0
230
1
1
\W01.000;\fsimplex.shx,bigfont.shx;107%%d30' 
40
4.5
41
0
44
1.084337
50
323.75
71
7
72
5
7
DEFAULT
0
LINE
5
13A
100
AcDbEntity
8
2
62
256
6
ByLayer
370
-1
48
1
60
0
100
AcDbLine
10
122.501296
20
-4.733095
30
0
11
109.002854
21
38.078491
31
0
39
0
210
0
220
0
230
1
0
LINE
5
13B
100
AcDbEntity
8
2
62
256
6
ByLayer
370
-1
48
1
60
0
100
AcDbLine
10
129.914
20
0
30
0
11
160.935363
21
0
31
0
39
0
210
0
220
0
230
1
0
ARC
5
13C
100
AcDbEntity
8
2
62
256
6
ByLayer
370
-1
48
1
60
0
100
AcDbCircle
39
0
10
121.008957
20
0
30
0
40
37.9264068640929
210
0
220
0
230
1
100
AcDbArc
50
0
51
107.5
0
LINE
5
13D
100
AcDbEntity
8
2
62
256
6
ByLayer
370
-1
48
1
60
0
100
AcDbLine
10
109.604266
20
36.171057
30
0
11
112.534293
21
37.463449
31
0
39
0
210
0
220
0
230
1
0
LINE
5
13E
100
AcDbEntity
8
2
62
256
6
ByLayer
370
-1
48
1
60
0
100
AcDbLine
10
109.604266
20
36.171057
30
0
11
112.768954
21
36.661066
31
0
39
0
210
0
220
0
230
1
0
LINE
5
13F
100
AcDbEntity
8
2
62
256
6
ByLayer
370
-1
48
1
60
0
100
AcDbLine
10
112.534293
20
37.463449
30
0
11
112.768954
21
36.661066
31
0
39
0
210
0
220
0
230
1
0
LINE
5
140
100
AcDbEntity
8
2
62
256
6
ByLayer
370
-1
48
1
60
0
100
AcDbLine
10
158.935363
20
0
30
0
11
158.451053
21
3.165562
31
0
39
0
210
0
220
0
230
1
0
LINE
5
141
100
AcDbEntity
8
2
62
256
6
ByLayer
370
-1
48
1
60
0
100
AcDbLine
10
158.935363
20
0
30
0
11
159.286864
21
3.183049
31
0
39
0
210
0
220
0
230
1
0
LINE
5
142
100
AcDbEntity
8
2
62
256
6
ByLayer
370
-1
48
1
60
0
100
AcDbLine
10
158.451053
20
3.165562
30
0
11
159.286864
21
3.183049
31
0
39
0
210
0
220
0
230
1
0
ENDBLK
5
144
100
AcDbEntity
8
0
100
AcDbBlockEnd
0
ENDSEC
0
SECTION
2
ENTITIES
0
ELLIPSE
5
8F
100
AcDbEntity
8
1
62
256
6
ByLayer
370
-1
48
1
60
0
100
AcDbEllipse
10
111.07195
20
-0.582292
30
0
11
1.8740611745796
21
0.590889218630121
31
0
210
0
220
0
230
1
40
0.982115
41
1.98218070164041
42
-2.53072741539171
0
ELLIPSE
5
90
100
AcDbEntity
8
1
62
256
6
ByLayer
370
-1
48
1
60
0
100
AcDbEllipse
10
74.127215
20
-137.14962
30
0
11
54.0069015735535
21
199.139084081478
31
0
210
3.69778549322349E-31
220
1.62739666586313E-16
230
1
40
0.159313
41
0.816136895923961
42
0.892766586587471
0
ELLIPSE
5
91
100
AcDbEntity
8
1
62
256
6
ByLayer
370
-1
48
1
60
0
100
AcDbEllipse
10
110.973779
20
2.076832
30
0
11
2.33018941763864
21
-2.47086982057917
31
0
210
0
220
0
230
-1
40
0.081159
41
-1.17710453867405
42
-0.949493862204926
0
ELLIPSE
5
92
100
AcDbEntity
8
1
62
256
6
ByLayer
370
-1
48
1
60
0
100
AcDbEllipse
10
110.822717
20
0.208175
30
0
11
-1.54979004496587
21
-0.48864692419444
31
0
210
0
220
0
230
1
40
0.982115
41
-0.180786712889207
42
0.610865238198056
0
ELLIPSE
5
93
100
AcDbEntity
8
1
62
256
6
ByLayer
370
-1
48
1
60
0
100
AcDbEllipse
10
130.809774
20
-6.707382
30
0
11
7.62973560598573
21
2.40564639603436
31
0
210
0
220
0
230
1
40
0.982115
41
2.8239506045593
42
2.8524227173931
0
ELLIPSE
5
94
100
AcDbEntity
8
1
62
256
6
ByLayer
370
-1
48
1
60
0
100
AcDbEllipse
10
110.650144
20
0.755506
30
0
11
-1.54979004496587
21
-0.48864692419444
31
0
210
0
220
0
230
1
40
0.982115
41
0.180767847001639
42
0.610865238198026
0
ELLIPSE
5
95
100
AcDbEntity
8
1
62
256
6
ByLayer
370
-1
48
1
60
0
100
AcDbEllipse
10
110.74516
20
2.801921
30
0
11
-1.43057542612234
21
-0.451058699256405
31
0
210
0
220
0
230
1
40
0.982115
41
0.496214400522259
42
2.13066616624778
0
ELLIPSE
5
96
100
AcDbEntity
8
1
62
256
6
ByLayer
370
-1
48
1
60
0
100
AcDbEllipse
10
113.340526
20
-20.43614
30
0
11
-7.62973560598583
21
-2.40564639603417
31
0
210
0
220
0
230
1
40
0.982115
41
-1.98232187549901
42
-1.38646084019472
0
ELLIPSE
5
97
100
AcDbEntity
8
1
62
256
6
ByLayer
370
-1
48
1
60
0
100
AcDbEllipse
10
110.708359
20
2.91864
30
0
11
1.43057542612233
21
0.451058699256444
31
0
210
0
220
0
230
1
40
0.982115
41
-2.59743149239748
42
-0.544008136933837
0
ELLIPSE
5
98
100
AcDbEntity
8
1
62
256
6
ByLayer
370
-1
48
1
60
0
100
AcDbEllipse
10
111.166966
20
1.464123
30
0
11
-1.43057542612234
21
-0.451058699256405
31
0
210
0
220
0
230
1
40
0.982115
41
2.35827684290269
42
0.10491704193873
0
ELLIPSE
5
99
100
AcDbEntity
8
1
62
256
6
ByLayer
370
-1
48
1
60
0
100
AcDbEllipse
10
119.619091
20
-10.522592
30
0
11
2.90362383720893
21
0.915509079232197
31
0
210
0
220
0
230
1
40
0.982115
41
0
42
6.28318530717959
0
ELLIPSE
5
9A
100
AcDbEntity
8
1
62
256
6
ByLayer
370
-1
48
1
60
0
100
AcDbEllipse
10
112.017665
20
1.497141
30
0
11
0.84040933009398
21
-0.917986901704039
31
0
210
0
220
0
230
-1
40
0.147381
41
0.793794015973813
42
1.56575132066661
0
ELLIPSE
5
9B
100
AcDbEntity
8
1
62
256
6
ByLayer
370
-1
48
1
60
0
100
AcDbEllipse
10
112.106375
20
0.088492
30
0
11
0.772929822858409
21
0.183168988780599
31
0
210
0
220
0
230
-1
40
0.98503
41
-3.09062667374623
42
-0.807340977392048
0
ELLIPSE
5
9C
100
AcDbEntity
8
1
62
256
6
ByLayer
370
-1
48
1
60
0
100
AcDbEllipse
10
112.017665
20
1.497141
30
0
11
0.548153714898141
21
1.81177019719064
31
0
210
0
220
0
230
-1
40
0.248059
41
-2.55425582341707
42
-1.89863534134486
0
ELLIPSE
5
9D
100
AcDbEntity
8
1
62
256
6
ByLayer
370
-1
48
1
60
0
100
AcDbEllipse
10
112.073604
20
0.608876
30
0
11
0.772929822999036
21
0.183168988289218
31
0
210
0
220
0
230
-1
40
0.98503
41
-2.31866936970221
42
-1.57929828272635
0
ELLIPSE
5
9E
100
AcDbEntity
8
1
62
256
6
ByLayer
370
-1
48
1
60
0
100
AcDbEllipse
10
122.744253
20
-7.31678
30
0
11
0.375651667187974
21
0.141886067509369
31
0
210
0
220
0
230
-1
40
0.978619
41
-0.553946076843789
42
-0.433270364451719
0
ELLIPSE
5
9F
100
AcDbEntity
8
1
62
256
6
ByLayer
370
-1
48
1
60
0
100
AcDbEllipse
10
119.561341
20
-10.339433
30
0
11
2.86115085224473
21
0.902117398512909
31
0
210
0
220
0
230
1
40
0.982115
41
2.94355241743368
42
0
0
ELLIPSE
5
A0
100
AcDbEntity
8
1
62
256
6
ByLayer
370
-1
48
1
60
0
100
AcDbEllipse
10
119.561341
20
-10.339433
30
0
11
2.86115085224473
21
0.902117398512909
31
0
210
0
220
0
230
1
40
0.982115
41
0
42
0.198095206510291
0
ELLIPSE
5
A1
100
AcDbEntity
8
1
62
256
6
ByLayer
370
-1
48
1
60
0
100
AcDbEllipse
10
127.131806
20
-21.133676
30
0
11
0.772929822858554
21
0.18316898878016
31
0
210
0
220
0
230
-1
40
0.98503
41
0.0509659798426351
42
2.33425167619589
0
ELLIPSE
5
A2
100
AcDbEntity
8
1
62
256
6
ByLayer
370
-1
48
1
60
0
100
AcDbEllipse
10
115.866036
20
-13.121877
30
0
11
0.375651667393712
21
0.141886066613108
31
0
210
0
220
0
230
-1
40
0.978619
41
2.58764657443741
42
-3.08707265551295
0
ELLIPSE
5
A3
100
AcDbEntity
8
1
62
256
6
ByLayer
370
-1
48
1
60
0
100
AcDbEllipse
10
123.372145
20
-7.923307
30
0
11
0.375651667237881
21
0.141886067384452
31
0
210
0
220
0
230
-1
40
0.978619
41
-0.553946077169631
42
0.0545199999589665
0
ELLIPSE
5
A4
100
AcDbEntity
8
1
62
256
6
ByLayer
370
-1
48
1
60
0
100
AcDbEllipse
10
119.552213
20
-10.310483
30
0
11
2.8081734579362
21
0.885413690249465
31
0
210
0
220
0
230
1
40
0.982115
41
2.83094613457979
42
0
0
ELLIPSE
5
A5
100
AcDbEntity
8
1
62
256
6
ByLayer
370
-1
48
1
60
0
100
AcDbEllipse
10
119.552213
20
-10.310483
30
0
11
2.8081734579362
21
0.885413690249465
31
0
210
0
220
0
230
1
40
0.982115
41
0
42
0.423504504993603
0
ELLIPSE
5
A6
100
AcDbEntity
8
1
62
256
6
ByLayer
370
-1
48
1
60
0
100
AcDbEllipse
10
119.552213
20
-10.310483
30
0
11
2.8081734579362
21
0.885413690249465
31
0
210
0
220
0
230
1
40
0.982115
41
2.71794675552035
42
2.83094578936548
0
ELLIPSE
5
A7
100
AcDbEntity
8
1
62
256
6
ByLayer
370
-1
48
1
60
0
100
AcDbEllipse
10
119.521573
20
-10.213305
30
0
11
-1.15065950107772
21
-0.362801547101898
31
0
210
0
220
0
230
1
40
0.982115
41
-2.74175074133584
42
-2.22344059519004
0
ELLIPSE
5
A8
100
AcDbEntity
8
1
62
256
6
ByLayer
370
-1
48
1
60
0
100
AcDbEllipse
10
119.58689
20
-10.420463
30
0
11
1.15065950107772
21
0.362801547101931
31
0
210
0
220
0
230
1
40
0.982115
41
0.236399985687247
42
0.374465252510762
0
ELLIPSE
5
A9
100
AcDbEntity
8
1
62
256
6
ByLayer
370
-1
48
1
60
0
100
AcDbEllipse
10
120.308588
20
-11.324899
30
0
11
-0.278485349618483
21
-0.0878060934552469
31
0
210
0
220
0
230
1
40
0.982115
41
0.570034800515698
42
3.06682428310411
0
ELLIPSE
5
AA
100
AcDbEntity
8
1
62
256
6
ByLayer
370
-1
48
1
60
0
100
AcDbEllipse
10
119.521573
20
-10.213305
30
0
11
-1.15065950107772
21
-0.362801547101898
31
0
210
0
220
0
230
1
40
0.982115
41
-1.42953155292089
42
-0.917576535630768
0
ELLIPSE
5
AB
100
AcDbEntity
8
1
62
256
6
ByLayer
370
-1
48
1
60
0
100
AcDbEllipse
10
119.522989
20
-10.217795
30
0
11
2.50350699571409
21
0.78935272369878
31
0
210
0
220
0
230
1
40
0.982115
41
2.830946195204
42
-3.14151577684903
0
ELLIPSE
5
AC
100
AcDbEntity
8
1
62
256
6
ByLayer
370
-1
48
1
60
0
100
AcDbEllipse
10
119.522989
20
-10.217795
30
0
11
2.50350699571409
21
0.78935272369878
31
0
210
0
220
0
230
1
40
0.982115
41
0
42
2.83094604633228
0
ELLIPSE
5
AD
100
AcDbEntity
8
1
62
256
6
ByLayer
370
-1
48
1
60
0
100
AcDbEllipse
10
121.228756
20
-10.993661
30
0
11
-0.654249828213284
21
-0.20628417845993
31
0
210
0
220
0
230
1
40
0.982115
41
-1.52715084955895
42
-0.743160205938196
0
ELLIPSE
5
AE
100
AcDbEntity
8
1
62
256
6
ByLayer
370
-1
48
1
60
0
100
AcDbEllipse
10
119.602253
20
-10.469189
30
0
11
1.71669051134678
21
0.541270439107729
31
0
210
0
220
0
230
1
40
0.982115
41
0
42
6.28318530717959
0
ELLIPSE
5
AF
100
AcDbEntity
8
1
62
256
6
ByLayer
370
-1
48
1
60
0
100
AcDbEllipse
10
119.521573
20
-10.213305
30
0
11
-1.15065950107772
21
-0.362801547101898
31
0
210
0
220
0
230
1
40
0.982115
41
2.39843244765153
42
-3.10462475078991
0
ELLIPSE
5
B0
100
AcDbEntity
8
1
62
256
6
ByLayer
370
-1
48
1
60
0
100
AcDbEllipse
10
121.068362
20
-9.142033
30
0
11
-0.654249828213284
21
-0.20628417845993
31
0
210
0
220
0
230
1
40
0.982115
41
-0.485828715822199
42
-9.88714284551604E-06
0
ELLIPSE
5
B1
100
AcDbEntity
8
1
62
256
6
ByLayer
370
-1
48
1
60
0
100
AcDbEllipse
10
118.934458
20
-11.452261
30
0
11
-0.278485349618483
21
-0.0878060934552469
31
0
210
0
220
0
230
1
40
0.982115
41
0.43407642727522
42
2.13801608775715
0
ELLIPSE
5
B2
100
AcDbEntity
8
1
62
256
6
ByLayer
370
-1
48
1
60
0
100
AcDbEllipse
10
119.602253
20
-10.469189
30
0
11
1.59890646792936
21
0.504133272868943
31
0
210
0
220
0
230
1
40
0.982115
41
1.8762289458939
42
2.92063594940922
0
ELLIPSE
5
B3
100
AcDbEntity
8
1
62
256
6
ByLayer
370
-1
48
1
60
0
100
AcDbEllipse
10
119.602253
20
-10.469189
30
0
11
1.59890646792936
21
0.504133272868943
31
0
210
0
220
0
230
1
40
0.982115
41
-0.220956704180675
42
0.831821942378692
0
ELLIPSE
5
B4
100
AcDbEntity
8
1
62
256
6
ByLayer
370
-1
48
1
60
0
100
AcDbEllipse
10
119.521573
20
-10.213305
30
0
11
-1.15065950107772
21
-0.362801547101898
31
0
210
0
220
0
230
1
40
0.982115
41
-0.376039018101999
42
0.236399985687129
0
ELLIPSE
5
B5
100
AcDbEntity
8
1
62
256
6
ByLayer
370
-1
48
1
60
0
100
AcDbEllipse
10
119.586658
20
-10.419729
30
0
11
2.50350699571408
21
0.789352723698775
31
0
210
0
220
0
230
1
40
0.982115
41
0
42
6.28318530717959
0
ELLIPSE
5
B6
100
AcDbEntity
8
1
62
256
6
ByLayer
370
-1
48
1
60
0
100
AcDbEllipse
10
118.143642
20
-10.335299
30
0
11
-0.278485349618483
21
-0.0878060934552469
31
0
210
0
220
0
230
1
40
0.982115
41
0.482263379362793
42
1.09669395402067
0
ELLIPSE
5
B7
100
AcDbEntity
8
1
62
256
6
ByLayer
370
-1
48
1
60
0
100
AcDbEllipse
10
117.974784
20
-11.284578
30
0
11
-0.654249828213284
21
-0.20628417845993
31
0
210
0
220
0
230
1
40
0.982115
41
-2.71454599327385
42
-2.04489869956961
0
ELLIPSE
5
B8
100
AcDbEntity
8
1
62
256
6
ByLayer
370
-1
48
1
60
0
100
AcDbEllipse
10
119.679206
20
-12.066847
30
0
11
-0.654249828213284
21
-0.20628417845993
31
0
210
0
220
0
230
1
40
0.982115
41
-1.78756720945348
42
-1.00357656583279
0
ELLIPSE
5
B9
100
AcDbEntity
8
1
62
256
6
ByLayer
370
-1
48
1
60
0
100
AcDbEllipse
10
120.899504
20
-10.091312
30
0
11
-0.278485349618483
21
-0.0878060934552469
31
0
210
0
220
0
230
1
40
0.982115
41
1.6144418040309
42
2.65184608374801
0
ELLIPSE
5
BA
100
AcDbEntity
8
1
62
256
6
ByLayer
370
-1
48
1
60
0
100
AcDbEllipse
10
119.521573
20
-10.213305
30
0
11
-1.15065950107772
21
-0.362801547101898
31
0
210
0
220
0
230
1
40
0.982115
41
0.37446525251091
42
1.35402544413624
0
ELLIPSE
5
BB
100
AcDbEntity
8
1
62
256
6
ByLayer
370
-1
48
1
60
0
100
AcDbEllipse
10
119.602253
20
-10.469189
30
0
11
1.59890646792936
21
0.504133272868943
31
0
210
0
220
0
230
1
40
0.982115
41
2.92063594940922
42
-2.30977071121105
0
ELLIPSE
5
BC
100
AcDbEntity
8
1
62
256
6
ByLayer
370
-1
48
1
60
0
100
AcDbEllipse
10
119.679206
20
-12.066847
30
0
11
-0.654249828213284
21
-0.20628417845993
31
0
210
0
220
0
230
1
40
0.982115
41
-2.5715578530745
42
-1.78756720945348
0
ELLIPSE
5
BD
100
AcDbEntity
8
1
62
256
6
ByLayer
370
-1
48
1
60
0
100
AcDbEllipse
10
119.521573
20
-10.213305
30
0
11
1.15065950107771
21
0.362801547101928
31
0
210
0
220
0
230
1
40
0.982115
41
-1.78756720945356
42
-0.743160205938278
0
ELLIPSE
5
BE
100
AcDbEntity
8
1
62
256
6
ByLayer
370
-1
48
1
60
0
100
AcDbEllipse
10
121.228756
20
-10.993661
30
0
11
-0.654249828213284
21
-0.20628417845993
31
0
210
0
220
0
230
1
40
0.982115
41
-0.743160205938196
42
-1.0916039041258E-05
0
ELLIPSE
5
BF
100
AcDbEntity
8
1
62
256
6
ByLayer
370
-1
48
1
60
0
100
AcDbEllipse
10
119.602253
20
-10.469189
30
0
11
1.59890646792936
21
0.504133272868943
31
0
210
0
220
0
230
1
40
0.982115
41
-1.26536370769586
42
-0.220956704180675
0
ELLIPSE
5
C0
100
AcDbEntity
8
1
62
256
6
ByLayer
370
-1
48
1
60
0
100
AcDbEllipse
10
119.58689
20
-10.420463
30
0
11
1.15065950107772
21
0.362801547101931
31
0
210
0
220
0
230
1
40
0.982115
41
-2.90519266790262
42
-2.76712740107887
0
ELLIPSE
5
C1
100
AcDbEntity
8
1
62
256
6
ByLayer
370
-1
48
1
60
0
100
AcDbEllipse
10
119.521573
20
-10.213305
30
0
11
1.15065950107771
21
0.362801547101928
31
0
210
0
220
0
230
1
40
0.982115
41
-2.90519266790263
42
-2.76712740107889
0
ELLIPSE
5
C2
100
AcDbEntity
8
1
62
256
6
ByLayer
370
-1
48
1
60
0
100
AcDbEllipse
10
119.602253
20
-10.469189
30
0
11
1.59890646792936
21
0.504133272868943
31
0
210
0
220
0
230
1
40
0.982115
41
-2.30977071121105
42
-1.26536370769586
0
ELLIPSE
5
C3
100
AcDbEntity
8
1
62
256
6
ByLayer
370
-1
48
1
60
0
100
AcDbEllipse
10
119.602253
20
-10.469189
30
0
11
1.59890646792936
21
0.504133272868943
31
0
210
0
220
0
230
1
40
0.982115
41
0.831821942378692
42
1.8762289458939
0
ELLIPSE
5
C4
100
AcDbEntity
8
1
62
256
6
ByLayer
370
-1
48
1
60
0
100
AcDbEllipse
10
117.974784
20
-11.284578
30
0
11
-0.654249828213284
21
-0.20628417845993
31
0
210
0
220
0
230
1
40
0.982115
41
3.14158331963442
42
-2.95777407570756
0
ELLIPSE
5
C5
100
AcDbEntity
8
1
62
256
6
ByLayer
370
-1
48
1
60
0
100
AcDbEllipse
10
111.819818
20
1.16779
30
0
11
-0.410098288821738
21
-0.129303493786836
31
0
210
0
220
0
230
1
40
0.982115
41
-2.22913601157311
42
3.36503355897003E-13
0
POINT
5
41
100
AcDbEntity
8
80
62
256
6
ByLayer
370
-1
48
1
60
0
100
AcDbPoint
10
0
20
0
30
0
39
0
210
0
220
0
230
1
50
360
0
POINT
5
43
100
AcDbEntity
8
81
62
256
6
ByLayer
370
-1
48
1
60
0
100
AcDbPoint
10
127.914
20
-21.9
30
0
39
0
210
0
220
0
230
1
50
360
0
POINT
5
45
100
AcDbEntity
8
1
62
256
6
ByLayer
370
-1
48
1
60
0
100
AcDbPoint
10
-173.336
20
0
30
0
39
0
210
0
220
0
230
1
50
360
0
POINT
5
47
100
AcDbEntity
8
2
62
256
6
ByLayer
370
-1
48
1
60
0
100
AcDbPoint
10
127.914
20
21.9
30
0
39
0
210
0
220
0
230
1
50
360
0
POINT
5
49
100
AcDbEntity
8
2
62
256
6
ByLayer
370
-1
48
1
60
0
100
AcDbPoint
10
127.362793
20
19.286308
30
0
39
0
210
0
220
0
230
1
50
360
0
SPLINE
5
C6
100
AcDbEntity
8
1
62
256
6
ByLayer
370
-1
48
1
60
0
100
AcDbSpline
70
4
71
3
72
10
73
6
40
0
40
0
40
0
40
0
40
0.679347771445111
40
0.679347771445111
40
1
40
1
40
1
40
1
41
1
10
109.71426747273
20
1.36411743421573
30
0
41
1
10
109.724653300665
20
1.24590127393165
30
0
41
1
10
109.739463773575
20
1.13174192915039
30
0
41
1
10
109.768570339515
20
0.969655475289244
30
0
41
1
10
109.779013912025
20
0.918582401669255
30
0
41
1
10
109.790648920917
20
0.868407922406618
30
0
0
SPLINE
5
C7
100
AcDbEntity
8
1
62
256
6
ByLayer
370
-1
48
1
60
0
100
AcDbSpline
70
4
71
3
72
10
73
6
40
0
40
0
40
0
40
0
40
0.5
40
0.5
40
1
40
1
40
1
40
1
41
1
10
83.2954720033986
20
-5.53679650723259
30
0
41
1
10
83.1230906651213
20
-7.28053909701922
30
0
41
1
10
83.277335172531
20
-8.9552499898532
30
0
41
1
10
84.4283671338433
20
-11.70499072377
30
0
41
1
10
85.4289777693534
20
-12.7647559683569
30
0
41
1
10
86.6870581713349
20
-13.5107500000007
30
0
0
SPLINE
5
C8
100
AcDbEntity
8
1
62
256
6
ByLayer
370
-1
48
1
60
0
100
AcDbSpline
70
4
71
3
72
32
73
28
40
-0.124999999999993
40
-0.124999999999993
40
0
40
0
40
0.125000000000007
40
0.125000000000007
40
0.187500000000007
40
0.187500000000007
40
0.250000000000007
40
0.250000000000007
40
0.312500000000007
40
0.312500000000007
40
0.375000000000008
40
0.375000000000008
40
0.500000000000008
40
0.500000000000008
40
0.625000000000008
40
0.625000000000008
40
0.687500000000008
40
0.687500000000008
40
0.718750000000008
40
0.718750000000008
40
0.750000000000009
40
0.750000000000009
40
0.812500000000008
40
0.812500000000008
40
0.875000000000007
40
0.875000000000007
40
1
40
1
40
1.12500000000001
40
1.12500000000001
41
1
10
99.7457357543415
20
-6.86069490663209
30
0
41
1
10
98.0723280115043
20
-6.03867751620314
30
0
41
1
10
97.2043133934968
20
-5.71664682198337
30
0
41
1
10
95.8352674761567
20
-5.58188602713776
30
0
41
1
10
95.3643507076634
20
-5.59369686868314
30
0
41
1
10
94.46873037056
20
-5.9219727570455
30
0
41
1
10
94.054700728333
20
-6.31764658231805
30
0
41
1
10
93.9137765039077
20
-7.28411087929013
30
0
41
1
10
94.1146795038397
20
-7.73314419586333
30
0
41
1
10
94.6309524536332
20
-8.46303044170864
30
0
41
1
10
94.9636289946648
20
-8.76636898595359
30
0
41
1
10
96.0448325140842
20
-9.55774992740217
30
0
41
1
10
96.8862141179967
20
-9.93616277545576
30
0
41
1
10
98.6450222621552
20
-10.5238019414921
30
0
41
1
10
99.5802532005056
20
-10.7385037211528
30
0
41
1
10
101.019955275835
20
-10.8976482715516
30
0
41
1
10
101.512502318138
20
-10.9278664393311
30
0
41
1
10
102.244037666803
20
-10.8560469772734
30
0
41
1
10
102.493551386893
20
-10.814761763169
30
0
41
1
10
102.93590944938
20
-10.598181194348
30
0
41
1
10
103.101620593999
20
-10.3620110623545
30
0
41
1
10
103.0228517845
20
-9.62672948580075
30
0
41
1
10
102.660501062542
20
-9.24960824235879
30
0
41
1
10
102.004581706561
20
-8.55111835489572
30
0
41
1
10
101.647946806698
20
-8.2399479592292
30
0
41
1
10
100.539647724266
20
-7.36519529780509
30
0
41
1
10
99.7457357543415
20
-6.86069490663209
30
0
41
1
10
98.0723280115043
20
-6.03867751620314
30
0
0
SPLINE
5
C9
100
AcDbEntity
8
1
62
256
6
ByLayer
370
-1
48
1
60
0
100
AcDbSpline
70
4
71
3
72
12
73
8
40
0
40
0
40
0
40
0
40
0.249999999999999
40
0.249999999999999
40
0.499999999999997
40
0.499999999999997
40
1
40
1
40
1
40
1
41
1
10
110.277880429826
20
14.2932397000904
30
0
41
1
10
108.118127639232
20
14.1940695440627
30
0
41
1
10
106.004643955818
20
14.0041117247499
30
0
41
1
10
101.869420011651
20
13.363322865851
30
0
41
1
10
99.8290352834496
20
12.9039298388375
30
0
41
1
10
94.0901246201634
20
10.9541054272345
30
0
41
1
10
90.6675568238413
20
8.81966331306074
30
0
41
1
10
88.011990198343
20
5.53679650723197
30
0
0
SPLINE
5
CA
100
AcDbEntity
8
1
62
256
6
ByLayer
370
-1
48
1
60
0
100
AcDbSpline
70
4
71
3
72
18
73
14
40
0
40
0
40
0
40
0
40
0.0454196319137751
40
0.0454196319137751
40
0.268605656968544
40
0.268605656968544
40
0.493582665524006
40
0.493582665524006
40
0.732199488886014
40
0.732199488886014
40
0.993790830220772
40
0.993790830220772
40
1
40
1
40
1
40
1
41
1
10
117.933707393674
20
-10.6169122011001
30
0
41
1
10
117.933225664553
20
-10.6109472653031
30
0
41
1
10
117.932928260551
20
-10.6049456377642
30
0
41
1
10
117.932269065259
20
-10.569615157175
30
0
41
1
10
117.936242579789
20
-10.5394641570064
30
0
41
1
10
117.952293648061
20
-10.4820863471323
30
0
41
1
10
117.964619203291
20
-10.454148036949
30
0
41
1
10
117.996252374921
20
-10.4022924067989
30
0
41
1
10
118.016308559429
20
-10.3780561793269
30
0
41
1
10
118.062584378125
20
-10.3352135926594
30
0
41
1
10
118.089770942373
20
-10.3168091354337
30
0
41
1
10
118.118501000858
20
-10.3028533753309
30
0
41
1
10
118.119174919563
20
-10.3025289480845
30
0
41
1
10
118.119849503084
20
-10.3022071227813
30
0
0
SPLINE
5
CB
100
AcDbEntity
8
1
62
256
6
ByLayer
370
-1
48
1
60
0
100
AcDbSpline
70
4
71
3
72
20
73
16
40
0
40
0
40
0
40
0
40
0.0960672522170789
40
0.0960672522170789
40
0.293747236242431
40
0.293747236242431
40
0.454712432603278
40
0.454712432603278
40
0.616400515245816
40
0.616400515245816
40
0.769025603661633
40
0.769025603661633
40
0.987230811190119
40
0.987230811190119
40
1
40
1
40
1
40
1
41
1
10
118.534336476938
20
-9.4369304608812
30
0
41
1
10
118.544143479412
20
-9.46366457138129
30
0
41
1
10
118.551962084895
20
-9.49158995496111
30
0
41
1
10
118.569099249571
20
-9.57972790029919
30
0
41
1
10
118.571404083705
20
-9.64427543587135
30
0
41
1
10
118.555591715727
20
-9.76478870314142
30
0
41
1
10
118.540864245225
20
-9.82148095597171
30
0
41
1
10
118.496887011192
20
-9.93171928756649
30
0
41
1
10
118.466951869121
20
-9.98666197069952
30
0
41
1
10
118.398947332771
20
-10.0835056778394
30
0
41
1
10
118.360710851882
20
-10.1271344642811
30
0
41
1
10
118.262116451974
20
-10.2192351997043
30
0
41
1
10
118.19764565232
20
-10.2635615067733
30
0
41
1
10
118.127700039846
20
-10.2984203038495
30
0
41
1
10
118.123778886178
20
-10.3003325218352
30
0
41
1
10
118.119849503084
20
-10.3022071227813
30
0
0
SPLINE
5
CC
100
AcDbEntity
8
1
62
256
6
ByLayer
370
-1
48
1
60
0
100
AcDbSpline
70
4
71
3
72
14
73
10
40
0
40
0
40
0
40
0
40
0.223765969413522
40
0.223765969413522
40
0.517619232810862
40
0.517619232810862
40
0.78307493974703
40
0.78307493974703
40
1
40
1
40
1
40
1
41
1
10
118.534336476937
20
-9.4369304608816
30
0
41
1
10
118.526281007184
20
-9.41497106818434
30
0
41
1
10
118.521430307389
20
-9.39114379547442
30
0
41
1
10
118.518936218147
20
-9.334389050721
30
0
41
1
10
118.524088299309
20
-9.29996492556387
30
0
41
1
10
118.547128793852
20
-9.23697185027197
30
0
41
1
10
118.564154077259
20
-9.20721168261804
30
0
41
1
10
118.603933705403
20
-9.15936746525853
30
0
41
1
10
118.625546081795
20
-9.13957156999803
30
0
41
1
10
118.649251194007
20
-9.12315391664208
30
0
0
SPLINE
5
CD
100
AcDbEntity
8
1
62
256
6
ByLayer
370
-1
48
1
60
0
100
AcDbSpline
70
4
71
3
72
12
73
8
40
0
40
0
40
0
40
0
40
0.358452553756142
40
0.358452553756142
40
0.789477838141124
40
0.789477838141124
40
1
40
1
40
1
40
1
41
1
10
118.167639793992
20
-10.8547327478336
30
0
41
1
10
118.216921735474
20
-10.8581682698796
30
0
41
1
10
118.266296353352
20
-10.867685760313
30
0
41
1
10
118.371768784183
20
-10.9031559493712
30
0
41
1
10
118.428461409175
20
-10.9326696939007
30
0
41
1
10
118.505053847672
20
-10.9916650124731
30
0
41
1
10
118.529228997089
20
-11.0136578241336
30
0
41
1
10
118.551682872076
20
-11.0378435489357
30
0
0
SPLINE
5
CE
100
AcDbEntity
8
1
62
256
6
ByLayer
370
-1
48
1
60
0
100
AcDbSpline
70
4
71
3
72
16
73
12
40
0
40
0
40
0
40
0
40
0.214802864943027
40
0.214802864943027
40
0.438120377168167
40
0.438120377168167
40
0.67241185107564
40
0.67241185107564
40
0.927660019506341
40
0.927660019506341
40
1
40
1
40
1
40
1
41
1
10
120.555254767623
20
-11.8152249440092
30
0
41
1
10
120.53182827311
20
-11.8314496327102
30
0
41
1
10
120.505544270654
20
-11.8440446961168
30
0
41
1
10
120.450273196505
20
-11.8605945455036
30
0
41
1
10
120.420515134021
20
-11.86440472795
30
0
41
1
10
120.360983527745
20
-11.8628251920709
30
0
41
1
10
120.330534082342
20
-11.8569849962643
30
0
41
1
10
120.27127755715
20
-11.8361045042169
30
0
41
1
10
120.242108635348
20
-11.8200605849176
30
0
41
1
10
120.209076806774
20
-11.7948277816185
30
0
41
1
10
120.201994793802
20
-11.7889213218472
30
0
41
1
10
120.195186258075
20
-11.7827422098739
30
0
0
SPLINE
5
CF
100
AcDbEntity
8
1
62
256
6
ByLayer
370
-1
48
1
60
0
100
AcDbSpline
70
4
71
3
72
18
73
14
40
0
40
0
40
0
40
0
40
0.0441834409733846
40
0.0441834409733846
40
0.265317468229102
40
0.265317468229102
40
0.488178804862499
40
0.488178804862499
40
0.72451523513366
40
0.72451523513366
40
0.983584852973986
40
0.983584852973986
40
1
40
1
40
1
40
1
41
1
10
118.891311674514
20
-11.9694483536109
30
0
41
1
10
118.885908173149
20
-11.9670056500605
30
0
41
1
10
118.880574552461
20
-11.9643812809685
30
0
41
1
10
118.849302552756
20
-11.9477076537688
30
0
41
1
10
118.825100564792
20
-11.9292372589695
30
0
41
1
10
118.783871956203
20
-11.8862207088135
30
0
41
1
10
118.766360896929
20
-11.8610962810464
30
0
41
1
10
118.738869079732
20
-11.8063154542079
30
0
41
1
10
118.72903549772
20
-11.7758059603349
30
0
41
1
10
118.717890849704
20
-11.7117488723679
30
0
41
1
10
118.717315410732
20
-11.6773932074444
30
0
41
1
10
118.721751945155
20
-11.6424004990225
30
0
41
1
10
118.722037985992
20
-11.6403003429056
30
0
41
1
10
118.722343084456
20
-11.6382048659939
30
0
0
SPLINE
5
D0
100
AcDbEntity
8
1
62
256
6
ByLayer
370
-1
48
1
60
0
100
AcDbSpline
70
4
71
3
72
16
73
12
40
0
40
0
40
0
40
0
40
0.0991908256189833
40
0.0991908256189833
40
0.405370754593073
40
0.405370754593073
40
0.682916974091941
40
0.682916974091941
40
0.92791272471854
40
0.92791272471854
40
1
40
1
40
1
40
1
41
1
10
121.024332983612
20
-10.0438959314996
30
0
41
1
10
121.036358058768
20
-10.0469076382013
30
0
41
1
10
121.04833654891
20
-10.0506164225633
30
0
41
1
10
121.096285587499
20
-10.0684678207487
30
0
41
1
10
121.131668207412
20
-10.0888910641223
30
0
41
1
10
121.189969560712
20
-10.1388275642802
30
0
41
1
10
121.214607889596
20
-10.1681532434117
30
0
41
1
10
121.249217722992
20
-10.2290212394621
30
0
41
1
10
121.261036776371
20
-10.260813494206
30
0
41
1
10
121.268750091985
20
-10.3023227103828
30
0
41
1
10
121.270026075425
20
-10.3119013911317
30
0
41
1
10
121.270798567956
20
-10.3214666595513
30
0
0
SPLINE
5
D1
100
AcDbEntity
8
1
62
256
6
ByLayer
370
-1
48
1
60
0
100
AcDbSpline
70
4
71
3
72
18
73
14
40
0
40
0
40
0
40
0
40
0.020273837850096
40
0.020273837850096
40
0.244136096663655
40
0.244136096663655
40
0.468322852784267
40
0.468322852784267
40
0.704958742090615
40
0.704958742090615
40
0.963681437568217
40
0.963681437568217
40
1
40
1
40
1
40
1
41
1
10
118.649251194007
20
-9.12315391664208
30
0
41
1
10
118.651487818978
20
-9.1216048780577
30
0
41
1
10
118.653745373085
20
-9.12008302231959
30
0
41
1
10
118.680872007128
20
-9.10228830800634
30
0
41
1
10
118.70845749556
20
-9.08922725760524
30
0
41
1
10
118.764508049963
20
-9.0714341460243
30
0
41
1
10
118.793686138592
20
-9.0664672438885
30
0
41
1
10
118.851454824854
20
-9.06440722202788
30
0
41
1
10
118.880648613696
20
-9.06771179485136
30
0
41
1
10
118.936724405677
20
-9.08228742430578
30
0
41
1
10
118.96385192906
20
-9.09442395127792
30
0
41
1
10
118.990553437588
20
-9.11195532426891
30
0
41
1
10
118.993803798161
20
-9.11420129840161
30
0
41
1
10
118.996983454214
20
-9.11651106648847
30
0
0
SPLINE
5
D2
100
AcDbEntity
8
1
62
256
6
ByLayer
370
-1
48
1
60
0
100
AcDbSpline
70
4
71
3
72
16
73
12
40
0
40
0
40
0
40
0
40
0.154615881544073
40
0.154615881544073
40
0.37691822052679
40
0.37691822052679
40
0.607060142260822
40
0.607060142260822
40
0.855700038099769
40
0.855700038099769
40
1
40
1
40
1
40
1
41
1
10
121.270798567956
20
-10.3214666595513
30
0
41
1
10
121.272426514301
20
-10.3416244515522
30
0
41
1
10
121.271807004038
20
-10.3619217574034
30
0
41
1
10
121.264958684489
20
-10.4097443791712
30
0
41
1
10
121.25624838789
20
-10.4371484704696
30
0
41
1
10
121.230933401893
20
-10.4871956141313
30
0
41
1
10
121.213767358062
20
-10.5102803691664
30
0
41
1
10
121.17243865842
20
-10.5504730731539
30
0
41
1
10
121.147332986845
20
-10.5674777987083
30
0
41
1
10
121.105094365676
20
-10.5870668601733
30
0
41
1
10
121.088872713186
20
-10.5928081382289
30
0
41
1
10
121.072320209207
20
-10.5970461535826
30
0
0
SPLINE
5
D3
100
AcDbEntity
8
1
62
256
6
ByLayer
370
-1
48
1
60
0
100
AcDbSpline
70
4
71
3
72
16
73
12
40
0
40
0
40
0
40
0
40
0.173627814912248
40
0.173627814912248
40
0.479357118494455
40
0.479357118494455
40
0.749911611192575
40
0.749911611192575
40
0.990045137410327
40
0.990045137410327
40
1
40
1
40
1
40
1
41
1
10
120.657833235359
20
-11.4623228154772
30
0
41
1
10
120.665288618888
20
-11.4831831695046
30
0
41
1
10
120.670776805583
20
-11.5050085563414
30
0
41
1
10
120.679630975989
20
-11.5661120552899
30
0
41
1
10
120.678235021886
20
-11.6072717558514
30
0
41
1
10
120.660720744329
20
-11.6808349378514
30
0
41
1
10
120.64597102699
20
-11.7148156266381
30
0
41
1
10
120.607567970823
20
-11.7707162773797
30
0
41
1
10
120.584521413178
20
-11.7943443383731
30
0
41
1
10
120.557458130162
20
-11.8136868413922
30
0
41
1
10
120.556359202102
20
-11.8144600363271
30
0
41
1
10
120.555254767623
20
-11.8152249440092
30
0
0
SPLINE
5
D4
100
AcDbEntity
8
1
62
256
6
ByLayer
370
-1
48
1
60
0
100
AcDbSpline
70
4
71
3
72
18
73
14
40
0
40
0
40
0
40
0
40
0.195541640010849
40
0.195541640010849
40
0.372709681596717
40
0.372709681596717
40
0.551756580125996
40
0.551756580125996
40
0.70541295291638
40
0.70541295291638
40
0.905344893638944
40
0.905344893638944
40
1
40
1
40
1
40
1
41
1
10
119.231328088934
20
-11.8720778931863
30
0
41
1
10
119.271581778663
20
-11.816563181474
30
0
41
1
10
119.320375042115
20
-11.7658416941161
30
0
41
1
10
119.427135337569
20
-11.6857038527126
30
0
41
1
10
119.48515889704
20
-11.6539728664666
30
0
41
1
10
119.609593465436
20
-11.6108562032481
30
0
41
1
10
119.678071330243
20
-11.5992942812425
30
0
41
1
10
119.803196887168
20
-11.5998290046945
30
0
41
1
10
119.861635770622
20
-11.6087072984546
30
0
41
1
10
119.987664592884
20
-11.6452811016234
30
0
41
1
10
120.054908259949
20
-11.6781717650985
30
0
41
1
10
120.142874444169
20
-11.7383547021164
30
0
41
1
10
120.169870420937
20
-11.7597667275281
30
0
41
1
10
120.195186258076
20
-11.7827422098733
30
0
0
SPLINE
5
D5
100
AcDbEntity
8
1
62
256
6
ByLayer
370
-1
48
1
60
0
100
AcDbSpline
70
4
71
3
72
16
73
12
40
0
40
0
40
0
40
0
40
0.159572874141431
40
0.159572874141431
40
0.466707389793413
40
0.466707389793413
40
0.738850838240739
40
0.738850838240739
40
0.980078396094582
40
0.980078396094582
40
1
40
1
40
1
40
1
41
1
10
119.960841623348
20
-9.0271753831704
30
0
41
1
10
119.973578259771
20
-9.01465179891301
30
0
41
1
10
119.987865862704
20
-9.00303891739074
30
0
41
1
10
120.033249233993
20
-8.97291948323263
30
0
41
1
10
120.068718296678
20
-8.95743235985319
30
0
41
1
10
120.140137717819
20
-8.94107484886823
30
0
41
1
10
120.176698847007
20
-8.93855588904975
30
0
41
1
10
120.244291464429
20
-8.94526988142798
30
0
41
1
10
120.276450138184
20
-8.95333129995032
30
0
41
1
10
120.308316058685
20
-8.96676290502555
30
0
41
1
10
120.310763695265
20
-8.96783173516198
30
0
41
1
10
120.313194287116
20
-8.96893050704031
30
0
0
SPLINE
5
D6
100
AcDbEntity
8
1
62
256
6
ByLayer
370
-1
48
1
60
0
100
AcDbSpline
70
4
71
3
72
12
73
8
40
0
40
0
40
0
40
0
40
0.315312240516283
40
0.315312240516283
40
0.782102488351094
40
0.782102488351094
40
1
40
1
40
1
40
1
41
1
10
120.527481928709
20
-9.66944741048891
30
0
41
1
10
120.504073949931
20
-9.62624090652233
30
0
41
1
10
120.486180067514
20
-9.58137515869271
30
0
41
1
10
120.45642323721
20
-9.47207639516816
30
0
41
1
10
120.450919674448
20
-9.4067536272656
30
0
41
1
10
120.45827353412
20
-9.31629037206503
30
0
41
1
10
120.462904195497
20
-9.28796674683866
30
0
41
1
10
120.469629693148
20
-9.26042381334233
30
0
0
SPLINE
5
D7
100
AcDbEntity
8
1
62
256
6
ByLayer
370
-1
48
1
60
0
100
AcDbSpline
70
4
71
3
72
16
73
12
40
0
40
0
40
0
40
0
40
0.203316514895694
40
0.203316514895694
40
0.424385571798654
40
0.424385571798654
40
0.655841056484827
40
0.655841056484827
40
0.90768527030143
40
0.90768527030143
40
1
40
1
40
1
40
1
41
1
10
120.313194287116
20
-8.96893050704031
30
0
41
1
10
120.337838061215
20
-8.9800709566147
30
0
41
1
10
120.360991636295
20
-8.99451532152631
30
0
41
1
10
120.402969402943
20
-9.02931250032501
30
0
41
1
10
120.421770131988
20
-9.05051879006857
30
0
41
1
10
120.451591295777
20
-9.09654609311823
30
0
41
1
10
120.462605009439
20
-9.12205437739789
30
0
41
1
10
120.476054888008
20
-9.17532031629332
30
0
41
1
10
120.477852685773
20
-9.20373773728801
30
0
41
1
10
120.473750880668
20
-9.24084105697924
30
0
41
1
10
120.471996246352
20
-9.25073206696354
30
0
41
1
10
120.469629693148
20
-9.26042381334233
30
0
0
SPLINE
5
D8
100
AcDbEntity
8
1
62
256
6
ByLayer
370
-1
48
1
60
0
100
AcDbSpline
70
4
71
3
72
18
73
14
40
0
40
0
40
0
40
0
40
0.205510270209246
40
0.205510270209246
40
0.380789309279232
40
0.380789309279232
40
0.557829967726609
40
0.557829967726609
40
0.710988950744473
40
0.710988950744473
40
0.912556624672902
40
0.912556624672902
40
1
40
1
40
1
40
1
41
1
10
119.960841623355
20
-9.02717538317503
30
0
41
1
10
119.914488333138
20
-9.07275329843924
30
0
41
1
10
119.858863501689
20
-9.11377268872951
30
0
41
1
10
119.74246837211
20
-9.17574509017388
30
0
41
1
10
119.682249099226
20
-9.19936753688927
30
0
41
1
10
119.55572630913
20
-9.23204899244811
30
0
41
1
10
119.487431582642
20
-9.24131874167264
30
0
41
1
10
119.364416138866
20
-9.24310036344139
30
0
41
1
10
119.30762828337
20
-9.23778068805154
30
0
41
1
10
119.185869954163
20
-9.21323053903001
30
0
41
1
10
119.121803183672
20
-9.18988376127342
30
0
41
1
10
119.041598472956
20
-9.1466788427349
30
0
41
1
10
119.018557941647
20
-9.1321832215074
30
0
41
1
10
118.996983454214
20
-9.11651106648841
30
0
0
SPLINE
5
D9
100
AcDbEntity
8
1
62
256
6
ByLayer
370
-1
48
1
60
0
100
AcDbSpline
70
4
71
3
72
12
73
8
40
0
40
0
40
0
40
0
40
0.174034041267627
40
0.174034041267627
40
0.532961644678594
40
0.532961644678594
40
1
40
1
40
1
40
1
41
1
10
118.646297203841
20
-11.171478398757
30
0
41
1
10
118.659584346534
20
-11.1964673067683
30
0
41
1
10
118.671367720804
20
-11.222477482888
30
0
41
1
10
118.702398369892
20
-11.3036105843784
30
0
41
1
10
118.716543189691
20
-11.361165704403
30
0
41
1
10
118.733793055258
20
-11.4920605521803
30
0
41
1
10
118.732737178749
20
-11.5668161597381
30
0
41
1
10
118.722343084456
20
-11.6382048659939
30
0
0
SPLINE
5
DA
100
AcDbEntity
8
1
62
256
6
ByLayer
370
-1
48
1
60
0
100
AcDbSpline
70
4
71
3
72
14
73
10
40
0
40
0
40
0
40
0
40
0.266197651678169
40
0.266197651678169
40
0.55292921051576
40
0.55292921051576
40
0.812189603596411
40
0.812189603596411
40
1
40
1
40
1
40
1
41
1
10
118.167639793992
20
-10.8547327478336
30
0
41
1
10
118.137406819874
20
-10.8526251594153
30
0
41
1
10
118.107153643687
20
-10.8451215658991
30
0
41
1
10
118.049241833648
20
-10.8183845087445
30
0
41
1
10
118.021079796647
20
-10.7977958570708
30
0
41
1
10
117.977409943803
20
-10.7484101786515
30
0
41
1
10
117.960333181564
20
-10.7197957605365
30
0
41
1
10
117.940972098739
20
-10.6660603244141
30
0
41
1
10
117.935705686906
20
-10.6416557557296
30
0
41
1
10
117.933707393674
20
-10.6169122011001
30
0
0
SPLINE
5
DB
100
AcDbEntity
8
1
62
256
6
ByLayer
370
-1
48
1
60
0
100
AcDbSpline
70
4
71
3
72
12
73
8
40
0
40
0
40
0
40
0
40
0.484902853316312
40
0.484902853316312
40
0.891670785464253
40
0.891670785464253
40
1
40
1
40
1
40
1
41
1
10
121.024332983612
20
-10.0438959315027
30
0
41
1
10
120.953622357389
20
-10.0261862985796
30
0
41
1
10
120.882671981919
20
-9.99796829657041
30
0
41
1
10
120.760367049592
20
-9.92752997676979
30
0
41
1
10
120.706392196093
20
-9.88738695619776
30
0
41
1
10
120.64620782177
20
-9.82904089820644
30
0
41
1
10
120.633896045275
20
-9.81624911355539
30
0
41
1
10
120.622096260474
20
-9.80308226030991
30
0
0
SPLINE
5
DC
100
AcDbEntity
8
1
62
256
6
ByLayer
370
-1
48
1
60
0
100
AcDbSpline
70
4
71
3
72
14
73
10
40
0
40
0
40
0
40
0
40
0.258173010349299
40
0.258173010349299
40
0.54773335762669
40
0.54773335762669
40
0.809540687773522
40
0.809540687773522
40
1
40
1
40
1
40
1
41
1
10
119.231328088934
20
-11.8720778931866
30
0
41
1
10
119.212535774402
20
-11.8979947701408
30
0
41
1
10
119.18945756203
20
-11.9213499298046
30
0
41
1
10
119.134015747204
20
-11.9613411820638
30
0
41
1
10
119.099925741093
20
-11.977384771252
30
0
41
1
10
119.031778996565
20
-11.9936506912953
30
0
41
1
10
118.996985434257
20
-11.9954248563486
30
0
41
1
10
118.938749854083
20
-11.9869649517752
30
0
41
1
10
118.914244532723
20
-11.979815367586
30
0
41
1
10
118.891311674514
20
-11.9694483536109
30
0
0
SPLINE
5
DD
100
AcDbEntity
8
1
62
256
6
ByLayer
370
-1
48
1
60
0
100
AcDbSpline
70
4
71
3
72
18
73
14
40
0
40
0
40
0
40
0
40
0.198114377192951
40
0.198114377192951
40
0.374811943626174
40
0.374811943626174
40
0.553358666814027
40
0.553358666814027
40
0.706896298281555
40
0.706896298281555
40
0.907261486940762
40
0.907261486940762
40
1
40
1
40
1
40
1
41
1
10
120.657833235351
20
-11.4623228154806
30
0
41
1
10
120.633788756526
20
-11.3950457480002
30
0
41
1
10
120.618304085903
20
-11.3229676692218
30
0
41
1
10
120.609648168365
20
-11.1845436459054
30
0
41
1
10
120.614326919944
20
-11.1168367896846
30
0
41
1
10
120.643683738332
20
-10.9866052345778
30
0
41
1
10
120.669241772447
20
-10.9222674287898
30
0
41
1
10
120.732639153542
20
-10.8176735703609
30
0
41
1
10
120.768938932056
20
-10.7739899630993
30
0
41
1
10
120.861024554044
20
-10.6899391681029
30
0
41
1
10
120.920764396458
20
-10.652978022664
30
0
41
1
10
121.012086492684
20
-10.6147593792665
30
0
41
1
10
121.04198719567
20
-10.6048124575334
30
0
41
1
10
121.072320209206
20
-10.5970461535803
30
0
0
SPLINE
5
DE
100
AcDbEntity
8
SK1
62
256
6
ByLayer
370
-1
48
1
60
0
100
AcDbSpline
70
4
71
3
72
10
73
6
40
0
40
0
40
0
40
0
40
0.5
40
0.5
40
1
40
1
40
1
40
1
41
1
10
-170.836
20
-5.53679650723234
30
0
41
1
10
-171.455109452747
20
-3.74892227266315
30
0
41
1
10
-171.82407495792
20
-1.90868703143693
30
0
41
1
10
-171.82641932943
20
1.89017327916392
30
0
41
1
10
-171.452083151065
20
3.75766167533217
30
0
41
1
10
-170.836
20
5.53679650723237
30
0
0
SPLINE
5
DF
100
AcDbEntity
8
SK1
62
256
6
ByLayer
370
-1
48
1
60
0
100
AcDbSpline
70
4
71
3
72
12
73
8
40
0
40
0
40
0
40
0
40
0.0003053705422069
40
0.0003053705422069
40
0.500152685271103
40
0.500152685271103
40
1
40
1
40
1
40
1
41
1
10
-173.314499024951
20
-13.5107499999992
30
0
41
1
10
-173.314501015728
20
-13.5107500000003
30
0
41
1
10
-173.314499006105
20
-13.51075
30
0
41
1
10
-173.314242838719
20
-13.51075
30
0
41
1
10
-173.049966672914
20
-13.51075
30
0
41
1
10
-172.160962318699
20
-13.51075
30
0
41
1
10
-171.546229659649
20
-13.51075
30
0
41
1
10
-170.836
20
-13.51075
30
0
0
LINE
5
4A
100
AcDbEntity
8
80
62
256
6
ByLayer
370
-1
48
1
60
0
100
AcDbLine
10
0
20
0
30
0
11
-10
21
0
31
0
39
0
210
0
220
0
230
1
0
LINE
5
4B
100
AcDbEntity
8
81
62
256
6
ByLayer
370
-1
48
1
60
0
100
AcDbLine
10
127.914
20
-21.9
30
0
11
137.914
21
-21.9
31
0
39
0
210
0
220
0
230
1
0
LINE
5
4C
100
AcDbEntity
8
SK4
62
256
6
ByLayer
370
-1
48
0.05
60
0
100
AcDbLine
10
-178.336
20
0
30
0
11
132.362793
21
0
31
0
39
0
210
0
220
0
230
1
0
LINE
5
4E
100
AcDbEntity
8
4
62
256
6
ByLayer
370
-1
48
0.05
60
0
100
AcDbLine
10
0
20
0
30
0
11
132.362793
21
0
31
0
39
0
210
0
220
0
230
1
0
LINE
5
50
100
AcDbEntity
8
1
62
256
6
ByLayer
370
-1
48
1
60
0
100
AcDbLine
10
111.312324
20
0.064335
30
0
11
111.314192
21
0.034663
31
0
39
0
210
0
220
0
230
1
0
LINE
5
51
100
AcDbEntity
8
1
62
256
6
ByLayer
370
-1
48
1
60
0
100
AcDbLine
10
123.65479
20
-7.640189
30
0
11
123.026897
21
-7.033663
31
0
39
0
210
0
220
0
230
1
0
LINE
5
52
100
AcDbEntity
8
SK1
62
256
6
ByLayer
370
-1
48
1
60
0
100
AcDbLine
10
-170.836
20
15.98925
30
0
11
-173.336
21
13.48925
31
0
39
0
210
0
220
0
230
1
0
LINE
5
54
100
AcDbEntity
8
SK1
62
256
6
ByLayer
370
-1
48
1
60
0
100
AcDbLine
10
-173.336
20
-13.48925
30
0
11
-173.3145
21
-13.51075
31
0
39
0
210
0
220
0
230
1
0
LINE
5
55
100
AcDbEntity
8
SK1
62
256
6
ByLayer
370
-1
48
1
60
0
100
AcDbLine
10
0
20
15.98925
30
0
11
-170.836
21
15.98925
31
0
39
0
210
0
220
0
230
1
0
LINE
5
56
100
AcDbEntity
8
1
62
256
6
ByLayer
370
-1
48
1
60
0
100
AcDbLine
10
108.663358
20
15.98925
30
0
11
0
21
15.98925
31
0
39
0
210
0
220
0
230
1
0
LINE
5
57
100
AcDbEntity
8
1
62
256
6
ByLayer
370
-1
48
1
60
0
100
AcDbLine
10
117.019482
20
-11.007147
30
0
11
117.083151
21
-11.209082
31
0
39
0
210
0
220
0
230
1
0
LINE
5
58
100
AcDbEntity
8
1
62
256
6
ByLayer
370
-1
48
1
60
0
100
AcDbLine
10
122.090165
20
-9.630377
30
0
11
122.026496
21
-9.428442
31
0
39
0
210
0
220
0
230
1
0
LINE
5
59
100
AcDbEntity
8
1
62
256
6
ByLayer
370
-1
48
1
60
0
100
AcDbLine
10
118.542369
20
-9.460505
30
0
11
118.533313
21
-9.431783
31
0
39
0
210
0
220
0
230
1
0
LINE
5
5A
100
AcDbEntity
8
1
62
256
6
ByLayer
370
-1
48
1
60
0
100
AcDbLine
10
120.414112
20
-9.348317
30
0
11
120.480874
21
-9.560059
31
0
39
0
210
0
220
0
230
1
0
LINE
5
5B
100
AcDbEntity
8
1
62
256
6
ByLayer
370
-1
48
1
60
0
100
AcDbLine
10
120.574506
20
-11.199945
30
0
11
120.648293
21
-11.433967
31
0
39
0
210
0
220
0
230
1
0
LINE
5
5C
100
AcDbEntity
8
1
62
256
6
ByLayer
370
-1
48
1
60
0
100
AcDbLine
10
118.695849
20
-11.290202
30
0
11
118.629034
21
-11.078294
31
0
39
0
210
0
220
0
230
1
0
LINE
5
5D
100
AcDbEntity
8
1
62
256
6
ByLayer
370
-1
48
1
60
0
100
AcDbLine
10
111.413401
20
13.100408
30
0
11
119.992958
21
4.087823
31
0
39
0
210
0
220
0
230
1
0
LINE
5
5E
100
AcDbEntity
8
1
62
256
6
ByLayer
370
-1
48
1
60
0
100
AcDbLine
10
109.828466
20
-1.065126
30
0
11
112.209509
21
-2.860197
31
0
39
0
210
0
220
0
230
1
0
LINE
5
5F
100
AcDbEntity
8
1
62
256
6
ByLayer
370
-1
48
1
60
0
100
AcDbLine
10
0
20
-13.51075
30
0
11
86.687058
21
-13.51075
31
0
39
0
210
0
220
0
230
1
0
LINE
5
60
100
AcDbEntity
8
1
62
256
6
ByLayer
370
-1
48
1
60
0
100
AcDbLine
10
104.196404
20
-13.51075
30
0
11
111.413401
21
13.100408
31
0
39
0
210
0
220
0
230
1
0
LINE
5
61
100
AcDbEntity
8
1
62
256
6
ByLayer
370
-1
48
1
60
0
100
AcDbLine
10
114.227111
20
-12.606186
30
0
11
115.093267
21
-12.006305
31
0
39
0
210
0
220
0
230
1
0
LINE
5
62
100
AcDbEntity
8
1
62
256
6
ByLayer
370
-1
48
1
60
0
100
AcDbLine
10
109.714267
20
1.364117
30
0
11
109.670388
21
1.503285
31
0
39
0
210
0
220
0
230
1
0
LINE
5
63
100
AcDbEntity
8
1
62
256
6
ByLayer
370
-1
48
1
60
0
100
AcDbLine
10
0
20
5.536797
30
0
11
0
21
15.98925
31
0
39
0
210
0
220
0
230
1
0
LINE
5
64
100
AcDbEntity
8
1
62
256
6
ByLayer
370
-1
48
1
60
0
100
AcDbLine
10
109.655894
20
-0.517795
30
0
11
109.828466
21
-1.065126
31
0
39
0
210
0
220
0
230
1
0
LINE
5
65
100
AcDbEntity
8
1
62
256
6
ByLayer
370
-1
48
1
60
0
100
AcDbLine
10
122.586256
20
-6.816821
30
0
11
112.493229
21
0.792327
31
0
39
0
210
0
220
0
230
1
0
LINE
5
66
100
AcDbEntity
8
1
62
256
6
ByLayer
370
-1
48
1
60
0
100
AcDbLine
10
109.655894
20
-0.517795
30
0
11
112.036936
21
-2.312867
31
0
39
0
210
0
220
0
230
1
0
LINE
5
67
100
AcDbEntity
8
1
62
256
6
ByLayer
370
-1
48
1
60
0
100
AcDbLine
10
109.869667
20
-2.122012
30
0
11
109.828466
21
-1.065126
31
0
39
0
210
0
220
0
230
1
0
LINE
5
68
100
AcDbEntity
8
1
62
256
6
ByLayer
370
-1
48
1
60
0
100
AcDbLine
10
86.687058
20
-13.51075
30
0
11
104.196404
21
-13.51075
31
0
39
0
210
0
220
0
230
1
0
LINE
5
69
100
AcDbEntity
8
1
62
256
6
ByLayer
370
-1
48
1
60
0
100
AcDbLine
10
0
20
-5.536797
30
0
11
0
21
5.536797
31
0
39
0
210
0
220
0
230
1
0
LINE
5
6A
100
AcDbEntity
8
1
62
256
6
ByLayer
370
-1
48
1
60
0
100
AcDbLine
10
0
20
5.536797
30
0
11
88.01199
21
5.536797
31
0
39
0
210
0
220
0
230
1
0
LINE
5
6B
100
AcDbEntity
8
1
62
256
6
ByLayer
370
-1
48
1
60
0
100
AcDbLine
10
104.196404
20
-13.51075
30
0
11
109.619452
21
-13.51075
31
0
39
0
210
0
220
0
230
1
0
LINE
5
6C
100
AcDbEntity
8
1
62
256
6
ByLayer
370
-1
48
1
60
0
100
AcDbLine
10
111.880262
20
1.850985
30
0
11
112.052834
21
1.303655
31
0
39
0
210
0
220
0
230
1
0
LINE
5
6D
100
AcDbEntity
8
1
62
256
6
ByLayer
370
-1
48
1
60
0
100
AcDbLine
10
110.27788
20
14.29324
30
0
11
108.663358
21
15.98925
31
0
39
0
210
0
220
0
230
1
0
LINE
5
6E
100
AcDbEntity
8
1
62
256
6
ByLayer
370
-1
48
1
60
0
100
AcDbLine
10
83.295472
20
-5.536797
30
0
11
0
21
-5.536797
31
0
39
0
210
0
220
0
230
1
0
LINE
5
6F
100
AcDbEntity
8
1
62
256
6
ByLayer
370
-1
48
1
60
0
100
AcDbLine
10
112.633827
20
-4.205917
30
0
11
109.869667
21
-2.122012
31
0
39
0
210
0
220
0
230
1
0
LINE
5
70
100
AcDbEntity
8
1
62
256
6
ByLayer
370
-1
48
1
60
0
100
AcDbLine
10
123.279743
20
-6.336527
30
0
11
122.586256
21
-6.816821
31
0
39
0
210
0
220
0
230
1
0
LINE
5
71
100
AcDbEntity
8
1
62
256
6
ByLayer
370
-1
48
1
60
0
100
AcDbLine
10
0
20
-5.536797
30
0
11
0
21
-13.51075
31
0
39
0
210
0
220
0
230
1
0
LINE
5
72
100
AcDbEntity
8
1
62
256
6
ByLayer
370
-1
48
1
60
0
100
AcDbLine
10
110.27788
20
14.29324
30
0
11
111.413401
21
13.100408
31
0
39
0
210
0
220
0
230
1
0
LINE
5
73
100
AcDbEntity
8
1
62
256
6
ByLayer
370
-1
48
1
60
0
100
AcDbLine
10
123.279743
20
-6.336527
30
0
11
119.992958
21
4.087823
31
0
39
0
210
0
220
0
230
1
0
LINE
5
74
100
AcDbEntity
8
1
62
256
6
ByLayer
370
-1
48
1
60
0
100
AcDbLine
10
122.990685
20
-7.002727
30
0
11
122.668493
21
-6.759826
31
0
39
0
210
0
220
0
230
1
0
LINE
5
75
100
AcDbEntity
8
1
62
256
6
ByLayer
370
-1
48
1
60
0
100
AcDbLine
10
112.207936
20
1.126403
30
0
11
111.886612
21
1.36865
31
0
39
0
210
0
220
0
230
1
0
LINE
5
76
100
AcDbEntity
8
1
62
256
6
ByLayer
370
-1
48
1
60
0
100
AcDbLine
10
115.619604
20
-13.43593
30
0
11
126.727735
21
-21.810367
31
0
39
0
210
0
220
0
230
1
0
LINE
5
77
100
AcDbEntity
8
1
62
256
6
ByLayer
370
-1
48
1
60
0
100
AcDbLine
10
127.912924
20
-20.989531
30
0
11
123.754805
21
-7.801664
31
0
39
0
210
0
220
0
230
1
0
LINE
5
78
100
AcDbEntity
8
1
62
256
6
ByLayer
370
-1
48
1
60
0
100
AcDbLine
10
111.325258
20
-0.055653
30
0
11
115.483376
21
-13.24352
31
0
39
0
210
0
220
0
230
1
0
LINE
5
79
100
AcDbEntity
8
1
62
256
6
ByLayer
370
-1
48
1
60
0
100
AcDbLine
10
123.618577
20
-7.609253
30
0
11
112.510446
21
0.765183
31
0
39
0
210
0
220
0
230
1
0
LINE
5
7A
100
AcDbEntity
8
1
62
256
6
ByLayer
370
-1
48
1
60
0
100
AcDbLine
10
122.990685
20
-7.002727
30
0
11
123.618577
21
-7.609253
31
0
39
0
210
0
220
0
230
1
0
LINE
5
7B
100
AcDbEntity
8
1
62
256
6
ByLayer
370
-1
48
1
60
0
100
AcDbLine
10
118.580981
20
-10.964321
30
0
11
118.646297
21
-11.171478
31
0
39
0
210
0
220
0
230
1
0
LINE
5
7C
100
AcDbEntity
8
1
62
256
6
ByLayer
370
-1
48
1
60
0
100
AcDbLine
10
118.551683
20
-11.037844
30
0
11
118.486366
21
-10.830686
31
0
39
0
210
0
220
0
230
1
0
LINE
5
7D
100
AcDbEntity
8
1
62
256
6
ByLayer
370
-1
48
1
60
0
100
AcDbLine
10
118.093226
20
-10.618724
30
0
11
118.16764
21
-10.854733
31
0
39
0
210
0
220
0
230
1
0
LINE
5
7E
100
AcDbEntity
8
1
62
256
6
ByLayer
370
-1
48
1
60
0
100
AcDbLine
10
120.120674
20
-11.546421
30
0
11
120.195186
21
-11.782742
31
0
39
0
210
0
220
0
230
1
0
LINE
5
7F
100
AcDbEntity
8
1
62
256
6
ByLayer
370
-1
48
1
60
0
100
AcDbLine
10
119.156816
20
-11.635757
30
0
11
119.231328
21
-11.872078
31
0
39
0
210
0
220
0
230
1
0
LINE
5
80
100
AcDbEntity
8
1
62
256
6
ByLayer
370
-1
48
1
60
0
100
AcDbLine
10
120.997808
20
-10.360725
30
0
11
121.07232
21
-10.597046
31
0
39
0
210
0
220
0
230
1
0
LINE
5
81
100
AcDbEntity
8
1
62
256
6
ByLayer
370
-1
48
1
60
0
100
AcDbLine
10
120.395216
20
-9.024415
30
0
11
120.46963
21
-9.260424
31
0
39
0
210
0
220
0
230
1
0
LINE
5
82
100
AcDbEntity
8
1
62
256
6
ByLayer
370
-1
48
1
60
0
100
AcDbLine
10
111.412777
20
1.028791
30
0
11
111.40972
21
1.038486
31
0
39
0
210
0
220
0
230
1
0
LINE
5
83
100
AcDbEntity
8
1
62
256
6
ByLayer
370
-1
48
1
60
0
100
AcDbLine
10
112.200405
20
1.132084
30
0
11
112.198948
21
1.136706
31
0
39
0
210
0
220
0
230
1
0
LINE
5
84
100
AcDbEntity
8
1
62
256
6
ByLayer
370
-1
48
1
60
0
100
AcDbLine
10
122.678555
20
-6.767414
30
0
11
122.674799
21
-6.7555
31
0
39
0
210
0
220
0
230
1
0
LINE
5
85
100
AcDbEntity
8
SK1
62
256
6
ByLayer
370
-1
48
1
60
0
100
AcDbLine
10
0
20
-5.536797
30
0
11
0
21
-13.51075
31
0
39
0
210
0
220
0
230
1
0
LINE
5
86
100
AcDbEntity
8
SK1
62
256
6
ByLayer
370
-1
48
1
60
0
100
AcDbLine
10
0
20
15.98925
30
0
11
0
21
5.536797
31
0
39
0
210
0
220
0
230
1
0
LINE
5
87
100
AcDbEntity
8
SK1
62
256
6
ByLayer
370
-1
48
1
60
0
100
AcDbLine
10
0
20
-5.536797
30
0
11
0
21
5.536797
31
0
39
0
210
0
220
0
230
1
0
LINE
5
88
100
AcDbEntity
8
SK1
62
256
6
ByLayer
370
-1
48
1
60
0
100
AcDbLine
10
-173.336
20
13.48925
30
0
11
-173.336
21
-13.48925
31
0
39
0
210
0
220
0
230
1
0
LINE
5
89
100
AcDbEntity
8
SK1
62
256
6
ByLayer
370
-1
48
1
60
0
100
AcDbLine
10
-170.836
20
-5.536797
30
0
11
-170.836
21
-13.51075
31
0
39
0
210
0
220
0
230
1
0
LINE
5
8A
100
AcDbEntity
8
SK1
62
256
6
ByLayer
370
-1
48
1
60
0
100
AcDbLine
10
-170.836
20
15.98925
30
0
11
-170.836
21
5.536797
31
0
39
0
210
0
220
0
230
1
0
LINE
5
8B
100
AcDbEntity
8
SK1
62
256
6
ByLayer
370
-1
48
1
60
0
100
AcDbLine
10
-170.836
20
5.536797
30
0
11
0
21
5.536797
31
0
39
0
210
0
220
0
230
1
0
LINE
5
8C
100
AcDbEntity
8
SK1
62
256
6
ByLayer
370
-1
48
1
60
0
100
AcDbLine
10
0
20
-5.536797
30
0
11
-170.836
21
-5.536797
31
0
39
0
210
0
220
0
230
1
0
LINE
5
8D
100
AcDbEntity
8
SK1
62
256
6
ByLayer
370
-1
48
1
60
0
100
AcDbLine
10
-170.836
20
-13.51075
30
0
11
0
21
-13.51075
31
0
39
0
210
0
220
0
230
1
0
LINE
5
8E
100
AcDbEntity
8
2
62
256
6
ByLayer
370
-1
48
1
60
1
100
AcDbLine
10
127.914
20
0
30
0
11
127.915
21
0.001
31
0
39
0
210
0
220
0
230
1
0
MTEXT
5
E0
100
AcDbEntity
8
SK6
62
256
6
ByLayer
370
-1
48
1
60
0
100
AcDbMText
10
-19.336
20
22.150496
30
0
210
0
220
0
230
1
1
\W00.805;\fsimplex.shx,bigfont.shx;A32T-SVQBL 16 
40
3.5
41
0
44
1.084337
50
0
71
7
72
5
7
DEFAULT
0
DIMENSION
5
113
100
AcDbEntity
8
2
62
256
6
ByLayer
370
-3
48
1
60
0
100
AcDbDimension
2
DimnDraft3D1
10
140.164
20
0
30
0
11
140.164
21
-16.113158
31
0
70
32
71
5
72
1
41
1
210
0
220
0
230
1
3
Standard
100
AcDbAlignedDimension
13
129.914
23
-21.9
33
0
14
129.914
24
0
34
0
50
90
100
AcDbRotatedDimension
1001
ACAD
1000
DSTYLE
1002
{
1070
    74
1070
     0
1070
   279
1070
     0
1070
   172
1070
     1
1070
   173
1070
     1
1070
   340
1005
E1
1070
    77
1070
     1
1070
    73
1070
     0
1070
   171
1070
     4
1070
   274
1070
     4
1070
   177
1070
     2
1070
   176
1070
     2
1070
   178
1070
     7
1070
    78
1070
     8
1070
    41
1041
3.175
1070
   147
1041
2.25
1070
    42
1041
2.0
1070
    44
1041
2.0
1070
   140
1041
4.5
1070
   343
1005
114
1070
   344
1005
114
1002
}
0
DIMENSION
5
129
100
AcDbEntity
8
SK2
62
256
6
ByLayer
370
-3
48
1
60
0
100
AcDbDimension
2
DimnDraft3D2
10
-183.086
20
15.98925
30
0
11
-183.086
21
-4.784211
31
0
70
32
71
5
72
1
41
1
210
0
220
0
230
1
3
Standard
100
AcDbAlignedDimension
13
-175.336
23
-15.98925
33
0
14
-175.336
24
15.98925
34
0
50
90
100
AcDbRotatedDimension
1001
ACAD
1000
DSTYLE
1002
{
1070
    74
1070
     0
1070
   279
1070
     0
1070
   172
1070
     1
1070
   173
1070
     1
1070
   340
1005
E1
1070
    77
1070
     1
1070
    73
1070
     0
1070
   171
1070
     4
1070
   274
1070
     4
1070
   177
1070
     2
1070
   176
1070
     2
1070
   178
1070
     7
1070
    78
1070
     8
1070
    41
1041
3.175
1070
   147
1041
2.25
1070
    42
1041
2.0
1070
    44
1041
2.0
1070
   140
1041
4.5
1070
   343
1005
114
1070
   344
1005
114
1002
}
0
DIMENSION
5
137
100
AcDbEntity
8
SK2
62
256
6
ByLayer
370
-3
48
1
60
0
100
AcDbDimension
2
DimnDraft3D3
10
127.914
20
-39.15
30
0
11
-29.526132
21
-39.15
31
0
70
32
71
5
72
1
41
1
210
0
220
0
230
1
3
Standard
100
AcDbAlignedDimension
13
-173.336
23
-17.98925
33
0
14
127.914
24
-23.9
34
0
50
0
100
AcDbRotatedDimension
1001
ACAD
1000
DSTYLE
1002
{
1070
   279
1070
     0
1070
   172
1070
     1
1070
   173
1070
     1
1070
   340
1005
E1
1070
    77
1070
     1
1070
    73
1070
     0
1070
   171
1070
     4
1070
   274
1070
     4
1070
   177
1070
     2
1070
   176
1070
     2
1070
   178
1070
     7
1070
    78
1070
     8
1070
    41
1041
3.175
1070
   147
1041
2.25
1070
    42
1041
2.0
1070
    44
1041
2.0
1070
   140
1041
4.5
1070
   343
1005
114
1070
   344
1005
114
1002
}
0
DIMENSION
5
145
100
AcDbEntity
8
2
62
256
6
ByLayer
370
-3
48
1
60
0
100
AcDbDimension
2
DimnDraft3D4
10
160.935363
20
0
30
0
11
137.416927
21
37.788356
31
0
70
34
71
5
72
1
41
1
210
0
220
0
230
1
3
Standard
100
AcDb2LineAngularDimension
13
122.501296
23
-4.733095
33
0
14
109.002854
24
38.078491
34
0
15
129.914
25
0
35
0
16
146.0961
26
34.214547
36
0
40
0
0
ENDSEC
0
SECTION
2
OBJECTS
0
DICTIONARY
5
176
330
0
100
AcDbDictionary
280
0
281
1
3
ACAD_GROUP
350
177
3
ACAD_MLINESTYLE
350
178
0
DICTIONARY
5
177
330
0
100
AcDbDictionary
280
0
281
1
0
DICTIONARY
5
178
330
0
100
AcDbDictionary
280
0
281
1
3
Standard
350
18
0
MLINESTYLE
5
18
330
178
100
AcDbMlineStyle
2
Standard
70
0
3

62
256
51
90
52
90
71
2
49
-0.5
62
256
6
ByLayer
49
0.5
62
256
6
ByLayer
0
RASTERVARIABLES
5
164
330

100
AcDbRasterVariables
90
0
70
1
71
1
72
1
0
ENDSEC
0
EOF
