0
SECTION
2
HEADER
9
$ACADVER
1
AC1015
9
$DWGCODEPAGE
3
ANSI_1252
9
$HANDSEED
5
185
9
$ANGBASE
50
0
9
$ANGDIR
70
0
9
$ATTMODE
70
1
9
$AUNITS
70
0
9
$AUPREC
70
0
9
$CECOLOR
62
256
9
$CELTSCALE
40
1
9
$CELTYPE
6
ByLayer
9
$CELWEIGHT
370
-1
9
$CLAYER
8
0
9
$CMLJUST
70
0
9
$CMLSCALE
40
1
9
$CMLSTYLE
2
Standard
9
$DIMSTYLE
2
Standard
9
$TEXTSIZE
40
0.2
9
$TEXTSTYLE
7
Standard
9
$LUNITS
70
2
9
$LUPREC
70
4
9
$EXTNAMES
290
1
9
$INSUNITS
70
4
9
$LTSCALE
40
1
9
$LWDISPLAY
290
0
9
$PDMODE
70
0
9
$PDSIZE
40
0
9
$PLINEGEN
70
0
0
ENDSEC
0
SECTION
2
CLASSES
0
CLASS
1
RASTERVARIABLES
2
AcDbRasterVariables
3
ISM
90
0
280
0
281
0
0
ENDSEC
0
SECTION
2
TABLES
0
TABLE
2
VPORT
5
17b
100
AcDbSymbolTable
0
VPORT
5
1
100
AcDbSymbolTableRecord
100
AcDbViewportTableRecord
2
*Active
70
0
10
0
20
0
11
1
21
1
12
-1
22
1
13
0
23
0
14
0.5
24
0.5
15
10
25
10
16
0
26
0
36
1
17
0
27
0
37
0
0
ENDTAB
0
TABLE
2
LTYPE
5
17c
100
AcDbSymbolTable
0
LTYPE
5
14
100
AcDbSymbolTableRecord
100
AcDbLinetypeTableRecord
70
0
2
ByBlock
3

72
65
73
0
40
0
0
LTYPE
5
15
100
AcDbSymbolTableRecord
100
AcDbLinetypeTableRecord
70
0
2
ByLayer
3

72
65
73
0
40
0
0
LTYPE
5
16
100
AcDbSymbolTableRecord
100
AcDbLinetypeTableRecord
70
0
2
CONTINUOUS
3
Solid line
72
65
73
0
40
0
0
LTYPE
5
3B
100
AcDbSymbolTableRecord
100
AcDbLinetypeTableRecord
70
0
2
DASHED
3
__ __ __ __ __ __ __ __ __
72
65
73
2
40
25.72
49
12.86
74
0
49
-12.86
74
0
0
LTYPE
5
3C
100
AcDbSymbolTableRecord
100
AcDbLinetypeTableRecord
70
0
2
HIDDEN
3
_ _ _ _ _ _ _ _ _ _ _ _ _ _ _
72
65
73
2
40
0.5
49
0.25
74
0
49
-0.25
74
0
0
LTYPE
5
3D
100
AcDbSymbolTableRecord
100
AcDbLinetypeTableRecord
70
0
2
PHANTOM
3
____ _ _ ____ _ _ _____ _ _ ____
72
65
73
6
40
50.5
49
18
74
0
49
-6.5
74
0
49
6.5
74
0
49
-6.5
74
0
49
6.5
74
0
49
-6.5
74
0
0
LTYPE
5
3E
100
AcDbSymbolTableRecord
100
AcDbLinetypeTableRecord
70
0
2
CENTER
3
____ _ ____ _ ____ _ ____
72
65
73
4
40
47.5
49
22
74
0
49
-8.5
74
0
49
8.5
74
0
49
-8.5
74
0
0
LTYPE
5
3F
100
AcDbSymbolTableRecord
100
AcDbLinetypeTableRecord
70
0
2
DOT
3
.........................
72
65
73
2
40
10
49
0
74
0
49
-10
74
0
0
LTYPE
5
40
100
AcDbSymbolTableRecord
100
AcDbLinetypeTableRecord
70
0
2
DASHDOT
3
_._._._._._._._._._._._._._._._.
72
65
73
4
40
70
49
31
74
0
49
-13
74
0
49
13
74
0
49
-13
74
0
0
ENDTAB
0
TABLE
2
LAYER
5
17d
100
AcDbSymbolTable
0
LAYER
5
10
100
AcDbSymbolTableRecord
100
AcDbLayerTableRecord
2
0
70
0
62
7
6
CONTINUOUS
290
1
370
-3
390
0
0
LAYER
5
42
100
AcDbSymbolTableRecord
100
AcDbLayerTableRecord
2
80
70
0
62
-6
6
CONTINUOUS
290
1
370
-3
390
0
0
LAYER
5
44
100
AcDbSymbolTableRecord
100
AcDbLayerTableRecord
2
81
70
0
62
-3
6
CONTINUOUS
290
1
370
-3
390
0
0
LAYER
5
46
100
AcDbSymbolTableRecord
100
AcDbLayerTableRecord
2
1
70
0
62
4
6
CONTINUOUS
290
1
370
-3
390
0
0
LAYER
5
48
100
AcDbSymbolTableRecord
100
AcDbLayerTableRecord
2
2
70
0
62
7
6
CONTINUOUS
290
1
370
-3
390
0
0
LAYER
5
4E
100
AcDbSymbolTableRecord
100
AcDbLayerTableRecord
2
4
70
0
62
-2
6
CENTER
290
1
370
-3
390
0
0
LAYER
5
167
100
AcDbSymbolTableRecord
100
AcDbLayerTableRecord
2
SK4
70
0
62
2
6
CENTER
290
1
370
-3
390
0
0
LAYER
5
168
100
AcDbSymbolTableRecord
100
AcDbLayerTableRecord
2
SK1
70
0
62
4
6
CONTINUOUS
290
1
370
-3
390
0
0
LAYER
5
169
100
AcDbSymbolTableRecord
100
AcDbLayerTableRecord
2
SK6
70
0
62
5
6
CONTINUOUS
290
1
370
-3
390
0
0
LAYER
5
16a
100
AcDbSymbolTableRecord
100
AcDbLayerTableRecord
2
SK2
70
0
62
7
6
CONTINUOUS
290
1
370
-3
390
0
0
ENDTAB
0
TABLE
2
STYLE
5
17e
100
AcDbSymbolTable
0
STYLE
5
11
100
AcDbSymbolTableRecord
100
AcDbTextStyleTableRecord
2
Standard
3
txt
70
0
71
0
40
0
41
1
42
0
50
0
0
STYLE
5
E3
100
AcDbSymbolTableRecord
100
AcDbTextStyleTableRecord
2
DEFAULT
3
simplex.shx
70
0
71
0
40
0
41
1
42
0
50
0
0
STYLE
5
106
100
AcDbSymbolTableRecord
100
AcDbTextStyleTableRecord
2
DWGDirectTextStyle
3
SIMPLEX
70
0
71
0
40
0
41
1
42
0
50
0
0
ENDTAB
0
TABLE
2
DIMSTYLE
5
17f
100
AcDbSymbolTable
100
AcDbDimStyleTable
0
DIMSTYLE
105
27
100
AcDbSymbolTableRecord
100
AcDbDimStyleTableRecord
2
Standard
70
0
3
<>
41
0.18
42
0.0625
44
0.18
140
0.18
147
0.09
73
0
74
0
77
1
271
2
275
0
278
52
280
0
340
11
0
ENDTAB
0
TABLE
2
VIEW
5
180
100
AcDbSymbolTable
0
ENDTAB
0
TABLE
2
UCS
5
181
100
AcDbSymbolTable
0
ENDTAB
0
TABLE
2
APPID
5
182
100
AcDbSymbolTable
0
APPID
5
12
100
AcDbSymbolTableRecord
100
AcDbRegAppTableRecord
2
ACAD
70
0
0
ENDTAB
0
TABLE
2
BLOCK_RECORD
5
183
100
AcDbSymbolTable
0
BLOCK_RECORD
5
1F
100
AcDbSymbolTableRecord
100
AcDbBlockTableRecord
2
*Model_Space
340
0
70
0
0
BLOCK_RECORD
5
1B
100
AcDbSymbolTableRecord
100
AcDbBlockTableRecord
2
*Paper_Space
340
0
70
0
0
BLOCK_RECORD
5
23
100
AcDbSymbolTableRecord
100
AcDbBlockTableRecord
2
*Paper_Space0
340
0
70
0
0
BLOCK_RECORD
5
108
100
AcDbSymbolTableRecord
100
AcDbBlockTableRecord
2
DimnDraft3D1
340
0
70
0
0
BLOCK_RECORD
5
116
100
AcDbSymbolTableRecord
100
AcDbBlockTableRecord
2
_CLOSED
340
0
70
0
0
BLOCK_RECORD
5
11D
100
AcDbSymbolTableRecord
100
AcDbBlockTableRecord
2
DimnDraft3D2
340
0
70
0
0
BLOCK_RECORD
5
12C
100
AcDbSymbolTableRecord
100
AcDbBlockTableRecord
2
DimnDraft3D3
340
0
70
0
0
BLOCK_RECORD
5
13A
100
AcDbSymbolTableRecord
100
AcDbBlockTableRecord
2
DimnDraft3D4
340
0
70
0
0
ENDTAB
0
ENDSEC
0
SECTION
2
BLOCKS
0
BLOCK
5
20
100
AcDbEntity
8
0
100
AcDbBlockBegin
2
*Model_Space
70
0
10
0
20
0
30
0
3
*Model_Space
0
ENDBLK
5
21
100
AcDbEntity
8
0
100
AcDbBlockEnd
0
BLOCK
5
1C
100
AcDbEntity
8
0
100
AcDbBlockBegin
2
*Paper_Space
70
0
10
0
20
0
30
0
3
*Paper_Space
0
ENDBLK
5
1D
100
AcDbEntity
8
0
100
AcDbBlockEnd
0
BLOCK
5
24
100
AcDbEntity
8
0
100
AcDbBlockBegin
2
*Paper_Space0
70
0
10
0
20
0
30
0
3
*Paper_Space0
0
ENDBLK
5
25
100
AcDbEntity
8
0
100
AcDbBlockEnd
0
BLOCK
5
113
100
AcDbEntity
8
0
100
AcDbBlockBegin
2
DimnDraft3D1
70
0
10
0
20
0
30
0
3
DimnDraft3D1
0
MTEXT
5
109
100
AcDbEntity
8
2
62
256
6
ByLayer
370
-1
48
1
60
0
100
AcDbMText
10
139.039
20
-14.988158
30
0
210
0
220
0
230
1
1
\W01.000;\fsimplex.shx,bigfont.shx;22.0 
40
4.5
41
0
44
1.084337
50
90
71
7
72
5
7
DEFAULT
0
LINE
5
10A
100
AcDbEntity
8
2
62
256
6
ByLayer
370
-1
48
1
60
0
100
AcDbLine
10
129.914
20
-21.9
30
0
11
142.164
21
-21.9
31
0
39
0
210
0
220
0
230
1
0
LINE
5
10B
100
AcDbEntity
8
2
62
256
6
ByLayer
370
-1
48
1
60
0
100
AcDbLine
10
129.914
20
0
30
0
11
142.164
21
0
31
0
39
0
210
0
220
0
230
1
0
LINE
5
10C
100
AcDbEntity
8
2
62
256
6
ByLayer
370
-1
48
1
60
0
100
AcDbLine
10
140.164
20
-21.9
30
0
11
140.164
21
0
31
0
39
0
210
0
220
0
230
1
0
LINE
5
10D
100
AcDbEntity
8
2
62
256
6
ByLayer
370
-1
48
1
60
0
100
AcDbLine
10
140.164
20
-21.9
30
0
11
139.746003
21
-18.725002
31
0
39
0
210
0
220
0
230
1
0
LINE
5
10E
100
AcDbEntity
8
2
62
256
6
ByLayer
370
-1
48
1
60
0
100
AcDbLine
10
140.164
20
-21.9
30
0
11
140.581997
21
-18.724998
31
0
39
0
210
0
220
0
230
1
0
LINE
5
10F
100
AcDbEntity
8
2
62
256
6
ByLayer
370
-1
48
1
60
0
100
AcDbLine
10
139.746003
20
-18.725002
30
0
11
140.581997
21
-18.724998
31
0
39
0
210
0
220
0
230
1
0
LINE
5
110
100
AcDbEntity
8
2
62
256
6
ByLayer
370
-1
48
1
60
0
100
AcDbLine
10
140.164
20
0
30
0
11
140.581997
21
-3.174998
31
0
39
0
210
0
220
0
230
1
0
LINE
5
111
100
AcDbEntity
8
2
62
256
6
ByLayer
370
-1
48
1
60
0
100
AcDbLine
10
140.164
20
0
30
0
11
139.746003
21
-3.175002
31
0
39
0
210
0
220
0
230
1
0
LINE
5
112
100
AcDbEntity
8
2
62
256
6
ByLayer
370
-1
48
1
60
0
100
AcDbLine
10
140.581997
20
-3.174998
30
0
11
139.746003
21
-3.175002
31
0
39
0
210
0
220
0
230
1
0
ENDBLK
5
114
100
AcDbEntity
8
0
100
AcDbBlockEnd
0
BLOCK
5
117
100
AcDbEntity
8
0
100
AcDbBlockBegin
2
_CLOSED
70
0
10
0
20
0
30
0
3
_CLOSED
0
LINE
5
119
100
AcDbEntity
8
0
62
256
6
ByLayer
370
-2
48
1
60
0
100
AcDbLine
10
-1
20
0.166667
30
0
11
0
21
0
31
0
39
0
210
0
220
0
230
1
0
LINE
5
11A
100
AcDbEntity
8
0
62
256
6
ByLayer
370
-2
48
1
60
0
100
AcDbLine
10
0
20
0
30
0
11
-1
21
-0.166667
31
0
39
0
210
0
220
0
230
1
0
LINE
5
11B
100
AcDbEntity
8
0
62
256
6
ByLayer
370
-2
48
1
60
0
100
AcDbLine
10
-1
20
0.166667
30
0
11
-1
21
-0.166667
31
0
39
0
210
0
220
0
230
1
0
LINE
5
11C
100
AcDbEntity
8
0
62
256
6
ByLayer
370
-2
48
1
60
0
100
AcDbLine
10
0
20
0
30
0
11
-1
21
0
31
0
39
0
210
0
220
0
230
1
0
ENDBLK
5
118
100
AcDbEntity
8
0
100
AcDbBlockEnd
0
BLOCK
5
129
100
AcDbEntity
8
0
100
AcDbBlockBegin
2
DimnDraft3D2
70
0
10
0
20
0
30
0
3
DimnDraft3D2
0
MTEXT
5
11E
100
AcDbEntity
8
SK2
62
256
6
ByLayer
370
-1
48
1
60
0
100
AcDbMText
10
-184.211
20
-3.659211
30
0
210
0
220
0
230
1
1
\W01.000;\fsimplex.shx,bigfont.shx;%%c32 
40
4.5
41
0
44
1.084337
50
90
71
7
72
5
7
DEFAULT
0
LINE
5
120
100
AcDbEntity
8
SK2
62
256
6
ByLayer
370
-1
48
1
60
0
100
AcDbLine
10
-175.336
20
-15.98925
30
0
11
-185.086
21
-15.98925
31
0
39
0
210
0
220
0
230
1
0
LINE
5
121
100
AcDbEntity
8
SK2
62
256
6
ByLayer
370
-1
48
1
60
0
100
AcDbLine
10
-175.336
20
15.98925
30
0
11
-185.086
21
15.98925
31
0
39
0
210
0
220
0
230
1
0
LINE
5
122
100
AcDbEntity
8
SK2
62
256
6
ByLayer
370
-1
48
1
60
0
100
AcDbLine
10
-183.086
20
-15.98925
30
0
11
-183.086
21
15.98925
31
0
39
0
210
0
220
0
230
1
0
LINE
5
123
100
AcDbEntity
8
SK2
62
256
6
ByLayer
370
-1
48
1
60
0
100
AcDbLine
10
-183.086
20
-15.98925
30
0
11
-183.503997
21
-12.814252
31
0
39
0
210
0
220
0
230
1
0
LINE
5
124
100
AcDbEntity
8
SK2
62
256
6
ByLayer
370
-1
48
1
60
0
100
AcDbLine
10
-183.086
20
-15.98925
30
0
11
-182.668003
21
-12.814248
31
0
39
0
210
0
220
0
230
1
0
LINE
5
125
100
AcDbEntity
8
SK2
62
256
6
ByLayer
370
-1
48
1
60
0
100
AcDbLine
10
-183.503997
20
-12.814252
30
0
11
-182.668003
21
-12.814248
31
0
39
0
210
0
220
0
230
1
0
LINE
5
126
100
AcDbEntity
8
SK2
62
256
6
ByLayer
370
-1
48
1
60
0
100
AcDbLine
10
-183.086
20
15.98925
30
0
11
-182.668003
21
12.814252
31
0
39
0
210
0
220
0
230
1
0
LINE
5
127
100
AcDbEntity
8
SK2
62
256
6
ByLayer
370
-1
48
1
60
0
100
AcDbLine
10
-183.086
20
15.98925
30
0
11
-183.503997
21
12.814248
31
0
39
0
210
0
220
0
230
1
0
LINE
5
128
100
AcDbEntity
8
SK2
62
256
6
ByLayer
370
-1
48
1
60
0
100
AcDbLine
10
-182.668003
20
12.814252
30
0
11
-183.503997
21
12.814248
31
0
39
0
210
0
220
0
230
1
0
ENDBLK
5
12A
100
AcDbEntity
8
0
100
AcDbBlockEnd
0
BLOCK
5
137
100
AcDbEntity
8
0
100
AcDbBlockBegin
2
DimnDraft3D3
70
0
10
0
20
0
30
0
3
DimnDraft3D3
0
MTEXT
5
12D
100
AcDbEntity
8
SK2
62
256
6
ByLayer
370
-1
48
1
60
0
100
AcDbMText
10
-28.401132
20
-38.025
30
0
210
0
220
0
230
1
1
\W01.000;\fsimplex.shx,bigfont.shx;300.0 
40
4.5
41
0
44
1.084337
50
0
71
7
72
5
7
DEFAULT
0
LINE
5
12E
100
AcDbEntity
8
SK2
62
256
6
ByLayer
370
-1
48
1
60
0
100
AcDbLine
10
-173.336
20
-17.98925
30
0
11
-173.336
21
-41.15
31
0
39
0
210
0
220
0
230
1
0
LINE
5
12F
100
AcDbEntity
8
SK2
62
256
6
ByLayer
370
-1
48
1
60
0
100
AcDbLine
10
127.914
20
-23.9
30
0
11
127.914
21
-41.15
31
0
39
0
210
0
220
0
230
1
0
LINE
5
130
100
AcDbEntity
8
SK2
62
256
6
ByLayer
370
-1
48
1
60
0
100
AcDbLine
10
-173.336
20
-39.15
30
0
11
127.914
21
-39.15
31
0
39
0
210
0
220
0
230
1
0
LINE
5
131
100
AcDbEntity
8
SK2
62
256
6
ByLayer
370
-1
48
1
60
0
100
AcDbLine
10
-173.336
20
-39.15
30
0
11
-170.161002
21
-38.732003
31
0
39
0
210
0
220
0
230
1
0
LINE
5
132
100
AcDbEntity
8
SK2
62
256
6
ByLayer
370
-1
48
1
60
0
100
AcDbLine
10
-173.336
20
-39.15
30
0
11
-170.160998
21
-39.567997
31
0
39
0
210
0
220
0
230
1
0
LINE
5
133
100
AcDbEntity
8
SK2
62
256
6
ByLayer
370
-1
48
1
60
0
100
AcDbLine
10
-170.161002
20
-38.732003
30
0
11
-170.160998
21
-39.567997
31
0
39
0
210
0
220
0
230
1
0
LINE
5
134
100
AcDbEntity
8
SK2
62
256
6
ByLayer
370
-1
48
1
60
0
100
AcDbLine
10
127.914
20
-39.15
30
0
11
124.739002
21
-39.567997
31
0
39
0
210
0
220
0
230
1
0
LINE
5
135
100
AcDbEntity
8
SK2
62
256
6
ByLayer
370
-1
48
1
60
0
100
AcDbLine
10
127.914
20
-39.15
30
0
11
124.738998
21
-38.732003
31
0
39
0
210
0
220
0
230
1
0
LINE
5
136
100
AcDbEntity
8
SK2
62
256
6
ByLayer
370
-1
48
1
60
0
100
AcDbLine
10
124.739002
20
-39.567997
30
0
11
124.738998
21
-38.732003
31
0
39
0
210
0
220
0
230
1
0
ENDBLK
5
138
100
AcDbEntity
8
0
100
AcDbBlockEnd
0
BLOCK
5
145
100
AcDbEntity
8
0
100
AcDbBlockBegin
2
DimnDraft3D4
70
0
10
0
20
0
30
0
3
DimnDraft3D4
0
MTEXT
5
13B
100
AcDbEntity
8
2
62
256
6
ByLayer
370
-1
48
1
60
0
100
AcDbMText
10
151.562681
20
31.136179
30
0
210
0
220
0
230
1
1
\W01.000;\fsimplex.shx,bigfont.shx;91%%d0' 
40
4.5
41
0
44
1.084337
50
315.5
71
7
72
5
7
DEFAULT
0
LINE
5
13C
100
AcDbEntity
8
2
62
256
6
ByLayer
370
-1
48
1
60
0
100
AcDbLine
10
127.599857
20
-3.902741
30
0
11
126.834922
21
39.920326
31
0
39
0
210
0
220
0
230
1
0
LINE
5
13D
100
AcDbEntity
8
2
62
256
6
ByLayer
370
-1
48
1
60
0
100
AcDbLine
10
129.914
20
0
30
0
11
167.458141
21
0
31
0
39
0
210
0
220
0
230
1
0
ARC
5
13E
100
AcDbEntity
8
2
62
256
6
ByLayer
370
-1
48
1
60
0
100
AcDbCircle
39
0
10
127.531734
20
0
30
0
40
37.9264068640927
210
0
220
0
230
1
100
AcDbArc
50
0
51
91
0
LINE
5
13F
100
AcDbEntity
8
2
62
256
6
ByLayer
370
-1
48
1
60
0
100
AcDbLine
10
126.869827
20
37.92063
30
0
11
130.046254
21
38.327629
31
0
39
0
210
0
220
0
230
1
0
LINE
5
140
100
AcDbEntity
8
2
62
256
6
ByLayer
370
-1
48
1
60
0
100
AcDbLine
10
126.869827
20
37.92063
30
0
11
130.043362
21
37.491641
31
0
39
0
210
0
220
0
230
1
0
LINE
5
141
100
AcDbEntity
8
2
62
256
6
ByLayer
370
-1
48
1
60
0
100
AcDbLine
10
130.046254
20
38.327629
30
0
11
130.043362
21
37.491641
31
0
39
0
210
0
220
0
230
1
0
LINE
5
142
100
AcDbEntity
8
2
62
256
6
ByLayer
370
-1
48
1
60
0
100
AcDbLine
10
165.458141
20
0
30
0
11
164.973831
21
3.165562
31
0
39
0
210
0
220
0
230
1
0
LINE
5
143
100
AcDbEntity
8
2
62
256
6
ByLayer
370
-1
48
1
60
0
100
AcDbLine
10
165.458141
20
0
30
0
11
165.809641
21
3.183049
31
0
39
0
210
0
220
0
230
1
0
LINE
5
144
100
AcDbEntity
8
2
62
256
6
ByLayer
370
-1
48
1
60
0
100
AcDbLine
10
164.973831
20
3.165562
30
0
11
165.809641
21
3.183049
31
0
39
0
210
0
220
0
230
1
0
ENDBLK
5
146
100
AcDbEntity
8
0
100
AcDbBlockEnd
0
ENDSEC
0
SECTION
2
ENTITIES
0
ELLIPSE
5
90
100
AcDbEntity
8
1
62
256
6
ByLayer
370
-1
48
1
60
0
100
AcDbEllipse
10
115.749346
20
-15.0629
30
0
11
-1.62475250462914
21
-0.0283601604605795
31
0
210
0
220
0
230
1
40
0.990519
41
0.329441020531709
42
2.09439510239327
0
ELLIPSE
5
91
100
AcDbEntity
8
1
62
256
6
ByLayer
370
-1
48
1
60
0
100
AcDbEllipse
10
123.709111
20
-0.003837
30
0
11
0.047319882007474
21
-21.1807233248723
31
0
210
0
220
0
230
-1
40
0.109929
41
-0.105007054836801
42
-0.00463045200641341
0
ELLIPSE
5
92
100
AcDbEntity
8
1
62
256
6
ByLayer
370
-1
48
1
60
0
100
AcDbEllipse
10
113.783725
20
-14.481679
30
0
11
-1.49977154273459
21
-0.0261786096559195
31
0
210
0
220
0
230
1
40
0.990519
41
-2.55795040686085
42
1.69496419045599
0
ELLIPSE
5
93
100
AcDbEntity
8
1
62
256
6
ByLayer
370
-1
48
1
60
0
100
AcDbEllipse
10
113.767541
20
-13.554506
30
0
11
-1.49977154273459
21
-0.0261786096559195
31
0
210
0
220
0
230
1
40
0.990519
41
1.85289986556407
42
1.99263030245077
0
ELLIPSE
5
94
100
AcDbEntity
8
1
62
256
6
ByLayer
370
-1
48
1
60
0
100
AcDbEllipse
10
113.765983
20
-13.465224
30
0
11
1.49977154273459
21
0.0261786096559195
31
0
210
0
220
0
230
1
40
0.990519
41
-2.79233398506585
42
-1.17470821306674
0
ELLIPSE
5
95
100
AcDbEntity
8
1
62
256
6
ByLayer
370
-1
48
1
60
0
100
AcDbEllipse
10
115.754423
20
-15.35374
30
0
11
1.85972781029372
21
0.0324616696774816
31
0
210
0
220
0
230
1
40
0.990519
41
-2.82818000467471
42
-1.04719755119653
0
ELLIPSE
5
96
100
AcDbEntity
8
1
62
256
6
ByLayer
370
-1
48
1
60
0
100
AcDbEllipse
10
68.159513
20
-169.969087
30
0
11
70.0948850691288
21
259.141965539921
31
0
210
3.82104500966428E-31
220
1.62739666586313E-16
230
1
40
0.132062
41
0.86306009361816
42
0.919630653198112
0
ELLIPSE
5
97
100
AcDbEntity
8
1
62
256
6
ByLayer
370
-1
48
1
60
0
100
AcDbEllipse
10
115.738239
20
-14.426568
30
0
11
-1.62475250462914
21
-0.0283601604605795
31
0
210
0
220
0
230
1
40
0.990519
41
0.329441020531707
42
1.80395002673432
0
ELLIPSE
5
98
100
AcDbEntity
8
1
62
256
6
ByLayer
370
-1
48
1
60
0
100
AcDbEllipse
10
115.097484
20
-14.513693
30
0
11
0.793879069954202
21
0.0138572107112005
31
0
210
0
220
0
230
1
40
0.990519
41
2.09439510239348
42
-2.09439510239302
0
ELLIPSE
5
99
100
AcDbEntity
8
1
62
256
6
ByLayer
370
-1
48
1
60
0
100
AcDbEllipse
10
127.119995
20
-21.113349
30
0
11
0.793879069954262
21
0.0138572107112016
31
0
210
0
220
0
230
1
40
0.990519
41
-2.09439510239299
42
1.08414691136544E-13
0
ELLIPSE
5
9A
100
AcDbEntity
8
1
62
256
6
ByLayer
370
-1
48
1
60
0
100
AcDbEllipse
10
123.031037
20
-14.246957
30
0
11
3.00559423705109
21
0.0524628425555918
31
0
210
0
220
0
230
1
40
0.990519
41
3.12397242289648
42
0
0
ELLIPSE
5
9B
100
AcDbEntity
8
1
62
256
6
ByLayer
370
-1
48
1
60
0
100
AcDbEllipse
10
123.031037
20
-14.246957
30
0
11
3.00559423705109
21
0.0524628425555918
31
0
210
0
220
0
230
1
40
0.990519
41
0
42
0.50997081276031
0
ELLIPSE
5
9C
100
AcDbEntity
8
1
62
256
6
ByLayer
370
-1
48
1
60
0
100
AcDbEllipse
10
123.031037
20
-14.246957
30
0
11
3.00559423705109
21
0.0524628425555918
31
0
210
0
220
0
230
1
40
0.990519
41
2.6315276214917
42
3.12397242289649
0
ELLIPSE
5
9D
100
AcDbEntity
8
1
62
256
6
ByLayer
370
-1
48
1
60
0
100
AcDbEllipse
10
126.872828
20
-6.953171
30
0
11
0.306498604882565
21
0.00534995304863211
31
0
210
0
220
0
230
1
40
0.990519
41
1.08712050153379
42
2.05443703351884
0
ELLIPSE
5
9E
100
AcDbEntity
8
1
62
256
6
ByLayer
370
-1
48
1
60
0
100
AcDbEllipse
10
126.882346
20
-7.498478
30
0
11
0.793879069954152
21
0.0138572107111997
31
0
210
0
220
0
230
1
40
0.990519
41
0
42
2.09439510239336
0
ELLIPSE
5
9F
100
AcDbEntity
8
1
62
256
6
ByLayer
370
-1
48
1
60
0
100
AcDbEllipse
10
123.030668
20
-14.225802
30
0
11
-2.95004630732266
21
-0.0514932498355541
31
0
210
0
220
0
230
1
40
0.990519
41
-0.914250517594009
42
0
0
ELLIPSE
5
A0
100
AcDbEntity
8
1
62
256
6
ByLayer
370
-1
48
1
60
0
100
AcDbEllipse
10
123.030668
20
-14.225802
30
0
11
-2.95004630732266
21
-0.0514932498355541
31
0
210
0
220
0
230
1
40
0.990519
41
0
42
3.12397237504885
0
ELLIPSE
5
A1
100
AcDbEntity
8
1
62
256
6
ByLayer
370
-1
48
1
60
0
100
AcDbEllipse
10
123.030668
20
-14.225802
30
0
11
-2.95004630732266
21
-0.0514932498355541
31
0
210
0
220
0
230
1
40
0.990519
41
3.12397216223829
42
-2.22724020461868
0
ELLIPSE
5
A2
100
AcDbEntity
8
1
62
256
6
ByLayer
370
-1
48
1
60
0
100
AcDbEllipse
10
123.033275
20
-14.375173
30
0
11
3.07085757045556
21
0.0536020182775985
31
0
210
0
220
0
230
1
40
0.990519
41
0
42
6.28318530717959
0
ELLIPSE
5
A3
100
AcDbEntity
8
1
62
256
6
ByLayer
370
-1
48
1
60
0
100
AcDbEllipse
10
123.064706
20
-16.024532
30
0
11
-0.685895518877285
21
-0.0119723508159738
31
0
210
0
220
0
230
1
40
0.990519
41
-1.56940105295425
42
-0.78541040933353
0
ELLIPSE
5
A4
100
AcDbEntity
8
1
62
256
6
ByLayer
370
-1
48
1
60
0
100
AcDbEllipse
10
123.742222
20
-15.32569
30
0
11
-0.291955526985666
21
-0.00509610267968565
31
0
210
0
220
0
230
1
40
0.990519
41
0.788200957015092
42
2.76149155557237
0
ELLIPSE
5
A5
100
AcDbEntity
8
1
62
256
6
ByLayer
370
-1
48
1
60
0
100
AcDbEllipse
10
123.02935
20
-14.150309
30
0
11
1.20631624420619
21
0.021056328366578
31
0
210
0
220
0
230
1
40
0.990519
41
-1.56940105295428
42
-0.524994049438964
0
ELLIPSE
5
A6
100
AcDbEntity
8
1
62
256
6
ByLayer
370
-1
48
1
60
0
100
AcDbEllipse
10
123.032106
20
-14.308209
30
0
11
2.6246001997855
21
0.0458125668978587
31
0
210
0
220
0
230
1
40
0.990519
41
0
42
6.28318530717959
0
ELLIPSE
5
A7
100
AcDbEntity
8
1
62
256
6
ByLayer
370
-1
48
1
60
0
100
AcDbEllipse
10
124.683129
20
-15.061128
30
0
11
-0.685895518877285
21
-0.0119723508159738
31
0
210
0
220
0
230
1
40
0.990519
41
-1.30898469305974
42
-0.524994049439014
0
ELLIPSE
5
A8
100
AcDbEntity
8
1
62
256
6
ByLayer
370
-1
48
1
60
0
100
AcDbEllipse
10
123.02935
20
-14.150309
30
0
11
-1.2063162442062
21
-0.0210563283665781
31
0
210
0
220
0
230
1
40
0.990519
41
0.592631409010032
42
1.57219160063552
0
ELLIPSE
5
A9
100
AcDbEntity
8
1
62
256
6
ByLayer
370
-1
48
1
60
0
100
AcDbEllipse
10
123.032767
20
-14.346042
30
0
11
1.79972585128155
21
0.0314143315871042
31
0
210
0
220
0
230
1
40
0.990519
41
0
42
6.28318530717959
0
ELLIPSE
5
AA
100
AcDbEntity
8
1
62
256
6
ByLayer
370
-1
48
1
60
0
100
AcDbEllipse
10
124.683129
20
-15.061128
30
0
11
-0.685895518877285
21
-0.0119723508159738
31
0
210
0
220
0
230
1
40
0.990519
41
-0.524994049439014
42
-1.97619165649706E-06
0
ELLIPSE
5
AB
100
AcDbEntity
8
1
62
256
6
ByLayer
370
-1
48
1
60
0
100
AcDbEllipse
10
123.032116
20
-14.30877
30
0
11
1.2063162442062
21
0.0210563283665781
31
0
210
0
220
0
230
1
40
0.990519
41
0.454566142186244
42
0.592631409010334
0
ELLIPSE
5
AC
100
AcDbEntity
8
1
62
256
6
ByLayer
370
-1
48
1
60
0
100
AcDbEllipse
10
122.361314
20
-15.351703
30
0
11
-0.291955526985666
21
-0.00509610267968565
31
0
210
0
220
0
230
1
40
0.990519
41
0.357797381375315
42
2.35618224425667
0
ELLIPSE
5
AD
100
AcDbEntity
8
1
62
256
6
ByLayer
370
-1
48
1
60
0
100
AcDbEllipse
10
123.032767
20
-14.346042
30
0
11
1.67624466092971
21
0.0292589593920997
31
0
210
0
220
0
230
1
40
0.990519
41
3.13880210590848
42
-2.09160455471187
0
ELLIPSE
5
AE
100
AcDbEntity
8
1
62
256
6
ByLayer
370
-1
48
1
60
0
100
AcDbEllipse
10
123.064706
20
-16.024532
30
0
11
-0.685895518877285
21
-0.0119723508159738
31
0
210
0
220
0
230
1
40
0.990519
41
-2.35339169657509
42
-1.56940105295425
0
ELLIPSE
5
AF
100
AcDbEntity
8
1
62
256
6
ByLayer
370
-1
48
1
60
0
100
AcDbEllipse
10
123.02935
20
-14.150309
30
0
11
-1.2063162442062
21
-0.0210563283665781
31
0
210
0
220
0
230
1
40
0.990519
41
-2.48887159091454
42
-1.86484560744179
0
ELLIPSE
5
B0
100
AcDbEntity
8
1
62
256
6
ByLayer
370
-1
48
1
60
0
100
AcDbEllipse
10
121.375571
20
-13.23949
30
0
11
-0.685895518877285
21
-0.0119723508159738
31
0
210
0
220
0
230
1
40
0.990519
41
3.14159036358794
42
-2.9571605148458
0
ELLIPSE
5
B1
100
AcDbEntity
8
1
62
256
6
ByLayer
370
-1
48
1
60
0
100
AcDbEllipse
10
121.413811
20
-15.111996
30
0
11
-0.685895518877285
21
-0.0119723508159738
31
0
210
0
220
0
230
1
40
0.990519
41
-2.49637983677489
42
-1.82673254307035
0
ELLIPSE
5
B2
100
AcDbEntity
8
1
62
256
6
ByLayer
370
-1
48
1
60
0
100
AcDbEllipse
10
123.032116
20
-14.30877
30
0
11
1.2063162442062
21
0.0210563283665781
31
0
210
0
220
0
230
1
40
0.990519
41
-2.68702651140331
42
-2.5489612445798
0
ELLIPSE
5
B3
100
AcDbEntity
8
1
62
256
6
ByLayer
370
-1
48
1
60
0
100
AcDbEllipse
10
123.02935
20
-14.150309
30
0
11
1.20631624420619
21
0.021056328366578
31
0
210
0
220
0
230
1
40
0.990519
41
-2.6870265114033
42
-2.54896124457977
0
ELLIPSE
5
B4
100
AcDbEntity
8
1
62
256
6
ByLayer
370
-1
48
1
60
0
100
AcDbEllipse
10
123.032767
20
-14.346042
30
0
11
1.67624466092971
21
0.0292589593920997
31
0
210
0
220
0
230
1
40
0.990519
41
-1.04719755119656
42
-0.00279054768134069
0
ELLIPSE
5
B5
100
AcDbEntity
8
1
62
256
6
ByLayer
370
-1
48
1
60
0
100
AcDbEllipse
10
123.032767
20
-14.346042
30
0
11
1.67624466092971
21
0.0292589593920997
31
0
210
0
220
0
230
1
40
0.990519
41
2.09439510239317
42
3.13880210590848
0
ELLIPSE
5
B6
100
AcDbEntity
8
1
62
256
6
ByLayer
370
-1
48
1
60
0
100
AcDbEllipse
10
123.032767
20
-14.346042
30
0
11
1.67624466092971
21
0.0292589593920997
31
0
210
0
220
0
230
1
40
0.990519
41
-0.00279054768134069
42
1.04998809887793
0
ELLIPSE
5
B7
100
AcDbEntity
8
1
62
256
6
ByLayer
370
-1
48
1
60
0
100
AcDbEllipse
10
123.032767
20
-14.346042
30
0
11
1.67624466092971
21
0.0292589593920997
31
0
210
0
220
0
230
1
40
0.990519
41
1.04998809887793
42
2.09439510239317
0
ELLIPSE
5
B8
100
AcDbEntity
8
1
62
256
6
ByLayer
370
-1
48
1
60
0
100
AcDbEllipse
10
124.413701
20
-14.129972
30
0
11
-0.291955526985666
21
-0.00509610267968565
31
0
210
0
220
0
230
1
40
0.990519
41
1.83260796052986
42
2.79133644836593
0
ELLIPSE
5
B9
100
AcDbEntity
8
1
62
256
6
ByLayer
370
-1
48
1
60
0
100
AcDbEllipse
10
124.644889
20
-13.188621
30
0
11
-0.685895518877285
21
-0.0119723508159738
31
0
210
0
220
0
230
1
40
0.990519
41
-0.267662559323019
42
7.70050385489652E-06
0
ELLIPSE
5
BA
100
AcDbEntity
8
1
62
256
6
ByLayer
370
-1
48
1
60
0
100
AcDbEllipse
10
123.02935
20
-14.150309
30
0
11
-1.2063162442062
21
-0.0210563283665781
31
0
210
0
220
0
230
1
40
0.990519
41
-0.261752328876607
42
0.454566142186509
0
ELLIPSE
5
BB
100
AcDbEntity
8
1
62
256
6
ByLayer
370
-1
48
1
60
0
100
AcDbEllipse
10
123.032767
20
-14.346042
30
0
11
1.67624466092971
21
0.0292589593920997
31
0
210
0
220
0
230
1
40
0.990519
41
-2.09160455471187
42
-1.04719755119656
0
ELLIPSE
5
BC
100
AcDbEntity
8
1
62
256
6
ByLayer
370
-1
48
1
60
0
100
AcDbEllipse
10
123.02935
20
-14.150309
30
0
11
-1.2063162442062
21
-0.0210563283665781
31
0
210
0
220
0
230
1
40
0.990519
41
-1.26797526874626
42
-0.629009924938937
0
ELLIPSE
5
BD
100
AcDbEntity
8
1
62
256
6
ByLayer
370
-1
48
1
60
0
100
AcDbEllipse
10
123.02935
20
-14.150309
30
0
11
-1.2063162442062
21
-0.0210563283665781
31
0
210
0
220
0
230
1
40
0.990519
41
2.61659860415085
42
-2.88032097381315
0
ELLIPSE
5
BE
100
AcDbEntity
8
1
62
256
6
ByLayer
370
-1
48
1
60
0
100
AcDbEllipse
10
121.413811
20
-15.111996
30
0
11
-0.685895518877285
21
-0.0119723508159738
31
0
210
0
220
0
230
1
40
0.990519
41
-3.1415839757948
42
-2.73960791920819
0
ELLIPSE
5
BF
100
AcDbEntity
8
1
62
256
6
ByLayer
370
-1
48
1
60
0
100
AcDbEllipse
10
123.02941
20
-14.153743
30
0
11
2.62460019978552
21
0.045812566897859
31
0
210
0
220
0
230
1
40
0.990519
41
3.12397217051719
42
-3.14154160532306
0
ELLIPSE
5
C0
100
AcDbEntity
8
1
62
256
6
ByLayer
370
-1
48
1
60
0
100
AcDbEllipse
10
123.02941
20
-14.153743
30
0
11
2.62460019978552
21
0.045812566897859
31
0
210
0
220
0
230
1
40
0.990519
41
0
42
3.12397237728252
0
ELLIPSE
5
C1
100
AcDbEntity
8
1
62
256
6
ByLayer
370
-1
48
1
60
0
100
AcDbEllipse
10
121.644999
20
-14.170645
30
0
11
-0.291955526985666
21
-0.00509610267968565
31
0
210
0
220
0
230
1
40
0.990519
41
0.321121600077861
42
1.31486011051965
0
ELLIPSE
5
C2
100
AcDbEntity
8
1
62
256
6
ByLayer
370
-1
48
1
60
0
100
AcDbEllipse
10
115.76906
20
-13.624062
30
0
11
-0.799878156125113
21
-0.0139619251498237
31
0
210
0
220
0
230
1
40
0.990519
41
-0.0821722908531919
42
4.84400102207478E-08
0
POINT
5
41
100
AcDbEntity
8
80
62
256
6
ByLayer
370
-1
48
1
60
0
100
AcDbPoint
10
0
20
0
30
0
39
0
210
0
220
0
230
1
50
360
0
POINT
5
43
100
AcDbEntity
8
81
62
256
6
ByLayer
370
-1
48
1
60
0
100
AcDbPoint
10
127.914
20
-21.9
30
0
39
0
210
0
220
0
230
1
50
360
0
POINT
5
45
100
AcDbEntity
8
1
62
256
6
ByLayer
370
-1
48
1
60
0
100
AcDbPoint
10
-173.336
20
0
30
0
39
0
210
0
220
0
230
1
50
360
0
POINT
5
47
100
AcDbEntity
8
2
62
256
6
ByLayer
370
-1
48
1
60
0
100
AcDbPoint
10
127.914
20
21.9
30
0
39
0
210
0
220
0
230
1
50
360
0
SPLINE
5
C3
100
AcDbEntity
8
1
62
256
6
ByLayer
370
-1
48
1
60
0
100
AcDbSpline
70
4
71
3
72
34
73
30
40
-0.125000000000019
40
-0.125000000000019
40
0
40
0
40
0.124999999999992
40
0.124999999999992
40
0.187499999999987
40
0.187499999999987
40
0.218749999999985
40
0.218749999999985
40
0.249999999999983
40
0.249999999999983
40
0.312499999999981
40
0.312499999999981
40
0.374999999999979
40
0.374999999999979
40
0.499999999999969
40
0.499999999999969
40
0.62499999999996
40
0.62499999999996
40
0.687499999999955
40
0.687499999999955
40
0.703124999999957
40
0.703124999999957
40
0.718749999999959
40
0.718749999999959
40
0.749999999999961
40
0.749999999999961
40
0.874999999999981
40
0.874999999999981
40
1
40
1
40
1.12499999999999
40
1.12499999999999
41
1
10
101.019357897808
20
-7.22803578633417
30
0
41
1
10
99.0233124410167
20
-6.27480317549154
30
0
41
1
10
97.9939071623755
20
-5.88292313589864
30
0
41
1
10
96.3814940873791
20
-5.76542076068426
30
0
41
1
10
95.8013032949924
20
-5.79480776155617
30
0
41
1
10
95.0790563889284
20
-6.26666963153184
30
0
41
1
10
94.8794860813167
20
-6.52087073018987
30
0
41
1
10
94.7432491750259
20
-7.09579900863497
30
0
41
1
10
94.7927231948718
20
-7.38771436958714
30
0
41
1
10
95.0832851117556
20
-8.15466745568918
30
0
41
1
10
95.4472448273179
20
-8.55686179441372
30
0
41
1
10
96.2432656843916
20
-9.25117035644897
30
0
41
1
10
96.6936533821149
20
-9.54400729840393
30
0
41
1
10
98.0998686294562
20
-10.3137925748171
30
0
41
1
10
99.1395530374569
20
-10.7000025809927
30
0
41
1
10
101.27944106675
20
-11.326772104083
30
0
41
1
10
102.382469228749
20
-11.5742309937145
30
0
41
1
10
104.097575502114
20
-11.8056872996381
30
0
41
1
10
104.68688373552
20
-11.8802595828275
30
0
41
1
10
105.416226388033
20
-11.7971068123529
30
0
41
1
10
105.563953541344
20
-11.77168904125
30
0
41
1
10
105.829462984966
20
-11.6391450299917
30
0
41
1
10
105.923800323643
20
-11.4973460128306
30
0
41
1
10
105.876820581664
20
-11.0641155802387
30
0
41
1
10
105.666335728222
20
-10.8312773702829
30
0
41
1
10
104.729631556047
20
-9.75227095979179
30
0
41
1
10
103.801167856735
20
-9.07681384272976
30
0
41
1
10
101.962677970862
20
-7.79876569766702
30
0
41
1
10
101.019357897808
20
-7.22803578633417
30
0
41
1
10
99.0233124410167
20
-6.27480317549154
30
0
0
SPLINE
5
C4
100
AcDbEntity
8
1
62
256
6
ByLayer
370
-1
48
1
60
0
100
AcDbSpline
70
4
71
3
72
8
73
4
40
0
40
0
40
0
40
0
40
1
40
1
40
1
40
1
41
1
10
123.767211518071
20
-21.1843092949189
30
0
41
1
10
119.70729034354
20
-20.8517922373322
30
0
41
1
10
115.647384611329
20
-20.5190908577597
30
0
41
1
10
111.58749682
20
-20.1861757199187
30
0
0
SPLINE
5
C5
100
AcDbEntity
8
1
62
256
6
ByLayer
370
-1
48
1
60
0
100
AcDbSpline
70
4
71
3
72
8
73
4
40
0
40
0
40
0
40
0
40
1
40
1
40
1
40
1
41
1
10
105.587496820615
20
14.6451172612599
30
0
41
1
10
105.612494524422
20
14.6234360508163
30
0
41
1
10
105.637494556049
20
14.601733780792
30
0
41
1
10
105.662496820615
20
14.5800106221165
30
0
0
SPLINE
5
C6
100
AcDbEntity
8
1
62
256
6
ByLayer
370
-1
48
1
60
0
100
AcDbSpline
70
4
71
3
72
10
73
6
40
0
40
0
40
0
40
0
40
0.5
40
0.5
40
1
40
1
40
1
40
1
41
1
10
83.4248822272149
20
-5.53679650723268
30
0
41
1
10
83.27603253494
20
-7.29653655965191
30
0
41
1
10
83.4418076248216
20
-8.93887221419436
30
0
41
1
10
84.5274184220382
20
-11.6635793996646
30
0
41
1
10
85.4520368940288
20
-12.7347238610737
30
0
41
1
10
86.6485455091856
20
-13.5107500000006
30
0
0
SPLINE
5
C7
100
AcDbEntity
8
1
62
256
6
ByLayer
370
-1
48
1
60
0
100
AcDbSpline
70
4
71
3
72
8
73
4
40
0
40
0
40
0
40
0
40
1
40
1
40
1
40
1
41
1
10
108.533891217179
20
-15.9071830368791
30
0
41
1
10
109.549670626667
20
-17.3349747642706
30
0
41
1
10
110.567985722299
20
-18.7609965575306
30
0
41
1
10
111.58749682
20
-20.1861757199187
30
0
0
SPLINE
5
C8
100
AcDbEntity
8
1
62
256
6
ByLayer
370
-1
48
1
60
0
100
AcDbSpline
70
4
71
3
72
12
73
8
40
0
40
0
40
0
40
0
40
0.5
40
0.5
40
0.75
40
0.75
40
1
40
1
40
1
40
1
41
1
10
105.587496820615
20
14.6451172612609
30
0
41
1
10
102.002504794707
20
14.1903076227198
30
0
41
1
10
98.6776240623512
20
13.4433266058226
30
0
41
1
10
94.0716960217609
20
11.2911468051988
30
0
41
1
10
92.6382576188898
20
10.4117109829163
30
0
41
1
10
89.9986011487384
20
8.26598262236334
30
0
41
1
10
88.7804472962761
20
6.98171864663018
30
0
41
1
10
87.7255129874087
20
5.53679650723211
30
0
0
SPLINE
5
C9
100
AcDbEntity
8
1
62
256
6
ByLayer
370
-1
48
1
60
0
100
AcDbSpline
70
4
71
3
72
8
73
4
40
0
40
0
40
0
40
0
40
1
40
1
40
1
40
1
41
1
10
108.429276094968
20
-15.9071754545469
30
0
41
1
10
107.955129908414
20
-15.9071410799546
30
0
41
1
10
107.48091912799
20
-15.9068458064957
30
0
41
1
10
107.007160749338
20
-15.9062363293385
30
0
0
SPLINE
5
CA
100
AcDbEntity
8
1
62
256
6
ByLayer
370
-1
48
1
60
0
100
AcDbSpline
70
4
71
3
72
8
73
4
40
0
40
0
40
0
40
0
40
1
40
1
40
1
40
1
41
1
10
114.221055217498
20
-15.6103815037389
30
0
41
1
10
114.147806136415
20
-15.7302730024007
30
0
41
1
10
114.072462391504
20
-15.8444547835242
30
0
41
1
10
113.995201095475
20
-15.9525512981486
30
0
0
SPLINE
5
CB
100
AcDbEntity
8
1
62
256
6
ByLayer
370
-1
48
1
60
0
100
AcDbSpline
70
4
71
3
72
8
73
4
40
0
40
0
40
0
40
0
40
1
40
1
40
1
40
1
41
1
10
105.662496820616
20
14.5800106221164
30
0
41
1
10
106.358253180396
20
14.6673646933441
30
0
41
1
10
107.060678479847
20
14.7425331954058
30
0
41
1
10
107.767937320152
20
14.8074223170229
30
0
0
SPLINE
5
CC
100
AcDbEntity
8
SK1
62
256
6
ByLayer
370
-1
48
1
60
0
100
AcDbSpline
70
4
71
3
72
10
73
6
40
0
40
0
40
0
40
0
40
0.5
40
0.5
40
1
40
1
40
1
40
1
41
1
10
-170.836
20
-5.53679650723234
30
0
41
1
10
-171.455109452747
20
-3.74892227266315
30
0
41
1
10
-171.82407495792
20
-1.90868703143693
30
0
41
1
10
-171.82641932943
20
1.89017327916392
30
0
41
1
10
-171.452083151065
20
3.75766167533217
30
0
41
1
10
-170.836
20
5.53679650723237
30
0
0
SPLINE
5
CD
100
AcDbEntity
8
1
62
256
6
ByLayer
370
-1
48
1
60
0
100
AcDbSpline
70
4
71
3
72
12
73
8
40
0
40
0
40
0
40
0
40
0.489970460491775
40
0.489970460491775
40
0.89585420655719
40
0.89585420655719
40
1
40
1
40
1
40
1
41
1
10
121.579125097246
20
-14.6322333608298
30
0
41
1
10
121.647576666414
20
-14.6436775687428
30
0
41
1
10
121.715671764731
20
-14.6665591418339
30
0
41
1
10
121.831136166978
20
-14.7305930778501
30
0
41
1
10
121.881280439112
20
-14.7688258483653
30
0
41
1
10
121.936163624883
20
-14.8268820397193
30
0
41
1
10
121.947044793467
20
-14.839358503957
30
0
41
1
10
121.957456779021
20
-14.8523264116604
30
0
0
SPLINE
5
CE
100
AcDbEntity
8
1
62
256
6
ByLayer
370
-1
48
1
60
0
100
AcDbSpline
70
4
71
3
72
18
73
14
40
0
40
0
40
0
40
0
40
0.209047789867631
40
0.209047789867631
40
0.383781570450789
40
0.383781570450789
40
0.560237270757512
40
0.560237270757512
40
0.713323607940645
40
0.713323607940645
40
0.915575307283526
40
0.915575307283526
40
1
40
1
40
1
40
1
41
1
10
122.574479986401
20
-15.7333581355398
30
0
41
1
10
122.62290416827
20
-15.6786279687638
30
0
41
1
10
122.680708038695
20
-15.6299777688745
30
0
41
1
10
122.800008490992
20
-15.5600928559005
30
0
41
1
10
122.860774796132
20
-15.5350448036845
30
0
41
1
10
122.987989739581
20
-15.5050380724552
30
0
41
1
10
123.056427266857
20
-15.5000642085416
30
0
41
1
10
123.179555594787
20
-15.5112802723429
30
0
41
1
10
123.236342382524
20
-15.5247825515254
30
0
41
1
10
123.358039958207
20
-15.5709671051913
30
0
41
1
10
123.421886831201
20
-15.6089387792837
30
0
41
1
10
123.500484117171
20
-15.673089148825
30
0
41
1
10
123.522502780797
20
-15.6935313999839
30
0
41
1
10
123.543092163193
20
-15.7151118405858
30
0
0
SPLINE
5
CF
100
AcDbEntity
8
1
62
256
6
ByLayer
370
-1
48
1
60
0
100
AcDbSpline
70
4
71
3
72
14
73
10
40
0
40
0
40
0
40
0
40
0.274405837672328
40
0.274405837672328
40
0.560110328255402
40
0.560110328255402
40
0.818524477266265
40
0.818524477266265
40
1
40
1
40
1
40
1
41
1
10
124.485877244971
20
-14.0294449922947
30
0
41
1
10
124.517662333053
20
-14.0394231063557
30
0
41
1
10
124.54906878338
20
-14.0549253160882
30
0
41
1
10
124.606940668439
20
-14.0965858144079
30
0
41
1
10
124.634018988965
20
-14.1238670433287
30
0
41
1
10
124.674667059862
20
-14.1833138681117
30
0
41
1
10
124.689845093858
20
-14.2156986139221
30
0
41
1
10
124.705243181224
20
-14.2726932325547
30
0
41
1
10
124.708731754816
20
-14.2972455037034
30
0
41
1
10
124.709085550337
20
-14.3214166872402
30
0
0
SPLINE
5
D0
100
AcDbEntity
8
1
62
256
6
ByLayer
370
-1
48
1
60
0
100
AcDbSpline
70
4
71
3
72
18
73
14
40
0
40
0
40
0
40
0
40
0.201614498756666
40
0.201614498756666
40
0.377680522683125
40
0.377680522683125
40
0.555555214269038
40
0.555555214269038
40
0.708941490693161
40
0.708941490693161
40
0.909905263889868
40
0.909905263889868
40
1
40
1
40
1
40
1
41
1
10
124.026302426733
20
-15.4274696162497
30
0
41
1
10
124.007850192943
20
-15.3585094272533
30
0
41
1
10
123.998499382708
20
-15.2850983327674
30
0
41
1
10
124.001864878479
20
-15.1466407503612
30
0
41
1
10
124.012143855989
20
-15.0801461429631
30
0
41
1
10
124.051528997142
20
-14.953225646443
30
0
41
1
10
124.081620482415
20
-14.8910567574487
30
0
41
1
10
124.151606085566
20
-14.7907790720424
30
0
41
1
10
124.190349390764
20
-14.7492713795682
30
0
41
1
10
124.286647557241
20
-14.6702242749138
30
0
41
1
10
124.347803851458
20
-14.636321964481
30
0
41
1
10
124.439008599194
20
-14.6031173172039
30
0
41
1
10
124.468026113987
20
-14.5948974100373
30
0
41
1
10
124.49729874737
20
-14.5887552429007
30
0
0
SPLINE
5
D1
100
AcDbEntity
8
1
62
256
6
ByLayer
370
-1
48
1
60
0
100
AcDbSpline
70
4
71
3
72
12
73
8
40
0
40
0
40
0
40
0
40
0.49510741280458
40
0.49510741280458
40
0.900101084117098
40
0.900101084117098
40
1
40
1
40
1
40
1
41
1
10
124.485877244971
20
-14.0294449922947
30
0
41
1
10
124.416532876235
20
-14.0076761043509
30
0
41
1
10
124.347548271421
20
-13.974769013937
30
0
41
1
10
124.23146464169
20
-13.8958097864615
30
0
41
1
10
124.181443281392
20
-13.8522409173096
30
0
41
1
10
124.127205259207
20
-13.7907603014993
30
0
41
1
10
124.116773270676
20
-13.7781434297561
30
0
41
1
10
124.106775119149
20
-13.7652132315475
30
0
0
SPLINE
5
D2
100
AcDbEntity
8
1
62
256
6
ByLayer
370
-1
48
1
60
0
100
AcDbSpline
70
4
71
3
72
14
73
10
40
0
40
0
40
0
40
0
40
0.241121223786837
40
0.241121223786837
40
0.532814798860289
40
0.532814798860289
40
0.79641348323522
40
0.79641348323522
40
1
40
1
40
1
40
1
41
1
10
122.038708255053
20
-13.2346865104566
30
0
41
1
10
122.030973731811
20
-13.2095738823333
30
0
41
1
10
122.027127275347
20
-13.1825633337854
30
0
41
1
10
122.028621935141
20
-13.1221113771278
30
0
41
1
10
122.036181251793
20
-13.0875065511146
30
0
41
1
10
122.06363250059
20
-13.025665723507
30
0
41
1
10
122.082745366395
20
-12.9971213079989
30
0
41
1
10
122.124792143078
20
-12.9536329886319
30
0
41
1
10
122.146302663231
20
-12.9366007766706
30
0
41
1
10
122.16954545526
20
-12.9227649604567
30
0
0
SPLINE
5
D3
100
AcDbEntity
8
1
62
256
6
ByLayer
370
-1
48
1
60
0
100
AcDbSpline
70
4
71
3
72
14
73
10
40
0
40
0
40
0
40
0
40
0.272406370390212
40
0.272406370390212
40
0.560180948557011
40
0.560180948557011
40
0.820519909681592
40
0.820519909681592
40
1
40
1
40
1
40
1
41
1
10
123.490530695385
20
-12.9287979911664
30
0
41
1
10
123.512919177589
20
-12.9081666688672
30
0
41
1
10
123.539876412502
20
-12.8904922608286
30
0
41
1
10
123.601275616824
20
-12.8639692582059
30
0
41
1
10
123.63705455768
20
-12.8553200124118
30
0
41
1
10
123.706953145109
20
-12.8515154456807
30
0
41
1
10
123.741969626248
20
-12.8551536390502
30
0
41
1
10
123.798164289066
20
-12.8707265673991
30
0
41
1
10
123.820748526418
20
-12.8798426117474
30
0
41
1
10
123.841695563102
20
-12.891265723914
30
0
0
SPLINE
5
D4
100
AcDbEntity
8
1
62
256
6
ByLayer
370
-1
48
1
60
0
100
AcDbSpline
70
4
71
3
72
12
73
8
40
0
40
0
40
0
40
0
40
0.321361021631219
40
0.321361021631219
40
0.789920983785173
40
0.789920983785173
40
1
40
1
40
1
40
1
41
1
10
124.021074244932
20
-13.6239097929285
30
0
41
1
10
123.999905659462
20
-13.5776232911242
30
0
41
1
10
123.984346731824
20
-13.5297722565026
30
0
41
1
10
123.960611683411
20
-13.4149779691191
30
0
41
1
10
123.958509903528
20
-13.3473787086869
30
0
41
1
10
123.970197385542
20
-13.2557677695527
30
0
41
1
10
123.97587484058
20
-13.2279652687199
30
0
41
1
10
123.983431621386
20
-13.2010136025305
30
0
0
SPLINE
5
D5
100
AcDbEntity
8
1
62
256
6
ByLayer
370
-1
48
1
60
0
100
AcDbSpline
70
4
71
3
72
16
73
12
40
0
40
0
40
0
40
0
40
0.0616297629803082
40
0.0616297629803082
40
0.28238425713677
40
0.28238425713677
40
0.505867100834828
40
0.505867100834828
40
0.743635071601384
40
0.743635071601384
40
1
40
1
40
1
40
1
41
1
10
122.223837520316
20
-15.8008187722578
30
0
41
1
10
122.21654569606
20
-15.7968422992305
30
0
41
1
10
122.209417567201
20
-15.7925282522712
30
0
41
1
10
122.177890234633
20
-15.7714620339461
30
0
41
1
10
122.155612179283
20
-15.7507307126938
30
0
41
1
10
122.118786705963
20
-15.7040249589059
30
0
41
1
10
122.103851061111
20
-15.6774099387033
30
0
41
1
10
122.081997977135
20
-15.6204635786071
30
0
41
1
10
122.075350733241
20
-15.5893029392118
30
0
41
1
10
122.071049329543
20
-15.5254868265684
30
0
41
1
10
122.07404915059
20
-15.4921314076999
30
0
41
1
10
122.081570720832
20
-15.4606647505907
30
0
0
SPLINE
5
D6
100
AcDbEntity
8
1
62
256
6
ByLayer
370
-1
48
1
60
0
100
AcDbSpline
70
4
71
3
72
16
73
12
40
0
40
0
40
0
40
0
40
0.0324886787367854
40
0.0324886787367854
40
0.255871122757695
40
0.255871122757695
40
0.480294599324287
40
0.480294599324287
40
0.717742434153075
40
0.717742434153075
40
1
40
1
40
1
40
1
41
1
10
122.16954545526
20
-12.9227649604567
30
0
41
1
10
122.173285821591
20
-12.9205384198127
30
0
41
1
10
122.177077618974
20
-12.918387870203
30
0
41
1
10
122.207025753967
20
-12.9022229130947
30
0
41
1
10
122.235658297335
20
-12.8917333543202
30
0
41
1
10
122.293336230628
20
-12.8793274576591
30
0
41
1
10
122.323115612349
20
-12.877272088049
30
0
41
1
10
122.381642541824
20
-12.881187736465
30
0
41
1
10
122.410966980219
20
-12.8876508687907
30
0
41
1
10
122.469248619609
20
-12.909492156338
30
0
41
1
10
122.497974902673
20
-12.9265993779622
30
0
41
1
10
122.521918518593
20
-12.9470442861204
30
0
0
SPLINE
5
D7
100
AcDbEntity
8
1
62
256
6
ByLayer
370
-1
48
1
60
0
100
AcDbSpline
70
4
71
3
72
18
73
14
40
0
40
0
40
0
40
0
40
0.085118994029631
40
0.085118994029631
40
0.285112352921778
40
0.285112352921778
40
0.447021701886123
40
0.447021701886123
40
0.609748331553684
40
0.609748331553684
40
0.762030255270686
40
0.762030255270686
40
1
40
1
40
1
40
1
41
1
10
122.038708255053
20
-13.2346865104566
30
0
41
1
10
122.046464107021
20
-13.259868389176
30
0
41
1
10
122.052576705578
20
-13.2858508776735
30
0
41
1
10
122.067007490746
20
-13.3747010956025
30
0
41
1
10
122.067312596226
20
-13.4416021883578
30
0
41
1
10
122.046711896648
20
-13.5642432951654
30
0
41
1
10
122.029443931475
20
-13.6210454622297
30
0
41
1
10
121.979649130572
20
-13.7300021671471
30
0
41
1
10
121.946327167965
20
-13.78353338465
30
0
41
1
10
121.871791689725
20
-13.8758547906471
30
0
41
1
10
121.830432401656
20
-13.9165009303111
30
0
41
1
10
121.719089886405
20
-14.0049283098778
30
0
41
1
10
121.643783960367
20
-14.0461098026293
30
0
41
1
10
121.567711934416
20
-14.0734008838055
30
0
0
SPLINE
5
D8
100
AcDbEntity
8
1
62
256
6
ByLayer
370
-1
48
1
60
0
100
AcDbSpline
70
4
71
3
72
18
73
14
40
0
40
0
40
0
40
0
40
0.0542373943940689
40
0.0542373943940689
40
0.275145370907758
40
0.275145370907758
40
0.498359213587623
40
0.498359213587623
40
0.735516721923493
40
0.735516721923493
40
0.995751218530591
40
0.995751218530591
40
1
40
1
40
1
40
1
41
1
10
123.841695563102
20
-12.891265723914
30
0
41
1
10
123.848116978613
20
-12.8947675342537
30
0
41
1
10
123.854410145994
20
-12.8984943464065
30
0
41
1
10
123.885332803561
20
-12.9183212441073
30
0
41
1
10
123.907827797005
20
-12.9379313445273
30
0
41
1
10
123.945067581179
20
-12.9813827372847
30
0
41
1
10
123.960221485003
20
-13.0058058335928
30
0
41
1
10
123.982514125642
20
-13.0574314584725
30
0
41
1
10
123.989401693415
20
-13.0853480175534
30
0
41
1
10
123.994247126537
20
-13.142391170016
30
0
41
1
10
123.991367687106
20
-13.1720863085596
30
0
41
1
10
123.983684988499
20
-13.2001049412322
30
0
41
1
10
123.983558940055
20
-13.2005595136331
30
0
41
1
10
123.983431621386
20
-13.2010136025304
30
0
0
SPLINE
5
D9
100
AcDbEntity
8
1
62
256
6
ByLayer
370
-1
48
1
60
0
100
AcDbSpline
70
4
71
3
72
16
73
12
40
0
40
0
40
0
40
0
40
0.0565554646391272
40
0.0565554646391272
40
0.279356136222649
40
0.279356136222649
40
0.504588441885705
40
0.504588441885705
40
0.743971766780702
40
0.743971766780702
40
1
40
1
40
1
40
1
41
1
10
121.356447533081
20
-14.3706678089315
30
0
41
1
10
121.356337689587
20
-14.3631633407157
30
0
41
1
10
121.356522951374
20
-14.3556282313358
30
0
41
1
10
121.358873893453
20
-14.3186802804804
30
0
41
1
10
121.365397685498
20
-14.2889453562832
30
0
41
1
10
121.386435361931
20
-14.2332465098464
30
0
41
1
10
121.401281826998
20
-14.206610353876
30
0
41
1
10
121.437790018599
20
-14.1581259822918
30
0
41
1
10
121.460253633408
20
-14.1360579260394
30
0
41
1
10
121.510322738184
20
-14.0988467976237
30
0
41
1
10
121.53874910203
20
-14.0837913920096
30
0
41
1
10
121.567711934416
20
-14.0734008838054
30
0
0
SPLINE
5
DA
100
AcDbEntity
8
1
62
256
6
ByLayer
370
-1
48
1
60
0
100
AcDbSpline
70
4
71
3
72
16
73
12
40
0
40
0
40
0
40
0
40
0.0513290406683212
40
0.0513290406683212
40
0.274377762346902
40
0.274377762346902
40
0.499557880753633
40
0.499557880753633
40
0.738653436914413
40
0.738653436914413
40
1
40
1
40
1
40
1
41
1
10
124.709085550337
20
-14.3214166872402
30
0
41
1
10
124.709185231713
20
-14.3282268831989
30
0
41
1
10
124.709041415212
20
-14.3350299160285
30
0
41
1
10
124.706989946387
20
-14.3709595636243
30
0
41
1
10
124.700656387764
20
-14.3998678172594
30
0
41
1
10
124.67994396921
20
-14.4528601979802
30
0
41
1
10
124.665246468304
20
-14.4775799170119
30
0
41
1
10
124.628997680876
20
-14.5212759271714
30
0
41
1
10
124.606649914292
20
-14.5403704792634
30
0
41
1
10
124.556125929944
20
-14.5712118746305
30
0
41
1
10
124.526990253594
20
-14.582525185243
30
0
41
1
10
124.49729874737
20
-14.5887552429006
30
0
0
SPLINE
5
DB
100
AcDbEntity
8
1
62
256
6
ByLayer
370
-1
48
1
60
0
100
AcDbSpline
70
4
71
3
72
14
73
10
40
0
40
0
40
0
40
0
40
0.2816910490861
40
0.2816910490861
40
0.566483342948201
40
0.566483342948201
40
0.824153714068253
40
0.824153714068253
40
1
40
1
40
1
40
1
41
1
10
121.579125097246
20
-14.6322333608299
30
0
41
1
10
121.546582357358
20
-14.6267926399542
30
0
41
1
10
121.514421224672
20
-14.6152966889825
30
0
41
1
10
121.456330263455
20
-14.580663867545
30
0
41
1
10
121.429606436294
20
-14.5568091741192
30
0
41
1
10
121.389629532171
20
-14.5024479493371
30
0
41
1
10
121.374781624178
20
-14.4719319106211
30
0
41
1
10
121.360066591167
20
-14.4174841795466
30
0
41
1
10
121.356790392575
20
-14.3940918469818
30
0
41
1
10
121.356447533081
20
-14.3706678089315
30
0
0
SPLINE
5
DC
100
AcDbEntity
8
1
62
256
6
ByLayer
370
-1
48
1
60
0
100
AcDbSpline
70
4
71
3
72
16
73
12
40
0
40
0
40
0
40
0
40
0.0935772539542584
40
0.0935772539542584
40
0.40671580325052
40
0.40671580325052
40
0.686284172006926
40
0.686284172006926
40
0.932903162824623
40
0.932903162824623
40
1
40
1
40
1
40
1
41
1
10
124.026302426736
20
-15.4274696162481
30
0
41
1
10
124.029346177708
20
-15.4388448050008
30
0
41
1
10
124.031799241196
20
-15.4504494757879
30
0
41
1
10
124.039653193347
20
-15.5011247806675
30
0
41
1
10
124.038641327173
20
-15.5425600285078
30
0
41
1
10
124.02164064723
20
-15.6175118495105
30
0
41
1
10
124.006923936001
20
-15.6525543723937
30
0
41
1
10
123.968195639446
20
-15.7104059277245
30
0
41
1
10
123.94487936539
20
-15.7349895444665
30
0
41
1
10
123.911226170015
20
-15.7597376423524
30
0
41
1
10
123.903709743083
20
-15.7647227659834
30
0
41
1
10
123.895987628158
20
-15.7693195357149
30
0
0
SPLINE
5
DD
100
AcDbEntity
8
1
62
256
6
ByLayer
370
-1
48
1
60
0
100
AcDbSpline
70
4
71
3
72
12
73
8
40
0
40
0
40
0
40
0
40
0.318739822585085
40
0.318739822585085
40
0.787042711300942
40
0.787042711300942
40
1
40
1
40
1
40
1
41
1
10
122.043157653238
20
-14.9936298502788
30
0
41
1
10
122.064152441336
20
-15.0410262112693
30
0
41
1
10
122.079669819961
20
-15.0913989393478
30
0
41
1
10
122.103721710589
20
-15.2154650469007
30
0
41
1
10
122.106130391015
20
-15.291038782198
30
0
41
1
10
122.094865218317
20
-15.3961362551153
30
0
41
1
10
122.089192062709
20
-15.4287806966157
30
0
41
1
10
122.081570720832
20
-15.4606647505907
30
0
0
SPLINE
5
DE
100
AcDbEntity
8
1
62
256
6
ByLayer
370
-1
48
1
60
0
100
AcDbSpline
70
4
71
3
72
14
73
10
40
0
40
0
40
0
40
0
40
0.282825010088748
40
0.282825010088748
40
0.569291209009737
40
0.569291209009737
40
0.828571730106845
40
0.828571730106845
40
1
40
1
40
1
40
1
41
1
10
122.574479986401
20
-15.7333581355398
30
0
41
1
10
122.55132090476
20
-15.7595330826773
30
0
41
1
10
122.523210140881
20
-15.7823010775126
30
0
41
1
10
122.460444057263
20
-15.8164850219257
30
0
41
1
10
122.424707660189
20
-15.8282232941151
30
0
41
1
10
122.355042112678
20
-15.8364056538024
30
0
41
1
10
122.320206276648
20
-15.8342571634899
30
0
41
1
10
122.265337767061
20
-15.8201812539305
30
0
41
1
10
122.243848369088
20
-15.8117313501806
30
0
41
1
10
122.223837520316
20
-15.8008187722578
30
0
0
SPLINE
5
DF
100
AcDbEntity
8
1
62
256
6
ByLayer
370
-1
48
1
60
0
100
AcDbSpline
70
4
71
3
72
16
73
12
40
0
40
0
40
0
40
0
40
0.160113017662256
40
0.160113017662256
40
0.382629305600217
40
0.382629305600217
40
0.613276728467724
40
0.613276728467724
40
0.862662471056371
40
0.862662471056371
40
1
40
1
40
1
40
1
41
1
10
123.895987628158
20
-15.7693195357149
30
0
41
1
10
123.877741166966
20
-15.7801811690029
30
0
41
1
10
123.858143910855
20
-15.7889553241843
30
0
41
1
10
123.810139081464
20
-15.8041119148855
30
0
41
1
10
123.780643114789
20
-15.8083716742122
30
0
41
1
10
123.722047518539
20
-15.8076983071107
30
0
41
1
10
123.69226361138
20
-15.8024436900341
30
0
41
1
10
123.634624122769
20
-15.7829844243431
30
0
41
1
10
123.606391034591
20
-15.7678772299201
30
0
41
1
10
123.567776475911
20
-15.7389564602889
30
0
41
1
10
123.554891595889
20
-15.7274792322603
30
0
41
1
10
123.543092163193
20
-15.7151118405858
30
0
0
SPLINE
5
E0
100
AcDbEntity
8
1
62
256
6
ByLayer
370
-1
48
1
60
0
100
AcDbSpline
70
4
71
3
72
18
73
14
40
0
40
0
40
0
40
0
40
0.212151333510141
40
0.212151333510141
40
0.386334593994113
40
0.386334593994113
40
0.562203297759501
40
0.562203297759501
40
0.715174904955046
40
0.715174904955046
40
0.917972770554849
40
0.917972770554849
40
1
40
1
40
1
40
1
41
1
10
123.490530695385
20
-12.9287979911663
30
0
41
1
10
123.441209877387
20
-12.9742478650302
30
0
41
1
10
123.382218345479
20
-13.0140085302267
30
0
41
1
10
123.261452003584
20
-13.0698520333833
30
0
41
1
10
123.200626614569
20
-13.0894151804339
30
0
41
1
10
123.073527643206
20
-13.1128203244792
30
0
41
1
10
123.005284093596
20
-13.1167131017766
30
0
41
1
10
122.882530339941
20
-13.1081724524272
30
0
41
1
10
122.825917578527
20
-13.0977616805141
30
0
41
1
10
122.70445352032
20
-13.0615720855702
30
0
41
1
10
122.640737114586
20
-13.0314485185806
30
0
41
1
10
122.563135426064
20
-12.9801142547753
30
0
41
1
10
122.541852221146
20
-12.9640652206075
30
0
41
1
10
122.521918518593
20
-12.9470442861204
30
0
0
SPLINE
5
E1
100
AcDbEntity
8
SK1
62
256
6
ByLayer
370
-1
48
1
60
0
100
AcDbSpline
70
4
71
3
72
12
73
8
40
0
40
0
40
0
40
0
40
0.0003053403763276
40
0.0003053403763276
40
0.500152670188164
40
0.500152670188164
40
1
40
1
40
1
40
1
41
1
10
-173.314499024953
20
-13.51075
30
0
41
1
10
-173.314501015716
20
-13.51075
30
0
41
1
10
-173.314499006079
20
-13.51075
30
0
41
1
10
-173.314242838719
20
-13.51075
30
0
41
1
10
-173.049966672914
20
-13.51075
30
0
41
1
10
-172.160962318699
20
-13.51075
30
0
41
1
10
-171.546229659649
20
-13.51075
30
0
41
1
10
-170.836
20
-13.51075
30
0
0
LINE
5
49
100
AcDbEntity
8
80
62
256
6
ByLayer
370
-1
48
1
60
0
100
AcDbLine
10
0
20
0
30
0
11
-10
21
0
31
0
39
0
210
0
220
0
230
1
0
LINE
5
4A
100
AcDbEntity
8
81
62
256
6
ByLayer
370
-1
48
1
60
0
100
AcDbLine
10
127.914
20
-21.9
30
0
11
137.914
21
-21.9
31
0
39
0
210
0
220
0
230
1
0
LINE
5
4B
100
AcDbEntity
8
SK4
62
256
6
ByLayer
370
-1
48
0.05
60
0
100
AcDbLine
10
-178.336
20
0
30
0
11
131.926823
21
0
31
0
39
0
210
0
220
0
230
1
0
LINE
5
4D
100
AcDbEntity
8
4
62
256
6
ByLayer
370
-1
48
0.05
60
0
100
AcDbLine
10
0
20
0
30
0
11
131.926823
21
0
31
0
39
0
210
0
220
0
230
1
0
LINE
5
4F
100
AcDbEntity
8
SK1
62
256
6
ByLayer
370
-1
48
1
60
0
100
AcDbLine
10
-170.836
20
15.98925
30
0
11
-173.336
21
13.48925
31
0
39
0
210
0
220
0
230
1
0
LINE
5
51
100
AcDbEntity
8
SK1
62
256
6
ByLayer
370
-1
48
1
60
0
100
AcDbLine
10
-173.336
20
-13.48925
30
0
11
-173.3145
21
-13.51075
31
0
39
0
210
0
220
0
230
1
0
LINE
5
52
100
AcDbEntity
8
SK1
62
256
6
ByLayer
370
-1
48
1
60
0
100
AcDbLine
10
0
20
15.98925
30
0
11
-170.836
21
15.98925
31
0
39
0
210
0
220
0
230
1
0
LINE
5
53
100
AcDbEntity
8
1
62
256
6
ByLayer
370
-1
48
1
60
0
100
AcDbLine
10
105.587497
20
15.98925
30
0
11
0
21
15.98925
31
0
39
0
210
0
220
0
230
1
0
LINE
5
54
100
AcDbEntity
8
1
62
256
6
ByLayer
370
-1
48
1
60
0
100
AcDbLine
10
105.662497
20
15.91425
30
0
11
105.587497
21
15.98925
31
0
39
0
210
0
220
0
230
1
0
LINE
5
55
100
AcDbEntity
8
1
62
256
6
ByLayer
370
-1
48
1
60
0
100
AcDbLine
10
106.662409
20
15.91425
30
0
11
105.662497
21
15.91425
31
0
39
0
210
0
220
0
230
1
0
LINE
5
56
100
AcDbEntity
8
1
62
256
6
ByLayer
370
-1
48
1
60
0
100
AcDbLine
10
107.015174
20
-15.91425
30
0
11
108.533891
21
-15.91425
31
0
39
0
210
0
220
0
230
1
0
LINE
5
57
100
AcDbEntity
8
1
62
256
6
ByLayer
370
-1
48
1
60
0
100
AcDbLine
10
108.533891
20
-15.91425
30
0
11
110.943443
21
-19.285471
31
0
39
0
210
0
220
0
230
1
0
LINE
5
58
100
AcDbEntity
8
1
62
256
6
ByLayer
370
-1
48
1
60
0
100
AcDbLine
10
122.064433
20
-13.39748
30
0
11
122.061466
21
-13.227518
31
0
39
0
210
0
220
0
230
1
0
LINE
5
59
100
AcDbEntity
8
1
62
256
6
ByLayer
370
-1
48
1
60
0
100
AcDbLine
10
120.40481
20
-14.199555
30
0
11
120.407506
21
-14.354021
31
0
39
0
210
0
220
0
230
1
0
LINE
5
5A
100
AcDbEntity
8
1
62
256
6
ByLayer
370
-1
48
1
60
0
100
AcDbLine
10
125.656706
20
-14.262396
30
0
11
125.65401
21
-14.10793
31
0
39
0
210
0
220
0
230
1
0
LINE
5
5B
100
AcDbEntity
8
1
62
256
6
ByLayer
370
-1
48
1
60
0
100
AcDbLine
10
123.958993
20
-13.200594
30
0
11
123.961949
21
-13.369909
31
0
39
0
210
0
220
0
230
1
0
LINE
5
5C
100
AcDbEntity
8
1
62
256
6
ByLayer
370
-1
48
1
60
0
100
AcDbLine
10
123.997234
20
-15.0731
30
0
11
124.000194
21
-15.242684
31
0
39
0
210
0
220
0
230
1
0
LINE
5
5D
100
AcDbEntity
8
1
62
256
6
ByLayer
370
-1
48
1
60
0
100
AcDbLine
10
122.102662
20
-15.269336
30
0
11
122.099707
21
-15.100024
31
0
39
0
210
0
220
0
230
1
0
LINE
5
5E
100
AcDbEntity
8
1
62
256
6
ByLayer
370
-1
48
1
60
0
100
AcDbLine
10
127.239367
20
-6.795877
30
0
11
127.010665
21
-6.681913
31
0
39
0
210
0
220
0
230
1
0
LINE
5
5F
100
AcDbEntity
8
1
62
256
6
ByLayer
370
-1
48
1
60
0
100
AcDbLine
10
126.725608
20
-6.686888
30
0
11
126.501023
21
-6.808765
31
0
39
0
210
0
220
0
230
1
0
LINE
5
60
100
AcDbEntity
8
1
62
256
6
ByLayer
370
-1
48
1
60
0
100
AcDbLine
10
114.969182
20
-13.638024
30
0
11
114.96978
21
-13.672282
31
0
39
0
210
0
220
0
230
1
0
LINE
5
61
100
AcDbEntity
8
1
62
256
6
ByLayer
370
-1
48
1
60
0
100
AcDbLine
10
108.533891
20
-15.91425
30
0
11
108.533891
21
-15.907183
31
0
39
0
210
0
220
0
230
1
0
LINE
5
62
100
AcDbEntity
8
1
62
256
6
ByLayer
370
-1
48
1
60
0
100
AcDbLine
10
124.000217
20
-21.067348
30
0
11
123.986695
21
-20.292664
31
0
39
0
210
0
220
0
230
1
0
LINE
5
63
100
AcDbEntity
8
1
62
256
6
ByLayer
370
-1
48
1
60
0
100
AcDbLine
10
116.712133
20
-16.932811
30
0
11
116.58605
21
-16.442456
31
0
39
0
210
0
220
0
230
1
0
LINE
5
64
100
AcDbEntity
8
1
62
256
6
ByLayer
370
-1
48
1
60
0
100
AcDbLine
10
114.825882
20
7.741184
30
0
11
126.926823
21
-4.373978
31
0
39
0
210
0
220
0
230
1
0
LINE
5
65
100
AcDbEntity
8
1
62
256
6
ByLayer
370
-1
48
1
60
0
100
AcDbLine
10
116.771624
20
-16.331989
30
0
11
116.58605
21
-16.442456
31
0
39
0
210
0
220
0
230
1
0
LINE
5
66
100
AcDbEntity
8
1
62
256
6
ByLayer
370
-1
48
1
60
0
100
AcDbLine
10
108.429276
20
-15.907175
30
0
11
114.825882
21
7.741184
31
0
39
0
210
0
220
0
230
1
0
LINE
5
67
100
AcDbEntity
8
1
62
256
6
ByLayer
370
-1
48
1
60
0
100
AcDbLine
10
105.662497
20
15.91425
30
0
11
105.662497
21
14.580011
31
0
39
0
210
0
220
0
230
1
0
LINE
5
68
100
AcDbEntity
8
1
62
256
6
ByLayer
370
-1
48
1
60
0
100
AcDbLine
10
0
20
5.536797
30
0
11
0
21
15.98925
31
0
39
0
210
0
220
0
230
1
0
LINE
5
69
100
AcDbEntity
8
1
62
256
6
ByLayer
370
-1
48
1
60
0
100
AcDbLine
10
114.221055
20
-15.610382
30
0
11
114.209948
21
-14.97405
31
0
39
0
210
0
220
0
230
1
0
LINE
5
6A
100
AcDbEntity
8
1
62
256
6
ByLayer
370
-1
48
1
60
0
100
AcDbLine
10
104.611674
20
-13.51075
30
0
11
107.007161
21
-15.906236
31
0
39
0
210
0
220
0
230
1
0
LINE
5
6B
100
AcDbEntity
8
1
62
256
6
ByLayer
370
-1
48
1
60
0
100
AcDbLine
10
107.767937
20
14.807422
30
0
11
114.825882
21
7.741184
31
0
39
0
210
0
220
0
230
1
0
LINE
5
6C
100
AcDbEntity
8
1
62
256
6
ByLayer
370
-1
48
1
60
0
100
AcDbLine
10
83.424882
20
-5.536797
30
0
11
0
21
-5.536797
31
0
39
0
210
0
220
0
230
1
0
LINE
5
6D
100
AcDbEntity
8
1
62
256
6
ByLayer
370
-1
48
1
60
0
100
AcDbLine
10
126.926823
20
-4.373978
30
0
11
126.926823
21
-6.553938
31
0
39
0
210
0
220
0
230
1
0
LINE
5
6E
100
AcDbEntity
8
1
62
256
6
ByLayer
370
-1
48
1
60
0
100
AcDbLine
10
123.749374
20
-20.162391
30
0
11
123.767212
21
-21.184309
31
0
39
0
210
0
220
0
230
1
0
LINE
5
6F
100
AcDbEntity
8
1
62
256
6
ByLayer
370
-1
48
1
60
0
100
AcDbLine
10
0
20
-5.536797
30
0
11
0
21
5.536797
31
0
39
0
210
0
220
0
230
1
0
LINE
5
70
100
AcDbEntity
8
1
62
256
6
ByLayer
370
-1
48
1
60
0
100
AcDbLine
10
107.007161
20
-15.906236
30
0
11
107.015174
21
-15.91425
31
0
39
0
210
0
220
0
230
1
0
LINE
5
71
100
AcDbEntity
8
1
62
256
6
ByLayer
370
-1
48
1
60
0
100
AcDbLine
10
126.689992
20
-6.706316
30
0
11
126.689798
21
-6.695216
31
0
39
0
210
0
220
0
230
1
0
LINE
5
72
100
AcDbEntity
8
1
62
256
6
ByLayer
370
-1
48
1
60
0
100
AcDbLine
10
86.648546
20
-13.51075
30
0
11
104.611674
21
-13.51075
31
0
39
0
210
0
220
0
230
1
0
LINE
5
73
100
AcDbEntity
8
1
62
256
6
ByLayer
370
-1
48
1
60
0
100
AcDbLine
10
116.712133
20
-16.932811
30
0
11
117.265759
21
-16.603251
31
0
39
0
210
0
220
0
230
1
0
LINE
5
74
100
AcDbEntity
8
1
62
256
6
ByLayer
370
-1
48
1
60
0
100
AcDbLine
10
105.587497
20
15.98925
30
0
11
105.587497
21
14.645117
31
0
39
0
210
0
220
0
230
1
0
LINE
5
75
100
AcDbEntity
8
1
62
256
6
ByLayer
370
-1
48
1
60
0
100
AcDbLine
10
116.582308
20
-16.228071
30
0
11
116.58605
21
-16.442456
31
0
39
0
210
0
220
0
230
1
0
LINE
5
76
100
AcDbEntity
8
1
62
256
6
ByLayer
370
-1
48
1
60
0
100
AcDbLine
10
0
20
-5.536797
30
0
11
0
21
-13.51075
31
0
39
0
210
0
220
0
230
1
0
LINE
5
77
100
AcDbEntity
8
1
62
256
6
ByLayer
370
-1
48
1
60
0
100
AcDbLine
10
106.662409
20
15.91425
30
0
11
107.767937
21
14.807422
31
0
39
0
210
0
220
0
230
1
0
LINE
5
78
100
AcDbEntity
8
1
62
256
6
ByLayer
370
-1
48
1
60
0
100
AcDbLine
10
0
20
-13.51075
30
0
11
86.648546
21
-13.51075
31
0
39
0
210
0
220
0
230
1
0
LINE
5
79
100
AcDbEntity
8
1
62
256
6
ByLayer
370
-1
48
1
60
0
100
AcDbLine
10
0
20
5.536797
30
0
11
87.725513
21
5.536797
31
0
39
0
210
0
220
0
230
1
0
LINE
5
7A
100
AcDbEntity
8
1
62
256
6
ByLayer
370
-1
48
1
60
0
100
AcDbLine
10
126.926823
20
-6.553938
30
0
11
115.020937
21
-13.641195
31
0
39
0
210
0
220
0
230
1
0
LINE
5
7B
100
AcDbEntity
8
SK1
62
256
6
ByLayer
370
-1
48
1
60
0
100
AcDbLine
10
0
20
-5.536797
30
0
11
0
21
-13.51075
31
0
39
0
210
0
220
0
230
1
0
LINE
5
7C
100
AcDbEntity
8
SK1
62
256
6
ByLayer
370
-1
48
1
60
0
100
AcDbLine
10
-170.836
20
5.536797
30
0
11
0
21
5.536797
31
0
39
0
210
0
220
0
230
1
0
LINE
5
7D
100
AcDbEntity
8
SK1
62
256
6
ByLayer
370
-1
48
1
60
0
100
AcDbLine
10
0
20
-5.536797
30
0
11
-170.836
21
-5.536797
31
0
39
0
210
0
220
0
230
1
0
LINE
5
7E
100
AcDbEntity
8
SK1
62
256
6
ByLayer
370
-1
48
1
60
0
100
AcDbLine
10
0
20
-5.536797
30
0
11
0
21
5.536797
31
0
39
0
210
0
220
0
230
1
0
LINE
5
7F
100
AcDbEntity
8
SK1
62
256
6
ByLayer
370
-1
48
1
60
0
100
AcDbLine
10
0
20
15.98925
30
0
11
0
21
5.536797
31
0
39
0
210
0
220
0
230
1
0
LINE
5
80
100
AcDbEntity
8
SK1
62
256
6
ByLayer
370
-1
48
1
60
0
100
AcDbLine
10
-173.336
20
13.48925
30
0
11
-173.336
21
-13.48925
31
0
39
0
210
0
220
0
230
1
0
LINE
5
81
100
AcDbEntity
8
SK1
62
256
6
ByLayer
370
-1
48
1
60
0
100
AcDbLine
10
-170.836
20
-5.536797
30
0
11
-170.836
21
-13.51075
31
0
39
0
210
0
220
0
230
1
0
LINE
5
82
100
AcDbEntity
8
SK1
62
256
6
ByLayer
370
-1
48
1
60
0
100
AcDbLine
10
-170.836
20
15.98925
30
0
11
-170.836
21
5.536797
31
0
39
0
210
0
220
0
230
1
0
LINE
5
83
100
AcDbEntity
8
1
62
256
6
ByLayer
370
-1
48
1
60
0
100
AcDbLine
10
114.688657
20
-13.839621
30
0
11
126.47352
21
-6.824405
31
0
39
0
210
0
220
0
230
1
0
LINE
5
84
100
AcDbEntity
8
1
62
256
6
ByLayer
370
-1
48
1
60
0
100
AcDbLine
10
126.734942
20
-21.801278
30
0
11
114.712431
21
-15.201622
31
0
39
0
210
0
220
0
230
1
0
LINE
5
85
100
AcDbEntity
8
1
62
256
6
ByLayer
370
-1
48
1
60
0
100
AcDbLine
10
127.676225
20
-7.48462
30
0
11
127.913874
21
-21.099492
31
0
39
0
210
0
220
0
230
1
0
LINE
5
86
100
AcDbEntity
8
1
62
256
6
ByLayer
370
-1
48
1
60
0
100
AcDbLine
10
124.494143
20
-14.407986
30
0
11
124.497299
21
-14.588755
31
0
39
0
210
0
220
0
230
1
0
LINE
5
87
100
AcDbEntity
8
1
62
256
6
ByLayer
370
-1
48
1
60
0
100
AcDbLine
10
123.539937
20
-15.534342
30
0
11
123.543092
21
-15.715112
31
0
39
0
210
0
220
0
230
1
0
LINE
5
88
100
AcDbEntity
8
1
62
256
6
ByLayer
370
-1
48
1
60
0
100
AcDbLine
10
121.957457
20
-14.852326
30
0
11
121.954691
21
-14.693865
31
0
39
0
210
0
220
0
230
1
0
LINE
5
89
100
AcDbEntity
8
1
62
256
6
ByLayer
370
-1
48
1
60
0
100
AcDbLine
10
121.575974
20
-14.451703
30
0
11
121.579125
21
-14.632233
31
0
39
0
210
0
220
0
230
1
0
LINE
5
8A
100
AcDbEntity
8
1
62
256
6
ByLayer
370
-1
48
1
60
0
100
AcDbLine
10
123.98116
20
-13.07086
30
0
11
123.983432
21
-13.201014
31
0
39
0
210
0
220
0
230
1
0
LINE
5
8B
100
AcDbEntity
8
1
62
256
6
ByLayer
370
-1
48
1
60
0
100
AcDbLine
10
122.036642
20
-13.116336
30
0
11
122.038708
21
-13.234687
31
0
39
0
210
0
220
0
230
1
0
LINE
5
8C
100
AcDbEntity
8
1
62
256
6
ByLayer
370
-1
48
1
60
0
100
AcDbLine
10
122.040392
20
-14.835169
30
0
11
122.043158
21
-14.99363
31
0
39
0
210
0
220
0
230
1
0
LINE
5
8D
100
AcDbEntity
8
1
62
256
6
ByLayer
370
-1
48
1
60
0
100
AcDbLine
10
122.571325
20
-15.552589
30
0
11
122.57448
21
-15.733358
31
0
39
0
210
0
220
0
230
1
0
LINE
5
8E
100
AcDbEntity
8
SK1
62
256
6
ByLayer
370
-1
48
1
60
0
100
AcDbLine
10
-170.836
20
-13.51075
30
0
11
0
21
-13.51075
31
0
39
0
210
0
220
0
230
1
0
LINE
5
8F
100
AcDbEntity
8
2
62
256
6
ByLayer
370
-1
48
1
60
1
100
AcDbLine
10
127.914
20
0
30
0
11
127.915
21
0.001
31
0
39
0
210
0
220
0
230
1
0
MTEXT
5
E2
100
AcDbEntity
8
SK6
62
256
6
ByLayer
370
-1
48
1
60
0
100
AcDbMText
10
-19.336
20
21.370561
30
0
210
0
220
0
230
1
1
\W00.787;\fsimplex.shx,bigfont.shx;A32T-STFCL 16 
40
3.5
41
0
44
1.084337
50
0
71
7
72
5
7
DEFAULT
0
DIMENSION
5
115
100
AcDbEntity
8
2
62
256
6
ByLayer
370
-3
48
1
60
0
100
AcDbDimension
2
DimnDraft3D1
10
140.164
20
0
30
0
11
140.164
21
-16.113158
31
0
70
32
71
5
72
1
41
1
210
0
220
0
230
1
3
Standard
100
AcDbAlignedDimension
13
129.914
23
-21.9
33
0
14
129.914
24
0
34
0
50
90
100
AcDbRotatedDimension
1001
ACAD
1000
DSTYLE
1002
{
1070
    74
1070
     0
1070
   279
1070
     0
1070
   172
1070
     1
1070
   173
1070
     1
1070
   340
1005
E3
1070
    77
1070
     1
1070
    73
1070
     0
1070
   171
1070
     4
1070
   274
1070
     4
1070
   177
1070
     2
1070
   176
1070
     2
1070
   178
1070
     7
1070
    78
1070
     8
1070
    41
1041
3.175
1070
   147
1041
2.25
1070
    42
1041
2.0
1070
    44
1041
2.0
1070
   140
1041
4.5
1070
   343
1005
116
1070
   344
1005
116
1002
}
0
DIMENSION
5
12B
100
AcDbEntity
8
SK2
62
256
6
ByLayer
370
-3
48
1
60
0
100
AcDbDimension
2
DimnDraft3D2
10
-183.086
20
15.98925
30
0
11
-183.086
21
-4.784211
31
0
70
32
71
5
72
1
41
1
210
0
220
0
230
1
3
Standard
100
AcDbAlignedDimension
13
-175.336
23
-15.98925
33
0
14
-175.336
24
15.98925
34
0
50
90
100
AcDbRotatedDimension
1001
ACAD
1000
DSTYLE
1002
{
1070
    74
1070
     0
1070
   279
1070
     0
1070
   172
1070
     1
1070
   173
1070
     1
1070
   340
1005
E3
1070
    77
1070
     1
1070
    73
1070
     0
1070
   171
1070
     4
1070
   274
1070
     4
1070
   177
1070
     2
1070
   176
1070
     2
1070
   178
1070
     7
1070
    78
1070
     8
1070
    41
1041
3.175
1070
   147
1041
2.25
1070
    42
1041
2.0
1070
    44
1041
2.0
1070
   140
1041
4.5
1070
   343
1005
116
1070
   344
1005
116
1002
}
0
DIMENSION
5
139
100
AcDbEntity
8
SK2
62
256
6
ByLayer
370
-3
48
1
60
0
100
AcDbDimension
2
DimnDraft3D3
10
127.914
20
-39.15
30
0
11
-29.526132
21
-39.15
31
0
70
32
71
5
72
1
41
1
210
0
220
0
230
1
3
Standard
100
AcDbAlignedDimension
13
-173.336
23
-17.98925
33
0
14
127.914
24
-23.9
34
0
50
0
100
AcDbRotatedDimension
1001
ACAD
1000
DSTYLE
1002
{
1070
   279
1070
     0
1070
   172
1070
     1
1070
   173
1070
     1
1070
   340
1005
E3
1070
    77
1070
     1
1070
    73
1070
     0
1070
   171
1070
     4
1070
   274
1070
     4
1070
   177
1070
     2
1070
   176
1070
     2
1070
   178
1070
     7
1070
    78
1070
     8
1070
    41
1041
3.175
1070
   147
1041
2.25
1070
    42
1041
2.0
1070
    44
1041
2.0
1070
   140
1041
4.5
1070
   343
1005
116
1070
   344
1005
116
1002
}
0
DIMENSION
5
147
100
AcDbEntity
8
2
62
256
6
ByLayer
370
-3
48
1
60
0
100
AcDbDimension
2
DimnDraft3D4
10
167.458141
20
0
30
0
11
151.548797
21
32.727109
31
0
70
34
71
5
72
1
41
1
210
0
220
0
230
1
3
Standard
100
AcDb2LineAngularDimension
13
127.599857
23
-3.902741
33
0
14
126.834922
24
39.920326
34
0
15
129.914
25
0
35
0
16
157.268796
26
30.260654
36
0
40
0
0
ENDSEC
0
SECTION
2
OBJECTS
0
DICTIONARY
5
178
330
0
100
AcDbDictionary
280
0
281
1
3
ACAD_GROUP
350
179
3
ACAD_MLINESTYLE
350
17a
0
DICTIONARY
5
179
330
0
100
AcDbDictionary
280
0
281
1
0
DICTIONARY
5
17a
330
0
100
AcDbDictionary
280
0
281
1
3
Standard
350
18
0
MLINESTYLE
5
18
330
17a
100
AcDbMlineStyle
2
Standard
70
0
3

62
256
51
90
52
90
71
2
49
-0.5
62
256
6
ByLayer
49
0.5
62
256
6
ByLayer
0
RASTERVARIABLES
5
166
330

100
AcDbRasterVariables
90
0
70
1
71
1
72
1
0
ENDSEC
0
EOF
