0
SECTION
2
HEADER
9
$ACADVER
1
AC1015
9
$DWGCODEPAGE
3
ANSI_1252
9
$HANDSEED
5
193
9
$ANGBASE
50
0
9
$ANGDIR
70
0
9
$ATTMODE
70
1
9
$AUNITS
70
0
9
$AUPREC
70
0
9
$CECOLOR
62
256
9
$CELTSCALE
40
1
9
$CELTYPE
6
ByLayer
9
$CELWEIGHT
370
-1
9
$CLAYER
8
0
9
$CMLJUST
70
0
9
$CMLSCALE
40
1
9
$CMLSTYLE
2
Standard
9
$DIMSTYLE
2
Standard
9
$TEXTSIZE
40
0.2
9
$TEXTSTYLE
7
Standard
9
$LUNITS
70
2
9
$LUPREC
70
4
9
$EXTNAMES
290
1
9
$INSUNITS
70
4
9
$LTSCALE
40
1
9
$LWDISPLAY
290
0
9
$PDMODE
70
0
9
$PDSIZE
40
0
9
$PLINEGEN
70
0
0
ENDSEC
0
SECTION
2
CLASSES
0
CLASS
1
RASTERVARIABLES
2
AcDbRasterVariables
3
ISM
90
0
280
0
281
0
0
ENDSEC
0
SECTION
2
TABLES
0
TABLE
2
VPORT
5
189
100
AcDbSymbolTable
0
VPORT
5
1
100
AcDbSymbolTableRecord
100
AcDbViewportTableRecord
2
*Active
70
0
10
0
20
0
11
1
21
1
12
-1
22
1
13
0
23
0
14
0.5
24
0.5
15
10
25
10
16
0
26
0
36
1
17
0
27
0
37
0
0
ENDTAB
0
TABLE
2
LTYPE
5
18a
100
AcDbSymbolTable
0
LTYPE
5
14
100
AcDbSymbolTableRecord
100
AcDbLinetypeTableRecord
70
0
2
ByBlock
3

72
65
73
0
40
0
0
LTYPE
5
15
100
AcDbSymbolTableRecord
100
AcDbLinetypeTableRecord
70
0
2
ByLayer
3

72
65
73
0
40
0
0
LTYPE
5
16
100
AcDbSymbolTableRecord
100
AcDbLinetypeTableRecord
70
0
2
CONTINUOUS
3
Solid line
72
65
73
0
40
0
0
LTYPE
5
3B
100
AcDbSymbolTableRecord
100
AcDbLinetypeTableRecord
70
0
2
DASHED
3
__ __ __ __ __ __ __ __ __
72
65
73
2
40
25.72
49
12.86
74
0
49
-12.86
74
0
0
LTYPE
5
3C
100
AcDbSymbolTableRecord
100
AcDbLinetypeTableRecord
70
0
2
HIDDEN
3
_ _ _ _ _ _ _ _ _ _ _ _ _ _ _
72
65
73
2
40
0.5
49
0.25
74
0
49
-0.25
74
0
0
LTYPE
5
3D
100
AcDbSymbolTableRecord
100
AcDbLinetypeTableRecord
70
0
2
PHANTOM
3
____ _ _ ____ _ _ _____ _ _ ____
72
65
73
6
40
50.5
49
18
74
0
49
-6.5
74
0
49
6.5
74
0
49
-6.5
74
0
49
6.5
74
0
49
-6.5
74
0
0
LTYPE
5
3E
100
AcDbSymbolTableRecord
100
AcDbLinetypeTableRecord
70
0
2
CENTER
3
____ _ ____ _ ____ _ ____
72
65
73
4
40
47.5
49
22
74
0
49
-8.5
74
0
49
8.5
74
0
49
-8.5
74
0
0
LTYPE
5
3F
100
AcDbSymbolTableRecord
100
AcDbLinetypeTableRecord
70
0
2
DOT
3
.........................
72
65
73
2
40
10
49
0
74
0
49
-10
74
0
0
LTYPE
5
40
100
AcDbSymbolTableRecord
100
AcDbLinetypeTableRecord
70
0
2
DASHDOT
3
_._._._._._._._._._._._._._._._.
72
65
73
4
40
70
49
31
74
0
49
-13
74
0
49
13
74
0
49
-13
74
0
0
ENDTAB
0
TABLE
2
LAYER
5
18b
100
AcDbSymbolTable
0
LAYER
5
10
100
AcDbSymbolTableRecord
100
AcDbLayerTableRecord
2
0
70
0
62
7
6
CONTINUOUS
290
1
370
-3
390
0
0
LAYER
5
42
100
AcDbSymbolTableRecord
100
AcDbLayerTableRecord
2
80
70
0
62
-6
6
CONTINUOUS
290
1
370
-3
390
0
0
LAYER
5
44
100
AcDbSymbolTableRecord
100
AcDbLayerTableRecord
2
81
70
0
62
-3
6
CONTINUOUS
290
1
370
-3
390
0
0
LAYER
5
46
100
AcDbSymbolTableRecord
100
AcDbLayerTableRecord
2
1
70
0
62
4
6
CONTINUOUS
290
1
370
-3
390
0
0
LAYER
5
48
100
AcDbSymbolTableRecord
100
AcDbLayerTableRecord
2
2
70
0
62
7
6
CONTINUOUS
290
1
370
-3
390
0
0
LAYER
5
4E
100
AcDbSymbolTableRecord
100
AcDbLayerTableRecord
2
4
70
0
62
-2
6
CENTER
290
1
370
-3
390
0
0
LAYER
5
175
100
AcDbSymbolTableRecord
100
AcDbLayerTableRecord
2
SK4
70
0
62
2
6
CENTER
290
1
370
-3
390
0
0
LAYER
5
176
100
AcDbSymbolTableRecord
100
AcDbLayerTableRecord
2
SK1
70
0
62
4
6
CONTINUOUS
290
1
370
-3
390
0
0
LAYER
5
177
100
AcDbSymbolTableRecord
100
AcDbLayerTableRecord
2
SK6
70
0
62
5
6
CONTINUOUS
290
1
370
-3
390
0
0
LAYER
5
178
100
AcDbSymbolTableRecord
100
AcDbLayerTableRecord
2
SK2
70
0
62
7
6
CONTINUOUS
290
1
370
-3
390
0
0
ENDTAB
0
TABLE
2
STYLE
5
18c
100
AcDbSymbolTable
0
STYLE
5
11
100
AcDbSymbolTableRecord
100
AcDbTextStyleTableRecord
2
Standard
3
txt
70
0
71
0
40
0
41
1
42
0
50
0
0
STYLE
5
F1
100
AcDbSymbolTableRecord
100
AcDbTextStyleTableRecord
2
DEFAULT
3
simplex.shx
70
0
71
0
40
0
41
1
42
0
50
0
0
STYLE
5
114
100
AcDbSymbolTableRecord
100
AcDbTextStyleTableRecord
2
DWGDirectTextStyle
3
SIMPLEX
70
0
71
0
40
0
41
1
42
0
50
0
0
ENDTAB
0
TABLE
2
DIMSTYLE
5
18d
100
AcDbSymbolTable
100
AcDbDimStyleTable
0
DIMSTYLE
105
27
100
AcDbSymbolTableRecord
100
AcDbDimStyleTableRecord
2
Standard
70
0
3
<>
41
0.18
42
0.0625
44
0.18
140
0.18
147
0.09
73
0
74
0
77
1
271
2
275
0
278
52
280
0
340
11
0
ENDTAB
0
TABLE
2
VIEW
5
18e
100
AcDbSymbolTable
0
ENDTAB
0
TABLE
2
UCS
5
18f
100
AcDbSymbolTable
0
ENDTAB
0
TABLE
2
APPID
5
190
100
AcDbSymbolTable
0
APPID
5
12
100
AcDbSymbolTableRecord
100
AcDbRegAppTableRecord
2
ACAD
70
0
0
ENDTAB
0
TABLE
2
BLOCK_RECORD
5
191
100
AcDbSymbolTable
0
BLOCK_RECORD
5
1F
100
AcDbSymbolTableRecord
100
AcDbBlockTableRecord
2
*Model_Space
340
0
70
0
0
BLOCK_RECORD
5
1B
100
AcDbSymbolTableRecord
100
AcDbBlockTableRecord
2
*Paper_Space
340
0
70
0
0
BLOCK_RECORD
5
23
100
AcDbSymbolTableRecord
100
AcDbBlockTableRecord
2
*Paper_Space0
340
0
70
0
0
BLOCK_RECORD
5
116
100
AcDbSymbolTableRecord
100
AcDbBlockTableRecord
2
DimnDraft3D1
340
0
70
0
0
BLOCK_RECORD
5
124
100
AcDbSymbolTableRecord
100
AcDbBlockTableRecord
2
_CLOSED
340
0
70
0
0
BLOCK_RECORD
5
12B
100
AcDbSymbolTableRecord
100
AcDbBlockTableRecord
2
DimnDraft3D2
340
0
70
0
0
BLOCK_RECORD
5
13A
100
AcDbSymbolTableRecord
100
AcDbBlockTableRecord
2
DimnDraft3D3
340
0
70
0
0
BLOCK_RECORD
5
148
100
AcDbSymbolTableRecord
100
AcDbBlockTableRecord
2
DimnDraft3D4
340
0
70
0
0
ENDTAB
0
ENDSEC
0
SECTION
2
BLOCKS
0
BLOCK
5
20
100
AcDbEntity
8
0
100
AcDbBlockBegin
2
*Model_Space
70
0
10
0
20
0
30
0
3
*Model_Space
0
ENDBLK
5
21
100
AcDbEntity
8
0
100
AcDbBlockEnd
0
BLOCK
5
1C
100
AcDbEntity
8
0
100
AcDbBlockBegin
2
*Paper_Space
70
0
10
0
20
0
30
0
3
*Paper_Space
0
ENDBLK
5
1D
100
AcDbEntity
8
0
100
AcDbBlockEnd
0
BLOCK
5
24
100
AcDbEntity
8
0
100
AcDbBlockBegin
2
*Paper_Space0
70
0
10
0
20
0
30
0
3
*Paper_Space0
0
ENDBLK
5
25
100
AcDbEntity
8
0
100
AcDbBlockEnd
0
BLOCK
5
121
100
AcDbEntity
8
0
100
AcDbBlockBegin
2
DimnDraft3D1
70
0
10
0
20
0
30
0
3
DimnDraft3D1
0
MTEXT
5
117
100
AcDbEntity
8
2
62
256
6
ByLayer
370
-1
48
1
60
0
100
AcDbMText
10
139.039
20
-14.988158
30
0
210
0
220
0
230
1
1
\W01.000;\fsimplex.shx,bigfont.shx;22.0 
40
4.5
41
0
44
1.084337
50
90
71
7
72
5
7
DEFAULT
0
LINE
5
118
100
AcDbEntity
8
2
62
256
6
ByLayer
370
-1
48
1
60
0
100
AcDbLine
10
129.914
20
-21.9
30
0
11
142.164
21
-21.9
31
0
39
0
210
0
220
0
230
1
0
LINE
5
119
100
AcDbEntity
8
2
62
256
6
ByLayer
370
-1
48
1
60
0
100
AcDbLine
10
129.914
20
0
30
0
11
142.164
21
0
31
0
39
0
210
0
220
0
230
1
0
LINE
5
11A
100
AcDbEntity
8
2
62
256
6
ByLayer
370
-1
48
1
60
0
100
AcDbLine
10
140.164
20
-21.9
30
0
11
140.164
21
0
31
0
39
0
210
0
220
0
230
1
0
LINE
5
11B
100
AcDbEntity
8
2
62
256
6
ByLayer
370
-1
48
1
60
0
100
AcDbLine
10
140.164
20
-21.9
30
0
11
139.746003
21
-18.725002
31
0
39
0
210
0
220
0
230
1
0
LINE
5
11C
100
AcDbEntity
8
2
62
256
6
ByLayer
370
-1
48
1
60
0
100
AcDbLine
10
140.164
20
-21.9
30
0
11
140.581997
21
-18.724998
31
0
39
0
210
0
220
0
230
1
0
LINE
5
11D
100
AcDbEntity
8
2
62
256
6
ByLayer
370
-1
48
1
60
0
100
AcDbLine
10
139.746003
20
-18.725002
30
0
11
140.581997
21
-18.724998
31
0
39
0
210
0
220
0
230
1
0
LINE
5
11E
100
AcDbEntity
8
2
62
256
6
ByLayer
370
-1
48
1
60
0
100
AcDbLine
10
140.164
20
0
30
0
11
140.581997
21
-3.174998
31
0
39
0
210
0
220
0
230
1
0
LINE
5
11F
100
AcDbEntity
8
2
62
256
6
ByLayer
370
-1
48
1
60
0
100
AcDbLine
10
140.164
20
0
30
0
11
139.746003
21
-3.175002
31
0
39
0
210
0
220
0
230
1
0
LINE
5
120
100
AcDbEntity
8
2
62
256
6
ByLayer
370
-1
48
1
60
0
100
AcDbLine
10
140.581997
20
-3.174998
30
0
11
139.746003
21
-3.175002
31
0
39
0
210
0
220
0
230
1
0
ENDBLK
5
122
100
AcDbEntity
8
0
100
AcDbBlockEnd
0
BLOCK
5
125
100
AcDbEntity
8
0
100
AcDbBlockBegin
2
_CLOSED
70
0
10
0
20
0
30
0
3
_CLOSED
0
LINE
5
127
100
AcDbEntity
8
0
62
256
6
ByLayer
370
-2
48
1
60
0
100
AcDbLine
10
-1
20
0.166667
30
0
11
0
21
0
31
0
39
0
210
0
220
0
230
1
0
LINE
5
128
100
AcDbEntity
8
0
62
256
6
ByLayer
370
-2
48
1
60
0
100
AcDbLine
10
0
20
0
30
0
11
-1
21
-0.166667
31
0
39
0
210
0
220
0
230
1
0
LINE
5
129
100
AcDbEntity
8
0
62
256
6
ByLayer
370
-2
48
1
60
0
100
AcDbLine
10
-1
20
0.166667
30
0
11
-1
21
-0.166667
31
0
39
0
210
0
220
0
230
1
0
LINE
5
12A
100
AcDbEntity
8
0
62
256
6
ByLayer
370
-2
48
1
60
0
100
AcDbLine
10
0
20
0
30
0
11
-1
21
0
31
0
39
0
210
0
220
0
230
1
0
ENDBLK
5
126
100
AcDbEntity
8
0
100
AcDbBlockEnd
0
BLOCK
5
137
100
AcDbEntity
8
0
100
AcDbBlockBegin
2
DimnDraft3D2
70
0
10
0
20
0
30
0
3
DimnDraft3D2
0
MTEXT
5
12C
100
AcDbEntity
8
SK2
62
256
6
ByLayer
370
-1
48
1
60
0
100
AcDbMText
10
-184.211
20
-3.659211
30
0
210
0
220
0
230
1
1
\W01.000;\fsimplex.shx,bigfont.shx;%%c32 
40
4.5
41
0
44
1.084337
50
90
71
7
72
5
7
DEFAULT
0
LINE
5
12E
100
AcDbEntity
8
SK2
62
256
6
ByLayer
370
-1
48
1
60
0
100
AcDbLine
10
-175.336
20
-15.98925
30
0
11
-185.086
21
-15.98925
31
0
39
0
210
0
220
0
230
1
0
LINE
5
12F
100
AcDbEntity
8
SK2
62
256
6
ByLayer
370
-1
48
1
60
0
100
AcDbLine
10
-175.336
20
15.98925
30
0
11
-185.086
21
15.98925
31
0
39
0
210
0
220
0
230
1
0
LINE
5
130
100
AcDbEntity
8
SK2
62
256
6
ByLayer
370
-1
48
1
60
0
100
AcDbLine
10
-183.086
20
-15.98925
30
0
11
-183.086
21
15.98925
31
0
39
0
210
0
220
0
230
1
0
LINE
5
131
100
AcDbEntity
8
SK2
62
256
6
ByLayer
370
-1
48
1
60
0
100
AcDbLine
10
-183.086
20
-15.98925
30
0
11
-183.503997
21
-12.814252
31
0
39
0
210
0
220
0
230
1
0
LINE
5
132
100
AcDbEntity
8
SK2
62
256
6
ByLayer
370
-1
48
1
60
0
100
AcDbLine
10
-183.086
20
-15.98925
30
0
11
-182.668003
21
-12.814248
31
0
39
0
210
0
220
0
230
1
0
LINE
5
133
100
AcDbEntity
8
SK2
62
256
6
ByLayer
370
-1
48
1
60
0
100
AcDbLine
10
-183.503997
20
-12.814252
30
0
11
-182.668003
21
-12.814248
31
0
39
0
210
0
220
0
230
1
0
LINE
5
134
100
AcDbEntity
8
SK2
62
256
6
ByLayer
370
-1
48
1
60
0
100
AcDbLine
10
-183.086
20
15.98925
30
0
11
-182.668003
21
12.814252
31
0
39
0
210
0
220
0
230
1
0
LINE
5
135
100
AcDbEntity
8
SK2
62
256
6
ByLayer
370
-1
48
1
60
0
100
AcDbLine
10
-183.086
20
15.98925
30
0
11
-183.503997
21
12.814248
31
0
39
0
210
0
220
0
230
1
0
LINE
5
136
100
AcDbEntity
8
SK2
62
256
6
ByLayer
370
-1
48
1
60
0
100
AcDbLine
10
-182.668003
20
12.814252
30
0
11
-183.503997
21
12.814248
31
0
39
0
210
0
220
0
230
1
0
ENDBLK
5
138
100
AcDbEntity
8
0
100
AcDbBlockEnd
0
BLOCK
5
145
100
AcDbEntity
8
0
100
AcDbBlockBegin
2
DimnDraft3D3
70
0
10
0
20
0
30
0
3
DimnDraft3D3
0
MTEXT
5
13B
100
AcDbEntity
8
SK2
62
256
6
ByLayer
370
-1
48
1
60
0
100
AcDbMText
10
-28.401132
20
-38.025
30
0
210
0
220
0
230
1
1
\W01.000;\fsimplex.shx,bigfont.shx;300.0 
40
4.5
41
0
44
1.084337
50
0
71
7
72
5
7
DEFAULT
0
LINE
5
13C
100
AcDbEntity
8
SK2
62
256
6
ByLayer
370
-1
48
1
60
0
100
AcDbLine
10
-173.336
20
-17.98925
30
0
11
-173.336
21
-41.15
31
0
39
0
210
0
220
0
230
1
0
LINE
5
13D
100
AcDbEntity
8
SK2
62
256
6
ByLayer
370
-1
48
1
60
0
100
AcDbLine
10
127.914
20
-23.9
30
0
11
127.914
21
-41.15
31
0
39
0
210
0
220
0
230
1
0
LINE
5
13E
100
AcDbEntity
8
SK2
62
256
6
ByLayer
370
-1
48
1
60
0
100
AcDbLine
10
-173.336
20
-39.15
30
0
11
127.914
21
-39.15
31
0
39
0
210
0
220
0
230
1
0
LINE
5
13F
100
AcDbEntity
8
SK2
62
256
6
ByLayer
370
-1
48
1
60
0
100
AcDbLine
10
-173.336
20
-39.15
30
0
11
-170.161002
21
-38.732003
31
0
39
0
210
0
220
0
230
1
0
LINE
5
140
100
AcDbEntity
8
SK2
62
256
6
ByLayer
370
-1
48
1
60
0
100
AcDbLine
10
-173.336
20
-39.15
30
0
11
-170.160998
21
-39.567997
31
0
39
0
210
0
220
0
230
1
0
LINE
5
141
100
AcDbEntity
8
SK2
62
256
6
ByLayer
370
-1
48
1
60
0
100
AcDbLine
10
-170.161002
20
-38.732003
30
0
11
-170.160998
21
-39.567997
31
0
39
0
210
0
220
0
230
1
0
LINE
5
142
100
AcDbEntity
8
SK2
62
256
6
ByLayer
370
-1
48
1
60
0
100
AcDbLine
10
127.914
20
-39.15
30
0
11
124.739002
21
-39.567997
31
0
39
0
210
0
220
0
230
1
0
LINE
5
143
100
AcDbEntity
8
SK2
62
256
6
ByLayer
370
-1
48
1
60
0
100
AcDbLine
10
127.914
20
-39.15
30
0
11
124.738998
21
-38.732003
31
0
39
0
210
0
220
0
230
1
0
LINE
5
144
100
AcDbEntity
8
SK2
62
256
6
ByLayer
370
-1
48
1
60
0
100
AcDbLine
10
124.739002
20
-39.567997
30
0
11
124.738998
21
-38.732003
31
0
39
0
210
0
220
0
230
1
0
ENDBLK
5
146
100
AcDbEntity
8
0
100
AcDbBlockEnd
0
BLOCK
5
153
100
AcDbEntity
8
0
100
AcDbBlockBegin
2
DimnDraft3D4
70
0
10
0
20
0
30
0
3
DimnDraft3D4
0
MTEXT
5
149
100
AcDbEntity
8
2
62
256
6
ByLayer
370
-1
48
1
60
0
100
AcDbMText
10
148.512951
20
32.335899
30
0
210
0
220
0
230
1
1
\W01.000;\fsimplex.shx,bigfont.shx;95%%d0' 
40
4.5
41
0
44
1.084337
50
317.5
71
7
72
5
7
DEFAULT
0
LINE
5
14A
100
AcDbEntity
8
2
62
256
6
ByLayer
370
-1
48
1
60
0
100
AcDbLine
10
126.69382
20
-7.953274
30
0
11
122.518183
21
39.774475
31
0
39
0
210
0
220
0
230
1
0
LINE
5
14B
100
AcDbEntity
8
2
62
256
6
ByLayer
370
-1
48
1
60
0
100
AcDbLine
10
129.914
20
0
30
0
11
165.924405
21
0
31
0
39
0
210
0
220
0
230
1
0
ARC
5
14C
100
AcDbEntity
8
2
62
256
6
ByLayer
370
-1
48
1
60
0
100
AcDbCircle
39
0
10
125.997998
20
0
30
0
40
37.9264068640929
210
0
220
0
230
1
100
AcDbArc
50
0
51
95
0
LINE
5
14D
100
AcDbEntity
8
2
62
256
6
ByLayer
370
-1
48
1
60
0
100
AcDbLine
10
122.692494
20
37.782085
30
0
11
125.832793
21
38.409669
31
0
39
0
210
0
220
0
230
1
0
LINE
5
14E
100
AcDbEntity
8
2
62
256
6
ByLayer
370
-1
48
1
60
0
100
AcDbLine
10
122.692494
20
37.782085
30
0
11
125.888223
21
37.575515
31
0
39
0
210
0
220
0
230
1
0
LINE
5
14F
100
AcDbEntity
8
2
62
256
6
ByLayer
370
-1
48
1
60
0
100
AcDbLine
10
125.832793
20
38.409669
30
0
11
125.888223
21
37.575515
31
0
39
0
210
0
220
0
230
1
0
LINE
5
150
100
AcDbEntity
8
2
62
256
6
ByLayer
370
-1
48
1
60
0
100
AcDbLine
10
163.924405
20
0
30
0
11
163.440095
21
3.165562
31
0
39
0
210
0
220
0
230
1
0
LINE
5
151
100
AcDbEntity
8
2
62
256
6
ByLayer
370
-1
48
1
60
0
100
AcDbLine
10
163.924405
20
0
30
0
11
164.275905
21
3.183049
31
0
39
0
210
0
220
0
230
1
0
LINE
5
152
100
AcDbEntity
8
2
62
256
6
ByLayer
370
-1
48
1
60
0
100
AcDbLine
10
163.440095
20
3.165562
30
0
11
164.275905
21
3.183049
31
0
39
0
210
0
220
0
230
1
0
ENDBLK
5
154
100
AcDbEntity
8
0
100
AcDbBlockEnd
0
ENDSEC
0
SECTION
2
ENTITIES
0
ELLIPSE
5
95
100
AcDbEntity
8
1
62
256
6
ByLayer
370
-1
48
1
60
0
100
AcDbEllipse
10
114.92768
20
-10.037652
30
0
11
1.77523000875773
21
0.155312500917287
31
0
210
0
220
0
230
1
40
0.985433
41
2.82972345804538
42
-3.13722933045984
0
ELLIPSE
5
96
100
AcDbEntity
8
1
62
256
6
ByLayer
370
-1
48
1
60
0
100
AcDbEllipse
10
114.602824
20
-7.431648
30
0
11
1.74334072166056
21
0.152522549808362
31
0
210
0
220
0
230
1
40
0.985433
41
-2.48941641776586
42
-1.9368877382245
0
ELLIPSE
5
97
100
AcDbEntity
8
1
62
256
6
ByLayer
370
-1
48
1
60
0
100
AcDbEllipse
10
114.59319
20
-7.321526
30
0
11
-1.74334072166055
21
-0.152522549808393
31
0
210
0
220
0
230
1
40
0.985433
41
0.448760806862491
42
1.21442599104739
0
ELLIPSE
5
98
100
AcDbEntity
8
1
62
256
6
ByLayer
370
-1
48
1
60
0
100
AcDbEllipse
10
114.908927
20
-9.812818
30
0
11
-1.49429204713762
21
-0.13073361412148
31
0
210
0
220
0
230
1
40
0.985433
41
0.00436332312998911
42
1.06511568586819
0
ELLIPSE
5
99
100
AcDbEntity
8
1
62
256
6
ByLayer
370
-1
48
1
60
0
100
AcDbEllipse
10
114.723627
20
-8.812423
30
0
11
1.74334072166056
21
0.152522549808362
31
0
210
0
220
0
230
1
40
0.985433
41
0.151921250830876
42
-2.7239152316717
0
ELLIPSE
5
9A
100
AcDbEntity
8
1
62
256
6
ByLayer
370
-1
48
1
60
0
100
AcDbEllipse
10
114.890019
20
-9.607182
30
0
11
-1.49429204713762
21
-0.13073361412148
31
0
210
0
220
0
230
1
40
0.985433
41
-0.130067207292155
42
0.00436332312998911
0
ELLIPSE
5
9B
100
AcDbEntity
8
1
62
256
6
ByLayer
370
-1
48
1
60
0
100
AcDbEllipse
10
114.825786
20
-8.862512
30
0
11
-1.49429204713762
21
-0.13073361412148
31
0
210
0
220
0
230
1
40
0.985433
41
0.125282588301617
42
1.06511574901467
0
ELLIPSE
5
9C
100
AcDbEntity
8
1
62
256
6
ByLayer
370
-1
48
1
60
0
100
AcDbEllipse
10
67.014185
20
-183.437273
30
0
11
68.5503602357614
21
252.334224414582
31
0
210
4.12919380076623E-31
220
1.62739666586313E-16
230
1
40
0.159883
41
0.768861014519797
42
0.832689274440471
0
ELLIPSE
5
9D
100
AcDbEntity
8
1
62
256
6
ByLayer
370
-1
48
1
60
0
100
AcDbEllipse
10
114.946589
20
-10.243287
30
0
11
1.77523000875773
21
0.155312500917287
31
0
210
0
220
0
230
1
40
0.985433
41
-3.13722933045994
42
-1.99077646067379
0
ELLIPSE
5
9E
100
AcDbEntity
8
1
62
256
6
ByLayer
370
-1
48
1
60
0
100
AcDbEllipse
10
114.912977
20
-9.085731
30
0
11
0.790978590284843
21
0.0692016597416221
31
0
210
0
220
0
230
1
40
0.985433
41
1.39626340159522
42
3.14159265358945
0
ELLIPSE
5
9F
100
AcDbEntity
8
1
62
256
6
ByLayer
370
-1
48
1
60
0
100
AcDbEllipse
10
126.150973
20
-10.040712
30
0
11
0.79097859028475
21
0.069201659741614
31
0
210
0
220
0
230
1
40
0.985433
41
0
42
1.3962634015949
0
ELLIPSE
5
A0
100
AcDbEntity
8
1
62
256
6
ByLayer
370
-1
48
1
60
0
100
AcDbEllipse
10
121.002879
20
-14.945674
30
0
11
3.99172294436735
21
0.349230505568374
31
0
210
0
220
0
230
1
40
0.985433
41
3.05304289917798
42
-4.49869910473339E-16
0
ELLIPSE
5
A1
100
AcDbEntity
8
1
62
256
6
ByLayer
370
-1
48
1
60
0
100
AcDbEllipse
10
121.002879
20
-14.945674
30
0
11
3.99172294436735
21
0.349230505568374
31
0
210
0
220
0
230
1
40
0.985433
41
0
42
0.39908422012505
0
ELLIPSE
5
A2
100
AcDbEntity
8
1
62
256
6
ByLayer
370
-1
48
1
60
0
100
AcDbEllipse
10
121.002879
20
-14.945674
30
0
11
3.99172294436735
21
0.349230505568374
31
0
210
0
220
0
230
1
40
0.985433
41
2.74241792794528
42
3.05304289917798
0
ELLIPSE
5
A3
100
AcDbEntity
8
1
62
256
6
ByLayer
370
-1
48
1
60
0
100
AcDbEllipse
10
121.01652
20
-15.101592
30
0
11
4.05583272606579
21
0.354839384688108
31
0
210
0
220
0
230
1
40
0.985433
41
0
42
6.28318530717959
0
ELLIPSE
5
A4
100
AcDbEntity
8
1
62
256
6
ByLayer
370
-1
48
1
60
0
100
AcDbEllipse
10
127.120063
20
-21.117454
30
0
11
0.790978590284763
21
0.0692016597416151
31
0
210
0
220
0
230
1
40
0.985433
41
-1.74532925199481
42
-4.72221703166261E-13
0
ELLIPSE
5
A5
100
AcDbEntity
8
1
62
256
6
ByLayer
370
-1
48
1
60
0
100
AcDbEllipse
10
121.000313
20
-14.916348
30
0
11
-3.92153120152574
21
-0.34308952379668
31
0
210
0
220
0
230
1
40
0.985433
41
-0.779209239662114
42
-1.37376648405978E-15
0
ELLIPSE
5
A6
100
AcDbEntity
8
1
62
256
6
ByLayer
370
-1
48
1
60
0
100
AcDbEllipse
10
121.000313
20
-14.916348
30
0
11
-3.92153120152574
21
-0.34308952379668
31
0
210
0
220
0
230
1
40
0.985433
41
0
42
3.05304281359181
0
ELLIPSE
5
A7
100
AcDbEntity
8
1
62
256
6
ByLayer
370
-1
48
1
60
0
100
AcDbEllipse
10
121.000313
20
-14.916348
30
0
11
-3.92153120152574
21
-0.34308952379668
31
0
210
0
220
0
230
1
40
0.985433
41
3.05304278792966
42
-2.36227747906932
0
ELLIPSE
5
A8
100
AcDbEntity
8
1
62
256
6
ByLayer
370
-1
48
1
60
0
100
AcDbEllipse
10
115.882066
20
-20.162472
30
0
11
0.790978590284706
21
0.0692016597416101
31
0
210
0
220
0
230
1
40
0.985433
41
3.14159265358948
42
-1.74532925199475
0
ELLIPSE
5
A9
100
AcDbEntity
8
1
62
256
6
ByLayer
370
-1
48
1
60
0
100
AcDbEllipse
10
114.842424
20
-8.2793
30
0
11
0.239934989128215
21
0.0209915915319291
31
0
210
0
220
0
230
1
40
0.985433
41
1.91181796696665
42
2.37871725222026
0
ELLIPSE
5
AA
100
AcDbEntity
8
1
62
256
6
ByLayer
370
-1
48
1
60
0
100
AcDbEllipse
10
121.013636
20
-15.068629
30
0
11
1.67012041135081
21
0.14611660271641
31
0
210
0
220
0
230
1
40
0.985433
41
2.26892802759264
42
-2.96985027607165
0
ELLIPSE
5
AB
100
AcDbEntity
8
1
62
256
6
ByLayer
370
-1
48
1
60
0
100
AcDbEllipse
10
122.809755
20
-15.204257
30
0
11
-0.683389562890938
21
-0.0597888395248903
31
0
210
0
220
0
230
1
40
0.985433
41
-1.13445176786035
42
-0.350461124239531
0
ELLIPSE
5
AC
100
AcDbEntity
8
1
62
256
6
ByLayer
370
-1
48
1
60
0
100
AcDbEllipse
10
120.98325
20
-14.721321
30
0
11
-1.2019089032477
21
-0.105153403625045
31
0
210
0
220
0
230
1
40
0.985433
41
2.79113152935022
42
-2.92191898670959
0
ELLIPSE
5
AD
100
AcDbEntity
8
1
62
256
6
ByLayer
370
-1
48
1
60
0
100
AcDbEllipse
10
120.98325
20
-14.721321
30
0
11
-1.2019089032477
21
-0.105153403625045
31
0
210
0
220
0
230
1
40
0.985433
41
-0.00109458142330803
42
0.629099067385753
0
ELLIPSE
5
AE
100
AcDbEntity
8
1
62
256
6
ByLayer
370
-1
48
1
60
0
100
AcDbEllipse
10
120.98325
20
-14.721321
30
0
11
-1.2019089032477
21
-0.105153403625045
31
0
210
0
220
0
230
1
40
0.985433
41
0.767164334209859
42
1.74672452583503
0
ELLIPSE
5
AF
100
AcDbEntity
8
1
62
256
6
ByLayer
370
-1
48
1
60
0
100
AcDbEllipse
10
121.013636
20
-15.068629
30
0
11
1.67012041135081
21
0.14611660271641
31
0
210
0
220
0
230
1
40
0.985433
41
0.171742377518033
42
1.22452102407733
0
ELLIPSE
5
B0
100
AcDbEntity
8
1
62
256
6
ByLayer
370
-1
48
1
60
0
100
AcDbEllipse
10
122.32187
20
-14.370153
30
0
11
-0.29088885184279
21
-0.025449476882315
31
0
210
0
220
0
230
1
40
0.985433
41
2.00714088572916
42
2.48541982967873
0
ELLIPSE
5
B1
100
AcDbEntity
8
1
62
256
6
ByLayer
370
-1
48
1
60
0
100
AcDbEllipse
10
120.98325
20
-14.721321
30
0
11
-1.2019089032477
21
-0.105153403625045
31
0
210
0
220
0
230
1
40
0.985433
41
-2.24974836036572
42
-1.8005583823288
0
ELLIPSE
5
B2
100
AcDbEntity
8
1
62
256
6
ByLayer
370
-1
48
1
60
0
100
AcDbEllipse
10
121.47325
20
-16.521611
30
0
11
-0.683389562890938
21
-0.0597888395248903
31
0
210
0
220
0
230
1
40
0.985433
41
-1.39486812775476
42
-0.610877484134098
0
ELLIPSE
5
B3
100
AcDbEntity
8
1
62
256
6
ByLayer
370
-1
48
1
60
0
100
AcDbEllipse
10
121.013636
20
-15.068629
30
0
11
2.39086727542025
21
0.20917378259433
31
0
210
0
220
0
230
1
40
0.985433
41
0
42
6.28318530717959
0
ELLIPSE
5
B4
100
AcDbEntity
8
1
62
256
6
ByLayer
370
-1
48
1
60
0
100
AcDbEllipse
10
119.649128
20
-16.036327
30
0
11
-0.683389562890938
21
-0.0597888395248903
31
0
210
0
220
0
230
1
40
0.985433
41
-3.14158867355769
42
-2.5650749940091
0
ELLIPSE
5
B5
100
AcDbEntity
8
1
62
256
6
ByLayer
370
-1
48
1
60
0
100
AcDbEllipse
10
120.98325
20
-14.721321
30
0
11
-1.2019089032477
21
-0.105153403625045
31
0
210
0
220
0
230
1
40
0.985433
41
-0.92392206613126
42
-0.440247064834546
0
ELLIPSE
5
B6
100
AcDbEntity
8
1
62
256
6
ByLayer
370
-1
48
1
60
0
100
AcDbEllipse
10
119.649128
20
-16.036327
30
0
11
-0.683389562890938
21
-0.0597888395248903
31
0
210
0
220
0
230
1
40
0.985433
41
-2.3218469115748
42
-1.65219961787059
0
ELLIPSE
5
B7
100
AcDbEntity
8
1
62
256
6
ByLayer
370
-1
48
1
60
0
100
AcDbEllipse
10
121.960893
20
-15.68492
30
0
11
-0.29088885184279
21
-0.025449476882315
31
0
210
0
220
0
230
1
40
0.985433
41
0.962733882213953
42
2.47795865757429
0
ELLIPSE
5
B8
100
AcDbEntity
8
1
62
256
6
ByLayer
370
-1
48
1
60
0
100
AcDbEllipse
10
121.47325
20
-16.521611
30
0
11
-0.683389562890938
21
-0.0597888395248903
31
0
210
0
220
0
230
1
40
0.985433
41
-2.17885877137547
42
-1.39486812775476
0
ELLIPSE
5
B9
100
AcDbEntity
8
1
62
256
6
ByLayer
370
-1
48
1
60
0
100
AcDbEllipse
10
120.98992
20
-14.797559
30
0
11
3.41196684096423
21
0.29850841891065
31
0
210
0
220
0
230
1
40
0.985433
41
3.05304285669533
42
-3.1415887069729
0
ELLIPSE
5
BA
100
AcDbEntity
8
1
62
256
6
ByLayer
370
-1
48
1
60
0
100
AcDbEllipse
10
120.98992
20
-14.797559
30
0
11
3.41196684096423
21
0.29850841891065
31
0
210
0
220
0
230
1
40
0.985433
41
0
42
3.05304296319483
0
ELLIPSE
5
BB
100
AcDbEntity
8
1
62
256
6
ByLayer
370
-1
48
1
60
0
100
AcDbEllipse
10
121.013636
20
-15.068629
30
0
11
1.67012041135081
21
0.14611660271641
31
0
210
0
220
0
230
1
40
0.985433
41
-1.91707162951233
42
-0.872664625997117
0
ELLIPSE
5
BC
100
AcDbEntity
8
1
62
256
6
ByLayer
370
-1
48
1
60
0
100
AcDbEllipse
10
119.156746
20
-14.238385
30
0
11
-0.683389562890938
21
-0.0597888395248903
31
0
210
0
220
0
230
1
40
0.985433
41
-3.14158516850577
42
-2.8221211992854
0
ELLIPSE
5
BD
100
AcDbEntity
8
1
62
256
6
ByLayer
370
-1
48
1
60
0
100
AcDbEllipse
10
120.98325
20
-14.721321
30
0
11
1.2019089032477
21
0.105153403625022
31
0
210
0
220
0
230
1
40
0.985433
41
-1.39486812775472
42
-0.350461124239546
0
ELLIPSE
5
BE
100
AcDbEntity
8
1
62
256
6
ByLayer
370
-1
48
1
60
0
100
AcDbEllipse
10
121.007681
20
-15.000564
30
0
11
3.41196684096423
21
0.298508418910651
31
0
210
0
220
0
230
1
40
0.985433
41
0
42
6.28318530717959
0
ELLIPSE
5
BF
100
AcDbEntity
8
1
62
256
6
ByLayer
370
-1
48
1
60
0
100
AcDbEllipse
10
120.626995
20
-16.040741
30
0
11
-0.29088885184279
21
-0.025449476882315
31
0
210
0
220
0
230
1
40
0.985433
41
0.170609261048858
42
2.53071516945595
0
ELLIPSE
5
C0
100
AcDbEntity
8
1
62
256
6
ByLayer
370
-1
48
1
60
0
100
AcDbEllipse
10
121.013636
20
-15.068629
30
0
11
1.67012041135081
21
0.14611660271641
31
0
210
0
220
0
230
1
40
0.985433
41
1.22452102407733
42
2.26892802759264
0
ELLIPSE
5
C1
100
AcDbEntity
8
1
62
256
6
ByLayer
370
-1
48
1
60
0
100
AcDbEllipse
10
120.98325
20
-14.721321
30
0
11
1.2019089032477
21
0.105153403625022
31
0
210
0
220
0
230
1
40
0.985433
41
-2.51249358620399
42
-2.3744283193799
0
ELLIPSE
5
C2
100
AcDbEntity
8
1
62
256
6
ByLayer
370
-1
48
1
60
0
100
AcDbEllipse
10
121.013636
20
-15.068629
30
0
11
1.67012041135081
21
0.14611660271641
31
0
210
0
220
0
230
1
40
0.985433
41
-2.96985027607165
42
-1.91707162951233
0
ELLIPSE
5
C3
100
AcDbEntity
8
1
62
256
6
ByLayer
370
-1
48
1
60
0
100
AcDbEllipse
10
119.644631
20
-15.072489
30
0
11
-0.29088885184279
21
-0.025449476882315
31
0
210
0
220
0
230
1
40
0.985433
41
0.642792533949195
42
1.4893930357189
0
ELLIPSE
5
C4
100
AcDbEntity
8
1
62
256
6
ByLayer
370
-1
48
1
60
0
100
AcDbEllipse
10
121.009614
20
-15.022656
30
0
11
1.20190890324769
21
0.105153403625022
31
0
210
0
220
0
230
1
40
0.985433
41
-2.51249358620401
42
-2.37442831937991
0
ELLIPSE
5
C5
100
AcDbEntity
8
1
62
256
6
ByLayer
370
-1
48
1
60
0
100
AcDbEllipse
10
121.013636
20
-15.068629
30
0
11
1.67012041135081
21
0.14611660271641
31
0
210
0
220
0
230
1
40
0.985433
41
-0.872664625997117
42
0.171742377518032
0
ELLIPSE
5
C6
100
AcDbEntity
8
1
62
256
6
ByLayer
370
-1
48
1
60
0
100
AcDbEllipse
10
121.009614
20
-15.022656
30
0
11
1.20190890324769
21
0.105153403625022
31
0
210
0
220
0
230
1
40
0.985433
41
0.629099067385917
42
0.767164334209493
0
ELLIPSE
5
C7
100
AcDbEntity
8
1
62
256
6
ByLayer
370
-1
48
1
60
0
100
AcDbEllipse
10
122.809755
20
-15.204257
30
0
11
-0.683389562890938
21
-0.0597888395248903
31
0
210
0
220
0
230
1
40
0.985433
41
-0.350461124239531
42
7.4006761435406E-06
0
ELLIPSE
5
C8
100
AcDbEntity
8
1
62
256
6
ByLayer
370
-1
48
1
60
0
100
AcDbEllipse
10
115.195683
20
-8.724398
30
0
11
-0.796955758473397
21
-0.0697245941981228
31
0
210
0
220
0
230
1
40
0.985433
41
-1.74532925199438
42
-1.07937693920132
0
ELLIPSE
5
C9
100
AcDbEntity
8
1
62
256
6
ByLayer
370
-1
48
1
60
0
100
AcDbEllipse
10
115.141656
20
-8.106869
30
0
11
0.796955758473398
21
0.0697245941981083
31
0
210
0
220
0
230
1
40
0.985433
41
1.39626340159549
42
-3.14159265358978
0
POINT
5
41
100
AcDbEntity
8
80
62
256
6
ByLayer
370
-1
48
1
60
0
100
AcDbPoint
10
0
20
0
30
0
39
0
210
0
220
0
230
1
50
360
0
POINT
5
43
100
AcDbEntity
8
81
62
256
6
ByLayer
370
-1
48
1
60
0
100
AcDbPoint
10
127.914
20
-21.9
30
0
39
0
210
0
220
0
230
1
50
360
0
POINT
5
45
100
AcDbEntity
8
1
62
256
6
ByLayer
370
-1
48
1
60
0
100
AcDbPoint
10
-173.336
20
0
30
0
39
0
210
0
220
0
230
1
50
360
0
POINT
5
47
100
AcDbEntity
8
2
62
256
6
ByLayer
370
-1
48
1
60
0
100
AcDbPoint
10
127.914
20
21.9
30
0
39
0
210
0
220
0
230
1
50
360
0
SPLINE
5
CA
100
AcDbEntity
8
1
62
256
6
ByLayer
370
-1
48
1
60
0
100
AcDbSpline
70
4
71
3
72
16
73
12
40
0
40
0
40
0
40
0
40
0.0316970998516709
40
0.0622516678371499
40
0.104266021495775
40
0.180953921312571
40
0.284831680530438
40
0.41978976218911
40
0.589240120310362
40
0.787364961612103
40
1
40
1
40
1
40
1
41
1
10
114.655686226124
20
-8.13024584280791
30
0
41
1
10
114.658646342695
20
-8.12793142960234
30
0
41
1
10
114.648950958921
20
-8.14300599283538
30
0
41
1
10
114.640518089668
20
-8.15695226967671
30
0
41
1
10
114.622522301508
20
-8.18346936164593
30
0
41
1
10
114.595591947418
20
-8.22122272171677
30
0
41
1
10
114.555315733432
20
-8.27502470043947
30
0
41
1
10
114.503364322181
20
-8.34183789310475
30
0
41
1
10
114.440122157371
20
-8.42074062076108
30
0
41
1
10
114.369821440567
20
-8.50629570317804
30
0
41
1
10
114.323801823036
20
-8.56164046403069
30
0
41
1
10
114.300844481785
20
-8.58896357709443
30
0
0
SPLINE
5
CB
100
AcDbEntity
8
1
62
256
6
ByLayer
370
-1
48
1
60
0
100
AcDbSpline
70
4
71
3
72
10
73
6
40
0
40
0
40
0
40
0
40
0.418915715092418
40
0.807869427503638
40
1
40
1
40
1
40
1
41
1
10
126.667556923915
20
-9.44520742096444
30
0
41
1
10
126.633858394157
20
-9.41689827374722
30
0
41
1
10
126.570820340258
20
-9.36347636366401
30
0
41
1
10
126.497675079015
20
-9.30058312719336
30
0
41
1
10
126.456913824373
20
-9.26482659197757
30
0
41
1
10
126.443599214873
20
-9.25304239550908
30
0
0
SPLINE
5
CC
100
AcDbEntity
8
1
62
256
6
ByLayer
370
-1
48
1
60
0
100
AcDbSpline
70
4
71
3
72
8
73
4
40
0
40
0
40
0
40
0
40
1
40
1
40
1
40
1
41
1
10
109.223341410245
20
-18.7014830409999
30
0
41
1
10
109.425738294273
20
-18.9317000707425
30
0
41
1
10
109.628219940238
20
-19.1618446726149
30
0
41
1
10
109.83077744
20
-19.3919243235312
30
0
0
SPLINE
5
CD
100
AcDbEntity
8
1
62
256
6
ByLayer
370
-1
48
1
60
0
100
AcDbSpline
70
4
71
3
72
8
73
4
40
0
40
0
40
0
40
0
40
1
40
1
40
1
40
1
41
1
10
106.764662111822
20
-15.8886726082264
30
0
41
1
10
106.349947435043
20
-15.8865582515999
30
0
41
1
10
105.935732234441
20
-15.8839730522128
30
0
41
1
10
105.522292660475
20
-15.8807652204753
30
0
0
SPLINE
5
CE
100
AcDbEntity
8
1
62
256
6
ByLayer
370
-1
48
1
60
0
100
AcDbSpline
70
4
71
3
72
8
73
4
40
0
40
0
40
0
40
0
40
1
40
1
40
1
40
1
41
1
10
113.191122481216
20
-9.64869869333253
30
0
41
1
10
113.246583870394
20
-9.62679014296316
30
0
41
1
10
113.314413738382
20
-9.59234407688862
30
0
41
1
10
113.391639493423
20
-9.54582370334342
30
0
0
SPLINE
5
CF
100
AcDbEntity
8
1
62
256
6
ByLayer
370
-1
48
1
60
0
100
AcDbSpline
70
4
71
3
72
8
73
4
40
0
40
0
40
0
40
0
40
1
40
1
40
1
40
1
41
1
10
103.905777438966
20
13.6023334047297
30
0
41
1
10
104.847185528936
20
13.7815030938666
30
0
41
1
10
105.801417794222
20
13.9339373234435
30
0
41
1
10
106.764662111822
20
14.064253479884
30
0
0
SPLINE
5
D0
100
AcDbEntity
8
1
62
256
6
ByLayer
370
-1
48
1
60
0
100
AcDbSpline
70
4
71
3
72
8
73
4
40
0
40
0
40
0
40
0
40
1
40
1
40
1
40
1
41
1
10
106.771062829732
20
14.0723869515367
30
0
41
1
10
106.768929171208
20
14.0696758626
30
0
41
1
10
106.766795598532
20
14.0669647054079
30
0
41
1
10
106.764662111822
20
14.0642534798843
30
0
0
SPLINE
5
D1
100
AcDbEntity
8
1
62
256
6
ByLayer
370
-1
48
1
60
0
100
AcDbSpline
70
4
71
3
72
8
73
4
40
0
40
0
40
0
40
0
40
1
40
1
40
1
40
1
41
1
10
115.058625918619
20
-19.8614638521914
30
0
41
1
10
113.315989362507
20
-19.705165490964
30
0
41
1
10
111.573372652375
20
-19.5486578135371
30
0
41
1
10
109.83077744
20
-19.3919243235313
30
0
0
SPLINE
5
D2
100
AcDbEntity
8
1
62
256
6
ByLayer
370
-1
48
1
60
0
100
AcDbSpline
70
4
71
3
72
10
73
6
40
0
40
0
40
0
40
0
40
0.5
40
0.5
40
1
40
1
40
1
40
1
41
1
10
83.2968497965087
20
-5.53679650723265
30
0
41
1
10
83.1608972595471
20
-7.30993420699335
30
0
41
1
10
83.4086783872597
20
-9.00312406257592
30
0
41
1
10
84.7690268669645
20
-11.7465573798964
30
0
41
1
10
85.8543885307608
20
-12.7717816357859
30
0
41
1
10
87.1623360846445
20
-13.5107500000007
30
0
0
SPLINE
5
D3
100
AcDbEntity
8
1
62
256
6
ByLayer
370
-1
48
1
60
0
100
AcDbSpline
70
4
71
3
72
10
73
6
40
0
40
0
40
0
40
0
40
0.5
40
0.5
40
1
40
1
40
1
40
1
41
1
10
103.830777438966
20
13.6635089695647
30
0
41
1
10
100.816994872884
20
13.0856004674841
30
0
41
1
10
97.9879174764682
20
12.2517502484524
30
0
41
1
10
92.7075846162402
20
9.6637219865957
30
0
41
1
10
90.2695016540424
20
7.89191120718147
30
0
41
1
10
88.2297717326028
20
5.53679650723211
30
0
0
SPLINE
5
D4
100
AcDbEntity
8
1
62
256
6
ByLayer
370
-1
48
1
60
0
100
AcDbSpline
70
4
71
3
72
8
73
4
40
0
40
0
40
0
40
0
40
1
40
1
40
1
40
1
41
1
10
106.764662111822
20
-15.8886726082266
30
0
41
1
10
107.575524890233
20
-16.8242652152337
30
0
41
1
10
108.397110727232
20
-17.7616841175207
30
0
41
1
10
109.223341410245
20
-18.7014830409999
30
0
0
SPLINE
5
D5
100
AcDbEntity
8
1
62
256
6
ByLayer
370
-1
48
1
60
0
100
AcDbSpline
70
4
71
3
72
36
73
32
40
-0.125000000000001
40
-0.125000000000001
40
0
40
0
40
0.125000000000001
40
0.125000000000001
40
0.187499999999999
40
0.187499999999999
40
0.218749999999998
40
0.218749999999998
40
0.249999999999997
40
0.249999999999997
40
0.312499999999995
40
0.312499999999995
40
0.374999999999992
40
0.374999999999992
40
0.499999999999992
40
0.499999999999992
40
0.624999999999992
40
0.624999999999992
40
0.687499999999992
40
0.687499999999992
40
0.718749999999992
40
0.718749999999992
40
0.734374999999992
40
0.734374999999992
40
0.749999999999992
40
0.749999999999992
40
0.812499999999995
40
0.812499999999995
40
0.874999999999999
40
0.874999999999999
40
1
40
1
40
1.125
40
1.125
41
1
10
102.335138914189
20
-7.94766738893631
30
0
41
1
10
100.394431662329
20
-7.01210540277637
30
0
41
1
10
99.4074063898763
20
-6.631965246151
30
0
41
1
10
97.8212490584909
20
-6.40972105814834
30
0
41
1
10
97.2793294467962
20
-6.38913599184352
30
0
41
1
10
96.4903709011237
20
-6.63052612592889
30
0
41
1
10
96.2291853911541
20
-6.7644933047612
30
0
41
1
10
95.8533902845849
20
-7.19887151148126
30
0
41
1
10
95.7683948392448
20
-7.49937917936805
30
0
41
1
10
95.8300481875809
20
-8.32126761307285
30
0
41
1
10
96.1589654915529
20
-8.76871363405971
30
0
41
1
10
96.868859628813
20
-9.51463419494297
30
0
41
1
10
97.2878535000801
20
-9.82754248776729
30
0
41
1
10
98.6132304116347
20
-10.6550089662811
30
0
41
1
10
99.5908757279694
20
-11.0641055599919
30
0
41
1
10
101.649100151922
20
-11.7403853610838
30
0
41
1
10
102.711641850933
20
-12.0021666070407
30
0
41
1
10
104.364367382169
20
-12.248375229927
30
0
41
1
10
104.928924373666
20
-12.3120555963065
30
0
41
1
10
105.776273097539
20
-12.2789953980715
30
0
41
1
10
106.06903846948
20
-12.2593732360531
30
0
41
1
10
106.451024541555
20
-12.053192670121
30
0
41
1
10
106.556431001393
20
-11.9350380255407
30
0
41
1
10
106.593884651087
20
-11.6529119068288
30
0
41
1
10
106.545977437679
20
-11.5138497417655
30
0
41
1
10
106.242916652844
20
-10.886259553855
30
0
41
1
10
105.817315075231
20
-10.5054573926388
30
0
41
1
10
104.997466253688
20
-9.77366262261523
30
0
41
1
10
104.567584170273
20
-9.44044079666429
30
0
41
1
10
103.248318856509
20
-8.49766987859397
30
0
41
1
10
102.335138914189
20
-7.94766738893631
30
0
41
1
10
100.394431662329
20
-7.01210540277637
30
0
0
SPLINE
5
D6
100
AcDbEntity
8
1
62
256
6
ByLayer
370
-1
48
1
60
0
100
AcDbSpline
70
4
71
3
72
8
73
4
40
0
40
0
40
0
40
0
40
1
40
1
40
1
40
1
41
1
10
103.830777438966
20
13.6635089695643
30
0
41
1
10
103.855776090289
20
13.6431395542048
30
0
41
1
10
103.880776084802
20
13.6227476811029
30
0
41
1
10
103.905777438966
20
13.6023334047298
30
0
0
SPLINE
5
D7
100
AcDbEntity
8
1
62
256
6
ByLayer
370
-1
48
1
60
0
100
AcDbSpline
70
4
71
3
72
8
73
4
40
0
40
0
40
0
40
0
40
1
40
1
40
1
40
1
41
1
10
106.764662111822
20
14.0787104025629
30
0
41
1
10
106.766792175167
20
14.0766060524838
30
0
41
1
10
106.768925749871
20
14.074498233432
30
0
41
1
10
106.771062829732
20
14.0723869515367
30
0
0
SPLINE
5
D8
100
AcDbEntity
8
1
62
256
6
ByLayer
370
-1
48
1
60
0
100
AcDbSpline
70
4
71
3
72
22
73
18
40
0
40
0
40
0
40
0
40
0.00090645814587
40
0.00090645814587
40
0.0021049163127457
40
0.0021049163127457
40
0.0043270336371073
40
0.0043270336371073
40
0.0139089941401017
40
0.0139089941401017
40
0.0517514339533003
40
0.0517514339533003
40
0.202429681839608
40
0.202429681839608
40
0.804474776315401
40
0.804474776315401
40
1
40
1
40
1
40
1
41
1
10
126.221167697534
20
-9.26108108901195
30
0
41
1
10
126.221346057246
20
-9.26109624564575
30
0
41
1
10
126.221525615882
20
-9.26110990674937
30
0
41
1
10
126.221911570359
20
-9.26113618736321
30
0
41
1
10
126.222115037416
20
-9.26114765379725
30
0
41
1
10
126.222633941174
20
-9.26117256002146
30
0
41
1
10
126.222913599912
20
-9.2611805646585
30
0
41
1
10
126.2242076867
20
-9.26120410684382
30
0
41
1
10
126.224806352657
20
-9.26117141087212
30
0
41
1
10
126.227512762054
20
-9.2609965139244
30
0
41
1
10
126.228512523412
20
-9.26074202795411
30
0
41
1
10
126.233423644883
20
-9.25948310087014
30
0
41
1
10
126.234998455218
20
-9.2582610210259
30
0
41
1
10
126.242874523703
20
-9.25217162959962
30
0
41
1
10
126.244514165081
20
-9.24688940281391
30
0
41
1
10
126.246693479456
20
-9.23989612049948
30
0
41
1
10
126.247166598565
20
-9.23817640992527
30
0
41
1
10
126.247583543732
20
-9.23645183234726
30
0
0
SPLINE
5
D9
100
AcDbEntity
8
1
62
256
6
ByLayer
370
-1
48
1
60
0
100
AcDbSpline
70
4
71
3
72
54
73
50
40
0
40
0
40
0
40
0
40
0.0009395303205143
40
0.0009395303205143
40
0.159630091142384
40
0.159630091142384
40
0.332733218111967
40
0.332733218111967
40
0.508295793690103
40
0.508295793690103
40
0.683858757023622
40
0.683858757023622
40
0.788351756165682
40
0.788351756165682
40
0.858267149574424
40
0.858267149574424
40
0.905050321651571
40
0.905050321651571
40
0.936358172277478
40
0.936358172277478
40
0.957313127492516
40
0.957313127492516
40
0.971342065618315
40
0.971342065618315
40
0.980737555104677
40
0.980737555104677
40
0.987033320431496
40
0.987033320431496
40
0.9912554282688
40
0.9912554282688
40
0.994090331943554
40
0.994090331943554
40
0.99599729596516
40
0.99599729596516
40
0.997283613196537
40
0.997283613196537
40
0.998154934151459
40
0.998154934151459
40
0.998748952786169
40
0.998748952786169
40
0.999157969527322
40
0.999157969527322
40
0.99957416629172
40
0.99957416629172
40
0.999745122506251
40
0.999745122506251
40
0.999919706764123
40
0.999919706764123
40
1
40
1
40
1
40
1
41
1
10
114.742682815725
20
-8.0634970580621
30
0
41
1
10
114.74273965633
20
-8.06357151975104
30
0
41
1
10
114.74279650129
20
-8.0636459818075
30
0
41
1
10
114.752455434768
20
-8.07629745421329
30
0
41
1
10
114.76218067745
20
-8.0888848612843
30
0
41
1
10
114.782848681714
20
-8.11523107636401
30
0
41
1
10
114.793819982332
20
-8.12899229883311
30
0
41
1
10
114.816456598445
20
-8.15675560374345
30
0
41
1
10
114.828124622375
20
-8.17075793193393
30
0
41
1
10
114.852320524042
20
-8.19883495541217
30
0
41
1
10
114.864827774329
20
-8.21290797065913
30
0
41
1
10
114.88607594967
20
-8.23546593290928
30
0
41
1
10
114.894289517166
20
-8.24390665306305
30
0
41
1
10
114.908884578044
20
-8.25806914205521
30
0
41
1
10
114.914968942011
20
-8.26376607941009
30
0
41
1
10
114.925849300157
20
-8.27333552200815
30
0
41
1
10
114.930402266297
20
-8.27718779340589
30
0
41
1
10
114.938595074744
20
-8.28366731026605
30
0
41
1
10
114.942036130563
20
-8.28627808176114
30
0
41
1
10
114.948265593975
20
-8.29067639975315
30
0
41
1
10
114.950891390174
20
-8.29245054685074
30
0
41
1
10
114.955672339145
20
-8.29544507630385
30
0
41
1
10
114.957694455651
20
-8.29665457321707
30
0
41
1
10
114.961396177575
20
-8.29870061009629
30
0
41
1
10
114.962966921037
20
-8.29952831998622
30
0
41
1
10
114.965856871333
20
-8.3009321870945
30
0
41
1
10
114.967086970233
20
-8.30150119451491
30
0
41
1
10
114.969360843231
20
-8.30246924266021
30
0
41
1
10
114.970331645054
20
-8.30286250719206
30
0
41
1
10
114.972134173282
20
-8.30353395422546
30
0
41
1
10
114.972906101018
20
-8.30380748364206
30
0
41
1
10
114.974345534024
20
-8.30427643086108
30
0
41
1
10
114.974963990429
20
-8.30446811454013
30
0
41
1
10
114.976122251783
20
-8.30479831444478
30
0
41
1
10
114.976621777835
20
-8.30493385001128
30
0
41
1
10
114.977561658863
20
-8.30516861788848
30
0
41
1
10
114.977968896852
20
-8.3052654904875
30
0
41
1
10
114.978739215574
20
-8.3054343614202
30
0
41
1
10
114.979075056856
20
-8.30550451803407
30
0
41
1
10
114.979714420348
20
-8.30562772097946
30
0
41
1
10
114.979995605659
20
-8.30567936978758
30
0
41
1
10
114.980635332386
20
-8.30578780467795
30
0
41
1
10
114.980994630553
20
-8.30584507590447
30
0
41
1
10
114.981620492288
20
-8.30593124258471
30
0
41
1
10
114.98181990175
20
-8.30595728745456
30
0
41
1
10
114.982264207699
20
-8.30601054721456
30
0
41
1
10
114.982518093974
20
-8.30603865757374
30
0
41
1
10
114.982912355943
20
-8.30607693310566
30
0
41
1
10
114.983042681311
20
-8.30608882477412
30
0
41
1
10
114.983171624518
20
-8.30609978209711
30
0
0
SPLINE
5
DA
100
AcDbEntity
8
1
62
256
6
ByLayer
370
-1
48
1
60
0
100
AcDbSpline
70
4
71
3
72
14
73
10
40
0
40
0
40
0
40
0
40
0.221657415528617
40
0.221657415528617
40
0.515772043248292
40
0.515772043248292
40
0.781455574487507
40
0.781455574487507
40
1
40
1
40
1
40
1
41
1
10
119.780934975975
20
-14.2300837578376
30
0
41
1
10
119.768133402096
20
-14.2100091189491
30
0
41
1
10
119.758146451219
20
-14.1876024607417
30
0
41
1
10
119.743305806686
20
-14.1324058926918
30
0
41
1
10
119.74104640067
20
-14.0976368644139
30
0
41
1
10
119.750709759658
20
-14.0316870929195
30
0
41
1
10
119.761497538563
20
-13.9994808084301
30
0
41
1
10
119.791478260297
20
-13.945428352431
30
0
41
1
10
119.809204057495
20
-13.9221038285931
30
0
41
1
10
119.829801940013
20
-13.9018011006618
30
0
0
SPLINE
5
DB
100
AcDbEntity
8
1
62
256
6
ByLayer
370
-1
48
1
60
0
100
AcDbSpline
70
4
71
3
72
18
73
14
40
0
40
0
40
0
40
0
40
0.0187922474321545
40
0.0187922474321545
40
0.242700629847379
40
0.242700629847379
40
0.466846175061602
40
0.466846175061602
40
0.703369868299979
40
0.703369868299979
40
0.961926899345265
40
0.961926899345265
40
1
40
1
40
1
40
1
41
1
10
119.829801940013
20
-13.9018011006618
30
0
41
1
10
119.831590389061
20
-13.9000382789534
30
0
41
1
10
119.833401948161
20
-13.8982954505714
30
0
41
1
10
119.856824869873
20
-13.8763004990753
30
0
41
1
10
119.881874012876
20
-13.8587501236961
30
0
41
1
10
119.934648704615
20
-13.8317059562289
30
0
41
1
10
119.963043253611
20
-13.8218566159799
30
0
41
1
10
120.020946937734
20
-13.8100084459341
30
0
41
1
10
120.051152735206
20
-13.8082958344408
30
0
41
1
10
120.110989525242
20
-13.8130986720182
30
0
41
1
10
120.141061181249
20
-13.8204220072555
30
0
41
1
10
120.172106701825
20
-13.8331986971843
30
0
41
1
10
120.176071370112
20
-13.834940014283
30
0
41
1
10
120.179973277987
20
-13.8367634214886
30
0
0
SPLINE
5
DC
100
AcDbEntity
8
1
62
256
6
ByLayer
370
-1
48
1
60
0
100
AcDbSpline
70
4
71
3
72
18
73
14
40
0
40
0
40
0
40
0
40
0.209967632193702
40
0.209967632193702
40
0.38451440547082
40
0.38451440547082
40
0.560771839823443
40
0.560771839823443
40
0.713805678821595
40
0.713805678821595
40
0.91620037982655
40
0.91620037982655
40
1
40
1
40
1
40
1
41
1
10
121.1156113126
20
-13.5871788432746
30
0
41
1
10
121.079929919192
20
-13.6409234475719
30
0
41
1
10
121.033667814486
20
-13.691624032011
30
0
41
1
10
120.93194093526
20
-13.7724007999883
30
0
41
1
10
120.87808532774
20
-13.8053431558505
30
0
41
1
10
120.760819773107
20
-13.8579409973836
30
0
41
1
10
120.695495506325
20
-13.8781275991168
30
0
41
1
10
120.573889813068
20
-13.8999749769263
30
0
41
1
10
120.516111850079
20
-13.9040446066603
30
0
41
1
10
120.38866161468
20
-13.899861459188
30
0
41
1
10
120.318930777803
20
-13.887322351194
30
0
41
1
10
120.229626716074
20
-13.8581497658574
30
0
41
1
10
120.204244664743
20
-13.8481057245165
30
0
41
1
10
120.179973277987
20
-13.8367634214887
30
0
0
SPLINE
5
DD
100
AcDbEntity
8
1
62
256
6
ByLayer
370
-1
48
1
60
0
100
AcDbSpline
70
4
71
3
72
18
73
14
40
0
40
0
40
0
40
0
40
0.19780068359276
40
0.19780068359276
40
0.374559654147788
40
0.374559654147788
40
0.553171489692027
40
0.553171489692027
40
0.706726562528802
40
0.706726562528802
40
0.907042009954073
40
0.907042009954073
40
1
40
1
40
1
40
1
41
1
10
122.243107304397
20
-15.870259160749
30
0
41
1
10
122.209803823435
20
-15.8080191574811
30
0
41
1
10
122.183928925435
20
-15.7396382723737
30
0
41
1
10
122.154102019575
20
-15.6046847037434
30
0
41
1
10
122.147934675444
20
-15.5371186568693
30
0
41
1
10
122.15513577911
20
-15.4037586390901
30
0
41
1
10
122.169035959341
20
-15.3360286541294
30
0
41
1
10
122.212023932021
20
-15.222294265204
30
0
41
1
10
122.239145557128
20
-15.1731624172072
30
0
41
1
10
122.31218944192
20
-15.0749449618363
30
0
41
1
10
122.362368706456
20
-15.0285530012565
30
0
41
1
10
122.442239977704
20
-14.97560592819
30
0
41
1
10
122.468879274107
20
-14.960779163773
30
0
41
1
10
122.496307698351
20
-14.9480406107127
30
0
0
SPLINE
5
DE
100
AcDbEntity
8
1
62
256
6
ByLayer
370
-1
48
1
60
0
100
AcDbSpline
70
4
71
3
72
20
73
16
40
0
40
0
40
0
40
0
40
0.0886746722086416
40
0.0886746722086416
40
0.288024069119764
40
0.288024069119764
40
0.449707236219337
40
0.449707236219337
40
0.612177771465374
40
0.612177771465374
40
0.764639312023915
40
0.764639312023915
40
0.981625503040534
40
0.981625503040534
40
1
40
1
40
1
40
1
41
1
10
119.780934975976
20
-14.230083757837
30
0
41
1
10
119.79546350781
20
-14.2528665057164
30
0
41
1
10
119.808467340799
20
-14.2769308134692
30
0
41
1
10
119.84494462923
20
-14.3585639723756
30
0
41
1
10
119.861738965393
20
-14.4218907481975
30
0
41
1
10
119.871796412646
20
-14.5435770583767
30
0
41
1
10
119.868857062774
20
-14.6020130283113
30
0
41
1
10
119.846803674065
20
-14.7184987798174
30
0
41
1
10
119.827253641513
20
-14.778060618333
30
0
41
1
10
119.77669584832
20
-14.8854636204092
30
0
41
1
10
119.745973226458
20
-14.9350793411042
30
0
41
1
10
119.662692106808
20
-15.0426787139451
30
0
41
1
10
119.605062887202
20
-15.0973940176537
30
0
41
1
10
119.538368281011
20
-15.1450040885456
30
0
41
1
10
119.533067541486
20
-15.1486901745224
30
0
41
1
10
119.52773458202
20
-15.152302307874
30
0
0
SPLINE
5
DF
100
AcDbEntity
8
1
62
256
6
ByLayer
370
-1
48
1
60
0
100
AcDbSpline
70
4
71
3
72
14
73
10
40
0
40
0
40
0
40
0
40
0.278307352353374
40
0.278307352353374
40
0.563523371436233
40
0.563523371436233
40
0.821538329835192
40
0.821538329835192
40
1
40
1
40
1
40
1
41
1
10
119.674718444793
20
-15.6888164618021
30
0
41
1
10
119.641844939653
20
-15.6919755072899
30
0
41
1
10
119.607919505266
20
-15.6893144458469
30
0
41
1
10
119.542780666404
20
-15.6713065534962
30
0
41
1
10
119.510661431393
20
-15.6553016781136
30
0
41
1
10
119.458010426735
20
-15.6133159249543
30
0
41
1
10
119.435908941325
20
-15.5877475880147
30
0
41
1
10
119.407883996392
20
-15.5387685895268
30
0
41
1
10
119.398810224842
20
-15.5167177578954
30
0
41
1
10
119.392692975039
20
-15.4938602186939
30
0
0
SPLINE
5
E0
100
AcDbEntity
8
1
62
256
6
ByLayer
370
-1
48
1
60
0
100
AcDbSpline
70
4
71
3
72
16
73
12
40
0
40
0
40
0
40
0
40
0.158367664275139
40
0.158367664275139
40
0.378735531521914
40
0.378735531521914
40
0.607145454993901
40
0.607145454993901
40
0.854104509971727
40
0.854104509971727
40
1
40
1
40
1
40
1
41
1
10
121.445027597883
20
-13.4709342487102
30
0
41
1
10
121.465567432628
20
-13.4762742197979
30
0
41
1
10
121.485628185062
20
-13.4837116470408
30
0
41
1
10
121.530426189237
20
-13.5056713879399
30
0
41
1
10
121.554469333534
20
-13.5221503261208
30
0
41
1
10
121.595923293395
20
-13.5602257355905
30
0
41
1
10
121.613602426255
20
-13.5824486311838
30
0
41
1
10
121.641425769267
20
-13.6308051695237
30
0
41
1
10
121.651219908291
20
-13.6577001549984
30
0
41
1
10
121.659153091758
20
-13.7001961248249
30
0
41
1
10
121.660470272504
20
-13.716113675638
30
0
41
1
10
121.660211024936
20
-13.731774730462
30
0
0
SPLINE
5
E1
100
AcDbEntity
8
1
62
256
6
ByLayer
370
-1
48
1
60
0
100
AcDbSpline
70
4
71
3
72
16
73
12
40
0
40
0
40
0
40
0
40
0.0984050026847175
40
0.0984050026847175
40
0.40669428752488
40
0.40669428752488
40
0.686010043750233
40
0.686010043750233
40
0.932678607120238
40
0.932678607120238
40
1
40
1
40
1
40
1
41
1
10
121.115611312597
20
-13.5871788432736
30
0
41
1
10
121.121554408352
20
-13.5782271376598
30
0
41
1
10
121.128146567584
20
-13.5695281602377
30
0
41
1
10
121.15771006436
20
-13.535250022378
30
0
41
1
10
121.186668698362
20
-13.5121730832347
30
0
41
1
10
121.250098599962
20
-13.4794709661825
30
0
41
1
10
121.284829457599
20
-13.4683371016498
30
0
41
1
10
121.352522941805
20
-13.4591806696875
30
0
41
1
10
121.386216136272
20
-13.4596857894305
30
0
41
1
10
121.427442788357
20
-13.4667584681917
30
0
41
1
10
121.436296552069
20
-13.4686643408563
30
0
41
1
10
121.445027597883
20
-13.4709342487102
30
0
0
SPLINE
5
E2
100
AcDbEntity
8
1
62
256
6
ByLayer
370
-1
48
1
60
0
100
AcDbSpline
70
4
71
3
72
16
73
12
40
0
40
0
40
0
40
0
40
0.0541442886634322
40
0.0541442886634322
40
0.277130698392761
40
0.277130698392761
40
0.502410122771234
40
0.502410122771234
40
0.741735747785812
40
0.741735747785812
40
1
40
1
40
1
40
1
41
1
10
119.392692975039
20
-15.4938602186939
30
0
41
1
10
119.390844811334
20
-15.4869544234936
30
0
41
1
10
119.389254856427
20
-15.4799522628769
30
0
41
1
10
119.382518589409
20
-15.4440222423325
30
0
41
1
10
119.381589790953
20
-15.4136382983846
30
0
41
1
10
119.38849929851
20
-15.3544363061573
30
0
41
1
10
119.396492889991
20
-15.3248815985279
30
0
41
1
10
119.420339861484
20
-15.2686115383133
30
0
41
1
10
119.436922064597
20
-15.2414717523374
30
0
41
1
10
119.477073065541
20
-15.1922126125876
30
0
41
1
10
119.501553033857
20
-15.170035659105
30
0
41
1
10
119.52773458202
20
-15.152302307874
30
0
0
SPLINE
5
E3
100
AcDbEntity
8
1
62
256
6
ByLayer
370
-1
48
1
60
0
100
AcDbSpline
70
4
71
3
72
14
73
10
40
0
40
0
40
0
40
0
40
0.304105542701198
40
0.304105542701198
40
0.595689218791741
40
0.595689218791741
40
0.852169006188069
40
0.852169006188069
40
1
40
1
40
1
40
1
41
1
10
122.243107304397
20
-15.8702591607489
30
0
41
1
10
122.261155945636
20
-15.9039897936205
30
0
41
1
10
122.273930648752
20
-15.9419656946299
30
0
41
1
10
122.284741344713
20
-16.0183990230254
30
0
41
1
10
122.283437355479
20
-16.0580153452344
30
0
41
1
10
122.267144949631
20
-16.1286707029159
30
0
41
1
10
122.253519695072
20
-16.1612124919269
30
0
41
1
10
122.224061396433
20
-16.2062385491824
30
0
41
1
10
122.211447532574
20
-16.2216786164752
30
0
41
1
10
122.197469908451
20
-16.2354559501138
30
0
0
SPLINE
5
E4
100
AcDbEntity
8
1
62
256
6
ByLayer
370
-1
48
1
60
0
100
AcDbSpline
70
4
71
3
72
12
73
8
40
0
40
0
40
0
40
0
40
0.492778677287325
40
0.492778677287325
40
0.898175068833025
40
0.898175068833025
40
1
40
1
40
1
40
1
41
1
10
122.349272279068
20
-14.4109371631648
30
0
41
1
10
122.277791084816
20
-14.4051726692502
30
0
41
1
10
122.203938831126
20
-14.3887505642727
30
0
41
1
10
122.07340331505
20
-14.3387229919615
30
0
41
1
10
122.014574426252
20
-14.3079964381367
30
0
41
1
10
121.946913361611
20
-14.2610010706036
30
0
41
1
10
121.933510040277
20
-14.2510579435688
30
0
41
1
10
121.92045420018
20
-14.2407126832678
30
0
0
SPLINE
5
E5
100
AcDbEntity
8
1
62
256
6
ByLayer
370
-1
48
1
60
0
100
AcDbSpline
70
4
71
3
72
18
73
14
40
0
40
0
40
0
40
0
40
0.0063941242661518
40
0.0063941242661518
40
0.230661331471038
40
0.230661331471038
40
0.454430954932332
40
0.454430954932332
40
0.689978230537304
40
0.689978230537304
40
0.947101262787778
40
0.947101262787778
40
1
40
1
40
1
40
1
41
1
10
122.634578873425
20
-14.6433968320816
30
0
41
1
10
122.634798343437
20
-14.6442168974013
30
0
41
1
10
122.635014106245
20
-14.6450376310383
30
0
41
1
10
122.64256314386
20
-14.6742790151871
30
0
41
1
10
122.645397361706
20
-14.7038459027607
30
0
41
1
10
122.641881755247
20
-14.7603269984299
30
0
41
1
10
122.63552794753
20
-14.7879731287024
30
0
41
1
10
122.614717561046
20
-14.839486237127
30
0
41
1
10
122.599619504154
20
-14.8637358210723
30
0
41
1
10
122.561867411579
20
-14.9068900280025
30
0
41
1
10
122.538202487432
20
-14.9256650936973
30
0
41
1
10
122.507229432749
20
-14.9427390583713
30
0
41
1
10
122.501810047059
20
-14.9454851609232
30
0
41
1
10
122.496307698351
20
-14.9480406107129
30
0
0
SPLINE
5
E6
100
AcDbEntity
8
1
62
256
6
ByLayer
370
-1
48
1
60
0
100
AcDbSpline
70
4
71
3
72
18
73
14
40
0
40
0
40
0
40
0
40
0.0562491611422725
40
0.0562491611422725
40
0.277113892240228
40
0.277113892240228
40
0.500399708821201
40
0.500399708821201
40
0.73772235221752
40
0.73772235221752
40
0.998189834256419
40
0.998189834256419
40
1
40
1
40
1
40
1
41
1
10
120.582244250581
20
-16.6663228020653
30
0
41
1
10
120.574899222604
20
-16.6644132328055
30
0
41
1
10
120.567621805347
20
-16.6621943267168
30
0
41
1
10
120.532506914021
20
-16.6498747865171
30
0
41
1
10
120.505788571677
20
-16.6352736263962
30
0
41
1
10
120.458651360657
20
-16.598971593107
30
0
41
1
10
120.437690432448
20
-16.5767518051536
30
0
41
1
10
120.402699211998
20
-16.5266424286249
30
0
41
1
10
120.388723550837
20
-16.4978762840948
30
0
41
1
10
120.368982577585
20
-16.4359992893859
30
0
41
1
10
120.363868506104
20
-16.4019721866207
30
0
41
1
10
120.363780202301
20
-16.3684467030968
30
0
41
1
10
120.363779829177
20
-16.368212790691
30
0
41
1
10
120.363779698926
20
-16.367978894505
30
0
0
SPLINE
5
E7
100
AcDbEntity
8
1
62
256
6
ByLayer
370
-1
48
1
60
0
100
AcDbSpline
70
4
71
3
72
12
73
8
40
0
40
0
40
0
40
0
40
0.292896216946371
40
0.292896216946371
40
0.753728814279616
40
0.753728814279616
40
1
40
1
40
1
40
1
41
1
10
120.216304947295
20
-15.9204425587077
30
0
41
1
10
120.245512158167
20
-15.9580509538419
30
0
41
1
10
120.270750178296
20
-15.9993358771215
30
0
41
1
10
120.323328952331
20
-16.1089958211177
30
0
41
1
10
120.344536738552
20
-16.1810511778313
30
0
41
1
10
120.360950639903
20
-16.2909027216317
30
0
41
1
10
120.363758336083
20
-16.3296168015029
30
0
41
1
10
120.363779698926
20
-16.367978894505
30
0
0
SPLINE
5
E8
100
AcDbEntity
8
1
62
256
6
ByLayer
370
-1
48
1
60
0
100
AcDbSpline
70
4
71
3
72
14
73
10
40
0
40
0
40
0
40
0
40
0.21139668474414
40
0.21139668474414
40
0.504926748461596
40
0.504926748461596
40
0.770040751504232
40
0.770040751504232
40
1
40
1
40
1
40
1
41
1
10
122.349272279068
20
-14.4109371631634
30
0
41
1
10
122.37465541306
20
-14.4129841480097
30
0
41
1
10
122.400553899954
20
-14.4181998677934
30
0
41
1
10
122.460683528204
20
-14.4383042070128
30
0
41
1
10
122.49526738979
20
-14.4566172037451
30
0
41
1
10
122.553049141801
20
-14.5021649586383
30
0
41
1
10
122.577871258631
20
-14.5291167905029
30
0
41
1
10
122.613771202004
20
-14.5850058071845
30
0
41
1
10
122.626704283113
20
-14.6139728650137
30
0
41
1
10
122.634578873425
20
-14.6433968320816
30
0
0
SPLINE
5
E9
100
AcDbEntity
8
1
62
256
6
ByLayer
370
-1
48
1
60
0
100
AcDbSpline
70
4
71
3
72
16
73
12
40
0
40
0
40
0
40
0
40
0.0839661571013403
40
0.0839661571013403
40
0.306437453958615
40
0.306437453958615
40
0.532891941400825
40
0.532891941400825
40
0.774757583960564
40
0.774757583960564
40
1
40
1
40
1
40
1
41
1
10
122.197469908451
20
-16.2354559501138
30
0
41
1
10
122.189528969951
20
-16.2432831000039
30
0
41
1
10
122.181108801328
20
-16.2506215755869
30
0
41
1
10
122.149119240845
20
-16.2752192758651
30
0
41
1
10
122.12282864443
20
-16.2892707020271
30
0
41
1
10
122.067949215654
20
-16.308141744404
30
0
41
1
10
122.038639751018
20
-16.3130550049485
30
0
41
1
10
121.979234748032
20
-16.3137657482217
30
0
41
1
10
121.948480130262
20
-16.3089621425046
30
0
41
1
10
121.892920917584
20
-16.2913175757384
30
0
41
1
10
121.867324829352
20
-16.2789294338392
30
0
41
1
10
121.844069002384
20
-16.2635794970963
30
0
0
SPLINE
5
EA
100
AcDbEntity
8
1
62
256
6
ByLayer
370
-1
48
1
60
0
100
AcDbSpline
70
4
71
3
72
14
73
10
40
0
40
0
40
0
40
0
40
0.275245812807548
40
0.275245812807548
40
0.562663853595536
40
0.562663853595536
40
0.822712949252027
40
0.822712949252027
40
1
40
1
40
1
40
1
41
1
10
120.908430967773
20
-16.5131640753112
30
0
41
1
10
120.892396468269
20
-16.5437789290382
30
0
41
1
10
120.871055883658
20
-16.5723630312616
30
0
41
1
10
120.818956017583
20
-16.6213838324285
30
0
41
1
10
120.786958323707
20
-16.6421182172646
30
0
41
1
10
120.720995621255
20
-16.6680824495472
30
0
41
1
10
120.686489854261
20
-16.6749336964151
30
0
41
1
10
120.628826336343
20
-16.6752171284686
30
0
41
1
10
120.605070222333
20
-16.672257125818
30
0
41
1
10
120.582244250581
20
-16.6663228020653
30
0
0
SPLINE
5
EB
100
AcDbEntity
8
1
62
256
6
ByLayer
370
-1
48
1
60
0
100
AcDbSpline
70
4
71
3
72
18
73
14
40
0
40
0
40
0
40
0
40
0.198021790753408
40
0.198021790753408
40
0.374740307012583
40
0.374740307012583
40
0.553309129734636
40
0.553309129734636
40
0.706854063786021
40
0.706854063786021
40
0.90720678501511
40
0.90720678501511
40
1
40
1
40
1
40
1
41
1
10
120.908430967773
20
-16.5131640753112
30
0
41
1
10
120.941061302288
20
-16.450862603537
30
0
41
1
10
120.983100776571
20
-16.3919296310972
30
0
41
1
10
121.078727977138
20
-16.294774987251
30
0
41
1
10
121.131816857672
20
-16.2540336839713
30
0
41
1
10
121.248656938123
20
-16.19121574724
30
0
41
1
10
121.314393043955
20
-16.1686258981163
30
0
41
1
10
121.437168687574
20
-16.1485984621116
30
0
41
1
10
121.49558950948
20
-16.1477384717697
30
0
41
1
10
121.623992220467
20
-16.163062414911
30
0
41
1
10
121.694284598583
20
-16.184488418676
30
0
41
1
10
121.787942661205
20
-16.2291837251325
30
0
41
1
10
121.816684626401
20
-16.2455045243306
30
0
41
1
10
121.844069002384
20
-16.2635794970963
30
0
0
SPLINE
5
EC
100
AcDbEntity
8
1
62
256
6
ByLayer
370
-1
48
1
60
0
100
AcDbSpline
70
4
71
3
72
12
73
8
40
0
40
0
40
0
40
0
40
0.319995300323135
40
0.319995300323135
40
0.788180704132972
40
0.788180704132972
40
1
40
1
40
1
40
1
41
1
10
121.80292277171
20
-14.1248696716346
30
0
41
1
10
121.771142640795
20
-14.0856524709714
30
0
41
1
10
121.744271698764
20
-14.0438064072894
30
0
41
1
10
121.692570581011
20
-13.9403070104888
30
0
41
1
10
121.673416454013
20
-13.8767292558521
30
0
41
1
10
121.661358296485
20
-13.7870894301475
30
0
41
1
10
121.659756460294
20
-13.7592348213075
30
0
41
1
10
121.660211024935
20
-13.731774730462
30
0
0
SPLINE
5
ED
100
AcDbEntity
8
1
62
256
6
ByLayer
370
-1
48
1
60
0
100
AcDbSpline
70
4
71
3
72
12
73
8
40
0
40
0
40
0
40
0
40
0.445095469628002
40
0.445095469628002
40
0.859015871486833
40
0.859015871486833
40
1
40
1
40
1
40
1
41
1
10
119.674718444793
20
-15.6888164618013
30
0
41
1
10
119.738324311248
20
-15.682704128341
30
0
41
1
10
119.803805222222
20
-15.6858222130124
30
0
41
1
10
119.927654751788
20
-15.7124945517386
30
0
41
1
10
119.987609580819
20
-15.7351100315217
30
0
41
1
10
120.062197051003
20
-15.7788112228003
30
0
41
1
10
120.080807181241
20
-15.791152709657
30
0
41
1
10
120.098773518825
20
-15.8045995470741
30
0
0
SPLINE
5
EE
100
AcDbEntity
8
SK1
62
256
6
ByLayer
370
-1
48
1
60
0
100
AcDbSpline
70
4
71
3
72
12
73
8
40
0
40
0
40
0
40
0
40
0.0003053403763276
40
0.0003053403763276
40
0.500152670188164
40
0.500152670188164
40
1
40
1
40
1
40
1
41
1
10
-173.314499024953
20
-13.51075
30
0
41
1
10
-173.314501015716
20
-13.51075
30
0
41
1
10
-173.314499006079
20
-13.51075
30
0
41
1
10
-173.314242838719
20
-13.51075
30
0
41
1
10
-173.049966672914
20
-13.51075
30
0
41
1
10
-172.160962318699
20
-13.51075
30
0
41
1
10
-171.546229659649
20
-13.51075
30
0
41
1
10
-170.836
20
-13.51075
30
0
0
SPLINE
5
EF
100
AcDbEntity
8
SK1
62
256
6
ByLayer
370
-1
48
1
60
0
100
AcDbSpline
70
4
71
3
72
10
73
6
40
0
40
0
40
0
40
0
40
0.5
40
0.5
40
1
40
1
40
1
40
1
41
1
10
-170.836
20
-5.53679650723234
30
0
41
1
10
-171.455109452747
20
-3.74892227266315
30
0
41
1
10
-171.82407495792
20
-1.90868703143693
30
0
41
1
10
-171.82641932943
20
1.89017327916392
30
0
41
1
10
-171.452083151065
20
3.75766167533217
30
0
41
1
10
-170.836
20
5.53679650723237
30
0
0
LINE
5
49
100
AcDbEntity
8
80
62
256
6
ByLayer
370
-1
48
1
60
0
100
AcDbLine
10
0
20
0
30
0
11
-10
21
0
31
0
39
0
210
0
220
0
230
1
0
LINE
5
4A
100
AcDbEntity
8
81
62
256
6
ByLayer
370
-1
48
1
60
0
100
AcDbLine
10
127.914
20
-21.9
30
0
11
137.914
21
-21.9
31
0
39
0
210
0
220
0
230
1
0
LINE
5
4B
100
AcDbEntity
8
SK4
62
256
6
ByLayer
370
-1
48
0.05
60
0
100
AcDbLine
10
-178.336
20
0
30
0
11
131.490023
21
0
31
0
39
0
210
0
220
0
230
1
0
LINE
5
4D
100
AcDbEntity
8
4
62
256
6
ByLayer
370
-1
48
0.05
60
0
100
AcDbLine
10
0
20
0
30
0
11
131.490023
21
0
31
0
39
0
210
0
220
0
230
1
0
LINE
5
4F
100
AcDbEntity
8
1
62
256
6
ByLayer
370
-1
48
1
60
0
100
AcDbLine
10
103.830777
20
15.98925
30
0
11
0
21
15.98925
31
0
39
0
210
0
220
0
230
1
0
LINE
5
50
100
AcDbEntity
8
1
62
256
6
ByLayer
370
-1
48
1
60
0
100
AcDbLine
10
103.905777
20
15.91425
30
0
11
103.830777
21
15.98925
31
0
39
0
210
0
220
0
230
1
0
LINE
5
51
100
AcDbEntity
8
1
62
256
6
ByLayer
370
-1
48
1
60
0
100
AcDbLine
10
104.906694
20
15.91425
30
0
11
103.905777
21
15.91425
31
0
39
0
210
0
220
0
230
1
0
LINE
5
52
100
AcDbEntity
8
1
62
256
6
ByLayer
370
-1
48
1
60
0
100
AcDbLine
10
105.555777
20
-15.91425
30
0
11
106.764662
21
-15.91425
31
0
39
0
210
0
220
0
230
1
0
LINE
5
53
100
AcDbEntity
8
1
62
256
6
ByLayer
370
-1
48
1
60
0
100
AcDbLine
10
106.764662
20
-15.91425
30
0
11
109.830777
21
-19.392394
31
0
39
0
210
0
220
0
230
1
0
LINE
5
54
100
AcDbEntity
8
1
62
256
6
ByLayer
370
-1
48
1
60
0
100
AcDbLine
10
109.830777
20
-19.392394
30
0
11
114.046891
21
-19.770698
31
0
39
0
210
0
220
0
230
1
0
LINE
5
55
100
AcDbEntity
8
SK1
62
256
6
ByLayer
370
-1
48
1
60
0
100
AcDbLine
10
-170.836
20
15.98925
30
0
11
-173.336
21
13.48925
31
0
39
0
210
0
220
0
230
1
0
LINE
5
57
100
AcDbEntity
8
SK1
62
256
6
ByLayer
370
-1
48
1
60
0
100
AcDbLine
10
-173.336
20
-13.48925
30
0
11
-173.3145
21
-13.51075
31
0
39
0
210
0
220
0
230
1
0
LINE
5
58
100
AcDbEntity
8
SK1
62
256
6
ByLayer
370
-1
48
1
60
0
100
AcDbLine
10
0
20
15.98925
30
0
11
-170.836
21
15.98925
31
0
39
0
210
0
220
0
230
1
0
LINE
5
59
100
AcDbEntity
8
1
62
256
6
ByLayer
370
-1
48
1
60
0
100
AcDbLine
10
117.577954
20
-15.096068
30
0
11
117.595714
21
-15.299072
31
0
39
0
210
0
220
0
230
1
0
LINE
5
5A
100
AcDbEntity
8
1
62
256
6
ByLayer
370
-1
48
1
60
0
100
AcDbLine
10
124.419648
20
-14.702055
30
0
11
124.401887
21
-14.499051
31
0
39
0
210
0
220
0
230
1
0
LINE
5
5B
100
AcDbEntity
8
1
62
256
6
ByLayer
370
-1
48
1
60
0
100
AcDbLine
10
121.652118
20
-13.673382
30
0
11
121.662257
21
-13.789266
31
0
39
0
210
0
220
0
230
1
0
LINE
5
5C
100
AcDbEntity
8
1
62
256
6
ByLayer
370
-1
48
1
60
0
100
AcDbLine
10
119.867048
20
-14.486213
30
0
11
119.840136
21
-14.178596
31
0
39
0
210
0
220
0
230
1
0
LINE
5
5D
100
AcDbEntity
8
1
62
256
6
ByLayer
370
-1
48
1
60
0
100
AcDbLine
10
122.126365
20
-15.264046
30
0
11
122.153347
21
-15.572444
31
0
39
0
210
0
220
0
230
1
0
LINE
5
5E
100
AcDbEntity
8
1
62
256
6
ByLayer
370
-1
48
1
60
0
100
AcDbLine
10
120.360794
20
-16.299748
30
0
11
120.332517
21
-15.976538
31
0
39
0
210
0
220
0
230
1
0
LINE
5
5F
100
AcDbEntity
8
1
62
256
6
ByLayer
370
-1
48
1
60
0
100
AcDbLine
10
0
20
5.536797
30
0
11
0
21
15.98925
31
0
39
0
210
0
220
0
230
1
0
LINE
5
60
100
AcDbEntity
8
1
62
256
6
ByLayer
370
-1
48
1
60
0
100
AcDbLine
10
0
20
5.536797
30
0
11
88.229772
21
5.536797
31
0
39
0
210
0
220
0
230
1
0
LINE
5
61
100
AcDbEntity
8
1
62
256
6
ByLayer
370
-1
48
1
60
0
100
AcDbLine
10
113.153135
20
-10.200596
30
0
11
113.396303
21
-9.744339
31
0
39
0
210
0
220
0
230
1
0
LINE
5
62
100
AcDbEntity
8
1
62
256
6
ByLayer
370
-1
48
1
60
0
100
AcDbLine
10
105.522293
20
-15.880765
30
0
11
105.555777
21
-15.91425
31
0
39
0
210
0
220
0
230
1
0
LINE
5
63
100
AcDbEntity
8
1
62
256
6
ByLayer
370
-1
48
1
60
0
100
AcDbLine
10
103.830777
20
15.98925
30
0
11
103.830777
21
13.663509
31
0
39
0
210
0
220
0
230
1
0
LINE
5
64
100
AcDbEntity
8
1
62
256
6
ByLayer
370
-1
48
1
60
0
100
AcDbLine
10
106.771063
20
14.072387
30
0
11
115.724011
21
5.227515
31
0
39
0
210
0
220
0
230
1
0
LINE
5
65
100
AcDbEntity
8
1
62
256
6
ByLayer
370
-1
48
1
60
0
100
AcDbLine
10
103.152277
20
-13.51075
30
0
11
105.522293
21
-15.880765
31
0
39
0
210
0
220
0
230
1
0
LINE
5
66
100
AcDbEntity
8
1
62
256
6
ByLayer
370
-1
48
1
60
0
100
AcDbLine
10
103.905777
20
15.91425
30
0
11
103.905777
21
13.602333
31
0
39
0
210
0
220
0
230
1
0
LINE
5
67
100
AcDbEntity
8
1
62
256
6
ByLayer
370
-1
48
1
60
0
100
AcDbLine
10
0
20
-5.536797
30
0
11
0
21
5.536797
31
0
39
0
210
0
220
0
230
1
0
LINE
5
68
100
AcDbEntity
8
1
62
256
6
ByLayer
370
-1
48
1
60
0
100
AcDbLine
10
126.490023
20
-7.66626
30
0
11
126.273809
21
-5.19493
31
0
39
0
210
0
220
0
230
1
0
LINE
5
69
100
AcDbEntity
8
1
62
256
6
ByLayer
370
-1
48
1
60
0
100
AcDbLine
10
113.415212
20
-9.949975
30
0
11
113.396303
21
-9.744339
31
0
39
0
210
0
220
0
230
1
0
LINE
5
6A
100
AcDbEntity
8
1
62
256
6
ByLayer
370
-1
48
1
60
0
100
AcDbLine
10
115.724011
20
5.227515
30
0
11
126.273809
21
-5.19493
31
0
39
0
210
0
220
0
230
1
0
LINE
5
6B
100
AcDbEntity
8
1
62
256
6
ByLayer
370
-1
48
1
60
0
100
AcDbLine
10
113.172043
20
-10.406231
30
0
11
113.415212
21
-9.949975
31
0
39
0
210
0
220
0
230
1
0
LINE
5
6C
100
AcDbEntity
8
1
62
256
6
ByLayer
370
-1
48
1
60
0
100
AcDbLine
10
113.153135
20
-10.200596
30
0
11
113.172043
21
-10.406231
31
0
39
0
210
0
220
0
230
1
0
LINE
5
6D
100
AcDbEntity
8
1
62
256
6
ByLayer
370
-1
48
1
60
0
100
AcDbLine
10
0
20
-5.536797
30
0
11
0
21
-13.51075
31
0
39
0
210
0
220
0
230
1
0
LINE
5
6E
100
AcDbEntity
8
1
62
256
6
ByLayer
370
-1
48
1
60
0
100
AcDbLine
10
83.29685
20
-5.536797
30
0
11
0
21
-5.536797
31
0
39
0
210
0
220
0
230
1
0
LINE
5
6F
100
AcDbEntity
8
1
62
256
6
ByLayer
370
-1
48
1
60
0
100
AcDbLine
10
106.764662
20
14.064253
30
0
11
106.764662
21
14.07871
31
0
39
0
210
0
220
0
230
1
0
LINE
5
70
100
AcDbEntity
8
1
62
256
6
ByLayer
370
-1
48
1
60
0
100
AcDbLine
10
87.162336
20
-13.51075
30
0
11
103.152277
21
-13.51075
31
0
39
0
210
0
220
0
230
1
0
LINE
5
71
100
AcDbEntity
8
1
62
256
6
ByLayer
370
-1
48
1
60
0
100
AcDbLine
10
0
20
-13.51075
30
0
11
87.162336
21
-13.51075
31
0
39
0
210
0
220
0
230
1
0
LINE
5
72
100
AcDbEntity
8
1
62
256
6
ByLayer
370
-1
48
1
60
0
100
AcDbLine
10
109.830777
20
-19.392394
30
0
11
109.830777
21
-19.391924
31
0
39
0
210
0
220
0
230
1
0
LINE
5
73
100
AcDbEntity
8
1
62
256
6
ByLayer
370
-1
48
1
60
0
100
AcDbLine
10
113.308499
20
-8.595518
30
0
11
113.391639
21
-9.545824
31
0
39
0
210
0
220
0
230
1
0
LINE
5
74
100
AcDbEntity
8
1
62
256
6
ByLayer
370
-1
48
1
60
0
100
AcDbLine
10
104.906694
20
15.91425
30
0
11
106.743998
21
14.099125
31
0
39
0
210
0
220
0
230
1
0
LINE
5
75
100
AcDbEntity
8
1
62
256
6
ByLayer
370
-1
48
1
60
0
100
AcDbLine
10
126.490023
20
-7.66626
30
0
11
126.490023
21
-9.257045
31
0
39
0
210
0
220
0
230
1
0
LINE
5
76
100
AcDbEntity
8
1
62
256
6
ByLayer
370
-1
48
1
60
0
100
AcDbLine
10
109.223341
20
-18.701483
30
0
11
115.724011
21
5.227515
31
0
39
0
210
0
220
0
230
1
0
LINE
5
77
100
AcDbEntity
8
1
62
256
6
ByLayer
370
-1
48
1
60
0
100
AcDbLine
10
106.764662
20
-15.91425
30
0
11
106.764662
21
-15.888673
31
0
39
0
210
0
220
0
230
1
0
LINE
5
78
100
AcDbEntity
8
1
62
256
6
ByLayer
370
-1
48
1
60
0
100
AcDbLine
10
113.392118
20
-9.686013
30
0
11
113.415212
21
-9.949975
31
0
39
0
210
0
220
0
230
1
0
LINE
5
79
100
AcDbEntity
8
1
62
256
6
ByLayer
370
-1
48
1
60
0
100
AcDbLine
10
126.490023
20
-9.257045
30
0
11
116.424142
21
-8.401668
31
0
39
0
210
0
220
0
230
1
0
LINE
5
7A
100
AcDbEntity
8
SK1
62
256
6
ByLayer
370
-1
48
1
60
0
100
AcDbLine
10
0
20
-5.536797
30
0
11
0
21
5.536797
31
0
39
0
210
0
220
0
230
1
0
LINE
5
7B
100
AcDbEntity
8
SK1
62
256
6
ByLayer
370
-1
48
1
60
0
100
AcDbLine
10
-173.336
20
13.48925
30
0
11
-173.336
21
-13.48925
31
0
39
0
210
0
220
0
230
1
0
LINE
5
7C
100
AcDbEntity
8
SK1
62
256
6
ByLayer
370
-1
48
1
60
0
100
AcDbLine
10
-170.836
20
-5.536797
30
0
11
-170.836
21
-13.51075
31
0
39
0
210
0
220
0
230
1
0
LINE
5
7D
100
AcDbEntity
8
SK1
62
256
6
ByLayer
370
-1
48
1
60
0
100
AcDbLine
10
-170.836
20
15.98925
30
0
11
-170.836
21
5.536797
31
0
39
0
210
0
220
0
230
1
0
LINE
5
7E
100
AcDbEntity
8
1
62
256
6
ByLayer
370
-1
48
1
60
0
100
AcDbLine
10
114.742683
20
-8.063497
30
0
11
116.361488
21
-8.20106
31
0
39
0
210
0
220
0
230
1
0
LINE
5
7F
100
AcDbEntity
8
1
62
256
6
ByLayer
370
-1
48
1
60
0
100
AcDbLine
10
127.049868
20
-21.897085
30
0
11
115.811872
21
-20.942104
31
0
39
0
210
0
220
0
230
1
0
LINE
5
80
100
AcDbEntity
8
1
62
256
6
ByLayer
370
-1
48
1
60
0
100
AcDbLine
10
114.983172
20
-8.3061
30
0
11
126.221168
21
-9.261081
31
0
39
0
210
0
220
0
230
1
0
LINE
5
81
100
AcDbEntity
8
1
62
256
6
ByLayer
370
-1
48
1
60
0
100
AcDbLine
10
115.091088
20
-20.231674
30
0
11
114.121999
21
-9.154933
31
0
39
0
210
0
220
0
230
1
0
LINE
5
82
100
AcDbEntity
8
1
62
256
6
ByLayer
370
-1
48
1
60
0
100
AcDbLine
10
126.941952
20
-9.971511
30
0
11
127.911041
21
-21.048252
31
0
39
0
210
0
220
0
230
1
0
LINE
5
83
100
AcDbEntity
8
1
62
256
6
ByLayer
370
-1
48
1
60
0
100
AcDbLine
10
121.656021
20
-13.683888
30
0
11
121.660211
21
-13.731775
31
0
39
0
210
0
220
0
230
1
0
LINE
5
84
100
AcDbEntity
8
1
62
256
6
ByLayer
370
-1
48
1
60
0
100
AcDbLine
10
120.87966
20
-16.184314
30
0
11
120.908431
21
-16.513164
31
0
39
0
210
0
220
0
230
1
0
LINE
5
85
100
AcDbEntity
8
1
62
256
6
ByLayer
370
-1
48
1
60
0
100
AcDbLine
10
122.467537
20
-14.61919
30
0
11
122.496308
21
-14.948041
31
0
39
0
210
0
220
0
230
1
0
LINE
5
86
100
AcDbEntity
8
1
62
256
6
ByLayer
370
-1
48
1
60
0
100
AcDbLine
10
120.098774
20
-15.8046
30
0
11
120.07241
21
-15.503265
31
0
39
0
210
0
220
0
230
1
0
LINE
5
87
100
AcDbEntity
8
1
62
256
6
ByLayer
370
-1
48
1
60
0
100
AcDbLine
10
119.645974
20
-15.360261
30
0
11
119.674718
21
-15.688816
31
0
39
0
210
0
220
0
230
1
0
LINE
5
88
100
AcDbEntity
8
1
62
256
6
ByLayer
370
-1
48
1
60
0
100
AcDbLine
10
119.762199
20
-14.015925
30
0
11
119.780935
21
-14.230084
31
0
39
0
210
0
220
0
230
1
0
LINE
5
89
100
AcDbEntity
8
1
62
256
6
ByLayer
370
-1
48
1
60
0
100
AcDbLine
10
120.189942
20
-15.619108
30
0
11
120.216305
21
-15.920443
31
0
39
0
210
0
220
0
230
1
0
LINE
5
8A
100
AcDbEntity
8
1
62
256
6
ByLayer
370
-1
48
1
60
0
100
AcDbLine
10
121.815298
20
-15.934729
30
0
11
121.844069
21
-16.263579
31
0
39
0
210
0
220
0
230
1
0
LINE
5
8B
100
AcDbEntity
8
1
62
256
6
ByLayer
370
-1
48
1
60
0
100
AcDbLine
10
115.266408
20
-7.938876
30
0
11
115.212381
21
-7.321346
31
0
39
0
210
0
220
0
230
1
0
LINE
5
8C
100
AcDbEntity
8
1
62
256
6
ByLayer
370
-1
48
1
60
0
100
AcDbLine
10
115.6717
20
-7.360378
30
0
11
115.212381
21
-7.321346
31
0
39
0
210
0
220
0
230
1
0
LINE
5
8D
100
AcDbEntity
8
1
62
256
6
ByLayer
370
-1
48
1
60
0
100
AcDbLine
10
114.373174
20
-8.502051
30
0
11
114.344701
21
-8.176594
31
0
39
0
210
0
220
0
230
1
0
LINE
5
8E
100
AcDbEntity
8
1
62
256
6
ByLayer
370
-1
48
1
60
0
100
AcDbLine
10
115.266408
20
-7.938876
30
0
11
116.282608
21
-8.02523
31
0
39
0
210
0
220
0
230
1
0
LINE
5
8F
100
AcDbEntity
8
SK1
62
256
6
ByLayer
370
-1
48
1
60
0
100
AcDbLine
10
-170.836
20
-13.51075
30
0
11
0
21
-13.51075
31
0
39
0
210
0
220
0
230
1
0
LINE
5
90
100
AcDbEntity
8
SK1
62
256
6
ByLayer
370
-1
48
1
60
0
100
AcDbLine
10
0
20
-5.536797
30
0
11
-170.836
21
-5.536797
31
0
39
0
210
0
220
0
230
1
0
LINE
5
91
100
AcDbEntity
8
SK1
62
256
6
ByLayer
370
-1
48
1
60
0
100
AcDbLine
10
-170.836
20
5.536797
30
0
11
0
21
5.536797
31
0
39
0
210
0
220
0
230
1
0
LINE
5
92
100
AcDbEntity
8
SK1
62
256
6
ByLayer
370
-1
48
1
60
0
100
AcDbLine
10
0
20
-5.536797
30
0
11
0
21
-13.51075
31
0
39
0
210
0
220
0
230
1
0
LINE
5
93
100
AcDbEntity
8
SK1
62
256
6
ByLayer
370
-1
48
1
60
0
100
AcDbLine
10
0
20
15.98925
30
0
11
0
21
5.536797
31
0
39
0
210
0
220
0
230
1
0
LINE
5
94
100
AcDbEntity
8
2
62
256
6
ByLayer
370
-1
48
1
60
1
100
AcDbLine
10
127.914
20
0
30
0
11
127.915
21
0.001
31
0
39
0
210
0
220
0
230
1
0
MTEXT
5
F0
100
AcDbEntity
8
SK6
62
256
6
ByLayer
370
-1
48
1
60
0
100
AcDbMText
10
-19.336
20
22.158672
30
0
210
0
220
0
230
1
1
\W00.767;\fsimplex.shx,bigfont.shx;A32T-SCLCL 12 
40
3.5
41
0
44
1.084337
50
0
71
7
72
5
7
DEFAULT
0
DIMENSION
5
123
100
AcDbEntity
8
2
62
256
6
ByLayer
370
-3
48
1
60
0
100
AcDbDimension
2
DimnDraft3D1
10
140.164
20
0
30
0
11
140.164
21
-16.113158
31
0
70
32
71
5
72
1
41
1
210
0
220
0
230
1
3
Standard
100
AcDbAlignedDimension
13
129.914
23
-21.9
33
0
14
129.914
24
0
34
0
50
90
100
AcDbRotatedDimension
1001
ACAD
1000
DSTYLE
1002
{
1070
    74
1070
     0
1070
   279
1070
     0
1070
   172
1070
     1
1070
   173
1070
     1
1070
   340
1005
F1
1070
    77
1070
     1
1070
    73
1070
     0
1070
   171
1070
     4
1070
   274
1070
     4
1070
   177
1070
     2
1070
   176
1070
     2
1070
   178
1070
     7
1070
    78
1070
     8
1070
    41
1041
3.175
1070
   147
1041
2.25
1070
    42
1041
2.0
1070
    44
1041
2.0
1070
   140
1041
4.5
1070
   343
1005
124
1070
   344
1005
124
1002
}
0
DIMENSION
5
139
100
AcDbEntity
8
SK2
62
256
6
ByLayer
370
-3
48
1
60
0
100
AcDbDimension
2
DimnDraft3D2
10
-183.086
20
15.98925
30
0
11
-183.086
21
-4.784211
31
0
70
32
71
5
72
1
41
1
210
0
220
0
230
1
3
Standard
100
AcDbAlignedDimension
13
-175.336
23
-15.98925
33
0
14
-175.336
24
15.98925
34
0
50
90
100
AcDbRotatedDimension
1001
ACAD
1000
DSTYLE
1002
{
1070
    74
1070
     0
1070
   279
1070
     0
1070
   172
1070
     1
1070
   173
1070
     1
1070
   340
1005
F1
1070
    77
1070
     1
1070
    73
1070
     0
1070
   171
1070
     4
1070
   274
1070
     4
1070
   177
1070
     2
1070
   176
1070
     2
1070
   178
1070
     7
1070
    78
1070
     8
1070
    41
1041
3.175
1070
   147
1041
2.25
1070
    42
1041
2.0
1070
    44
1041
2.0
1070
   140
1041
4.5
1070
   343
1005
124
1070
   344
1005
124
1002
}
0
DIMENSION
5
147
100
AcDbEntity
8
SK2
62
256
6
ByLayer
370
-3
48
1
60
0
100
AcDbDimension
2
DimnDraft3D3
10
127.914
20
-39.15
30
0
11
-29.526132
21
-39.15
31
0
70
32
71
5
72
1
41
1
210
0
220
0
230
1
3
Standard
100
AcDbAlignedDimension
13
-173.336
23
-17.98925
33
0
14
127.914
24
-23.9
34
0
50
0
100
AcDbRotatedDimension
1001
ACAD
1000
DSTYLE
1002
{
1070
   279
1070
     0
1070
   172
1070
     1
1070
   173
1070
     1
1070
   340
1005
F1
1070
    77
1070
     1
1070
    73
1070
     0
1070
   171
1070
     4
1070
   274
1070
     4
1070
   177
1070
     2
1070
   176
1070
     2
1070
   178
1070
     7
1070
    78
1070
     8
1070
    41
1041
3.175
1070
   147
1041
2.25
1070
    42
1041
2.0
1070
    44
1041
2.0
1070
   140
1041
4.5
1070
   343
1005
124
1070
   344
1005
124
1002
}
0
DIMENSION
5
155
100
AcDbEntity
8
2
62
256
6
ByLayer
370
-3
48
1
60
0
100
AcDbDimension
2
DimnDraft3D4
10
165.924405
20
0
30
0
11
148.443553
21
33.925375
31
0
70
34
71
5
72
1
41
1
210
0
220
0
230
1
3
Standard
100
AcDb2LineAngularDimension
13
126.69382
23
-7.953274
33
0
14
122.518183
24
39.774475
34
0
15
129.914
25
0
35
0
16
154.660863
26
31.280028
36
0
40
0
0
ENDSEC
0
SECTION
2
OBJECTS
0
DICTIONARY
5
186
330
0
100
AcDbDictionary
280
0
281
1
3
ACAD_GROUP
350
187
3
ACAD_MLINESTYLE
350
188
0
DICTIONARY
5
187
330
0
100
AcDbDictionary
280
0
281
1
0
DICTIONARY
5
188
330
0
100
AcDbDictionary
280
0
281
1
3
Standard
350
18
0
MLINESTYLE
5
18
330
188
100
AcDbMlineStyle
2
Standard
70
0
3

62
256
51
90
52
90
71
2
49
-0.5
62
256
6
ByLayer
49
0.5
62
256
6
ByLayer
0
RASTERVARIABLES
5
174
330

100
AcDbRasterVariables
90
0
70
1
71
1
72
1
0
ENDSEC
0
EOF
