0
SECTION
2
HEADER
9
$ACADVER
1
AC1015
9
$DWGCODEPAGE
3
ANSI_1252
9
$HANDSEED
5
126
9
$ANGBASE
50
0
9
$ANGDIR
70
0
9
$ATTMODE
70
1
9
$AUNITS
70
0
9
$AUPREC
70
0
9
$CECOLOR
62
256
9
$CELTSCALE
40
1
9
$CELTYPE
6
ByLayer
9
$CELWEIGHT
370
-1
9
$CLAYER
8
0
9
$CMLJUST
70
0
9
$CMLSCALE
40
1
9
$CMLSTYLE
2
Standard
9
$DIMSTYLE
2
Standard
9
$TEXTSIZE
40
0.2
9
$TEXTSTYLE
7
Standard
9
$LUNITS
70
2
9
$LUPREC
70
4
9
$EXTNAMES
290
1
9
$INSUNITS
70
4
9
$LTSCALE
40
1
9
$LWDISPLAY
290
0
9
$PDMODE
70
0
9
$PDSIZE
40
0
9
$PLINEGEN
70
0
0
ENDSEC
0
SECTION
2
CLASSES
0
CLASS
1
RASTERVARIABLES
2
AcDbRasterVariables
3
ISM
90
0
280
0
281
0
0
ENDSEC
0
SECTION
2
TABLES
0
TABLE
2
VPORT
5
11c
100
AcDbSymbolTable
0
VPORT
5
1
100
AcDbSymbolTableRecord
100
AcDbViewportTableRecord
2
*Active
70
0
10
0
20
0
11
1
21
1
12
-1
22
1
13
0
23
0
14
0.5
24
0.5
15
10
25
10
16
0
26
0
36
1
17
0
27
0
37
0
0
ENDTAB
0
TABLE
2
LTYPE
5
11d
100
AcDbSymbolTable
0
LTYPE
5
14
100
AcDbSymbolTableRecord
100
AcDbLinetypeTableRecord
70
0
2
ByBlock
3

72
65
73
0
40
0
0
LTYPE
5
15
100
AcDbSymbolTableRecord
100
AcDbLinetypeTableRecord
70
0
2
ByLayer
3

72
65
73
0
40
0
0
LTYPE
5
16
100
AcDbSymbolTableRecord
100
AcDbLinetypeTableRecord
70
0
2
CONTINUOUS
3
Solid line
72
65
73
0
40
0
0
LTYPE
5
3C
100
AcDbSymbolTableRecord
100
AcDbLinetypeTableRecord
70
0
2
DASHED
3
__ __ __ __ __ __ __ __ __
72
65
73
2
40
25.72
49
12.86
74
0
49
-12.86
74
0
0
LTYPE
5
3D
100
AcDbSymbolTableRecord
100
AcDbLinetypeTableRecord
70
0
2
HIDDEN
3
_ _ _ _ _ _ _ _ _ _ _ _ _ _ _
72
65
73
2
40
0.5
49
0.25
74
0
49
-0.25
74
0
0
LTYPE
5
3E
100
AcDbSymbolTableRecord
100
AcDbLinetypeTableRecord
70
0
2
PHANTOM
3
____ _ _ ____ _ _ _____ _ _ ____
72
65
73
6
40
50.5
49
18
74
0
49
-6.5
74
0
49
6.5
74
0
49
-6.5
74
0
49
6.5
74
0
49
-6.5
74
0
0
LTYPE
5
3F
100
AcDbSymbolTableRecord
100
AcDbLinetypeTableRecord
70
0
2
CENTER
3
____ _ ____ _ ____ _ ____
72
65
73
4
40
47.5
49
22
74
0
49
-8.5
74
0
49
8.5
74
0
49
-8.5
74
0
0
LTYPE
5
40
100
AcDbSymbolTableRecord
100
AcDbLinetypeTableRecord
70
0
2
DOT
3
.........................
72
65
73
2
40
10
49
0
74
0
49
-10
74
0
0
LTYPE
5
41
100
AcDbSymbolTableRecord
100
AcDbLinetypeTableRecord
70
0
2
DASHDOT
3
_._._._._._._._._._._._._._._._.
72
65
73
4
40
70
49
31
74
0
49
-13
74
0
49
13
74
0
49
-13
74
0
0
ENDTAB
0
TABLE
2
LAYER
5
11e
100
AcDbSymbolTable
0
LAYER
5
10
100
AcDbSymbolTableRecord
100
AcDbLayerTableRecord
2
0
70
0
62
7
6
CONTINUOUS
290
1
370
-3
390
0
0
LAYER
5
43
100
AcDbSymbolTableRecord
100
AcDbLayerTableRecord
2
80
70
0
62
-6
6
CONTINUOUS
290
1
370
-3
390
0
0
LAYER
5
45
100
AcDbSymbolTableRecord
100
AcDbLayerTableRecord
2
81
70
0
62
-3
6
CONTINUOUS
290
1
370
-3
390
0
0
LAYER
5
47
100
AcDbSymbolTableRecord
100
AcDbLayerTableRecord
2
1
70
0
62
4
6
CONTINUOUS
290
1
370
-3
390
0
0
LAYER
5
6D
100
AcDbSymbolTableRecord
100
AcDbLayerTableRecord
2
4
70
0
62
-2
6
CENTER
290
1
370
-3
390
0
0
LAYER
5
85
100
AcDbSymbolTableRecord
100
AcDbLayerTableRecord
2
2
70
0
62
7
6
CONTINUOUS
290
1
370
-3
390
0
0
LAYER
5
108
100
AcDbSymbolTableRecord
100
AcDbLayerTableRecord
2
SK1
70
0
62
4
6
CONTINUOUS
290
1
370
-3
390
0
0
LAYER
5
109
100
AcDbSymbolTableRecord
100
AcDbLayerTableRecord
2
SK4
70
0
62
2
6
CENTER
290
1
370
-3
390
0
0
LAYER
5
10a
100
AcDbSymbolTableRecord
100
AcDbLayerTableRecord
2
SK6
70
0
62
5
6
CONTINUOUS
290
1
370
-3
390
0
0
LAYER
5
10b
100
AcDbSymbolTableRecord
100
AcDbLayerTableRecord
2
SK2
70
0
62
7
6
CONTINUOUS
290
1
370
-3
390
0
0
ENDTAB
0
TABLE
2
STYLE
5
11f
100
AcDbSymbolTable
0
STYLE
5
11
100
AcDbSymbolTableRecord
100
AcDbTextStyleTableRecord
2
Standard
3
txt
70
0
71
0
40
0
41
1
42
0
50
0
0
STYLE
5
80
100
AcDbSymbolTableRecord
100
AcDbTextStyleTableRecord
2
DEFAULT
3
simplex.shx
70
0
71
0
40
0
41
1
42
0
50
0
0
STYLE
5
81
100
AcDbSymbolTableRecord
100
AcDbTextStyleTableRecord
2
DWGDirectTextStyle
3
SIMPLEX
70
0
71
0
40
0
41
1
42
0
50
0
0
ENDTAB
0
TABLE
2
DIMSTYLE
5
120
100
AcDbSymbolTable
100
AcDbDimStyleTable
0
DIMSTYLE
105
27
100
AcDbSymbolTableRecord
100
AcDbDimStyleTableRecord
2
Standard
70
0
3
<>
41
0.18
42
0.0625
44
0.18
140
0.18
147
0.09
73
0
74
0
77
1
271
2
275
0
278
52
280
0
340
11
0
ENDTAB
0
TABLE
2
VIEW
5
121
100
AcDbSymbolTable
0
ENDTAB
0
TABLE
2
UCS
5
122
100
AcDbSymbolTable
0
ENDTAB
0
TABLE
2
APPID
5
123
100
AcDbSymbolTable
0
APPID
5
12
100
AcDbSymbolTableRecord
100
AcDbRegAppTableRecord
2
ACAD
70
0
0
ENDTAB
0
TABLE
2
BLOCK_RECORD
5
124
100
AcDbSymbolTable
0
BLOCK_RECORD
5
1F
100
AcDbSymbolTableRecord
100
AcDbBlockTableRecord
2
*Model_Space
340
0
70
0
0
BLOCK_RECORD
5
1B
100
AcDbSymbolTableRecord
100
AcDbBlockTableRecord
2
*Paper_Space
340
0
70
0
0
BLOCK_RECORD
5
23
100
AcDbSymbolTableRecord
100
AcDbBlockTableRecord
2
*Paper_Space0
340
0
70
0
0
BLOCK_RECORD
5
83
100
AcDbSymbolTableRecord
100
AcDbBlockTableRecord
2
DimnDraft3D1
340
0
70
0
0
BLOCK_RECORD
5
92
100
AcDbSymbolTableRecord
100
AcDbBlockTableRecord
2
DimnDraft3D2
340
0
70
0
0
BLOCK_RECORD
5
A1
100
AcDbSymbolTableRecord
100
AcDbBlockTableRecord
2
DimnDraft3D3
340
0
70
0
0
BLOCK_RECORD
5
AF
100
AcDbSymbolTableRecord
100
AcDbBlockTableRecord
2
DimnDraft3D4
340
0
70
0
0
BLOCK_RECORD
5
BD
100
AcDbSymbolTableRecord
100
AcDbBlockTableRecord
2
DimnDraft3D5
340
0
70
0
0
ENDTAB
0
ENDSEC
0
SECTION
2
BLOCKS
0
BLOCK
5
20
100
AcDbEntity
8
0
100
AcDbBlockBegin
2
*Model_Space
70
0
10
0
20
0
30
0
3
*Model_Space
0
ENDBLK
5
21
100
AcDbEntity
8
0
100
AcDbBlockEnd
0
BLOCK
5
1C
100
AcDbEntity
8
0
100
AcDbBlockBegin
2
*Paper_Space
70
0
10
0
20
0
30
0
3
*Paper_Space
0
ENDBLK
5
1D
100
AcDbEntity
8
0
100
AcDbBlockEnd
0
BLOCK
5
24
100
AcDbEntity
8
0
100
AcDbBlockBegin
2
*Paper_Space0
70
0
10
0
20
0
30
0
3
*Paper_Space0
0
ENDBLK
5
25
100
AcDbEntity
8
0
100
AcDbBlockEnd
0
BLOCK
5
8F
100
AcDbEntity
8
0
100
AcDbBlockBegin
2
DimnDraft3D1
70
0
10
0
20
0
30
0
3
DimnDraft3D1
0
MTEXT
5
84
100
AcDbEntity
8
2
62
256
6
ByLayer
370
-1
48
1
60
0
100
AcDbMText
10
45.921808
20
31.70562
30
0
210
0
220
0
230
1
1
\W01.000;\fsimplex.shx,bigfont.shx;101.52\P
40
3.50012
41
0
44
1.084337
50
0
71
7
72
5
7
DEFAULT
0
LINE
5
86
100
AcDbEntity
8
2
62
256
6
ByLayer
370
-1
48
1
60
0
100
AcDbLine
10
0
20
1.5875
30
0
11
0
21
34.00559
31
0
39
0
210
0
220
0
230
1
0
LINE
5
87
100
AcDbEntity
8
2
62
256
6
ByLayer
370
-1
48
1
60
0
100
AcDbLine
10
101.515
20
1.5875
30
0
11
101.515
21
34.00559
31
0
39
0
210
0
220
0
230
1
0
LINE
5
88
100
AcDbEntity
8
2
62
256
6
ByLayer
370
-1
48
1
60
0
100
AcDbLine
10
0
20
30.83059
30
0
11
101.515
21
30.83059
31
0
39
0
210
0
220
0
230
1
0
LINE
5
89
100
AcDbEntity
8
2
62
256
6
ByLayer
370
-1
48
1
60
0
100
AcDbLine
10
0
20
30.83059
30
0
11
3.174998
21
31.248587
31
0
39
0
210
0
220
0
230
1
0
LINE
5
8A
100
AcDbEntity
8
2
62
256
6
ByLayer
370
-1
48
1
60
0
100
AcDbLine
10
0
20
30.83059
30
0
11
3.175002
21
30.412594
31
0
39
0
210
0
220
0
230
1
0
LINE
5
8B
100
AcDbEntity
8
2
62
256
6
ByLayer
370
-1
48
1
60
0
100
AcDbLine
10
3.174998
20
31.248587
30
0
11
3.175002
21
30.412594
31
0
39
0
210
0
220
0
230
1
0
LINE
5
8C
100
AcDbEntity
8
2
62
256
6
ByLayer
370
-1
48
1
60
0
100
AcDbLine
10
101.515
20
30.83059
30
0
11
98.340002
21
30.412594
31
0
39
0
210
0
220
0
230
1
0
LINE
5
8D
100
AcDbEntity
8
2
62
256
6
ByLayer
370
-1
48
1
60
0
100
AcDbLine
10
101.515
20
30.83059
30
0
11
98.339998
21
31.248587
31
0
39
0
210
0
220
0
230
1
0
LINE
5
8E
100
AcDbEntity
8
2
62
256
6
ByLayer
370
-1
48
1
60
0
100
AcDbLine
10
98.340002
20
30.412594
30
0
11
98.339998
21
31.248587
31
0
39
0
210
0
220
0
230
1
0
ENDBLK
5
90
100
AcDbEntity
8
0
100
AcDbBlockEnd
0
BLOCK
5
9E
100
AcDbEntity
8
0
100
AcDbBlockBegin
2
DimnDraft3D2
70
0
10
0
20
0
30
0
3
DimnDraft3D2
0
MTEXT
5
93
100
AcDbEntity
8
SK2
62
256
6
ByLayer
370
-1
48
1
60
0
100
AcDbMText
10
57.922305
20
20.055805
30
0
210
0
220
0
230
1
1
\W01.000;\fsimplex.shx,bigfont.shx;79.21\P
40
3.50012
41
0
44
1.084337
50
0
71
7
72
5
7
DEFAULT
0
LINE
5
95
100
AcDbEntity
8
SK2
62
256
6
ByLayer
370
-1
48
1
60
0
100
AcDbLine
10
101.515
20
1.5875
30
0
11
101.515
21
22.355775
31
0
39
0
210
0
220
0
230
1
0
LINE
5
96
100
AcDbEntity
8
SK2
62
256
6
ByLayer
370
-1
48
1
60
0
100
AcDbLine
10
22.3062
20
7.5819
30
0
11
22.3062
21
22.355775
31
0
39
0
210
0
220
0
230
1
0
LINE
5
97
100
AcDbEntity
8
SK2
62
256
6
ByLayer
370
-1
48
1
60
0
100
AcDbLine
10
101.515
20
19.180775
30
0
11
22.3062
21
19.180775
31
0
39
0
210
0
220
0
230
1
0
LINE
5
98
100
AcDbEntity
8
SK2
62
256
6
ByLayer
370
-1
48
1
60
0
100
AcDbLine
10
101.515
20
19.180775
30
0
11
98.340002
21
18.762779
31
0
39
0
210
0
220
0
230
1
0
LINE
5
99
100
AcDbEntity
8
SK2
62
256
6
ByLayer
370
-1
48
1
60
0
100
AcDbLine
10
101.515
20
19.180775
30
0
11
98.339998
21
19.598772
31
0
39
0
210
0
220
0
230
1
0
LINE
5
9A
100
AcDbEntity
8
SK2
62
256
6
ByLayer
370
-1
48
1
60
0
100
AcDbLine
10
98.340002
20
18.762779
30
0
11
98.339998
21
19.598772
31
0
39
0
210
0
220
0
230
1
0
LINE
5
9B
100
AcDbEntity
8
SK2
62
256
6
ByLayer
370
-1
48
1
60
0
100
AcDbLine
10
22.3062
20
19.180775
30
0
11
25.481198
21
19.598772
31
0
39
0
210
0
220
0
230
1
0
LINE
5
9C
100
AcDbEntity
8
SK2
62
256
6
ByLayer
370
-1
48
1
60
0
100
AcDbLine
10
22.3062
20
19.180775
30
0
11
25.481202
21
18.762779
31
0
39
0
210
0
220
0
230
1
0
LINE
5
9D
100
AcDbEntity
8
SK2
62
256
6
ByLayer
370
-1
48
1
60
0
100
AcDbLine
10
25.481198
20
19.598772
30
0
11
25.481202
21
18.762779
31
0
39
0
210
0
220
0
230
1
0
ENDBLK
5
9F
100
AcDbEntity
8
0
100
AcDbBlockEnd
0
BLOCK
5
AC
100
AcDbEntity
8
0
100
AcDbBlockBegin
2
DimnDraft3D3
70
0
10
0
20
0
30
0
3
DimnDraft3D3
0
MTEXT
5
A2
100
AcDbEntity
8
SK2
62
256
6
ByLayer
370
-1
48
1
60
0
100
AcDbMText
10
19.387591
20
43.873205
30
0
210
0
220
0
230
1
1
\W01.000;\fsimplex.shx,bigfont.shx;154.21\P
40
3.50012
41
0
44
1.084337
50
0
71
7
72
5
7
DEFAULT
0
LINE
5
A3
100
AcDbEntity
8
SK2
62
256
6
ByLayer
370
-1
48
1
60
0
100
AcDbLine
10
101.515
20
1.5875
30
0
11
101.515
21
46.173175
31
0
39
0
210
0
220
0
230
1
0
LINE
5
A4
100
AcDbEntity
8
SK2
62
256
6
ByLayer
370
-1
48
1
60
0
100
AcDbLine
10
-52.7
20
8.525
30
0
11
-52.7
21
46.173175
31
0
39
0
210
0
220
0
230
1
0
LINE
5
A5
100
AcDbEntity
8
SK2
62
256
6
ByLayer
370
-1
48
1
60
0
100
AcDbLine
10
101.515
20
42.998175
30
0
11
-52.7
21
42.998175
31
0
39
0
210
0
220
0
230
1
0
LINE
5
A6
100
AcDbEntity
8
SK2
62
256
6
ByLayer
370
-1
48
1
60
0
100
AcDbLine
10
101.515
20
42.998175
30
0
11
98.340002
21
42.580178
31
0
39
0
210
0
220
0
230
1
0
LINE
5
A7
100
AcDbEntity
8
SK2
62
256
6
ByLayer
370
-1
48
1
60
0
100
AcDbLine
10
101.515
20
42.998175
30
0
11
98.339998
21
43.416171
31
0
39
0
210
0
220
0
230
1
0
LINE
5
A8
100
AcDbEntity
8
SK2
62
256
6
ByLayer
370
-1
48
1
60
0
100
AcDbLine
10
98.340002
20
42.580178
30
0
11
98.339998
21
43.416171
31
0
39
0
210
0
220
0
230
1
0
LINE
5
A9
100
AcDbEntity
8
SK2
62
256
6
ByLayer
370
-1
48
1
60
0
100
AcDbLine
10
-52.7
20
42.998175
30
0
11
-49.525002
21
43.416171
31
0
39
0
210
0
220
0
230
1
0
LINE
5
AA
100
AcDbEntity
8
SK2
62
256
6
ByLayer
370
-1
48
1
60
0
100
AcDbLine
10
-52.7
20
42.998175
30
0
11
-49.524998
21
42.580178
31
0
39
0
210
0
220
0
230
1
0
LINE
5
AB
100
AcDbEntity
8
SK2
62
256
6
ByLayer
370
-1
48
1
60
0
100
AcDbLine
10
-49.525002
20
43.416171
30
0
11
-49.524998
21
42.580178
31
0
39
0
210
0
220
0
230
1
0
ENDBLK
5
AD
100
AcDbEntity
8
0
100
AcDbBlockEnd
0
BLOCK
5
BA
100
AcDbEntity
8
0
100
AcDbBlockBegin
2
DimnDraft3D4
70
0
10
0
20
0
30
0
3
DimnDraft3D4
0
MTEXT
5
B0
100
AcDbEntity
8
SK2
62
256
6
ByLayer
370
-1
48
1
60
0
100
AcDbMText
10
118.410762
20
8.506562
30
0
210
0
220
0
230
1
1
\W01.000;\fsimplex.shx,bigfont.shx;%%c12\P
40
3.50012
41
0
44
1.084337
50
90
71
7
72
5
7
DEFAULT
0
LINE
5
B1
100
AcDbEntity
8
SK2
62
256
6
ByLayer
370
-1
48
1
60
0
100
AcDbLine
10
103.1021
20
5.9944
30
0
11
123.335822
21
5.9944
31
0
39
0
210
0
220
0
230
1
0
LINE
5
B2
100
AcDbEntity
8
SK2
62
256
6
ByLayer
370
-1
48
1
60
0
100
AcDbLine
10
103.1021
20
-5.9944
30
0
11
123.335822
21
-5.9944
31
0
39
0
210
0
220
0
230
1
0
LINE
5
B3
100
AcDbEntity
8
SK2
62
256
6
ByLayer
370
-1
48
1
60
0
100
AcDbLine
10
120.160822
20
-5.9944
30
0
11
120.160822
21
18.896391
31
0
39
0
210
0
220
0
230
1
0
LINE
5
B4
100
AcDbEntity
8
SK2
62
256
6
ByLayer
370
-1
48
1
60
0
100
AcDbLine
10
120.160822
20
5.9944
30
0
11
120.578819
21
2.819402
31
0
39
0
210
0
220
0
230
1
0
LINE
5
B5
100
AcDbEntity
8
SK2
62
256
6
ByLayer
370
-1
48
1
60
0
100
AcDbLine
10
120.160822
20
5.9944
30
0
11
119.742825
21
2.819398
31
0
39
0
210
0
220
0
230
1
0
LINE
5
B6
100
AcDbEntity
8
SK2
62
256
6
ByLayer
370
-1
48
1
60
0
100
AcDbLine
10
120.578819
20
2.819402
30
0
11
119.742825
21
2.819398
31
0
39
0
210
0
220
0
230
1
0
LINE
5
B7
100
AcDbEntity
8
SK2
62
256
6
ByLayer
370
-1
48
1
60
0
100
AcDbLine
10
120.160822
20
-5.9944
30
0
11
119.742825
21
-2.819402
31
0
39
0
210
0
220
0
230
1
0
LINE
5
B8
100
AcDbEntity
8
SK2
62
256
6
ByLayer
370
-1
48
1
60
0
100
AcDbLine
10
120.160822
20
-5.9944
30
0
11
120.578819
21
-2.819398
31
0
39
0
210
0
220
0
230
1
0
LINE
5
B9
100
AcDbEntity
8
SK2
62
256
6
ByLayer
370
-1
48
1
60
0
100
AcDbLine
10
119.742825
20
-2.819402
30
0
11
120.578819
21
-2.819398
31
0
39
0
210
0
220
0
230
1
0
ENDBLK
5
BB
100
AcDbEntity
8
0
100
AcDbBlockEnd
0
BLOCK
5
C8
100
AcDbEntity
8
0
100
AcDbBlockBegin
2
DimnDraft3D5
70
0
10
0
20
0
30
0
3
DimnDraft3D5
0
MTEXT
5
BE
100
AcDbEntity
8
SK2
62
256
6
ByLayer
370
-1
48
1
60
0
100
AcDbMText
10
-66.908404
20
10.923145
30
0
210
0
220
0
230
1
1
\W01.000;\fsimplex.shx,bigfont.shx;%%c15.875\P
40
3.50012
41
0
44
1.084337
50
90
71
7
72
5
7
DEFAULT
0
LINE
5
BF
100
AcDbEntity
8
SK2
62
256
6
ByLayer
370
-1
48
1
60
0
100
AcDbLine
10
-53.2875
20
7.9375
30
0
11
-68.333344
21
7.9375
31
0
39
0
210
0
220
0
230
1
0
LINE
5
C0
100
AcDbEntity
8
SK2
62
256
6
ByLayer
370
-1
48
1
60
0
100
AcDbLine
10
-53.2875
20
-7.9375
30
0
11
-68.333344
21
-7.9375
31
0
39
0
210
0
220
0
230
1
0
LINE
5
C1
100
AcDbEntity
8
SK2
62
256
6
ByLayer
370
-1
48
1
60
0
100
AcDbLine
10
-65.158344
20
-7.9375
30
0
11
-65.158344
21
30.394865
31
0
39
0
210
0
220
0
230
1
0
LINE
5
C2
100
AcDbEntity
8
SK2
62
256
6
ByLayer
370
-1
48
1
60
0
100
AcDbLine
10
-65.158344
20
7.9375
30
0
11
-64.740347
21
4.762502
31
0
39
0
210
0
220
0
230
1
0
LINE
5
C3
100
AcDbEntity
8
SK2
62
256
6
ByLayer
370
-1
48
1
60
0
100
AcDbLine
10
-65.158344
20
7.9375
30
0
11
-65.57634
21
4.762498
31
0
39
0
210
0
220
0
230
1
0
LINE
5
C4
100
AcDbEntity
8
SK2
62
256
6
ByLayer
370
-1
48
1
60
0
100
AcDbLine
10
-64.740347
20
4.762502
30
0
11
-65.57634
21
4.762498
31
0
39
0
210
0
220
0
230
1
0
LINE
5
C5
100
AcDbEntity
8
SK2
62
256
6
ByLayer
370
-1
48
1
60
0
100
AcDbLine
10
-65.158344
20
-7.9375
30
0
11
-65.57634
21
-4.762502
31
0
39
0
210
0
220
0
230
1
0
LINE
5
C6
100
AcDbEntity
8
SK2
62
256
6
ByLayer
370
-1
48
1
60
0
100
AcDbLine
10
-65.158344
20
-7.9375
30
0
11
-64.740347
21
-4.762498
31
0
39
0
210
0
220
0
230
1
0
LINE
5
C7
100
AcDbEntity
8
SK2
62
256
6
ByLayer
370
-1
48
1
60
0
100
AcDbLine
10
-65.57634
20
-4.762502
30
0
11
-64.740347
21
-4.762498
31
0
39
0
210
0
220
0
230
1
0
ENDBLK
5
C9
100
AcDbEntity
8
0
100
AcDbBlockEnd
0
ENDSEC
0
SECTION
2
ENTITIES
0
ARC
5
72
100
AcDbEntity
8
1
62
256
6
ByLayer
370
-1
48
1
60
0
100
AcDbCircle
39
0
10
-22.3062
20
7.9944
30
0
40
2
210
0
220
0
230
-1
100
AcDbArc
50
270
51
300
0
ARC
5
73
100
AcDbEntity
8
1
62
256
6
ByLayer
370
-1
48
1
60
0
100
AcDbCircle
39
0
10
22.3062
20
-7.9944
30
0
40
2
210
0
220
0
230
1
100
AcDbArc
50
90
51
120
0
POINT
5
42
100
AcDbEntity
8
80
62
256
6
ByLayer
370
-1
48
1
60
0
100
AcDbPoint
10
0
20
0
30
0
39
0
210
0
220
0
230
1
50
360
0
POINT
5
44
100
AcDbEntity
8
81
62
256
6
ByLayer
370
-1
48
1
60
0
100
AcDbPoint
10
101.515
20
0
30
0
39
0
210
0
220
0
230
1
50
360
0
SPLINE
5
74
100
AcDbEntity
8
1
62
256
6
ByLayer
370
-1
48
1
60
0
100
AcDbSpline
70
4
71
3
72
8
73
4
40
0
40
0
40
0
40
0
40
1
40
1
40
1
40
1
41
1
10
91.5146000002467
20
5.99439999962226
30
0
41
0.333333333333333
10
79.5258000002468
20
5.99439999962232
30
0
41
0.333333333333333
10
79.5258000002467
20
-5.99440000037768
30
0
41
1
10
91.5146000002467
20
-5.99440000037774
30
0
0
SPLINE
5
75
100
AcDbEntity
8
SK1
62
256
6
ByLayer
370
-1
48
1
60
0
100
AcDbSpline
70
4
71
3
72
8
73
4
40
0
40
0
40
0
40
0
40
1
40
1
40
1
40
1
41
1
10
-23.6999999997532
20
4.87698677426144
30
0
41
0.859317585301836
10
-21.3752596210116
20
1.89180610951621
30
0
41
0.859317585301836
10
-21.3752596210116
20
-1.89180611027062
30
0
41
1
10
-23.6999999997532
20
-4.87698677501584
30
0
0
SPLINE
5
76
100
AcDbEntity
8
SK1
62
256
6
ByLayer
370
-1
48
1
60
0
100
AcDbSpline
70
4
71
3
72
8
73
4
40
0
40
0
40
0
40
0
40
1
40
1
40
1
40
1
41
1
10
-33.6999999997533
20
-4.87698677501578
30
0
41
0.859317585301837
10
-36.0247403784949
20
-1.89180611027058
30
0
41
0.859317585301837
10
-36.0247403784948
20
1.89180610951628
30
0
41
1
10
-33.6999999997532
20
4.87698677426147
30
0
0
SPLINE
5
77
100
AcDbEntity
8
1
62
256
6
ByLayer
370
-1
48
1
60
0
100
AcDbSpline
70
4
71
3
72
42
73
38
40
0
40
0
40
0
40
0
40
0.0312500000000079
40
0.0312500000000079
40
0.0625000000000157
40
0.0625000000000157
40
0.0937500000000236
40
0.0937500000000236
40
0.125000000000031
40
0.125000000000031
40
0.187500000000029
40
0.187500000000029
40
0.250000000000027
40
0.250000000000027
40
0.312500000000025
40
0.312500000000025
40
0.375000000000022
40
0.375000000000022
40
0.500000000000018
40
0.500000000000018
40
0.562500000000016
40
0.562500000000016
40
0.625000000000013
40
0.625000000000013
40
0.687500000000011
40
0.687500000000011
40
0.750000000000009
40
0.750000000000009
40
0.812500000000007
40
0.812500000000007
40
0.875000000000004
40
0.875000000000004
40
0.937500000000002
40
0.937500000000002
40
0.968750000000001
40
0.968750000000001
40
1
40
1
40
1
40
1
41
1
10
99.3972053611378
20
-2.99720000037456
30
0
41
1
10
99.3972053611374
20
-2.96373446503878
30
0
41
1
10
99.390637922394
20
-2.93111271594145
30
0
41
1
10
99.366158449649
20
-2.86733656272221
30
0
41
1
10
99.348664793403
20
-2.83732963249875
30
0
41
1
10
99.3067350845159
20
-2.78116894746501
30
0
41
1
10
99.2820201448441
20
-2.75473444292334
30
0
41
1
10
99.2290734566526
20
-2.70622903427287
30
0
41
1
10
99.2006189503429
20
-2.68385723490897
30
0
41
1
10
99.1108425688839
20
-2.62096142123397
30
0
41
1
10
99.0453207946837
20
-2.58480623423901
30
0
41
1
10
98.9111601866642
20
-2.52191193286063
30
0
41
1
10
98.8417884968049
20
-2.49481704788974
30
0
41
1
10
98.6996675502786
20
-2.44713457213584
30
0
41
1
10
98.626694509908
20
-2.42656012207402
30
0
41
1
10
98.4804910013469
20
-2.3915948809784
30
0
41
1
10
98.40693559458
20
-2.37709338535984
30
0
41
1
10
98.1850814956087
20
-2.34146763119742
30
0
41
1
10
98.0356189315614
20
-2.32806938073927
30
0
41
1
10
97.8091431857376
20
-2.32326020073816
30
0
41
1
10
97.7329982121355
20
-2.32427338861399
30
0
41
1
10
97.5819527830855
20
-2.33184098748089
30
0
41
1
10
97.5068985711794
20
-2.33837069022368
30
0
41
1
10
97.3578218630342
20
-2.35744991438585
30
0
41
1
10
97.2837976166038
20
-2.36998981696973
30
0
41
1
10
97.1369737675634
20
-2.40215919024774
30
0
41
1
10
97.0637642468716
20
-2.42191004489587
30
0
41
1
10
96.9211819704964
20
-2.46981979728162
30
0
41
1
10
96.8519206279324
20
-2.49784433605947
30
0
41
1
10
96.7189521600302
20
-2.56485713883615
30
0
41
1
10
96.6557347854287
20
-2.60364554907639
30
0
41
1
10
96.5428353379003
20
-2.6939604316953
30
0
41
1
10
96.4921771224057
20
-2.74652408515163
30
0
41
1
10
96.4374099995155
20
-2.83500076933288
30
0
41
1
10
96.4225421356683
20
-2.8665254007459
30
0
41
1
10
96.4025658079399
20
-2.9306348069407
30
0
41
1
10
96.3972053611378
20
-2.96384784654677
30
0
41
1
10
96.3972053611378
20
-2.99720000037777
30
0
0
SPLINE
5
78
100
AcDbEntity
8
1
62
256
6
ByLayer
370
-1
48
1
60
0
100
AcDbSpline
70
4
71
3
72
8
73
4
40
0
40
0
40
0
40
0
40
1
40
1
40
1
40
1
41
1
10
91.5146000002467
20
5.99439999962226
30
0
41
0.333333333333333
10
79.5258000002468
20
5.99439999962232
30
0
41
0.333333333333333
10
79.5258000002467
20
-5.99440000037768
30
0
41
1
10
91.5146000002467
20
-5.99440000037774
30
0
0
SPLINE
5
79
100
AcDbEntity
8
1
62
256
6
ByLayer
370
-1
48
1
60
0
100
AcDbSpline
70
4
71
3
72
8
73
4
40
0
40
0
40
0
40
0
40
1
40
1
40
1
40
1
41
1
10
101.514600000247
20
-5.68604083934147
30
0
41
0.999208170488204
10
101.183900440974
20
-5.6243446582738
30
0
41
0.999208170488204
10
100.850302955307
20
-5.55371522263914
30
0
41
1
10
100.514600000247
20
-5.47432031185207
30
0
0
SPLINE
5
7A
100
AcDbEntity
8
1
62
256
6
ByLayer
370
-1
48
1
60
0
100
AcDbSpline
70
4
71
3
72
8
73
4
40
0
40
0
40
0
40
0
40
1
40
1
40
1
40
1
41
1
10
100.514600000247
20
-4.85222194375501
30
0
41
0.999208170488204
10
100.850302955307
20
-4.73779866307031
30
0
41
0.999208170488204
10
101.183900440974
20
-4.61582550055386
30
0
41
1
10
101.514600000247
20
-4.48659220205477
30
0
0
SPLINE
5
7B
100
AcDbEntity
8
1
62
256
6
ByLayer
370
-1
48
1
60
0
100
AcDbSpline
70
4
71
3
72
8
73
4
40
0
40
0
40
0
40
0
40
1
40
1
40
1
40
1
41
1
10
101.514600000247
20
4.48659220129915
30
0
41
0.999208170488204
10
101.183900440975
20
4.61582549979824
30
0
41
0.999208170488204
10
100.850302955307
20
4.73779866231471
30
0
41
1
10
100.514600000247
20
4.85222194299939
30
0
0
SPLINE
5
7C
100
AcDbEntity
8
1
62
256
6
ByLayer
370
-1
48
1
60
0
100
AcDbSpline
70
4
71
3
72
8
73
4
40
0
40
0
40
0
40
0
40
1
40
1
40
1
40
1
41
1
10
100.514600000247
20
5.47432031109648
30
0
41
0.999208170488204
10
100.850302955307
20
5.55371522188355
30
0
41
0.999208170488204
10
101.183900440975
20
5.62434465751824
30
0
41
1
10
101.514600000247
20
5.68604083858588
30
0
0
SPLINE
5
7D
100
AcDbEntity
8
1
62
256
6
ByLayer
370
-1
48
1
60
0
100
AcDbSpline
70
4
71
3
72
38
73
34
40
0
40
0
40
0
40
0
40
0.0312499999999965
40
0.0312499999999965
40
0.062499999999993
40
0.062499999999993
40
0.124999999999997
40
0.124999999999997
40
0.1875
40
0.1875
40
0.250000000000004
40
0.250000000000004
40
0.312500000000007
40
0.312500000000007
40
0.375000000000011
40
0.375000000000011
40
0.499999999999995
40
0.499999999999995
40
0.562499999999999
40
0.562499999999999
40
0.625000000000002
40
0.625000000000002
40
0.750000000000009
40
0.750000000000009
40
0.812500000000013
40
0.812500000000013
40
0.875000000000016
40
0.875000000000016
40
0.906250000000009
40
0.906250000000009
40
0.937500000000002
40
0.937500000000002
40
1
40
1
40
1
40
1
41
1
10
96.3972053611378
20
-2.99720000037777
30
0
41
1
10
96.3972053611378
20
-3.03064334027076
30
0
41
1
10
96.4024790650001
20
-3.06295047371589
30
0
41
1
10
96.4223195614938
20
-3.12557542325945
30
0
41
1
10
96.4371797672146
20
-3.15619754112487
30
0
41
1
10
96.491949073007
20
-3.24120253534503
30
0
41
1
10
96.5427053778225
20
-3.29064296550479
30
0
41
1
10
96.6558419096859
20
-3.37450631735226
30
0
41
1
10
96.7194517676744
20
-3.41003355769348
30
0
41
1
10
96.8523397605821
20
-3.47047814251215
30
0
41
1
10
96.9213595342947
20
-3.49536913313784
30
0
41
1
10
97.0631120923744
20
-3.53763961980331
30
0
41
1
10
97.1361770156529
20
-3.55502487559363
30
0
41
1
10
97.2839489308835
20
-3.58339952968152
30
0
41
1
10
97.358174671301
20
-3.59432174494748
30
0
41
1
10
97.5816896044107
20
-3.61914753460761
30
0
41
1
10
97.7318013608342
20
-3.62526618646433
30
0
41
1
10
97.9583793568396
20
-3.62121406998708
30
0
41
1
10
98.034396511712
20
-3.61757905407998
30
0
41
1
10
98.1848287753474
20
-3.60586882255242
30
0
41
1
10
98.2594235914382
20
-3.5978066141019
30
0
41
1
10
98.4812863200396
20
-3.56671836037646
30
0
41
1
10
98.6267345784855
20
-3.53718784723711
30
0
41
1
10
98.8397214782207
20
-3.47366426032068
30
0
41
1
10
98.9101700221908
20
-3.44905706351284
30
0
41
1
10
99.0453324113872
20
-3.39159184428306
30
0
41
1
10
99.1108586221131
20
-3.3584590420283
30
0
41
1
10
99.2004756306169
20
-3.30012142846036
30
0
41
1
10
99.2289187159401
20
-3.27922321999151
30
0
41
1
10
99.2819237331058
20
-3.23344996513319
30
0
41
1
10
99.3066077297105
20
-3.20838032331236
30
0
41
1
10
99.3695208328085
20
-3.12760873990823
30
0
41
1
10
99.3972053611387
20
-3.06400147110551
30
0
41
1
10
99.3972053611378
20
-2.99720000037456
30
0
0
SPLINE
5
7E
100
AcDbEntity
8
1
62
256
6
ByLayer
370
-1
48
1
60
0
100
AcDbSpline
70
4
71
3
72
38
73
34
40
0
40
0
40
0
40
0
40
0.0312500000000133
40
0.0312500000000133
40
0.0625000000000266
40
0.0625000000000266
40
0.125000000000042
40
0.125000000000042
40
0.187500000000058
40
0.187500000000058
40
0.250000000000074
40
0.250000000000074
40
0.312500000000089
40
0.312500000000089
40
0.375000000000105
40
0.375000000000105
40
0.500000000000113
40
0.500000000000113
40
0.562500000000106
40
0.562500000000106
40
0.625000000000099
40
0.625000000000099
40
0.750000000000084
40
0.750000000000084
40
0.812500000000066
40
0.812500000000066
40
0.875000000000048
40
0.875000000000048
40
0.90625000000004
40
0.90625000000004
40
0.937500000000031
40
0.937500000000031
40
1
40
1
40
1
40
1
41
1
10
96.3972003730349
20
5.99440035151682
30
0
41
1
10
96.3972103492407
20
5.99439964772759
30
0
41
1
10
96.4024790650002
20
5.99402795674547
30
0
41
1
10
96.4223195614937
20
5.99265336267524
30
0
41
1
10
96.4371797672146
20
5.99163196391623
30
0
41
1
10
96.491949073007
20
5.98797276487014
30
0
41
1
10
96.5427053778225
20
5.98470897182801
30
0
41
1
10
96.6558419096859
20
5.97806455757032
30
0
41
1
10
96.7194517676744
20
5.97460673142632
30
0
41
1
10
96.8523397605821
20
5.96814364240458
30
0
41
1
10
96.9213595342948
20
5.96513999585935
30
0
41
1
10
97.0631120923744
20
5.95975810234563
30
0
41
1
10
97.1361770156529
20
5.95736961169411
30
0
41
1
10
97.2839489308835
20
5.95334526293323
30
0
41
1
10
97.3581746713011
20
5.95171768549102
30
0
41
1
10
97.5816896044107
20
5.94796396870643
30
0
41
1
10
97.7318013608343
20
5.94696689052
30
0
41
1
10
97.9583793568395
20
5.94760258338084
30
0
41
1
10
98.034396511712
20
5.94817417013419
30
0
41
1
10
98.1848287753475
20
5.94997509214321
30
0
41
1
10
98.2594235914383
20
5.95120263106117
30
0
41
1
10
98.4812863200396
20
5.95577041991578
30
0
41
1
10
98.6267345784856
20
5.96000035104299
30
0
41
1
10
98.8397214782207
20
5.96771565523488
30
0
41
1
10
98.9101700221908
20
5.97053201888431
30
0
41
1
10
99.0453324113872
20
5.97637650828878
30
0
41
1
10
99.1108586221131
20
5.97944165106915
30
0
41
1
10
99.2004756306169
20
5.9838732949512
30
0
41
1
10
99.2289187159402
20
5.98532238403325
30
0
41
1
10
99.2819237331059
20
5.98808424699047
30
0
41
1
10
99.3066077297106
20
5.98940419975239
30
0
41
1
10
99.3695208328085
20
5.99282216892658
30
0
41
1
10
99.397216344415
20
5.99440062559464
30
0
41
1
10
99.3972006183598
20
5.99439972931603
30
0
0
LINE
5
46
100
AcDbEntity
8
1
62
256
6
ByLayer
370
-1
48
1
60
1
100
AcDbLine
10
-52.7
20
0
30
0
11
-52.7
21
297
31
0
39
0
210
0
220
0
230
1
0
LINE
5
48
100
AcDbEntity
8
1
62
256
6
ByLayer
370
-1
48
1
60
1
100
AcDbLine
10
367.3
20
297
30
0
11
-52.7
21
297
31
0
39
0
210
0
220
0
230
1
0
LINE
5
49
100
AcDbEntity
8
1
62
256
6
ByLayer
370
-1
48
1
60
1
100
AcDbLine
10
367.3
20
297
30
0
11
367.3
21
0
31
0
39
0
210
0
220
0
230
1
0
LINE
5
4A
100
AcDbEntity
8
1
62
256
6
ByLayer
370
-1
48
1
60
1
100
AcDbLine
10
-52.7
20
0
30
0
11
367.3
21
0
31
0
39
0
210
0
220
0
230
1
0
LINE
5
4B
100
AcDbEntity
8
1
62
256
6
ByLayer
370
-1
48
1
60
0
100
AcDbLine
10
22.3062
20
5.9944
30
0
11
22.3062
21
-5.9944
31
0
39
0
210
0
220
0
230
1
0
LINE
5
4C
100
AcDbEntity
8
SK1
62
256
6
ByLayer
370
-1
48
1
60
0
100
AcDbLine
10
-33.7
20
4.876987
30
0
11
-23.7
21
4.876987
31
0
39
0
210
0
220
0
230
1
0
LINE
5
4E
100
AcDbEntity
8
1
62
256
6
ByLayer
370
-1
48
1
60
0
100
AcDbLine
10
22.3062
20
5.9944
30
0
11
91.5146
21
5.9944
31
0
39
0
210
0
220
0
230
1
0
LINE
5
4F
100
AcDbEntity
8
SK1
62
256
6
ByLayer
370
-1
48
1
60
0
100
AcDbLine
10
-23.7
20
-4.876987
30
0
11
-33.7
21
-4.876987
31
0
39
0
210
0
220
0
230
1
0
LINE
5
50
100
AcDbEntity
8
SK1
62
256
6
ByLayer
370
-1
48
1
60
0
100
AcDbLine
10
-52.7
20
6.9375
30
0
11
-52.7
21
-6.9375
31
0
39
0
210
0
220
0
230
1
0
LINE
5
51
100
AcDbEntity
8
1
62
256
6
ByLayer
370
-1
48
1
60
0
100
AcDbLine
10
21.3062
20
-6.262349
30
0
11
18.404754
21
-7.9375
31
0
39
0
210
0
220
0
230
1
0
LINE
5
52
100
AcDbEntity
8
1
62
256
6
ByLayer
370
-1
48
1
60
0
100
AcDbLine
10
21.3062
20
6.262349
30
0
11
18.404754
21
7.9375
31
0
39
0
210
0
220
0
230
1
0
LINE
5
53
100
AcDbEntity
8
SK1
62
256
6
ByLayer
370
-1
48
1
60
0
100
AcDbLine
10
-52.7
20
-6.9375
30
0
11
-51.7
21
-7.9375
31
0
39
0
210
0
220
0
230
1
0
LINE
5
54
100
AcDbEntity
8
1
62
256
6
ByLayer
370
-1
48
1
60
0
100
AcDbLine
10
22.3062
20
-5.9944
30
0
11
91.5146
21
-5.9944
31
0
39
0
210
0
220
0
230
1
0
LINE
5
55
100
AcDbEntity
8
1
62
256
6
ByLayer
370
-1
48
1
60
0
100
AcDbLine
10
18.404754
20
7.9375
30
0
11
18.404754
21
-7.9375
31
0
39
0
210
0
220
0
230
1
0
LINE
5
56
100
AcDbEntity
8
SK1
62
256
6
ByLayer
370
-1
48
1
60
0
100
AcDbLine
10
-23.7
20
-4.876987
30
0
11
-23.7
21
4.876987
31
0
39
0
210
0
220
0
230
1
0
LINE
5
57
100
AcDbEntity
8
SK1
62
256
6
ByLayer
370
-1
48
1
60
0
100
AcDbLine
10
-52.7
20
6.9375
30
0
11
-51.7
21
7.9375
31
0
39
0
210
0
220
0
230
1
0
LINE
5
58
100
AcDbEntity
8
1
62
256
6
ByLayer
370
-1
48
1
60
1
100
AcDbLine
10
-51.7
20
-7.9375
30
0
11
18.404754
21
-7.9375
31
0
39
0
210
0
220
0
230
1
0
LINE
5
59
100
AcDbEntity
8
SK1
62
256
6
ByLayer
370
-1
48
1
60
0
100
AcDbLine
10
-33.7
20
-4.876987
30
0
11
-33.7
21
4.876987
31
0
39
0
210
0
220
0
230
1
0
LINE
5
5A
100
AcDbEntity
8
1
62
256
6
ByLayer
370
-1
48
1
60
1
100
AcDbLine
10
-51.7
20
7.9375
30
0
11
18.404754
21
7.9375
31
0
39
0
210
0
220
0
230
1
0
LINE
5
5B
100
AcDbEntity
8
1
62
256
6
ByLayer
370
-1
48
1
60
0
100
AcDbLine
10
21.3062
20
6.262349
30
0
11
21.3062
21
-6.262349
31
0
39
0
210
0
220
0
230
1
0
LINE
5
5C
100
AcDbEntity
8
SK1
62
256
6
ByLayer
370
-1
48
1
60
0
100
AcDbLine
10
-51.7
20
7.9375
30
0
11
-51.7
21
-7.9375
31
0
39
0
210
0
220
0
230
1
0
LINE
5
5D
100
AcDbEntity
8
1
62
256
6
ByLayer
370
-1
48
1
60
0
100
AcDbLine
10
97.263794
20
-2.381337
30
0
11
99.397205
21
-2.9972
31
0
39
0
210
0
220
0
230
1
0
LINE
5
5E
100
AcDbEntity
8
1
62
256
6
ByLayer
370
-1
48
1
60
0
100
AcDbLine
10
101.5146
20
5.686041
30
0
11
101.5146
21
4.486577
31
0
39
0
210
0
220
0
230
1
0
LINE
5
5F
100
AcDbEntity
8
1
62
256
6
ByLayer
370
-1
48
1
60
0
100
AcDbLine
10
101.5146
20
-4.486577
30
0
11
101.5146
21
-5.686041
31
0
39
0
210
0
220
0
230
1
0
LINE
5
60
100
AcDbEntity
8
1
62
256
6
ByLayer
370
-1
48
1
60
0
100
AcDbLine
10
101.5146
20
-5.686041
30
0
11
101.5146
21
-5.9944
31
0
39
0
210
0
220
0
230
1
0
LINE
5
61
100
AcDbEntity
8
1
62
256
6
ByLayer
370
-1
48
1
60
0
100
AcDbLine
10
101.5146
20
4.486592
30
0
11
101.5146
21
-4.486592
31
0
39
0
210
0
220
0
230
1
0
LINE
5
62
100
AcDbEntity
8
1
62
256
6
ByLayer
370
-1
48
1
60
0
100
AcDbLine
10
101.5146
20
5.9944
30
0
11
101.5146
21
5.686041
31
0
39
0
210
0
220
0
230
1
0
LINE
5
63
100
AcDbEntity
8
1
62
256
6
ByLayer
370
-1
48
1
60
0
100
AcDbLine
10
91.5146
20
5.9944
30
0
11
96.397205
21
5.9944
31
0
39
0
210
0
220
0
230
1
0
LINE
5
64
100
AcDbEntity
8
1
62
256
6
ByLayer
370
-1
48
1
60
0
100
AcDbLine
10
99.397205
20
5.9944
30
0
11
101.5146
21
5.9944
31
0
39
0
210
0
220
0
230
1
0
LINE
5
65
100
AcDbEntity
8
1
62
256
6
ByLayer
370
-1
48
1
60
0
100
AcDbLine
10
91.5146
20
-5.9944
30
0
11
101.5146
21
-5.9944
31
0
39
0
210
0
220
0
230
1
0
LINE
5
66
100
AcDbEntity
8
1
62
256
6
ByLayer
370
-1
48
1
60
0
100
AcDbLine
10
100.5146
20
-5.47432
30
0
11
100.5146
21
-4.852222
31
0
39
0
210
0
220
0
230
1
0
LINE
5
67
100
AcDbEntity
8
1
62
256
6
ByLayer
370
-1
48
1
60
0
100
AcDbLine
10
100.5146
20
4.852222
30
0
11
100.5146
21
5.47432
31
0
39
0
210
0
220
0
230
1
0
LINE
5
68
100
AcDbEntity
8
SK1
62
256
6
ByLayer
370
-1
48
1
60
0
100
AcDbLine
10
-51.7
20
7.9375
30
0
11
0
21
7.9375
31
0
39
0
210
0
220
0
230
1
0
LINE
5
69
100
AcDbEntity
8
SK1
62
256
6
ByLayer
370
-1
48
1
60
0
100
AcDbLine
10
-51.7
20
-7.9375
30
0
11
0
21
-7.9375
31
0
39
0
210
0
220
0
230
1
0
LINE
5
6A
100
AcDbEntity
8
80
62
256
6
ByLayer
370
-1
48
1
60
0
100
AcDbLine
10
0
20
0
30
0
11
-3.875156
21
0
31
0
39
0
210
0
220
0
230
1
0
LINE
5
6B
100
AcDbEntity
8
81
62
256
6
ByLayer
370
-1
48
1
60
0
100
AcDbLine
10
101.515
20
0
30
0
11
105.510088
21
0
31
0
39
0
210
0
220
0
230
1
0
LINE
5
6C
100
AcDbEntity
8
4
62
256
6
ByLayer
370
-1
48
0.05
60
0
100
AcDbLine
10
0
20
0
30
0
11
101.515
21
0
31
0
39
0
210
0
220
0
230
1
0
LINE
5
6E
100
AcDbEntity
8
SK4
62
256
6
ByLayer
370
-1
48
0.05
60
0
100
AcDbLine
10
105.510088
20
0
30
0
11
-56.488319
21
0
31
0
39
0
210
0
220
0
230
1
0
LINE
5
70
100
AcDbEntity
8
1
62
256
6
ByLayer
370
-1
48
1
60
0
100
AcDbLine
10
18.404754
20
7.9375
30
0
11
0
21
7.9375
31
0
39
0
210
0
220
0
230
1
0
LINE
5
71
100
AcDbEntity
8
1
62
256
6
ByLayer
370
-1
48
1
60
0
100
AcDbLine
10
18.404754
20
-7.9375
30
0
11
0
21
-7.9375
31
0
39
0
210
0
220
0
230
1
0
MTEXT
5
7F
100
AcDbEntity
8
SK6
62
256
6
ByLayer
370
-1
48
1
60
0
100
AcDbMText
10
13.156761
20
-21.832021
30
0
210
0
220
0
230
1
1
\W00.718;\fsimplex.shx,bigfont.shx;A327-16B85EC-12\P
40
3.175
41
0
44
1.084337
50
0
71
7
72
5
7
DEFAULT
0
DIMENSION
5
91
100
AcDbEntity
8
2
62
256
6
ByLayer
370
-3
48
1
60
0
100
AcDbDimension
2
DimnDraft3D1
10
101.515
20
30.83059
30
0
11
50.7575
21
30.83059
31
0
70
32
71
5
72
1
41
1
210
0
220
0
230
1
3
Standard
100
AcDbAlignedDimension
13
0
23
1.5875
33
0
14
101.515
24
1.5875
34
0
50
0
100
AcDbRotatedDimension
1001
ACAD
1000
DSTYLE
1002
{
1070
   279
1070
     0
1070
   172
1070
     1
1070
   173
1070
     1
1070
   340
1005
80
1070
   271
1070
     2
1070
   272
1070
     2
1070
    77
1070
     1
1070
    73
1070
     0
1070
   171
1070
     3
1070
   274
1070
     4
1070
   177
1070
     7
1070
   176
1070
     7
1070
   178
1070
     7
1070
    78
1070
     8
1070
    48
1040
-0.005
1070
    41
1041
3.175
1070
   147
1041
1.75006
1070
    42
1041
1.5875
1070
    44
1041
3.175
1070
   140
1041
3.50012
1070
   343
1005
0
1070
   344
1005
0
1002
}
0
DIMENSION
5
A0
100
AcDbEntity
8
SK2
62
256
6
ByLayer
370
-3
48
1
60
0
100
AcDbDimension
2
DimnDraft3D2
10
22.3062
20
19.180775
30
0
11
61.9106
21
19.180775
31
0
70
32
71
5
72
1
41
1
210
0
220
0
230
1
3
Standard
100
AcDbAlignedDimension
13
101.515
23
1.5875
33
0
14
22.3062
24
7.5819
34
0
50
0
100
AcDbRotatedDimension
1001
ACAD
1000
DSTYLE
1002
{
1070
   279
1070
     0
1070
   172
1070
     1
1070
   173
1070
     1
1070
   340
1005
80
1070
   271
1070
     2
1070
   272
1070
     2
1070
    77
1070
     1
1070
    73
1070
     0
1070
   171
1070
     3
1070
   274
1070
     4
1070
   177
1070
     7
1070
   176
1070
     7
1070
   178
1070
     7
1070
    78
1070
     8
1070
    48
1040
-0.005
1070
    41
1041
3.175
1070
   147
1041
1.75006
1070
    42
1041
1.5875
1070
    44
1041
3.175
1070
   140
1041
3.50012
1070
   343
1005
0
1070
   344
1005
0
1002
}
0
DIMENSION
5
AE
100
AcDbEntity
8
SK2
62
256
6
ByLayer
370
-3
48
1
60
0
100
AcDbDimension
2
DimnDraft3D3
10
-52.7
20
42.998175
30
0
11
24.4075
21
42.998175
31
0
70
32
71
5
72
1
41
1
210
0
220
0
230
1
3
Standard
100
AcDbAlignedDimension
13
101.515
23
1.5875
33
0
14
-52.7
24
8.525
34
0
50
0
100
AcDbRotatedDimension
1001
ACAD
1000
DSTYLE
1002
{
1070
   279
1070
     0
1070
   172
1070
     1
1070
   173
1070
     1
1070
   340
1005
80
1070
   271
1070
     2
1070
   272
1070
     2
1070
    77
1070
     1
1070
    73
1070
     0
1070
   171
1070
     3
1070
   274
1070
     4
1070
   177
1070
     7
1070
   176
1070
     7
1070
   178
1070
     7
1070
    78
1070
     8
1070
    48
1040
-0.005
1070
    41
1041
3.175
1070
   147
1041
1.75006
1070
    42
1041
1.5875
1070
    44
1041
3.175
1070
   140
1041
3.50012
1070
   343
1005
0
1070
   344
1005
0
1002
}
0
DIMENSION
5
BC
100
AcDbEntity
8
SK2
62
256
6
ByLayer
370
-3
48
1
60
0
100
AcDbDimension
2
DimnDraft3D4
10
120.160822
20
-5.9944
30
0
11
120.160822
21
13.263962
31
0
70
32
71
5
72
1
41
1
210
0
220
0
230
1
3
Standard
100
AcDbAlignedDimension
13
103.1021
23
5.9944
33
0
14
103.1021
24
-5.9944
34
0
50
90
100
AcDbRotatedDimension
1001
ACAD
1000
DSTYLE
1002
{
1070
    74
1070
     0
1070
   279
1070
     0
1070
   172
1070
     1
1070
   173
1070
     1
1070
   340
1005
80
1070
   271
1070
     1
1070
   272
1070
     2
1070
    77
1070
     1
1070
    73
1070
     0
1070
   171
1070
     3
1070
   274
1070
     4
1070
   177
1070
     7
1070
   176
1070
     7
1070
   178
1070
     7
1070
    78
1070
     8
1070
    48
1040
-0.005
1070
    41
1041
3.175
1070
   147
1041
1.75006
1070
    42
1041
1.5875
1070
    44
1041
3.175
1070
   140
1041
3.50012
1070
   343
1005
0
1070
   344
1005
0
1002
}
0
DIMENSION
5
CA
100
AcDbEntity
8
SK2
62
256
6
ByLayer
370
-3
48
1
60
0
100
AcDbDimension
2
DimnDraft3D5
10
-65.158344
20
-7.9375
30
0
11
-65.158344
21
20.22149
31
0
70
32
71
5
72
1
41
1
210
0
220
0
230
1
3
Standard
100
AcDbAlignedDimension
13
-53.2875
23
7.9375
33
0
14
-53.2875
24
-7.9375
34
0
50
90
100
AcDbRotatedDimension
1001
ACAD
1000
DSTYLE
1002
{
1070
    74
1070
     0
1070
   279
1070
     0
1070
   172
1070
     1
1070
   173
1070
     1
1070
   340
1005
80
1070
   271
1070
     3
1070
   272
1070
     2
1070
    77
1070
     1
1070
    73
1070
     0
1070
   171
1070
     3
1070
   274
1070
     4
1070
   177
1070
     7
1070
   176
1070
     7
1070
   178
1070
     7
1070
    78
1070
     8
1070
    48
1040
-0.005
1070
    41
1041
3.175
1070
   147
1041
1.75006
1070
    42
1041
1.5875
1070
    44
1041
3.175
1070
   140
1041
3.50012
1070
   343
1005
0
1070
   344
1005
0
1002
}
0
ENDSEC
0
SECTION
2
OBJECTS
0
DICTIONARY
5
119
330
0
100
AcDbDictionary
280
0
281
1
3
ACAD_GROUP
350
11a
3
ACAD_MLINESTYLE
350
11b
0
DICTIONARY
5
11a
330
0
100
AcDbDictionary
280
0
281
1
0
DICTIONARY
5
11b
330
0
100
AcDbDictionary
280
0
281
1
3
Standard
350
18
0
MLINESTYLE
5
18
330
11b
100
AcDbMlineStyle
2
Standard
70
0
3

62
256
51
90
52
90
71
2
49
-0.5
62
256
6
ByLayer
49
0.5
62
256
6
ByLayer
0
RASTERVARIABLES
5
107
330

100
AcDbRasterVariables
90
0
70
1
71
1
72
1
0
ENDSEC
0
EOF
