0
SECTION
2
HEADER
9
$ACADVER
1
AC1015
9
$DWGCODEPAGE
3
ANSI_1252
9
$HANDSEED
5
135
9
$ANGBASE
50
0
9
$ANGDIR
70
0
9
$ATTMODE
70
1
9
$AUNITS
70
0
9
$AUPREC
70
0
9
$CECOLOR
62
256
9
$CELTSCALE
40
1
9
$CELTYPE
6
ByLayer
9
$CELWEIGHT
370
-1
9
$CLAYER
8
0
9
$CMLJUST
70
0
9
$CMLSCALE
40
1
9
$CMLSTYLE
2
Standard
9
$DIMSTYLE
2
Standard
9
$TEXTSIZE
40
0.2
9
$TEXTSTYLE
7
Standard
9
$LUNITS
70
2
9
$LUPREC
70
4
9
$EXTNAMES
290
1
9
$INSUNITS
70
4
9
$LTSCALE
40
1
9
$LWDISPLAY
290
0
9
$PDMODE
70
0
9
$PDSIZE
40
0
9
$PLINEGEN
70
0
0
ENDSEC
0
SECTION
2
CLASSES
0
CLASS
1
RASTERVARIABLES
2
AcDbRasterVariables
3
ISM
90
0
280
0
281
0
0
ENDSEC
0
SECTION
2
TABLES
0
TABLE
2
VPORT
5
12b
100
AcDbSymbolTable
0
VPORT
5
1
100
AcDbSymbolTableRecord
100
AcDbViewportTableRecord
2
*Active
70
0
10
0
20
0
11
1
21
1
12
-1
22
1
13
0
23
0
14
0.5
24
0.5
15
10
25
10
16
0
26
0
36
1
17
0
27
0
37
0
0
ENDTAB
0
TABLE
2
LTYPE
5
12c
100
AcDbSymbolTable
0
LTYPE
5
14
100
AcDbSymbolTableRecord
100
AcDbLinetypeTableRecord
70
0
2
ByBlock
3

72
65
73
0
40
0
0
LTYPE
5
15
100
AcDbSymbolTableRecord
100
AcDbLinetypeTableRecord
70
0
2
ByLayer
3

72
65
73
0
40
0
0
LTYPE
5
16
100
AcDbSymbolTableRecord
100
AcDbLinetypeTableRecord
70
0
2
CONTINUOUS
3
Solid line
72
65
73
0
40
0
0
LTYPE
5
3C
100
AcDbSymbolTableRecord
100
AcDbLinetypeTableRecord
70
0
2
DASHED
3
__ __ __ __ __ __ __ __ __
72
65
73
2
40
25.72
49
12.86
74
0
49
-12.86
74
0
0
LTYPE
5
3D
100
AcDbSymbolTableRecord
100
AcDbLinetypeTableRecord
70
0
2
HIDDEN
3
_ _ _ _ _ _ _ _ _ _ _ _ _ _ _
72
65
73
2
40
0.5
49
0.25
74
0
49
-0.25
74
0
0
LTYPE
5
3E
100
AcDbSymbolTableRecord
100
AcDbLinetypeTableRecord
70
0
2
PHANTOM
3
____ _ _ ____ _ _ _____ _ _ ____
72
65
73
6
40
50.5
49
18
74
0
49
-6.5
74
0
49
6.5
74
0
49
-6.5
74
0
49
6.5
74
0
49
-6.5
74
0
0
LTYPE
5
3F
100
AcDbSymbolTableRecord
100
AcDbLinetypeTableRecord
70
0
2
CENTER
3
____ _ ____ _ ____ _ ____
72
65
73
4
40
47.5
49
22
74
0
49
-8.5
74
0
49
8.5
74
0
49
-8.5
74
0
0
LTYPE
5
40
100
AcDbSymbolTableRecord
100
AcDbLinetypeTableRecord
70
0
2
DOT
3
.........................
72
65
73
2
40
10
49
0
74
0
49
-10
74
0
0
LTYPE
5
41
100
AcDbSymbolTableRecord
100
AcDbLinetypeTableRecord
70
0
2
DASHDOT
3
_._._._._._._._._._._._._._._._.
72
65
73
4
40
70
49
31
74
0
49
-13
74
0
49
13
74
0
49
-13
74
0
0
ENDTAB
0
TABLE
2
LAYER
5
12d
100
AcDbSymbolTable
0
LAYER
5
10
100
AcDbSymbolTableRecord
100
AcDbLayerTableRecord
2
0
70
0
62
7
6
CONTINUOUS
290
1
370
-3
390
0
0
LAYER
5
43
100
AcDbSymbolTableRecord
100
AcDbLayerTableRecord
2
80
70
0
62
-6
6
CONTINUOUS
290
1
370
-3
390
0
0
LAYER
5
45
100
AcDbSymbolTableRecord
100
AcDbLayerTableRecord
2
81
70
0
62
-3
6
CONTINUOUS
290
1
370
-3
390
0
0
LAYER
5
47
100
AcDbSymbolTableRecord
100
AcDbLayerTableRecord
2
1
70
0
62
4
6
CONTINUOUS
290
1
370
-3
390
0
0
LAYER
5
71
100
AcDbSymbolTableRecord
100
AcDbLayerTableRecord
2
4
70
0
62
-2
6
CENTER
290
1
370
-3
390
0
0
LAYER
5
B1
100
AcDbSymbolTableRecord
100
AcDbLayerTableRecord
2
2
70
0
62
7
6
CONTINUOUS
290
1
370
-3
390
0
0
LAYER
5
117
100
AcDbSymbolTableRecord
100
AcDbLayerTableRecord
2
SK1
70
0
62
4
6
CONTINUOUS
290
1
370
-3
390
0
0
LAYER
5
118
100
AcDbSymbolTableRecord
100
AcDbLayerTableRecord
2
SK4
70
0
62
2
6
CENTER
290
1
370
-3
390
0
0
LAYER
5
119
100
AcDbSymbolTableRecord
100
AcDbLayerTableRecord
2
SK6
70
0
62
5
6
CONTINUOUS
290
1
370
-3
390
0
0
LAYER
5
11a
100
AcDbSymbolTableRecord
100
AcDbLayerTableRecord
2
SK2
70
0
62
7
6
CONTINUOUS
290
1
370
-3
390
0
0
ENDTAB
0
TABLE
2
STYLE
5
12e
100
AcDbSymbolTable
0
STYLE
5
11
100
AcDbSymbolTableRecord
100
AcDbTextStyleTableRecord
2
Standard
3
txt
70
0
71
0
40
0
41
1
42
0
50
0
0
STYLE
5
88
100
AcDbSymbolTableRecord
100
AcDbTextStyleTableRecord
2
DEFAULT
3
simplex.shx
70
0
71
0
40
0
41
1
42
0
50
0
0
STYLE
5
89
100
AcDbSymbolTableRecord
100
AcDbTextStyleTableRecord
2
DWGDirectTextStyle
3
SIMPLEX
70
0
71
0
40
0
41
1
42
0
50
0
0
ENDTAB
0
TABLE
2
DIMSTYLE
5
12f
100
AcDbSymbolTable
100
AcDbDimStyleTable
0
DIMSTYLE
105
27
100
AcDbSymbolTableRecord
100
AcDbDimStyleTableRecord
2
Standard
70
0
3
<>
41
0.18
42
0.0625
44
0.18
140
0.18
147
0.09
73
0
74
0
77
1
271
2
275
0
278
52
280
0
340
11
0
ENDTAB
0
TABLE
2
VIEW
5
130
100
AcDbSymbolTable
0
ENDTAB
0
TABLE
2
UCS
5
131
100
AcDbSymbolTable
0
ENDTAB
0
TABLE
2
APPID
5
132
100
AcDbSymbolTable
0
APPID
5
12
100
AcDbSymbolTableRecord
100
AcDbRegAppTableRecord
2
ACAD
70
0
0
ENDTAB
0
TABLE
2
BLOCK_RECORD
5
133
100
AcDbSymbolTable
0
BLOCK_RECORD
5
1F
100
AcDbSymbolTableRecord
100
AcDbBlockTableRecord
2
*Model_Space
340
0
70
0
0
BLOCK_RECORD
5
1B
100
AcDbSymbolTableRecord
100
AcDbBlockTableRecord
2
*Paper_Space
340
0
70
0
0
BLOCK_RECORD
5
23
100
AcDbSymbolTableRecord
100
AcDbBlockTableRecord
2
*Paper_Space0
340
0
70
0
0
BLOCK_RECORD
5
8B
100
AcDbSymbolTableRecord
100
AcDbBlockTableRecord
2
DimnDraft3D1
340
0
70
0
0
BLOCK_RECORD
5
9A
100
AcDbSymbolTableRecord
100
AcDbBlockTableRecord
2
DimnDraft3D2
340
0
70
0
0
BLOCK_RECORD
5
A8
100
AcDbSymbolTableRecord
100
AcDbBlockTableRecord
2
_CLOSED
340
0
70
0
0
BLOCK_RECORD
5
AF
100
AcDbSymbolTableRecord
100
AcDbBlockTableRecord
2
DimnDraft3D3
340
0
70
0
0
BLOCK_RECORD
5
BE
100
AcDbSymbolTableRecord
100
AcDbBlockTableRecord
2
DimnDraft3D4
340
0
70
0
0
BLOCK_RECORD
5
CC
100
AcDbSymbolTableRecord
100
AcDbBlockTableRecord
2
DimnDraft3D5
340
0
70
0
0
ENDTAB
0
ENDSEC
0
SECTION
2
BLOCKS
0
BLOCK
5
20
100
AcDbEntity
8
0
100
AcDbBlockBegin
2
*Model_Space
70
0
10
0
20
0
30
0
3
*Model_Space
0
ENDBLK
5
21
100
AcDbEntity
8
0
100
AcDbBlockEnd
0
BLOCK
5
1C
100
AcDbEntity
8
0
100
AcDbBlockBegin
2
*Paper_Space
70
0
10
0
20
0
30
0
3
*Paper_Space
0
ENDBLK
5
1D
100
AcDbEntity
8
0
100
AcDbBlockEnd
0
BLOCK
5
24
100
AcDbEntity
8
0
100
AcDbBlockBegin
2
*Paper_Space0
70
0
10
0
20
0
30
0
3
*Paper_Space0
0
ENDBLK
5
25
100
AcDbEntity
8
0
100
AcDbBlockEnd
0
BLOCK
5
97
100
AcDbEntity
8
0
100
AcDbBlockBegin
2
DimnDraft3D1
70
0
10
0
20
0
30
0
3
DimnDraft3D1
0
MTEXT
5
8C
100
AcDbEntity
8
SK2
62
256
6
ByLayer
370
-1
48
1
60
0
100
AcDbMText
10
51.343577
20
6.571704
30
0
210
0
220
0
230
1
1
\W01.000;\fsimplex.shx,bigfont.shx;%%c6\P
40
3.50012
41
0
44
1.084337
50
90
71
7
72
5
7
DEFAULT
0
LINE
5
8E
100
AcDbEntity
8
SK2
62
256
6
ByLayer
370
-1
48
1
60
0
100
AcDbLine
10
32.8575
20
2.9972
30
0
11
56.268637
21
2.9972
31
0
39
0
210
0
220
0
230
1
0
LINE
5
8F
100
AcDbEntity
8
SK2
62
256
6
ByLayer
370
-1
48
1
60
0
100
AcDbLine
10
32.8575
20
-2.9972
30
0
11
56.268637
21
-2.9972
31
0
39
0
210
0
220
0
230
1
0
LINE
5
90
100
AcDbEntity
8
SK2
62
256
6
ByLayer
370
-1
48
1
60
0
100
AcDbLine
10
53.093637
20
-11.7475
30
0
11
53.093637
21
15.266739
31
0
39
0
210
0
220
0
230
1
0
LINE
5
91
100
AcDbEntity
8
SK2
62
256
6
ByLayer
370
-1
48
1
60
0
100
AcDbLine
10
53.093637
20
2.9972
30
0
11
52.675641
21
6.172198
31
0
39
0
210
0
220
0
230
1
0
LINE
5
92
100
AcDbEntity
8
SK2
62
256
6
ByLayer
370
-1
48
1
60
0
100
AcDbLine
10
53.093637
20
2.9972
30
0
11
53.511634
21
6.172202
31
0
39
0
210
0
220
0
230
1
0
LINE
5
93
100
AcDbEntity
8
SK2
62
256
6
ByLayer
370
-1
48
1
60
0
100
AcDbLine
10
52.675641
20
6.172198
30
0
11
53.511634
21
6.172202
31
0
39
0
210
0
220
0
230
1
0
LINE
5
94
100
AcDbEntity
8
SK2
62
256
6
ByLayer
370
-1
48
1
60
0
100
AcDbLine
10
53.093637
20
-2.9972
30
0
11
53.511634
21
-6.172198
31
0
39
0
210
0
220
0
230
1
0
LINE
5
95
100
AcDbEntity
8
SK2
62
256
6
ByLayer
370
-1
48
1
60
0
100
AcDbLine
10
53.093637
20
-2.9972
30
0
11
52.675641
21
-6.172202
31
0
39
0
210
0
220
0
230
1
0
LINE
5
96
100
AcDbEntity
8
SK2
62
256
6
ByLayer
370
-1
48
1
60
0
100
AcDbLine
10
53.511634
20
-6.172198
30
0
11
52.675641
21
-6.172202
31
0
39
0
210
0
220
0
230
1
0
ENDBLK
5
98
100
AcDbEntity
8
0
100
AcDbBlockEnd
0
BLOCK
5
A5
100
AcDbEntity
8
0
100
AcDbBlockBegin
2
DimnDraft3D2
70
0
10
0
20
0
30
0
3
DimnDraft3D2
0
MTEXT
5
9B
100
AcDbEntity
8
SK2
62
256
6
ByLayer
370
-1
48
1
60
0
100
AcDbMText
10
-10.973295
20
30.451696
30
0
210
0
220
0
230
1
1
\W01.000;\fsimplex.shx,bigfont.shx;76.51\P
40
3.50012
41
0
44
1.084337
50
0
71
7
72
5
7
DEFAULT
0
LINE
5
9C
100
AcDbEntity
8
SK2
62
256
6
ByLayer
370
-1
48
1
60
0
100
AcDbLine
10
31.27
20
1.5875
30
0
11
31.27
21
32.751666
31
0
39
0
210
0
220
0
230
1
0
LINE
5
9D
100
AcDbEntity
8
SK2
62
256
6
ByLayer
370
-1
48
1
60
0
100
AcDbLine
10
-45.24
20
6.9375
30
0
11
-45.24
21
32.751666
31
0
39
0
210
0
220
0
230
1
0
LINE
5
9E
100
AcDbEntity
8
SK2
62
256
6
ByLayer
370
-1
48
1
60
0
100
AcDbLine
10
31.27
20
29.576666
30
0
11
-45.24
21
29.576666
31
0
39
0
210
0
220
0
230
1
0
LINE
5
9F
100
AcDbEntity
8
SK2
62
256
6
ByLayer
370
-1
48
1
60
0
100
AcDbLine
10
31.27
20
29.576666
30
0
11
28.095002
21
29.158669
31
0
39
0
210
0
220
0
230
1
0
LINE
5
A0
100
AcDbEntity
8
SK2
62
256
6
ByLayer
370
-1
48
1
60
0
100
AcDbLine
10
31.27
20
29.576666
30
0
11
28.094998
21
29.994663
31
0
39
0
210
0
220
0
230
1
0
LINE
5
A1
100
AcDbEntity
8
SK2
62
256
6
ByLayer
370
-1
48
1
60
0
100
AcDbLine
10
28.095002
20
29.158669
30
0
11
28.094998
21
29.994663
31
0
39
0
210
0
220
0
230
1
0
LINE
5
A2
100
AcDbEntity
8
SK2
62
256
6
ByLayer
370
-1
48
1
60
0
100
AcDbLine
10
-45.24
20
29.576666
30
0
11
-42.065002
21
29.994663
31
0
39
0
210
0
220
0
230
1
0
LINE
5
A3
100
AcDbEntity
8
SK2
62
256
6
ByLayer
370
-1
48
1
60
0
100
AcDbLine
10
-45.24
20
29.576666
30
0
11
-42.064998
21
29.158669
31
0
39
0
210
0
220
0
230
1
0
LINE
5
A4
100
AcDbEntity
8
SK2
62
256
6
ByLayer
370
-1
48
1
60
0
100
AcDbLine
10
-42.065002
20
29.994663
30
0
11
-42.064998
21
29.158669
31
0
39
0
210
0
220
0
230
1
0
ENDBLK
5
A6
100
AcDbEntity
8
0
100
AcDbBlockEnd
0
BLOCK
5
A9
100
AcDbEntity
8
0
100
AcDbBlockBegin
2
_CLOSED
70
0
10
0
20
0
30
0
3
_CLOSED
0
LINE
5
AB
100
AcDbEntity
8
0
62
256
6
ByLayer
370
-2
48
1
60
0
100
AcDbLine
10
-1
20
0.166667
30
0
11
0
21
0
31
0
39
0
210
0
220
0
230
1
0
LINE
5
AC
100
AcDbEntity
8
0
62
256
6
ByLayer
370
-2
48
1
60
0
100
AcDbLine
10
0
20
0
30
0
11
-1
21
-0.166667
31
0
39
0
210
0
220
0
230
1
0
LINE
5
AD
100
AcDbEntity
8
0
62
256
6
ByLayer
370
-2
48
1
60
0
100
AcDbLine
10
-1
20
0.166667
30
0
11
-1
21
-0.166667
31
0
39
0
210
0
220
0
230
1
0
LINE
5
AE
100
AcDbEntity
8
0
62
256
6
ByLayer
370
-2
48
1
60
0
100
AcDbLine
10
0
20
0
30
0
11
-1
21
0
31
0
39
0
210
0
220
0
230
1
0
ENDBLK
5
AA
100
AcDbEntity
8
0
100
AcDbBlockEnd
0
BLOCK
5
BB
100
AcDbEntity
8
0
100
AcDbBlockBegin
2
DimnDraft3D3
70
0
10
0
20
0
30
0
3
DimnDraft3D3
0
MTEXT
5
B0
100
AcDbEntity
8
2
62
256
6
ByLayer
370
-1
48
1
60
0
100
AcDbMText
10
11.646705
20
20.28391
30
0
210
0
220
0
230
1
1
\W01.000;\fsimplex.shx,bigfont.shx;31.27\P
40
3.50012
41
0
44
1.084337
50
0
71
7
72
5
7
DEFAULT
0
LINE
5
B2
100
AcDbEntity
8
2
62
256
6
ByLayer
370
-1
48
1
60
0
100
AcDbLine
10
31.27
20
1.5875
30
0
11
31.27
21
22.58388
31
0
39
0
210
0
220
0
230
1
0
LINE
5
B3
100
AcDbEntity
8
2
62
256
6
ByLayer
370
-1
48
1
60
0
100
AcDbLine
10
0
20
1.5875
30
0
11
0
21
22.58388
31
0
39
0
210
0
220
0
230
1
0
LINE
5
B4
100
AcDbEntity
8
2
62
256
6
ByLayer
370
-1
48
1
60
0
100
AcDbLine
10
31.27
20
19.40888
30
0
11
0
21
19.40888
31
0
39
0
210
0
220
0
230
1
0
LINE
5
B5
100
AcDbEntity
8
2
62
256
6
ByLayer
370
-1
48
1
60
0
100
AcDbLine
10
31.27
20
19.40888
30
0
11
28.095002
21
18.990884
31
0
39
0
210
0
220
0
230
1
0
LINE
5
B6
100
AcDbEntity
8
2
62
256
6
ByLayer
370
-1
48
1
60
0
100
AcDbLine
10
31.27
20
19.40888
30
0
11
28.094998
21
19.826877
31
0
39
0
210
0
220
0
230
1
0
LINE
5
B7
100
AcDbEntity
8
2
62
256
6
ByLayer
370
-1
48
1
60
0
100
AcDbLine
10
28.095002
20
18.990884
30
0
11
28.094998
21
19.826877
31
0
39
0
210
0
220
0
230
1
0
LINE
5
B8
100
AcDbEntity
8
2
62
256
6
ByLayer
370
-1
48
1
60
0
100
AcDbLine
10
0
20
19.40888
30
0
11
3.174998
21
19.826877
31
0
39
0
210
0
220
0
230
1
0
LINE
5
B9
100
AcDbEntity
8
2
62
256
6
ByLayer
370
-1
48
1
60
0
100
AcDbLine
10
0
20
19.40888
30
0
11
3.175002
21
18.990884
31
0
39
0
210
0
220
0
230
1
0
LINE
5
BA
100
AcDbEntity
8
2
62
256
6
ByLayer
370
-1
48
1
60
0
100
AcDbLine
10
3.174998
20
19.826877
30
0
11
3.175002
21
18.990884
31
0
39
0
210
0
220
0
230
1
0
ENDBLK
5
BC
100
AcDbEntity
8
0
100
AcDbBlockEnd
0
BLOCK
5
C9
100
AcDbEntity
8
0
100
AcDbBlockBegin
2
DimnDraft3D4
70
0
10
0
20
0
30
0
3
DimnDraft3D4
0
MTEXT
5
BF
100
AcDbEntity
8
SK2
62
256
6
ByLayer
370
-1
48
1
60
0
100
AcDbMText
10
18.96632
20
10.994822
30
0
210
0
220
0
230
1
1
\W01.000;\fsimplex.shx,bigfont.shx;17.51\P
40
3.50012
41
0
44
1.084337
50
0
71
7
72
5
7
DEFAULT
0
LINE
5
C0
100
AcDbEntity
8
SK2
62
256
6
ByLayer
370
-1
48
1
60
0
100
AcDbLine
10
31.27
20
1.5875
30
0
11
31.27
21
13.294792
31
0
39
0
210
0
220
0
230
1
0
LINE
5
C1
100
AcDbEntity
8
SK2
62
256
6
ByLayer
370
-1
48
1
60
0
100
AcDbLine
10
13.7642
20
4.5847
30
0
11
13.7642
21
13.294792
31
0
39
0
210
0
220
0
230
1
0
LINE
5
C2
100
AcDbEntity
8
SK2
62
256
6
ByLayer
370
-1
48
1
60
0
100
AcDbLine
10
31.27
20
10.119792
30
0
11
13.7642
21
10.119792
31
0
39
0
210
0
220
0
230
1
0
LINE
5
C3
100
AcDbEntity
8
SK2
62
256
6
ByLayer
370
-1
48
1
60
0
100
AcDbLine
10
31.27
20
10.119792
30
0
11
28.095002
21
9.701795
31
0
39
0
210
0
220
0
230
1
0
LINE
5
C4
100
AcDbEntity
8
SK2
62
256
6
ByLayer
370
-1
48
1
60
0
100
AcDbLine
10
31.27
20
10.119792
30
0
11
28.094998
21
10.537789
31
0
39
0
210
0
220
0
230
1
0
LINE
5
C5
100
AcDbEntity
8
SK2
62
256
6
ByLayer
370
-1
48
1
60
0
100
AcDbLine
10
28.095002
20
9.701795
30
0
11
28.094998
21
10.537789
31
0
39
0
210
0
220
0
230
1
0
LINE
5
C6
100
AcDbEntity
8
SK2
62
256
6
ByLayer
370
-1
48
1
60
0
100
AcDbLine
10
13.7642
20
10.119792
30
0
11
16.939198
21
10.537789
31
0
39
0
210
0
220
0
230
1
0
LINE
5
C7
100
AcDbEntity
8
SK2
62
256
6
ByLayer
370
-1
48
1
60
0
100
AcDbLine
10
13.7642
20
10.119792
30
0
11
16.939202
21
9.701795
31
0
39
0
210
0
220
0
230
1
0
LINE
5
C8
100
AcDbEntity
8
SK2
62
256
6
ByLayer
370
-1
48
1
60
0
100
AcDbLine
10
16.939198
20
10.537789
30
0
11
16.939202
21
9.701795
31
0
39
0
210
0
220
0
230
1
0
ENDBLK
5
CA
100
AcDbEntity
8
0
100
AcDbBlockEnd
0
BLOCK
5
D7
100
AcDbEntity
8
0
100
AcDbBlockBegin
2
DimnDraft3D5
70
0
10
0
20
0
30
0
3
DimnDraft3D5
0
MTEXT
5
CD
100
AcDbEntity
8
SK2
62
256
6
ByLayer
370
-1
48
1
60
0
100
AcDbMText
10
-57.937695
20
7.895618
30
0
210
0
220
0
230
1
1
\W01.000;\fsimplex.shx,bigfont.shx;%%c12.7\P
40
3.50012
41
0
44
1.084337
50
90
71
7
72
5
7
DEFAULT
0
LINE
5
CE
100
AcDbEntity
8
SK2
62
256
6
ByLayer
370
-1
48
1
60
0
100
AcDbLine
10
-45.8275
20
6.35
30
0
11
-59.362635
21
6.35
31
0
39
0
210
0
220
0
230
1
0
LINE
5
CF
100
AcDbEntity
8
SK2
62
256
6
ByLayer
370
-1
48
1
60
0
100
AcDbLine
10
-45.8275
20
-6.35
30
0
11
-59.362635
21
-6.35
31
0
39
0
210
0
220
0
230
1
0
LINE
5
D0
100
AcDbEntity
8
SK2
62
256
6
ByLayer
370
-1
48
1
60
0
100
AcDbLine
10
-56.187635
20
-6.35
30
0
11
-56.187635
21
22.227688
31
0
39
0
210
0
220
0
230
1
0
LINE
5
D1
100
AcDbEntity
8
SK2
62
256
6
ByLayer
370
-1
48
1
60
0
100
AcDbLine
10
-56.187635
20
6.35
30
0
11
-55.769638
21
3.175002
31
0
39
0
210
0
220
0
230
1
0
LINE
5
D2
100
AcDbEntity
8
SK2
62
256
6
ByLayer
370
-1
48
1
60
0
100
AcDbLine
10
-56.187635
20
6.35
30
0
11
-56.605631
21
3.174998
31
0
39
0
210
0
220
0
230
1
0
LINE
5
D3
100
AcDbEntity
8
SK2
62
256
6
ByLayer
370
-1
48
1
60
0
100
AcDbLine
10
-55.769638
20
3.175002
30
0
11
-56.605631
21
3.174998
31
0
39
0
210
0
220
0
230
1
0
LINE
5
D4
100
AcDbEntity
8
SK2
62
256
6
ByLayer
370
-1
48
1
60
0
100
AcDbLine
10
-56.187635
20
-6.35
30
0
11
-56.605631
21
-3.175002
31
0
39
0
210
0
220
0
230
1
0
LINE
5
D5
100
AcDbEntity
8
SK2
62
256
6
ByLayer
370
-1
48
1
60
0
100
AcDbLine
10
-56.187635
20
-6.35
30
0
11
-55.769638
21
-3.174998
31
0
39
0
210
0
220
0
230
1
0
LINE
5
D6
100
AcDbEntity
8
SK2
62
256
6
ByLayer
370
-1
48
1
60
0
100
AcDbLine
10
-56.605631
20
-3.175002
30
0
11
-55.769638
21
-3.174998
31
0
39
0
210
0
220
0
230
1
0
ENDBLK
5
D8
100
AcDbEntity
8
0
100
AcDbBlockEnd
0
ENDSEC
0
SECTION
2
ENTITIES
0
ARC
5
74
100
AcDbEntity
8
1
62
256
6
ByLayer
370
-1
48
1
60
0
100
AcDbCircle
39
0
10
-13.7642
20
4.9972
30
0
40
2
210
0
220
0
230
-1
100
AcDbArc
50
270
51
300
0
ARC
5
75
100
AcDbEntity
8
1
62
256
6
ByLayer
370
-1
48
1
60
0
100
AcDbCircle
39
0
10
13.7642
20
-4.9972
30
0
40
2
210
0
220
0
230
1
100
AcDbArc
50
90
51
120
0
ELLIPSE
5
76
100
AcDbEntity
8
1
62
256
6
ByLayer
370
-1
48
1
60
0
100
AcDbEllipse
10
36.32
20
-0.397652
30
0
11
5.75000000000001
21
0
31
0
210
0
220
0
230
1
40
0.866025
41
2.64300932517491
42
2.67889819266697
0
ELLIPSE
5
77
100
AcDbEntity
8
1
62
256
6
ByLayer
370
-1
48
1
60
0
100
AcDbEllipse
10
36.32
20
0.397652
30
0
11
5.75000000000001
21
0
31
0
210
0
220
0
230
1
40
0.866025
41
-2.67881457364901
42
-2.64300932517491
0
POINT
5
42
100
AcDbEntity
8
80
62
256
6
ByLayer
370
-1
48
1
60
0
100
AcDbPoint
10
0
20
0
30
0
39
0
210
0
220
0
230
1
50
360
0
POINT
5
44
100
AcDbEntity
8
81
62
256
6
ByLayer
370
-1
48
1
60
0
100
AcDbPoint
10
31.27
20
0
30
0
39
0
210
0
220
0
230
1
50
360
0
SPLINE
5
78
100
AcDbEntity
8
SK1
62
256
6
ByLayer
370
-1
48
1
60
0
100
AcDbSpline
70
4
71
3
72
8
73
4
40
0
40
0
40
0
40
0
40
1
40
1
40
1
40
1
41
1
10
-18.7399999999962
20
4.89080770425349
30
0
41
0.758530183727034
10
-15.4292733563976
20
2.14924767626277
30
0
41
0.758530183727034
10
-15.4292733563976
20
-2.14924767626584
30
0
41
1
10
-18.7399999999962
20
-4.8908077042565
30
0
0
SPLINE
5
79
100
AcDbEntity
8
SK1
62
256
6
ByLayer
370
-1
48
1
60
0
100
AcDbSpline
70
4
71
3
72
8
73
4
40
0
40
0
40
0
40
0
40
1
40
1
40
1
40
1
41
1
10
-26.7399999999962
20
-4.89080770425647
30
0
41
0.758530183727034
10
-30.0507266435948
20
-2.14924767626581
30
0
41
0.758530183727034
10
-30.0507266435948
20
2.14924767626281
30
0
41
1
10
-26.7399999999962
20
4.89080770425352
30
0
0
SPLINE
5
7A
100
AcDbEntity
8
1
62
256
6
ByLayer
370
-1
48
1
60
0
100
AcDbSpline
70
4
71
3
72
8
73
4
40
0
40
0
40
0
40
0
40
1
40
1
40
1
40
1
41
1
10
21.2700000000038
20
2.99719999999829
30
0
41
0.333333333333334
10
15.2756000000038
20
2.99719999999836
30
0
41
0.333333333333334
10
15.2756000000038
20
-2.99720000000162
30
0
41
1
10
21.2700000000038
20
-2.9972000000017
30
0
0
SPLINE
5
7B
100
AcDbEntity
8
1
62
256
6
ByLayer
370
-1
48
1
60
0
100
AcDbSpline
70
4
71
3
72
8
73
4
40
0
40
0
40
0
40
0
40
1
40
1
40
1
40
1
41
1
10
31.2700000000038
20
2.18789881454873
30
0
41
1
10
31.1742535523833
20
2.09848813391372
30
0
41
1
10
31.0793580267707
20
2.00807002139109
30
0
41
1
10
30.9852342040806
20
1.91673826681358
30
0
0
SPLINE
5
7C
100
AcDbEntity
8
1
62
256
6
ByLayer
370
-1
48
1
60
0
100
AcDbSpline
70
4
71
3
72
8
73
4
40
0
40
0
40
0
40
0
40
1
40
1
40
1
40
1
41
1
10
30.9863667291365
20
-1.91783711666858
30
0
41
1
10
31.0801192223641
20
-2.00879527259113
30
0
41
1
10
31.1746375560707
20
-2.09884672718007
30
0
41
1
10
31.2700000000037
20
-2.18789881455223
30
0
0
SPLINE
5
7D
100
AcDbEntity
8
1
62
256
6
ByLayer
370
-1
48
1
60
0
100
AcDbSpline
70
4
71
3
72
8
73
4
40
0
40
0
40
0
40
0
40
1
40
1
40
1
40
1
41
1
10
31.2700000000038
20
1.98352445552942
30
0
41
1
10
31.2700000000038
20
1.92535367072145
30
0
41
1
10
31.2700000000038
20
1.8672810970514
30
0
41
1
10
31.2700000000038
20
1.80933245552942
30
0
0
SPLINE
5
7E
100
AcDbEntity
8
1
62
256
6
ByLayer
370
-1
48
1
60
0
100
AcDbSpline
70
4
71
3
72
8
73
4
40
0
40
0
40
0
40
0
40
1
40
1
40
1
40
1
41
1
10
31.2700000000038
20
-1.8102264555329
30
0
41
1
10
31.2700000000038
20
-1.86785140723617
30
0
41
1
10
31.2700000000038
20
-1.92561973664076
30
0
41
1
10
31.2700000000038
20
-1.98352445553289
30
0
0
SPLINE
5
7F
100
AcDbEntity
8
1
62
256
6
ByLayer
370
-1
48
1
60
0
100
AcDbSpline
70
4
71
3
72
40
73
36
40
0
40
0
40
0
40
0
40
0.0312499999999994
40
0.0312499999999994
40
0.0624999999999988
40
0.0624999999999988
40
0.0937499999999982
40
0.0937499999999982
40
0.124999999999998
40
0.124999999999998
40
0.187499999999996
40
0.187499999999996
40
0.249999999999995
40
0.249999999999995
40
0.312499999999994
40
0.312499999999994
40
0.374999999999993
40
0.374999999999993
40
0.499999999999991
40
0.499999999999991
40
0.624999999999989
40
0.624999999999989
40
0.687499999999993
40
0.687499999999993
40
0.749999999999998
40
0.749999999999998
40
0.812500000000002
40
0.812500000000002
40
0.875000000000007
40
0.875000000000007
40
0.906250000000005
40
0.906250000000005
40
0.937500000000003
40
0.937500000000003
40
1
40
1
40
1
40
1
41
1
10
28.9613026804493
20
-1.49860000000174
30
0
41
1
10
28.9613026804493
20
-1.46503776118519
30
0
41
1
10
28.9540472992948
20
-1.43223913464561
30
0
41
1
10
28.9273261138602
20
-1.36805683471621
30
0
41
1
10
28.9086669009982
20
-1.33838011189553
30
0
41
1
10
28.8641703646769
20
-1.2823281818182
30
0
41
1
10
28.838425114916
20
-1.25622665768537
30
0
41
1
10
28.7836647800912
20
-1.20812992781507
30
0
41
1
10
28.7543883881478
20
-1.18585905404515
30
0
41
1
10
28.6623938330878
20
-1.12299390123363
30
0
41
1
10
28.5963968068817
20
-1.08685778782936
30
0
41
1
10
28.461264722681
20
-1.02298115290984
30
0
41
1
10
28.3915736135162
20
-0.995041399387134
30
0
41
1
10
28.2490552647428
20
-0.94519238655738
30
0
41
1
10
28.1761693365028
20
-0.923336243489615
30
0
41
1
10
28.030157910751
20
-0.885454397188965
30
0
41
1
10
27.9566963468553
20
-0.869318170497934
30
0
41
1
10
27.7350924176811
20
-0.828516898131284
30
0
41
1
10
27.585758610151
20
-0.811293139222073
30
0
41
1
10
27.283793890562
20
-0.797772985137556
30
0
41
1
10
27.1306947480649
20
-0.801652025450466
30
0
41
1
10
26.9054256056592
20
-0.827573677433861
30
0
41
1
10
26.830803398746
20
-0.839578886493626
30
0
41
1
10
26.6827133577406
20
-0.871814173085852
30
0
41
1
10
26.6090284366635
20
-0.892154369006505
30
0
41
1
10
26.4668024673874
20
-0.942300285854174
30
0
41
1
10
26.3978505402545
20
-0.97211419711536
30
0
41
1
10
26.2659324734007
20
-1.0445590456363
30
0
41
1
10
26.2040262298907
20
-1.08667844774425
30
0
41
1
10
26.1220707669801
20
-1.1602546445751
30
0
41
1
10
26.0963308141325
20
-1.18682673495263
30
0
41
1
10
26.050721850238
20
-1.24261740998583
30
0
41
1
10
26.0306779805589
20
-1.27192866776383
30
0
41
1
10
25.9803697112634
20
-1.36476710501052
30
0
41
1
10
25.9613026804493
20
-1.43178143167546
30
0
41
1
10
25.9613026804493
20
-1.49860000000174
30
0
0
SPLINE
5
80
100
AcDbEntity
8
1
62
256
6
ByLayer
370
-1
48
1
60
0
100
AcDbSpline
70
4
71
3
72
38
73
34
40
0
40
0
40
0
40
0
40
0.0312499999999999
40
0.0312499999999999
40
0.0624999999999999
40
0.0624999999999999
40
0.124999999999995
40
0.124999999999995
40
0.18749999999999
40
0.18749999999999
40
0.249999999999985
40
0.249999999999985
40
0.31249999999998
40
0.31249999999998
40
0.374999999999975
40
0.374999999999975
40
0.499999999999976
40
0.499999999999976
40
0.624999999999978
40
0.624999999999978
40
0.749999999999979
40
0.749999999999979
40
0.81249999999998
40
0.81249999999998
40
0.87499999999998
40
0.87499999999998
40
0.906249999999985
40
0.906249999999985
40
0.93749999999999
40
0.93749999999999
40
0.968749999999995
40
0.968749999999995
40
1
40
1
40
1
40
1
41
1
10
25.9612977433119
20
2.99720079351849
30
0
41
1
10
25.9613076175867
20
2.997199206478
30
0
41
1
10
25.9659492380526
20
2.99645318309098
30
0
41
1
10
25.9836908985467
20
2.99365815574802
30
0
41
1
10
25.9970434737878
20
2.9915720326959
30
0
41
1
10
26.047313157183
20
2.98396609902002
30
0
41
1
10
26.0949854469786
20
2.97704563774116
30
0
41
1
10
26.2041845508533
20
2.96279537127489
30
0
41
1
10
26.2665330540795
20
2.95535531918949
30
0
41
1
10
26.3983630597338
20
2.94156560519338
30
0
41
1
10
26.4672867375742
20
2.93524673430213
30
0
41
1
10
26.6094896361342
20
2.92414364765929
30
0
41
1
10
26.6832581282235
20
2.91933339694026
30
0
41
1
10
26.8314578079285
20
2.911536061276
30
0
41
1
10
26.9059889500779
20
2.90852381866509
30
0
41
1
10
27.1306196307806
20
2.90196586778839
30
0
41
1
10
27.2819409067386
20
2.90089677779221
30
0
41
1
10
27.5859496955279
20
2.90439734884896
30
0
41
1
10
27.7356262124168
20
2.90890974387156
30
0
41
1
10
28.030578269895
20
2.92205752767845
30
0
41
1
10
28.1758981147014
20
2.93070696636841
30
0
41
1
10
28.3894294793485
20
2.94589935711269
30
0
41
1
10
28.4600950927535
20
2.95135775884884
30
0
41
1
10
28.5962834699528
20
2.96257713788668
30
0
41
1
10
28.6625560606009
20
2.96840255315274
30
0
41
1
10
28.7541408898773
20
2.97683140652066
30
0
41
1
10
28.7833900056875
20
2.97959018292059
30
0
41
1
10
28.8383175962885
20
2.9848693476452
30
0
41
1
10
28.8640960277001
20
2.9874006354502
30
0
41
1
10
28.9084659174515
20
2.99181672049693
30
0
41
1
10
28.927471062288
20
2.99374216743442
30
0
41
1
10
28.9538196780347
20
2.9964279328731
30
0
41
1
10
28.9613136234576
20
2.99720112905535
30
0
41
1
10
28.9612979550593
20
2.99719951245089
30
0
0
SPLINE
5
81
100
AcDbEntity
8
1
62
256
6
ByLayer
370
-1
48
1
60
0
100
AcDbSpline
70
4
71
3
72
38
73
34
40
0
40
0
40
0
40
0
40
0.0312499999999953
40
0.0312499999999953
40
0.0624999999999907
40
0.0624999999999907
40
0.124999999999986
40
0.124999999999986
40
0.187499999999982
40
0.187499999999982
40
0.249999999999977
40
0.249999999999977
40
0.312499999999973
40
0.312499999999973
40
0.374999999999969
40
0.374999999999969
40
0.499999999999971
40
0.499999999999971
40
0.624999999999974
40
0.624999999999974
40
0.749999999999976
40
0.749999999999976
40
0.812499999999978
40
0.812499999999978
40
0.874999999999979
40
0.874999999999979
40
0.906249999999984
40
0.906249999999984
40
0.937499999999989
40
0.937499999999989
40
0.968749999999995
40
0.968749999999995
40
1
40
1
40
1
40
1
41
1
10
25.9613026804493
20
-1.49860000000174
30
0
41
1
10
25.9613026804493
20
-1.53209192936842
30
0
41
1
10
25.9659492380526
20
-1.56441703600052
30
0
41
1
10
25.9836908985467
20
-1.62697541348135
30
0
41
1
10
25.9970434737878
20
-1.65754098578319
30
0
41
1
10
26.0473131571829
20
-1.74280262792379
30
0
41
1
10
26.0949854469786
20
-1.79250732873095
30
0
41
1
10
26.2041845508533
20
-1.87622653475415
30
0
41
1
10
26.2665330540795
20
-1.91117199180718
30
0
41
1
10
26.3983630597337
20
-1.96968657669976
30
0
41
1
10
26.4672867375742
20
-1.99314199255687
30
0
41
1
10
26.6094896361342
20
-2.03212692201095
30
0
41
1
10
26.6832581282235
20
-2.04766082443515
30
0
41
1
10
26.8314578079285
20
-2.07207641688197
30
0
41
1
10
26.9059889500779
20
-2.08102565789466
30
0
41
1
10
27.1306196307806
20
-2.10028373778195
30
0
41
1
10
27.2819409067386
20
-2.10316677598729
30
0
41
1
10
27.5859496955279
20
-2.09313541810519
30
0
41
1
10
27.7356262124168
20
-2.08030755216356
30
0
41
1
10
28.0305782698951
20
-2.03912335345629
30
0
41
1
10
28.1758981147014
20
-2.01096172101862
30
0
41
1
10
28.3894294793485
20
-1.95167700556681
30
0
41
1
10
28.4600950927535
20
-1.9288967878
30
0
41
1
10
28.5962834699528
20
-1.87580531708383
30
0
41
1
10
28.6625560606008
20
-1.84528672175188
30
0
41
1
10
28.7541408898773
20
-1.79114700257054
30
0
41
1
10
28.7833900056875
20
-1.77168523135308
30
0
41
1
10
28.8383175962885
20
-1.72875337325658
30
0
41
1
10
28.8640960277
20
-1.70513996301048
30
0
41
1
10
28.9084659174515
20
-1.65371575655996
30
0
41
1
10
28.927471062288
20
-1.62530566666641
30
0
41
1
10
28.9538196780347
20
-1.56476693952266
30
0
41
1
10
28.9613026804493
20
-1.53207192521867
30
0
41
1
10
28.9613026804493
20
-1.49860000000174
30
0
0
SPLINE
5
82
100
AcDbEntity
8
1
62
256
6
ByLayer
370
-1
48
1
60
0
100
AcDbSpline
70
4
71
3
72
8
73
4
40
0
40
0
40
0
40
0
40
1
40
1
40
1
40
1
41
1
10
31.2700000000038
20
-2.9784630821253
30
0
41
0.998292873731927
10
31.0427819837379
20
-2.96248192775161
30
0
41
0.998292873731927
10
30.8090496397805
20
-2.9363681235591
30
0
41
1
10
30.5700000000038
20
-2.900255408231
30
0
0
SPLINE
5
83
100
AcDbEntity
8
1
62
256
6
ByLayer
370
-1
48
1
60
0
100
AcDbSpline
70
4
71
3
72
8
73
4
40
0
40
0
40
0
40
0
40
1
40
1
40
1
40
1
41
1
10
30.5700000000038
20
2.90025540822751
30
0
41
0.998292873731927
10
30.8090496397805
20
2.93636812355557
30
0
41
0.998292873731927
10
31.042781983738
20
2.96248192774808
30
0
41
1
10
31.2700000000038
20
2.97846308212181
30
0
0
SPLINE
5
84
100
AcDbEntity
8
1
62
256
6
ByLayer
370
-1
48
1
60
0
100
AcDbSpline
70
4
71
3
72
8
73
4
40
0
40
0
40
0
40
0
40
1
40
1
40
1
40
1
41
1
10
31.2700000000038
20
1.7790144448351
30
0
41
0.998292873731927
10
31.042781983738
20
1.89421767331716
30
0
41
0.998292873731927
10
30.8090496397805
20
2.00304930082676
30
0
41
1
10
30.5700000000038
20
2.10495195937355
30
0
0
SPLINE
5
85
100
AcDbEntity
8
1
62
256
6
ByLayer
370
-1
48
1
60
0
100
AcDbSpline
70
4
71
3
72
8
73
4
40
0
40
0
40
0
40
0
40
1
40
1
40
1
40
1
41
1
10
21.2700000000038
20
2.99719999999829
30
0
41
0.333333333333334
10
15.2756000000038
20
2.99719999999836
30
0
41
0.333333333333334
10
15.2756000000038
20
-2.99720000000162
30
0
41
1
10
21.2700000000038
20
-2.9972000000017
30
0
0
SPLINE
5
86
100
AcDbEntity
8
1
62
256
6
ByLayer
370
-1
48
1
60
0
100
AcDbSpline
70
4
71
3
72
8
73
4
40
0
40
0
40
0
40
0
40
1
40
1
40
1
40
1
41
1
10
30.5700000000038
20
-2.10495195937705
30
0
41
0.998292873731927
10
30.8090496397805
20
-2.00304930083032
30
0
41
0.998292873731927
10
31.0427819837379
20
-1.89421767332072
30
0
41
1
10
31.2700000000038
20
-1.77901444483859
30
0
0
LINE
5
46
100
AcDbEntity
8
1
62
256
6
ByLayer
370
-1
48
1
60
1
100
AcDbLine
10
-45.24
20
0
30
0
11
-45.24
21
297
31
0
39
0
210
0
220
0
230
1
0
LINE
5
48
100
AcDbEntity
8
1
62
256
6
ByLayer
370
-1
48
1
60
1
100
AcDbLine
10
374.76
20
297
30
0
11
-45.24
21
297
31
0
39
0
210
0
220
0
230
1
0
LINE
5
49
100
AcDbEntity
8
1
62
256
6
ByLayer
370
-1
48
1
60
1
100
AcDbLine
10
374.76
20
297
30
0
11
374.76
21
0
31
0
39
0
210
0
220
0
230
1
0
LINE
5
4A
100
AcDbEntity
8
1
62
256
6
ByLayer
370
-1
48
1
60
1
100
AcDbLine
10
-45.24
20
0
30
0
11
374.76
21
0
31
0
39
0
210
0
220
0
230
1
0
LINE
5
4B
100
AcDbEntity
8
SK1
62
256
6
ByLayer
370
-1
48
1
60
0
100
AcDbLine
10
-44.24
20
6.35
30
0
11
-44.24
21
-6.35
31
0
39
0
210
0
220
0
230
1
0
LINE
5
4D
100
AcDbEntity
8
SK1
62
256
6
ByLayer
370
-1
48
1
60
0
100
AcDbLine
10
-45.24
20
5.35
30
0
11
-44.24
21
6.35
31
0
39
0
210
0
220
0
230
1
0
LINE
5
4E
100
AcDbEntity
8
SK1
62
256
6
ByLayer
370
-1
48
1
60
0
100
AcDbLine
10
-45.24
20
5.35
30
0
11
-45.24
21
-5.35
31
0
39
0
210
0
220
0
230
1
0
LINE
5
4F
100
AcDbEntity
8
1
62
256
6
ByLayer
370
-1
48
1
60
0
100
AcDbLine
10
13.7642
20
2.9972
30
0
11
21.27
21
2.9972
31
0
39
0
210
0
220
0
230
1
0
LINE
5
50
100
AcDbEntity
8
SK1
62
256
6
ByLayer
370
-1
48
1
60
0
100
AcDbLine
10
-18.74
20
-4.890808
30
0
11
-26.74
21
-4.890808
31
0
39
0
210
0
220
0
230
1
0
LINE
5
51
100
AcDbEntity
8
1
62
256
6
ByLayer
370
-1
48
1
60
1
100
AcDbLine
10
-44.24
20
-6.35
30
0
11
7.421082
21
-6.35
31
0
39
0
210
0
220
0
230
1
0
LINE
5
52
100
AcDbEntity
8
1
62
256
6
ByLayer
370
-1
48
1
60
0
100
AcDbLine
10
12.7642
20
3.265149
30
0
11
7.421082
21
6.35
31
0
39
0
210
0
220
0
230
1
0
LINE
5
53
100
AcDbEntity
8
1
62
256
6
ByLayer
370
-1
48
1
60
0
100
AcDbLine
10
13.7642
20
-2.9972
30
0
11
21.27
21
-2.9972
31
0
39
0
210
0
220
0
230
1
0
LINE
5
54
100
AcDbEntity
8
1
62
256
6
ByLayer
370
-1
48
1
60
0
100
AcDbLine
10
7.421082
20
6.35
30
0
11
7.421082
21
-6.35
31
0
39
0
210
0
220
0
230
1
0
LINE
5
55
100
AcDbEntity
8
1
62
256
6
ByLayer
370
-1
48
1
60
0
100
AcDbLine
10
12.7642
20
-3.265149
30
0
11
7.421082
21
-6.35
31
0
39
0
210
0
220
0
230
1
0
LINE
5
56
100
AcDbEntity
8
1
62
256
6
ByLayer
370
-1
48
1
60
0
100
AcDbLine
10
12.7642
20
3.265149
30
0
11
12.7642
21
-3.265149
31
0
39
0
210
0
220
0
230
1
0
LINE
5
57
100
AcDbEntity
8
SK1
62
256
6
ByLayer
370
-1
48
1
60
0
100
AcDbLine
10
-26.74
20
4.890808
30
0
11
-18.74
21
4.890808
31
0
39
0
210
0
220
0
230
1
0
LINE
5
58
100
AcDbEntity
8
SK1
62
256
6
ByLayer
370
-1
48
1
60
0
100
AcDbLine
10
-45.24
20
-5.35
30
0
11
-44.24
21
-6.35
31
0
39
0
210
0
220
0
230
1
0
LINE
5
59
100
AcDbEntity
8
1
62
256
6
ByLayer
370
-1
48
1
60
1
100
AcDbLine
10
-44.24
20
6.35
30
0
11
7.421082
21
6.35
31
0
39
0
210
0
220
0
230
1
0
LINE
5
5A
100
AcDbEntity
8
1
62
256
6
ByLayer
370
-1
48
1
60
0
100
AcDbLine
10
13.7642
20
2.9972
30
0
11
13.7642
21
-2.9972
31
0
39
0
210
0
220
0
230
1
0
LINE
5
5B
100
AcDbEntity
8
SK1
62
256
6
ByLayer
370
-1
48
1
60
0
100
AcDbLine
10
-18.74
20
-4.890808
30
0
11
-18.74
21
4.890808
31
0
39
0
210
0
220
0
230
1
0
LINE
5
5C
100
AcDbEntity
8
SK1
62
256
6
ByLayer
370
-1
48
1
60
0
100
AcDbLine
10
-26.74
20
-4.890808
30
0
11
-26.74
21
4.890808
31
0
39
0
210
0
220
0
230
1
0
LINE
5
5D
100
AcDbEntity
8
1
62
256
6
ByLayer
370
-1
48
1
60
0
100
AcDbLine
10
26.752837
20
-0.861071
30
0
11
28.961303
21
-1.4986
31
0
39
0
210
0
220
0
230
1
0
LINE
5
5E
100
AcDbEntity
8
1
62
256
6
ByLayer
370
-1
48
1
60
0
100
AcDbLine
10
31.27
20
2.187905
30
0
11
31.27
21
1.983524
31
0
39
0
210
0
220
0
230
1
0
LINE
5
5F
100
AcDbEntity
8
1
62
256
6
ByLayer
370
-1
48
1
60
0
100
AcDbLine
10
31.27
20
-1.983524
30
0
11
31.27
21
-2.187905
31
0
39
0
210
0
220
0
230
1
0
LINE
5
60
100
AcDbEntity
8
1
62
256
6
ByLayer
370
-1
48
1
60
0
100
AcDbLine
10
31.27
20
-2.187899
30
0
11
31.27
21
-2.978463
31
0
39
0
210
0
220
0
230
1
0
LINE
5
61
100
AcDbEntity
8
1
62
256
6
ByLayer
370
-1
48
1
60
0
100
AcDbLine
10
31.27
20
-2.978463
30
0
11
31.27
21
-2.9972
31
0
39
0
210
0
220
0
230
1
0
LINE
5
62
100
AcDbEntity
8
1
62
256
6
ByLayer
370
-1
48
1
60
0
100
AcDbLine
10
31.27
20
1.779014
30
0
11
31.27
21
-1.779014
31
0
39
0
210
0
220
0
230
1
0
LINE
5
63
100
AcDbEntity
8
1
62
256
6
ByLayer
370
-1
48
1
60
0
100
AcDbLine
10
21.27
20
2.9972
30
0
11
25.961303
21
2.9972
31
0
39
0
210
0
220
0
230
1
0
LINE
5
64
100
AcDbEntity
8
1
62
256
6
ByLayer
370
-1
48
1
60
0
100
AcDbLine
10
28.961303
20
2.9972
30
0
11
31.27
21
2.9972
31
0
39
0
210
0
220
0
230
1
0
LINE
5
65
100
AcDbEntity
8
1
62
256
6
ByLayer
370
-1
48
1
60
0
100
AcDbLine
10
31.27
20
2.9972
30
0
11
31.27
21
2.978463
31
0
39
0
210
0
220
0
230
1
0
LINE
5
66
100
AcDbEntity
8
1
62
256
6
ByLayer
370
-1
48
1
60
0
100
AcDbLine
10
31.27
20
2.978463
30
0
11
31.27
21
2.187899
31
0
39
0
210
0
220
0
230
1
0
LINE
5
67
100
AcDbEntity
8
1
62
256
6
ByLayer
370
-1
48
1
60
0
100
AcDbLine
10
21.27
20
-2.9972
30
0
11
31.27
21
-2.9972
31
0
39
0
210
0
220
0
230
1
0
LINE
5
68
100
AcDbEntity
8
1
62
256
6
ByLayer
370
-1
48
1
60
0
100
AcDbLine
10
30.57
20
2.104952
30
0
11
30.57
21
2.900255
31
0
39
0
210
0
220
0
230
1
0
LINE
5
69
100
AcDbEntity
8
1
62
256
6
ByLayer
370
-1
48
1
60
0
100
AcDbLine
10
30.57
20
-2.900255
30
0
11
30.57
21
-2.104952
31
0
39
0
210
0
220
0
230
1
0
LINE
5
6A
100
AcDbEntity
8
SK1
62
256
6
ByLayer
370
-1
48
1
60
0
100
AcDbLine
10
-44.24
20
6.35
30
0
11
0
21
6.35
31
0
39
0
210
0
220
0
230
1
0
LINE
5
6B
100
AcDbEntity
8
SK1
62
256
6
ByLayer
370
-1
48
1
60
0
100
AcDbLine
10
-44.24
20
-6.35
30
0
11
0
21
-6.35
31
0
39
0
210
0
220
0
230
1
0
LINE
5
6C
100
AcDbEntity
8
80
62
256
6
ByLayer
370
-1
48
1
60
0
100
AcDbLine
10
0
20
0
30
0
11
-3.927232
21
0
31
0
39
0
210
0
220
0
230
1
0
LINE
5
6D
100
AcDbEntity
8
81
62
256
6
ByLayer
370
-1
48
1
60
0
100
AcDbLine
10
31.27
20
0
30
0
11
35.322686
21
0
31
0
39
0
210
0
220
0
230
1
0
LINE
5
6E
100
AcDbEntity
8
SK4
62
256
6
ByLayer
370
-1
48
0.05
60
0
100
AcDbLine
10
35.322686
20
0
30
0
11
-49.681331
21
0
31
0
39
0
210
0
220
0
230
1
0
LINE
5
70
100
AcDbEntity
8
4
62
256
6
ByLayer
370
-1
48
0.05
60
0
100
AcDbLine
10
31.27
20
0
30
0
11
0
21
0
31
0
39
0
210
0
220
0
230
1
0
LINE
5
72
100
AcDbEntity
8
1
62
256
6
ByLayer
370
-1
48
1
60
0
100
AcDbLine
10
7.421082
20
6.35
30
0
11
0
21
6.35
31
0
39
0
210
0
220
0
230
1
0
LINE
5
73
100
AcDbEntity
8
1
62
256
6
ByLayer
370
-1
48
1
60
0
100
AcDbLine
10
7.421082
20
-6.35
30
0
11
0
21
-6.35
31
0
39
0
210
0
220
0
230
1
0
MTEXT
5
87
100
AcDbEntity
8
SK6
62
256
6
ByLayer
370
-1
48
1
60
0
100
AcDbMText
10
-19.97718
20
-19.117245
30
0
210
0
220
0
230
1
1
\W00.718;\fsimplex.shx,bigfont.shx;A327-13B21EC-06\P
40
3.175
41
0
44
1.084337
50
0
71
7
72
5
7
DEFAULT
0
DIMENSION
5
99
100
AcDbEntity
8
SK2
62
256
6
ByLayer
370
-3
48
1
60
0
100
AcDbDimension
2
DimnDraft3D1
10
53.093637
20
-2.9972
30
0
11
53.093637
21
10.481707
31
0
70
32
71
5
72
1
41
1
210
0
220
0
230
1
3
Standard
100
AcDbAlignedDimension
13
32.8575
23
2.9972
33
0
14
32.8575
24
-2.9972
34
0
50
90
100
AcDbRotatedDimension
1001
ACAD
1000
DSTYLE
1002
{
1070
    74
1070
     0
1070
   279
1070
     0
1070
   172
1070
     1
1070
   173
1070
     1
1070
   340
1005
88
1070
   271
1070
     1
1070
   272
1070
     2
1070
    77
1070
     1
1070
    73
1070
     0
1070
   171
1070
     3
1070
   274
1070
     4
1070
   177
1070
     7
1070
   176
1070
     7
1070
   178
1070
     7
1070
    78
1070
     8
1070
    48
1040
-0.005
1070
    41
1041
3.175
1070
   147
1041
1.75006
1070
    42
1041
1.5875
1070
    44
1041
3.175
1070
   140
1041
3.50012
1070
   343
1005
0
1070
   344
1005
0
1002
}
0
DIMENSION
5
A7
100
AcDbEntity
8
SK2
62
256
6
ByLayer
370
-3
48
1
60
0
100
AcDbDimension
2
DimnDraft3D2
10
-45.24
20
29.576666
30
0
11
-6.985
21
29.576666
31
0
70
32
71
5
72
1
41
1
210
0
220
0
230
1
3
Standard
100
AcDbAlignedDimension
13
31.27
23
1.5875
33
0
14
-45.24
24
6.9375
34
0
50
0
100
AcDbRotatedDimension
1001
ACAD
1000
DSTYLE
1002
{
1070
   279
1070
     0
1070
   172
1070
     1
1070
   173
1070
     1
1070
   340
1005
88
1070
   271
1070
     2
1070
   272
1070
     2
1070
    77
1070
     1
1070
    73
1070
     0
1070
   171
1070
     3
1070
   274
1070
     4
1070
   177
1070
     7
1070
   176
1070
     7
1070
   178
1070
     7
1070
    78
1070
     8
1070
    48
1040
-0.005
1070
    41
1041
3.175
1070
   147
1041
1.75006
1070
    42
1041
1.5875
1070
    44
1041
3.175
1070
   140
1041
3.50012
1070
   343
1005
A8
1070
   344
1005
A8
1002
}
0
DIMENSION
5
BD
100
AcDbEntity
8
2
62
256
6
ByLayer
370
-3
48
1
60
0
100
AcDbDimension
2
DimnDraft3D3
10
0
20
19.40888
30
0
11
15.635
21
19.40888
31
0
70
32
71
5
72
1
41
1
210
0
220
0
230
1
3
Standard
100
AcDbAlignedDimension
13
31.27
23
1.5875
33
0
14
0
24
1.5875
34
0
50
0
100
AcDbRotatedDimension
1001
ACAD
1000
DSTYLE
1002
{
1070
   279
1070
     0
1070
   172
1070
     1
1070
   173
1070
     1
1070
   340
1005
88
1070
   271
1070
     2
1070
   272
1070
     2
1070
    77
1070
     1
1070
    73
1070
     0
1070
   171
1070
     3
1070
   274
1070
     4
1070
   177
1070
     7
1070
   176
1070
     7
1070
   178
1070
     7
1070
    78
1070
     8
1070
    48
1040
-0.005
1070
    41
1041
3.175
1070
   147
1041
1.75006
1070
    42
1041
1.5875
1070
    44
1041
3.175
1070
   140
1041
3.50012
1070
   343
1005
0
1070
   344
1005
0
1002
}
0
DIMENSION
5
CB
100
AcDbEntity
8
SK2
62
256
6
ByLayer
370
-3
48
1
60
0
100
AcDbDimension
2
DimnDraft3D4
10
13.7642
20
10.119792
30
0
11
22.5171
21
10.119792
31
0
70
32
71
5
72
1
41
1
210
0
220
0
230
1
3
Standard
100
AcDbAlignedDimension
13
31.27
23
1.5875
33
0
14
13.7642
24
4.5847
34
0
50
0
100
AcDbRotatedDimension
1001
ACAD
1000
DSTYLE
1002
{
1070
   279
1070
     0
1070
   172
1070
     1
1070
   173
1070
     1
1070
   340
1005
88
1070
   271
1070
     2
1070
   272
1070
     2
1070
    77
1070
     1
1070
    73
1070
     0
1070
   171
1070
     3
1070
   274
1070
     4
1070
   177
1070
     7
1070
   176
1070
     7
1070
   178
1070
     7
1070
    78
1070
     8
1070
    48
1040
-0.005
1070
    41
1041
3.175
1070
   147
1041
1.75006
1070
    42
1041
1.5875
1070
    44
1041
3.175
1070
   140
1041
3.50012
1070
   343
1005
0
1070
   344
1005
0
1002
}
0
DIMENSION
5
D9
100
AcDbEntity
8
SK2
62
256
6
ByLayer
370
-3
48
1
60
0
100
AcDbDimension
2
DimnDraft3D5
10
-56.187635
20
-6.35
30
0
11
-56.187635
21
14.624138
31
0
70
32
71
5
72
1
41
1
210
0
220
0
230
1
3
Standard
100
AcDbAlignedDimension
13
-45.8275
23
6.35
33
0
14
-45.8275
24
-6.35
34
0
50
90
100
AcDbRotatedDimension
1001
ACAD
1000
DSTYLE
1002
{
1070
    74
1070
     0
1070
   279
1070
     0
1070
   172
1070
     1
1070
   173
1070
     1
1070
   340
1005
88
1070
   271
1070
     2
1070
   272
1070
     2
1070
    77
1070
     1
1070
    73
1070
     0
1070
   171
1070
     3
1070
   274
1070
     4
1070
   177
1070
     7
1070
   176
1070
     7
1070
   178
1070
     7
1070
    78
1070
     8
1070
    48
1040
-0.005
1070
    41
1041
3.175
1070
   147
1041
1.75006
1070
    42
1041
1.5875
1070
    44
1041
3.175
1070
   140
1041
3.50012
1070
   343
1005
0
1070
   344
1005
0
1002
}
0
ENDSEC
0
SECTION
2
OBJECTS
0
DICTIONARY
5
128
330
0
100
AcDbDictionary
280
0
281
1
3
ACAD_GROUP
350
129
3
ACAD_MLINESTYLE
350
12a
0
DICTIONARY
5
129
330
0
100
AcDbDictionary
280
0
281
1
0
DICTIONARY
5
12a
330
0
100
AcDbDictionary
280
0
281
1
3
Standard
350
18
0
MLINESTYLE
5
18
330
12a
100
AcDbMlineStyle
2
Standard
70
0
3

62
256
51
90
52
90
71
2
49
-0.5
62
256
6
ByLayer
49
0.5
62
256
6
ByLayer
0
RASTERVARIABLES
5
116
330

100
AcDbRasterVariables
90
0
70
1
71
1
72
1
0
ENDSEC
0
EOF
