0
SECTION
2
HEADER
9
$ACADVER
1
AC1015
9
$DWGCODEPAGE
3
ANSI_1252
9
$HANDSEED
5
17c
9
$ANGBASE
50
0
9
$ANGDIR
70
0
9
$ATTMODE
70
1
9
$AUNITS
70
0
9
$AUPREC
70
0
9
$CECOLOR
62
256
9
$CELTSCALE
40
1
9
$CELTYPE
6
ByLayer
9
$CELWEIGHT
370
-1
9
$CLAYER
8
0
9
$CMLJUST
70
0
9
$CMLSCALE
40
1
9
$CMLSTYLE
2
Standard
9
$DIMSTYLE
2
Standard
9
$TEXTSIZE
40
0.2
9
$TEXTSTYLE
7
Standard
9
$LUNITS
70
2
9
$LUPREC
70
4
9
$EXTNAMES
290
1
9
$INSUNITS
70
4
9
$LTSCALE
40
1
9
$LWDISPLAY
290
0
9
$PDMODE
70
0
9
$PDSIZE
40
0
9
$PLINEGEN
70
0
0
ENDSEC
0
SECTION
2
CLASSES
0
CLASS
1
RASTERVARIABLES
2
AcDbRasterVariables
3
ISM
90
0
280
0
281
0
0
ENDSEC
0
SECTION
2
TABLES
0
TABLE
2
VPORT
5
172
100
AcDbSymbolTable
0
VPORT
5
1
100
AcDbSymbolTableRecord
100
AcDbViewportTableRecord
2
*Active
70
0
10
0
20
0
11
1
21
1
12
-1
22
1
13
0
23
0
14
0.5
24
0.5
15
10
25
10
16
0
26
0
36
1
17
0
27
0
37
0
0
ENDTAB
0
TABLE
2
LTYPE
5
173
100
AcDbSymbolTable
0
LTYPE
5
14
100
AcDbSymbolTableRecord
100
AcDbLinetypeTableRecord
70
0
2
ByBlock
3

72
65
73
0
40
0
0
LTYPE
5
15
100
AcDbSymbolTableRecord
100
AcDbLinetypeTableRecord
70
0
2
ByLayer
3

72
65
73
0
40
0
0
LTYPE
5
16
100
AcDbSymbolTableRecord
100
AcDbLinetypeTableRecord
70
0
2
CONTINUOUS
3
Solid line
72
65
73
0
40
0
0
LTYPE
5
3B
100
AcDbSymbolTableRecord
100
AcDbLinetypeTableRecord
70
0
2
DASHED
3
__ __ __ __ __ __ __ __ __
72
65
73
2
40
25.72
49
12.86
74
0
49
-12.86
74
0
0
LTYPE
5
3C
100
AcDbSymbolTableRecord
100
AcDbLinetypeTableRecord
70
0
2
HIDDEN
3
_ _ _ _ _ _ _ _ _ _ _ _ _ _ _
72
65
73
2
40
0.5
49
0.25
74
0
49
-0.25
74
0
0
LTYPE
5
3D
100
AcDbSymbolTableRecord
100
AcDbLinetypeTableRecord
70
0
2
PHANTOM
3
____ _ _ ____ _ _ _____ _ _ ____
72
65
73
6
40
50.5
49
18
74
0
49
-6.5
74
0
49
6.5
74
0
49
-6.5
74
0
49
6.5
74
0
49
-6.5
74
0
0
LTYPE
5
3E
100
AcDbSymbolTableRecord
100
AcDbLinetypeTableRecord
70
0
2
CENTER
3
____ _ ____ _ ____ _ ____
72
65
73
4
40
47.5
49
22
74
0
49
-8.5
74
0
49
8.5
74
0
49
-8.5
74
0
0
LTYPE
5
3F
100
AcDbSymbolTableRecord
100
AcDbLinetypeTableRecord
70
0
2
DOT
3
.........................
72
65
73
2
40
10
49
0
74
0
49
-10
74
0
0
LTYPE
5
40
100
AcDbSymbolTableRecord
100
AcDbLinetypeTableRecord
70
0
2
DASHDOT
3
_._._._._._._._._._._._._._._._.
72
65
73
4
40
70
49
31
74
0
49
-13
74
0
49
13
74
0
49
-13
74
0
0
ENDTAB
0
TABLE
2
LAYER
5
174
100
AcDbSymbolTable
0
LAYER
5
10
100
AcDbSymbolTableRecord
100
AcDbLayerTableRecord
2
0
70
0
62
7
6
CONTINUOUS
290
1
370
-3
390
0
0
LAYER
5
42
100
AcDbSymbolTableRecord
100
AcDbLayerTableRecord
2
80
70
0
62
-6
6
CONTINUOUS
290
1
370
-3
390
0
0
LAYER
5
44
100
AcDbSymbolTableRecord
100
AcDbLayerTableRecord
2
81
70
0
62
-3
6
CONTINUOUS
290
1
370
-3
390
0
0
LAYER
5
46
100
AcDbSymbolTableRecord
100
AcDbLayerTableRecord
2
1
70
0
62
4
6
CONTINUOUS
290
1
370
-3
390
0
0
LAYER
5
48
100
AcDbSymbolTableRecord
100
AcDbLayerTableRecord
2
2
70
0
62
7
6
CONTINUOUS
290
1
370
-3
390
0
0
LAYER
5
4F
100
AcDbSymbolTableRecord
100
AcDbLayerTableRecord
2
4
70
0
62
-2
6
CENTER
290
1
370
-3
390
0
0
LAYER
5
15e
100
AcDbSymbolTableRecord
100
AcDbLayerTableRecord
2
SK4
70
0
62
2
6
CENTER
290
1
370
-3
390
0
0
LAYER
5
15f
100
AcDbSymbolTableRecord
100
AcDbLayerTableRecord
2
SK1
70
0
62
4
6
CONTINUOUS
290
1
370
-3
390
0
0
LAYER
5
160
100
AcDbSymbolTableRecord
100
AcDbLayerTableRecord
2
SK6
70
0
62
5
6
CONTINUOUS
290
1
370
-3
390
0
0
LAYER
5
161
100
AcDbSymbolTableRecord
100
AcDbLayerTableRecord
2
SK2
70
0
62
7
6
CONTINUOUS
290
1
370
-3
390
0
0
ENDTAB
0
TABLE
2
STYLE
5
175
100
AcDbSymbolTable
0
STYLE
5
11
100
AcDbSymbolTableRecord
100
AcDbTextStyleTableRecord
2
Standard
3
txt
70
0
71
0
40
0
41
1
42
0
50
0
0
STYLE
5
DA
100
AcDbSymbolTableRecord
100
AcDbTextStyleTableRecord
2
DEFAULT
3
simplex.shx
70
0
71
0
40
0
41
1
42
0
50
0
0
STYLE
5
FD
100
AcDbSymbolTableRecord
100
AcDbTextStyleTableRecord
2
DWGDirectTextStyle
3
SIMPLEX
70
0
71
0
40
0
41
1
42
0
50
0
0
ENDTAB
0
TABLE
2
DIMSTYLE
5
176
100
AcDbSymbolTable
100
AcDbDimStyleTable
0
DIMSTYLE
105
27
100
AcDbSymbolTableRecord
100
AcDbDimStyleTableRecord
2
Standard
70
0
3
<>
41
0.18
42
0.0625
44
0.18
140
0.18
147
0.09
73
0
74
0
77
1
271
2
275
0
278
52
280
0
340
11
0
ENDTAB
0
TABLE
2
VIEW
5
177
100
AcDbSymbolTable
0
ENDTAB
0
TABLE
2
UCS
5
178
100
AcDbSymbolTable
0
ENDTAB
0
TABLE
2
APPID
5
179
100
AcDbSymbolTable
0
APPID
5
12
100
AcDbSymbolTableRecord
100
AcDbRegAppTableRecord
2
ACAD
70
0
0
ENDTAB
0
TABLE
2
BLOCK_RECORD
5
17a
100
AcDbSymbolTable
0
BLOCK_RECORD
5
1F
100
AcDbSymbolTableRecord
100
AcDbBlockTableRecord
2
*Model_Space
340
0
70
0
0
BLOCK_RECORD
5
1B
100
AcDbSymbolTableRecord
100
AcDbBlockTableRecord
2
*Paper_Space
340
0
70
0
0
BLOCK_RECORD
5
23
100
AcDbSymbolTableRecord
100
AcDbBlockTableRecord
2
*Paper_Space0
340
0
70
0
0
BLOCK_RECORD
5
FF
100
AcDbSymbolTableRecord
100
AcDbBlockTableRecord
2
DimnDraft3D1
340
0
70
0
0
BLOCK_RECORD
5
10D
100
AcDbSymbolTableRecord
100
AcDbBlockTableRecord
2
_CLOSED
340
0
70
0
0
BLOCK_RECORD
5
114
100
AcDbSymbolTableRecord
100
AcDbBlockTableRecord
2
DimnDraft3D2
340
0
70
0
0
BLOCK_RECORD
5
123
100
AcDbSymbolTableRecord
100
AcDbBlockTableRecord
2
DimnDraft3D3
340
0
70
0
0
BLOCK_RECORD
5
131
100
AcDbSymbolTableRecord
100
AcDbBlockTableRecord
2
DimnDraft3D4
340
0
70
0
0
ENDTAB
0
ENDSEC
0
SECTION
2
BLOCKS
0
BLOCK
5
20
100
AcDbEntity
8
0
100
AcDbBlockBegin
2
*Model_Space
70
0
10
0
20
0
30
0
3
*Model_Space
0
ENDBLK
5
21
100
AcDbEntity
8
0
100
AcDbBlockEnd
0
BLOCK
5
1C
100
AcDbEntity
8
0
100
AcDbBlockBegin
2
*Paper_Space
70
0
10
0
20
0
30
0
3
*Paper_Space
0
ENDBLK
5
1D
100
AcDbEntity
8
0
100
AcDbBlockEnd
0
BLOCK
5
24
100
AcDbEntity
8
0
100
AcDbBlockBegin
2
*Paper_Space0
70
0
10
0
20
0
30
0
3
*Paper_Space0
0
ENDBLK
5
25
100
AcDbEntity
8
0
100
AcDbBlockEnd
0
BLOCK
5
10A
100
AcDbEntity
8
0
100
AcDbBlockBegin
2
DimnDraft3D1
70
0
10
0
20
0
30
0
3
DimnDraft3D1
0
MTEXT
5
100
100
AcDbEntity
8
2
62
256
6
ByLayer
370
-1
48
1
60
0
100
AcDbMText
10
111.055
20
-12.425658
30
0
210
0
220
0
230
1
1
\W01.000;\fsimplex.shx,bigfont.shx;18.0 
40
4.5
41
0
44
1.084337
50
90
71
7
72
5
7
DEFAULT
0
LINE
5
101
100
AcDbEntity
8
2
62
256
6
ByLayer
370
-1
48
1
60
0
100
AcDbLine
10
101.93
20
-17.9
30
0
11
114.18
21
-17.9
31
0
39
0
210
0
220
0
230
1
0
LINE
5
102
100
AcDbEntity
8
2
62
256
6
ByLayer
370
-1
48
1
60
0
100
AcDbLine
10
101.93
20
0
30
0
11
114.18
21
0
31
0
39
0
210
0
220
0
230
1
0
LINE
5
103
100
AcDbEntity
8
2
62
256
6
ByLayer
370
-1
48
1
60
0
100
AcDbLine
10
112.18
20
-29.15
30
0
11
112.18
21
11.25
31
0
39
0
210
0
220
0
230
1
0
LINE
5
104
100
AcDbEntity
8
2
62
256
6
ByLayer
370
-1
48
1
60
0
100
AcDbLine
10
112.18
20
-17.9
30
0
11
112.597997
21
-21.074998
31
0
39
0
210
0
220
0
230
1
0
LINE
5
105
100
AcDbEntity
8
2
62
256
6
ByLayer
370
-1
48
1
60
0
100
AcDbLine
10
112.18
20
-17.9
30
0
11
111.762003
21
-21.075002
31
0
39
0
210
0
220
0
230
1
0
LINE
5
106
100
AcDbEntity
8
2
62
256
6
ByLayer
370
-1
48
1
60
0
100
AcDbLine
10
112.597997
20
-21.074998
30
0
11
111.762003
21
-21.075002
31
0
39
0
210
0
220
0
230
1
0
LINE
5
107
100
AcDbEntity
8
2
62
256
6
ByLayer
370
-1
48
1
60
0
100
AcDbLine
10
112.18
20
0
30
0
11
111.762003
21
3.174998
31
0
39
0
210
0
220
0
230
1
0
LINE
5
108
100
AcDbEntity
8
2
62
256
6
ByLayer
370
-1
48
1
60
0
100
AcDbLine
10
112.18
20
0
30
0
11
112.597997
21
3.175002
31
0
39
0
210
0
220
0
230
1
0
LINE
5
109
100
AcDbEntity
8
2
62
256
6
ByLayer
370
-1
48
1
60
0
100
AcDbLine
10
111.762003
20
3.174998
30
0
11
112.597997
21
3.175002
31
0
39
0
210
0
220
0
230
1
0
ENDBLK
5
10B
100
AcDbEntity
8
0
100
AcDbBlockEnd
0
BLOCK
5
10E
100
AcDbEntity
8
0
100
AcDbBlockBegin
2
_CLOSED
70
0
10
0
20
0
30
0
3
_CLOSED
0
LINE
5
110
100
AcDbEntity
8
0
62
256
6
ByLayer
370
-2
48
1
60
0
100
AcDbLine
10
-1
20
0.166667
30
0
11
0
21
0
31
0
39
0
210
0
220
0
230
1
0
LINE
5
111
100
AcDbEntity
8
0
62
256
6
ByLayer
370
-2
48
1
60
0
100
AcDbLine
10
0
20
0
30
0
11
-1
21
-0.166667
31
0
39
0
210
0
220
0
230
1
0
LINE
5
112
100
AcDbEntity
8
0
62
256
6
ByLayer
370
-2
48
1
60
0
100
AcDbLine
10
-1
20
0.166667
30
0
11
-1
21
-0.166667
31
0
39
0
210
0
220
0
230
1
0
LINE
5
113
100
AcDbEntity
8
0
62
256
6
ByLayer
370
-2
48
1
60
0
100
AcDbLine
10
0
20
0
30
0
11
-1
21
0
31
0
39
0
210
0
220
0
230
1
0
ENDBLK
5
10F
100
AcDbEntity
8
0
100
AcDbBlockEnd
0
BLOCK
5
120
100
AcDbEntity
8
0
100
AcDbBlockBegin
2
DimnDraft3D2
70
0
10
0
20
0
30
0
3
DimnDraft3D2
0
MTEXT
5
115
100
AcDbEntity
8
SK2
62
256
6
ByLayer
370
-1
48
1
60
0
100
AcDbMText
10
-212.195
20
-3.659211
30
0
210
0
220
0
230
1
1
\W01.000;\fsimplex.shx,bigfont.shx;%%c25 
40
4.5
41
0
44
1.084337
50
90
71
7
72
5
7
DEFAULT
0
LINE
5
117
100
AcDbEntity
8
SK2
62
256
6
ByLayer
370
-1
48
1
60
0
100
AcDbLine
10
-203.32
20
-12.49125
30
0
11
-213.07
21
-12.49125
31
0
39
0
210
0
220
0
230
1
0
LINE
5
118
100
AcDbEntity
8
SK2
62
256
6
ByLayer
370
-1
48
1
60
0
100
AcDbLine
10
-203.32
20
12.49125
30
0
11
-213.07
21
12.49125
31
0
39
0
210
0
220
0
230
1
0
LINE
5
119
100
AcDbEntity
8
SK2
62
256
6
ByLayer
370
-1
48
1
60
0
100
AcDbLine
10
-211.07
20
-12.49125
30
0
11
-211.07
21
12.49125
31
0
39
0
210
0
220
0
230
1
0
LINE
5
11A
100
AcDbEntity
8
SK2
62
256
6
ByLayer
370
-1
48
1
60
0
100
AcDbLine
10
-211.07
20
-12.49125
30
0
11
-211.487997
21
-9.316252
31
0
39
0
210
0
220
0
230
1
0
LINE
5
11B
100
AcDbEntity
8
SK2
62
256
6
ByLayer
370
-1
48
1
60
0
100
AcDbLine
10
-211.07
20
-12.49125
30
0
11
-210.652003
21
-9.316248
31
0
39
0
210
0
220
0
230
1
0
LINE
5
11C
100
AcDbEntity
8
SK2
62
256
6
ByLayer
370
-1
48
1
60
0
100
AcDbLine
10
-211.487997
20
-9.316252
30
0
11
-210.652003
21
-9.316248
31
0
39
0
210
0
220
0
230
1
0
LINE
5
11D
100
AcDbEntity
8
SK2
62
256
6
ByLayer
370
-1
48
1
60
0
100
AcDbLine
10
-211.07
20
12.49125
30
0
11
-210.652003
21
9.316252
31
0
39
0
210
0
220
0
230
1
0
LINE
5
11E
100
AcDbEntity
8
SK2
62
256
6
ByLayer
370
-1
48
1
60
0
100
AcDbLine
10
-211.07
20
12.49125
30
0
11
-211.487997
21
9.316248
31
0
39
0
210
0
220
0
230
1
0
LINE
5
11F
100
AcDbEntity
8
SK2
62
256
6
ByLayer
370
-1
48
1
60
0
100
AcDbLine
10
-210.652003
20
9.316252
30
0
11
-211.487997
21
9.316248
31
0
39
0
210
0
220
0
230
1
0
ENDBLK
5
121
100
AcDbEntity
8
0
100
AcDbBlockEnd
0
BLOCK
5
12E
100
AcDbEntity
8
0
100
AcDbBlockBegin
2
DimnDraft3D3
70
0
10
0
20
0
30
0
3
DimnDraft3D3
0
MTEXT
5
124
100
AcDbEntity
8
SK2
62
256
6
ByLayer
370
-1
48
1
60
0
100
AcDbMText
10
-56.385132
20
-34.025
30
0
210
0
220
0
230
1
1
\W01.000;\fsimplex.shx,bigfont.shx;300.0 
40
4.5
41
0
44
1.084337
50
0
71
7
72
5
7
DEFAULT
0
LINE
5
125
100
AcDbEntity
8
SK2
62
256
6
ByLayer
370
-1
48
1
60
0
100
AcDbLine
10
-201.32
20
-14.49125
30
0
11
-201.32
21
-37.15
31
0
39
0
210
0
220
0
230
1
0
LINE
5
126
100
AcDbEntity
8
SK2
62
256
6
ByLayer
370
-1
48
1
60
0
100
AcDbLine
10
99.93
20
-19.9
30
0
11
99.93
21
-37.15
31
0
39
0
210
0
220
0
230
1
0
LINE
5
127
100
AcDbEntity
8
SK2
62
256
6
ByLayer
370
-1
48
1
60
0
100
AcDbLine
10
-201.32
20
-35.15
30
0
11
99.93
21
-35.15
31
0
39
0
210
0
220
0
230
1
0
LINE
5
128
100
AcDbEntity
8
SK2
62
256
6
ByLayer
370
-1
48
1
60
0
100
AcDbLine
10
-201.32
20
-35.15
30
0
11
-198.145002
21
-34.732003
31
0
39
0
210
0
220
0
230
1
0
LINE
5
129
100
AcDbEntity
8
SK2
62
256
6
ByLayer
370
-1
48
1
60
0
100
AcDbLine
10
-201.32
20
-35.15
30
0
11
-198.144998
21
-35.567997
31
0
39
0
210
0
220
0
230
1
0
LINE
5
12A
100
AcDbEntity
8
SK2
62
256
6
ByLayer
370
-1
48
1
60
0
100
AcDbLine
10
-198.145002
20
-34.732003
30
0
11
-198.144998
21
-35.567997
31
0
39
0
210
0
220
0
230
1
0
LINE
5
12B
100
AcDbEntity
8
SK2
62
256
6
ByLayer
370
-1
48
1
60
0
100
AcDbLine
10
99.93
20
-35.15
30
0
11
96.755002
21
-35.567997
31
0
39
0
210
0
220
0
230
1
0
LINE
5
12C
100
AcDbEntity
8
SK2
62
256
6
ByLayer
370
-1
48
1
60
0
100
AcDbLine
10
99.93
20
-35.15
30
0
11
96.754998
21
-34.732003
31
0
39
0
210
0
220
0
230
1
0
LINE
5
12D
100
AcDbEntity
8
SK2
62
256
6
ByLayer
370
-1
48
1
60
0
100
AcDbLine
10
96.755002
20
-35.567997
30
0
11
96.754998
21
-34.732003
31
0
39
0
210
0
220
0
230
1
0
ENDBLK
5
12F
100
AcDbEntity
8
0
100
AcDbBlockEnd
0
BLOCK
5
13C
100
AcDbEntity
8
0
100
AcDbBlockBegin
2
DimnDraft3D4
70
0
10
0
20
0
30
0
3
DimnDraft3D4
0
MTEXT
5
132
100
AcDbEntity
8
2
62
256
6
ByLayer
370
-1
48
1
60
0
100
AcDbMText
10
110.936149
20
36.215882
30
0
210
0
220
0
230
1
1
\W01.000;\fsimplex.shx,bigfont.shx;107%%d30' 
40
4.5
41
0
44
1.084337
50
323.75
71
7
72
5
7
DEFAULT
0
LINE
5
133
100
AcDbEntity
8
2
62
256
6
ByLayer
370
-1
48
1
60
0
100
AcDbLine
10
94.517296
20
-0.733095
30
0
11
82.28005
21
38.078491
31
0
39
0
210
0
220
0
230
1
0
LINE
5
134
100
AcDbEntity
8
2
62
256
6
ByLayer
370
-1
48
1
60
0
100
AcDbLine
10
101.93
20
0
30
0
11
134.212559
21
0
31
0
39
0
210
0
220
0
230
1
0
ARC
5
135
100
AcDbEntity
8
2
62
256
6
ByLayer
370
-1
48
1
60
0
100
AcDbCircle
39
0
10
94.286152
20
0
30
0
40
37.9264068640928
210
0
220
0
230
1
100
AcDbArc
50
0
51
107.5
0
LINE
5
136
100
AcDbEntity
8
2
62
256
6
ByLayer
370
-1
48
1
60
0
100
AcDbLine
10
82.881461
20
36.171057
30
0
11
85.811488
21
37.463449
31
0
39
0
210
0
220
0
230
1
0
LINE
5
137
100
AcDbEntity
8
2
62
256
6
ByLayer
370
-1
48
1
60
0
100
AcDbLine
10
82.881461
20
36.171057
30
0
11
86.046149
21
36.661066
31
0
39
0
210
0
220
0
230
1
0
LINE
5
138
100
AcDbEntity
8
2
62
256
6
ByLayer
370
-1
48
1
60
0
100
AcDbLine
10
85.811488
20
37.463449
30
0
11
86.046149
21
36.661066
31
0
39
0
210
0
220
0
230
1
0
LINE
5
139
100
AcDbEntity
8
2
62
256
6
ByLayer
370
-1
48
1
60
0
100
AcDbLine
10
132.212559
20
0
30
0
11
131.728248
21
3.165562
31
0
39
0
210
0
220
0
230
1
0
LINE
5
13A
100
AcDbEntity
8
2
62
256
6
ByLayer
370
-1
48
1
60
0
100
AcDbLine
10
132.212559
20
0
30
0
11
132.564059
21
3.183049
31
0
39
0
210
0
220
0
230
1
0
LINE
5
13B
100
AcDbEntity
8
2
62
256
6
ByLayer
370
-1
48
1
60
0
100
AcDbLine
10
131.728248
20
3.165562
30
0
11
132.564059
21
3.183049
31
0
39
0
210
0
220
0
230
1
0
ENDBLK
5
13D
100
AcDbEntity
8
0
100
AcDbBlockEnd
0
ENDSEC
0
SECTION
2
ENTITIES
0
ELLIPSE
5
86
100
AcDbEntity
8
1
62
256
6
ByLayer
370
-1
48
1
60
0
100
AcDbEllipse
10
68.037837
20
-45.125276
30
0
11
34.2359689620213
21
127.093342661468
31
0
210
2.95822839457879E-31
220
1.38875090641594E-16
230
1
40
0.106193
41
1.19521361706209
42
1.2772973539561
0
ELLIPSE
5
87
100
AcDbEntity
8
1
62
256
6
ByLayer
370
-1
48
1
60
0
100
AcDbEllipse
10
82.950086
20
6.207661
30
0
11
-1.33520373104752
21
-0.420988119305979
31
0
210
0
220
0
230
1
40
0.992065
41
2.1155900842936
42
2.27987925708069
0
ELLIPSE
5
88
100
AcDbEntity
8
1
62
256
6
ByLayer
370
-1
48
1
60
0
100
AcDbEllipse
10
82.950086
20
6.207661
30
0
11
-1.33520373104752
21
-0.420988119305979
31
0
210
0
220
0
230
1
40
0.992065
41
0.309396706415692
42
1.58851706911964
0
ELLIPSE
5
89
100
AcDbEntity
8
1
62
256
6
ByLayer
370
-1
48
1
60
0
100
AcDbEllipse
10
85.372604
20
-11.565108
30
0
11
4.00561119314255
21
1.26296435791793
31
0
210
0
220
0
230
1
40
0.992065
41
0.863855680925787
42
0.964953409958342
0
ELLIPSE
5
8A
100
AcDbEntity
8
1
62
256
6
ByLayer
370
-1
48
1
60
0
100
AcDbEllipse
10
98.903984
20
-2.136186
30
0
11
4.00561119314246
21
1.2629643579179
31
0
210
0
220
0
230
1
40
0.992065
41
2.78750467094851
42
3.00275322394226
0
ELLIPSE
5
8B
100
AcDbEntity
8
1
62
256
6
ByLayer
370
-1
48
1
60
0
100
AcDbEllipse
10
85.533289
20
-12.074738
30
0
11
-4.00561119314255
21
-1.26296435791794
31
0
210
0
220
0
230
1
40
0.992065
41
-2.01041306982528
42
-1.09083078249654
0
ELLIPSE
5
8C
100
AcDbEntity
8
1
62
256
6
ByLayer
370
-1
48
1
60
0
100
AcDbEllipse
10
83.110771
20
5.698031
30
0
11
-1.33520373104752
21
-0.420988119305979
31
0
210
0
220
0
230
1
40
0.992065
41
2.36958576837967
42
0.215929115882869
0
ELLIPSE
5
8D
100
AcDbEntity
8
1
62
256
6
ByLayer
370
-1
48
1
60
0
100
AcDbEllipse
10
83.137281
20
3.969603
30
0
11
1.54908836733464
21
0.488425686087127
31
0
210
0
220
0
230
1
40
0.992065
41
2.13825191429324
42
-2.53072741539179
0
ELLIPSE
5
8E
100
AcDbEntity
8
1
62
256
6
ByLayer
370
-1
48
1
60
0
100
AcDbEllipse
10
83.078675
20
4.155475
30
0
11
-1.43057542612234
21
-0.451058699256405
31
0
210
0
220
0
230
1
40
0.992065
41
-0.635194906693348
42
0.610865238198061
0
ELLIPSE
5
8F
100
AcDbEntity
8
1
62
256
6
ByLayer
370
-1
48
1
60
0
100
AcDbEllipse
10
82.976595
20
4.479233
30
0
11
-1.43057542612234
21
-0.451058699256405
31
0
210
0
220
0
230
1
40
0.992065
41
0.114306859801415
42
0.610865238198041
0
ELLIPSE
5
90
100
AcDbEntity
8
1
62
256
6
ByLayer
370
-1
48
1
60
0
100
AcDbEllipse
10
82.925511
20
6.285603
30
0
11
1.33520373104752
21
0.420988119305978
31
0
210
0
220
0
230
1
40
0.992065
41
-2.91789752671682
42
-1.49838882093415
0
ELLIPSE
5
91
100
AcDbEntity
8
1
62
256
6
ByLayer
370
-1
48
1
60
0
100
AcDbEllipse
10
82.925511
20
6.285603
30
0
11
1.33520373104752
21
0.420988119305978
31
0
210
0
220
0
230
1
40
0.992065
41
-1.06975736058071
42
-0.223687052504037
0
ELLIPSE
5
92
100
AcDbEntity
8
1
62
256
6
ByLayer
370
-1
48
1
60
0
100
AcDbEllipse
10
91.552066
20
-6.254335
30
0
11
2.80817345793608
21
0.885413690249343
31
0
210
0
220
0
230
1
40
0.992065
41
2.83386755859484
42
-3.04057457850749E-16
0
ELLIPSE
5
93
100
AcDbEntity
8
1
62
256
6
ByLayer
370
-1
48
1
60
0
100
AcDbEllipse
10
91.552066
20
-6.254335
30
0
11
2.80817345793608
21
0.885413690249343
31
0
210
0
220
0
230
1
40
0.992065
41
0
42
0.713587316495183
0
ELLIPSE
5
94
100
AcDbEntity
8
1
62
256
6
ByLayer
370
-1
48
1
60
0
100
AcDbEllipse
10
91.552066
20
-6.254335
30
0
11
2.80817345793608
21
0.885413690249343
31
0
210
0
220
0
230
1
40
0.992065
41
2.42791490233435
42
2.83386755859485
0
ELLIPSE
5
95
100
AcDbEntity
8
1
62
256
6
ByLayer
370
-1
48
1
60
0
100
AcDbEllipse
10
84.203171
20
4.96447
30
0
11
0.76983111044793
21
1.08414062211425
31
0
210
0
220
0
230
-1
40
0.507802
41
-2.22782982296204
42
-1.88006282967476
0
ELLIPSE
5
96
100
AcDbEntity
8
1
62
256
6
ByLayer
370
-1
48
1
60
0
100
AcDbEllipse
10
91.596725
20
-6.395976
30
0
11
2.90362383720892
21
0.915509079232109
31
0
210
0
220
0
230
1
40
0.992065
41
0
42
6.28318530717959
0
ELLIPSE
5
97
100
AcDbEntity
8
1
62
256
6
ByLayer
370
-1
48
1
60
0
100
AcDbEllipse
10
84.203171
20
4.96447
30
0
11
0.702569245815846
21
-0.455387896769812
31
0
210
0
220
0
230
-1
40
0.216609
41
-2.12874435413132
42
-1.3567870494087
0
ELLIPSE
5
98
100
AcDbEntity
8
1
62
256
6
ByLayer
370
-1
48
1
60
0
100
AcDbEllipse
10
84.046299
20
4.334713
30
0
11
0.79099753873274
21
0.0740997602228871
31
0
210
0
220
0
230
-1
40
0.994699
41
3.05328281463392
42
-0.946616796191492
0
ELLIPSE
5
99
100
AcDbEntity
8
1
62
256
6
ByLayer
370
-1
48
1
60
0
100
AcDbEllipse
10
95.345666
20
-3.783643
30
0
11
0.368403586092945
21
0.159823096241644
31
0
210
0
220
0
230
-1
40
0.988418
41
-0.505770859287875
42
0.102695217796035
0
ELLIPSE
5
9A
100
AcDbEntity
8
1
62
256
6
ByLayer
370
-1
48
1
60
0
100
AcDbEllipse
10
87.847784
20
-9.008309
30
0
11
0.368403586458044
21
0.159823095026438
31
0
210
0
220
0
230
-1
40
0.988418
41
2.63582179110477
42
-3.03889743887594
0
ELLIPSE
5
9B
100
AcDbEntity
8
1
62
256
6
ByLayer
370
-1
48
1
60
0
100
AcDbEllipse
10
99.147152
20
-17.126664
30
0
11
0.790997538732243
21
0.0740997602277626
31
0
210
0
220
0
230
-1
40
0.994699
41
-0.0883098389483028
42
2.19497585740515
0
ELLIPSE
5
9C
100
AcDbEntity
8
1
62
256
6
ByLayer
370
-1
48
1
60
0
100
AcDbEllipse
10
84.104251
20
4.567359
30
0
11
0.790997538607688
21
0.0740997613801558
31
0
210
0
220
0
230
-1
40
0.994699
41
-2.45794518640819
42
-1.7185740994001
0
ELLIPSE
5
9D
100
AcDbEntity
8
1
62
256
6
ByLayer
370
-1
48
1
60
0
100
AcDbEllipse
10
91.558162
20
-6.273667
30
0
11
2.86115085224475
21
0.90211739851283
31
0
210
0
220
0
230
1
40
0.992065
41
2.83386780534035
42
-2.98427495409442E-16
0
ELLIPSE
5
9E
100
AcDbEntity
8
1
62
256
6
ByLayer
370
-1
48
1
60
0
100
AcDbEllipse
10
91.558162
20
-6.273667
30
0
11
2.86115085224475
21
0.90211739851283
31
0
210
0
220
0
230
1
40
0.992065
41
0
42
0.33168729888507
0
ELLIPSE
5
9F
100
AcDbEntity
8
1
62
256
6
ByLayer
370
-1
48
1
60
0
100
AcDbEllipse
10
91.558162
20
-6.273667
30
0
11
2.86115085224475
21
0.90211739851283
31
0
210
0
220
0
230
1
40
0.992065
41
2.80981486941794
42
2.83386780534035
0
ELLIPSE
5
A0
100
AcDbEntity
8
1
62
256
6
ByLayer
370
-1
48
1
60
0
100
AcDbEllipse
10
89.986513
20
-7.266093
30
0
11
-0.654249828213284
21
-0.20628417845993
31
0
210
0
220
0
230
1
40
0.992065
41
-2.71454599327453
42
-2.04489869956942
0
ELLIPSE
5
A1
100
AcDbEntity
8
1
62
256
6
ByLayer
370
-1
48
1
60
0
100
AcDbEllipse
10
91.585481
20
-6.360315
30
0
11
1.59890646792938
21
0.504133272868901
31
0
210
0
220
0
230
1
40
0.992065
41
2.92063594940917
42
-2.30977071121121
0
ELLIPSE
5
A2
100
AcDbEntity
8
1
62
256
6
ByLayer
370
-1
48
1
60
0
100
AcDbEllipse
10
92.910445
20
-6.070329
30
0
11
-0.278485349618482
21
-0.087806093455247
31
0
210
0
220
0
230
1
40
0.992065
41
1.6144418040309
42
2.83211109740924
0
ELLIPSE
5
A3
100
AcDbEntity
8
1
62
256
6
ByLayer
370
-1
48
1
60
0
100
AcDbEllipse
10
91.531606
20
-6.189443
30
0
11
1.15065950107772
21
0.362801547101896
31
0
210
0
220
0
230
1
40
0.992065
41
-1.78756720945346
42
-0.74316020593824
0
ELLIPSE
5
A4
100
AcDbEntity
8
1
62
256
6
ByLayer
370
-1
48
1
60
0
100
AcDbEllipse
10
91.532551
20
-6.192441
30
0
11
2.50350699571409
21
0.789352723698707
31
0
210
0
220
0
230
1
40
0.992065
41
2.83386775737564
42
-3.14153969608032
0
ELLIPSE
5
A5
100
AcDbEntity
8
1
62
256
6
ByLayer
370
-1
48
1
60
0
100
AcDbEllipse
10
91.532551
20
-6.192441
30
0
11
2.50350699571409
21
0.789352723698707
31
0
210
0
220
0
230
1
40
0.992065
41
0
42
2.83386782618857
0
ELLIPSE
5
A6
100
AcDbEntity
8
1
62
256
6
ByLayer
370
-1
48
1
60
0
100
AcDbEllipse
10
93.24262
20
-6.981949
30
0
11
-0.654249828213284
21
-0.20628417845993
31
0
210
0
220
0
230
1
40
0.992065
41
-1.52715084955903
42
-0.743160205938319
0
ELLIPSE
5
A7
100
AcDbEntity
8
1
62
256
6
ByLayer
370
-1
48
1
60
0
100
AcDbEllipse
10
91.585481
20
-6.360315
30
0
11
1.59890646792938
21
0.504133272868901
31
0
210
0
220
0
230
1
40
0.992065
41
-2.30977071121121
42
-1.26536370769596
0
ELLIPSE
5
A8
100
AcDbEntity
8
1
62
256
6
ByLayer
370
-1
48
1
60
0
100
AcDbEllipse
10
93.24262
20
-6.981949
30
0
11
-0.654249828213284
21
-0.20628417845993
31
0
210
0
220
0
230
1
40
0.992065
41
-0.743160205938319
42
-1.02397319020581E-05
0
ELLIPSE
5
A9
100
AcDbEntity
8
1
62
256
6
ByLayer
370
-1
48
1
60
0
100
AcDbEllipse
10
91.531606
20
-6.189443
30
0
11
1.15065950107772
21
0.362801547101896
31
0
210
0
220
0
230
1
40
0.992065
41
-2.90519266790229
42
-2.76712740107925
0
ELLIPSE
5
AA
100
AcDbEntity
8
1
62
256
6
ByLayer
370
-1
48
1
60
0
100
AcDbEllipse
10
91.585481
20
-6.360315
30
0
11
1.59890646792938
21
0.504133272868901
31
0
210
0
220
0
230
1
40
0.992065
41
0.831821942378808
42
1.87622894589396
0
ELLIPSE
5
AB
100
AcDbEntity
8
1
62
256
6
ByLayer
370
-1
48
1
60
0
100
AcDbEllipse
10
91.531606
20
-6.189443
30
0
11
-1.15065950107771
21
-0.362801547101894
31
0
210
0
220
0
230
1
40
0.992065
41
2.39843244765152
42
-3.03695901341701
0
ELLIPSE
5
AC
100
AcDbEntity
8
1
62
256
6
ByLayer
370
-1
48
1
60
0
100
AcDbEllipse
10
91.585481
20
-6.360315
30
0
11
1.59890646792938
21
0.504133272868901
31
0
210
0
220
0
230
1
40
0.992065
41
-1.26536370769596
42
-0.22095670418061
0
ELLIPSE
5
AD
100
AcDbEntity
8
1
62
256
6
ByLayer
370
-1
48
1
60
0
100
AcDbEllipse
10
91.531606
20
-6.189443
30
0
11
-1.15065950107771
21
-0.362801547101894
31
0
210
0
220
0
230
1
40
0.992065
41
-0.466418810026249
42
0.236399985687456
0
ELLIPSE
5
AE
100
AcDbEntity
8
1
62
256
6
ByLayer
370
-1
48
1
60
0
100
AcDbEllipse
10
93.076699
20
-5.112793
30
0
11
-0.654249828213284
21
-0.20628417845993
31
0
210
0
220
0
230
1
40
0.992065
41
-0.485828715822207
42
-1.02226541054309E-05
0
ELLIPSE
5
AF
100
AcDbEntity
8
1
62
256
6
ByLayer
370
-1
48
1
60
0
100
AcDbEllipse
10
91.575068
20
-6.327287
30
0
11
2.50350699571409
21
0.789352723698705
31
0
210
0
220
0
230
1
40
0.992065
41
0
42
6.28318530717959
0
ELLIPSE
5
B0
100
AcDbEntity
8
1
62
256
6
ByLayer
370
-1
48
1
60
0
100
AcDbEllipse
10
91.575222
20
-6.327777
30
0
11
1.15065950107771
21
0.362801547101893
31
0
210
0
220
0
230
1
40
0.992065
41
-2.90519266790233
42
-2.76712740107929
0
ELLIPSE
5
B1
100
AcDbEntity
8
1
62
256
6
ByLayer
370
-1
48
1
60
0
100
AcDbEllipse
10
91.531606
20
-6.189443
30
0
11
-1.15065950107771
21
-0.362801547101894
31
0
210
0
220
0
230
1
40
0.992065
41
-1.51970921343443
42
-0.88962142287389
0
ELLIPSE
5
B2
100
AcDbEntity
8
1
62
256
6
ByLayer
370
-1
48
1
60
0
100
AcDbEllipse
10
90.947553
20
-7.438109
30
0
11
-0.278485349618482
21
-0.087806093455247
31
0
210
0
220
0
230
1
40
0.992065
41
0.290704731166108
42
2.13801608775732
0
ELLIPSE
5
B3
100
AcDbEntity
8
1
62
256
6
ByLayer
370
-1
48
1
60
0
100
AcDbEllipse
10
91.531606
20
-6.189443
30
0
11
-1.15065950107771
21
-0.362801547101894
31
0
210
0
220
0
230
1
40
0.992065
41
-2.74175044238538
42
-2.0871436805697
0
ELLIPSE
5
B4
100
AcDbEntity
8
1
62
256
6
ByLayer
370
-1
48
1
60
0
100
AcDbEllipse
10
92.322572
20
-7.313566
30
0
11
-0.278485349618482
21
-0.087806093455247
31
0
210
0
220
0
230
1
40
0.992065
41
0.570034800515696
42
2.74876802406533
0
ELLIPSE
5
B5
100
AcDbEntity
8
1
62
256
6
ByLayer
370
-1
48
1
60
0
100
AcDbEllipse
10
91.585481
20
-6.360315
30
0
11
1.59890646792938
21
0.504133272868901
31
0
210
0
220
0
230
1
40
0.992065
41
-0.22095670418061
42
0.831821942378808
0
ELLIPSE
5
B6
100
AcDbEntity
8
1
62
256
6
ByLayer
370
-1
48
1
60
0
100
AcDbEllipse
10
91.585481
20
-6.360315
30
0
11
1.71669051134677
21
0.541270439107675
31
0
210
0
220
0
230
1
40
0.992065
41
0
42
6.28318530717959
0
ELLIPSE
5
B7
100
AcDbEntity
8
1
62
256
6
ByLayer
370
-1
48
1
60
0
100
AcDbEllipse
10
91.531606
20
-6.189443
30
0
11
-1.15065950107771
21
-0.362801547101894
31
0
210
0
220
0
230
1
40
0.992065
41
0.374465252510493
42
1.35402544413628
0
ELLIPSE
5
B8
100
AcDbEntity
8
1
62
256
6
ByLayer
370
-1
48
1
60
0
100
AcDbEllipse
10
91.694768
20
-8.060522
30
0
11
-0.654249828213284
21
-0.20628417845993
31
0
210
0
220
0
230
1
40
0.992065
41
-1.78756720945357
42
-1.00357656583267
0
ELLIPSE
5
B9
100
AcDbEntity
8
1
62
256
6
ByLayer
370
-1
48
1
60
0
100
AcDbEllipse
10
91.694768
20
-8.060522
30
0
11
-0.654249828213284
21
-0.20628417845993
31
0
210
0
220
0
230
1
40
0.992065
41
-2.57155785307434
42
-1.78756720945357
0
ELLIPSE
5
BA
100
AcDbEntity
8
1
62
256
6
ByLayer
370
-1
48
1
60
0
100
AcDbEllipse
10
89.986513
20
-7.266093
30
0
11
-0.654249828213284
21
-0.20628417845993
31
0
210
0
220
0
230
1
40
0.992065
41
3.14158256093655
42
-2.957774075707
0
ELLIPSE
5
BB
100
AcDbEntity
8
1
62
256
6
ByLayer
370
-1
48
1
60
0
100
AcDbEllipse
10
90.152767
20
-6.308557
30
0
11
-0.278485349618482
21
-0.087806093455247
31
0
210
0
220
0
230
1
40
0.992065
41
0.426835276981274
42
1.09669395402012
0
ELLIPSE
5
BC
100
AcDbEntity
8
1
62
256
6
ByLayer
370
-1
48
1
60
0
100
AcDbEllipse
10
91.575222
20
-6.327777
30
0
11
1.15065950107771
21
0.362801547101893
31
0
210
0
220
0
230
1
40
0.992065
41
0.236399985687038
42
0.374465252511059
0
ELLIPSE
5
BD
100
AcDbEntity
8
1
62
256
6
ByLayer
370
-1
48
1
60
0
100
AcDbEllipse
10
91.585481
20
-6.360315
30
0
11
1.59890646792938
21
0.504133272868901
31
0
210
0
220
0
230
1
40
0.992065
41
1.87622894589396
42
2.92063594940917
0
POINT
5
41
100
AcDbEntity
8
80
62
256
6
ByLayer
370
-1
48
1
60
0
100
AcDbPoint
10
0
20
0
30
0
39
0
210
0
220
0
230
1
50
360
0
POINT
5
43
100
AcDbEntity
8
81
62
256
6
ByLayer
370
-1
48
1
60
0
100
AcDbPoint
10
99.93
20
-17.9
30
0
39
0
210
0
220
0
230
1
50
360
0
POINT
5
45
100
AcDbEntity
8
1
62
256
6
ByLayer
370
-1
48
1
60
0
100
AcDbPoint
10
-201.32
20
0
30
0
39
0
210
0
220
0
230
1
50
360
0
POINT
5
47
100
AcDbEntity
8
2
62
256
6
ByLayer
370
-1
48
1
60
0
100
AcDbPoint
10
99.93
20
17.9
30
0
39
0
210
0
220
0
230
1
50
360
0
POINT
5
49
100
AcDbEntity
8
2
62
256
6
ByLayer
370
-1
48
1
60
0
100
AcDbPoint
10
99.6034
20
16.758353
30
0
39
0
210
0
220
0
230
1
50
360
0
SPLINE
5
BE
100
AcDbEntity
8
1
62
256
6
ByLayer
370
-1
48
1
60
0
100
AcDbSpline
70
4
71
3
72
8
73
4
40
0
40
0
40
0
40
0
40
1
40
1
40
1
40
1
41
1
10
65.0231888500294
20
-4.8766101507608
30
0
41
1
10
64.6775355782354
20
-6.89832208269746
30
0
41
1
10
64.6034245055393
20
-8.75074569746951
30
0
41
1
10
65.3010114632957
20
-10.0087500000006
30
0
0
SPLINE
5
BF
100
AcDbEntity
8
1
62
256
6
ByLayer
370
-1
48
1
60
0
100
AcDbSpline
70
4
71
2
72
6
73
3
40
0
40
0
40
0
40
1
40
1
40
1
41
0.499999918726349
10
82.6796263038931
20
11.915928705595
30
0
41
0.500000081273651
10
82.5511344573045
20
11.9144451691774
30
0
41
0.499999918726349
10
82.4226616272843
20
11.9129578979212
30
0
0
SPLINE
5
C0
100
AcDbEntity
8
1
62
256
6
ByLayer
370
-1
48
1
60
0
100
AcDbSpline
70
4
71
3
72
28
73
24
40
-0.125000000000016
40
-0.125000000000016
40
0
40
0
40
0.124999999999992
40
0.124999999999992
40
0.187499999999988
40
0.187499999999988
40
0.249999999999984
40
0.249999999999984
40
0.374999999999976
40
0.374999999999976
40
0.499999999999967
40
0.499999999999967
40
0.624999999999959
40
0.624999999999959
40
0.687499999999959
40
0.687499999999959
40
0.718749999999963
40
0.718749999999963
40
0.749999999999967
40
0.749999999999967
40
0.874999999999984
40
0.874999999999984
40
1
40
1
40
1.12499999999999
40
1.12499999999999
41
1
10
72.6988365639537
20
-2.7044783251599
30
0
41
1
10
71.4886279577811
20
-2.10695795969735
30
0
41
1
10
70.854142429544
20
-1.9235675204238
30
0
41
1
10
69.9057767355997
20
-2.19363227434871
30
0
41
1
10
69.5984122197566
20
-2.39004224854912
30
0
41
1
10
69.1359575405253
20
-3.00335067361104
30
0
41
1
10
68.9962224227652
20
-3.40859400131677
30
0
41
1
10
68.9152277375149
20
-4.5556583493281
30
0
41
1
10
69.2525500314686
20
-5.16463395649785
30
0
41
1
10
70.2057676460573
20
-6.00412257921727
30
0
41
1
10
70.8209408645801
20
-6.25723891073133
30
0
41
1
10
72.1586679119801
20
-6.57681634213193
30
0
41
1
10
72.8905538956649
20
-6.65181394072971
30
0
41
1
10
74.0282047794489
20
-6.58084236821432
30
0
41
1
10
74.4211273659194
20
-6.53762051250899
30
0
41
1
10
74.9534310237484
20
-6.28196060659556
30
0
41
1
10
75.1226903314641
20
-6.14750300595472
30
0
41
1
10
75.2542288792942
20
-5.76915829469613
30
0
41
1
10
75.2149477426517
20
-5.56437288675073
30
0
41
1
10
74.8875705291557
20
-4.65918835554462
30
0
41
1
10
74.3297332853201
20
-4.11528070905894
30
0
41
1
10
73.2673247578022
20
-3.12688623062095
30
0
41
1
10
72.6988365639537
20
-2.7044783251599
30
0
41
1
10
71.4886279577811
20
-2.10695795969735
30
0
0
SPLINE
5
C1
100
AcDbEntity
8
1
62
256
6
ByLayer
370
-1
48
1
60
0
100
AcDbSpline
70
4
71
3
72
12
73
8
40
0
40
0
40
0
40
0
40
0.500000000000003
40
0.500000000000003
40
0.750000000000002
40
0.750000000000002
40
1
40
1
40
1
40
1
41
1
10
82.4226616272837
20
11.9129578979214
30
0
41
1
10
79.2255044219585
20
11.8759458696804
30
0
41
1
10
76.1599060096493
20
11.5991724891065
30
0
41
1
10
72.4050328986244
20
10.0239697149125
30
0
41
1
10
71.3177028364046
20
9.30025933009532
30
0
41
1
10
69.4567327042482
20
7.38800751850195
30
0
41
1
10
68.692572231016
20
6.2102250927062
30
0
41
1
10
68.0405034132372
20
4.87661015076017
30
0
0
SPLINE
5
C2
100
AcDbEntity
8
1
62
256
6
ByLayer
370
-1
48
1
60
0
100
AcDbSpline
70
4
71
3
72
8
73
4
40
0
40
0
40
0
40
0
40
1
40
1
40
1
40
1
41
1
10
81.9075281823431
20
5.07958329235078
30
0
41
1
10
81.9022696530972
20
5.05256302332222
30
0
41
1
10
81.8983932534993
20
5.02703927347389
30
0
41
1
10
81.8960572555032
20
5.00301536823696
30
0
0
SPLINE
5
C3
100
AcDbEntity
8
1
62
256
6
ByLayer
370
-1
48
1
60
0
100
AcDbSpline
70
4
71
3
72
16
73
12
40
0
40
0
40
0
40
0
40
0.201555109581218
40
0.201555109581218
40
0.424552979255296
40
0.424552979255296
40
0.657846163824748
40
0.657846163824748
40
0.911569053939833
40
0.911569053939833
40
1
40
1
40
1
40
1
41
1
10
92.5432670130257
20
-7.72152257357126
30
0
41
1
10
92.521305408254
20
-7.7368258355188
30
0
41
1
10
92.4968719428762
20
-7.749008099354
30
0
41
1
10
92.443732539493
20
-7.76654411309158
30
0
41
1
10
92.4141674622568
20
-7.77124602697162
30
0
41
1
10
92.3549786313928
20
-7.77157012357634
30
0
41
1
10
92.324672374402
20
-7.76679721049086
30
0
41
1
10
92.2656275843084
20
-7.74819843971719
30
0
41
1
10
92.2365100547214
20
-7.7334176075185
30
0
41
1
10
92.2017732156067
20
-7.70859957442687
30
0
41
1
10
92.1931240404348
20
-7.70169654580207
30
0
41
1
10
92.184885999719
20
-7.69439189374657
30
0
0
SPLINE
5
C4
100
AcDbEntity
8
1
62
256
6
ByLayer
370
-1
48
1
60
0
100
AcDbSpline
70
4
71
3
72
16
73
12
40
0
40
0
40
0
40
0
40
0.154304539116501
40
0.154304539116501
40
0.461953267004294
40
0.461953267004294
40
0.734692213169723
40
0.734692213169723
40
0.976335124283455
40
0.976335124283455
40
1
40
1
40
1
40
1
41
1
10
92.6470258498931
20
-7.37236409764026
30
0
41
1
10
92.6535337000686
20
-7.39052711087621
30
0
41
1
10
92.6584906283649
20
-7.40946145998788
30
0
41
1
10
92.668011396072
20
-7.46703223695872
30
0
41
1
10
92.6673546459512
20
-7.5078154558413
30
0
41
1
10
92.6511457367855
20
-7.58135327904827
30
0
41
1
10
92.6369659056455
20
-7.61561403632743
30
0
41
1
10
92.5994401325837
20
-7.6724130435162
30
0
41
1
10
92.5767505271714
20
-7.69664009328261
30
0
41
1
10
92.548471963902
20
-7.71782862203014
30
0
41
1
10
92.5458847092156
20
-7.71969851331204
30
0
41
1
10
92.5432670130257
20
-7.72152257357126
30
0
0
SPLINE
5
C5
100
AcDbEntity
8
1
62
256
6
ByLayer
370
-1
48
1
60
0
100
AcDbSpline
70
4
71
3
72
12
73
8
40
0
40
0
40
0
40
0
40
0.405648976812836
40
0.405648976812836
40
0.827005177840647
40
0.827005177840647
40
1
40
1
40
1
40
1
41
1
10
90.1528196606363
20
-6.75204721964801
30
0
41
1
10
90.2092341931969
20
-6.75800540591891
30
0
41
1
10
90.2658332487589
20
-6.77175513363264
30
0
41
1
10
90.3767460732173
20
-6.81684407303007
30
0
41
1
10
90.4321575183879
20
-6.84956761638935
30
0
41
1
10
90.502547346079
20
-6.90867239055171
30
0
41
1
10
90.5222913152119
20
-6.92755608362197
30
0
41
1
10
90.5408609387503
20
-6.94783869118422
30
0
0
SPLINE
5
C6
100
AcDbEntity
8
1
62
256
6
ByLayer
370
-1
48
1
60
0
100
AcDbSpline
70
4
71
3
72
14
73
10
40
0
40
0
40
0
40
0
40
0.246085720309629
40
0.246085720309629
40
0.537159167814827
40
0.537159167814827
40
0.800232814130236
40
0.800232814130236
40
1
40
1
40
1
40
1
41
1
10
90.5156992899423
20
-5.32213878521068
30
0
41
1
10
90.5064731545915
20
-5.29682307659385
30
0
41
1
10
90.5011331034477
20
-5.26924571996537
30
0
41
1
10
90.4996186202868
20
-5.20764271128306
30
0
41
1
10
90.5053665000018
20
-5.17234095613358
30
0
41
1
10
90.5293940533811
20
-5.10840760539378
30
0
41
1
10
90.5468416818903
20
-5.07850661604152
30
0
41
1
10
90.5858968073196
20
-5.03249122533816
30
0
41
1
10
90.6058818828661
20
-5.01430767779584
30
0
41
1
10
90.627695918035
20
-4.99910724514106
30
0
0
SPLINE
5
C7
100
AcDbEntity
8
1
62
256
6
ByLayer
370
-1
48
1
60
0
100
AcDbSpline
70
4
71
3
72
18
73
14
40
0
40
0
40
0
40
0
40
0.202713902482908
40
0.202713902482908
40
0.378577798250546
40
0.378577798250546
40
0.55623751170612
40
0.55623751170612
40
0.709574277437528
40
0.709574277437528
40
0.910723722689992
40
0.910723722689992
40
1
40
1
40
1
40
1
41
1
10
92.647025849885
20
-7.37236409764392
30
0
41
1
10
92.6228814672351
20
-7.30497859708359
30
0
41
1
10
92.607652766445
20
-7.23239810767069
30
0
41
1
10
92.60044944851
20
-7.09425085725641
30
0
41
1
10
92.6057547533983
20
-7.02745353630129
30
0
41
1
10
92.6359186557214
20
-6.89835264123823
30
0
41
1
10
92.6616425213782
20
-6.83424038313481
30
0
41
1
10
92.7249146986264
20
-6.72900360508908
30
0
41
1
10
92.7610418850115
20
-6.68461675362877
30
0
41
1
10
92.8527351807554
20
-6.59817628042379
30
0
41
1
10
92.9122423966674
20
-6.55946717818529
30
0
41
1
10
93.0019639016006
20
-6.5191761597834
30
0
41
1
10
93.0304707269289
20
-6.50874070185228
30
0
41
1
10
93.0593785594072
20
-6.50031841407989
30
0
0
SPLINE
5
C8
100
AcDbEntity
8
1
62
256
6
ByLayer
370
-1
48
1
60
0
100
AcDbSpline
70
4
71
3
72
18
73
14
40
0
40
0
40
0
40
0
40
0.0360205456318491
40
0.0360205456318491
40
0.259442933374988
40
0.259442933374988
40
0.484111583055796
40
0.484111583055796
40
0.721978445241649
40
0.721978445241649
40
0.982493110639995
40
0.982493110639995
40
1
40
1
40
1
40
1
41
1
10
90.627695918035
20
-4.99910724514106
30
0
41
1
10
90.6316581876595
20
-4.99634626065924
30
0
41
1
10
90.6356883944165
20
-4.99367487146782
30
0
41
1
10
90.6648960518208
20
-4.97527562749318
30
0
41
1
10
90.6926900692385
20
-4.9629275222108
30
0
41
1
10
90.7491466215204
20
-4.94682800581339
30
0
41
1
10
90.7785287023879
20
-4.94289862529885
30
0
41
1
10
90.8366953420503
20
-4.94319748841542
30
0
41
1
10
90.8660741537691
20
-4.94789210898651
30
0
41
1
10
90.9224608674424
20
-4.96554535299404
30
0
41
1
10
90.9496974541963
20
-4.97943720312276
30
0
41
1
10
90.974705017641
20
-4.99773594404473
30
0
41
1
10
90.9762802036844
20
-4.99891585268017
30
0
41
1
10
90.9778391401045
20
-5.00011098910704
30
0
0
SPLINE
5
C9
100
AcDbEntity
8
1
62
256
6
ByLayer
370
-1
48
1
60
0
100
AcDbSpline
70
4
71
3
72
18
73
14
40
0
40
0
40
0
40
0
40
0.207744657655274
40
0.207744657655274
40
0.382657913394355
40
0.382657913394355
40
0.559307324058497
40
0.559307324058497
40
0.712403642674559
40
0.712403642674559
40
0.914386309307718
40
0.914386309307718
40
1
40
1
40
1
40
1
41
1
10
91.9423207106027
20
-4.91275248229024
30
0
41
1
10
91.8962589534868
20
-4.96132000254156
30
0
41
1
10
91.8406522657775
20
-5.00504562019526
30
0
41
1
10
91.7244520769767
20
-5.07037295313299
30
0
41
1
10
91.6646314459898
20
-5.09500786734219
30
0
41
1
10
91.5386676773399
20
-5.1286239607665
30
0
41
1
10
91.4705422872102
20
-5.13780017150631
30
0
41
1
10
91.3474337741603
20
-5.13833449644395
30
0
41
1
10
91.2904332130746
20
-5.13197771823582
30
0
41
1
10
91.1677964562652
20
-5.10430781359654
30
0
41
1
10
91.1030191051563
20
-5.07858386785625
30
0
41
1
10
91.0222597971554
20
-5.03192962926107
30
0
41
1
10
90.9993499679895
20
-5.01660195926448
30
0
41
1
10
90.9778391401033
20
-5.00011098910804
30
0
0
SPLINE
5
CA
100
AcDbEntity
8
1
62
256
6
ByLayer
370
-1
48
1
60
0
100
AcDbSpline
70
4
71
3
72
14
73
10
40
0
40
0
40
0
40
0
40
0.267035486542151
40
0.267035486542151
40
0.55548426470534
40
0.55548426470534
40
0.816374332332712
40
0.816374332332712
40
1
40
1
40
1
40
1
41
1
10
91.2204044292248
20
-7.78175040056431
30
0
41
1
10
91.2007123379297
20
-7.80773911799059
30
0
41
1
10
91.1764218626717
20
-7.83100393250882
30
0
41
1
10
91.1192193054757
20
-7.86936674909475
30
0
41
1
10
91.0848224307936
20
-7.88420145870171
30
0
41
1
10
91.0163171792979
20
-7.89841769787125
30
0
41
1
10
90.9814459627159
20
-7.89929273365357
30
0
41
1
10
90.9240478124896
20
-7.88971746058866
30
0
41
1
10
90.9004103455302
20
-7.88248561114301
30
0
41
1
10
90.8782477196925
20
-7.87233271213685
30
0
0
SPLINE
5
CB
100
AcDbEntity
8
1
62
256
6
ByLayer
370
-1
48
1
60
0
100
AcDbSpline
70
4
71
3
72
16
73
12
40
0
40
0
40
0
40
0
40
0.195603494421546
40
0.195603494421546
40
0.418482091203931
40
0.418482091203931
40
0.651349075928122
40
0.651349075928122
40
0.904406691854378
40
0.904406691854378
40
1
40
1
40
1
40
1
41
1
10
93.2551263559261
20
-6.21607868307157
30
0
41
1
10
93.2572593937417
20
-6.24179167595929
30
0
41
1
10
93.2558049742495
20
-6.26787493061516
30
0
41
1
10
93.2453844414534
20
-6.32095389039151
30
0
41
1
10
93.2352485237845
20
-6.3482409825566
30
0
41
1
10
93.2073302834536
20
-6.39803031701996
30
0
41
1
10
93.1889006508803
20
-6.42090371202124
30
0
41
1
10
93.1452362356592
20
-6.46051181107413
30
0
41
1
10
93.1190278816617
20
-6.4770634780534
30
0
41
1
10
93.0809772051203
20
-6.49332314950715
30
0
41
1
10
93.0702549977485
20
-6.49714956723997
30
0
41
1
10
93.0593785594075
20
-6.50031841408159
30
0
0
SPLINE
5
CC
100
AcDbEntity
8
1
62
256
6
ByLayer
370
-1
48
1
60
0
100
AcDbSpline
70
4
71
3
72
20
73
16
40
0
40
0
40
0
40
0
40
0.0844273074194219
40
0.0844273074194219
40
0.284741280001464
40
0.284741280001464
40
0.446846736253903
40
0.446846736253903
40
0.609776684948168
40
0.609776684948168
40
0.76215855083473
40
0.76215855083473
40
0.978451835224968
40
0.978451835224968
40
1
40
1
40
1
40
1
41
1
10
90.5156992899424
20
-5.32213878521068
30
0
41
1
10
90.5246850047856
20
-5.34679480097836
30
0
41
1
10
90.5321249156183
20
-5.37234508674032
30
0
41
1
10
90.5514419226151
20
-5.46070061098746
30
0
41
1
10
90.5556263365701
20
-5.5280930933597
30
0
41
1
10
90.5425621346147
20
-5.65288961327144
30
0
41
1
10
90.5289493442163
20
-5.71114133754773
30
0
41
1
10
90.4865640004866
20
-5.8238504756431
30
0
41
1
10
90.4570938704336
20
-5.87974147442375
30
0
41
1
10
90.3896168478196
20
-5.97709307862101
30
0
41
1
10
90.3515774606511
20
-6.02044002940903
30
0
41
1
10
90.253501560355
20
-6.11086775252858
30
0
41
1
10
90.1892921594989
20
-6.15369661838227
30
0
41
1
10
90.1167223329736
20
-6.18819315504939
30
0
41
1
10
90.1100464536524
20
-6.19124380347674
30
0
41
1
10
90.1033465804203
20
-6.19418446877472
30
0
0
SPLINE
5
CD
100
AcDbEntity
8
1
62
256
6
ByLayer
370
-1
48
1
60
0
100
AcDbSpline
70
4
71
3
72
12
73
8
40
0
40
0
40
0
40
0
40
0.271374515795115
40
0.271374515795115
40
0.726089128482087
40
0.726089128482087
40
1
40
1
40
1
40
1
41
1
10
90.6359502038541
20
-7.08297983711444
30
0
41
1
10
90.6566536231927
20
-7.12196647151447
30
0
41
1
10
90.6736511503601
20
-7.16329258858156
30
0
41
1
10
90.7081142149818
20
-7.27491563574674
30
0
41
1
10
90.7187515737687
20
-7.34768459516317
30
0
41
1
10
90.7198900983348
20
-7.46069938068482
30
0
41
1
10
90.7167341812183
20
-7.50306396456932
30
0
41
1
10
90.7103073821796
20
-7.54435042494774
30
0
0
SPLINE
5
CE
100
AcDbEntity
8
1
62
256
6
ByLayer
370
-1
48
1
60
0
100
AcDbSpline
70
4
71
3
72
14
73
10
40
0
40
0
40
0
40
0
40
0.271698830162166
40
0.271698830162166
40
0.557742147760885
40
0.557742147760885
40
0.816434430899793
40
0.816434430899793
40
1
40
1
40
1
40
1
41
1
10
90.1528196606363
20
-6.75204721964798
30
0
41
1
10
90.121602476756
20
-6.74875023591045
30
0
41
1
10
90.0903529948986
20
-6.73982102595187
30
0
41
1
10
90.0314175484827
20
-6.71016560904496
30
0
41
1
10
90.0031131311537
20
-6.68830915889629
30
0
41
1
10
89.9592896109958
20
-6.63689573276307
30
0
41
1
10
89.9421901630355
20
-6.60745369501723
30
0
41
1
10
89.9230377377297
20
-6.55315255861163
30
0
41
1
10
89.9178619289513
20
-6.52896603719768
30
0
41
1
10
89.9158365751344
20
-6.50455113564078
30
0
0
SPLINE
5
CF
100
AcDbEntity
8
1
62
256
6
ByLayer
370
-1
48
1
60
0
100
AcDbSpline
70
4
71
3
72
12
73
8
40
0
40
0
40
0
40
0
40
0.31734114348655
40
0.31734114348655
40
0.78468764907878
40
0.78468764907878
40
1
40
1
40
1
40
1
41
1
10
92.5144942376532
20
-5.57257364677852
30
0
41
1
10
92.4906767280501
20
-5.52827062199344
30
0
41
1
10
92.4723451246293
20
-5.481964714648
30
0
41
1
10
92.4416342301425
20
-5.36901593789784
30
0
41
1
10
92.4354796163291
20
-5.30121201962894
30
0
41
1
10
92.441812806083
20
-5.20735030681948
30
0
41
1
10
92.446029838934
20
-5.17816992422834
30
0
41
1
10
92.4522862503493
20
-5.14973537004184
30
0
0
SPLINE
5
D0
100
AcDbEntity
8
1
62
256
6
ByLayer
370
-1
48
1
60
0
100
AcDbSpline
70
4
71
3
72
16
73
12
40
0
40
0
40
0
40
0
40
0.159806510802993
40
0.159806510802993
40
0.459469039614467
40
0.459469039614467
40
0.730299812587431
40
0.730299812587431
40
0.9704183880295
40
0.9704183880295
40
1
40
1
40
1
40
1
41
1
10
93.0097739718929
20
-5.94203857533714
30
0
41
1
10
93.0289284322145
20
-5.94636581607097
30
0
41
1
10
93.0480069017816
20
-5.95254267247745
30
0
41
1
10
93.1009838579416
20
-5.9754230541561
30
0
41
1
10
93.1342874161365
20
-5.99718543967637
30
0
41
1
10
93.188031950742
20
-6.04904623843646
30
0
41
1
10
93.2101847411937
20
-6.07899840076945
30
0
41
1
10
93.2402486874238
20
-6.14047112647268
30
0
41
1
10
93.2498896507928
20
-6.17233328566036
30
0
41
1
10
93.2543814900548
20
-6.20811949510193
30
0
41
1
10
93.254796169729
20
-6.21209840889455
30
0
41
1
10
93.2551263559261
20
-6.21607868307157
30
0
0
SPLINE
5
D1
100
AcDbEntity
8
1
62
256
6
ByLayer
370
-1
48
1
60
0
100
AcDbSpline
70
4
71
3
72
12
73
8
40
0
40
0
40
0
40
0
40
0.48839355742217
40
0.48839355742217
40
0.894551788225851
40
0.894551788225851
40
1
40
1
40
1
40
1
41
1
10
93.0097739718925
20
-5.94203857534157
30
0
41
1
10
92.9391498134085
20
-5.92608366299979
30
0
41
1
10
92.8682038712906
20
-5.89924497744215
30
0
41
1
10
92.7462907704384
20
-5.83046245793
30
0
41
1
10
92.6926706526501
20
-5.79092141472825
30
0
41
1
10
92.6330550311655
20
-5.73303194360574
30
0
41
1
10
92.6210826066988
20
-5.72056957952529
30
0
41
1
10
92.6095835027577
20
-5.70771479270965
30
0
0
SPLINE
5
D2
100
AcDbEntity
8
1
62
256
6
ByLayer
370
-1
48
1
60
0
100
AcDbSpline
70
4
71
3
72
18
73
14
40
0
40
0
40
0
40
0
40
0.0493781911342624
40
0.0493781911342624
40
0.272471415471766
40
0.272471415471766
40
0.497583831765462
40
0.497583831765462
40
0.736520874542554
40
0.736520874542554
40
0.998568266957543
40
0.998568266957543
40
1
40
1
40
1
40
1
41
1
10
89.9158365751344
20
-6.50455113564078
30
0
41
1
10
89.9152937500951
20
-6.49800757777592
30
0
41
1
10
89.9149707921239
20
-6.4914271449725
30
0
41
1
10
89.9144112832572
20
-6.45530694024507
30
0
41
1
10
89.9185168776929
20
-6.42511314332671
30
0
41
1
10
89.9348976700985
20
-6.36795964423681
30
0
41
1
10
89.9474334918363
20
-6.34029734929578
30
0
41
1
10
89.9795601274524
20
-6.28929363305303
30
0
41
1
10
89.9999134188894
20
-6.26566641722565
30
0
41
1
10
90.0468567941767
20
-6.22436198401977
30
0
41
1
10
90.0744276012096
20
-6.20693487611311
30
0
41
1
10
90.1030321484445
20
-6.19432263465376
30
0
41
1
10
90.1031893461841
20
-6.19425348101507
30
0
41
1
10
90.1033465804202
20
-6.19418446877469
30
0
0
SPLINE
5
D3
100
AcDbEntity
8
1
62
256
6
ByLayer
370
-1
48
1
60
0
100
AcDbSpline
70
4
71
3
72
18
73
14
40
0
40
0
40
0
40
0
40
0.200789390443031
40
0.200789390443031
40
0.377000709014215
40
0.377000709014215
40
0.555030195767284
40
0.555030195767284
40
0.708449031094563
40
0.708449031094563
40
0.909268628826713
40
0.909268628826713
40
1
40
1
40
1
40
1
41
1
10
91.2204044292248
20
-7.78175040056425
30
0
41
1
10
91.2622837806456
20
-7.72647995651838
30
0
41
1
10
91.3131789889434
20
-7.67619982409894
30
0
41
1
10
91.4228093767893
20
-7.59871134817874
30
0
41
1
10
91.4811873063305
20
-7.56870121418496
30
0
41
1
10
91.6058192880276
20
-7.52819921598464
30
0
41
1
10
91.6741074959301
20
-7.51753552499778
30
0
41
1
10
91.798677293682
20
-7.51859976263077
30
0
41
1
10
91.8567981744405
20
-7.52735066218088
30
0
41
1
10
91.9823103235746
20
-7.5630797335098
30
0
41
1
10
92.0492232456702
20
-7.59519295579062
30
0
41
1
10
92.1352381286453
20
-7.65316146154052
30
0
41
1
10
92.1608358748301
20
-7.67306670244386
30
0
41
1
10
92.1848859997204
20
-7.69439189374535
30
0
0
SPLINE
5
D4
100
AcDbEntity
8
1
62
256
6
ByLayer
370
-1
48
1
60
0
100
AcDbSpline
70
4
71
3
72
18
73
14
40
0
40
0
40
0
40
0
40
0.0504375316469352
40
0.0504375316469352
40
0.271428479071696
40
0.271428479071696
40
0.494507169092566
40
0.494507169092566
40
0.731352989647103
40
0.731352989647103
40
0.991146730116275
40
0.991146730116275
40
1
40
1
40
1
40
1
41
1
10
90.8782477196925
20
-7.87233271213685
30
0
41
1
10
90.872069491689
20
-7.86950241010425
30
0
41
1
10
90.8659832914969
20
-7.86644041441028
30
0
41
1
10
90.8340790519721
20
-7.848905264
30
0
41
1
10
90.81004070347
20
-7.8301843646303
30
0
41
1
10
90.7692071118246
20
-7.78692522167552
30
0
41
1
10
90.7519454736364
20
-7.7617989180095
30
0
41
1
10
90.7250346236391
20
-7.70725277925797
30
0
41
1
10
90.7155557556727
20
-7.67699529633515
30
0
41
1
10
90.705223333021
20
-7.61370462552034
30
0
41
1
10
90.7051292440875
20
-7.5798970632496
30
0
41
1
10
90.7099684040547
20
-7.54656535610798
30
0
41
1
10
90.7101351024113
20
-7.54545716903317
30
0
41
1
10
90.7103073821795
20
-7.54435042494768
30
0
0
SPLINE
5
D5
100
AcDbEntity
8
1
62
256
6
ByLayer
370
-1
48
1
60
0
100
AcDbSpline
70
4
71
3
72
16
73
12
40
0
40
0
40
0
40
0
40
0.122141596630425
40
0.122141596630425
40
0.342358925435322
40
0.342358925435322
40
0.56867312936865
40
0.56867312936865
40
0.811987355758688
40
0.811987355758688
40
1
40
1
40
1
40
1
41
1
10
92.292715211368
20
-4.84829710657553
30
0
41
1
10
92.3075915897336
20
-4.85511210982597
30
0
41
1
10
92.3219159723953
20
-4.86313859428469
30
0
41
1
10
92.3594562893643
20
-4.88839013393505
30
0
41
1
10
92.381052734458
20
-4.90822966542996
30
0
41
1
10
92.416663396797
20
-4.95227638867166
30
0
41
1
10
92.4309225985218
20
-4.977130901577
30
0
41
1
10
92.4513048543417
20
-5.02984174658837
30
0
41
1
10
92.457022765868
20
-5.05843167891126
30
0
41
1
10
92.4588053243668
20
-5.10779492456845
30
0
41
1
10
92.456803323733
20
-5.12920587487781
30
0
41
1
10
92.4522862503493
20
-5.14973537004181
30
0
0
SPLINE
5
D6
100
AcDbEntity
8
1
62
256
6
ByLayer
370
-1
48
1
60
0
100
AcDbSpline
70
4
71
3
72
16
73
12
40
0
40
0
40
0
40
0
40
0.0440264941905153
40
0.0440264941905153
40
0.357486397050942
40
0.357486397050942
40
0.642750825362123
40
0.642750825362123
40
0.894043321613565
40
0.894043321613565
40
1
40
1
40
1
40
1
41
1
10
91.9423207106024
20
-4.9127524822901
30
0
41
1
10
91.9458034932688
20
-4.90908023597831
30
0
41
1
10
91.9494031429288
20
-4.90548360893567
30
0
41
1
10
91.9792038110213
20
-4.87727873024946
30
0
41
1
10
92.0115540366166
20
-4.85634119464899
30
0
41
1
10
92.080166600447
20
-4.82909148062191
30
0
41
1
10
92.1169315374068
20
-4.82127477164849
30
0
41
1
10
92.1868511900857
20
-4.81933887574706
30
0
41
1
10
92.220952736026
20
-4.82372113896434
30
0
41
1
10
92.2665273385879
20
-4.83738904114611
30
0
41
1
10
92.2798707415381
20
-4.84241293897171
30
0
41
1
10
92.292715211368
20
-4.84829710657553
30
0
0
SPLINE
5
D7
100
AcDbEntity
8
SK1
62
256
6
ByLayer
370
-1
48
1
60
0
100
AcDbSpline
70
4
71
3
72
10
73
6
40
0
40
0
40
0
40
0
40
0.5
40
0.5
40
1
40
1
40
1
40
1
41
1
10
-199.32
20
-4.87661015076048
30
0
41
1
10
-199.931278087239
20
-3.31084475816917
30
0
41
1
10
-200.311010085058
20
-1.68546685393193
30
0
41
1
10
-200.311489681707
20
1.6821913662468
30
0
41
1
10
-199.931860983986
20
3.30935169049229
30
0
41
1
10
-199.32
20
4.87661015076048
30
0
0
SPLINE
5
D8
100
AcDbEntity
8
SK1
62
256
6
ByLayer
370
-1
48
1
60
0
100
AcDbSpline
70
4
71
3
72
8
73
4
40
0
40
0
40
0
40
0
40
1
40
1
40
1
40
1
41
1
10
-201.32
20
-10.00875
30
0
41
1
10
-200.859655007734
20
-10.00875
30
0
41
1
10
-200.133727170391
20
-10.00875
30
0
41
1
10
-199.32
20
-10.00875
30
0
0
LINE
5
4A
100
AcDbEntity
8
80
62
256
6
ByLayer
370
-1
48
1
60
0
100
AcDbLine
10
0
20
0
30
0
11
-10
21
0
31
0
39
0
210
0
220
0
230
1
0
LINE
5
4B
100
AcDbEntity
8
81
62
256
6
ByLayer
370
-1
48
1
60
0
100
AcDbLine
10
99.93
20
-17.9
30
0
11
109.93
21
-17.9
31
0
39
0
210
0
220
0
230
1
0
LINE
5
4C
100
AcDbEntity
8
SK4
62
256
6
ByLayer
370
-1
48
0.05
60
0
100
AcDbLine
10
-206.32
20
0
30
0
11
104.6034
21
0
31
0
39
0
210
0
220
0
230
1
0
LINE
5
4E
100
AcDbEntity
8
4
62
256
6
ByLayer
370
-1
48
0.05
60
0
100
AcDbLine
10
0
20
0
30
0
11
104.6034
21
0
31
0
39
0
210
0
220
0
230
1
0
LINE
5
50
100
AcDbEntity
8
1
62
256
6
ByLayer
370
-1
48
1
60
0
100
AcDbLine
10
83.297068
20
4.611845
30
0
11
83.275208
21
4.524086
31
0
39
0
210
0
220
0
230
1
0
LINE
5
51
100
AcDbEntity
8
1
62
256
6
ByLayer
370
-1
48
1
60
0
100
AcDbLine
10
81.815073
20
12.49125
30
0
11
0
21
12.49125
31
0
39
0
210
0
220
0
230
1
0
LINE
5
52
100
AcDbEntity
8
SK1
62
256
6
ByLayer
370
-1
48
1
60
0
100
AcDbLine
10
-199.32
20
12.49125
30
0
11
-201.32
21
10.49125
31
0
39
0
210
0
220
0
230
1
0
LINE
5
54
100
AcDbEntity
8
SK1
62
256
6
ByLayer
370
-1
48
1
60
0
100
AcDbLine
10
0
20
12.49125
30
0
11
-199.32
21
12.49125
31
0
39
0
210
0
220
0
230
1
0
LINE
5
55
100
AcDbEntity
8
1
62
256
6
ByLayer
370
-1
48
1
60
0
100
AcDbLine
10
90.524072
20
-5.346792
30
0
11
90.514813
21
-5.317428
31
0
39
0
210
0
220
0
230
1
0
LINE
5
56
100
AcDbEntity
8
1
62
256
6
ByLayer
370
-1
48
1
60
0
100
AcDbLine
10
89.029044
20
-6.981793
30
0
11
89.071561
21
-7.11664
31
0
39
0
210
0
220
0
230
1
0
LINE
5
57
100
AcDbEntity
8
1
62
256
6
ByLayer
370
-1
48
1
60
0
100
AcDbLine
10
94.078575
20
-5.537934
30
0
11
94.036058
21
-5.403088
31
0
39
0
210
0
220
0
230
1
0
LINE
5
58
100
AcDbEntity
8
1
62
256
6
ByLayer
370
-1
48
1
60
0
100
AcDbLine
10
92.422449
20
-5.319077
30
0
11
92.467034
21
-5.460481
31
0
39
0
210
0
220
0
230
1
0
LINE
5
59
100
AcDbEntity
8
1
62
256
6
ByLayer
370
-1
48
1
60
0
100
AcDbLine
10
92.58837
20
-7.188234
30
0
11
92.637645
21
-7.344513
31
0
39
0
210
0
220
0
230
1
0
LINE
5
5A
100
AcDbEntity
8
1
62
256
6
ByLayer
370
-1
48
1
60
0
100
AcDbLine
10
90.685285
20
-7.201018
30
0
11
90.640762
21
-7.059809
31
0
39
0
210
0
220
0
230
1
0
LINE
5
5B
100
AcDbEntity
8
1
62
256
6
ByLayer
370
-1
48
1
60
0
100
AcDbLine
10
76.517467
20
-10.00875
30
0
11
81.690945
21
-10.00875
31
0
39
0
210
0
220
0
230
1
0
LINE
5
5C
100
AcDbEntity
8
1
62
256
6
ByLayer
370
-1
48
1
60
0
100
AcDbLine
10
82.16348
20
2.971957
30
0
11
84.118801
21
1.483197
31
0
39
0
210
0
220
0
230
1
0
LINE
5
5D
100
AcDbEntity
8
1
62
256
6
ByLayer
370
-1
48
1
60
0
100
AcDbLine
10
82.146268
20
2.688038
30
0
11
82.16348
21
2.971957
31
0
39
0
210
0
220
0
230
1
0
LINE
5
5E
100
AcDbEntity
8
1
62
256
6
ByLayer
370
-1
48
1
60
0
100
AcDbLine
10
86.104242
20
-7.941257
30
0
11
86.912694
21
-7.377912
31
0
39
0
210
0
220
0
230
1
0
LINE
5
5F
100
AcDbEntity
8
1
62
256
6
ByLayer
370
-1
48
1
60
0
100
AcDbLine
10
76.517467
20
-10.00875
30
0
11
82.422662
21
11.912958
31
0
39
0
210
0
220
0
230
1
0
LINE
5
60
100
AcDbEntity
8
1
62
256
6
ByLayer
370
-1
48
1
60
0
100
AcDbLine
10
94.892537
20
-1.817406
30
0
11
92.655555
21
5.277396
31
0
39
0
210
0
220
0
230
1
0
LINE
5
61
100
AcDbEntity
8
1
62
256
6
ByLayer
370
-1
48
1
60
0
100
AcDbLine
10
84.242047
20
1.092336
30
0
11
82.146268
21
2.688038
31
0
39
0
210
0
220
0
230
1
0
LINE
5
62
100
AcDbEntity
8
1
62
256
6
ByLayer
370
-1
48
1
60
0
100
AcDbLine
10
82.0614
20
3.295714
30
0
11
82.16348
21
2.971957
31
0
39
0
210
0
220
0
230
1
0
LINE
5
63
100
AcDbEntity
8
1
62
256
6
ByLayer
370
-1
48
1
60
0
100
AcDbLine
10
65.023189
20
-4.87661
30
0
11
0
21
-4.87661
31
0
39
0
210
0
220
0
230
1
0
LINE
5
64
100
AcDbEntity
8
1
62
256
6
ByLayer
370
-1
48
1
60
0
100
AcDbLine
10
0
20
-10.00875
30
0
11
65.301011
21
-10.00875
31
0
39
0
210
0
220
0
230
1
0
LINE
5
65
100
AcDbEntity
8
1
62
256
6
ByLayer
370
-1
48
1
60
0
100
AcDbLine
10
94.892537
20
-1.817406
30
0
11
94.125923
21
-2.351598
31
0
39
0
210
0
220
0
230
1
0
LINE
5
66
100
AcDbEntity
8
1
62
256
6
ByLayer
370
-1
48
1
60
0
100
AcDbLine
10
82.679626
20
11.915929
30
0
11
92.655555
21
5.277396
31
0
39
0
210
0
220
0
230
1
0
LINE
5
67
100
AcDbEntity
8
1
62
256
6
ByLayer
370
-1
48
1
60
0
100
AcDbLine
10
0
20
4.87661
30
0
11
68.040503
21
4.87661
31
0
39
0
210
0
220
0
230
1
0
LINE
5
68
100
AcDbEntity
8
1
62
256
6
ByLayer
370
-1
48
1
60
0
100
AcDbLine
10
82.0614
20
3.295714
30
0
11
84.016721
21
1.806955
31
0
39
0
210
0
220
0
230
1
0
LINE
5
69
100
AcDbEntity
8
1
62
256
6
ByLayer
370
-1
48
1
60
0
100
AcDbLine
10
81.907528
20
5.079583
30
0
11
81.805448
21
5.403341
31
0
39
0
210
0
220
0
230
1
0
LINE
5
6A
100
AcDbEntity
8
1
62
256
6
ByLayer
370
-1
48
1
60
0
100
AcDbLine
10
84.136465
20
5.476459
30
0
11
84.236941
21
5.15779
31
0
39
0
210
0
220
0
230
1
0
LINE
5
6B
100
AcDbEntity
8
1
62
256
6
ByLayer
370
-1
48
1
60
0
100
AcDbLine
10
0
20
-4.87661
30
0
11
0
21
-10.00875
31
0
39
0
210
0
220
0
230
1
0
LINE
5
6C
100
AcDbEntity
8
1
62
256
6
ByLayer
370
-1
48
1
60
0
100
AcDbLine
10
0
20
-4.87661
30
0
11
0
21
4.87661
31
0
39
0
210
0
220
0
230
1
0
LINE
5
6D
100
AcDbEntity
8
1
62
256
6
ByLayer
370
-1
48
1
60
0
100
AcDbLine
10
0
20
4.87661
30
0
11
0
21
12.49125
31
0
39
0
210
0
220
0
230
1
0
LINE
5
6E
100
AcDbEntity
8
1
62
256
6
ByLayer
370
-1
48
1
60
0
100
AcDbLine
10
82.679626
20
11.915929
30
0
11
81.815073
21
12.49125
31
0
39
0
210
0
220
0
230
1
0
LINE
5
6F
100
AcDbEntity
8
1
62
256
6
ByLayer
370
-1
48
1
60
0
100
AcDbLine
10
65.301011
20
-10.00875
30
0
11
76.517467
21
-10.00875
31
0
39
0
210
0
220
0
230
1
0
LINE
5
70
100
AcDbEntity
8
1
62
256
6
ByLayer
370
-1
48
1
60
0
100
AcDbLine
10
82.572331
20
-9.133085
30
0
11
81.690945
21
-10.00875
31
0
39
0
210
0
220
0
230
1
0
LINE
5
71
100
AcDbEntity
8
1
62
256
6
ByLayer
370
-1
48
1
60
0
100
AcDbLine
10
95.591411
20
-3.467412
30
0
11
84.448774
21
5.016467
31
0
39
0
210
0
220
0
230
1
0
LINE
5
72
100
AcDbEntity
8
1
62
256
6
ByLayer
370
-1
48
1
60
0
100
AcDbLine
10
87.602039
20
-9.32454
30
0
11
98.744677
21
-17.808418
31
0
39
0
210
0
220
0
230
1
0
LINE
5
73
100
AcDbEntity
8
1
62
256
6
ByLayer
370
-1
48
1
60
0
100
AcDbLine
10
83.264884
20
4.19151
30
0
11
87.465127
21
-9.12996
31
0
39
0
210
0
220
0
230
1
0
LINE
5
74
100
AcDbEntity
8
1
62
256
6
ByLayer
370
-1
48
1
60
0
100
AcDbLine
10
99.928567
20
-16.983461
30
0
11
95.728323
21
-3.661991
31
0
39
0
210
0
220
0
230
1
0
LINE
5
75
100
AcDbEntity
8
1
62
256
6
ByLayer
370
-1
48
1
60
0
100
AcDbLine
10
93.009622
20
-6.34251
30
0
11
93.059379
21
-6.500318
31
0
39
0
210
0
220
0
230
1
0
LINE
5
76
100
AcDbEntity
8
1
62
256
6
ByLayer
370
-1
48
1
60
0
100
AcDbLine
10
92.402595
20
-4.992135
30
0
11
92.452286
21
-5.149735
31
0
39
0
210
0
220
0
230
1
0
LINE
5
77
100
AcDbEntity
8
1
62
256
6
ByLayer
370
-1
48
1
60
0
100
AcDbLine
10
90.103129
20
-6.594447
30
0
11
90.15282
21
-6.752047
31
0
39
0
210
0
220
0
230
1
0
LINE
5
78
100
AcDbEntity
8
1
62
256
6
ByLayer
370
-1
48
1
60
0
100
AcDbLine
10
90.540861
20
-6.947839
30
0
11
90.497244
21
-6.809505
31
0
39
0
210
0
220
0
230
1
0
LINE
5
79
100
AcDbEntity
8
1
62
256
6
ByLayer
370
-1
48
1
60
0
100
AcDbLine
10
91.170648
20
-7.623942
30
0
11
91.220404
21
-7.78175
31
0
39
0
210
0
220
0
230
1
0
LINE
5
7A
100
AcDbEntity
8
1
62
256
6
ByLayer
370
-1
48
1
60
0
100
AcDbLine
10
90.592334
20
-6.944646
30
0
11
90.63595
21
-7.08298
31
0
39
0
210
0
220
0
230
1
0
LINE
5
7B
100
AcDbEntity
8
1
62
256
6
ByLayer
370
-1
48
1
60
0
100
AcDbLine
10
92.135129
20
-7.536583
30
0
11
92.184886
21
-7.694392
31
0
39
0
210
0
220
0
230
1
0
LINE
5
7C
100
AcDbEntity
8
SK1
62
256
6
ByLayer
370
-1
48
1
60
0
100
AcDbLine
10
-199.32
20
4.87661
30
0
11
0
21
4.87661
31
0
39
0
210
0
220
0
230
1
0
LINE
5
7D
100
AcDbEntity
8
SK1
62
256
6
ByLayer
370
-1
48
1
60
0
100
AcDbLine
10
0
20
-4.87661
30
0
11
-199.32
21
-4.87661
31
0
39
0
210
0
220
0
230
1
0
LINE
5
7E
100
AcDbEntity
8
SK1
62
256
6
ByLayer
370
-1
48
1
60
0
100
AcDbLine
10
0
20
-4.87661
30
0
11
0
21
-10.00875
31
0
39
0
210
0
220
0
230
1
0
LINE
5
7F
100
AcDbEntity
8
SK1
62
256
6
ByLayer
370
-1
48
1
60
0
100
AcDbLine
10
0
20
-4.87661
30
0
11
0
21
4.87661
31
0
39
0
210
0
220
0
230
1
0
LINE
5
80
100
AcDbEntity
8
SK1
62
256
6
ByLayer
370
-1
48
1
60
0
100
AcDbLine
10
0
20
12.49125
30
0
11
0
21
4.87661
31
0
39
0
210
0
220
0
230
1
0
LINE
5
81
100
AcDbEntity
8
SK1
62
256
6
ByLayer
370
-1
48
1
60
0
100
AcDbLine
10
-199.32
20
-10.00875
30
0
11
0
21
-10.00875
31
0
39
0
210
0
220
0
230
1
0
LINE
5
82
100
AcDbEntity
8
SK1
62
256
6
ByLayer
370
-1
48
1
60
0
100
AcDbLine
10
-201.32
20
10.49125
30
0
11
-201.32
21
-10.00875
31
0
39
0
210
0
220
0
230
1
0
LINE
5
83
100
AcDbEntity
8
SK1
62
256
6
ByLayer
370
-1
48
1
60
0
100
AcDbLine
10
-199.32
20
-4.87661
30
0
11
-199.32
21
-10.00875
31
0
39
0
210
0
220
0
230
1
0
LINE
5
84
100
AcDbEntity
8
SK1
62
256
6
ByLayer
370
-1
48
1
60
0
100
AcDbLine
10
-199.32
20
12.49125
30
0
11
-199.32
21
4.87661
31
0
39
0
210
0
220
0
230
1
0
LINE
5
85
100
AcDbEntity
8
2
62
256
6
ByLayer
370
-1
48
1
60
1
100
AcDbLine
10
99.93
20
0
30
0
11
99.931
21
0.001
31
0
39
0
210
0
220
0
230
1
0
MTEXT
5
D9
100
AcDbEntity
8
SK6
62
256
6
ByLayer
370
-1
48
1
60
0
100
AcDbMText
10
-47.32
20
18.9034
30
0
210
0
220
0
230
1
1
\W00.789;\fsimplex.shx,bigfont.shx;A25T-SVQBL 16-D 
40
3.5
41
0
44
1.084337
50
0
71
7
72
5
7
DEFAULT
0
DIMENSION
5
10C
100
AcDbEntity
8
2
62
256
6
ByLayer
370
-3
48
1
60
0
100
AcDbDimension
2
DimnDraft3D1
10
112.18
20
0
30
0
11
112.18
21
-13.550658
31
0
70
32
71
5
72
1
41
1
210
0
220
0
230
1
3
Standard
100
AcDbAlignedDimension
13
101.93
23
-17.9
33
0
14
101.93
24
0
34
0
50
90
100
AcDbRotatedDimension
1001
ACAD
1000
DSTYLE
1002
{
1070
    74
1070
     0
1070
   279
1070
     0
1070
   172
1070
     1
1070
   173
1070
     1
1070
   340
1005
DA
1070
    77
1070
     1
1070
    73
1070
     0
1070
   171
1070
     4
1070
   274
1070
     4
1070
   177
1070
     2
1070
   176
1070
     2
1070
   178
1070
     7
1070
    78
1070
     8
1070
    41
1041
3.175
1070
   147
1041
2.25
1070
    42
1041
2.0
1070
    44
1041
2.0
1070
   140
1041
4.5
1070
   343
1005
10D
1070
   344
1005
10D
1002
}
0
DIMENSION
5
122
100
AcDbEntity
8
SK2
62
256
6
ByLayer
370
-3
48
1
60
0
100
AcDbDimension
2
DimnDraft3D2
10
-211.07
20
12.49125
30
0
11
-211.07
21
-4.784211
31
0
70
32
71
5
72
1
41
1
210
0
220
0
230
1
3
Standard
100
AcDbAlignedDimension
13
-203.32
23
-12.49125
33
0
14
-203.32
24
12.49125
34
0
50
90
100
AcDbRotatedDimension
1001
ACAD
1000
DSTYLE
1002
{
1070
    74
1070
     0
1070
   279
1070
     0
1070
   172
1070
     1
1070
   173
1070
     1
1070
   340
1005
DA
1070
    77
1070
     1
1070
    73
1070
     0
1070
   171
1070
     4
1070
   274
1070
     4
1070
   177
1070
     2
1070
   176
1070
     2
1070
   178
1070
     7
1070
    78
1070
     8
1070
    41
1041
3.175
1070
   147
1041
2.25
1070
    42
1041
2.0
1070
    44
1041
2.0
1070
   140
1041
4.5
1070
   343
1005
10D
1070
   344
1005
10D
1002
}
0
DIMENSION
5
130
100
AcDbEntity
8
SK2
62
256
6
ByLayer
370
-3
48
1
60
0
100
AcDbDimension
2
DimnDraft3D3
10
99.93
20
-35.15
30
0
11
-57.510132
21
-35.15
31
0
70
32
71
5
72
1
41
1
210
0
220
0
230
1
3
Standard
100
AcDbAlignedDimension
13
-201.32
23
-14.49125
33
0
14
99.93
24
-19.9
34
0
50
0
100
AcDbRotatedDimension
1001
ACAD
1000
DSTYLE
1002
{
1070
   279
1070
     0
1070
   172
1070
     1
1070
   173
1070
     1
1070
   340
1005
DA
1070
    77
1070
     1
1070
    73
1070
     0
1070
   171
1070
     4
1070
   274
1070
     4
1070
   177
1070
     2
1070
   176
1070
     2
1070
   178
1070
     7
1070
    78
1070
     8
1070
    41
1041
3.175
1070
   147
1041
2.25
1070
    42
1041
2.0
1070
    44
1041
2.0
1070
   140
1041
4.5
1070
   343
1005
10D
1070
   344
1005
10D
1002
}
0
DIMENSION
5
13E
100
AcDbEntity
8
2
62
256
6
ByLayer
370
-3
48
1
60
0
100
AcDbDimension
2
DimnDraft3D4
10
134.212559
20
0
30
0
11
110.694122
21
37.788356
31
0
70
34
71
5
72
1
41
1
210
0
220
0
230
1
3
Standard
100
AcDb2LineAngularDimension
13
94.517296
23
-0.733095
33
0
14
82.28005
24
38.078491
34
0
15
101.93
25
0
35
0
16
119.373295
26
34.214547
36
0
40
0
0
ENDSEC
0
SECTION
2
OBJECTS
0
DICTIONARY
5
16f
330
0
100
AcDbDictionary
280
0
281
1
3
ACAD_GROUP
350
170
3
ACAD_MLINESTYLE
350
171
0
DICTIONARY
5
170
330
0
100
AcDbDictionary
280
0
281
1
0
DICTIONARY
5
171
330
0
100
AcDbDictionary
280
0
281
1
3
Standard
350
18
0
MLINESTYLE
5
18
330
171
100
AcDbMlineStyle
2
Standard
70
0
3

62
256
51
90
52
90
71
2
49
-0.5
62
256
6
ByLayer
49
0.5
62
256
6
ByLayer
0
RASTERVARIABLES
5
15d
330

100
AcDbRasterVariables
90
0
70
1
71
1
72
1
0
ENDSEC
0
EOF
