0
SECTION
2
HEADER
9
$ACADVER
1
AC1015
9
$DWGCODEPAGE
3
ANSI_1252
9
$HANDSEED
5
18a
9
$ANGBASE
50
0
9
$ANGDIR
70
0
9
$ATTMODE
70
1
9
$AUNITS
70
0
9
$AUPREC
70
0
9
$CECOLOR
62
256
9
$CELTSCALE
40
1
9
$CELTYPE
6
ByLayer
9
$CELWEIGHT
370
-1
9
$CLAYER
8
0
9
$CMLJUST
70
0
9
$CMLSCALE
40
1
9
$CMLSTYLE
2
Standard
9
$DIMSTYLE
2
Standard
9
$TEXTSIZE
40
0.2
9
$TEXTSTYLE
7
Standard
9
$LUNITS
70
2
9
$LUPREC
70
4
9
$EXTNAMES
290
1
9
$INSUNITS
70
4
9
$LTSCALE
40
1
9
$LWDISPLAY
290
0
9
$PDMODE
70
0
9
$PDSIZE
40
0
9
$PLINEGEN
70
0
0
ENDSEC
0
SECTION
2
CLASSES
0
CLASS
1
RASTERVARIABLES
2
AcDbRasterVariables
3
ISM
90
0
280
0
281
0
0
ENDSEC
0
SECTION
2
TABLES
0
TABLE
2
VPORT
5
180
100
AcDbSymbolTable
0
VPORT
5
1
100
AcDbSymbolTableRecord
100
AcDbViewportTableRecord
2
*Active
70
0
10
0
20
0
11
1
21
1
12
-1
22
1
13
0
23
0
14
0.5
24
0.5
15
10
25
10
16
0
26
0
36
1
17
0
27
0
37
0
0
ENDTAB
0
TABLE
2
LTYPE
5
181
100
AcDbSymbolTable
0
LTYPE
5
14
100
AcDbSymbolTableRecord
100
AcDbLinetypeTableRecord
70
0
2
ByBlock
3

72
65
73
0
40
0
0
LTYPE
5
15
100
AcDbSymbolTableRecord
100
AcDbLinetypeTableRecord
70
0
2
ByLayer
3

72
65
73
0
40
0
0
LTYPE
5
16
100
AcDbSymbolTableRecord
100
AcDbLinetypeTableRecord
70
0
2
CONTINUOUS
3
Solid line
72
65
73
0
40
0
0
LTYPE
5
3B
100
AcDbSymbolTableRecord
100
AcDbLinetypeTableRecord
70
0
2
DASHED
3
__ __ __ __ __ __ __ __ __
72
65
73
2
40
25.72
49
12.86
74
0
49
-12.86
74
0
0
LTYPE
5
3C
100
AcDbSymbolTableRecord
100
AcDbLinetypeTableRecord
70
0
2
HIDDEN
3
_ _ _ _ _ _ _ _ _ _ _ _ _ _ _
72
65
73
2
40
0.5
49
0.25
74
0
49
-0.25
74
0
0
LTYPE
5
3D
100
AcDbSymbolTableRecord
100
AcDbLinetypeTableRecord
70
0
2
PHANTOM
3
____ _ _ ____ _ _ _____ _ _ ____
72
65
73
6
40
50.5
49
18
74
0
49
-6.5
74
0
49
6.5
74
0
49
-6.5
74
0
49
6.5
74
0
49
-6.5
74
0
0
LTYPE
5
3E
100
AcDbSymbolTableRecord
100
AcDbLinetypeTableRecord
70
0
2
CENTER
3
____ _ ____ _ ____ _ ____
72
65
73
4
40
47.5
49
22
74
0
49
-8.5
74
0
49
8.5
74
0
49
-8.5
74
0
0
LTYPE
5
3F
100
AcDbSymbolTableRecord
100
AcDbLinetypeTableRecord
70
0
2
DOT
3
.........................
72
65
73
2
40
10
49
0
74
0
49
-10
74
0
0
LTYPE
5
40
100
AcDbSymbolTableRecord
100
AcDbLinetypeTableRecord
70
0
2
DASHDOT
3
_._._._._._._._._._._._._._._._.
72
65
73
4
40
70
49
31
74
0
49
-13
74
0
49
13
74
0
49
-13
74
0
0
ENDTAB
0
TABLE
2
LAYER
5
182
100
AcDbSymbolTable
0
LAYER
5
10
100
AcDbSymbolTableRecord
100
AcDbLayerTableRecord
2
0
70
0
62
7
6
CONTINUOUS
290
1
370
-3
390
0
0
LAYER
5
42
100
AcDbSymbolTableRecord
100
AcDbLayerTableRecord
2
80
70
0
62
-6
6
CONTINUOUS
290
1
370
-3
390
0
0
LAYER
5
44
100
AcDbSymbolTableRecord
100
AcDbLayerTableRecord
2
81
70
0
62
-3
6
CONTINUOUS
290
1
370
-3
390
0
0
LAYER
5
46
100
AcDbSymbolTableRecord
100
AcDbLayerTableRecord
2
1
70
0
62
4
6
CONTINUOUS
290
1
370
-3
390
0
0
LAYER
5
48
100
AcDbSymbolTableRecord
100
AcDbLayerTableRecord
2
2
70
0
62
7
6
CONTINUOUS
290
1
370
-3
390
0
0
LAYER
5
58
100
AcDbSymbolTableRecord
100
AcDbLayerTableRecord
2
4
70
0
62
-2
6
CENTER
290
1
370
-3
390
0
0
LAYER
5
16c
100
AcDbSymbolTableRecord
100
AcDbLayerTableRecord
2
SK1
70
0
62
4
6
CONTINUOUS
290
1
370
-3
390
0
0
LAYER
5
16d
100
AcDbSymbolTableRecord
100
AcDbLayerTableRecord
2
SK4
70
0
62
2
6
CENTER
290
1
370
-3
390
0
0
LAYER
5
16e
100
AcDbSymbolTableRecord
100
AcDbLayerTableRecord
2
SK6
70
0
62
5
6
CONTINUOUS
290
1
370
-3
390
0
0
LAYER
5
16f
100
AcDbSymbolTableRecord
100
AcDbLayerTableRecord
2
SK2
70
0
62
7
6
CONTINUOUS
290
1
370
-3
390
0
0
ENDTAB
0
TABLE
2
STYLE
5
183
100
AcDbSymbolTable
0
STYLE
5
11
100
AcDbSymbolTableRecord
100
AcDbTextStyleTableRecord
2
Standard
3
txt
70
0
71
0
40
0
41
1
42
0
50
0
0
STYLE
5
E8
100
AcDbSymbolTableRecord
100
AcDbTextStyleTableRecord
2
DEFAULT
3
simplex.shx
70
0
71
0
40
0
41
1
42
0
50
0
0
STYLE
5
10B
100
AcDbSymbolTableRecord
100
AcDbTextStyleTableRecord
2
DWGDirectTextStyle
3
SIMPLEX
70
0
71
0
40
0
41
1
42
0
50
0
0
ENDTAB
0
TABLE
2
DIMSTYLE
5
184
100
AcDbSymbolTable
100
AcDbDimStyleTable
0
DIMSTYLE
105
27
100
AcDbSymbolTableRecord
100
AcDbDimStyleTableRecord
2
Standard
70
0
3
<>
41
0.18
42
0.0625
44
0.18
140
0.18
147
0.09
73
0
74
0
77
1
271
2
275
0
278
52
280
0
340
11
0
ENDTAB
0
TABLE
2
VIEW
5
185
100
AcDbSymbolTable
0
ENDTAB
0
TABLE
2
UCS
5
186
100
AcDbSymbolTable
0
ENDTAB
0
TABLE
2
APPID
5
187
100
AcDbSymbolTable
0
APPID
5
12
100
AcDbSymbolTableRecord
100
AcDbRegAppTableRecord
2
ACAD
70
0
0
ENDTAB
0
TABLE
2
BLOCK_RECORD
5
188
100
AcDbSymbolTable
0
BLOCK_RECORD
5
1F
100
AcDbSymbolTableRecord
100
AcDbBlockTableRecord
2
*Model_Space
340
0
70
0
0
BLOCK_RECORD
5
1B
100
AcDbSymbolTableRecord
100
AcDbBlockTableRecord
2
*Paper_Space
340
0
70
0
0
BLOCK_RECORD
5
23
100
AcDbSymbolTableRecord
100
AcDbBlockTableRecord
2
*Paper_Space0
340
0
70
0
0
BLOCK_RECORD
5
10D
100
AcDbSymbolTableRecord
100
AcDbBlockTableRecord
2
DimnDraft3D1
340
0
70
0
0
BLOCK_RECORD
5
11B
100
AcDbSymbolTableRecord
100
AcDbBlockTableRecord
2
_CLOSED
340
0
70
0
0
BLOCK_RECORD
5
122
100
AcDbSymbolTableRecord
100
AcDbBlockTableRecord
2
DimnDraft3D2
340
0
70
0
0
BLOCK_RECORD
5
131
100
AcDbSymbolTableRecord
100
AcDbBlockTableRecord
2
DimnDraft3D3
340
0
70
0
0
BLOCK_RECORD
5
13F
100
AcDbSymbolTableRecord
100
AcDbBlockTableRecord
2
DimnDraft3D4
340
0
70
0
0
ENDTAB
0
ENDSEC
0
SECTION
2
BLOCKS
0
BLOCK
5
20
100
AcDbEntity
8
0
100
AcDbBlockBegin
2
*Model_Space
70
0
10
0
20
0
30
0
3
*Model_Space
0
ENDBLK
5
21
100
AcDbEntity
8
0
100
AcDbBlockEnd
0
BLOCK
5
1C
100
AcDbEntity
8
0
100
AcDbBlockBegin
2
*Paper_Space
70
0
10
0
20
0
30
0
3
*Paper_Space
0
ENDBLK
5
1D
100
AcDbEntity
8
0
100
AcDbBlockEnd
0
BLOCK
5
24
100
AcDbEntity
8
0
100
AcDbBlockBegin
2
*Paper_Space0
70
0
10
0
20
0
30
0
3
*Paper_Space0
0
ENDBLK
5
25
100
AcDbEntity
8
0
100
AcDbBlockEnd
0
BLOCK
5
118
100
AcDbEntity
8
0
100
AcDbBlockBegin
2
DimnDraft3D1
70
0
10
0
20
0
30
0
3
DimnDraft3D1
0
MTEXT
5
10E
100
AcDbEntity
8
2
62
256
6
ByLayer
370
-1
48
1
60
0
100
AcDbMText
10
111.055
20
-11.925658
30
0
210
0
220
0
230
1
1
\W01.000;\fsimplex.shx,bigfont.shx;17.0 
40
4.5
41
0
44
1.084337
50
90
71
7
72
5
7
DEFAULT
0
LINE
5
10F
100
AcDbEntity
8
2
62
256
6
ByLayer
370
-1
48
1
60
0
100
AcDbLine
10
101.93
20
-16.9
30
0
11
114.18
21
-16.9
31
0
39
0
210
0
220
0
230
1
0
LINE
5
110
100
AcDbEntity
8
2
62
256
6
ByLayer
370
-1
48
1
60
0
100
AcDbLine
10
101.93
20
0
30
0
11
114.18
21
0
31
0
39
0
210
0
220
0
230
1
0
LINE
5
111
100
AcDbEntity
8
2
62
256
6
ByLayer
370
-1
48
1
60
0
100
AcDbLine
10
112.18
20
-28.15
30
0
11
112.18
21
11.25
31
0
39
0
210
0
220
0
230
1
0
LINE
5
112
100
AcDbEntity
8
2
62
256
6
ByLayer
370
-1
48
1
60
0
100
AcDbLine
10
112.18
20
-16.9
30
0
11
112.597997
21
-20.074998
31
0
39
0
210
0
220
0
230
1
0
LINE
5
113
100
AcDbEntity
8
2
62
256
6
ByLayer
370
-1
48
1
60
0
100
AcDbLine
10
112.18
20
-16.9
30
0
11
111.762003
21
-20.075002
31
0
39
0
210
0
220
0
230
1
0
LINE
5
114
100
AcDbEntity
8
2
62
256
6
ByLayer
370
-1
48
1
60
0
100
AcDbLine
10
112.597997
20
-20.074998
30
0
11
111.762003
21
-20.075002
31
0
39
0
210
0
220
0
230
1
0
LINE
5
115
100
AcDbEntity
8
2
62
256
6
ByLayer
370
-1
48
1
60
0
100
AcDbLine
10
112.18
20
0
30
0
11
111.762003
21
3.174998
31
0
39
0
210
0
220
0
230
1
0
LINE
5
116
100
AcDbEntity
8
2
62
256
6
ByLayer
370
-1
48
1
60
0
100
AcDbLine
10
112.18
20
0
30
0
11
112.597997
21
3.175002
31
0
39
0
210
0
220
0
230
1
0
LINE
5
117
100
AcDbEntity
8
2
62
256
6
ByLayer
370
-1
48
1
60
0
100
AcDbLine
10
111.762003
20
3.174998
30
0
11
112.597997
21
3.175002
31
0
39
0
210
0
220
0
230
1
0
ENDBLK
5
119
100
AcDbEntity
8
0
100
AcDbBlockEnd
0
BLOCK
5
11C
100
AcDbEntity
8
0
100
AcDbBlockBegin
2
_CLOSED
70
0
10
0
20
0
30
0
3
_CLOSED
0
LINE
5
11E
100
AcDbEntity
8
0
62
256
6
ByLayer
370
-2
48
1
60
0
100
AcDbLine
10
-1
20
0.166667
30
0
11
0
21
0
31
0
39
0
210
0
220
0
230
1
0
LINE
5
11F
100
AcDbEntity
8
0
62
256
6
ByLayer
370
-2
48
1
60
0
100
AcDbLine
10
0
20
0
30
0
11
-1
21
-0.166667
31
0
39
0
210
0
220
0
230
1
0
LINE
5
120
100
AcDbEntity
8
0
62
256
6
ByLayer
370
-2
48
1
60
0
100
AcDbLine
10
-1
20
0.166667
30
0
11
-1
21
-0.166667
31
0
39
0
210
0
220
0
230
1
0
LINE
5
121
100
AcDbEntity
8
0
62
256
6
ByLayer
370
-2
48
1
60
0
100
AcDbLine
10
0
20
0
30
0
11
-1
21
0
31
0
39
0
210
0
220
0
230
1
0
ENDBLK
5
11D
100
AcDbEntity
8
0
100
AcDbBlockEnd
0
BLOCK
5
12E
100
AcDbEntity
8
0
100
AcDbBlockBegin
2
DimnDraft3D2
70
0
10
0
20
0
30
0
3
DimnDraft3D2
0
MTEXT
5
123
100
AcDbEntity
8
SK2
62
256
6
ByLayer
370
-1
48
1
60
0
100
AcDbMText
10
-212.195
20
-3.659211
30
0
210
0
220
0
230
1
1
\W01.000;\fsimplex.shx,bigfont.shx;%%c25 
40
4.5
41
0
44
1.084337
50
90
71
7
72
5
7
DEFAULT
0
LINE
5
125
100
AcDbEntity
8
SK2
62
256
6
ByLayer
370
-1
48
1
60
0
100
AcDbLine
10
-203.32
20
-12.49125
30
0
11
-213.07
21
-12.49125
31
0
39
0
210
0
220
0
230
1
0
LINE
5
126
100
AcDbEntity
8
SK2
62
256
6
ByLayer
370
-1
48
1
60
0
100
AcDbLine
10
-203.32
20
12.49125
30
0
11
-213.07
21
12.49125
31
0
39
0
210
0
220
0
230
1
0
LINE
5
127
100
AcDbEntity
8
SK2
62
256
6
ByLayer
370
-1
48
1
60
0
100
AcDbLine
10
-211.07
20
-12.49125
30
0
11
-211.07
21
12.49125
31
0
39
0
210
0
220
0
230
1
0
LINE
5
128
100
AcDbEntity
8
SK2
62
256
6
ByLayer
370
-1
48
1
60
0
100
AcDbLine
10
-211.07
20
-12.49125
30
0
11
-211.487997
21
-9.316252
31
0
39
0
210
0
220
0
230
1
0
LINE
5
129
100
AcDbEntity
8
SK2
62
256
6
ByLayer
370
-1
48
1
60
0
100
AcDbLine
10
-211.07
20
-12.49125
30
0
11
-210.652003
21
-9.316248
31
0
39
0
210
0
220
0
230
1
0
LINE
5
12A
100
AcDbEntity
8
SK2
62
256
6
ByLayer
370
-1
48
1
60
0
100
AcDbLine
10
-211.487997
20
-9.316252
30
0
11
-210.652003
21
-9.316248
31
0
39
0
210
0
220
0
230
1
0
LINE
5
12B
100
AcDbEntity
8
SK2
62
256
6
ByLayer
370
-1
48
1
60
0
100
AcDbLine
10
-211.07
20
12.49125
30
0
11
-210.652003
21
9.316252
31
0
39
0
210
0
220
0
230
1
0
LINE
5
12C
100
AcDbEntity
8
SK2
62
256
6
ByLayer
370
-1
48
1
60
0
100
AcDbLine
10
-211.07
20
12.49125
30
0
11
-211.487997
21
9.316248
31
0
39
0
210
0
220
0
230
1
0
LINE
5
12D
100
AcDbEntity
8
SK2
62
256
6
ByLayer
370
-1
48
1
60
0
100
AcDbLine
10
-210.652003
20
9.316252
30
0
11
-211.487997
21
9.316248
31
0
39
0
210
0
220
0
230
1
0
ENDBLK
5
12F
100
AcDbEntity
8
0
100
AcDbBlockEnd
0
BLOCK
5
13C
100
AcDbEntity
8
0
100
AcDbBlockBegin
2
DimnDraft3D3
70
0
10
0
20
0
30
0
3
DimnDraft3D3
0
MTEXT
5
132
100
AcDbEntity
8
SK2
62
256
6
ByLayer
370
-1
48
1
60
0
100
AcDbMText
10
-56.385132
20
-33.025
30
0
210
0
220
0
230
1
1
\W01.000;\fsimplex.shx,bigfont.shx;300.0 
40
4.5
41
0
44
1.084337
50
0
71
7
72
5
7
DEFAULT
0
LINE
5
133
100
AcDbEntity
8
SK2
62
256
6
ByLayer
370
-1
48
1
60
0
100
AcDbLine
10
-201.32
20
-14.49125
30
0
11
-201.32
21
-36.15
31
0
39
0
210
0
220
0
230
1
0
LINE
5
134
100
AcDbEntity
8
SK2
62
256
6
ByLayer
370
-1
48
1
60
0
100
AcDbLine
10
99.93
20
-18.9
30
0
11
99.93
21
-36.15
31
0
39
0
210
0
220
0
230
1
0
LINE
5
135
100
AcDbEntity
8
SK2
62
256
6
ByLayer
370
-1
48
1
60
0
100
AcDbLine
10
-201.32
20
-34.15
30
0
11
99.93
21
-34.15
31
0
39
0
210
0
220
0
230
1
0
LINE
5
136
100
AcDbEntity
8
SK2
62
256
6
ByLayer
370
-1
48
1
60
0
100
AcDbLine
10
-201.32
20
-34.15
30
0
11
-198.145002
21
-33.732003
31
0
39
0
210
0
220
0
230
1
0
LINE
5
137
100
AcDbEntity
8
SK2
62
256
6
ByLayer
370
-1
48
1
60
0
100
AcDbLine
10
-201.32
20
-34.15
30
0
11
-198.144998
21
-34.567997
31
0
39
0
210
0
220
0
230
1
0
LINE
5
138
100
AcDbEntity
8
SK2
62
256
6
ByLayer
370
-1
48
1
60
0
100
AcDbLine
10
-198.145002
20
-33.732003
30
0
11
-198.144998
21
-34.567997
31
0
39
0
210
0
220
0
230
1
0
LINE
5
139
100
AcDbEntity
8
SK2
62
256
6
ByLayer
370
-1
48
1
60
0
100
AcDbLine
10
99.93
20
-34.15
30
0
11
96.755002
21
-34.567997
31
0
39
0
210
0
220
0
230
1
0
LINE
5
13A
100
AcDbEntity
8
SK2
62
256
6
ByLayer
370
-1
48
1
60
0
100
AcDbLine
10
99.93
20
-34.15
30
0
11
96.754998
21
-33.732003
31
0
39
0
210
0
220
0
230
1
0
LINE
5
13B
100
AcDbEntity
8
SK2
62
256
6
ByLayer
370
-1
48
1
60
0
100
AcDbLine
10
96.755002
20
-34.567997
30
0
11
96.754998
21
-33.732003
31
0
39
0
210
0
220
0
230
1
0
ENDBLK
5
13D
100
AcDbEntity
8
0
100
AcDbBlockEnd
0
BLOCK
5
14A
100
AcDbEntity
8
0
100
AcDbBlockBegin
2
DimnDraft3D4
70
0
10
0
20
0
30
0
3
DimnDraft3D4
0
MTEXT
5
140
100
AcDbEntity
8
2
62
256
6
ByLayer
370
-1
48
1
60
0
100
AcDbMText
10
123.665956
20
31.136179
30
0
210
0
220
0
230
1
1
\W01.000;\fsimplex.shx,bigfont.shx;91%%d0' 
40
4.5
41
0
44
1.084337
50
315.5
71
7
72
5
7
DEFAULT
0
LINE
5
141
100
AcDbEntity
8
2
62
256
6
ByLayer
370
-1
48
1
60
0
100
AcDbLine
10
99.615857
20
1.097259
30
0
11
98.938198
21
39.920326
31
0
39
0
210
0
220
0
230
1
0
LINE
5
142
100
AcDbEntity
8
2
62
256
6
ByLayer
370
-1
48
1
60
0
100
AcDbLine
10
101.93
20
0
30
0
11
139.561416
21
0
31
0
39
0
210
0
220
0
230
1
0
ARC
5
143
100
AcDbEntity
8
2
62
256
6
ByLayer
370
-1
48
1
60
0
100
AcDbCircle
39
0
10
99.635009
20
0
30
0
40
37.9264068640928
210
0
220
0
230
1
100
AcDbArc
50
0
51
91
0
LINE
5
144
100
AcDbEntity
8
2
62
256
6
ByLayer
370
-1
48
1
60
0
100
AcDbLine
10
98.973102
20
37.92063
30
0
11
102.149529
21
38.327629
31
0
39
0
210
0
220
0
230
1
0
LINE
5
145
100
AcDbEntity
8
2
62
256
6
ByLayer
370
-1
48
1
60
0
100
AcDbLine
10
98.973102
20
37.92063
30
0
11
102.146637
21
37.491641
31
0
39
0
210
0
220
0
230
1
0
LINE
5
146
100
AcDbEntity
8
2
62
256
6
ByLayer
370
-1
48
1
60
0
100
AcDbLine
10
102.149529
20
38.327629
30
0
11
102.146637
21
37.491641
31
0
39
0
210
0
220
0
230
1
0
LINE
5
147
100
AcDbEntity
8
2
62
256
6
ByLayer
370
-1
48
1
60
0
100
AcDbLine
10
137.561416
20
0
30
0
11
137.077106
21
3.165562
31
0
39
0
210
0
220
0
230
1
0
LINE
5
148
100
AcDbEntity
8
2
62
256
6
ByLayer
370
-1
48
1
60
0
100
AcDbLine
10
137.561416
20
0
30
0
11
137.912916
21
3.183049
31
0
39
0
210
0
220
0
230
1
0
LINE
5
149
100
AcDbEntity
8
2
62
256
6
ByLayer
370
-1
48
1
60
0
100
AcDbLine
10
137.077106
20
3.165562
30
0
11
137.912916
21
3.183049
31
0
39
0
210
0
220
0
230
1
0
ENDBLK
5
14B
100
AcDbEntity
8
0
100
AcDbBlockEnd
0
ENDSEC
0
SECTION
2
ENTITIES
0
ELLIPSE
5
93
100
AcDbEntity
8
1
62
256
6
ByLayer
370
-1
48
1
60
0
100
AcDbEllipse
10
88.253059
20
-10.721988
30
0
11
0.356129484820057
21
1.45711076793832
31
0
210
0
220
0
230
1
40
0.994146
41
2.35300485357664
42
2.95871866913473
0
ELLIPSE
5
94
100
AcDbEntity
8
1
62
256
6
ByLayer
370
-1
48
1
60
0
100
AcDbEllipse
10
95.570644
20
-0.010584
30
0
11
0.336075535520917
21
-16.3251694712891
31
0
210
0
220
0
230
-1
40
0.105002
41
-0.267344107927221
42
-0.0468129046377043
0
ELLIPSE
5
95
100
AcDbEntity
8
1
62
256
6
ByLayer
370
-1
48
1
60
0
100
AcDbEllipse
10
94.564924
20
-0.010562
30
0
11
0.335416276408042
21
-16.293145256832
31
0
210
0
220
0
230
-1
40
0.105002
41
-0.0534335525617871
42
-0.00974004135931662
0
ELLIPSE
5
96
100
AcDbEntity
8
1
62
256
6
ByLayer
370
-1
48
1
60
0
100
AcDbEllipse
10
167.612469
20
304.28536
30
0
11
199.844149973539
21
745.543685388555
31
0
210
3.20474742746036E-31
220
1.38875090641594E-16
230
1
40
0.026693
41
1.99120096546845
42
2.00553059263961
0
ELLIPSE
5
97
100
AcDbEntity
8
1
62
256
6
ByLayer
370
-1
48
1
60
0
100
AcDbEllipse
10
87.727396
20
-10.593512
30
0
11
1.50813167219201
21
0.024617039655816
31
0
210
0
220
0
230
-1
40
0.994096
41
1.04607236345962
42
2.61686869025337
0
ELLIPSE
5
98
100
AcDbEntity
8
1
62
256
6
ByLayer
370
-1
48
1
60
0
100
AcDbEllipse
10
160.660064
20
0.142542
30
0
11
174.326294345722
21
0.479151887760227
31
0
210
0
220
0
230
-1
40
0.100581
41
1.95114877730429
42
1.95730476273875
0
ELLIPSE
5
99
100
AcDbEntity
8
1
62
256
6
ByLayer
370
-1
48
1
60
0
100
AcDbEllipse
10
86.3232
20
-9.608573
30
0
11
-0.356129484820057
21
-1.45711076793832
31
0
210
0
220
0
230
1
40
0.994146
41
-1.33243802542284
42
-0.201366213337414
0
ELLIPSE
5
9A
100
AcDbEntity
8
1
62
256
6
ByLayer
370
-1
48
1
60
0
100
AcDbEllipse
10
86.3232
20
-9.608573
30
0
11
-0.356129484820057
21
-1.45711076793832
31
0
210
0
220
0
230
1
40
0.994146
41
-2.94309339185599
42
-1.33243802542284
0
ELLIPSE
5
9B
100
AcDbEntity
8
1
62
256
6
ByLayer
370
-1
48
1
60
0
100
AcDbEllipse
10
197.8753
20
0.15242
30
0
11
185.558364784641
21
0.510287053627106
31
0
210
0
220
0
230
-1
40
0.100583
41
2.14634717189374
42
2.15002475737306
0
ELLIPSE
5
9C
100
AcDbEntity
8
1
62
256
6
ByLayer
370
-1
48
1
60
0
100
AcDbEllipse
10
87.597944
20
-10.379313
30
0
11
1.5081316694385
21
0.024616816783437
31
0
210
0
220
0
230
-1
40
0.994096
41
2.61686854231179
42
2.80236799979063
0
ELLIPSE
5
9D
100
AcDbEntity
8
1
62
256
6
ByLayer
370
-1
48
1
60
0
100
AcDbEllipse
10
85.744426
20
-9.467116
30
0
11
1.508131672192
21
0.0246170396127907
31
0
210
0
220
0
230
-1
40
0.994096
41
1.29136916732922
42
-0.936866649409435
0
ELLIPSE
5
9E
100
AcDbEntity
8
1
62
256
6
ByLayer
370
-1
48
1
60
0
100
AcDbEllipse
10
88.124991
20
-10.508128
30
0
11
0.356129484820057
21
1.45711076793832
31
0
210
0
220
0
230
1
40
0.994146
41
2.1675053965276
42
2.35300485357667
0
ELLIPSE
5
9F
100
AcDbEntity
8
1
62
256
6
ByLayer
370
-1
48
1
60
0
100
AcDbEllipse
10
86.291715
20
-9.600877
30
0
11
0.356129484820057
21
1.45711076793832
31
0
210
0
220
0
230
1
40
0.994146
41
-2.60468093070666
42
-2.00566808562217
0
ELLIPSE
5
A0
100
AcDbEntity
8
1
62
256
6
ByLayer
370
-1
48
1
60
0
100
AcDbEllipse
10
85.919133
20
-9.509815
30
0
11
-0.356129484820057
21
-1.45711076793832
31
0
210
0
220
0
230
1
40
0.994146
41
2.46301334036432
42
2.76514753962167
0
ELLIPSE
5
A1
100
AcDbEntity
8
1
62
256
6
ByLayer
370
-1
48
1
60
0
100
AcDbEllipse
10
95.193295
20
-9.345485
30
0
11
0.683189250258329
21
2.79528220920577
31
0
210
0
220
0
230
1
40
0.994146
41
-1.47115909126517
42
-1.33243827556014
0
ELLIPSE
5
A2
100
AcDbEntity
8
1
62
256
6
ByLayer
370
-1
48
1
60
0
100
AcDbEllipse
10
95.193295
20
-9.345485
30
0
11
0.683189250258329
21
2.79528220920577
31
0
210
0
220
0
230
1
40
0.994146
41
-1.33243827556014
42
0
0
ELLIPSE
5
A3
100
AcDbEntity
8
1
62
256
6
ByLayer
370
-1
48
1
60
0
100
AcDbEllipse
10
95.193295
20
-9.345485
30
0
11
0.683189250258329
21
2.79528220920577
31
0
210
0
220
0
230
1
40
0.994146
41
0
42
-1.67055212309145
0
ELLIPSE
5
A4
100
AcDbEntity
8
1
62
256
6
ByLayer
370
-1
48
1
60
0
100
AcDbEllipse
10
87.182038
20
-9.47713
30
0
11
-0.188451852383941
21
-0.771054448034002
31
0
210
0
220
0
230
1
40
0.994146
41
-2.3593841268083
42
-0.2649890244151
0
ELLIPSE
5
A5
100
AcDbEntity
8
1
62
256
6
ByLayer
370
-1
48
1
60
0
100
AcDbEllipse
10
95.074486
20
-9.316447
30
0
11
-0.712258969640122
21
-2.91422153587667
31
0
210
0
220
0
230
1
40
0.994146
41
0
42
6.28318530717959
0
ELLIPSE
5
A6
100
AcDbEntity
8
1
62
256
6
ByLayer
370
-1
48
1
60
0
100
AcDbEllipse
10
95.166363
20
-9.338902
30
0
11
-0.703184515537714
21
-2.87709322904057
31
0
210
0
220
0
230
1
40
0.994146
41
-1.3324382714695
42
0
0
ELLIPSE
5
A7
100
AcDbEntity
8
1
62
256
6
ByLayer
370
-1
48
1
60
0
100
AcDbEllipse
10
95.166363
20
-9.338902
30
0
11
-0.703184515537714
21
-2.87709322904057
31
0
210
0
220
0
230
1
40
0.994146
41
0
42
0.398775799339831
0
ELLIPSE
5
A8
100
AcDbEntity
8
1
62
256
6
ByLayer
370
-1
48
1
60
0
100
AcDbEllipse
10
95.166363
20
-9.338902
30
0
11
-0.703184515537714
21
-2.87709322904057
31
0
210
0
220
0
230
1
40
0.994146
41
2.74279662196456
42
-1.33243793372466
0
ELLIPSE
5
A9
100
AcDbEntity
8
1
62
256
6
ByLayer
370
-1
48
1
60
0
100
AcDbEllipse
10
98.900787
20
-2.3657
30
0
11
-0.188451852383941
21
-0.771054448034002
31
0
210
0
220
0
230
1
40
0.994146
41
1.82940607797845
42
-2.35938412680801
0
ELLIPSE
5
AA
100
AcDbEntity
8
1
62
256
6
ByLayer
370
-1
48
1
60
0
100
AcDbEllipse
10
99.140634
20
-16.106511
30
0
11
-0.188451852383941
21
-0.771054448034002
31
0
210
0
220
0
230
1
40
0.994146
41
-0.264989024414879
42
1.82940607797833
0
ELLIPSE
5
AB
100
AcDbEntity
8
1
62
256
6
ByLayer
370
-1
48
1
60
0
100
AcDbEllipse
10
95.090389
20
-9.320334
30
0
11
-0.427355381784073
21
-1.748532921526
31
0
210
0
220
0
230
1
40
0.994146
41
0
42
6.28318530717959
0
ELLIPSE
5
AC
100
AcDbEntity
8
1
62
256
6
ByLayer
370
-1
48
1
60
0
100
AcDbEllipse
10
95.239947
20
-9.356887
30
0
11
0.286446815623591
21
1.17200276101169
31
0
210
0
220
0
230
1
40
0.994146
41
-1.60217788803869
42
-0.950770180906335
0
ELLIPSE
5
AD
100
AcDbEntity
8
1
62
256
6
ByLayer
370
-1
48
1
60
0
100
AcDbEllipse
10
95.239947
20
-9.356887
30
0
11
0.286446815623591
21
1.17200276101169
31
0
210
0
220
0
230
1
40
0.994146
41
1.30441202853936
42
2.28397222016421
0
ELLIPSE
5
AE
100
AcDbEntity
8
1
62
256
6
ByLayer
370
-1
48
1
60
0
100
AcDbEllipse
10
93.595063
20
-8.442009
30
0
11
0.162869884391039
21
0.666385324537125
31
0
210
0
220
0
230
1
40
0.994146
41
-2.6211712686714
42
-1.83718062505048
0
ELLIPSE
5
AF
100
AcDbEntity
8
1
62
256
6
ByLayer
370
-1
48
1
60
0
100
AcDbEllipse
10
95.090389
20
-9.320334
30
0
11
-0.398034054200546
21
-1.62856413496571
31
0
210
0
220
0
230
1
40
0.994146
41
0.782208526781796
42
1.82661553029702
0
ELLIPSE
5
B0
100
AcDbEntity
8
1
62
256
6
ByLayer
370
-1
48
1
60
0
100
AcDbEllipse
10
94.575907
20
-10.57113
30
0
11
0.0693265397116378
21
0.28365089615866
31
0
210
0
220
0
230
1
40
0.994146
41
1.56174351865534
42
2.87706802620589
0
ELLIPSE
5
B1
100
AcDbEntity
8
1
62
256
6
ByLayer
370
-1
48
1
60
0
100
AcDbEllipse
10
93.633572
20
-10.331702
30
0
11
0.162869884391039
21
0.666385324537125
31
0
210
0
220
0
230
1
40
0.994146
41
-1.57984913493448
42
-0.910201841231007
0
ELLIPSE
5
B2
100
AcDbEntity
8
1
62
256
6
ByLayer
370
-1
48
1
60
0
100
AcDbEllipse
10
95.239947
20
-9.356887
30
0
11
0.286446815623591
21
1.17200276101169
31
0
210
0
220
0
230
1
40
0.994146
41
-2.81541484748638
42
-2.10053434781831
0
ELLIPSE
5
B3
100
AcDbEntity
8
1
62
256
6
ByLayer
370
-1
48
1
60
0
100
AcDbEllipse
10
95.090389
20
-9.320334
30
0
11
-0.398034054200546
21
-1.62856413496571
31
0
210
0
220
0
230
1
40
0.994146
41
-0.262198476733349
42
0.782208526781796
0
ELLIPSE
5
B4
100
AcDbEntity
8
1
62
256
6
ByLayer
370
-1
48
1
60
0
100
AcDbEllipse
10
95.090389
20
-9.320334
30
0
11
-0.398034054200546
21
-1.62856413496571
31
0
210
0
220
0
230
1
40
0.994146
41
-1.31497712329282
42
-0.262198476733349
0
ELLIPSE
5
B5
100
AcDbEntity
8
1
62
256
6
ByLayer
370
-1
48
1
60
0
100
AcDbEllipse
10
95.239947
20
-9.356887
30
0
11
-0.286446815623594
21
-1.1720027610117
31
0
210
0
220
0
230
1
40
0.994146
41
-0.857620433425558
42
-0.719555166600708
0
ELLIPSE
5
B6
100
AcDbEntity
8
1
62
256
6
ByLayer
370
-1
48
1
60
0
100
AcDbEllipse
10
95.090389
20
-9.320334
30
0
11
-0.398034054200546
21
-1.62856413496571
31
0
210
0
220
0
230
1
40
0.994146
41
2.87939417685627
42
-2.35938412680808
0
ELLIPSE
5
B7
100
AcDbEntity
8
1
62
256
6
ByLayer
370
-1
48
1
60
0
100
AcDbEllipse
10
95.118869
20
-9.327294
30
0
11
-0.286446815623592
21
-1.17200276101169
31
0
210
0
220
0
230
1
40
0.994146
41
2.28397222016541
42
2.42203748698785
0
ELLIPSE
5
B8
100
AcDbEntity
8
1
62
256
6
ByLayer
370
-1
48
1
60
0
100
AcDbEllipse
10
95.239947
20
-9.356887
30
0
11
0.286446815623591
21
1.17200276101169
31
0
210
0
220
0
230
1
40
0.994146
41
-0.510526117280719
42
0.260005025024025
0
ELLIPSE
5
B9
100
AcDbEntity
8
1
62
256
6
ByLayer
370
-1
48
1
60
0
100
AcDbEllipse
10
95.237323
20
-9.356245
30
0
11
-0.623226598435103
21
-2.54994384389207
31
0
210
0
220
0
230
1
40
0.994146
41
0
42
3.14149462734455
0
ELLIPSE
5
BA
100
AcDbEntity
8
1
62
256
6
ByLayer
370
-1
48
1
60
0
100
AcDbEllipse
10
93.633572
20
-10.331702
30
0
11
0.162869884391039
21
0.666385324537125
31
0
210
0
220
0
230
1
40
0.994146
41
-0.666973758795285
42
0.00267353490831828
0
ELLIPSE
5
BB
100
AcDbEntity
8
1
62
256
6
ByLayer
370
-1
48
1
60
0
100
AcDbEllipse
10
95.275588
20
-11.248321
30
0
11
0.162869884391039
21
0.666385324537125
31
0
210
0
220
0
230
1
40
0.994146
41
-0.523985618596557
42
-9.87631672807583E-06
0
ELLIPSE
5
BC
100
AcDbEntity
8
1
62
256
6
ByLayer
370
-1
48
1
60
0
100
AcDbEllipse
10
95.204305
20
-7.465453
30
0
11
0.162869884391039
21
0.666385324537125
31
0
210
0
220
0
230
1
40
0.994146
41
-2.88158762856569
42
-2.09759698494488
0
ELLIPSE
5
BD
100
AcDbEntity
8
1
62
256
6
ByLayer
370
-1
48
1
60
0
100
AcDbEllipse
10
95.903987
20
-8.142643
30
0
11
0.0693265397116378
21
0.28365089615866
31
0
210
0
220
0
230
1
40
0.994146
41
0.286401356159146
42
1.04399566864493
0
ELLIPSE
5
BE
100
AcDbEntity
8
1
62
256
6
ByLayer
370
-1
48
1
60
0
100
AcDbEllipse
10
95.118869
20
-9.327294
30
0
11
-0.286446815623592
21
-1.17200276101169
31
0
210
0
220
0
230
1
40
0.994146
41
-0.857620433425554
42
-0.719555166600667
0
ELLIPSE
5
BF
100
AcDbEntity
8
1
62
256
6
ByLayer
370
-1
48
1
60
0
100
AcDbEllipse
10
95.204305
20
-7.465453
30
0
11
0.162869884391039
21
0.666385324537125
31
0
210
0
220
0
230
1
40
0.994146
41
3.14158187023777
42
-2.88158762856569
0
ELLIPSE
5
C0
100
AcDbEntity
8
1
62
256
6
ByLayer
370
-1
48
1
60
0
100
AcDbEllipse
10
95.239947
20
-9.356887
30
0
11
0.286446815623591
21
1.17200276101169
31
0
210
0
220
0
230
1
40
0.994146
41
0.260005025024025
42
1.30441202853936
0
ELLIPSE
5
C1
100
AcDbEntity
8
1
62
256
6
ByLayer
370
-1
48
1
60
0
100
AcDbEllipse
10
95.119297
20
-9.327399
30
0
11
-0.623226598435098
21
-2.54994384389205
31
0
210
0
220
0
230
1
40
0.994146
41
0
42
6.28318530717959
0
ELLIPSE
5
C2
100
AcDbEntity
8
1
62
256
6
ByLayer
370
-1
48
1
60
0
100
AcDbEllipse
10
93.595063
20
-8.442009
30
0
11
0.162869884391039
21
0.666385324537125
31
0
210
0
220
0
230
1
40
0.994146
41
-1.83718062505048
42
-1.05318998142964
0
ELLIPSE
5
C3
100
AcDbEntity
8
1
62
256
6
ByLayer
370
-1
48
1
60
0
100
AcDbEllipse
10
93.863243
20
-9.381052
30
0
11
0.0693265397116378
21
0.28365089615866
31
0
210
0
220
0
230
1
40
0.994146
41
0.520421384918333
42
-3.13891911868162
0
ELLIPSE
5
C4
100
AcDbEntity
8
1
62
256
6
ByLayer
370
-1
48
1
60
0
100
AcDbEllipse
10
95.239947
20
-9.356887
30
0
11
0.286446815623584
21
1.17200276101166
31
0
210
0
220
0
230
1
40
0.994146
41
2.42203748698914
42
-2.9899365529071
0
ELLIPSE
5
C5
100
AcDbEntity
8
1
62
256
6
ByLayer
370
-1
48
1
60
0
100
AcDbEllipse
10
95.090389
20
-9.320334
30
0
11
-0.398034054200546
21
-1.62856413496571
31
0
210
0
220
0
230
1
40
0.994146
41
1.82661553029702
42
2.87939417685627
0
ELLIPSE
5
C6
100
AcDbEntity
8
1
62
256
6
ByLayer
370
-1
48
1
60
0
100
AcDbEllipse
10
94.530708
20
-8.172528
30
0
11
0.0693265397116378
21
0.28365089615866
31
0
210
0
220
0
230
1
40
0.994146
41
0.246098104763826
42
2.0884026721601
0
ELLIPSE
5
C7
100
AcDbEntity
8
1
62
256
6
ByLayer
370
-1
48
1
60
0
100
AcDbEllipse
10
95.090389
20
-9.320334
30
0
11
-0.398034054200546
21
-1.62856413496571
31
0
210
0
220
0
230
1
40
0.994146
41
-2.35938412680808
42
-1.31497712329282
0
POINT
5
41
100
AcDbEntity
8
80
62
256
6
ByLayer
370
-1
48
1
60
0
100
AcDbPoint
10
0
20
0
30
0
39
0
210
0
220
0
230
1
50
360
0
POINT
5
43
100
AcDbEntity
8
81
62
256
6
ByLayer
370
-1
48
1
60
0
100
AcDbPoint
10
99.93
20
-16.9
30
0
39
0
210
0
220
0
230
1
50
360
0
POINT
5
45
100
AcDbEntity
8
1
62
256
6
ByLayer
370
-1
48
1
60
0
100
AcDbPoint
10
-201.32
20
0
30
0
39
0
210
0
220
0
230
1
50
360
0
POINT
5
47
100
AcDbEntity
8
2
62
256
6
ByLayer
370
-1
48
1
60
0
100
AcDbPoint
10
99.93
20
16.9
30
0
39
0
210
0
220
0
230
1
50
360
0
SPLINE
5
C8
100
AcDbEntity
8
1
62
256
6
ByLayer
370
-1
48
1
60
0
100
AcDbSpline
70
4
71
3
72
8
73
4
40
0
40
0
40
0
40
0
40
1
40
1
40
1
40
1
41
1
10
65.394655186108
20
-4.87661015076082
30
0
41
1
10
65.2870862757152
20
-6.95761495509356
30
0
41
1
10
65.645121825865
20
-8.80186110315879
30
0
41
1
10
66.6719360111013
20
-10.0087500000007
30
0
0
SPLINE
5
C9
100
AcDbEntity
8
1
62
256
6
ByLayer
370
-1
48
1
60
0
100
AcDbSpline
70
4
71
3
72
8
73
4
40
0
40
0
40
0
40
0
40
1
40
1
40
1
40
1
41
1
10
81.2210968785191
20
-12.4127672257865
30
0
41
1
10
81.6421678185953
20
-12.8999419609489
30
0
41
1
10
82.0625112992994
20
-13.3867850266004
30
0
41
1
10
82.4821673021216
20
-13.8732772839475
30
0
0
SPLINE
5
CA
100
AcDbEntity
8
1
62
256
6
ByLayer
370
-1
48
1
60
0
100
AcDbSpline
70
4
71
3
72
8
73
4
40
0
40
0
40
0
40
0
40
1
40
1
40
1
40
1
41
1
10
94.9169879542501
20
-16.3025915091085
30
0
41
1
10
91.3732754126539
20
-16.1896883034479
30
0
41
1
10
87.8295629397446
20
-16.076782943521
30
0
41
1
10
84.285850539999
20
-15.9638752890568
30
0
0
SPLINE
5
CB
100
AcDbEntity
8
1
62
256
6
ByLayer
370
-1
48
1
60
0
100
AcDbSpline
70
4
71
3
72
10
73
6
40
0
40
0
40
0
40
0
40
0.5
40
0.5
40
1
40
1
40
1
40
1
41
1
10
78.2858505408242
20
12.3255469728929
30
0
41
1
10
75.8798095643024
20
12.095660691982
30
0
41
1
10
73.7747322596003
20
11.5429771979244
30
0
41
1
10
70.3056998665293
20
9.12695487382427
30
0
41
1
10
68.9544823583646
20
7.2546639360304
30
0
41
1
10
67.8822773728439
20
4.87661015076011
30
0
0
SPLINE
5
CC
100
AcDbEntity
8
1
62
256
6
ByLayer
370
-1
48
1
60
0
100
AcDbSpline
70
4
71
3
72
8
73
4
40
0
40
0
40
0
40
0
40
1
40
1
40
1
40
1
41
1
10
82.4821673021216
20
-13.8732772839475
30
0
41
1
10
83.0833376552679
20
-14.5701926626992
30
0
41
1
10
83.6845729591454
20
-15.2670522461852
30
0
41
1
10
84.285850539999
20
-15.9638752890567
30
0
0
SPLINE
5
CD
100
AcDbEntity
8
1
62
256
6
ByLayer
370
-1
48
1
60
0
100
AcDbSpline
70
4
71
3
72
30
73
26
40
-0.124999999999989
40
-0.124999999999989
40
0
40
0
40
0.125000000000005
40
0.125000000000005
40
0.187500000000007
40
0.187500000000007
40
0.25000000000001
40
0.25000000000001
40
0.375000000000013
40
0.375000000000013
40
0.500000000000016
40
0.500000000000016
40
0.625000000000019
40
0.625000000000019
40
0.656250000000019
40
0.656250000000019
40
0.68750000000002
40
0.68750000000002
40
0.718750000000021
40
0.718750000000021
40
0.750000000000021
40
0.750000000000021
40
0.875000000000011
40
0.875000000000011
40
1
40
1
40
1.12500000000001
40
1.12500000000001
41
1
10
75.3866156571775
20
-3.54360078889559
30
0
41
1
10
73.9407295252947
20
-2.88936471211423
30
0
41
1
10
73.1851287677052
20
-2.66079479941726
30
0
41
1
10
72.0871377767559
20
-3.02110048382278
30
0
41
1
10
71.7373670839517
20
-3.3030901315542
30
0
41
1
10
71.3919461035163
20
-4.13865368496204
30
0
41
1
10
71.4147448381628
20
-4.63029760427375
30
0
41
1
10
71.7968821166974
20
-5.8361332365485
30
0
41
1
10
72.3957203556587
20
-6.39945934600456
30
0
41
1
10
73.7124405020741
20
-7.23379998267788
30
0
41
1
10
74.475169878654
20
-7.52000653597227
30
0
41
1
10
76.0642629509623
20
-7.91028054401997
30
0
41
1
10
76.9091042138037
20
-8.03885255398291
30
0
41
1
10
77.9984585615002
20
-7.98269614959199
30
0
41
1
10
78.2167021541572
20
-7.95963682592816
30
0
41
1
10
78.6434302217456
20
-7.84847871581701
30
0
41
1
10
78.8733429001024
20
-7.75964227477277
30
0
41
1
10
79.1017375482776
20
-7.36119670791322
30
0
41
1
10
79.0397624019191
20
-7.10924445974331
30
0
41
1
10
78.8528089540507
20
-6.6963098916182
30
0
41
1
10
78.7274316334863
20
-6.51264703308686
30
0
41
1
10
78.0564480502515
20
-5.62840876839596
30
0
41
1
10
77.4047404471133
20
-5.05076504980337
30
0
41
1
10
76.0803785209246
20
-4.00356491564264
30
0
41
1
10
75.3866156571775
20
-3.54360078889559
30
0
41
1
10
73.9407295252947
20
-2.88936471211423
30
0
0
SPLINE
5
CE
100
AcDbEntity
8
1
62
256
6
ByLayer
370
-1
48
1
60
0
100
AcDbSpline
70
4
71
3
72
8
73
4
40
0
40
0
40
0
40
0
40
1
40
1
40
1
40
1
41
1
10
78.2858505408237
20
12.3255469728923
30
0
41
1
10
78.3108354973334
20
12.3031490860119
30
0
41
1
10
78.3358356381647
20
12.280697771873
30
0
41
1
10
78.3608505408241
20
12.2581940061086
30
0
0
SPLINE
5
CF
100
AcDbEntity
8
1
62
256
6
ByLayer
370
-1
48
1
60
0
100
AcDbSpline
70
4
71
3
72
8
73
4
40
0
40
0
40
0
40
0
40
1
40
1
40
1
40
1
41
1
10
81.2210968785194
20
-12.4127672257862
30
0
41
1
10
80.8163059503327
20
-12.4134868447335
30
0
41
1
10
80.4121988267484
20
-12.4143739731955
30
0
41
1
10
80.0096929166909
20
-12.4150923766913
30
0
0
SPLINE
5
D0
100
AcDbEntity
8
1
62
256
6
ByLayer
370
-1
48
1
60
0
100
AcDbSpline
70
4
71
3
72
8
73
4
40
0
40
0
40
0
40
0
40
1
40
1
40
1
40
1
41
1
10
78.3608505408241
20
12.2581940061086
30
0
41
1
10
78.7459237646427
20
12.2938386983688
30
0
41
1
10
79.1378372328114
20
12.3216981186675
30
0
41
1
10
79.5355202515853
20
12.3434235480041
30
0
0
SPLINE
5
D1
100
AcDbEntity
8
SK1
62
256
6
ByLayer
370
-1
48
1
60
0
100
AcDbSpline
70
4
71
3
72
8
73
4
40
0
40
0
40
0
40
0
40
1
40
1
40
1
40
1
41
1
10
-201.32
20
-10.00875
30
0
41
1
10
-200.859655007734
20
-10.00875
30
0
41
1
10
-200.133727170391
20
-10.00875
30
0
41
1
10
-199.32
20
-10.00875
30
0
0
SPLINE
5
D2
100
AcDbEntity
8
1
62
256
6
ByLayer
370
-1
48
1
60
0
100
AcDbSpline
70
4
71
3
72
18
73
14
40
0
40
0
40
0
40
0
40
0.210359972281427
40
0.210359972281427
40
0.384853802076725
40
0.384853802076725
40
0.561054013749248
40
0.561054013749248
40
0.714085929577619
40
0.714085929577619
40
0.916562643960615
40
0.916562643960615
40
1
40
1
40
1
40
1
41
1
10
94.1132302732566
20
-8.21922832692499
30
0
41
1
10
94.1361321910702
20
-8.28768193935579
30
0
41
1
10
94.1489736196453
20
-8.36134551440833
30
0
41
1
10
94.1489509050475
20
-8.4981924603874
30
0
41
1
10
94.1399135075053
20
-8.56256125063712
30
0
41
1
10
94.1018545249084
20
-8.68668954720044
30
0
41
1
10
94.0718572220509
20
-8.74817688962267
30
0
41
1
10
94.000674482479
20
-8.84935835526755
30
0
41
1
10
93.9607165480945
20
-8.89211510983674
30
0
41
1
10
93.8602448081444
20
-8.9756249638547
30
0
41
1
10
93.7957163569948
20
-9.01290758527779
30
0
41
1
10
93.7016834352735
20
-9.0502534779362
30
0
41
1
10
93.6734972904376
20
-9.05946503578542
30
0
41
1
10
93.6450490908261
20
-9.06692502229782
30
0
0
SPLINE
5
D3
100
AcDbEntity
8
1
62
256
6
ByLayer
370
-1
48
1
60
0
100
AcDbSpline
70
4
71
3
72
18
73
14
40
0
40
0
40
0
40
0
40
0.20085469682695
40
0.20085469682695
40
0.37699377289491
40
0.37699377289491
40
0.554949080402609
40
0.554949080402609
40
0.708319001304789
40
0.708319001304789
40
0.909102416865413
40
0.909102416865413
40
1
40
1
40
1
40
1
41
1
10
94.646686028929
20
-10.7395596741825
30
0
41
1
10
94.6966915569648
20
-10.6920677162744
30
0
41
1
10
94.7550693207184
20
-10.6499430556163
30
0
41
1
10
94.8759921274929
20
-10.5872304944183
30
0
41
1
10
94.9385988247275
20
-10.5640501969462
30
0
41
1
10
95.0681913636922
20
-10.5355046550429
30
0
41
1
10
95.1371883237672
20
-10.5300869115289
30
0
41
1
10
95.2594010710386
20
-10.5383048900676
30
0
41
1
10
95.3149629394475
20
-10.5494328514831
30
0
41
1
10
95.4321819289785
20
-10.5885636241551
30
0
41
1
10
95.4925402630351
20
-10.6211694272997
30
0
41
1
10
95.5676998750736
20
-10.6784234667941
30
0
41
1
10
95.5896683327476
20
-10.6978856698958
30
0
41
1
10
95.6099469087413
20
-10.7185971234656
30
0
0
SPLINE
5
D4
100
AcDbEntity
8
1
62
256
6
ByLayer
370
-1
48
1
60
0
100
AcDbSpline
70
4
71
3
72
18
73
14
40
0
40
0
40
0
40
0
40
0.0003342750978156
40
0.0003342750978156
40
0.224781635189599
40
0.224781635189599
40
0.448369626270222
40
0.448369626270222
40
0.683438666178188
40
0.683438666178188
40
0.939855373818796
40
0.939855373818796
40
1
40
1
40
1
40
1
41
1
10
94.2315676543035
20
-7.88618661006149
30
0
41
1
10
94.2316060625614
20
-7.88616330231525
30
0
41
1
10
94.2316444766854
20
-7.88614000361807
30
0
41
1
10
94.2571103122669
20
-7.87070297858247
30
0
41
1
10
94.285530520783
20
-7.85917885493666
30
0
41
1
10
94.3434491557418
20
-7.84558582504735
30
0
41
1
10
94.3736809732749
20
-7.84328657075923
30
0
41
1
10
94.4337137370878
20
-7.84742195049355
30
0
41
1
10
94.4641677255597
20
-7.85433273203938
30
0
41
1
10
94.5229654221824
20
-7.87680522809427
30
0
41
1
10
94.5516155953811
20
-7.89334425249206
30
0
41
1
10
94.5824720018564
20
-7.91777304607837
30
0
41
1
10
94.5881841443251
20
-7.92263074342267
30
0
41
1
10
94.5936994406513
20
-7.9276594288616
30
0
0
SPLINE
5
D5
100
AcDbEntity
8
1
62
256
6
ByLayer
370
-1
48
1
60
0
100
AcDbSpline
70
4
71
3
72
12
73
8
40
0
40
0
40
0
40
0
40
0.310433339966705
40
0.310433339966705
40
0.776249326261921
40
0.776249326261921
40
1
40
1
40
1
40
1
41
1
10
94.1355450492203
20
-10.0210786339962
30
0
41
1
10
94.1553063385829
20
-10.0667200512738
30
0
41
1
10
94.1693670104945
20
-10.1143997920773
30
0
41
1
10
94.1899552578698
20
-10.2320749749762
30
0
41
1
10
94.1897019127138
20
-10.3032410568666
30
0
41
1
10
94.1739533788057
20
-10.4029657543594
30
0
41
1
10
94.1663776057836
20
-10.4349111746457
30
0
41
1
10
94.1566142957952
20
-10.4659308677495
30
0
0
SPLINE
5
D6
100
AcDbEntity
8
1
62
256
6
ByLayer
370
-1
48
1
60
0
100
AcDbSpline
70
4
71
3
72
18
73
14
40
0
40
0
40
0
40
0
40
0.0345349794610138
40
0.0345349794610138
40
0.257995127788202
40
0.257995127788202
40
0.482615076137155
40
0.482615076137155
40
0.720362993329688
40
0.720362993329688
40
0.980706381121713
40
0.980706381121713
40
1
40
1
40
1
40
1
41
1
10
96.7574488556577
20
-9.29107149371276
30
0
41
1
10
96.757516844786
20
-9.29570352528043
30
0
41
1
10
96.7574805892243
20
-9.30034044264153
30
0
41
1
10
96.756441045027
20
-9.33465181354097
30
0
41
1
10
96.7511200566254
20
-9.36458532548585
30
0
41
1
10
96.7327812293233
20
-9.4203123009907
30
0
41
1
10
96.7195096070661
20
-9.44680240010362
30
0
41
1
10
96.6864659388804
20
-9.4946805393482
30
0
41
1
10
96.6659693133088
20
-9.51629835976041
30
0
41
1
10
96.6193822274907
20
-9.55290956817629
30
0
41
1
10
96.5923804941825
20
-9.56756667156844
30
0
41
1
10
96.5627425137552
20
-9.57796277480097
30
0
41
1
10
96.5606720630811
20
-9.57866053135322
30
0
41
1
10
96.5585972585639
20
-9.57933153003154
30
0
0
SPLINE
5
D7
100
AcDbEntity
8
1
62
256
6
ByLayer
370
-1
48
1
60
0
100
AcDbSpline
70
4
71
3
72
16
73
12
40
0
40
0
40
0
40
0
40
0.0872103136988391
40
0.0872103136988391
40
0.309679638449498
40
0.309679638449498
40
0.536313599357307
40
0.536313599357307
40
0.778506971149038
40
0.778506971149038
40
1
40
1
40
1
40
1
41
1
10
93.4233296066663
20
-9.34959596476105
30
0
41
1
10
93.4231587507991
20
-9.33795572476407
30
0
41
1
10
93.4237189257422
20
-9.32628652330783
30
0
41
1
10
93.4282514747809
20
-9.2854180093552
30
0
41
1
10
93.4363275307073
20
-9.25637612467062
30
0
41
1
10
93.4606367003005
20
-9.20283203176302
30
0
41
1
10
93.4773048693281
20
-9.17773536521366
30
0
41
1
10
93.5176810760944
20
-9.13311532295586
30
0
41
1
10
93.542273877215
20
-9.11351310362915
30
0
41
1
10
93.5926600652651
20
-9.08439124306915
30
0
41
1
10
93.6186068092011
20
-9.07385899586984
30
0
41
1
10
93.645049090826
20
-9.06692502229774
30
0
0
SPLINE
5
D8
100
AcDbEntity
8
1
62
256
6
ByLayer
370
-1
48
1
60
0
100
AcDbSpline
70
4
71
3
72
14
73
10
40
0
40
0
40
0
40
0
40
0.276624427228625
40
0.276624427228625
40
0.56386934372598
40
0.56386934372598
40
0.823778079300409
40
0.823778079300409
40
1
40
1
40
1
40
1
41
1
10
96.0904160761353
20
-10.4270282254091
30
0
41
1
10
96.0975070060954
20
-10.4579807697285
30
0
41
1
10
96.0995821575145
20
-10.4914495090947
30
0
41
1
10
96.091967625867
20
-10.559647781846
30
0
41
1
10
96.0816361726467
20
-10.5954401486374
30
0
41
1
10
96.0500537028877
20
-10.6584497948615
30
0
41
1
10
96.0294041014546
20
-10.6870864216577
30
0
41
1
10
95.9880779841259
20
-10.7276449788573
30
0
41
1
10
95.9692272171192
20
-10.7423340495333
30
0
41
1
10
95.9492108080206
20
-10.7544808484124
30
0
0
SPLINE
5
D9
100
AcDbEntity
8
1
62
256
6
ByLayer
370
-1
48
1
60
0
100
AcDbSpline
70
4
71
3
72
18
73
14
40
0
40
0
40
0
40
0
40
0.185588067576639
40
0.185588067576639
40
0.364609522827268
40
0.364609522827268
40
0.545623895365383
40
0.545623895365383
40
0.69978569524167
40
0.69978569524167
40
0.898081790718628
40
0.898081790718628
40
1
40
1
40
1
40
1
41
1
10
96.0904160761335
20
-10.4270282254097
30
0
41
1
10
96.0769576303794
20
-10.3682809043925
30
0
41
1
10
96.070994061602
20
-10.3055248390539
30
0
41
1
10
96.0764626925106
20
-10.1792900368521
30
0
41
1
10
96.0875110604819
20
-10.1144128256327
30
0
41
1
10
96.1272811969051
20
-9.98757870241457
30
0
41
1
10
96.1569991937512
20
-9.92374139451996
30
0
41
1
10
96.2248301158303
20
-9.81827410425802
30
0
41
1
10
96.2618133356623
20
-9.7734519272353
30
0
41
1
10
96.3522799148191
20
-9.68619507696204
30
0
41
1
10
96.4088664792505
20
-9.64646723030054
30
0
41
1
10
96.4968705836357
20
-9.60196480265876
30
0
41
1
10
96.5276077181449
20
-9.58935365042421
30
0
41
1
10
96.5585972585639
20
-9.57933153003154
30
0
0
SPLINE
5
DA
100
AcDbEntity
8
1
62
256
6
ByLayer
370
-1
48
1
60
0
100
AcDbSpline
70
4
71
3
72
16
73
12
40
0
40
0
40
0
40
0
40
0.0826879130957548
40
0.0826879130957548
40
0.3967582255601
40
0.3967582255601
40
0.677537579622124
40
0.677537579622124
40
0.925079970155073
40
0.925079970155073
40
1
40
1
40
1
40
1
41
1
10
94.6466860289313
20
-10.7395596741841
30
0
41
1
10
94.6393662667451
20
-10.746511502338
30
0
41
1
10
94.6316601914451
20
-10.7531634755837
30
0
41
1
10
94.5933246509821
20
-10.7831423301087
30
0
41
1
10
94.5572612105041
20
-10.8022007266634
30
0
41
1
10
94.4841531550916
20
-10.8240854155584
30
0
41
1
10
94.4464479003618
20
-10.8286841467789
30
0
41
1
10
94.3767698467825
20
-10.8241801047482
30
0
41
1
10
94.3436286014445
20
-10.816522045731
30
0
41
1
10
94.3041013776134
20
-10.799870639061
30
0
41
1
10
94.2950550383384
20
-10.7954912971617
30
0
41
1
10
94.2862988370093
20
-10.7906692551647
30
0
0
SPLINE
5
DB
100
AcDbEntity
8
1
62
256
6
ByLayer
370
-1
48
1
60
0
100
AcDbSpline
70
4
71
3
72
14
73
10
40
0
40
0
40
0
40
0
40
0.314838657335159
40
0.314838657335159
40
0.603305108585335
40
0.603305108585335
40
0.856970373150586
40
0.856970373150586
40
1
40
1
40
1
40
1
41
1
10
93.6567294464668
20
-9.63117259444036
30
0
41
1
10
93.6185775920938
20
-9.62195081463594
30
0
41
1
10
93.5809245221889
20
-9.60523531625128
30
0
41
1
10
93.5176975875729
20
-9.56035622042913
30
0
41
1
10
93.4904223757691
20
-9.53248187910094
30
0
41
1
10
93.4513806209084
20
-9.47241885480722
30
0
41
1
10
93.4376063481055
20
-9.44022429401528
30
0
41
1
10
93.425920524626
20
-9.38825034427168
30
0
41
1
10
93.4236125385762
20
-9.36887183387404
30
0
41
1
10
93.4233296066663
20
-9.34959596476105
30
0
0
SPLINE
5
DC
100
AcDbEntity
8
1
62
256
6
ByLayer
370
-1
48
1
60
0
100
AcDbSpline
70
4
71
3
72
16
73
12
40
0
40
0
40
0
40
0
40
0.0577619750382559
40
0.0577619750382559
40
0.280671775465258
40
0.280671775465258
40
0.506081750459869
40
0.506081750459869
40
0.7457054741014
40
0.7457054741014
40
1
40
1
40
1
40
1
41
1
10
95.9492108080206
20
-10.7544808484124
30
0
41
1
10
95.9426190430481
20
-10.7584810086302
30
0
41
1
10
95.9358785923089
20
-10.7622253861311
30
0
41
1
10
95.9027842113699
20
-10.7789783156693
30
0
41
1
10
95.8744490979055
20
-10.7883012746552
30
0
41
1
10
95.8179370339935
20
-10.7979534150764
30
0
41
1
10
95.7890487117036
20
-10.7983264568973
30
0
41
1
10
95.7328285911752
20
-10.790585489953
30
0
41
1
10
95.7050004420946
20
-10.7818692168053
30
0
41
1
10
95.6536382574565
20
-10.7563998357065
30
0
41
1
10
95.629845728917
20
-10.7389207147459
30
0
41
1
10
95.6099469087391
20
-10.7185971234673
30
0
0
SPLINE
5
DD
100
AcDbEntity
8
1
62
256
6
ByLayer
370
-1
48
1
60
0
100
AcDbSpline
70
4
71
3
72
12
73
8
40
0
40
0
40
0
40
0
40
0.475933612664097
40
0.475933612664097
40
0.884281269049114
40
0.884281269049114
40
1
40
1
40
1
40
1
41
1
10
93.6567294464667
20
-9.63117259444022
30
0
41
1
10
93.7266992838352
20
-9.64808517821155
30
0
41
1
10
93.7961027567177
20
-9.67556894228636
30
0
41
1
10
93.9154519495281
20
-9.74623199378979
30
0
41
1
10
93.9680244676179
20
-9.78757758408688
30
0
41
1
10
94.0261852336189
20
-9.84951442377269
30
0
41
1
10
94.0385581429201
20
-9.86385525981703
30
0
41
1
10
94.0502809597658
20
-9.87869603491475
30
0
0
SPLINE
5
DE
100
AcDbEntity
8
1
62
256
6
ByLayer
370
-1
48
1
60
0
100
AcDbSpline
70
4
71
3
72
14
73
10
40
0
40
0
40
0
40
0
40
0.237034329124571
40
0.237034329124571
40
0.529237701899026
40
0.529237701899026
40
0.79327070644037
40
0.79327070644037
40
1
40
1
40
1
40
1
41
1
10
95.5569603204608
20
-7.90669687814651
30
0
41
1
10
95.5747798405847
20
-7.88613318598425
30
0
41
1
10
95.596055265035
20
-7.86793934287192
30
0
41
1
10
95.6490742589716
20
-7.83561363226323
30
0
41
1
10
95.6830375744345
20
-7.82296090200779
30
0
41
1
10
95.7507140355178
20
-7.81278212672493
30
0
41
1
10
95.7851786033242
20
-7.81382585295236
30
0
41
1
10
95.8445148550117
20
-7.82699043407027
30
0
41
1
10
95.8704962544725
20
-7.83679055571369
30
0
41
1
10
95.8944796253148
20
-7.84999820330913
30
0
0
SPLINE
5
DF
100
AcDbEntity
8
1
62
256
6
ByLayer
370
-1
48
1
60
0
100
AcDbSpline
70
4
71
3
72
18
73
14
40
0
40
0
40
0
40
0
40
0.209622797225666
40
0.209622797225666
40
0.384244146118771
40
0.384244146118771
40
0.560580467204503
40
0.560580467204503
40
0.713637341969979
40
0.713637341969979
40
0.915981900775281
40
0.915981900775281
40
1
40
1
40
1
40
1
41
1
10
95.5569603204611
20
-7.90669687814682
30
0
41
1
10
95.5124053340669
20
-7.95811324728217
30
0
41
1
10
95.458259656857
20
-8.00361236091203
30
0
41
1
10
95.3446116712533
20
-8.06870415415105
30
0
41
1
10
95.2861266075784
20
-8.09194363383548
30
0
41
1
10
95.1619189854223
20
-8.1199479360362
30
0
41
1
10
95.094207543888
20
-8.12474861005992
30
0
41
1
10
94.9706868838908
20
-8.11491607688978
30
0
41
1
10
94.9130220550202
20
-8.10273727812898
30
0
41
1
10
94.7881294099447
20
-8.06062351749571
30
0
41
1
10
94.7215964061838
20
-8.02574603319411
30
0
41
1
10
94.6388227215576
20
-7.96646078150997
30
0
41
1
10
94.6155784283849
20
-7.9476080482159
30
0
41
1
10
94.5936994406509
20
-7.92765942886192
30
0
0
SPLINE
5
E0
100
AcDbEntity
8
1
62
256
6
ByLayer
370
-1
48
1
60
0
100
AcDbSpline
70
4
71
3
72
12
73
8
40
0
40
0
40
0
40
0
40
0.0919104878397109
40
0.0919104878397109
40
0.444793626170526
40
0.444793626170526
40
1
40
1
40
1
40
1
41
1
10
96.1021921886538
20
-8.6335100031832
30
0
41
1
10
96.0959535556615
20
-8.61981131186539
30
0
41
1
10
96.0901299268842
20
-8.60593104238905
30
0
41
1
10
96.064164086477
20
-8.53851511785564
30
0
41
1
10
96.049847473414
20
-8.48290046407544
30
0
41
1
10
96.0295061590675
20
-8.34350313335352
30
0
41
1
10
96.0321433645667
20
-8.25870280299188
30
0
41
1
10
96.0473971143221
20
-8.18041490833107
30
0
0
SPLINE
5
E1
100
AcDbEntity
8
1
62
256
6
ByLayer
370
-1
48
1
60
0
100
AcDbSpline
70
4
71
3
72
18
73
14
40
0
40
0
40
0
40
0
40
0.0293455042699714
40
0.0293455042699714
40
0.250861457402083
40
0.250861457402083
40
0.473242335165978
40
0.473242335165978
40
0.708398518658952
40
0.708398518658952
40
0.965768112396686
40
0.965768112396686
40
1
40
1
40
1
40
1
41
1
10
95.8944796253148
20
-7.84999820330913
30
0
41
1
10
95.897944274308
20
-7.85190618627132
30
0
41
1
10
95.9013748850545
20
-7.85388695209392
30
0
41
1
10
95.9300999606769
20
-7.8712547316872
30
0
41
1
10
95.9535541538709
20
-7.89081657128963
30
0
41
1
10
95.9931757133158
20
-7.9350770572174
30
0
41
1
10
96.0098364538629
20
-7.96034642607827
30
0
41
1
10
96.0356358942739
20
-8.01445425093212
30
0
41
1
10
96.0446383809903
20
-8.04407973035543
30
0
41
1
10
96.054266606688
20
-8.10535785737122
30
0
41
1
10
96.054176324268
20
-8.13770267056637
30
0
41
1
10
96.0488924080573
20
-8.17230025808061
30
0
41
1
10
96.0481847761113
20
-8.17637233623043
30
0
41
1
10
96.047397114322
20
-8.18041490833104
30
0
0
SPLINE
5
E2
100
AcDbEntity
8
1
62
256
6
ByLayer
370
-1
48
1
60
0
100
AcDbSpline
70
4
71
3
72
16
73
12
40
0
40
0
40
0
40
0
40
0.151260325441156
40
0.151260325441156
40
0.371650216721319
40
0.371650216721319
40
0.599704410596245
40
0.599704410596245
40
0.846012716341595
40
0.846012716341595
40
1
40
1
40
1
40
1
41
1
10
94.2862988370093
20
-10.7906692551647
30
0
41
1
10
94.26861236857
20
-10.780929313107
30
0
41
1
10
94.2519503688346
20
-10.7692667522633
30
0
41
1
10
94.2150995405427
20
-10.7370803395766
30
0
41
1
10
94.1963434045055
20
-10.7144848329497
30
0
41
1
10
94.166953461424
20
-10.6652629220119
30
0
41
1
10
94.1562299922679
20
-10.6379172323845
30
0
41
1
10
94.1434388975286
20
-10.5806230981024
30
0
41
1
10
94.1419393468594
20
-10.5499331480678
30
0
41
1
10
94.1471781655225
20
-10.5018766506147
30
0
41
1
10
94.15106290227
20
-10.4835685872987
30
0
41
1
10
94.1566142957951
20
-10.4659308677495
30
0
0
SPLINE
5
E3
100
AcDbEntity
8
1
62
256
6
ByLayer
370
-1
48
1
60
0
100
AcDbSpline
70
4
71
3
72
14
73
10
40
0
40
0
40
0
40
0
40
0.195277367341276
40
0.195277367341276
40
0.492637929118678
40
0.492637929118678
40
0.76120965243104
40
0.76120965243104
40
1
40
1
40
1
40
1
41
1
10
94.1132302732537
20
-8.21922832692476
30
0
41
1
10
94.1057047191782
20
-8.19673451805829
30
0
41
1
10
94.1007601359901
20
-8.1730900255113
30
0
41
1
10
94.0958053057915
20
-8.11282714813723
30
0
41
1
10
94.0997544927328
20
-8.07478308364358
30
0
41
1
10
94.1214657634425
20
-8.00669088097814
30
0
41
1
10
94.1382553511302
20
-7.97520120807633
30
0
41
1
10
94.1800077045996
20
-7.92398176777323
30
0
41
1
10
94.2044794878854
20
-7.90262484870175
30
0
41
1
10
94.2315676543035
20
-7.88618661006149
30
0
0
SPLINE
5
E4
100
AcDbEntity
8
1
62
256
6
ByLayer
370
-1
48
1
60
0
100
AcDbSpline
70
4
71
3
72
14
73
10
40
0
40
0
40
0
40
0
40
0.251014758615044
40
0.251014758615044
40
0.539642357753405
40
0.539642357753405
40
0.800490157405963
40
0.800490157405963
40
1
40
1
40
1
40
1
41
1
10
96.5472819636465
20
-9.01517318163911
30
0
41
1
10
96.5745346487731
20
-9.02175168072341
30
0
41
1
10
96.6015107315009
20
-9.03307727354422
30
0
41
1
10
96.6547543956227
20
-9.06699349725392
30
0
41
1
10
96.6811320402651
20
-9.09164699816907
30
0
41
1
10
96.7212147116971
20
-9.14755945948866
30
0
41
1
10
96.7364554603998
20
-9.17884577106494
30
0
41
1
10
96.7530732864822
20
-9.23727289443272
30
0
41
1
10
96.7570553680402
20
-9.26426357438788
30
0
41
1
10
96.7574488556577
20
-9.29107149371276
30
0
0
SPLINE
5
E5
100
AcDbEntity
8
1
62
256
6
ByLayer
370
-1
48
1
60
0
100
AcDbSpline
70
4
71
3
72
12
73
8
40
0
40
0
40
0
40
0
40
0.223948382809135
40
0.223948382809135
40
0.684251034462612
40
0.684251034462612
40
1
40
1
40
1
40
1
41
1
10
96.5472819636465
20
-9.01517318163923
30
0
41
1
10
96.5177825432662
20
-9.00805234532316
30
0
41
1
10
96.4884257199965
20
-8.99860499876092
30
0
41
1
10
96.4004093560085
20
-8.96258857363944
30
0
41
1
10
96.3421755635728
20
-8.92778459810592
30
0
41
1
10
96.2527272853715
20
-8.85208310844942
30
0
41
1
10
96.2181242044862
20
-8.81591566680007
30
0
41
1
10
96.1874562781068
20
-8.77589260226213
30
0
0
SPLINE
5
E6
100
AcDbEntity
8
SK1
62
256
6
ByLayer
370
-1
48
1
60
0
100
AcDbSpline
70
4
71
3
72
10
73
6
40
0
40
0
40
0
40
0
40
0.5
40
0.5
40
1
40
1
40
1
40
1
41
1
10
-199.32
20
-4.87661015076048
30
0
41
1
10
-199.931278087239
20
-3.31084475816917
30
0
41
1
10
-200.311010085058
20
-1.68546685393193
30
0
41
1
10
-200.311489681707
20
1.6821913662468
30
0
41
1
10
-199.931860983986
20
3.30935169049232
30
0
41
1
10
-199.32
20
4.87661015076051
30
0
0
LINE
5
49
100
AcDbEntity
8
80
62
256
6
ByLayer
370
-1
48
1
60
0
100
AcDbLine
10
0
20
0
30
0
11
-10
21
0
31
0
39
0
210
0
220
0
230
1
0
LINE
5
4A
100
AcDbEntity
8
81
62
256
6
ByLayer
370
-1
48
1
60
0
100
AcDbLine
10
99.93
20
-16.9
30
0
11
109.93
21
-16.9
31
0
39
0
210
0
220
0
230
1
0
LINE
5
4B
100
AcDbEntity
8
1
62
256
6
ByLayer
370
-1
48
1
60
0
100
AcDbLine
10
78.285851
20
12.49125
30
0
11
0
21
12.49125
31
0
39
0
210
0
220
0
230
1
0
LINE
5
4C
100
AcDbEntity
8
1
62
256
6
ByLayer
370
-1
48
1
60
0
100
AcDbLine
10
78.360851
20
12.41625
30
0
11
78.285851
21
12.49125
31
0
39
0
210
0
220
0
230
1
0
LINE
5
4D
100
AcDbEntity
8
1
62
256
6
ByLayer
370
-1
48
1
60
0
100
AcDbLine
10
79.412521
20
12.41625
30
0
11
78.360851
21
12.41625
31
0
39
0
210
0
220
0
230
1
0
LINE
5
4E
100
AcDbEntity
8
SK1
62
256
6
ByLayer
370
-1
48
1
60
0
100
AcDbLine
10
-199.32
20
12.49125
30
0
11
-201.32
21
10.49125
31
0
39
0
210
0
220
0
230
1
0
LINE
5
50
100
AcDbEntity
8
SK1
62
256
6
ByLayer
370
-1
48
1
60
0
100
AcDbLine
10
0
20
12.49125
30
0
11
-199.32
21
12.49125
31
0
39
0
210
0
220
0
230
1
0
LINE
5
51
100
AcDbEntity
8
1
62
256
6
ByLayer
370
-1
48
1
60
0
100
AcDbLine
10
95.438458
20
-10.581935
30
0
11
95.31482
21
-10.551717
31
0
39
0
210
0
220
0
230
1
0
LINE
5
52
100
AcDbEntity
8
1
62
256
6
ByLayer
370
-1
48
1
60
0
100
AcDbLine
10
95.86055
20
-6.806302
30
0
11
95.742524
21
-6.777455
31
0
39
0
210
0
220
0
230
1
0
LINE
5
53
100
AcDbEntity
8
1
62
256
6
ByLayer
370
-1
48
1
60
0
100
AcDbLine
10
94.496071
20
-11.877343
30
0
11
94.614096
21
-11.906189
31
0
39
0
210
0
220
0
230
1
0
LINE
5
54
100
AcDbEntity
8
1
62
256
6
ByLayer
370
-1
48
1
60
0
100
AcDbLine
10
94.917782
20
-8.101616
30
0
11
95.041435
21
-8.131838
31
0
39
0
210
0
220
0
230
1
0
LINE
5
55
100
AcDbEntity
8
SK4
62
256
6
ByLayer
370
-1
48
0.05
60
0
100
AcDbLine
10
-206.32
20
0
30
0
11
104.324906
21
0
31
0
39
0
210
0
220
0
230
1
0
LINE
5
57
100
AcDbEntity
8
4
62
256
6
ByLayer
370
-1
48
0.05
60
0
100
AcDbLine
10
0
20
0
30
0
11
104.324906
21
0
31
0
39
0
210
0
220
0
230
1
0
LINE
5
59
100
AcDbEntity
8
1
62
256
6
ByLayer
370
-1
48
1
60
0
100
AcDbLine
10
79.412521
20
12.41625
30
0
11
79.53552
21
12.343424
31
0
39
0
210
0
220
0
230
1
0
LINE
5
5A
100
AcDbEntity
8
1
62
256
6
ByLayer
370
-1
48
1
60
0
100
AcDbLine
10
99.07462
20
-1.591224
30
0
11
99.072478
21
-1.468493
31
0
39
0
210
0
220
0
230
1
0
LINE
5
5B
100
AcDbEntity
8
1
62
256
6
ByLayer
370
-1
48
1
60
0
100
AcDbLine
10
88.798028
20
-11.82358
30
0
11
94.972602
21
-15.21121
31
0
39
0
210
0
220
0
230
1
0
LINE
5
5C
100
AcDbEntity
8
1
62
256
6
ByLayer
370
-1
48
1
60
0
100
AcDbLine
10
95.986568
20
-16.316217
30
0
11
95.968043
21
-15.254946
31
0
39
0
210
0
220
0
230
1
0
LINE
5
5D
100
AcDbEntity
8
1
62
256
6
ByLayer
370
-1
48
1
60
0
100
AcDbLine
10
66.671936
20
-10.00875
30
0
11
77.603351
21
-10.00875
31
0
39
0
210
0
220
0
230
1
0
LINE
5
5E
100
AcDbEntity
8
1
62
256
6
ByLayer
370
-1
48
1
60
0
100
AcDbLine
10
94.897618
20
-15.192883
30
0
11
88.654934
21
-11.788607
31
0
39
0
210
0
220
0
230
1
0
LINE
5
5F
100
AcDbEntity
8
1
62
256
6
ByLayer
370
-1
48
1
60
0
100
AcDbLine
10
86.84641
20
-11.284024
30
0
11
86.304972
21
-11.151692
31
0
39
0
210
0
220
0
230
1
0
LINE
5
60
100
AcDbEntity
8
1
62
256
6
ByLayer
370
-1
48
1
60
0
100
AcDbLine
10
89.266006
20
-11.539592
30
0
11
88.798028
21
-11.82358
31
0
39
0
210
0
220
0
230
1
0
LINE
5
61
100
AcDbEntity
8
1
62
256
6
ByLayer
370
-1
48
1
60
0
100
AcDbLine
10
86.782848
20
-8.284888
30
0
11
99.061399
21
-0.833747
31
0
39
0
210
0
220
0
230
1
0
LINE
5
62
100
AcDbEntity
8
1
62
256
6
ByLayer
370
-1
48
1
60
0
100
AcDbLine
10
79.53552
20
12.343424
30
0
11
88.143432
21
7.246782
31
0
39
0
210
0
220
0
230
1
0
LINE
5
63
100
AcDbEntity
8
1
62
256
6
ByLayer
370
-1
48
1
60
0
100
AcDbLine
10
99.072478
20
-1.468493
30
0
11
99.061399
21
-0.833747
31
0
39
0
210
0
220
0
230
1
0
LINE
5
64
100
AcDbEntity
8
1
62
256
6
ByLayer
370
-1
48
1
60
0
100
AcDbLine
10
88.654934
20
-11.788607
30
0
11
88.798028
21
-11.82358
31
0
39
0
210
0
220
0
230
1
0
LINE
5
65
100
AcDbEntity
8
1
62
256
6
ByLayer
370
-1
48
1
60
0
100
AcDbLine
10
94.897618
20
-15.192883
30
0
11
94.972602
21
-15.21121
31
0
39
0
210
0
220
0
230
1
0
LINE
5
66
100
AcDbEntity
8
1
62
256
6
ByLayer
370
-1
48
1
60
0
100
AcDbLine
10
78.360851
20
12.41625
30
0
11
78.360851
21
12.258194
31
0
39
0
210
0
220
0
230
1
0
LINE
5
67
100
AcDbEntity
8
1
62
256
6
ByLayer
370
-1
48
1
60
0
100
AcDbLine
10
94.897618
20
-15.192883
30
0
11
94.916988
21
-16.302592
31
0
39
0
210
0
220
0
230
1
0
LINE
5
68
100
AcDbEntity
8
1
62
256
6
ByLayer
370
-1
48
1
60
0
100
AcDbLine
10
86.974478
20
-11.497884
30
0
11
86.434425
21
-11.365891
31
0
39
0
210
0
220
0
230
1
0
LINE
5
69
100
AcDbEntity
8
1
62
256
6
ByLayer
370
-1
48
1
60
0
100
AcDbLine
10
82.482167
20
-13.873277
30
0
11
88.143432
21
7.246782
31
0
39
0
210
0
220
0
230
1
0
LINE
5
6A
100
AcDbEntity
8
1
62
256
6
ByLayer
370
-1
48
1
60
0
100
AcDbLine
10
99.061011
20
-0.811544
30
0
11
99.032894
21
0.799261
31
0
39
0
210
0
220
0
230
1
0
LINE
5
6B
100
AcDbEntity
8
1
62
256
6
ByLayer
370
-1
48
1
60
0
100
AcDbLine
10
86.84641
20
-11.284024
30
0
11
86.974478
21
-11.497884
31
0
39
0
210
0
220
0
230
1
0
LINE
5
6C
100
AcDbEntity
8
1
62
256
6
ByLayer
370
-1
48
1
60
0
100
AcDbLine
10
88.654934
20
-11.788607
30
0
11
88.50411
21
-11.878704
31
0
39
0
210
0
220
0
230
1
0
LINE
5
6D
100
AcDbEntity
8
1
62
256
6
ByLayer
370
-1
48
1
60
0
100
AcDbLine
10
0
20
4.87661
30
0
11
0
21
12.49125
31
0
39
0
210
0
220
0
230
1
0
LINE
5
6E
100
AcDbEntity
8
1
62
256
6
ByLayer
370
-1
48
1
60
0
100
AcDbLine
10
88.143432
20
7.246782
30
0
11
99.032894
21
0.799261
31
0
39
0
210
0
220
0
230
1
0
LINE
5
6F
100
AcDbEntity
8
1
62
256
6
ByLayer
370
-1
48
1
60
0
100
AcDbLine
10
0
20
4.87661
30
0
11
67.882277
21
4.87661
31
0
39
0
210
0
220
0
230
1
0
LINE
5
70
100
AcDbEntity
8
1
62
256
6
ByLayer
370
-1
48
1
60
0
100
AcDbLine
10
77.603351
20
-10.00875
30
0
11
80.009693
21
-12.415092
31
0
39
0
210
0
220
0
230
1
0
LINE
5
71
100
AcDbEntity
8
1
62
256
6
ByLayer
370
-1
48
1
60
0
100
AcDbLine
10
99.061011
20
-0.811544
30
0
11
86.617999
21
-8.244598
31
0
39
0
210
0
220
0
230
1
0
LINE
5
72
100
AcDbEntity
8
1
62
256
6
ByLayer
370
-1
48
1
60
0
100
AcDbLine
10
98.901511
20
-1.572244
30
0
11
99.072478
21
-1.468493
31
0
39
0
210
0
220
0
230
1
0
LINE
5
73
100
AcDbEntity
8
1
62
256
6
ByLayer
370
-1
48
1
60
0
100
AcDbLine
10
94.991233
20
-16.278572
30
0
11
94.972602
21
-15.21121
31
0
39
0
210
0
220
0
230
1
0
LINE
5
74
100
AcDbEntity
8
1
62
256
6
ByLayer
370
-1
48
1
60
0
100
AcDbLine
10
65.394655
20
-4.87661
30
0
11
0
21
-4.87661
31
0
39
0
210
0
220
0
230
1
0
LINE
5
75
100
AcDbEntity
8
1
62
256
6
ByLayer
370
-1
48
1
60
0
100
AcDbLine
10
86.183899
20
-10.901404
30
0
11
86.726623
21
-11.03405
31
0
39
0
210
0
220
0
230
1
0
LINE
5
76
100
AcDbEntity
8
1
62
256
6
ByLayer
370
-1
48
1
60
0
100
AcDbLine
10
99.061399
20
-0.833747
30
0
11
99.061011
21
-0.811544
31
0
39
0
210
0
220
0
230
1
0
LINE
5
77
100
AcDbEntity
8
1
62
256
6
ByLayer
370
-1
48
1
60
0
100
AcDbLine
10
0
20
-10.00875
30
0
11
66.671936
21
-10.00875
31
0
39
0
210
0
220
0
230
1
0
LINE
5
78
100
AcDbEntity
8
1
62
256
6
ByLayer
370
-1
48
1
60
0
100
AcDbLine
10
86.782848
20
-8.284888
30
0
11
86.617999
21
-8.244598
31
0
39
0
210
0
220
0
230
1
0
LINE
5
79
100
AcDbEntity
8
1
62
256
6
ByLayer
370
-1
48
1
60
0
100
AcDbLine
10
96.347616
20
-15.746494
30
0
11
96.34266
21
-15.462603
31
0
39
0
210
0
220
0
230
1
0
LINE
5
7A
100
AcDbEntity
8
1
62
256
6
ByLayer
370
-1
48
1
60
0
100
AcDbLine
10
78.285851
20
12.49125
30
0
11
78.285851
21
12.325547
31
0
39
0
210
0
220
0
230
1
0
LINE
5
7B
100
AcDbEntity
8
1
62
256
6
ByLayer
370
-1
48
1
60
0
100
AcDbLine
10
0
20
-4.87661
30
0
11
0
21
4.87661
31
0
39
0
210
0
220
0
230
1
0
LINE
5
7C
100
AcDbEntity
8
1
62
256
6
ByLayer
370
-1
48
1
60
0
100
AcDbLine
10
0
20
-4.87661
30
0
11
0
21
-10.00875
31
0
39
0
210
0
220
0
230
1
0
LINE
5
7D
100
AcDbEntity
8
1
62
256
6
ByLayer
370
-1
48
1
60
0
100
AcDbLine
10
86.304972
20
-11.151692
30
0
11
86.434425
21
-11.365891
31
0
39
0
210
0
220
0
230
1
0
LINE
5
7E
100
AcDbEntity
8
SK1
62
256
6
ByLayer
370
-1
48
1
60
0
100
AcDbLine
10
0
20
12.49125
30
0
11
0
21
4.87661
31
0
39
0
210
0
220
0
230
1
0
LINE
5
7F
100
AcDbEntity
8
SK1
62
256
6
ByLayer
370
-1
48
1
60
0
100
AcDbLine
10
-199.32
20
-10.00875
30
0
11
0
21
-10.00875
31
0
39
0
210
0
220
0
230
1
0
LINE
5
80
100
AcDbEntity
8
1
62
256
6
ByLayer
370
-1
48
1
60
0
100
AcDbLine
10
99.690032
20
-2.349632
30
0
11
99.929879
21
-16.090443
31
0
39
0
210
0
220
0
230
1
0
LINE
5
81
100
AcDbEntity
8
1
62
256
6
ByLayer
370
-1
48
1
60
0
100
AcDbLine
10
86.775423
20
-8.798123
30
0
11
98.494172
21
-1.686693
31
0
39
0
210
0
220
0
230
1
0
LINE
5
82
100
AcDbEntity
8
1
62
256
6
ByLayer
370
-1
48
1
60
0
100
AcDbLine
10
98.758004
20
-16.801586
30
0
11
86.799408
21
-10.172204
31
0
39
0
210
0
220
0
230
1
0
LINE
5
83
100
AcDbEntity
8
1
62
256
6
ByLayer
370
-1
48
1
60
0
100
AcDbLine
10
94.251354
20
-8.252987
30
0
11
94.11323
21
-8.219228
31
0
39
0
210
0
220
0
230
1
0
LINE
5
84
100
AcDbEntity
8
1
62
256
6
ByLayer
370
-1
48
1
60
0
100
AcDbLine
10
94.256623
20
-10.050671
30
0
11
94.135545
21
-10.021079
31
0
39
0
210
0
220
0
230
1
0
LINE
5
85
100
AcDbEntity
8
1
62
256
6
ByLayer
370
-1
48
1
60
0
100
AcDbLine
10
93.783173
20
-9.100684
30
0
11
93.645049
21
-9.066925
31
0
39
0
210
0
220
0
230
1
0
LINE
5
86
100
AcDbEntity
8
1
62
256
6
ByLayer
370
-1
48
1
60
0
100
AcDbLine
10
94.294555
20
-10.499645
30
0
11
94.156614
21
-10.465931
31
0
39
0
210
0
220
0
230
1
0
LINE
5
87
100
AcDbEntity
8
1
62
256
6
ByLayer
370
-1
48
1
60
0
100
AcDbLine
10
95.695084
20
-7.940455
30
0
11
95.55696
21
-7.906697
31
0
39
0
210
0
220
0
230
1
0
LINE
5
88
100
AcDbEntity
8
1
62
256
6
ByLayer
370
-1
48
1
60
0
100
AcDbLine
10
95.74807
20
-10.752356
30
0
11
95.609947
21
-10.718597
31
0
39
0
210
0
220
0
230
1
0
LINE
5
89
100
AcDbEntity
8
1
62
256
6
ByLayer
370
-1
48
1
60
0
100
AcDbLine
10
94.050281
20
-9.878696
30
0
11
94.171359
21
-9.908288
31
0
39
0
210
0
220
0
230
1
0
LINE
5
8A
100
AcDbEntity
8
1
62
256
6
ByLayer
370
-1
48
1
60
0
100
AcDbLine
10
93.794671
20
-9.664886
30
0
11
93.656729
21
-9.631173
31
0
39
0
210
0
220
0
230
1
0
LINE
5
8B
100
AcDbEntity
8
SK1
62
256
6
ByLayer
370
-1
48
1
60
0
100
AcDbLine
10
0
20
-4.87661
30
0
11
-199.32
21
-4.87661
31
0
39
0
210
0
220
0
230
1
0
LINE
5
8C
100
AcDbEntity
8
SK1
62
256
6
ByLayer
370
-1
48
1
60
0
100
AcDbLine
10
0
20
-4.87661
30
0
11
0
21
4.87661
31
0
39
0
210
0
220
0
230
1
0
LINE
5
8D
100
AcDbEntity
8
SK1
62
256
6
ByLayer
370
-1
48
1
60
0
100
AcDbLine
10
-199.32
20
4.87661
30
0
11
0
21
4.87661
31
0
39
0
210
0
220
0
230
1
0
LINE
5
8E
100
AcDbEntity
8
SK1
62
256
6
ByLayer
370
-1
48
1
60
0
100
AcDbLine
10
-201.32
20
10.49125
30
0
11
-201.32
21
-10.00875
31
0
39
0
210
0
220
0
230
1
0
LINE
5
8F
100
AcDbEntity
8
SK1
62
256
6
ByLayer
370
-1
48
1
60
0
100
AcDbLine
10
-199.32
20
-4.87661
30
0
11
-199.32
21
-10.00875
31
0
39
0
210
0
220
0
230
1
0
LINE
5
90
100
AcDbEntity
8
SK1
62
256
6
ByLayer
370
-1
48
1
60
0
100
AcDbLine
10
-199.32
20
12.49125
30
0
11
-199.32
21
4.87661
31
0
39
0
210
0
220
0
230
1
0
LINE
5
91
100
AcDbEntity
8
SK1
62
256
6
ByLayer
370
-1
48
1
60
0
100
AcDbLine
10
0
20
-4.87661
30
0
11
0
21
-10.00875
31
0
39
0
210
0
220
0
230
1
0
LINE
5
92
100
AcDbEntity
8
2
62
256
6
ByLayer
370
-1
48
1
60
1
100
AcDbLine
10
99.93
20
0
30
0
11
99.931
21
0.001
31
0
39
0
210
0
220
0
230
1
0
MTEXT
5
E7
100
AcDbEntity
8
SK6
62
256
6
ByLayer
370
-1
48
1
60
0
100
AcDbMText
10
-47.32
20
18.662506
30
0
210
0
220
0
230
1
1
\W00.797;\fsimplex.shx,bigfont.shx;A25T-STFPL 16 
40
3.5
41
0
44
1.084337
50
0
71
7
72
5
7
DEFAULT
0
DIMENSION
5
11A
100
AcDbEntity
8
2
62
256
6
ByLayer
370
-3
48
1
60
0
100
AcDbDimension
2
DimnDraft3D1
10
112.18
20
0
30
0
11
112.18
21
-13.050658
31
0
70
32
71
5
72
1
41
1
210
0
220
0
230
1
3
Standard
100
AcDbAlignedDimension
13
101.93
23
-16.9
33
0
14
101.93
24
0
34
0
50
90
100
AcDbRotatedDimension
1001
ACAD
1000
DSTYLE
1002
{
1070
    74
1070
     0
1070
   279
1070
     0
1070
   172
1070
     1
1070
   173
1070
     1
1070
   340
1005
E8
1070
    77
1070
     1
1070
    73
1070
     0
1070
   171
1070
     4
1070
   274
1070
     4
1070
   177
1070
     2
1070
   176
1070
     2
1070
   178
1070
     7
1070
    78
1070
     8
1070
    41
1041
3.175
1070
   147
1041
2.25
1070
    42
1041
2.0
1070
    44
1041
2.0
1070
   140
1041
4.5
1070
   343
1005
11B
1070
   344
1005
11B
1002
}
0
DIMENSION
5
130
100
AcDbEntity
8
SK2
62
256
6
ByLayer
370
-3
48
1
60
0
100
AcDbDimension
2
DimnDraft3D2
10
-211.07
20
12.49125
30
0
11
-211.07
21
-4.784211
31
0
70
32
71
5
72
1
41
1
210
0
220
0
230
1
3
Standard
100
AcDbAlignedDimension
13
-203.32
23
-12.49125
33
0
14
-203.32
24
12.49125
34
0
50
90
100
AcDbRotatedDimension
1001
ACAD
1000
DSTYLE
1002
{
1070
    74
1070
     0
1070
   279
1070
     0
1070
   172
1070
     1
1070
   173
1070
     1
1070
   340
1005
E8
1070
    77
1070
     1
1070
    73
1070
     0
1070
   171
1070
     4
1070
   274
1070
     4
1070
   177
1070
     2
1070
   176
1070
     2
1070
   178
1070
     7
1070
    78
1070
     8
1070
    41
1041
3.175
1070
   147
1041
2.25
1070
    42
1041
2.0
1070
    44
1041
2.0
1070
   140
1041
4.5
1070
   343
1005
11B
1070
   344
1005
11B
1002
}
0
DIMENSION
5
13E
100
AcDbEntity
8
SK2
62
256
6
ByLayer
370
-3
48
1
60
0
100
AcDbDimension
2
DimnDraft3D3
10
99.93
20
-34.15
30
0
11
-57.510132
21
-34.15
31
0
70
32
71
5
72
1
41
1
210
0
220
0
230
1
3
Standard
100
AcDbAlignedDimension
13
-201.32
23
-14.49125
33
0
14
99.93
24
-18.9
34
0
50
0
100
AcDbRotatedDimension
1001
ACAD
1000
DSTYLE
1002
{
1070
   279
1070
     0
1070
   172
1070
     1
1070
   173
1070
     1
1070
   340
1005
E8
1070
    77
1070
     1
1070
    73
1070
     0
1070
   171
1070
     4
1070
   274
1070
     4
1070
   177
1070
     2
1070
   176
1070
     2
1070
   178
1070
     7
1070
    78
1070
     8
1070
    41
1041
3.175
1070
   147
1041
2.25
1070
    42
1041
2.0
1070
    44
1041
2.0
1070
   140
1041
4.5
1070
   343
1005
11B
1070
   344
1005
11B
1002
}
0
DIMENSION
5
14C
100
AcDbEntity
8
2
62
256
6
ByLayer
370
-3
48
1
60
0
100
AcDbDimension
2
DimnDraft3D4
10
139.561416
20
0
30
0
11
123.652072
21
32.727109
31
0
70
34
71
5
72
1
41
1
210
0
220
0
230
1
3
Standard
100
AcDb2LineAngularDimension
13
99.615857
23
1.097259
33
0
14
98.938198
24
39.920326
34
0
15
101.93
25
0
35
0
16
129.372071
26
30.260654
36
0
40
0
0
ENDSEC
0
SECTION
2
OBJECTS
0
DICTIONARY
5
17d
330
0
100
AcDbDictionary
280
0
281
1
3
ACAD_GROUP
350
17e
3
ACAD_MLINESTYLE
350
17f
0
DICTIONARY
5
17e
330
0
100
AcDbDictionary
280
0
281
1
0
DICTIONARY
5
17f
330
0
100
AcDbDictionary
280
0
281
1
3
Standard
350
18
0
MLINESTYLE
5
18
330
17f
100
AcDbMlineStyle
2
Standard
70
0
3

62
256
51
90
52
90
71
2
49
-0.5
62
256
6
ByLayer
49
0.5
62
256
6
ByLayer
0
RASTERVARIABLES
5
16b
330

100
AcDbRasterVariables
90
0
70
1
71
1
72
1
0
ENDSEC
0
EOF
