0
SECTION
2
HEADER
9
$ACADVER
1
AC1015
9
$DWGCODEPAGE
3
ANSI_1252
9
$HANDSEED
5
179
9
$ANGBASE
50
0
9
$ANGDIR
70
0
9
$ATTMODE
70
1
9
$AUNITS
70
0
9
$AUPREC
70
0
9
$CECOLOR
62
256
9
$CELTSCALE
40
1
9
$CELTYPE
6
ByLayer
9
$CELWEIGHT
370
-1
9
$CLAYER
8
0
9
$CMLJUST
70
0
9
$CMLSCALE
40
1
9
$CMLSTYLE
2
Standard
9
$DIMSTYLE
2
Standard
9
$TEXTSIZE
40
0.2
9
$TEXTSTYLE
7
Standard
9
$LUNITS
70
2
9
$LUPREC
70
4
9
$EXTNAMES
290
1
9
$INSUNITS
70
4
9
$LTSCALE
40
1
9
$LWDISPLAY
290
0
9
$PDMODE
70
0
9
$PDSIZE
40
0
9
$PLINEGEN
70
0
0
ENDSEC
0
SECTION
2
CLASSES
0
CLASS
1
RASTERVARIABLES
2
AcDbRasterVariables
3
ISM
90
0
280
0
281
0
0
ENDSEC
0
SECTION
2
TABLES
0
TABLE
2
VPORT
5
16f
100
AcDbSymbolTable
0
VPORT
5
1
100
AcDbSymbolTableRecord
100
AcDbViewportTableRecord
2
*Active
70
0
10
0
20
0
11
1
21
1
12
-1
22
1
13
0
23
0
14
0.5
24
0.5
15
10
25
10
16
0
26
0
36
1
17
0
27
0
37
0
0
ENDTAB
0
TABLE
2
LTYPE
5
170
100
AcDbSymbolTable
0
LTYPE
5
14
100
AcDbSymbolTableRecord
100
AcDbLinetypeTableRecord
70
0
2
ByBlock
3

72
65
73
0
40
0
0
LTYPE
5
15
100
AcDbSymbolTableRecord
100
AcDbLinetypeTableRecord
70
0
2
ByLayer
3

72
65
73
0
40
0
0
LTYPE
5
16
100
AcDbSymbolTableRecord
100
AcDbLinetypeTableRecord
70
0
2
CONTINUOUS
3
Solid line
72
65
73
0
40
0
0
LTYPE
5
3B
100
AcDbSymbolTableRecord
100
AcDbLinetypeTableRecord
70
0
2
DASHED
3
__ __ __ __ __ __ __ __ __
72
65
73
2
40
25.72
49
12.86
74
0
49
-12.86
74
0
0
LTYPE
5
3C
100
AcDbSymbolTableRecord
100
AcDbLinetypeTableRecord
70
0
2
HIDDEN
3
_ _ _ _ _ _ _ _ _ _ _ _ _ _ _
72
65
73
2
40
0.5
49
0.25
74
0
49
-0.25
74
0
0
LTYPE
5
3D
100
AcDbSymbolTableRecord
100
AcDbLinetypeTableRecord
70
0
2
PHANTOM
3
____ _ _ ____ _ _ _____ _ _ ____
72
65
73
6
40
50.5
49
18
74
0
49
-6.5
74
0
49
6.5
74
0
49
-6.5
74
0
49
6.5
74
0
49
-6.5
74
0
0
LTYPE
5
3E
100
AcDbSymbolTableRecord
100
AcDbLinetypeTableRecord
70
0
2
CENTER
3
____ _ ____ _ ____ _ ____
72
65
73
4
40
47.5
49
22
74
0
49
-8.5
74
0
49
8.5
74
0
49
-8.5
74
0
0
LTYPE
5
3F
100
AcDbSymbolTableRecord
100
AcDbLinetypeTableRecord
70
0
2
DOT
3
.........................
72
65
73
2
40
10
49
0
74
0
49
-10
74
0
0
LTYPE
5
40
100
AcDbSymbolTableRecord
100
AcDbLinetypeTableRecord
70
0
2
DASHDOT
3
_._._._._._._._._._._._._._._._.
72
65
73
4
40
70
49
31
74
0
49
-13
74
0
49
13
74
0
49
-13
74
0
0
ENDTAB
0
TABLE
2
LAYER
5
171
100
AcDbSymbolTable
0
LAYER
5
10
100
AcDbSymbolTableRecord
100
AcDbLayerTableRecord
2
0
70
0
62
7
6
CONTINUOUS
290
1
370
-3
390
0
0
LAYER
5
42
100
AcDbSymbolTableRecord
100
AcDbLayerTableRecord
2
80
70
0
62
-6
6
CONTINUOUS
290
1
370
-3
390
0
0
LAYER
5
44
100
AcDbSymbolTableRecord
100
AcDbLayerTableRecord
2
81
70
0
62
-3
6
CONTINUOUS
290
1
370
-3
390
0
0
LAYER
5
46
100
AcDbSymbolTableRecord
100
AcDbLayerTableRecord
2
1
70
0
62
4
6
CONTINUOUS
290
1
370
-3
390
0
0
LAYER
5
48
100
AcDbSymbolTableRecord
100
AcDbLayerTableRecord
2
2
70
0
62
7
6
CONTINUOUS
290
1
370
-3
390
0
0
LAYER
5
4E
100
AcDbSymbolTableRecord
100
AcDbLayerTableRecord
2
4
70
0
62
-2
6
CENTER
290
1
370
-3
390
0
0
LAYER
5
15b
100
AcDbSymbolTableRecord
100
AcDbLayerTableRecord
2
SK4
70
0
62
2
6
CENTER
290
1
370
-3
390
0
0
LAYER
5
15c
100
AcDbSymbolTableRecord
100
AcDbLayerTableRecord
2
SK1
70
0
62
4
6
CONTINUOUS
290
1
370
-3
390
0
0
LAYER
5
15d
100
AcDbSymbolTableRecord
100
AcDbLayerTableRecord
2
SK6
70
0
62
5
6
CONTINUOUS
290
1
370
-3
390
0
0
LAYER
5
15e
100
AcDbSymbolTableRecord
100
AcDbLayerTableRecord
2
SK2
70
0
62
7
6
CONTINUOUS
290
1
370
-3
390
0
0
ENDTAB
0
TABLE
2
STYLE
5
172
100
AcDbSymbolTable
0
STYLE
5
11
100
AcDbSymbolTableRecord
100
AcDbTextStyleTableRecord
2
Standard
3
txt
70
0
71
0
40
0
41
1
42
0
50
0
0
STYLE
5
D7
100
AcDbSymbolTableRecord
100
AcDbTextStyleTableRecord
2
DEFAULT
3
simplex.shx
70
0
71
0
40
0
41
1
42
0
50
0
0
STYLE
5
FA
100
AcDbSymbolTableRecord
100
AcDbTextStyleTableRecord
2
DWGDirectTextStyle
3
SIMPLEX
70
0
71
0
40
0
41
1
42
0
50
0
0
ENDTAB
0
TABLE
2
DIMSTYLE
5
173
100
AcDbSymbolTable
100
AcDbDimStyleTable
0
DIMSTYLE
105
27
100
AcDbSymbolTableRecord
100
AcDbDimStyleTableRecord
2
Standard
70
0
3
<>
41
0.18
42
0.0625
44
0.18
140
0.18
147
0.09
73
0
74
0
77
1
271
2
275
0
278
52
280
0
340
11
0
ENDTAB
0
TABLE
2
VIEW
5
174
100
AcDbSymbolTable
0
ENDTAB
0
TABLE
2
UCS
5
175
100
AcDbSymbolTable
0
ENDTAB
0
TABLE
2
APPID
5
176
100
AcDbSymbolTable
0
APPID
5
12
100
AcDbSymbolTableRecord
100
AcDbRegAppTableRecord
2
ACAD
70
0
0
ENDTAB
0
TABLE
2
BLOCK_RECORD
5
177
100
AcDbSymbolTable
0
BLOCK_RECORD
5
1F
100
AcDbSymbolTableRecord
100
AcDbBlockTableRecord
2
*Model_Space
340
0
70
0
0
BLOCK_RECORD
5
1B
100
AcDbSymbolTableRecord
100
AcDbBlockTableRecord
2
*Paper_Space
340
0
70
0
0
BLOCK_RECORD
5
23
100
AcDbSymbolTableRecord
100
AcDbBlockTableRecord
2
*Paper_Space0
340
0
70
0
0
BLOCK_RECORD
5
FC
100
AcDbSymbolTableRecord
100
AcDbBlockTableRecord
2
DimnDraft3D1
340
0
70
0
0
BLOCK_RECORD
5
10A
100
AcDbSymbolTableRecord
100
AcDbBlockTableRecord
2
_CLOSED
340
0
70
0
0
BLOCK_RECORD
5
111
100
AcDbSymbolTableRecord
100
AcDbBlockTableRecord
2
DimnDraft3D2
340
0
70
0
0
BLOCK_RECORD
5
120
100
AcDbSymbolTableRecord
100
AcDbBlockTableRecord
2
DimnDraft3D3
340
0
70
0
0
BLOCK_RECORD
5
12E
100
AcDbSymbolTableRecord
100
AcDbBlockTableRecord
2
DimnDraft3D4
340
0
70
0
0
ENDTAB
0
ENDSEC
0
SECTION
2
BLOCKS
0
BLOCK
5
20
100
AcDbEntity
8
0
100
AcDbBlockBegin
2
*Model_Space
70
0
10
0
20
0
30
0
3
*Model_Space
0
ENDBLK
5
21
100
AcDbEntity
8
0
100
AcDbBlockEnd
0
BLOCK
5
1C
100
AcDbEntity
8
0
100
AcDbBlockBegin
2
*Paper_Space
70
0
10
0
20
0
30
0
3
*Paper_Space
0
ENDBLK
5
1D
100
AcDbEntity
8
0
100
AcDbBlockEnd
0
BLOCK
5
24
100
AcDbEntity
8
0
100
AcDbBlockBegin
2
*Paper_Space0
70
0
10
0
20
0
30
0
3
*Paper_Space0
0
ENDBLK
5
25
100
AcDbEntity
8
0
100
AcDbBlockEnd
0
BLOCK
5
107
100
AcDbEntity
8
0
100
AcDbBlockBegin
2
DimnDraft3D1
70
0
10
0
20
0
30
0
3
DimnDraft3D1
0
MTEXT
5
FD
100
AcDbEntity
8
2
62
256
6
ByLayer
370
-1
48
1
60
0
100
AcDbMText
10
111.055
20
-11.925658
30
0
210
0
220
0
230
1
1
\W01.000;\fsimplex.shx,bigfont.shx;17.0 
40
4.5
41
0
44
1.084337
50
90
71
7
72
5
7
DEFAULT
0
LINE
5
FE
100
AcDbEntity
8
2
62
256
6
ByLayer
370
-1
48
1
60
0
100
AcDbLine
10
101.93
20
-16.9
30
0
11
114.18
21
-16.9
31
0
39
0
210
0
220
0
230
1
0
LINE
5
FF
100
AcDbEntity
8
2
62
256
6
ByLayer
370
-1
48
1
60
0
100
AcDbLine
10
101.93
20
0
30
0
11
114.18
21
0
31
0
39
0
210
0
220
0
230
1
0
LINE
5
100
100
AcDbEntity
8
2
62
256
6
ByLayer
370
-1
48
1
60
0
100
AcDbLine
10
112.18
20
-28.15
30
0
11
112.18
21
11.25
31
0
39
0
210
0
220
0
230
1
0
LINE
5
101
100
AcDbEntity
8
2
62
256
6
ByLayer
370
-1
48
1
60
0
100
AcDbLine
10
112.18
20
-16.9
30
0
11
112.597997
21
-20.074998
31
0
39
0
210
0
220
0
230
1
0
LINE
5
102
100
AcDbEntity
8
2
62
256
6
ByLayer
370
-1
48
1
60
0
100
AcDbLine
10
112.18
20
-16.9
30
0
11
111.762003
21
-20.075002
31
0
39
0
210
0
220
0
230
1
0
LINE
5
103
100
AcDbEntity
8
2
62
256
6
ByLayer
370
-1
48
1
60
0
100
AcDbLine
10
112.597997
20
-20.074998
30
0
11
111.762003
21
-20.075002
31
0
39
0
210
0
220
0
230
1
0
LINE
5
104
100
AcDbEntity
8
2
62
256
6
ByLayer
370
-1
48
1
60
0
100
AcDbLine
10
112.18
20
0
30
0
11
111.762003
21
3.174998
31
0
39
0
210
0
220
0
230
1
0
LINE
5
105
100
AcDbEntity
8
2
62
256
6
ByLayer
370
-1
48
1
60
0
100
AcDbLine
10
112.18
20
0
30
0
11
112.597997
21
3.175002
31
0
39
0
210
0
220
0
230
1
0
LINE
5
106
100
AcDbEntity
8
2
62
256
6
ByLayer
370
-1
48
1
60
0
100
AcDbLine
10
111.762003
20
3.174998
30
0
11
112.597997
21
3.175002
31
0
39
0
210
0
220
0
230
1
0
ENDBLK
5
108
100
AcDbEntity
8
0
100
AcDbBlockEnd
0
BLOCK
5
10B
100
AcDbEntity
8
0
100
AcDbBlockBegin
2
_CLOSED
70
0
10
0
20
0
30
0
3
_CLOSED
0
LINE
5
10D
100
AcDbEntity
8
0
62
256
6
ByLayer
370
-2
48
1
60
0
100
AcDbLine
10
-1
20
0.166667
30
0
11
0
21
0
31
0
39
0
210
0
220
0
230
1
0
LINE
5
10E
100
AcDbEntity
8
0
62
256
6
ByLayer
370
-2
48
1
60
0
100
AcDbLine
10
0
20
0
30
0
11
-1
21
-0.166667
31
0
39
0
210
0
220
0
230
1
0
LINE
5
10F
100
AcDbEntity
8
0
62
256
6
ByLayer
370
-2
48
1
60
0
100
AcDbLine
10
-1
20
0.166667
30
0
11
-1
21
-0.166667
31
0
39
0
210
0
220
0
230
1
0
LINE
5
110
100
AcDbEntity
8
0
62
256
6
ByLayer
370
-2
48
1
60
0
100
AcDbLine
10
0
20
0
30
0
11
-1
21
0
31
0
39
0
210
0
220
0
230
1
0
ENDBLK
5
10C
100
AcDbEntity
8
0
100
AcDbBlockEnd
0
BLOCK
5
11D
100
AcDbEntity
8
0
100
AcDbBlockBegin
2
DimnDraft3D2
70
0
10
0
20
0
30
0
3
DimnDraft3D2
0
MTEXT
5
112
100
AcDbEntity
8
SK2
62
256
6
ByLayer
370
-1
48
1
60
0
100
AcDbMText
10
-212.195
20
-3.659211
30
0
210
0
220
0
230
1
1
\W01.000;\fsimplex.shx,bigfont.shx;%%c25 
40
4.5
41
0
44
1.084337
50
90
71
7
72
5
7
DEFAULT
0
LINE
5
114
100
AcDbEntity
8
SK2
62
256
6
ByLayer
370
-1
48
1
60
0
100
AcDbLine
10
-203.32
20
-12.49125
30
0
11
-213.07
21
-12.49125
31
0
39
0
210
0
220
0
230
1
0
LINE
5
115
100
AcDbEntity
8
SK2
62
256
6
ByLayer
370
-1
48
1
60
0
100
AcDbLine
10
-203.32
20
12.49125
30
0
11
-213.07
21
12.49125
31
0
39
0
210
0
220
0
230
1
0
LINE
5
116
100
AcDbEntity
8
SK2
62
256
6
ByLayer
370
-1
48
1
60
0
100
AcDbLine
10
-211.07
20
-12.49125
30
0
11
-211.07
21
12.49125
31
0
39
0
210
0
220
0
230
1
0
LINE
5
117
100
AcDbEntity
8
SK2
62
256
6
ByLayer
370
-1
48
1
60
0
100
AcDbLine
10
-211.07
20
-12.49125
30
0
11
-211.487997
21
-9.316252
31
0
39
0
210
0
220
0
230
1
0
LINE
5
118
100
AcDbEntity
8
SK2
62
256
6
ByLayer
370
-1
48
1
60
0
100
AcDbLine
10
-211.07
20
-12.49125
30
0
11
-210.652003
21
-9.316248
31
0
39
0
210
0
220
0
230
1
0
LINE
5
119
100
AcDbEntity
8
SK2
62
256
6
ByLayer
370
-1
48
1
60
0
100
AcDbLine
10
-211.487997
20
-9.316252
30
0
11
-210.652003
21
-9.316248
31
0
39
0
210
0
220
0
230
1
0
LINE
5
11A
100
AcDbEntity
8
SK2
62
256
6
ByLayer
370
-1
48
1
60
0
100
AcDbLine
10
-211.07
20
12.49125
30
0
11
-210.652003
21
9.316252
31
0
39
0
210
0
220
0
230
1
0
LINE
5
11B
100
AcDbEntity
8
SK2
62
256
6
ByLayer
370
-1
48
1
60
0
100
AcDbLine
10
-211.07
20
12.49125
30
0
11
-211.487997
21
9.316248
31
0
39
0
210
0
220
0
230
1
0
LINE
5
11C
100
AcDbEntity
8
SK2
62
256
6
ByLayer
370
-1
48
1
60
0
100
AcDbLine
10
-210.652003
20
9.316252
30
0
11
-211.487997
21
9.316248
31
0
39
0
210
0
220
0
230
1
0
ENDBLK
5
11E
100
AcDbEntity
8
0
100
AcDbBlockEnd
0
BLOCK
5
12B
100
AcDbEntity
8
0
100
AcDbBlockBegin
2
DimnDraft3D3
70
0
10
0
20
0
30
0
3
DimnDraft3D3
0
MTEXT
5
121
100
AcDbEntity
8
SK2
62
256
6
ByLayer
370
-1
48
1
60
0
100
AcDbMText
10
-56.385132
20
-33.025
30
0
210
0
220
0
230
1
1
\W01.000;\fsimplex.shx,bigfont.shx;300.0 
40
4.5
41
0
44
1.084337
50
0
71
7
72
5
7
DEFAULT
0
LINE
5
122
100
AcDbEntity
8
SK2
62
256
6
ByLayer
370
-1
48
1
60
0
100
AcDbLine
10
-201.32
20
-14.49125
30
0
11
-201.32
21
-36.15
31
0
39
0
210
0
220
0
230
1
0
LINE
5
123
100
AcDbEntity
8
SK2
62
256
6
ByLayer
370
-1
48
1
60
0
100
AcDbLine
10
99.93
20
-18.9
30
0
11
99.93
21
-36.15
31
0
39
0
210
0
220
0
230
1
0
LINE
5
124
100
AcDbEntity
8
SK2
62
256
6
ByLayer
370
-1
48
1
60
0
100
AcDbLine
10
-201.32
20
-34.15
30
0
11
99.93
21
-34.15
31
0
39
0
210
0
220
0
230
1
0
LINE
5
125
100
AcDbEntity
8
SK2
62
256
6
ByLayer
370
-1
48
1
60
0
100
AcDbLine
10
-201.32
20
-34.15
30
0
11
-198.145002
21
-33.732003
31
0
39
0
210
0
220
0
230
1
0
LINE
5
126
100
AcDbEntity
8
SK2
62
256
6
ByLayer
370
-1
48
1
60
0
100
AcDbLine
10
-201.32
20
-34.15
30
0
11
-198.144998
21
-34.567997
31
0
39
0
210
0
220
0
230
1
0
LINE
5
127
100
AcDbEntity
8
SK2
62
256
6
ByLayer
370
-1
48
1
60
0
100
AcDbLine
10
-198.145002
20
-33.732003
30
0
11
-198.144998
21
-34.567997
31
0
39
0
210
0
220
0
230
1
0
LINE
5
128
100
AcDbEntity
8
SK2
62
256
6
ByLayer
370
-1
48
1
60
0
100
AcDbLine
10
99.93
20
-34.15
30
0
11
96.755002
21
-34.567997
31
0
39
0
210
0
220
0
230
1
0
LINE
5
129
100
AcDbEntity
8
SK2
62
256
6
ByLayer
370
-1
48
1
60
0
100
AcDbLine
10
99.93
20
-34.15
30
0
11
96.754998
21
-33.732003
31
0
39
0
210
0
220
0
230
1
0
LINE
5
12A
100
AcDbEntity
8
SK2
62
256
6
ByLayer
370
-1
48
1
60
0
100
AcDbLine
10
96.755002
20
-34.567997
30
0
11
96.754998
21
-33.732003
31
0
39
0
210
0
220
0
230
1
0
ENDBLK
5
12C
100
AcDbEntity
8
0
100
AcDbBlockEnd
0
BLOCK
5
139
100
AcDbEntity
8
0
100
AcDbBlockBegin
2
DimnDraft3D4
70
0
10
0
20
0
30
0
3
DimnDraft3D4
0
MTEXT
5
12F
100
AcDbEntity
8
2
62
256
6
ByLayer
370
-1
48
1
60
0
100
AcDbMText
10
132.246311
20
27.934964
30
0
210
0
220
0
230
1
1
\W01.000;\fsimplex.shx,bigfont.shx;75%%d0' 
40
4.5
41
0
44
1.084337
50
307.5
71
7
72
5
7
DEFAULT
0
LINE
5
130
100
AcDbEntity
8
2
62
256
6
ByLayer
370
-1
48
1
60
0
100
AcDbLine
10
103.553467
20
-3.377038
30
0
11
114.792056
21
38.565948
31
0
39
0
210
0
220
0
230
1
0
LINE
5
131
100
AcDbEntity
8
2
62
256
6
ByLayer
370
-1
48
1
60
0
100
AcDbLine
10
101.93
20
0
30
0
11
144.384748
21
0
31
0
39
0
210
0
220
0
230
1
0
ARC
5
132
100
AcDbEntity
8
2
62
256
6
ByLayer
370
-1
48
1
60
0
100
AcDbCircle
39
0
10
104.458341
20
0
30
0
40
37.9264068640928
210
0
220
0
230
1
100
AcDbArc
50
0
51
75
0
LINE
5
133
100
AcDbEntity
8
2
62
256
6
ByLayer
370
-1
48
1
60
0
100
AcDbLine
10
114.274418
20
36.634096
30
0
11
117.439979
21
36.149786
31
0
39
0
210
0
220
0
230
1
0
LINE
5
134
100
AcDbEntity
8
2
62
256
6
ByLayer
370
-1
48
1
60
0
100
AcDbLine
10
114.274418
20
36.634096
30
0
11
117.20677
21
35.34698
31
0
39
0
210
0
220
0
230
1
0
LINE
5
135
100
AcDbEntity
8
2
62
256
6
ByLayer
370
-1
48
1
60
0
100
AcDbLine
10
117.439979
20
36.149786
30
0
11
117.20677
21
35.34698
31
0
39
0
210
0
220
0
230
1
0
LINE
5
136
100
AcDbEntity
8
2
62
256
6
ByLayer
370
-1
48
1
60
0
100
AcDbLine
10
142.384748
20
0
30
0
11
141.900438
21
3.165562
31
0
39
0
210
0
220
0
230
1
0
LINE
5
137
100
AcDbEntity
8
2
62
256
6
ByLayer
370
-1
48
1
60
0
100
AcDbLine
10
142.384748
20
0
30
0
11
142.736248
21
3.183049
31
0
39
0
210
0
220
0
230
1
0
LINE
5
138
100
AcDbEntity
8
2
62
256
6
ByLayer
370
-1
48
1
60
0
100
AcDbLine
10
141.900438
20
3.165562
30
0
11
142.736248
21
3.183049
31
0
39
0
210
0
220
0
230
1
0
ENDBLK
5
13A
100
AcDbEntity
8
0
100
AcDbBlockEnd
0
ENDSEC
0
SECTION
2
ENTITIES
0
ELLIPSE
5
86
100
AcDbEntity
8
1
62
256
6
ByLayer
370
-1
48
1
60
0
100
AcDbEllipse
10
90.941885
20
-1.594333
30
0
11
1.69037019600587
21
-0.452933328929398
31
0
210
0
220
0
230
1
40
0.996625
41
-0.0032795793458732
42
-1.99015932009109
0
ELLIPSE
5
87
100
AcDbEntity
8
1
62
256
6
ByLayer
370
-1
48
1
60
0
100
AcDbEllipse
10
41.243631
20
-178.02238
30
0
11
82.2144072743015
21
305.792323340168
31
0
210
3.26637718568075E-31
220
1.38875090641594E-16
230
1
40
0.082089
41
0.951897730612642
42
0.991117482385412
0
ELLIPSE
5
88
100
AcDbEntity
8
1
62
256
6
ByLayer
370
-1
48
1
60
0
100
AcDbEllipse
10
91.032184
20
-1.257333
30
0
11
1.69037019600587
21
-0.452933328929398
31
0
210
0
220
0
230
1
40
0.996625
41
-1.88589315708586
42
-1.60322046124121
0
ELLIPSE
5
89
100
AcDbEntity
8
1
62
256
6
ByLayer
370
-1
48
1
60
0
100
AcDbEllipse
10
91.032184
20
-1.257333
30
0
11
1.69037019600587
21
-0.452933328929398
31
0
210
0
220
0
230
1
40
0.996625
41
-0.192813017055929
42
-0.101766852009734
0
ELLIPSE
5
8A
100
AcDbEntity
8
1
62
256
6
ByLayer
370
-1
48
1
60
0
100
AcDbEllipse
10
91.434074
20
-3.457323
30
0
11
1.61507192654953
21
-0.432757218437112
31
0
210
0
220
0
230
1
40
0.996625
41
3.09407315044091
42
-3.1372293304597
0
ELLIPSE
5
8B
100
AcDbEntity
8
1
62
256
6
ByLayer
370
-1
48
1
60
0
100
AcDbEllipse
10
91.376309
20
-3.676744
30
0
11
1.61507192654953
21
-0.432757218437112
31
0
210
0
220
0
230
1
40
0.996625
41
-3.13722933045971
42
-2.22339699290401
0
ELLIPSE
5
8C
100
AcDbEntity
8
1
62
256
6
ByLayer
370
-1
48
1
60
0
100
AcDbEllipse
10
91.467008
20
-3.334412
30
0
11
-1.4488887394336
21
0.388228567653789
31
0
210
0
220
0
230
1
40
0.996625
41
-0.00929586241795972
42
0.00436332312997831
0
ELLIPSE
5
8D
100
AcDbEntity
8
1
62
256
6
ByLayer
370
-1
48
1
60
0
100
AcDbEllipse
10
91.045994
20
-1.205793
30
0
11
-1.69037019600587
21
0.452933328929421
31
0
210
0
220
0
230
1
40
0.996625
41
2.91748797805487
42
3.02597129316054
0
ELLIPSE
5
8E
100
AcDbEntity
8
1
62
256
6
ByLayer
370
-1
48
1
60
0
100
AcDbEllipse
10
91.045994
20
-1.205793
30
0
11
-1.69037019600587
21
0.452933328929421
31
0
210
0
220
0
230
1
40
0.996625
41
0.115579747730577
42
1.53832840844246
0
ELLIPSE
5
8F
100
AcDbEntity
8
1
62
256
6
ByLayer
370
-1
48
1
60
0
100
AcDbEllipse
10
91.466608
20
-3.339744
30
0
11
-1.4488887394336
21
0.388228567653789
31
0
210
0
220
0
230
1
40
0.996625
41
0.0043633231299691
42
0.827260791963835
0
ELLIPSE
5
90
100
AcDbEntity
8
1
62
256
6
ByLayer
370
-1
48
1
60
0
100
AcDbEllipse
10
91.409243
20
-3.553833
30
0
11
-1.4488887394336
21
0.388228567653789
31
0
210
0
220
0
230
1
40
0.996625
41
0.0043633231299691
42
0.827260791963835
0
ELLIPSE
5
91
100
AcDbEntity
8
1
62
256
6
ByLayer
370
-1
48
1
60
0
100
AcDbEllipse
10
91.45301
20
-2.535304
30
0
11
0.766945106073414
21
-0.205502321811367
31
0
210
0
220
0
230
1
40
0.996625
41
1.5707963267949
42
-3.14159265358974
0
ELLIPSE
5
92
100
AcDbEntity
8
1
62
256
6
ByLayer
370
-1
48
1
60
0
100
AcDbEllipse
10
88.58672
20
-13.232447
30
0
11
0.766945106073444
21
-0.205502321811375
31
0
210
0
220
0
230
1
40
0.996625
41
-3.14159265358974
42
-1.57079632679497
0
ELLIPSE
5
93
100
AcDbEntity
8
1
62
256
6
ByLayer
370
-1
48
1
60
0
100
AcDbEllipse
10
95.406102
20
-9.2489
30
0
11
3.87043646261191
21
-1.0370803245128
31
0
210
0
220
0
230
1
40
0.996625
41
-2.87894686231466
42
-4.4481791595383E-16
0
ELLIPSE
5
94
100
AcDbEntity
8
1
62
256
6
ByLayer
370
-1
48
1
60
0
100
AcDbEllipse
10
95.406102
20
-9.2489
30
0
11
3.87043646261191
21
-1.0370803245128
31
0
210
0
220
0
230
1
40
0.996625
41
0
42
1.01397737030044
0
ELLIPSE
5
95
100
AcDbEntity
8
1
62
256
6
ByLayer
370
-1
48
1
60
0
100
AcDbEllipse
10
95.406102
20
-9.2489
30
0
11
3.87043646261191
21
-1.0370803245128
31
0
210
0
220
0
230
1
40
0.996625
41
1.83167506180993
42
-2.87894686231466
0
ELLIPSE
5
96
100
AcDbEntity
8
1
62
256
6
ByLayer
370
-1
48
1
60
0
100
AcDbEllipse
10
102.186378
20
-5.411301
30
0
11
0.766945106073451
21
-0.205502321811377
31
0
210
0
220
0
230
1
40
0.996625
41
0
42
1.5707963267949
0
ELLIPSE
5
97
100
AcDbEntity
8
1
62
256
6
ByLayer
370
-1
48
1
60
0
100
AcDbEllipse
10
95.40978
20
-9.235175
30
0
11
-3.8023774603578
21
1.0188439698212
31
0
210
0
220
0
230
1
40
0.996625
41
0
42
6.28318530717959
0
ELLIPSE
5
98
100
AcDbEntity
8
1
62
256
6
ByLayer
370
-1
48
1
60
0
100
AcDbEllipse
10
95.386549
20
-9.321874
30
0
11
3.93259830103471
21
-1.05373653891822
31
0
210
0
220
0
230
1
40
0.996625
41
0
42
6.28318530717959
0
ELLIPSE
5
99
100
AcDbEntity
8
1
62
256
6
ByLayer
370
-1
48
1
60
0
100
AcDbEllipse
10
99.320088
20
-16.108444
30
0
11
0.766945106073406
21
-0.205502321811365
31
0
210
0
220
0
230
1
40
0.996625
41
-1.57079632679497
42
4.4896028868224E-14
0
ELLIPSE
5
9A
100
AcDbEntity
8
1
62
256
6
ByLayer
370
-1
48
1
60
0
100
AcDbEllipse
10
96.819037
20
-9.146625
30
0
11
-0.282050341276408
21
0.0755751611699378
31
0
210
0
220
0
230
1
40
0.996625
41
2.09440734832931
42
2.77328454173013
0
ELLIPSE
5
9B
100
AcDbEntity
8
1
62
256
6
ByLayer
370
-1
48
1
60
0
100
AcDbEllipse
10
97.072913
20
-10.088537
30
0
11
-0.6626251168343
21
0.177549864940333
31
0
210
0
220
0
230
1
40
0.996625
41
-0.263194661639843
42
5.74688024703823E-06
0
ELLIPSE
5
9C
100
AcDbEntity
8
1
62
256
6
ByLayer
370
-1
48
1
60
0
100
AcDbEllipse
10
94.747119
20
-10.338182
30
0
11
-0.282050341276408
21
0.0755751611699378
31
0
210
0
220
0
230
1
40
0.996625
41
-0.00586317152361575
42
2.6179816320556
0
ELLIPSE
5
9D
100
AcDbEntity
8
1
62
256
6
ByLayer
370
-1
48
1
60
0
100
AcDbEllipse
10
95.397062
20
-9.282639
30
0
11
1.16538950941777
21
-0.312265177916185
31
0
210
0
220
0
230
1
40
0.996625
41
0.716365529985855
42
0.854430796809088
0
ELLIPSE
5
9E
100
AcDbEntity
8
1
62
256
6
ByLayer
370
-1
48
1
60
0
100
AcDbEllipse
10
95.439088
20
-11.028147
30
0
11
-0.6626251168343
21
0.177549864940333
31
0
210
0
220
0
230
1
40
0.996625
41
-1.30760166515507
42
-0.523611021534424
0
ELLIPSE
5
9F
100
AcDbEntity
8
1
62
256
6
ByLayer
370
-1
48
1
60
0
100
AcDbEllipse
10
95.397062
20
-9.282639
30
0
11
1.16538950941777
21
-0.312265177916185
31
0
210
0
220
0
230
1
40
0.996625
41
-2.42522712360426
42
-2.28716185678031
0
ELLIPSE
5
A0
100
AcDbEntity
8
1
62
256
6
ByLayer
370
-1
48
1
60
0
100
AcDbEllipse
10
95.391297
20
-9.304155
30
0
11
1.61937464777361
21
-0.43391012911436
31
0
210
0
220
0
230
1
40
0.996625
41
-0.785398163397463
42
0.259008840117778
0
ELLIPSE
5
A1
100
AcDbEntity
8
1
62
256
6
ByLayer
370
-1
48
1
60
0
100
AcDbEllipse
10
95.434852
20
-9.141606
30
0
11
-1.16538950941776
21
0.312265177916199
31
0
210
0
220
0
230
1
40
0.996625
41
-0.0625225886206673
42
0.716365529985757
0
ELLIPSE
5
A2
100
AcDbEntity
8
1
62
256
6
ByLayer
370
-1
48
1
60
0
100
AcDbEllipse
10
95.434852
20
-9.141606
30
0
11
-1.16538950941776
21
0.312265177916199
31
0
210
0
220
0
230
1
40
0.996625
41
0.854430796809274
42
1.83399098843469
0
ELLIPSE
5
A3
100
AcDbEntity
8
1
62
256
6
ByLayer
370
-1
48
1
60
0
100
AcDbEllipse
10
95.439088
20
-11.028147
30
0
11
-0.6626251168343
21
0.177549864940333
31
0
210
0
220
0
230
1
40
0.996625
41
-2.09159230877589
42
-1.30760166515507
0
ELLIPSE
5
A4
100
AcDbEntity
8
1
62
256
6
ByLayer
370
-1
48
1
60
0
100
AcDbEllipse
10
95.425291
20
-9.177287
30
0
11
3.30829595504007
21
-0.886455229476111
31
0
210
0
220
0
230
1
40
0.996625
41
0
42
3.14149452946968
0
ELLIPSE
5
A5
100
AcDbEntity
8
1
62
256
6
ByLayer
370
-1
48
1
60
0
100
AcDbEllipse
10
93.803939
20
-10.079541
30
0
11
-0.6626251168343
21
0.177549864940333
31
0
210
0
220
0
230
1
40
0.996625
41
3.13572948206598
42
-2.47780853140895
0
ELLIPSE
5
A6
100
AcDbEntity
8
1
62
256
6
ByLayer
370
-1
48
1
60
0
100
AcDbEllipse
10
93.803939
20
-10.079541
30
0
11
-0.6626251168343
21
0.177549864940333
31
0
210
0
220
0
230
1
40
0.996625
41
-2.23458044897565
42
-1.56493315527107
0
ELLIPSE
5
A7
100
AcDbEntity
8
1
62
256
6
ByLayer
370
-1
48
1
60
0
100
AcDbEllipse
10
95.434852
20
-9.141606
30
0
11
-1.16538950941776
21
0.312265177916199
31
0
210
0
220
0
230
1
40
0.996625
41
-2.17365512619501
42
-1.55561356876063
0
ELLIPSE
5
A8
100
AcDbEntity
8
1
62
256
6
ByLayer
370
-1
48
1
60
0
100
AcDbEllipse
10
95.391297
20
-9.304155
30
0
11
1.61937464777361
21
-0.43391012911436
31
0
210
0
220
0
230
1
40
0.996625
41
-1.82980516691271
42
-0.785398163397463
0
ELLIPSE
5
A9
100
AcDbEntity
8
1
62
256
6
ByLayer
370
-1
48
1
60
0
100
AcDbEllipse
10
95.391297
20
-9.304155
30
0
11
1.61937464777361
21
-0.43391012911436
31
0
210
0
220
0
230
1
40
0.996625
41
2.35619449019236
42
-2.88258381347198
0
ELLIPSE
5
AA
100
AcDbEntity
8
1
62
256
6
ByLayer
370
-1
48
1
60
0
100
AcDbEllipse
10
95.434852
20
-9.141606
30
0
11
-1.16538950941776
21
0.312265177916199
31
0
210
0
220
0
230
1
40
0.996625
41
2.87839799194995
42
-2.63589344501418
0
ELLIPSE
5
AB
100
AcDbEntity
8
1
62
256
6
ByLayer
370
-1
48
1
60
0
100
AcDbEllipse
10
95.391297
20
-9.304155
30
0
11
2.31822198309381
21
-0.621165708246044
31
0
210
0
220
0
230
1
40
0.996625
41
0
42
6.28318530717959
0
ELLIPSE
5
AC
100
AcDbEntity
8
1
62
256
6
ByLayer
370
-1
48
1
60
0
100
AcDbEllipse
10
95.399833
20
-9.272299
30
0
11
3.30829595504007
21
-0.886455229476111
31
0
210
0
220
0
230
1
40
0.996625
41
0
42
6.28318530717959
0
ELLIPSE
5
AD
100
AcDbEntity
8
1
62
256
6
ByLayer
370
-1
48
1
60
0
100
AcDbEllipse
10
96.127957
20
-10.337427
30
0
11
-0.282050341276408
21
0.0755751611699378
31
0
210
0
220
0
230
1
40
0.996625
41
1.05000034481373
42
2.85899823638314
0
ELLIPSE
5
AE
100
AcDbEntity
8
1
62
256
6
ByLayer
370
-1
48
1
60
0
100
AcDbEllipse
10
95.434852
20
-9.141606
30
0
11
1.16538950941776
21
-0.312265177916181
31
0
210
0
220
0
230
1
40
0.996625
41
-2.42522712360408
42
-2.28716185678056
0
ELLIPSE
5
AF
100
AcDbEntity
8
1
62
256
6
ByLayer
370
-1
48
1
60
0
100
AcDbEllipse
10
95.391297
20
-9.304155
30
0
11
1.61937464777361
21
-0.43391012911436
31
0
210
0
220
0
230
1
40
0.996625
41
1.31178748667702
42
2.35619449019236
0
ELLIPSE
5
B0
100
AcDbEntity
8
1
62
256
6
ByLayer
370
-1
48
1
60
0
100
AcDbEllipse
10
94.050667
20
-9.136586
30
0
11
-0.282050341276408
21
0.0755751611699378
31
0
210
0
220
0
230
1
40
0.996625
41
0.26773120209648
42
1.57665949831914
0
ELLIPSE
5
B1
100
AcDbEntity
8
1
62
256
6
ByLayer
370
-1
48
1
60
0
100
AcDbEllipse
10
95.434852
20
-9.141606
30
0
11
1.16538950941776
21
-0.312265177916181
31
0
210
0
220
0
230
1
40
0.996625
41
-1.30760166515515
42
-0.263194661639862
0
ELLIPSE
5
B2
100
AcDbEntity
8
1
62
256
6
ByLayer
370
-1
48
1
60
0
100
AcDbEllipse
10
95.391297
20
-9.304155
30
0
11
1.61937464777361
21
-0.43391012911436
31
0
210
0
220
0
230
1
40
0.996625
41
-2.88258381347198
42
-1.82980516691271
0
ELLIPSE
5
B3
100
AcDbEntity
8
1
62
256
6
ByLayer
370
-1
48
1
60
0
100
AcDbEllipse
10
95.434852
20
-9.141606
30
0
11
-1.16538950941776
21
0.312265177916199
31
0
210
0
220
0
230
1
40
0.996625
41
-1.00318978213645
42
-0.330183755797924
0
ELLIPSE
5
B4
100
AcDbEntity
8
1
62
256
6
ByLayer
370
-1
48
1
60
0
100
AcDbEllipse
10
93.79679
20
-8.194675
30
0
11
-0.6626251168343
21
0.177549864940333
31
0
210
0
220
0
230
1
40
0.996625
41
-3.14158729959481
42
-2.62079667160897
0
ELLIPSE
5
B5
100
AcDbEntity
8
1
62
256
6
ByLayer
370
-1
48
1
60
0
100
AcDbEllipse
10
97.072913
20
-10.088537
30
0
11
-0.6626251168343
21
0.177549864940333
31
0
210
0
220
0
230
1
40
0.996625
41
-1.04718530526071
42
-0.263194661639843
0
ELLIPSE
5
B6
100
AcDbEntity
8
1
62
256
6
ByLayer
370
-1
48
1
60
0
100
AcDbEllipse
10
95.391297
20
-9.304155
30
0
11
1.61937464777361
21
-0.43391012911436
31
0
210
0
220
0
230
1
40
0.996625
41
0.259008840117778
42
1.31178748667702
0
POINT
5
41
100
AcDbEntity
8
80
62
256
6
ByLayer
370
-1
48
1
60
0
100
AcDbPoint
10
0
20
0
30
0
39
0
210
0
220
0
230
1
50
360
0
POINT
5
43
100
AcDbEntity
8
81
62
256
6
ByLayer
370
-1
48
1
60
0
100
AcDbPoint
10
99.93
20
-16.9
30
0
39
0
210
0
220
0
230
1
50
360
0
POINT
5
45
100
AcDbEntity
8
1
62
256
6
ByLayer
370
-1
48
1
60
0
100
AcDbPoint
10
-201.32
20
0
30
0
39
0
210
0
220
0
230
1
50
360
0
POINT
5
47
100
AcDbEntity
8
2
62
256
6
ByLayer
370
-1
48
1
60
0
100
AcDbPoint
10
99.93
20
16.9
30
0
39
0
210
0
220
0
230
1
50
360
0
SPLINE
5
B7
100
AcDbEntity
8
1
62
256
6
ByLayer
370
-1
48
1
60
0
100
AcDbSpline
70
4
71
3
72
8
73
4
40
0
40
0
40
0
40
0
40
1
40
1
40
1
40
1
41
1
10
65.2754624508183
20
-4.87661015076082
30
0
41
1
10
65.1981734488189
20
-6.98773913172116
30
0
41
1
10
65.7110212362563
20
-8.82405571265159
30
0
41
1
10
66.8760708900963
20
-10.0087500000008
30
0
0
SPLINE
5
B8
100
AcDbEntity
8
1
62
256
6
ByLayer
370
-1
48
1
60
0
100
AcDbSpline
70
4
71
3
72
30
73
26
40
-0.124999999999968
40
-0.124999999999968
40
0
40
0
40
0.125000000000014
40
0.125000000000014
40
0.187500000000021
40
0.187500000000021
40
0.250000000000027
40
0.250000000000027
40
0.375000000000041
40
0.375000000000041
40
0.500000000000055
40
0.500000000000055
40
0.625000000000068
40
0.625000000000068
40
0.687500000000075
40
0.687500000000075
40
0.703125000000072
40
0.703125000000072
40
0.718750000000069
40
0.718750000000069
40
0.750000000000064
40
0.750000000000064
40
0.875000000000032
40
0.875000000000032
40
1
40
1
40
1.12500000000001
40
1.12500000000001
41
1
10
77.5644378244227
20
-4.60843930688418
30
0
41
1
10
75.8733517694401
20
-3.83368410833785
30
0
41
1
10
74.9952751503681
20
-3.53749140162634
30
0
41
1
10
73.6545923919501
20
-3.64992747147374
30
0
41
1
10
73.1770497420154
20
-3.79473056624428
30
0
41
1
10
72.5197546978545
20
-4.57615195890216
30
0
41
1
10
72.4753355677238
20
-5.16314280705171
30
0
41
1
10
72.9006590322925
20
-6.51433931262369
30
0
41
1
10
73.6483096238827
20
-7.09426555002653
30
0
41
1
10
75.2110959671288
20
-7.98563667184519
30
0
41
1
10
76.0941740399792
20
-8.29639638407946
30
0
41
1
10
77.9263760502736
20
-8.7611404309975
30
0
41
1
10
78.8958798808601
20
-8.9282971733754
30
0
41
1
10
80.3902297481811
20
-9.00024588635893
30
0
41
1
10
80.9152669637207
20
-9.03605134691375
30
0
41
1
10
81.5062941572892
20
-8.79244621740688
30
0
41
1
10
81.6219504142021
20
-8.71981495870884
30
0
41
1
10
81.7404424649212
20
-8.48853074506857
30
0
41
1
10
81.7268538220338
20
-8.35143690748603
30
0
41
1
10
81.6109253368658
20
-7.99205796274555
30
0
41
1
10
81.456962249601
20
-7.78803310356872
30
0
41
1
10
80.6753800209794
20
-6.82929490370529
30
0
41
1
10
79.9020129117172
20
-6.22235361142475
30
0
41
1
10
78.3605435102743
20
-5.10228336929254
30
0
41
1
10
77.5644378244227
20
-4.60843930688418
30
0
41
1
10
75.8733517694401
20
-3.83368410833785
30
0
0
SPLINE
5
B9
100
AcDbEntity
8
1
62
256
6
ByLayer
370
-1
48
1
60
0
100
AcDbSpline
70
4
71
3
72
10
73
6
40
0
40
0
40
0
40
0
40
0.5
40
0.5
40
1
40
1
40
1
40
1
41
1
10
81.5214336523636
20
11.9660018322937
30
0
41
1
10
78.8176424402293
20
11.6574034609699
30
0
41
1
10
76.3431303739974
20
11.1139916231956
30
0
41
1
10
71.8764478479872
20
8.87257297302082
30
0
41
1
10
69.9763935782626
20
7.16129929991237
30
0
41
1
10
68.4931018870212
20
4.87661015076023
30
0
0
SPLINE
5
BA
100
AcDbEntity
8
1
62
256
6
ByLayer
370
-1
48
1
60
0
100
AcDbSpline
70
4
71
3
72
8
73
4
40
0
40
0
40
0
40
0
40
1
40
1
40
1
40
1
41
1
10
89.8413126270086
20
-2.94859454705835
30
0
41
1
10
89.9001210178824
20
-2.94630404559487
30
0
41
1
10
89.9603695867899
20
-2.94100833203424
30
0
41
1
10
90.0217785318154
20
-2.93277714809574
30
0
0
SPLINE
5
BB
100
AcDbEntity
8
1
62
256
6
ByLayer
370
-1
48
1
60
0
100
AcDbSpline
70
4
71
3
72
8
73
4
40
0
40
0
40
0
40
0
40
1
40
1
40
1
40
1
41
1
10
81.5964336523636
20
11.9004865838088
30
0
41
1
10
82.0989007112433
20
11.9568910200771
30
0
41
1
10
82.6073403601948
20
12.0046411225894
30
0
41
1
10
83.1204283970071
20
12.0454606020359
30
0
0
SPLINE
5
BC
100
AcDbEntity
8
1
62
256
6
ByLayer
370
-1
48
1
60
0
100
AcDbSpline
70
4
71
3
72
8
73
4
40
0
40
0
40
0
40
0
40
1
40
1
40
1
40
1
41
1
10
84.2247720452947
20
-12.4082317796254
30
0
41
1
10
83.6798436822777
20
-12.4089023069307
30
0
41
1
10
83.1352265075578
20
-12.4101390154962
30
0
41
1
10
82.5923483672433
20
-12.4115378572438
30
0
0
SPLINE
5
BD
100
AcDbEntity
8
1
62
256
6
ByLayer
370
-1
48
1
60
0
100
AcDbSpline
70
4
71
3
72
8
73
4
40
0
40
0
40
0
40
0
40
1
40
1
40
1
40
1
41
1
10
87.802424926505
20
-13.3119071676629
30
0
41
1
10
87.0917375442189
20
-13.1320861598743
30
0
41
1
10
86.3810516166318
20
-12.9522594004178
30
0
41
1
10
85.6703673354307
20
-12.7724261321049
30
0
0
SPLINE
5
BE
100
AcDbEntity
8
1
62
256
6
ByLayer
370
-1
48
1
60
0
100
AcDbSpline
70
4
71
3
72
8
73
4
40
0
40
0
40
0
40
0
40
1
40
1
40
1
40
1
41
1
10
85.6703673354307
20
-12.7724261321048
30
0
41
1
10
85.1882917752362
20
-12.6504405671265
30
0
41
1
10
84.7064191189447
20
-12.5290718773045
30
0
41
1
10
84.2247720452945
20
-12.408231779626
30
0
0
SPLINE
5
BF
100
AcDbEntity
8
1
62
256
6
ByLayer
370
-1
48
1
60
0
100
AcDbSpline
70
4
71
3
72
8
73
4
40
0
40
0
40
0
40
0
40
1
40
1
40
1
40
1
41
1
10
81.5214336523636
20
11.9660018322926
30
0
41
1
10
81.5464273443503
20
11.9441943351455
30
0
41
1
10
81.571427399839
20
11.9223557828257
30
0
41
1
10
81.5964336523636
20
11.9004865838087
30
0
0
SPLINE
5
C0
100
AcDbEntity
8
SK1
62
256
6
ByLayer
370
-1
48
1
60
0
100
AcDbSpline
70
4
71
3
72
10
73
6
40
0
40
0
40
0
40
0
40
0.5
40
0.5
40
1
40
1
40
1
40
1
41
1
10
-199.32
20
-4.87661015076048
30
0
41
1
10
-199.931278087239
20
-3.31084475816917
30
0
41
1
10
-200.311010085058
20
-1.68546685393193
30
0
41
1
10
-200.311489681707
20
1.6821913662468
30
0
41
1
10
-199.931860983986
20
3.30935169049229
30
0
41
1
10
-199.32
20
4.87661015076048
30
0
0
SPLINE
5
C1
100
AcDbEntity
8
1
62
256
6
ByLayer
370
-1
48
1
60
0
100
AcDbSpline
70
4
71
3
72
18
73
14
40
0
40
0
40
0
40
0
40
0.210034224834276
40
0.210034224834276
40
0.384584855469385
40
0.384584855469385
40
0.560845674320527
40
0.560845674320527
40
0.713888936829468
40
0.713888936829468
40
0.916307590347811
40
0.916307590347811
40
1
40
1
40
1
40
1
41
1
10
94.9124792663593
20
-10.6980946527306
30
0
41
1
10
94.9628063232107
20
-10.6458021197813
30
0
41
1
10
95.0224606315441
20
-10.599737886639
30
0
41
1
10
95.1443521570661
20
-10.5346455082086
30
0
41
1
10
95.205902642678
20
-10.5117869794514
30
0
41
1
10
95.3339642541523
20
-10.4854442355106
30
0
41
1
10
95.4024549190688
20
-10.4819739248615
30
0
41
1
10
95.5250110453414
20
-10.4950093537291
30
0
41
1
10
95.5812620400289
20
-10.5090016131992
30
0
41
1
10
95.7013239019794
20
-10.5556258238503
30
0
41
1
10
95.7638884913621
20
-10.5933650314622
30
0
41
1
10
95.8401590405288
20
-10.6565820995066
30
0
41
1
10
95.8613153015061
20
-10.6765353453665
30
0
41
1
10
95.8810421937368
20
-10.6975646079904
30
0
0
SPLINE
5
C2
100
AcDbEntity
8
1
62
256
6
ByLayer
370
-1
48
1
60
0
100
AcDbSpline
70
4
71
3
72
12
73
8
40
0
40
0
40
0
40
0
40
0.319623704960772
40
0.319623704960772
40
0.788204063976065
40
0.788204063976065
40
1
40
1
40
1
40
1
41
1
10
94.3970967860542
20
-9.95355758854868
30
0
41
1
10
94.4172314200506
20
-10.0014327153055
30
0
41
1
10
94.4316979544201
20
-10.0519069043098
30
0
41
1
10
94.452872738773
20
-10.1752578239042
30
0
41
1
10
94.4533511101663
20
-10.2496485270186
30
0
41
1
10
94.439283062802
20
-10.3522541118164
30
0
41
1
10
94.4327597503748
20
-10.3839028483252
30
0
41
1
10
94.4243121476052
20
-10.4147330345568
30
0
0
SPLINE
5
C3
100
AcDbEntity
8
1
62
256
6
ByLayer
370
-1
48
1
60
0
100
AcDbSpline
70
4
71
3
72
12
73
8
40
0
40
0
40
0
40
0
40
0.288659977878487
40
0.288659977878487
40
0.74767527603572
40
0.74767527603572
40
1
40
1
40
1
40
1
41
1
10
96.3970273403035
20
-8.6117198115154
30
0
41
1
10
96.3785941686448
20
-8.56921832502886
30
0
41
1
10
96.3646083053466
20
-8.52529646955071
30
0
41
1
10
96.3405706885231
20
-8.41333638723248
30
0
41
1
10
96.3372235711137
20
-8.34453422477023
30
0
41
1
10
96.3472580775269
20
-8.24429848353213
30
0
41
1
10
96.3537862190951
20
-8.20952816680571
30
0
41
1
10
96.3629846262336
20
-8.17602439198777
30
0
0
SPLINE
5
C4
100
AcDbEntity
8
1
62
256
6
ByLayer
370
-1
48
1
60
0
100
AcDbSpline
70
4
71
3
72
18
73
14
40
0
40
0
40
0
40
0
40
0.0064932864043149
40
0.0064932864043149
40
0.230788445031363
40
0.230788445031363
40
0.454591321989986
40
0.454591321989986
40
0.690178268873186
40
0.690178268873186
40
0.947347586622667
40
0.947347586622667
40
1
40
1
40
1
40
1
41
1
10
96.2305823123573
20
-10.7521819598494
30
0
41
1
10
96.2298256665017
20
-10.7526171058558
30
0
41
1
10
96.229067085117
20
-10.7530487169232
30
0
41
1
10
96.2023914790451
20
-10.7680637470181
30
0
41
1
10
96.1738640544643
20
-10.7785737136299
30
0
41
1
10
96.116440299724
20
-10.7899674402358
30
0
41
1
10
96.0868128896971
20
-10.7910389685321
30
0
41
1
10
96.0286329916485
20
-10.7843066542516
30
0
41
1
10
95.9994861775954
20
-10.7759787517484
30
0
41
1
10
95.9439573586488
20
-10.7505611515316
30
0
41
1
10
95.9173631416367
20
-10.7324528829347
30
0
41
1
10
95.8899744704933
20
-10.7067863869527
30
0
41
1
10
95.8854287490808
20
-10.7022407639334
30
0
41
1
10
95.8810421937369
20
-10.6975646079904
30
0
0
SPLINE
5
C5
100
AcDbEntity
8
1
62
256
6
ByLayer
370
-1
48
1
60
0
100
AcDbSpline
70
4
71
3
72
16
73
12
40
0
40
0
40
0
40
0
40
0.11836959742273
40
0.11836959742273
40
0.424570870535287
40
0.424570870535287
40
0.701679279675262
40
0.701679279675262
40
0.946717564909713
40
0.946717564909713
40
1
40
1
40
1
40
1
41
1
10
94.9124792663625
20
-10.6980946527332
30
0
41
1
10
94.9024102403722
20
-10.7085569151087
30
0
41
1
10
94.8915350592413
20
-10.7183798010045
30
0
41
1
10
94.8502839919105
20
-10.7505410889951
30
0
41
1
10
94.8151785469779
20
-10.7687791984042
30
0
41
1
10
94.743953432004
20
-10.7889768565518
30
0
41
1
10
94.707116018619
20
-10.7925579704948
30
0
41
1
10
94.6391833989229
20
-10.7858724206538
30
0
41
1
10
94.6069321855257
20
-10.77701945412
30
0
41
1
10
94.5710840335541
20
-10.7599770474011
30
0
41
1
10
94.5647311514458
20
-10.7566546247044
30
0
41
1
10
94.558517225553
20
-10.753096995187
30
0
0
SPLINE
5
C6
100
AcDbEntity
8
1
62
256
6
ByLayer
370
-1
48
1
60
0
100
AcDbSpline
70
4
71
3
72
12
73
8
40
0
40
0
40
0
40
0
40
0.491431247298278
40
0.491431247298278
40
0.897061246164301
40
0.897061246164301
40
1
40
1
40
1
40
1
41
1
10
93.9357984314896
20
-9.57189588383653
30
0
41
1
10
94.0050255110127
20
-9.58688350784212
30
0
41
1
10
94.0736650040643
20
-9.61332764809532
30
0
41
1
10
94.1892272981987
20
-9.68314675354088
30
0
41
1
10
94.2390657057103
20
-9.72370153589506
30
0
41
1
10
94.2930654408336
20
-9.78384876330523
30
0
41
1
10
94.303657640701
20
-9.79660134508416
30
0
41
1
10
94.3137722419184
20
-9.80979699586172
30
0
0
SPLINE
5
C7
100
AcDbEntity
8
1
62
256
6
ByLayer
370
-1
48
1
60
0
100
AcDbSpline
70
4
71
3
72
18
73
14
40
0
40
0
40
0
40
0
40
0.0462803726436579
40
0.0462803726436579
40
0.269445905067822
40
0.269445905067822
40
0.494452102676084
40
0.494452102676084
40
0.733138360545612
40
0.733138360545612
40
0.994828763639014
40
0.994828763639014
40
1
40
1
40
1
40
1
41
1
10
94.5520112552096
20
-7.85612807146055
30
0
41
1
10
94.5573792129449
20
-7.85304096624037
30
0
41
1
10
94.562851600438
20
-7.85011542271863
30
0
41
1
10
94.5949749647035
20
-7.83419730691318
30
0
41
1
10
94.6239443973637
20
-7.82487941351175
30
0
41
1
10
94.6821435675928
20
-7.815053024832
30
0
41
1
10
94.7121120390711
20
-7.81447046249855
30
0
41
1
10
94.7708709558875
20
-7.82156032322933
30
0
41
1
10
94.8002195713406
20
-7.82979507690521
30
0
41
1
10
94.855925445749
20
-7.8544735829901
30
0
41
1
10
94.8824374391646
20
-7.87191038351068
30
0
41
1
10
94.9052900043579
20
-7.89265244068707
30
0
41
1
10
94.9057360929996
20
-7.89305992179095
30
0
41
1
10
94.9061806783347
20
-7.89346862370434
30
0
0
SPLINE
5
C8
100
AcDbEntity
8
1
62
256
6
ByLayer
370
-1
48
1
60
0
100
AcDbSpline
70
4
71
3
72
16
73
12
40
0
40
0
40
0
40
0
40
0.178859379296807
40
0.178859379296807
40
0.476311825203838
40
0.476311825203838
40
0.745026908228675
40
0.745026908228675
40
0.983689427309969
40
0.983689427309969
40
1
40
1
40
1
40
1
41
1
10
93.9357984314889
20
-9.57189588384
30
0
41
1
10
93.9149269311471
20
-9.56737721568717
30
0
41
1
10
93.894330845738
20
-9.56047005552799
30
0
41
1
10
93.8422611011031
20
-9.53595897502899
30
0
41
1
10
93.8116882378362
20
-9.51372221503291
30
0
41
1
10
93.7641148118583
20
-9.46102656440939
30
0
41
1
10
93.7454081959471
20
-9.43070612547848
30
0
41
1
10
93.7221344508033
20
-9.36869773452972
30
0
41
1
10
93.7159190026562
20
-9.33663599701754
30
0
41
1
10
93.7151953743434
20
-9.30250742445963
30
0
41
1
10
93.7151740666394
20
-9.30029248119769
30
0
41
1
10
93.7151783922642
20
-9.29807684755869
30
0
0
SPLINE
5
C9
100
AcDbEntity
8
1
62
256
6
ByLayer
370
-1
48
1
60
0
100
AcDbSpline
70
4
71
3
72
14
73
10
40
0
40
0
40
0
40
0
40
0.19681144461507
40
0.19681144461507
40
0.500155632696673
40
0.500155632696673
40
0.768090768170082
40
0.768090768170082
40
1
40
1
40
1
40
1
41
1
10
96.3688507443783
20
-10.417026571481
30
0
41
1
10
96.374563589184
20
-10.4403783410343
30
0
41
1
10
96.3776839598224
20
-10.4648158011396
30
0
41
1
10
96.3781659328012
20
-10.5273003348949
30
0
41
1
10
96.3713564648832
20
-10.5667229418395
30
0
41
1
10
96.3446549317066
20
-10.6357739441811
30
0
41
1
10
96.325904866082
20
-10.6670421438876
30
0
41
1
10
96.2819331984846
20
-10.7166447714747
30
0
41
1
10
96.2573106162176
20
-10.7368105485152
30
0
41
1
10
96.2305823123573
20
-10.7521819598494
30
0
0
SPLINE
5
CA
100
AcDbEntity
8
1
62
256
6
ByLayer
370
-1
48
1
60
0
100
AcDbSpline
70
4
71
3
72
18
73
14
40
0
40
0
40
0
40
0
40
0.206080350813967
40
0.206080350813967
40
0.381309681099857
40
0.381309681099857
40
0.558295000452054
40
0.558295000452054
40
0.711471010956833
40
0.711471010956833
40
0.913178573329594
40
0.913178573329594
40
1
40
1
40
1
40
1
41
1
10
96.3688507443716
20
-10.4170265714831
30
0
41
1
10
96.3519262652354
20
-10.347846233133
30
0
41
1
10
96.3445468393717
20
-10.2740133610531
30
0
41
1
10
96.3522963786341
20
-10.1363170267678
30
0
41
1
10
96.3644718390431
20
-10.0710652495285
30
0
41
1
10
96.4070223696488
20
-9.94624204212414
30
0
41
1
10
96.4383986078814
20
-9.8849521368972
30
0
41
1
10
96.5100257312835
20
-9.78546556790732
30
0
41
1
10
96.5493050315805
20
-9.74402248905523
30
0
41
1
10
96.646511879187
20
-9.66446383714498
30
0
41
1
10
96.7079317713074
20
-9.62997580068259
30
0
41
1
10
96.7979359015196
20
-9.59632117638037
30
0
41
1
10
96.8256670453461
20
-9.58808397281962
30
0
41
1
10
96.8535958023584
20
-9.58176116301942
30
0
0
SPLINE
5
CB
100
AcDbEntity
8
1
62
256
6
ByLayer
370
-1
48
1
60
0
100
AcDbSpline
70
4
71
3
72
16
73
12
40
0
40
0
40
0
40
0
40
0.0563524211841067
40
0.0563524211841067
40
0.277063700568839
40
0.277063700568839
40
0.500202517777325
40
0.500202517777325
40
0.737375149598491
40
0.737375149598491
40
1
40
1
40
1
40
1
41
1
10
96.2240763420139
20
-7.85521303612285
30
0
41
1
10
96.2306885633922
20
-7.85899869986534
30
0
41
1
10
96.2371614738823
20
-7.86303503193781
30
0
41
1
10
96.2679449713635
20
-7.88387723212736
30
0
41
1
10
96.2901085242593
20
-7.9042714913947
30
0
41
1
10
96.3267018819336
20
-7.94938841994735
30
0
41
1
10
96.3415282673339
20
-7.97471694358347
30
0
41
1
10
96.3631935115524
20
-8.02822083258027
30
0
41
1
10
96.3697722531563
20
-8.057134373525
30
0
41
1
10
96.3740608447421
20
-8.11639615993477
30
0
41
1
10
96.370862389825
20
-8.14733085696014
30
0
41
1
10
96.3629846262338
20
-8.17602439198782
30
0
0
SPLINE
5
CC
100
AcDbEntity
8
1
62
256
6
ByLayer
370
-1
48
1
60
0
100
AcDbSpline
70
4
71
3
72
14
73
10
40
0
40
0
40
0
40
0
40
0.260538795521768
40
0.260538795521768
40
0.549802558585611
40
0.549802558585611
40
0.811364085282595
40
0.811364085282595
40
1
40
1
40
1
40
1
41
1
10
94.4183721277
20
-8.1740066602116
30
0
41
1
10
94.4101294715857
20
-8.14561581205243
30
0
41
1
10
94.4064809054435
20
-8.11508719900169
30
0
41
1
10
94.4101039892587
20
-8.05048809214645
30
0
41
1
10
94.4187658821127
20
-8.01536531875058
30
0
41
1
10
94.4480963245441
20
-7.95338350325054
30
0
41
1
10
94.4680384632019
20
-7.92513993570722
30
0
41
1
10
94.5100000017041
20
-7.88400751066138
30
0
41
1
10
94.5302633935263
20
-7.86863523724708
30
0
41
1
10
94.5520112552096
20
-7.85612807146055
30
0
0
SPLINE
5
CD
100
AcDbEntity
8
1
62
256
6
ByLayer
370
-1
48
1
60
0
100
AcDbSpline
70
4
71
3
72
12
73
8
40
0
40
0
40
0
40
0
40
0.438322187705671
40
0.438322187705671
40
0.853495289612434
40
0.853495289612434
40
1
40
1
40
1
40
1
41
1
10
96.851498342349
20
-9.01886154270932
30
0
41
1
10
96.7911157724498
20
-9.0002673826267
30
0
41
1
10
96.7312387273444
20
-8.97286473719768
30
0
41
1
10
96.6217151197877
20
-8.90278561734576
30
0
41
1
10
96.5704883604123
20
-8.8600270511846
30
0
41
1
10
96.5097849354135
20
-8.79307000844949
30
0
41
1
10
96.4946047500425
20
-8.77463149409263
30
0
41
1
10
96.4803518844389
20
-8.75548040420159
30
0
0
SPLINE
5
CE
100
AcDbEntity
8
1
62
256
6
ByLayer
370
-1
48
1
60
0
100
AcDbSpline
70
4
71
3
72
14
73
10
40
0
40
0
40
0
40
0
40
0.276313965539736
40
0.276313965539736
40
0.561779574133417
40
0.561779574133417
40
0.819998241053618
40
0.819998241053618
40
1
40
1
40
1
40
1
41
1
10
96.8514983423493
20
-9.01886154270807
30
0
41
1
10
96.8829591428398
20
-9.02854955634552
30
0
41
1
10
96.913963274737
20
-9.04391570337768
30
0
41
1
10
96.9705891833081
20
-9.08544950867483
30
0
41
1
10
96.9968463490361
20
-9.11266350950783
30
0
41
1
10
97.0359267399083
20
-9.1721305630418
30
0
41
1
10
97.0503338822356
20
-9.2045891678647
30
0
41
1
10
97.0644648319858
20
-9.26162453741586
30
0
41
1
10
97.0674622873115
20
-9.28610188345183
30
0
41
1
10
97.0674151753026
20
-9.31023318375117
30
0
0
SPLINE
5
CF
100
AcDbEntity
8
1
62
256
6
ByLayer
370
-1
48
1
60
0
100
AcDbSpline
70
4
71
3
72
16
73
12
40
0
40
0
40
0
40
0
40
0.0526921041254279
40
0.0526921041254279
40
0.275653921912832
40
0.275653921912832
40
0.500825637254731
40
0.500825637254731
40
0.739973240445341
40
0.739973240445341
40
1
40
1
40
1
40
1
41
1
10
97.0674151753026
20
-9.31023318375117
30
0
41
1
10
97.0674014362237
20
-9.31727049439033
30
0
41
1
10
97.0671338376237
20
-9.32430283721061
30
0
41
1
10
97.0644319653918
20
-9.36066032072893
30
0
41
1
10
97.0576365993951
20
-9.38980006940503
30
0
41
1
10
97.0361767246152
20
-9.4433032398758
30
0
41
1
10
97.0211828292846
20
-9.46830734430759
30
0
41
1
10
96.9845212781404
20
-9.51261424030196
30
0
41
1
10
96.9620624420078
20
-9.53204229538309
30
0
41
1
10
96.9116889355264
20
-9.56348441024849
30
0
41
1
10
96.8828687990498
20
-9.57513402990813
30
0
41
1
10
96.8535958023585
20
-9.58176116301968
30
0
0
SPLINE
5
D0
100
AcDbEntity
8
1
62
256
6
ByLayer
370
-1
48
1
60
0
100
AcDbSpline
70
4
71
3
72
18
73
14
40
0
40
0
40
0
40
0
40
0.165421093161062
40
0.165421093161062
40
0.348508202712771
40
0.348508202712771
40
0.504119699349251
40
0.504119699349251
40
0.659863331906964
40
0.659863331906964
40
0.815945104647949
40
0.815945104647949
40
1
40
1
40
1
40
1
41
1
10
95.8747436057137
20
-7.89293857896271
30
0
41
1
10
95.8363370119351
20
-7.92956748227832
30
0
41
1
10
95.7922466777332
20
-7.96245308358385
30
0
41
1
10
95.6894137172535
20
-8.02033968812489
30
0
41
1
10
95.6282514216007
20
-8.04469088150563
30
0
41
1
10
95.5081890727573
20
-8.07329557130308
30
0
41
1
10
95.4489530824878
20
-8.08021445390099
30
0
41
1
10
95.3316809934001
20
-8.07964321381405
30
0
41
1
10
95.2722317519072
20
-8.07213794117263
30
0
41
1
10
95.1608192804538
20
-8.04472006307395
30
0
41
1
10
95.1075417602651
20
-8.02456122950034
30
0
41
1
10
95.0021347174442
20
-7.9705432539152
30
0
41
1
10
94.9506215548527
20
-7.93432258318154
30
0
41
1
10
94.9061806783347
20
-7.89346862370434
30
0
0
SPLINE
5
D1
100
AcDbEntity
8
1
62
256
6
ByLayer
370
-1
48
1
60
0
100
AcDbSpline
70
4
71
3
72
14
73
10
40
0
40
0
40
0
40
0
40
0.275445657243256
40
0.275445657243256
40
0.562838602452308
40
0.562838602452308
40
0.82286733616042
40
0.82286733616042
40
1
40
1
40
1
40
1
41
1
10
95.8747436057138
20
-7.89293857896268
30
0
41
1
10
95.8973587806121
20
-7.8713701717362
30
0
41
1
10
95.9246164875623
20
-7.85297439853588
30
0
41
1
10
95.9862538469785
20
-7.82580886616185
30
0
41
1
10
96.0218886860924
20
-7.81712778729869
30
0
41
1
10
96.0913719098804
20
-7.81369140767311
30
0
41
1
10
96.1261232478014
20
-7.81769684789194
30
0
41
1
10
96.1815184118757
20
-7.83407689345088
30
0
41
1
10
96.2035968392439
20
-7.84348800354076
30
0
41
1
10
96.2240763420139
20
-7.85521303612285
30
0
0
SPLINE
5
D2
100
AcDbEntity
8
1
62
256
6
ByLayer
370
-1
48
1
60
0
100
AcDbSpline
70
4
71
3
72
20
73
16
40
0
40
0
40
0
40
0
40
0.073270219986025
40
0.073270219986025
40
0.276138039491819
40
0.276138039491819
40
0.439388851951861
40
0.439388851951861
40
0.603561936109311
40
0.603561936109311
40
0.755785137223617
40
0.755785137223617
40
0.970287226211428
40
0.970287226211428
40
1
40
1
40
1
40
1
41
1
10
94.4183721277
20
-8.17400666021163
30
0
41
1
10
94.4249589330316
20
-8.19669412738676
30
0
41
1
10
94.4303112652293
20
-8.21993302033792
30
0
41
1
10
94.4454130783482
20
-8.30878916095392
30
0
41
1
10
94.4464151826506
20
-8.37848943739397
30
0
41
1
10
94.4263574846065
20
-8.50498282216697
30
0
41
1
10
94.4091764585887
20
-8.56302945565074
30
0
41
1
10
94.3589515604605
20
-8.67359493559965
30
0
41
1
10
94.3250699369955
20
-8.72751123798787
30
0
41
1
10
94.2492665798596
20
-8.81909880507317
30
0
41
1
10
94.2073062950531
20
-8.85880021684545
30
0
41
1
10
94.1008403862064
20
-8.93915732279828
30
0
41
1
10
94.032358339636
20
-8.97519875049895
30
0
41
1
10
93.9532086583332
20
-9.00306497024275
30
0
41
1
10
93.9434327357514
20
-9.00627646649784
30
0
41
1
10
93.9336270697174
20
-9.00927206867368
30
0
0
SPLINE
5
D3
100
AcDbEntity
8
1
62
256
6
ByLayer
370
-1
48
1
60
0
100
AcDbSpline
70
4
71
3
72
16
73
12
40
0
40
0
40
0
40
0
40
0.171543924838513
40
0.171543924838513
40
0.391962398020267
40
0.391962398020267
40
0.621118025054165
40
0.621118025054165
40
0.86936652575953
40
0.86936652575953
40
1
40
1
40
1
40
1
41
1
10
94.558517225553
20
-10.753096995187
30
0
41
1
10
94.538537595787
20
-10.7416581525249
30
0
41
1
10
94.5198015911841
20
-10.7276188448359
30
0
41
1
10
94.4819081132936
20
-10.6912958457883
30
0
41
1
10
94.4636975305568
20
-10.6673092678126
30
0
41
1
10
94.4352166244651
20
-10.6152306821219
30
0
41
1
10
94.4249060411123
20
-10.5863721262557
30
0
41
1
10
94.412814465664
20
-10.5260093306414
30
0
41
1
10
94.4116305899971
20
-10.4937370801827
30
0
41
1
10
94.4169167345744
20
-10.4464731200644
30
0
41
1
10
94.4200282872889
20
-10.4303673174252
30
0
41
1
10
94.4243121476028
20
-10.4147330345559
30
0
0
SPLINE
5
D4
100
AcDbEntity
8
1
62
256
6
ByLayer
370
-1
48
1
60
0
100
AcDbSpline
70
4
71
3
72
16
73
12
40
0
40
0
40
0
40
0
40
0.208544580752949
40
0.208544580752949
40
0.431740467315128
40
0.431740467315128
40
0.665590488389155
40
0.665590488389155
40
0.920151354925421
40
0.920151354925421
40
1
40
1
40
1
40
1
41
1
10
93.7151783922642
20
-9.29807684755869
30
0
41
1
10
93.7152323166914
20
-9.27045615001788
30
0
41
1
10
93.7193842363465
20
-9.242373694197
30
0
41
1
10
93.7356406841509
20
-9.18741105438616
30
0
41
1
10
93.7484930419567
20
-9.16005238384247
30
0
41
1
10
93.7813270723886
20
-9.11012989188291
30
0
41
1
10
93.8020075049873
20
-9.08721413553647
30
0
41
1
10
93.8495521267257
20
-9.04752130219947
30
0
41
1
10
93.8773752998894
20
-9.03094360117291
30
0
41
1
10
93.9151561297608
20
-9.01539048832885
30
0
41
1
10
93.9243565079628
20
-9.01210419806324
30
0
41
1
10
93.9336270697174
20
-9.00927206867348
30
0
0
SPLINE
5
D5
100
AcDbEntity
8
SK1
62
256
6
ByLayer
370
-1
48
1
60
0
100
AcDbSpline
70
4
71
3
72
8
73
4
40
0
40
0
40
0
40
0
40
1
40
1
40
1
40
1
41
1
10
-201.32
20
-10.00875
30
0
41
1
10
-200.859655007734
20
-10.00875
30
0
41
1
10
-200.133727170391
20
-10.00875
30
0
41
1
10
-199.32
20
-10.00875
30
0
0
LINE
5
49
100
AcDbEntity
8
80
62
256
6
ByLayer
370
-1
48
1
60
0
100
AcDbLine
10
0
20
0
30
0
11
-10
21
0
31
0
39
0
210
0
220
0
230
1
0
LINE
5
4A
100
AcDbEntity
8
81
62
256
6
ByLayer
370
-1
48
1
60
0
100
AcDbLine
10
99.93
20
-16.9
30
0
11
109.93
21
-16.9
31
0
39
0
210
0
220
0
230
1
0
LINE
5
4B
100
AcDbEntity
8
SK4
62
256
6
ByLayer
370
-1
48
0.05
60
0
100
AcDbLine
10
-206.32
20
0
30
0
11
107.39725
21
0
31
0
39
0
210
0
220
0
230
1
0
LINE
5
4D
100
AcDbEntity
8
4
62
256
6
ByLayer
370
-1
48
0.05
60
0
100
AcDbLine
10
0
20
0
30
0
11
107.39725
21
0
31
0
39
0
210
0
220
0
230
1
0
LINE
5
4F
100
AcDbEntity
8
1
62
256
6
ByLayer
370
-1
48
1
60
0
100
AcDbLine
10
81.521434
20
12.49125
30
0
11
0
21
12.49125
31
0
39
0
210
0
220
0
230
1
0
LINE
5
50
100
AcDbEntity
8
1
62
256
6
ByLayer
370
-1
48
1
60
0
100
AcDbLine
10
81.596434
20
12.41625
30
0
11
81.521434
21
12.49125
31
0
39
0
210
0
220
0
230
1
0
LINE
5
51
100
AcDbEntity
8
1
62
256
6
ByLayer
370
-1
48
1
60
0
100
AcDbLine
10
82.622209
20
12.41625
30
0
11
81.596434
21
12.41625
31
0
39
0
210
0
220
0
230
1
0
LINE
5
52
100
AcDbEntity
8
SK1
62
256
6
ByLayer
370
-1
48
1
60
0
100
AcDbLine
10
-199.32
20
12.49125
30
0
11
-201.32
21
10.49125
31
0
39
0
210
0
220
0
230
1
0
LINE
5
54
100
AcDbEntity
8
SK1
62
256
6
ByLayer
370
-1
48
1
60
0
100
AcDbLine
10
0
20
12.49125
30
0
11
-199.32
21
12.49125
31
0
39
0
210
0
220
0
230
1
0
LINE
5
55
100
AcDbEntity
8
1
62
256
6
ByLayer
370
-1
48
1
60
0
100
AcDbLine
10
94.42108
20
-8.515294
30
0
11
94.459416
21
-8.372225
31
0
39
0
210
0
220
0
230
1
0
LINE
5
56
100
AcDbEntity
8
1
62
256
6
ByLayer
370
-1
48
1
60
0
100
AcDbLine
10
96.410288
20
-9.910987
30
0
11
96.371972
21
-10.053982
31
0
39
0
210
0
220
0
230
1
0
LINE
5
57
100
AcDbEntity
8
1
62
256
6
ByLayer
370
-1
48
1
60
0
100
AcDbLine
10
92.116995
20
-8.290832
30
0
11
92.091537
21
-8.385844
31
0
39
0
210
0
220
0
230
1
0
LINE
5
58
100
AcDbEntity
8
1
62
256
6
ByLayer
370
-1
48
1
60
0
100
AcDbLine
10
98.708129
20
-10.158754
30
0
11
98.733587
21
-10.063743
31
0
39
0
210
0
220
0
230
1
0
LINE
5
59
100
AcDbEntity
8
1
62
256
6
ByLayer
370
-1
48
1
60
0
100
AcDbLine
10
0
20
4.87661
30
0
11
0
21
12.49125
31
0
39
0
210
0
220
0
230
1
0
LINE
5
5A
100
AcDbEntity
8
1
62
256
6
ByLayer
370
-1
48
1
60
0
100
AcDbLine
10
89.75937
20
-3.251014
30
0
11
89.958679
21
-3.171909
31
0
39
0
210
0
220
0
230
1
0
LINE
5
5B
100
AcDbEntity
8
1
62
256
6
ByLayer
370
-1
48
1
60
0
100
AcDbLine
10
0
20
-4.87661
30
0
11
0
21
-10.00875
31
0
39
0
210
0
220
0
230
1
0
LINE
5
5C
100
AcDbEntity
8
1
62
256
6
ByLayer
370
-1
48
1
60
0
100
AcDbLine
10
82.622209
20
12.41625
30
0
11
83.120428
21
12.045461
31
0
39
0
210
0
220
0
230
1
0
LINE
5
5D
100
AcDbEntity
8
1
62
256
6
ByLayer
370
-1
48
1
60
0
100
AcDbLine
10
90.805179
20
6.326245
30
0
11
102.39725
21
-2.300914
31
0
39
0
210
0
220
0
230
1
0
LINE
5
5E
100
AcDbEntity
8
1
62
256
6
ByLayer
370
-1
48
1
60
0
100
AcDbLine
10
65.275462
20
-4.87661
30
0
11
0
21
-4.87661
31
0
39
0
210
0
220
0
230
1
0
LINE
5
5F
100
AcDbEntity
8
1
62
256
6
ByLayer
370
-1
48
1
60
0
100
AcDbLine
10
89.958679
20
-3.171909
30
0
11
90.016445
21
-2.952488
31
0
39
0
210
0
220
0
230
1
0
LINE
5
60
100
AcDbEntity
8
1
62
256
6
ByLayer
370
-1
48
1
60
0
100
AcDbLine
10
90.079144
20
-2.718688
30
0
11
90.021779
21
-2.932777
31
0
39
0
210
0
220
0
230
1
0
LINE
5
61
100
AcDbEntity
8
1
62
256
6
ByLayer
370
-1
48
1
60
0
100
AcDbLine
10
85.670367
20
-12.772426
30
0
11
90.805179
21
6.326245
31
0
39
0
210
0
220
0
230
1
0
LINE
5
62
100
AcDbEntity
8
1
62
256
6
ByLayer
370
-1
48
1
60
0
100
AcDbLine
10
81.596434
20
12.41625
30
0
11
81.596434
21
11.900487
31
0
39
0
210
0
220
0
230
1
0
LINE
5
63
100
AcDbEntity
8
1
62
256
6
ByLayer
370
-1
48
1
60
0
100
AcDbLine
10
90.016044
20
-2.95782
30
0
11
90.070871
21
-2.749562
31
0
39
0
210
0
220
0
230
1
0
LINE
5
64
100
AcDbEntity
8
1
62
256
6
ByLayer
370
-1
48
1
60
0
100
AcDbLine
10
102.39725
20
-4.648576
30
0
11
102.39725
21
-2.300914
31
0
39
0
210
0
220
0
230
1
0
LINE
5
65
100
AcDbEntity
8
1
62
256
6
ByLayer
370
-1
48
1
60
0
100
AcDbLine
10
90.016044
20
-2.95782
30
0
11
89.958679
21
-3.171909
31
0
39
0
210
0
220
0
230
1
0
LINE
5
66
100
AcDbEntity
8
1
62
256
6
ByLayer
370
-1
48
1
60
0
100
AcDbLine
10
80.189561
20
-10.00875
30
0
11
82.592348
21
-12.411538
31
0
39
0
210
0
220
0
230
1
0
LINE
5
67
100
AcDbEntity
8
1
62
256
6
ByLayer
370
-1
48
1
60
0
100
AcDbLine
10
89.817136
20
-3.031593
30
0
11
89.75937
21
-3.251014
31
0
39
0
210
0
220
0
230
1
0
LINE
5
68
100
AcDbEntity
8
1
62
256
6
ByLayer
370
-1
48
1
60
0
100
AcDbLine
10
89.817136
20
-3.031593
30
0
11
90.016445
21
-2.952488
31
0
39
0
210
0
220
0
230
1
0
LINE
5
69
100
AcDbEntity
8
1
62
256
6
ByLayer
370
-1
48
1
60
0
100
AcDbLine
10
81.521434
20
12.49125
30
0
11
81.521434
21
11.966002
31
0
39
0
210
0
220
0
230
1
0
LINE
5
6A
100
AcDbEntity
8
1
62
256
6
ByLayer
370
-1
48
1
60
0
100
AcDbLine
10
0
20
4.87661
30
0
11
68.493102
21
4.87661
31
0
39
0
210
0
220
0
230
1
0
LINE
5
6B
100
AcDbEntity
8
1
62
256
6
ByLayer
370
-1
48
1
60
0
100
AcDbLine
10
92.627315
20
-2.030722
30
0
11
92.66795
21
-1.87907
31
0
39
0
210
0
220
0
230
1
0
LINE
5
6C
100
AcDbEntity
8
1
62
256
6
ByLayer
370
-1
48
1
60
0
100
AcDbLine
10
0
20
-10.00875
30
0
11
66.876071
21
-10.00875
31
0
39
0
210
0
220
0
230
1
0
LINE
5
6D
100
AcDbEntity
8
1
62
256
6
ByLayer
370
-1
48
1
60
0
100
AcDbLine
10
66.876071
20
-10.00875
30
0
11
80.189561
21
-10.00875
31
0
39
0
210
0
220
0
230
1
0
LINE
5
6E
100
AcDbEntity
8
1
62
256
6
ByLayer
370
-1
48
1
60
0
100
AcDbLine
10
0
20
-4.87661
30
0
11
0
21
4.87661
31
0
39
0
210
0
220
0
230
1
0
LINE
5
6F
100
AcDbEntity
8
1
62
256
6
ByLayer
370
-1
48
1
60
0
100
AcDbLine
10
83.120428
20
12.045461
30
0
11
90.805179
21
6.326245
31
0
39
0
210
0
220
0
230
1
0
LINE
5
70
100
AcDbEntity
8
SK1
62
256
6
ByLayer
370
-1
48
1
60
0
100
AcDbLine
10
0
20
-4.87661
30
0
11
-199.32
21
-4.87661
31
0
39
0
210
0
220
0
230
1
0
LINE
5
71
100
AcDbEntity
8
SK1
62
256
6
ByLayer
370
-1
48
1
60
0
100
AcDbLine
10
-201.32
20
10.49125
30
0
11
-201.32
21
-10.00875
31
0
39
0
210
0
220
0
230
1
0
LINE
5
72
100
AcDbEntity
8
SK1
62
256
6
ByLayer
370
-1
48
1
60
0
100
AcDbLine
10
-199.32
20
-4.87661
30
0
11
-199.32
21
-10.00875
31
0
39
0
210
0
220
0
230
1
0
LINE
5
73
100
AcDbEntity
8
SK1
62
256
6
ByLayer
370
-1
48
1
60
0
100
AcDbLine
10
-199.32
20
12.49125
30
0
11
-199.32
21
4.87661
31
0
39
0
210
0
220
0
230
1
0
LINE
5
74
100
AcDbEntity
8
SK1
62
256
6
ByLayer
370
-1
48
1
60
0
100
AcDbLine
10
-199.32
20
4.87661
30
0
11
0
21
4.87661
31
0
39
0
210
0
220
0
230
1
0
LINE
5
75
100
AcDbEntity
8
1
62
256
6
ByLayer
370
-1
48
1
60
0
100
AcDbLine
10
102.953323
20
-5.616804
30
0
11
100.087033
21
-16.313946
31
0
39
0
210
0
220
0
230
1
0
LINE
5
76
100
AcDbEntity
8
1
62
256
6
ByLayer
370
-1
48
1
60
0
100
AcDbLine
10
91.657819
20
-1.770948
30
0
11
102.391187
21
-4.646945
31
0
39
0
210
0
220
0
230
1
0
LINE
5
77
100
AcDbEntity
8
1
62
256
6
ByLayer
370
-1
48
1
60
0
100
AcDbLine
10
99.115279
20
-16.8728
30
0
11
88.381911
21
-13.996803
31
0
39
0
210
0
220
0
230
1
0
LINE
5
78
100
AcDbEntity
8
1
62
256
6
ByLayer
370
-1
48
1
60
0
100
AcDbLine
10
87.819775
20
-13.026944
30
0
11
90.686065
21
-2.329802
31
0
39
0
210
0
220
0
230
1
0
LINE
5
79
100
AcDbEntity
8
1
62
256
6
ByLayer
370
-1
48
1
60
0
100
AcDbLine
10
94.434886
20
-9.812525
30
0
11
94.397097
21
-9.953558
31
0
39
0
210
0
220
0
230
1
0
LINE
5
7A
100
AcDbEntity
8
1
62
256
6
ByLayer
370
-1
48
1
60
0
100
AcDbLine
10
94.313772
20
-9.809797
30
0
11
94.351562
21
-9.668764
31
0
39
0
210
0
220
0
230
1
0
LINE
5
7B
100
AcDbEntity
8
1
62
256
6
ByLayer
370
-1
48
1
60
0
100
AcDbLine
10
94.465515
20
-10.26096
30
0
11
94.424312
21
-10.414733
31
0
39
0
210
0
220
0
230
1
0
LINE
5
7C
100
AcDbEntity
8
1
62
256
6
ByLayer
370
-1
48
1
60
0
100
AcDbLine
10
95.922282
20
-10.543654
30
0
11
95.881042
21
-10.697565
31
0
39
0
210
0
220
0
230
1
0
LINE
5
7D
100
AcDbEntity
8
1
62
256
6
ByLayer
370
-1
48
1
60
0
100
AcDbLine
10
94.95372
20
-10.544184
30
0
11
94.912479
21
-10.698095
31
0
39
0
210
0
220
0
230
1
0
LINE
5
7E
100
AcDbEntity
8
1
62
256
6
ByLayer
370
-1
48
1
60
0
100
AcDbLine
10
96.894836
20
-9.42785
30
0
11
96.853596
21
-9.581761
31
0
39
0
210
0
220
0
230
1
0
LINE
5
7F
100
AcDbEntity
8
1
62
256
6
ByLayer
370
-1
48
1
60
0
100
AcDbLine
10
94.459612
20
-8.020096
30
0
11
94.418372
21
-8.174007
31
0
39
0
210
0
220
0
230
1
0
LINE
5
80
100
AcDbEntity
8
1
62
256
6
ByLayer
370
-1
48
1
60
0
100
AcDbLine
10
93.977002
20
-9.418123
30
0
11
93.935798
21
-9.571896
31
0
39
0
210
0
220
0
230
1
0
LINE
5
81
100
AcDbEntity
8
SK1
62
256
6
ByLayer
370
-1
48
1
60
0
100
AcDbLine
10
0
20
-4.87661
30
0
11
0
21
-10.00875
31
0
39
0
210
0
220
0
230
1
0
LINE
5
82
100
AcDbEntity
8
SK1
62
256
6
ByLayer
370
-1
48
1
60
0
100
AcDbLine
10
0
20
12.49125
30
0
11
0
21
4.87661
31
0
39
0
210
0
220
0
230
1
0
LINE
5
83
100
AcDbEntity
8
SK1
62
256
6
ByLayer
370
-1
48
1
60
0
100
AcDbLine
10
0
20
-4.87661
30
0
11
0
21
4.87661
31
0
39
0
210
0
220
0
230
1
0
LINE
5
84
100
AcDbEntity
8
SK1
62
256
6
ByLayer
370
-1
48
1
60
0
100
AcDbLine
10
-199.32
20
-10.00875
30
0
11
0
21
-10.00875
31
0
39
0
210
0
220
0
230
1
0
LINE
5
85
100
AcDbEntity
8
2
62
256
6
ByLayer
370
-1
48
1
60
1
100
AcDbLine
10
99.93
20
0
30
0
11
99.931
21
0.001
31
0
39
0
210
0
220
0
230
1
0
MTEXT
5
D6
100
AcDbEntity
8
SK6
62
256
6
ByLayer
370
-1
48
1
60
0
100
AcDbMText
10
-47.32
20
19.411875
30
0
210
0
220
0
230
1
1
\W00.775;\fsimplex.shx,bigfont.shx;A25T-SSKCL 12 
40
3.5
41
0
44
1.084337
50
0
71
7
72
5
7
DEFAULT
0
DIMENSION
5
109
100
AcDbEntity
8
2
62
256
6
ByLayer
370
-3
48
1
60
0
100
AcDbDimension
2
DimnDraft3D1
10
112.18
20
0
30
0
11
112.18
21
-13.050658
31
0
70
32
71
5
72
1
41
1
210
0
220
0
230
1
3
Standard
100
AcDbAlignedDimension
13
101.93
23
-16.9
33
0
14
101.93
24
0
34
0
50
90
100
AcDbRotatedDimension
1001
ACAD
1000
DSTYLE
1002
{
1070
    74
1070
     0
1070
   279
1070
     0
1070
   172
1070
     1
1070
   173
1070
     1
1070
   340
1005
D7
1070
    77
1070
     1
1070
    73
1070
     0
1070
   171
1070
     4
1070
   274
1070
     4
1070
   177
1070
     2
1070
   176
1070
     2
1070
   178
1070
     7
1070
    78
1070
     8
1070
    41
1041
3.175
1070
   147
1041
2.25
1070
    42
1041
2.0
1070
    44
1041
2.0
1070
   140
1041
4.5
1070
   343
1005
10A
1070
   344
1005
10A
1002
}
0
DIMENSION
5
11F
100
AcDbEntity
8
SK2
62
256
6
ByLayer
370
-3
48
1
60
0
100
AcDbDimension
2
DimnDraft3D2
10
-211.07
20
12.49125
30
0
11
-211.07
21
-4.784211
31
0
70
32
71
5
72
1
41
1
210
0
220
0
230
1
3
Standard
100
AcDbAlignedDimension
13
-203.32
23
-12.49125
33
0
14
-203.32
24
12.49125
34
0
50
90
100
AcDbRotatedDimension
1001
ACAD
1000
DSTYLE
1002
{
1070
    74
1070
     0
1070
   279
1070
     0
1070
   172
1070
     1
1070
   173
1070
     1
1070
   340
1005
D7
1070
    77
1070
     1
1070
    73
1070
     0
1070
   171
1070
     4
1070
   274
1070
     4
1070
   177
1070
     2
1070
   176
1070
     2
1070
   178
1070
     7
1070
    78
1070
     8
1070
    41
1041
3.175
1070
   147
1041
2.25
1070
    42
1041
2.0
1070
    44
1041
2.0
1070
   140
1041
4.5
1070
   343
1005
10A
1070
   344
1005
10A
1002
}
0
DIMENSION
5
12D
100
AcDbEntity
8
SK2
62
256
6
ByLayer
370
-3
48
1
60
0
100
AcDbDimension
2
DimnDraft3D3
10
99.93
20
-34.15
30
0
11
-57.510132
21
-34.15
31
0
70
32
71
5
72
1
41
1
210
0
220
0
230
1
3
Standard
100
AcDbAlignedDimension
13
-201.32
23
-14.49125
33
0
14
99.93
24
-18.9
34
0
50
0
100
AcDbRotatedDimension
1001
ACAD
1000
DSTYLE
1002
{
1070
   279
1070
     0
1070
   172
1070
     1
1070
   173
1070
     1
1070
   340
1005
D7
1070
    77
1070
     1
1070
    73
1070
     0
1070
   171
1070
     4
1070
   274
1070
     4
1070
   177
1070
     2
1070
   176
1070
     2
1070
   178
1070
     7
1070
    78
1070
     8
1070
    41
1041
3.175
1070
   147
1041
2.25
1070
    42
1041
2.0
1070
    44
1041
2.0
1070
   140
1041
4.5
1070
   343
1005
10A
1070
   344
1005
10A
1002
}
0
DIMENSION
5
13B
100
AcDbEntity
8
2
62
256
6
ByLayer
370
-3
48
1
60
0
100
AcDbDimension
2
DimnDraft3D4
10
144.384748
20
0
30
0
11
132.453977
21
29.512343
31
0
70
34
71
5
72
1
41
1
210
0
220
0
230
1
3
Standard
100
AcDb2LineAngularDimension
13
103.553467
23
-3.377038
33
0
14
114.792056
24
38.565948
34
0
15
101.93
25
0
35
0
16
138.117473
26
25.82756
36
0
40
0
0
ENDSEC
0
SECTION
2
OBJECTS
0
DICTIONARY
5
16c
330
0
100
AcDbDictionary
280
0
281
1
3
ACAD_GROUP
350
16d
3
ACAD_MLINESTYLE
350
16e
0
DICTIONARY
5
16d
330
0
100
AcDbDictionary
280
0
281
1
0
DICTIONARY
5
16e
330
0
100
AcDbDictionary
280
0
281
1
3
Standard
350
18
0
MLINESTYLE
5
18
330
16e
100
AcDbMlineStyle
2
Standard
70
0
3

62
256
51
90
52
90
71
2
49
-0.5
62
256
6
ByLayer
49
0.5
62
256
6
ByLayer
0
RASTERVARIABLES
5
15a
330

100
AcDbRasterVariables
90
0
70
1
71
1
72
1
0
ENDSEC
0
EOF
