0
SECTION
2
HEADER
9
$ACADVER
1
AC1015
9
$DWGCODEPAGE
3
ANSI_1252
9
$HANDSEED
5
18a
9
$ANGBASE
50
0
9
$ANGDIR
70
0
9
$ATTMODE
70
1
9
$AUNITS
70
0
9
$AUPREC
70
0
9
$CECOLOR
62
256
9
$CELTSCALE
40
1
9
$CELTYPE
6
ByLayer
9
$CELWEIGHT
370
-1
9
$CLAYER
8
0
9
$CMLJUST
70
0
9
$CMLSCALE
40
1
9
$CMLSTYLE
2
Standard
9
$DIMSTYLE
2
Standard
9
$TEXTSIZE
40
0.2
9
$TEXTSTYLE
7
Standard
9
$LUNITS
70
2
9
$LUPREC
70
4
9
$EXTNAMES
290
1
9
$INSUNITS
70
4
9
$LTSCALE
40
1
9
$LWDISPLAY
290
0
9
$PDMODE
70
0
9
$PDSIZE
40
0
9
$PLINEGEN
70
0
0
ENDSEC
0
SECTION
2
CLASSES
0
CLASS
1
RASTERVARIABLES
2
AcDbRasterVariables
3
ISM
90
0
280
0
281
0
0
ENDSEC
0
SECTION
2
TABLES
0
TABLE
2
VPORT
5
180
100
AcDbSymbolTable
0
VPORT
5
1
100
AcDbSymbolTableRecord
100
AcDbViewportTableRecord
2
*Active
70
0
10
0
20
0
11
1
21
1
12
-1
22
1
13
0
23
0
14
0.5
24
0.5
15
10
25
10
16
0
26
0
36
1
17
0
27
0
37
0
0
ENDTAB
0
TABLE
2
LTYPE
5
181
100
AcDbSymbolTable
0
LTYPE
5
14
100
AcDbSymbolTableRecord
100
AcDbLinetypeTableRecord
70
0
2
ByBlock
3

72
65
73
0
40
0
0
LTYPE
5
15
100
AcDbSymbolTableRecord
100
AcDbLinetypeTableRecord
70
0
2
ByLayer
3

72
65
73
0
40
0
0
LTYPE
5
16
100
AcDbSymbolTableRecord
100
AcDbLinetypeTableRecord
70
0
2
CONTINUOUS
3
Solid line
72
65
73
0
40
0
0
LTYPE
5
3B
100
AcDbSymbolTableRecord
100
AcDbLinetypeTableRecord
70
0
2
DASHED
3
__ __ __ __ __ __ __ __ __
72
65
73
2
40
25.72
49
12.86
74
0
49
-12.86
74
0
0
LTYPE
5
3C
100
AcDbSymbolTableRecord
100
AcDbLinetypeTableRecord
70
0
2
HIDDEN
3
_ _ _ _ _ _ _ _ _ _ _ _ _ _ _
72
65
73
2
40
0.5
49
0.25
74
0
49
-0.25
74
0
0
LTYPE
5
3D
100
AcDbSymbolTableRecord
100
AcDbLinetypeTableRecord
70
0
2
PHANTOM
3
____ _ _ ____ _ _ _____ _ _ ____
72
65
73
6
40
50.5
49
18
74
0
49
-6.5
74
0
49
6.5
74
0
49
-6.5
74
0
49
6.5
74
0
49
-6.5
74
0
0
LTYPE
5
3E
100
AcDbSymbolTableRecord
100
AcDbLinetypeTableRecord
70
0
2
CENTER
3
____ _ ____ _ ____ _ ____
72
65
73
4
40
47.5
49
22
74
0
49
-8.5
74
0
49
8.5
74
0
49
-8.5
74
0
0
LTYPE
5
3F
100
AcDbSymbolTableRecord
100
AcDbLinetypeTableRecord
70
0
2
DOT
3
.........................
72
65
73
2
40
10
49
0
74
0
49
-10
74
0
0
LTYPE
5
40
100
AcDbSymbolTableRecord
100
AcDbLinetypeTableRecord
70
0
2
DASHDOT
3
_._._._._._._._._._._._._._._._.
72
65
73
4
40
70
49
31
74
0
49
-13
74
0
49
13
74
0
49
-13
74
0
0
ENDTAB
0
TABLE
2
LAYER
5
182
100
AcDbSymbolTable
0
LAYER
5
10
100
AcDbSymbolTableRecord
100
AcDbLayerTableRecord
2
0
70
0
62
7
6
CONTINUOUS
290
1
370
-3
390
0
0
LAYER
5
42
100
AcDbSymbolTableRecord
100
AcDbLayerTableRecord
2
80
70
0
62
-6
6
CONTINUOUS
290
1
370
-3
390
0
0
LAYER
5
44
100
AcDbSymbolTableRecord
100
AcDbLayerTableRecord
2
81
70
0
62
-3
6
CONTINUOUS
290
1
370
-3
390
0
0
LAYER
5
46
100
AcDbSymbolTableRecord
100
AcDbLayerTableRecord
2
1
70
0
62
4
6
CONTINUOUS
290
1
370
-3
390
0
0
LAYER
5
48
100
AcDbSymbolTableRecord
100
AcDbLayerTableRecord
2
2
70
0
62
7
6
CONTINUOUS
290
1
370
-3
390
0
0
LAYER
5
5D
100
AcDbSymbolTableRecord
100
AcDbLayerTableRecord
2
4
70
0
62
-2
6
CENTER
290
1
370
-3
390
0
0
LAYER
5
16c
100
AcDbSymbolTableRecord
100
AcDbLayerTableRecord
2
SK1
70
0
62
4
6
CONTINUOUS
290
1
370
-3
390
0
0
LAYER
5
16d
100
AcDbSymbolTableRecord
100
AcDbLayerTableRecord
2
SK4
70
0
62
2
6
CENTER
290
1
370
-3
390
0
0
LAYER
5
16e
100
AcDbSymbolTableRecord
100
AcDbLayerTableRecord
2
SK6
70
0
62
5
6
CONTINUOUS
290
1
370
-3
390
0
0
LAYER
5
16f
100
AcDbSymbolTableRecord
100
AcDbLayerTableRecord
2
SK2
70
0
62
7
6
CONTINUOUS
290
1
370
-3
390
0
0
ENDTAB
0
TABLE
2
STYLE
5
183
100
AcDbSymbolTable
0
STYLE
5
11
100
AcDbSymbolTableRecord
100
AcDbTextStyleTableRecord
2
Standard
3
txt
70
0
71
0
40
0
41
1
42
0
50
0
0
STYLE
5
E8
100
AcDbSymbolTableRecord
100
AcDbTextStyleTableRecord
2
DEFAULT
3
simplex.shx
70
0
71
0
40
0
41
1
42
0
50
0
0
STYLE
5
10B
100
AcDbSymbolTableRecord
100
AcDbTextStyleTableRecord
2
DWGDirectTextStyle
3
SIMPLEX
70
0
71
0
40
0
41
1
42
0
50
0
0
ENDTAB
0
TABLE
2
DIMSTYLE
5
184
100
AcDbSymbolTable
100
AcDbDimStyleTable
0
DIMSTYLE
105
27
100
AcDbSymbolTableRecord
100
AcDbDimStyleTableRecord
2
Standard
70
0
3
<>
41
0.18
42
0.0625
44
0.18
140
0.18
147
0.09
73
0
74
0
77
1
271
2
275
0
278
52
280
0
340
11
0
ENDTAB
0
TABLE
2
VIEW
5
185
100
AcDbSymbolTable
0
ENDTAB
0
TABLE
2
UCS
5
186
100
AcDbSymbolTable
0
ENDTAB
0
TABLE
2
APPID
5
187
100
AcDbSymbolTable
0
APPID
5
12
100
AcDbSymbolTableRecord
100
AcDbRegAppTableRecord
2
ACAD
70
0
0
ENDTAB
0
TABLE
2
BLOCK_RECORD
5
188
100
AcDbSymbolTable
0
BLOCK_RECORD
5
1F
100
AcDbSymbolTableRecord
100
AcDbBlockTableRecord
2
*Model_Space
340
0
70
0
0
BLOCK_RECORD
5
1B
100
AcDbSymbolTableRecord
100
AcDbBlockTableRecord
2
*Paper_Space
340
0
70
0
0
BLOCK_RECORD
5
23
100
AcDbSymbolTableRecord
100
AcDbBlockTableRecord
2
*Paper_Space0
340
0
70
0
0
BLOCK_RECORD
5
10D
100
AcDbSymbolTableRecord
100
AcDbBlockTableRecord
2
DimnDraft3D1
340
0
70
0
0
BLOCK_RECORD
5
11B
100
AcDbSymbolTableRecord
100
AcDbBlockTableRecord
2
_CLOSED
340
0
70
0
0
BLOCK_RECORD
5
122
100
AcDbSymbolTableRecord
100
AcDbBlockTableRecord
2
DimnDraft3D2
340
0
70
0
0
BLOCK_RECORD
5
131
100
AcDbSymbolTableRecord
100
AcDbBlockTableRecord
2
DimnDraft3D3
340
0
70
0
0
BLOCK_RECORD
5
13F
100
AcDbSymbolTableRecord
100
AcDbBlockTableRecord
2
DimnDraft3D4
340
0
70
0
0
ENDTAB
0
ENDSEC
0
SECTION
2
BLOCKS
0
BLOCK
5
20
100
AcDbEntity
8
0
100
AcDbBlockBegin
2
*Model_Space
70
0
10
0
20
0
30
0
3
*Model_Space
0
ENDBLK
5
21
100
AcDbEntity
8
0
100
AcDbBlockEnd
0
BLOCK
5
1C
100
AcDbEntity
8
0
100
AcDbBlockBegin
2
*Paper_Space
70
0
10
0
20
0
30
0
3
*Paper_Space
0
ENDBLK
5
1D
100
AcDbEntity
8
0
100
AcDbBlockEnd
0
BLOCK
5
24
100
AcDbEntity
8
0
100
AcDbBlockBegin
2
*Paper_Space0
70
0
10
0
20
0
30
0
3
*Paper_Space0
0
ENDBLK
5
25
100
AcDbEntity
8
0
100
AcDbBlockEnd
0
BLOCK
5
118
100
AcDbEntity
8
0
100
AcDbBlockBegin
2
DimnDraft3D1
70
0
10
0
20
0
30
0
3
DimnDraft3D1
0
MTEXT
5
10E
100
AcDbEntity
8
2
62
256
6
ByLayer
370
-1
48
1
60
0
100
AcDbMText
10
111.055
20
4.974342
30
0
210
0
220
0
230
1
1
\W01.000;\fsimplex.shx,bigfont.shx;17.0 
40
4.5
41
0
44
1.084337
50
90
71
7
72
5
7
DEFAULT
0
LINE
5
10F
100
AcDbEntity
8
2
62
256
6
ByLayer
370
-1
48
1
60
0
100
AcDbLine
10
101.93
20
16.9
30
0
11
114.18
21
16.9
31
0
39
0
210
0
220
0
230
1
0
LINE
5
110
100
AcDbEntity
8
2
62
256
6
ByLayer
370
-1
48
1
60
0
100
AcDbLine
10
101.93
20
0
30
0
11
114.18
21
0
31
0
39
0
210
0
220
0
230
1
0
LINE
5
111
100
AcDbEntity
8
2
62
256
6
ByLayer
370
-1
48
1
60
0
100
AcDbLine
10
112.18
20
28.15
30
0
11
112.18
21
-11.25
31
0
39
0
210
0
220
0
230
1
0
LINE
5
112
100
AcDbEntity
8
2
62
256
6
ByLayer
370
-1
48
1
60
0
100
AcDbLine
10
112.18
20
16.9
30
0
11
111.762003
21
20.074998
31
0
39
0
210
0
220
0
230
1
0
LINE
5
113
100
AcDbEntity
8
2
62
256
6
ByLayer
370
-1
48
1
60
0
100
AcDbLine
10
112.18
20
16.9
30
0
11
112.597997
21
20.075002
31
0
39
0
210
0
220
0
230
1
0
LINE
5
114
100
AcDbEntity
8
2
62
256
6
ByLayer
370
-1
48
1
60
0
100
AcDbLine
10
111.762003
20
20.074998
30
0
11
112.597997
21
20.075002
31
0
39
0
210
0
220
0
230
1
0
LINE
5
115
100
AcDbEntity
8
2
62
256
6
ByLayer
370
-1
48
1
60
0
100
AcDbLine
10
112.18
20
0
30
0
11
112.597997
21
-3.174998
31
0
39
0
210
0
220
0
230
1
0
LINE
5
116
100
AcDbEntity
8
2
62
256
6
ByLayer
370
-1
48
1
60
0
100
AcDbLine
10
112.18
20
0
30
0
11
111.762003
21
-3.175002
31
0
39
0
210
0
220
0
230
1
0
LINE
5
117
100
AcDbEntity
8
2
62
256
6
ByLayer
370
-1
48
1
60
0
100
AcDbLine
10
112.597997
20
-3.174998
30
0
11
111.762003
21
-3.175002
31
0
39
0
210
0
220
0
230
1
0
ENDBLK
5
119
100
AcDbEntity
8
0
100
AcDbBlockEnd
0
BLOCK
5
11C
100
AcDbEntity
8
0
100
AcDbBlockBegin
2
_CLOSED
70
0
10
0
20
0
30
0
3
_CLOSED
0
LINE
5
11E
100
AcDbEntity
8
0
62
256
6
ByLayer
370
-2
48
1
60
0
100
AcDbLine
10
-1
20
0.166667
30
0
11
0
21
0
31
0
39
0
210
0
220
0
230
1
0
LINE
5
11F
100
AcDbEntity
8
0
62
256
6
ByLayer
370
-2
48
1
60
0
100
AcDbLine
10
0
20
0
30
0
11
-1
21
-0.166667
31
0
39
0
210
0
220
0
230
1
0
LINE
5
120
100
AcDbEntity
8
0
62
256
6
ByLayer
370
-2
48
1
60
0
100
AcDbLine
10
-1
20
0.166667
30
0
11
-1
21
-0.166667
31
0
39
0
210
0
220
0
230
1
0
LINE
5
121
100
AcDbEntity
8
0
62
256
6
ByLayer
370
-2
48
1
60
0
100
AcDbLine
10
0
20
0
30
0
11
-1
21
0
31
0
39
0
210
0
220
0
230
1
0
ENDBLK
5
11D
100
AcDbEntity
8
0
100
AcDbBlockEnd
0
BLOCK
5
12E
100
AcDbEntity
8
0
100
AcDbBlockBegin
2
DimnDraft3D2
70
0
10
0
20
0
30
0
3
DimnDraft3D2
0
MTEXT
5
123
100
AcDbEntity
8
SK2
62
256
6
ByLayer
370
-1
48
1
60
0
100
AcDbMText
10
-212.195
20
-3.659211
30
0
210
0
220
0
230
1
1
\W01.000;\fsimplex.shx,bigfont.shx;%%c25 
40
4.5
41
0
44
1.084337
50
90
71
7
72
5
7
DEFAULT
0
LINE
5
125
100
AcDbEntity
8
SK2
62
256
6
ByLayer
370
-1
48
1
60
0
100
AcDbLine
10
-203.32
20
-12.49125
30
0
11
-213.07
21
-12.49125
31
0
39
0
210
0
220
0
230
1
0
LINE
5
126
100
AcDbEntity
8
SK2
62
256
6
ByLayer
370
-1
48
1
60
0
100
AcDbLine
10
-203.32
20
12.49125
30
0
11
-213.07
21
12.49125
31
0
39
0
210
0
220
0
230
1
0
LINE
5
127
100
AcDbEntity
8
SK2
62
256
6
ByLayer
370
-1
48
1
60
0
100
AcDbLine
10
-211.07
20
-12.49125
30
0
11
-211.07
21
12.49125
31
0
39
0
210
0
220
0
230
1
0
LINE
5
128
100
AcDbEntity
8
SK2
62
256
6
ByLayer
370
-1
48
1
60
0
100
AcDbLine
10
-211.07
20
-12.49125
30
0
11
-211.487997
21
-9.316252
31
0
39
0
210
0
220
0
230
1
0
LINE
5
129
100
AcDbEntity
8
SK2
62
256
6
ByLayer
370
-1
48
1
60
0
100
AcDbLine
10
-211.07
20
-12.49125
30
0
11
-210.652003
21
-9.316248
31
0
39
0
210
0
220
0
230
1
0
LINE
5
12A
100
AcDbEntity
8
SK2
62
256
6
ByLayer
370
-1
48
1
60
0
100
AcDbLine
10
-211.487997
20
-9.316252
30
0
11
-210.652003
21
-9.316248
31
0
39
0
210
0
220
0
230
1
0
LINE
5
12B
100
AcDbEntity
8
SK2
62
256
6
ByLayer
370
-1
48
1
60
0
100
AcDbLine
10
-211.07
20
12.49125
30
0
11
-210.652003
21
9.316252
31
0
39
0
210
0
220
0
230
1
0
LINE
5
12C
100
AcDbEntity
8
SK2
62
256
6
ByLayer
370
-1
48
1
60
0
100
AcDbLine
10
-211.07
20
12.49125
30
0
11
-211.487997
21
9.316248
31
0
39
0
210
0
220
0
230
1
0
LINE
5
12D
100
AcDbEntity
8
SK2
62
256
6
ByLayer
370
-1
48
1
60
0
100
AcDbLine
10
-210.652003
20
9.316252
30
0
11
-211.487997
21
9.316248
31
0
39
0
210
0
220
0
230
1
0
ENDBLK
5
12F
100
AcDbEntity
8
0
100
AcDbBlockEnd
0
BLOCK
5
13C
100
AcDbEntity
8
0
100
AcDbBlockBegin
2
DimnDraft3D3
70
0
10
0
20
0
30
0
3
DimnDraft3D3
0
MTEXT
5
132
100
AcDbEntity
8
SK2
62
256
6
ByLayer
370
-1
48
1
60
0
100
AcDbMText
10
-56.385132
20
30.775
30
0
210
0
220
0
230
1
1
\W01.000;\fsimplex.shx,bigfont.shx;300.0 
40
4.5
41
0
44
1.084337
50
0
71
7
72
5
7
DEFAULT
0
LINE
5
133
100
AcDbEntity
8
SK2
62
256
6
ByLayer
370
-1
48
1
60
0
100
AcDbLine
10
99.93
20
18.9
30
0
11
99.93
21
31.65
31
0
39
0
210
0
220
0
230
1
0
LINE
5
134
100
AcDbEntity
8
SK2
62
256
6
ByLayer
370
-1
48
1
60
0
100
AcDbLine
10
-201.32
20
14.49125
30
0
11
-201.32
21
31.65
31
0
39
0
210
0
220
0
230
1
0
LINE
5
135
100
AcDbEntity
8
SK2
62
256
6
ByLayer
370
-1
48
1
60
0
100
AcDbLine
10
99.93
20
29.65
30
0
11
-201.32
21
29.65
31
0
39
0
210
0
220
0
230
1
0
LINE
5
136
100
AcDbEntity
8
SK2
62
256
6
ByLayer
370
-1
48
1
60
0
100
AcDbLine
10
99.93
20
29.65
30
0
11
96.755002
21
29.232003
31
0
39
0
210
0
220
0
230
1
0
LINE
5
137
100
AcDbEntity
8
SK2
62
256
6
ByLayer
370
-1
48
1
60
0
100
AcDbLine
10
99.93
20
29.65
30
0
11
96.754998
21
30.067997
31
0
39
0
210
0
220
0
230
1
0
LINE
5
138
100
AcDbEntity
8
SK2
62
256
6
ByLayer
370
-1
48
1
60
0
100
AcDbLine
10
96.755002
20
29.232003
30
0
11
96.754998
21
30.067997
31
0
39
0
210
0
220
0
230
1
0
LINE
5
139
100
AcDbEntity
8
SK2
62
256
6
ByLayer
370
-1
48
1
60
0
100
AcDbLine
10
-201.32
20
29.65
30
0
11
-198.145002
21
30.067997
31
0
39
0
210
0
220
0
230
1
0
LINE
5
13A
100
AcDbEntity
8
SK2
62
256
6
ByLayer
370
-1
48
1
60
0
100
AcDbLine
10
-201.32
20
29.65
30
0
11
-198.144998
21
29.232003
31
0
39
0
210
0
220
0
230
1
0
LINE
5
13B
100
AcDbEntity
8
SK2
62
256
6
ByLayer
370
-1
48
1
60
0
100
AcDbLine
10
-198.145002
20
30.067997
30
0
11
-198.144998
21
29.232003
31
0
39
0
210
0
220
0
230
1
0
ENDBLK
5
13D
100
AcDbEntity
8
0
100
AcDbBlockEnd
0
BLOCK
5
14A
100
AcDbEntity
8
0
100
AcDbBlockBegin
2
DimnDraft3D4
70
0
10
0
20
0
30
0
3
DimnDraft3D4
0
MTEXT
5
140
100
AcDbEntity
8
2
62
256
6
ByLayer
370
-1
48
1
60
0
100
AcDbMText
10
126.766564
20
-36.834311
30
0
210
0
220
0
230
1
1
\W01.000;\fsimplex.shx,bigfont.shx;93%%d0' 
40
4.5
41
0
44
1.084337
50
43.5
71
7
72
5
7
DEFAULT
0
LINE
5
141
100
AcDbEntity
8
2
62
256
6
ByLayer
370
-1
48
1
60
0
100
AcDbLine
10
99.249633
20
3.917816
30
0
11
96.483698
21
-48.859355
31
0
39
0
210
0
220
0
230
1
0
LINE
5
142
100
AcDbEntity
8
2
62
256
6
ByLayer
370
-1
48
1
60
0
100
AcDbLine
10
101.93
20
0
30
0
11
147.970715
21
0
31
0
39
0
210
0
220
0
230
1
0
ARC
5
143
100
AcDbEntity
8
2
62
256
6
ByLayer
370
-1
48
1
60
0
100
AcDbCircle
39
0
10
99.044309
20
0
30
0
40
46.9264068782928
210
0
220
0
230
1
100
AcDbArc
50
267
51
0
0
LINE
5
144
100
AcDbEntity
8
2
62
256
6
ByLayer
370
-1
48
1
60
0
100
AcDbLine
10
96.58837
20
-46.862096
30
0
11
99.776189
21
-46.556897
31
0
39
0
210
0
220
0
230
1
0
LINE
5
145
100
AcDbEntity
8
2
62
256
6
ByLayer
370
-1
48
1
60
0
100
AcDbLine
10
96.58837
20
-46.862096
30
0
11
99.746561
21
-47.392365
31
0
39
0
210
0
220
0
230
1
0
LINE
5
146
100
AcDbEntity
8
2
62
256
6
ByLayer
370
-1
48
1
60
0
100
AcDbLine
10
99.776189
20
-46.556897
30
0
11
99.746561
21
-47.392365
31
0
39
0
210
0
220
0
230
1
0
LINE
5
147
100
AcDbEntity
8
2
62
256
6
ByLayer
370
-1
48
1
60
0
100
AcDbLine
10
145.970715
20
0
30
0
11
146.334971
21
-3.181612
31
0
39
0
210
0
220
0
230
1
0
LINE
5
148
100
AcDbEntity
8
2
62
256
6
ByLayer
370
-1
48
1
60
0
100
AcDbLine
10
145.970715
20
0
30
0
11
145.499097
21
-3.16748
31
0
39
0
210
0
220
0
230
1
0
LINE
5
149
100
AcDbEntity
8
2
62
256
6
ByLayer
370
-1
48
1
60
0
100
AcDbLine
10
146.334971
20
-3.181612
30
0
11
145.499097
21
-3.16748
31
0
39
0
210
0
220
0
230
1
0
ENDBLK
5
14B
100
AcDbEntity
8
0
100
AcDbBlockEnd
0
ENDSEC
0
SECTION
2
ENTITIES
0
ELLIPSE
5
88
100
AcDbEntity
8
1
62
256
6
ByLayer
370
-1
48
1
60
0
100
AcDbEllipse
10
90.104748
20
0.778025
30
0
11
-1.49794430213185
21
0.0785039343646626
31
0
210
0
220
0
230
1
40
0.998215
41
-0.770808716976129
42
-0.454942629178003
0
ELLIPSE
5
89
100
AcDbEntity
8
1
62
256
6
ByLayer
370
-1
48
1
60
0
100
AcDbEllipse
10
90.104748
20
0.778025
30
0
11
-1.49794430213185
21
0.0785039343646626
31
0
210
0
220
0
230
1
40
0.998215
41
0.773341918964104
42
-2.86623054667999
0
ELLIPSE
5
8A
100
AcDbEntity
8
1
62
256
6
ByLayer
370
-1
48
1
60
0
100
AcDbEllipse
10
81.770431
20
6.671449
30
0
11
1.35829304516097
21
-0.862199807907275
31
0
210
0
220
0
230
-1
40
0.97702
41
-2.12659825989995
42
-1.1578470453155
0
ELLIPSE
5
8B
100
AcDbEntity
8
1
62
256
6
ByLayer
370
-1
48
1
60
0
100
AcDbEllipse
10
73.803481
20
18.016758
30
0
11
8.58821399888933
21
-0.450089223689306
31
0
210
0
220
0
230
1
40
0.998215
41
-2.1292082077061
42
-1.51834296950808
0
ELLIPSE
5
8C
100
AcDbEntity
8
1
62
256
6
ByLayer
370
-1
48
1
60
0
100
AcDbEllipse
10
73.810089
20
9.527507
30
0
11
-2.93905524917371E-16
21
-1.6
31
0
210
0
220
0
230
1
40
0.003132
41
-1.51111303266957
42
-0.760959835855458
0
ELLIPSE
5
8D
100
AcDbEntity
8
1
62
256
6
ByLayer
370
-1
48
1
60
0
100
AcDbEllipse
10
70.014983
20
0
30
0
11
1.78002929952625
21
-0.143331020536473
31
0
210
0
220
0
230
-1
40
0.327314
41
-0.643062593352574
42
0.160627633960389
0
ELLIPSE
5
8E
100
AcDbEntity
8
1
62
256
6
ByLayer
370
-1
48
1
60
0
100
AcDbEllipse
10
85.822423
20
0.319964
30
0
11
-3.19561451121461
21
0.167475059977947
31
0
210
0
220
0
230
1
40
0.998215
41
-2.70887449811083
42
-2.48709418409192
0
ELLIPSE
5
8F
100
AcDbEntity
8
1
62
256
6
ByLayer
370
-1
48
1
60
0
100
AcDbEllipse
10
90.091619
20
0.527504
30
0
11
1.49794430213186
21
-0.0785039343644138
31
0
210
0
220
0
230
1
40
0.998215
41
1.92083435049105
42
-3.1415478150404
0
ELLIPSE
5
90
100
AcDbEntity
8
1
62
256
6
ByLayer
370
-1
48
1
60
0
100
AcDbEllipse
10
90.091619
20
0.527504
30
0
11
1.49794430213186
21
-0.0785039343644138
31
0
210
0
220
0
230
1
40
0.998215
41
0.0837880968542363
42
0.41768067154493
0
ELLIPSE
5
91
100
AcDbEntity
8
1
62
256
6
ByLayer
370
-1
48
1
60
0
100
AcDbEllipse
10
81.752106
20
9.527507
30
0
11
-2.93905524917371E-16
21
-1.6
31
0
210
0
220
0
230
1
40
0.003132
41
-1.51111303266957
42
-0.650341527931012
0
ELLIPSE
5
92
100
AcDbEntity
8
1
62
256
6
ByLayer
370
-1
48
1
60
0
100
AcDbEllipse
10
107.828104
20
0
30
0
11
37.0579849799411
21
-2.98397268378334
31
0
210
0
220
0
230
-1
40
0.327314
41
2.91916305267496
42
-2.64777078685838
0
ELLIPSE
5
93
100
AcDbEntity
8
1
62
256
6
ByLayer
370
-1
48
1
60
0
100
AcDbEllipse
10
88.464447
20
2.224427
30
0
11
-1.31781908251456
21
-0.907387935648515
31
0
210
0
220
0
230
1
40
0.047387
41
0.435245350132359
42
1.53438623630937
0
ELLIPSE
5
94
100
AcDbEntity
8
1
62
256
6
ByLayer
370
-1
48
1
60
0
100
AcDbEllipse
10
81.747702
20
6.237769
30
0
11
-3.19561451121461
21
0.167475059977947
31
0
210
0
220
0
230
1
40
0.998215
41
-2.48709418409194
42
-1.5183429695081
0
ELLIPSE
5
95
100
AcDbEntity
8
1
62
256
6
ByLayer
370
-1
48
1
60
0
100
AcDbEllipse
10
81.743092
20
0
30
0
11
17.8428891451537
21
-12.480474560082
31
0
210
0
220
0
230
-1
40
0.029072
41
-2.97457365532726
42
-2.47208012971096
0
ELLIPSE
5
96
100
AcDbEntity
8
1
62
256
6
ByLayer
370
-1
48
1
60
0
100
AcDbEllipse
10
90.657995
20
2.462668
30
0
11
-1.62277299397617
21
0.0850459288950511
31
0
210
0
220
0
230
1
40
0.998215
41
-0.924408177739907
42
-0.0405222584056596
0
ELLIPSE
5
97
100
AcDbEntity
8
1
62
256
6
ByLayer
370
-1
48
1
60
0
100
AcDbEllipse
10
101.878734
20
7.26998
30
0
11
-3.19561451121448
21
0.16747505997794
31
0
210
0
220
0
230
1
40
0.998215
41
0.529360289485005
42
0.616987723653808
0
ELLIPSE
5
98
100
AcDbEntity
8
1
62
256
6
ByLayer
370
-1
48
1
60
0
100
AcDbEllipse
10
288.047935
20
-0.00019
30
0
11
3995.91662293623
21
-0.745102996925835
31
0
210
0
220
0
230
-1
40
0.00312
41
-1.62621470066481
42
-1.62106200900618
0
ELLIPSE
5
99
100
AcDbEntity
8
1
62
256
6
ByLayer
370
-1
48
1
60
0
100
AcDbEllipse
10
88.752154
20
-0.881247
30
0
11
-1.46192306145807
21
0.650216088986618
31
0
210
0
220
0
230
1
40
0.055783
41
0.0213853885655422
42
1.59218171536034
0
ELLIPSE
5
9A
100
AcDbEntity
8
1
62
256
6
ByLayer
370
-1
48
1
60
0
100
AcDbEllipse
10
87.445507
20
0
30
0
11
5.54018029229698
21
12.490781794487
31
0
210
0
220
0
230
-1
40
0.019521
41
-2.9099314445443
42
-2.2320123183979
0
ELLIPSE
5
9B
100
AcDbEntity
8
1
62
256
6
ByLayer
370
-1
48
1
60
0
100
AcDbEllipse
10
90.093651
20
0.566275
30
0
11
1.49794430213186
21
-0.0785039343644138
31
0
210
0
220
0
230
1
40
0.998215
41
1.9208256961275
42
2.26792026907299
0
ELLIPSE
5
9C
100
AcDbEntity
8
1
62
256
6
ByLayer
370
-1
48
1
60
0
100
AcDbEllipse
10
85.822423
20
0.319964
30
0
11
-3.19561451121461
21
0.167475059977947
31
0
210
0
220
0
230
1
40
0.998215
41
2.77605530139809
42
3.02727378789696
0
ELLIPSE
5
9D
100
AcDbEntity
8
1
62
256
6
ByLayer
370
-1
48
1
60
0
100
AcDbEllipse
10
107.828104
20
0
30
0
11
37.0579849798908
21
-2.98397268380681
31
0
210
0
220
0
230
-1
40
0.327314
41
2.24781746548985
42
2.8815872951158
0
ELLIPSE
5
9E
100
AcDbEntity
8
1
62
256
6
ByLayer
370
-1
48
1
60
0
100
AcDbEllipse
10
68.877065
20
11.080031
30
0
11
0.916547372740885
21
1.3114651781583
31
0
210
0
220
0
230
1
40
0.031647
41
-2.5400227220231
42
-1.62150007415832
0
ELLIPSE
5
9F
100
AcDbEntity
8
1
62
256
6
ByLayer
370
-1
48
1
60
0
100
AcDbEllipse
10
84.389726
20
8.142232
30
0
11
-1.31781908251456
21
-0.907387935648515
31
0
210
0
220
0
230
1
40
0.047387
41
0.486321439205943
42
1.53438623630944
0
ELLIPSE
5
A0
100
AcDbEntity
8
1
62
256
6
ByLayer
370
-1
48
1
60
0
100
AcDbEllipse
10
85.843747
20
0.726852
30
0
11
1.35829304512388
21
-0.862199807962179
31
0
210
0
220
0
230
-1
40
0.97702
41
-1.15784704535729
42
-0.137811223666354
0
ELLIPSE
5
A1
100
AcDbEntity
8
1
62
256
6
ByLayer
370
-1
48
1
60
0
100
AcDbEllipse
10
90.084111
20
14.205926
30
0
11
-3.19561451121459
21
0.167475059977946
31
0
210
0
220
0
230
1
40
0.998215
41
0.837758040957288
42
1.63613355097893
0
ELLIPSE
5
A2
100
AcDbEntity
8
1
62
256
6
ByLayer
370
-1
48
1
60
0
100
AcDbEllipse
10
85.827425
20
0.4154
30
0
11
1.59780725560732
21
-0.0837375299887082
31
0
210
0
220
0
230
1
40
0.998215
41
-0.365537352191694
42
1.96255366243399E-06
0
ELLIPSE
5
A3
100
AcDbEntity
8
1
62
256
6
ByLayer
370
-1
48
1
60
0
100
AcDbEllipse
10
90.669093
20
2.674418
30
0
11
1.77240405798873
21
-0.0928877606714377
31
0
210
0
220
0
230
1
40
0.998215
41
2.18166156499294
42
-2.62171267453888
0
ELLIPSE
5
A4
100
AcDbEntity
8
1
62
256
6
ByLayer
370
-1
48
1
60
0
100
AcDbEllipse
10
90.664873
20
2.593893
30
0
11
-1.62277299397617
21
0.0850459288950511
31
0
210
0
220
0
230
1
40
0.998215
41
-0.924408177739895
42
0.498363537933514
0
ELLIPSE
5
A5
100
AcDbEntity
8
1
62
256
6
ByLayer
370
-1
48
1
60
0
100
AcDbEllipse
10
94.770983
20
8.645523
30
0
11
2.94083001014413
21
-0.154122370080574
31
0
210
0
220
0
230
1
40
0.998215
41
0
42
6.28318530717959
0
ELLIPSE
5
A6
100
AcDbEntity
8
1
62
256
6
ByLayer
370
-1
48
1
60
0
100
AcDbEllipse
10
94.771463
20
8.654674
30
0
11
2.99588860426373
21
-0.157007868728828
31
0
210
0
220
0
230
1
40
0.998215
41
0
42
6.28318530717959
0
ELLIPSE
5
A7
100
AcDbEntity
8
1
62
256
6
ByLayer
370
-1
48
1
60
0
100
AcDbEllipse
10
94.774651
20
8.715515
30
0
11
3.0671162035353
21
-0.160740749030313
31
0
210
0
220
0
230
1
40
0.998215
41
0
42
6.28318530717959
0
ELLIPSE
5
A8
100
AcDbEntity
8
1
62
256
6
ByLayer
370
-1
48
1
60
0
100
AcDbEllipse
10
99.135979
20
16.107198
30
0
11
0.792911850595093
21
-0.0415547492568944
31
0
210
0
220
0
230
1
40
0.998215
41
0
42
2.18166156499306
0
ELLIPSE
5
A9
100
AcDbEntity
8
1
62
256
6
ByLayer
370
-1
48
1
60
0
100
AcDbEllipse
10
90.919516
20
10.982566
30
0
11
0.792911850595207
21
-0.0415547492569004
31
0
210
0
220
0
230
1
40
0.998215
41
2.18166156499311
42
-3.1415926535896
0
ELLIPSE
5
AA
100
AcDbEntity
8
1
62
256
6
ByLayer
370
-1
48
1
60
0
100
AcDbEllipse
10
90.413323
20
1.323833
30
0
11
0.792911850595093
21
-0.0415547492568944
31
0
210
0
220
0
230
1
40
0.998215
41
3.14159265358916
42
-0.959931088597498
0
ELLIPSE
5
AB
100
AcDbEntity
8
1
62
256
6
ByLayer
370
-1
48
1
60
0
100
AcDbEllipse
10
98.629786
20
6.448464
30
0
11
0.792911850595207
21
-0.0415547492569004
31
0
210
0
220
0
230
1
40
0.998215
41
-0.959931088597447
42
-5.39014811306843E-13
0
ELLIPSE
5
AC
100
AcDbEntity
8
1
62
256
6
ByLayer
370
-1
48
1
60
0
100
AcDbEllipse
10
93.123914
20
7.687974
30
0
11
-0.685059860841632
21
0.0359024659827723
31
0
210
0
220
0
230
1
40
0.998215
41
2.92622929070776
42
-3.14159197474647
0
ELLIPSE
5
AD
100
AcDbEntity
8
1
62
256
6
ByLayer
370
-1
48
1
60
0
100
AcDbEllipse
10
93.385195
20
8.628699
30
0
11
-0.291599824148333
21
0.0152820992229876
31
0
210
0
220
0
230
1
40
0.998215
41
-1.27122687921943
42
-0.13128944935726
0
ELLIPSE
5
AE
100
AcDbEntity
8
1
62
256
6
ByLayer
370
-1
48
1
60
0
100
AcDbEllipse
10
93.145792
20
9.575301
30
0
11
-0.685059860841632
21
0.0359024659827723
31
0
210
0
220
0
230
1
40
0.998215
41
1.87036577437006
42
2.54001306807384
0
ELLIPSE
5
AF
100
AcDbEntity
8
1
62
256
6
ByLayer
370
-1
48
1
60
0
100
AcDbEllipse
10
94.09116
20
9.825186
30
0
11
-0.291599824148333
21
0.0152820992229876
31
0
210
0
220
0
230
1
40
0.998215
41
-2.31254901295645
42
-0.113274905490938
0
ELLIPSE
5
B0
100
AcDbEntity
8
1
62
256
6
ByLayer
370
-1
48
1
60
0
100
AcDbEllipse
10
94.788643
20
10.509398
30
0
11
-0.685059860841632
21
0.0359024659827723
31
0
210
0
220
0
230
1
40
0.998215
41
0.829043640633211
42
1.61303428425388
0
ELLIPSE
5
B1
100
AcDbEntity
8
1
62
256
6
ByLayer
370
-1
48
1
60
0
100
AcDbEllipse
10
95.472237
20
9.811102
30
0
11
-0.291599824148333
21
0.0152820992229876
31
0
210
0
220
0
230
1
40
0.998215
41
-3.0587344796881
42
-0.744567725715018
0
ELLIPSE
5
B2
100
AcDbEntity
8
1
62
256
6
ByLayer
370
-1
48
1
60
0
100
AcDbEllipse
10
96.415416
20
9.552758
30
0
11
-0.685059860841632
21
0.0359024659827723
31
0
210
0
220
0
230
1
40
0.998215
41
1.85551890381925E-06
42
0.568627280738777
0
ELLIPSE
5
B3
100
AcDbEntity
8
1
62
256
6
ByLayer
370
-1
48
1
60
0
100
AcDbEllipse
10
96.154134
20
8.612033
30
0
11
-0.291599824148333
21
0.0152820992229876
31
0
210
0
220
0
230
1
40
0.998215
41
-3.14156571713772
42
-1.78897472923011
0
ELLIPSE
5
B4
100
AcDbEntity
8
1
62
256
6
ByLayer
370
-1
48
1
60
0
100
AcDbEllipse
10
94.769665
20
8.620366
30
0
11
-1.2048465336814
21
0.0631433312073111
31
0
210
0
220
0
230
1
40
0.998215
41
1.77487566978454
42
2.59259447587964
0
ELLIPSE
5
B5
100
AcDbEntity
8
1
62
256
6
ByLayer
370
-1
48
1
60
0
100
AcDbEllipse
10
94.773271
20
8.689179
30
0
11
1.2048465336814
21
-0.0631433312071106
31
0
210
0
220
0
230
1
40
0.998215
41
2.59259447587913
42
2.7306597427035
0
ELLIPSE
5
B6
100
AcDbEntity
8
1
62
256
6
ByLayer
370
-1
48
1
60
0
100
AcDbEllipse
10
94.774119
20
8.705365
30
0
11
1.67420241501602
21
-0.0877412306412921
31
0
210
0
220
0
230
1
40
0.998215
41
-2.05076187109333
42
-1.006354867578
0
ELLIPSE
5
B7
100
AcDbEntity
8
1
62
256
6
ByLayer
370
-1
48
1
60
0
100
AcDbEllipse
10
96.393538
20
7.665432
30
0
11
-0.685059860841632
21
0.0359024659827723
31
0
210
0
220
0
230
1
40
0.998215
41
-6.23761898332164E-06
42
0.311295790622831
0
ELLIPSE
5
B8
100
AcDbEntity
8
1
62
256
6
ByLayer
370
-1
48
1
60
0
100
AcDbEllipse
10
94.774119
20
8.705365
30
0
11
1.67420241501602
21
-0.0877412306412921
31
0
210
0
220
0
230
1
40
0.998215
41
-3.09516887460855
42
-2.05076187109333
0
ELLIPSE
5
B9
100
AcDbEntity
8
1
62
256
6
ByLayer
370
-1
48
1
60
0
100
AcDbEllipse
10
94.769665
20
8.620366
30
0
11
-1.2048465336814
21
0.0631433312073111
31
0
210
0
220
0
230
1
40
0.998215
41
0.64346560847634
42
1.41707767624803
0
ELLIPSE
5
BA
100
AcDbEntity
8
1
62
256
6
ByLayer
370
-1
48
1
60
0
100
AcDbEllipse
10
94.773271
20
8.689179
30
0
11
1.2048465336814
21
-0.0631433312071106
31
0
210
0
220
0
230
1
40
0.998215
41
-0.548998177710128
42
-0.410932910886606
0
ELLIPSE
5
BB
100
AcDbEntity
8
1
62
256
6
ByLayer
370
-1
48
1
60
0
100
AcDbEllipse
10
94.769665
20
8.620366
30
0
11
1.2048465336814
21
-0.0631433312071106
31
0
210
0
220
0
230
1
40
0.998215
41
0.56862728073882
42
1.61303428425397
0
ELLIPSE
5
BC
100
AcDbEntity
8
1
62
256
6
ByLayer
370
-1
48
1
60
0
100
AcDbEllipse
10
94.769665
20
8.620366
30
0
11
-1.2048465336814
21
0.0631433312073111
31
0
210
0
220
0
230
1
40
0.998215
41
2.81384588519816
42
-2.572965372851
0
ELLIPSE
5
BD
100
AcDbEntity
8
1
62
256
6
ByLayer
370
-1
48
1
60
0
100
AcDbEllipse
10
94.774119
20
8.705365
30
0
11
1.67420241501602
21
-0.0877412306412921
31
0
210
0
220
0
230
1
40
0.998215
41
-1.006354867578
42
0.0464237789812284
0
ELLIPSE
5
BE
100
AcDbEntity
8
1
62
256
6
ByLayer
370
-1
48
1
60
0
100
AcDbEllipse
10
94.788643
20
10.509398
30
0
11
-0.685059860841632
21
0.0359024659827723
31
0
210
0
220
0
230
1
40
0.998215
41
1.61303428425388
42
2.39702492787484
0
ELLIPSE
5
BF
100
AcDbEntity
8
1
62
256
6
ByLayer
370
-1
48
1
60
0
100
AcDbEllipse
10
94.774119
20
8.705365
30
0
11
1.67420241501602
21
-0.0877412306412921
31
0
210
0
220
0
230
1
40
0.998215
41
2.13523778601162
42
-3.09516887460855
0
ELLIPSE
5
C0
100
AcDbEntity
8
1
62
256
6
ByLayer
370
-1
48
1
60
0
100
AcDbEllipse
10
94.769665
20
8.620366
30
0
11
1.2048465336814
21
-0.0631433312071106
31
0
210
0
220
0
230
1
40
0.998215
41
2.59259447587913
42
2.7306597427035
0
ELLIPSE
5
C1
100
AcDbEntity
8
1
62
256
6
ByLayer
370
-1
48
1
60
0
100
AcDbEllipse
10
94.774119
20
8.705365
30
0
11
1.67420241501602
21
-0.0877412306412921
31
0
210
0
220
0
230
1
40
0.998215
41
0.0464237789812284
42
1.09083078249645
0
ELLIPSE
5
C2
100
AcDbEntity
8
1
62
256
6
ByLayer
370
-1
48
1
60
0
100
AcDbEllipse
10
93.145792
20
9.575301
30
0
11
-0.685059860841632
21
0.0359024659827723
31
0
210
0
220
0
230
1
40
0.998215
41
2.78324115050866
42
3.14158600851265
0
ELLIPSE
5
C3
100
AcDbEntity
8
1
62
256
6
ByLayer
370
-1
48
1
60
0
100
AcDbEllipse
10
94.769665
20
8.620366
30
0
11
-1.2048465336814
21
0.0631433312073111
31
0
210
0
220
0
230
1
40
0.998215
41
-0.410932910886326
42
0.391540830861509
0
ELLIPSE
5
C4
100
AcDbEntity
8
1
62
256
6
ByLayer
370
-1
48
1
60
0
100
AcDbEllipse
10
94.774119
20
8.705365
30
0
11
1.67420241501602
21
-0.0877412306412921
31
0
210
0
220
0
230
1
40
0.998215
41
1.09083078249645
42
2.13523778601162
0
ELLIPSE
5
C5
100
AcDbEntity
8
1
62
256
6
ByLayer
370
-1
48
1
60
0
100
AcDbEllipse
10
94.769665
20
8.620366
30
0
11
-1.2048465336814
21
0.0631433312073111
31
0
210
0
220
0
230
1
40
0.998215
41
-1.52855836933582
42
-0.548998177710678
0
ELLIPSE
5
C6
100
AcDbEntity
8
1
62
256
6
ByLayer
370
-1
48
1
60
0
100
AcDbEllipse
10
96.415416
20
9.552758
30
0
11
-0.685059860841632
21
0.0359024659827723
31
0
210
0
220
0
230
1
40
0.998215
41
0.568627280738777
42
1.35261792435938
0
ELLIPSE
5
C7
100
AcDbEntity
8
1
62
256
6
ByLayer
370
-1
48
1
60
0
100
AcDbEllipse
10
94.769743
20
8.621858
30
0
11
2.62140252873076
21
-0.137381885137724
31
0
210
0
220
0
230
1
40
0.998215
41
3.14151307953501
42
0
0
ELLIPSE
5
C8
100
AcDbEntity
8
1
62
256
6
ByLayer
370
-1
48
1
60
0
100
AcDbEllipse
10
94.774119
20
8.705365
30
0
11
1.79753316255824
21
-0.094204721237297
31
0
210
0
220
0
230
1
40
0.998215
41
0
42
6.28318530717959
0
ELLIPSE
5
C9
100
AcDbEntity
8
1
62
256
6
ByLayer
370
-1
48
1
60
0
100
AcDbEllipse
10
94.773258
20
8.688935
30
0
11
2.62140252873074
21
-0.137381885137723
31
0
210
0
220
0
230
1
40
0.998215
41
0
42
6.28318530717959
0
POINT
5
41
100
AcDbEntity
8
80
62
256
6
ByLayer
370
-1
48
1
60
0
100
AcDbPoint
10
0
20
0
30
0
39
0
210
0
220
0
230
1
50
360
0
POINT
5
43
100
AcDbEntity
8
81
62
256
6
ByLayer
370
-1
48
1
60
0
100
AcDbPoint
10
99.93
20
16.9
30
0
39
0
210
0
220
0
230
1
50
360
0
POINT
5
45
100
AcDbEntity
8
1
62
256
6
ByLayer
370
-1
48
1
60
0
100
AcDbPoint
10
-201.32
20
0
30
0
39
0
210
0
220
0
230
1
50
360
0
POINT
5
47
100
AcDbEntity
8
2
62
256
6
ByLayer
370
-1
48
1
60
0
100
AcDbPoint
10
99.93
20
16.9
30
0
39
0
210
0
220
0
230
1
50
360
0
POINT
5
49
100
AcDbEntity
8
2
62
256
6
ByLayer
370
-1
48
1
60
0
100
AcDbPoint
10
99.716021
20
15.873079
30
0
39
0
210
0
220
0
230
1
50
360
0
SPLINE
5
CA
100
AcDbEntity
8
1
62
256
6
ByLayer
370
-1
48
1
60
0
100
AcDbSpline
70
4
71
3
72
14
73
10
40
0
40
0
40
0
40
0
40
0.233236537282953
40
0.233236537282953
40
0.501157961444867
40
0.501157961444867
40
0.767497172632227
40
0.767497172632227
40
1
40
1
40
1
40
1
41
1
10
88.9781091525114
20
-0.210291038101332
30
0
41
1
10
88.8837957121425
20
-0.103164302856698
30
0
41
1
10
88.8043426222422
20
0.0193350592397223
30
0
41
1
10
88.6755509043193
20
0.297827993478279
30
0
41
1
10
88.6305497146165
20
0.460561177218068
30
0
41
1
10
88.5960660995962
20
0.785423150549377
30
0
41
1
10
88.6058377579291
20
0.951497592535645
30
0
41
1
10
88.6727568674784
20
1.24659154976356
30
0
41
1
10
88.724407988934
20
1.381303892104
30
0
41
1
10
88.7935991134204
20
1.50558145828785
30
0
0
SPLINE
5
CB
100
AcDbEntity
8
1
62
256
6
ByLayer
370
-1
48
1
60
0
100
AcDbSpline
70
4
71
3
72
12
73
8
40
0
40
0
40
0
40
0
40
0.53598156393091
40
0.53598156393091
40
0.803972345896365
40
0.803972345896365
40
1
40
1
40
1
40
1
41
1
10
66.7163895122826
20
12.4911363283388
30
0
41
1
10
66.1502586878177
20
12.4911438899438
30
0
41
1
10
65.5931039499036
20
12.4934331244888
30
0
41
1
10
64.8184703659916
20
12.4857201045378
30
0
41
1
10
64.5733788965334
20
12.4812999005222
30
0
41
1
10
64.2640414923958
20
12.4575873140415
30
0
41
1
10
64.1855732674814
20
12.4409029993141
30
0
41
1
10
64.1817429210446
20
12.4190788171491
30
0
0
SPLINE
5
CC
100
AcDbEntity
8
1
62
256
6
ByLayer
370
-1
48
1
60
0
100
AcDbSpline
70
4
71
3
72
8
73
4
40
0
40
0
40
0
40
0
40
1
40
1
40
1
40
1
41
1
10
64.1911020680666
20
12.4033113455721
30
0
41
1
10
64.1954586468351
20
12.3999781713913
30
0
41
1
10
64.2013415744245
20
12.3965533309949
30
0
41
1
10
64.2088102060623
20
12.3930408659493
30
0
0
SPLINE
5
CD
100
AcDbEntity
8
1
62
256
6
ByLayer
370
-1
48
1
60
0
100
AcDbSpline
70
4
71
2
72
6
73
3
40
0
40
0
40
0
40
1
40
1
40
1
41
0.499899997321079
10
85.7091715681783
20
-12.4152854850556
30
0
41
0.500100002678921
10
84.6845456276277
20
-12.4149323248401
30
0
41
0.499899997321079
10
83.6599464980446
20
-12.4145775278314
30
0
0
SPLINE
5
CE
100
AcDbEntity
8
1
62
256
6
ByLayer
370
-1
48
1
60
0
100
AcDbSpline
70
4
71
3
72
18
73
14
40
0
40
0
40
0
40
0
40
0.179845380446646
40
0.179845380446646
40
0.359760927563084
40
0.359760927563084
40
0.539656550836189
40
0.539656550836189
40
0.735117930472216
40
0.735117930472216
40
0.953878326983581
40
0.953878326983581
40
1
40
1
40
1
40
1
41
1
10
81.9973417628137
20
-12.1322762218524
30
0
41
1
10
81.9844923765624
20
-12.1691982480917
30
0
41
1
10
81.997379095417
20
-12.2041986030234
30
0
41
1
10
82.075053676712
20
-12.2650099453918
30
0
41
1
10
82.1408507526755
20
-12.2916489848141
30
0
41
1
10
82.3134364466915
20
-12.3352799545266
30
0
41
1
10
82.422170479103
20
-12.3529067370064
30
0
41
1
10
82.676131364196
20
-12.3815590256235
30
0
41
1
10
82.8267126644011
20
-12.3923230274854
30
0
41
1
10
83.1606031619581
20
-12.4081786522996
30
0
41
1
10
83.3499564179683
20
-12.4127108691674
30
0
41
1
10
83.5791861112098
20
-12.4144082243712
30
0
41
1
10
83.6195745226794
20
-12.4145635478702
30
0
41
1
10
83.6599464980433
20
-12.4145775278314
30
0
0
SPLINE
5
CF
100
AcDbEntity
8
1
62
256
6
ByLayer
370
-1
48
1
60
0
100
AcDbSpline
70
4
71
3
72
8
73
4
40
0
40
0
40
0
40
0
40
1
40
1
40
1
40
1
41
1
10
89.1989055739991
20
1.8943120463037
30
0
41
1
10
89.1595906258312
20
1.89059090326805
30
0
41
1
10
89.121493857964
20
1.88454312711187
30
0
41
1
10
89.0847987049041
20
1.87611718969723
30
0
0
SPLINE
5
D0
100
AcDbEntity
8
1
62
256
6
ByLayer
370
-1
48
1
60
0
100
AcDbSpline
70
4
71
3
72
8
73
4
40
0
40
0
40
0
40
0
40
1
40
1
40
1
40
1
41
1
10
67.9772250232114
20
10.108169338779
30
0
41
1
10
69.4688518953337
20
9.14438193891107
30
0
41
1
10
71.6169392821457
20
8.37611852946623
30
0
41
1
10
73.8337700783063
20
8.37651209670207
30
0
0
SPLINE
5
D1
100
AcDbEntity
8
1
62
256
6
ByLayer
370
-1
48
1
60
0
100
AcDbSpline
70
4
71
3
72
8
73
4
40
0
40
0
40
0
40
0
40
1
40
1
40
1
40
1
41
1
10
75.6604685695649
20
8.37683640083074
30
0
41
1
10
75.0515690724791
20
8.37672829964941
30
0
41
1
10
74.4426695753929
20
8.37662019827317
30
0
41
1
10
73.8337700783062
20
8.37651209670207
30
0
0
SPLINE
5
D2
100
AcDbEntity
8
SK1
62
256
6
ByLayer
370
-1
48
1
60
0
100
AcDbSpline
70
4
71
3
72
34
73
30
40
0
40
0
40
0
40
0
40
0.217401536066271
40
0.217401536066271
40
0.435096189293026
40
0.435096189293026
40
0.489682713739692
40
0.489682713739692
40
0.496424752611493
40
0.496424752611493
40
0.4998277163662
40
0.4998277163662
40
0.501221335421436
40
0.501221335421436
40
0.502631422618689
40
0.502631422618689
40
0.50388887546648
40
0.50388887546648
40
0.506006326341786
40
0.506006326341786
40
0.5114648455425
40
0.5114648455425
40
0.532512938526583
40
0.532512938526583
40
0.616049656452777
40
0.616049656452777
40
0.949479024361983
40
0.949479024361983
40
1
40
1
40
1
40
1
41
1
10
-75.0700000032061
20
-0.234670284410242
30
0
41
1
10
-75.4700064464558
20
-0.234670284410242
30
0
41
1
10
-75.8701232474631
20
-0.227970241868832
30
0
41
1
10
-76.6697893188703
20
-0.195494684745
30
0
41
1
10
-77.0713370531014
20
-0.176891731587375
30
0
41
1
10
-77.5659938833215
20
-0.0996805507180909
30
0
41
1
10
-77.6682572433398
20
-0.0865193849705008
30
0
41
1
10
-77.7709539778072
20
-0.0396411306649043
30
0
41
1
10
-77.7822855224948
20
-0.0337382311877263
30
0
41
1
10
-77.7970213765866
20
-0.0219157473509881
30
0
41
1
10
-77.801711086977
20
-0.0173068007109691
30
0
41
1
10
-77.8061192899145
20
-0.0095065790782485
30
0
41
1
10
-77.8071371783622
20
-0.007015234910682
30
0
41
1
10
-77.808234884472
20
-0.0018522115922792
30
0
41
1
10
-77.8083007021103
20
0.0008888427524596
30
0
41
1
10
-77.8074703683923
20
0.0058452740892108
30
0
41
1
10
-77.806679757807
20
0.0081402936263828
30
0
41
1
10
-77.8038722064825
20
0.0138466647665325
30
0
41
1
10
-77.8013741597923
20
0.0170720040323431
30
0
41
1
10
-77.7915694072054
20
0.027304578034574
30
0
41
1
10
-77.7827295826391
20
0.0328902269622802
30
0
41
1
10
-77.7394809058233
20
0.0564798090606473
30
0
41
1
10
-77.701050957914
20
0.0669596151246878
30
0
41
1
10
-77.5130753622735
20
0.115123589139188
30
0
41
1
10
-77.3580161728682
20
0.132424615807736
30
0
41
1
10
-76.5891558538149
20
0.214102141366197
30
0
41
1
10
-75.9693947335421
20
0.228220267770837
30
0
41
1
10
-75.2574713321759
20
0.234275218157279
30
0
41
1
10
-75.1637352362742
20
0.234670284410242
30
0
41
1
10
-75.0700000032061
20
0.234670284410242
30
0
0
SPLINE
5
D3
100
AcDbEntity
8
1
62
256
6
ByLayer
370
-1
48
1
60
0
100
AcDbSpline
70
4
71
3
72
18
73
14
40
0
40
0
40
0
40
0
40
0.208052289313888
40
0.208052289313888
40
0.382962737033064
40
0.382962737033064
40
0.559606760626567
40
0.559606760626567
40
0.712730742478008
40
0.712730742478008
40
0.914807813243565
40
0.914807813243565
40
1
40
1
40
1
40
1
41
1
10
94.3035208475416
20
10.1079700878702
30
0
41
1
10
94.3521186046421
20
10.0563420256153
30
0
41
1
10
94.4099516453192
20
10.0107122891995
30
0
41
1
10
94.5293695976328
20
9.94530109417576
30
0
41
1
10
94.5903262153773
20
9.92197247219076
30
0
41
1
10
94.7178270467605
20
9.89438923788043
30
0
41
1
10
94.7863663618897
20
9.89012477376826
30
0
41
1
10
94.909516654227
20
9.90151857814212
30
0
41
1
10
94.9662439747867
20
9.91464185342775
30
0
41
1
10
95.0876231963894
20
9.95915817731662
30
0
41
1
10
95.1511892064049
20
9.99556883630137
30
0
41
1
10
95.2295587934733
20
10.0573100153899
30
0
41
1
10
95.2516376405181
20
10.0771392705833
30
0
41
1
10
95.2722514352187
20
10.0980913643368
30
0
0
SPLINE
5
D4
100
AcDbEntity
8
1
62
256
6
ByLayer
370
-1
48
1
60
0
100
AcDbSpline
70
4
71
3
72
18
73
14
40
0
40
0
40
0
40
0
40
0.0495733587937739
40
0.0495733587937739
40
0.272662104909068
40
0.272662104909068
40
0.497781275900844
40
0.497781275900844
40
0.736734166828013
40
0.736734166828013
40
0.998804076284687
40
0.998804076284687
40
1
40
1
40
1
40
1
41
1
10
96.4505825325516
20
8.69527398935793
30
0
41
1
10
96.4506213400894
20
8.70190407189645
30
0
41
1
10
96.450432832576
20
8.70853378627893
30
0
41
1
10
96.4481671590212
20
8.74460142015749
30
0
41
1
10
96.4416438371264
20
8.77395733039921
30
0
41
1
10
96.4205744733232
20
8.82805147396272
30
0
41
1
10
96.4057088746912
20
8.85344346212435
30
0
41
1
10
96.3691602140086
20
8.89867074393189
30
0
41
1
10
96.3466813469398
20
8.91865522807629
30
0
41
1
10
96.2958503548168
20
8.95151550433673
30
0
41
1
10
96.2665216459166
20
8.96395958895985
30
0
41
1
10
96.236534338994
20
8.97133660895827
30
0
41
1
10
96.2363965773043
20
8.97137038994202
30
0
41
1
10
96.236258797183
20
8.97140406645801
30
0
0
SPLINE
5
D5
100
AcDbEntity
8
1
62
256
6
ByLayer
370
-1
48
1
60
0
100
AcDbSpline
70
4
71
3
72
12
73
8
40
0
40
0
40
0
40
0
40
0.317744889416246
40
0.317744889416246
40
0.785788575726173
40
0.785788575726173
40
1
40
1
40
1
40
1
41
1
10
93.7783709139311
20
9.37064907494565
30
0
41
1
10
93.7988956971149
20
9.41800022836264
30
0
41
1
10
93.8139628949803
20
9.4678714628125
30
0
41
1
10
93.8370478405659
20
9.5900850733064
30
0
41
1
10
93.8389081812279
20
9.66391498213932
30
0
41
1
10
93.8268810465505
20
9.76617769097038
30
0
41
1
10
93.8209285964153
20
9.79799081356876
30
0
41
1
10
93.813011667743
20
9.82897440038548
30
0
0
SPLINE
5
D6
100
AcDbEntity
8
1
62
256
6
ByLayer
370
-1
48
1
60
0
100
AcDbSpline
70
4
71
3
72
18
73
14
40
0
40
0
40
0
40
0
40
0.207641937931098
40
0.207641937931098
40
0.382625540273514
40
0.382625540273514
40
0.559347523242251
40
0.559347523242251
40
0.712487383398345
40
0.712487383398345
40
0.914492800240134
40
0.914492800240134
40
1
40
1
40
1
40
1
41
1
10
95.757954421354
20
9.81246883043772
30
0
41
1
10
95.739502283575
20
9.74356342614513
30
0
41
1
10
95.7307495190493
20
9.66978607609607
30
0
41
1
10
95.7365608540934
20
9.53235208199729
30
0
41
1
10
95.7479060384018
20
9.46738108947102
30
0
41
1
10
95.789154910038
20
9.34269118452437
30
0
41
1
10
95.8200465868011
20
9.28124762550198
30
0
41
1
10
95.8912427530938
20
9.1809664167771
30
0
41
1
10
95.9305210149901
20
9.13895124543211
30
0
41
1
10
96.0281604001324
20
9.05772982762616
30
0
41
1
10
96.0901382302772
20
9.02208786334586
30
0
41
1
10
96.1807494895407
20
8.98688016281108
30
0
41
1
10
96.2083954601607
20
8.97821448371025
30
0
41
1
10
96.236258797183
20
8.97140406645809
30
0
0
SPLINE
5
D7
100
AcDbEntity
8
1
62
256
6
ByLayer
370
-1
48
1
60
0
100
AcDbSpline
70
4
71
3
72
14
73
10
40
0
40
0
40
0
40
0
40
0.266548793019306
40
0.266548793019306
40
0.55505864815571
40
0.55505864815571
40
0.815998835543278
40
0.815998835543278
40
1
40
1
40
1
40
1
41
1
10
93.7896031391313
20
7.58526367114183
30
0
41
1
10
93.7813303210868
20
7.55593681322915
30
0
41
1
10
93.777833181559
20
7.52432631028518
30
0
41
1
10
93.7821873850572
20
7.45837122635305
30
0
41
1
10
93.7911451271576
20
7.42297116741668
30
0
41
1
10
93.8208587945819
20
7.36053103917808
30
0
41
1
10
93.8409126094819
20
7.33209430497158
30
0
41
1
10
93.8825232698966
20
7.29108021593933
30
0
41
1
10
93.902246137982
20
7.27591686784962
30
0
41
1
10
93.9233702286369
20
7.26349463353893
30
0
0
SPLINE
5
D8
100
AcDbEntity
8
1
62
256
6
ByLayer
370
-1
48
1
60
0
100
AcDbSpline
70
4
71
3
72
16
73
12
40
0
40
0
40
0
40
0
40
0.0564225019474344
40
0.0564225019474344
40
0.279293900922739
40
0.279293900922739
40
0.504589079185251
40
0.504589079185251
40
0.74403261969879
40
0.74403261969879
40
1
40
1
40
1
40
1
41
1
10
93.0976561474106
20
8.71545504606334
30
0
41
1
10
93.0976119933123
20
8.70791152917815
30
0
41
1
10
93.0978613687505
20
8.70035093709862
30
0
41
1
10
93.1005233623916
20
8.66326565325181
30
0
41
1
10
93.1072944404496
20
8.63361734385794
30
0
41
1
10
93.1287869218776
20
8.57849767610216
30
0
41
1
10
93.1438460218096
20
8.5523649535387
30
0
41
1
10
93.180731075189
20
8.50526547427231
30
0
41
1
10
93.203359791113
20
8.4841168279456
30
0
41
1
10
93.2537117231225
20
8.44907428746387
30
0
41
1
10
93.282257866295
20
8.43531805181846
30
0
41
1
10
93.3112987633021
20
8.42632843512146
30
0
0
SPLINE
5
D9
100
AcDbEntity
8
1
62
256
6
ByLayer
370
-1
48
1
60
0
100
AcDbSpline
70
4
71
3
72
18
73
14
40
0
40
0
40
0
40
0
40
0.212071295667609
40
0.212071295667609
40
0.386267649012375
40
0.386267649012375
40
0.562150367204786
40
0.562150367204786
40
0.715124048215743
40
0.715124048215743
40
0.917906936475113
40
0.917906936475113
40
1
40
1
40
1
40
1
41
1
10
95.2440367129435
20
7.28976241370955
30
0
41
1
10
95.1942685909364
20
7.33800788227731
30
0
41
1
10
95.1348914916248
20
7.3802786419092
30
0
41
1
10
95.013575648399
20
7.43949448419889
30
0
41
1
10
94.9525450654532
20
7.46015159678407
30
0
41
1
10
94.8251995533784
20
7.48433640496302
30
0
41
1
10
94.7569141042684
20
7.48788699066202
30
0
41
1
10
94.634253672396
20
7.47732178689205
30
0
41
1
10
94.5777542323976
20
7.46539846115951
30
0
41
1
10
94.4566832507313
20
7.42488215338886
30
0
41
1
10
94.3932901750308
20
7.39163437617867
30
0
41
1
10
94.316209415283
20
7.33558821222456
30
0
41
1
10
94.2950774027813
20
7.3181140248532
30
0
41
1
10
94.2753061252665
20
7.29964113724267
30
0
0
SPLINE
5
DA
100
AcDbEntity
8
1
62
256
6
ByLayer
370
-1
48
1
60
0
100
AcDbSpline
70
4
71
3
72
18
73
14
40
0
40
0
40
0
40
0
40
0.14680956415008
40
0.14680956415008
40
0.333611955380057
40
0.333611955380057
40
0.490405534771612
40
0.490405534771612
40
0.647486799220343
40
0.647486799220343
40
0.802279757491666
40
0.802279757491666
40
1
40
1
40
1
40
1
41
1
10
93.7896031391314
20
7.5852636711418
30
0
41
1
10
93.8024966195831
20
7.63097061975003
30
0
41
1
10
93.8105395294634
20
7.67905831932563
30
0
41
1
10
93.8160618342063
20
7.79114383872326
30
0
41
1
10
93.8099627628822
20
7.85734778731975
30
0
41
1
10
93.7795959751858
20
7.97756516288672
30
0
41
1
10
93.7579237647527
20
8.03313911108492
30
0
41
1
10
93.7012606250414
20
8.13662634974119
30
0
41
1
10
93.665540442468
20
8.18578579937258
30
0
41
1
10
93.5864852836128
20
8.27070415410878
30
0
41
1
10
93.5424295249278
20
8.30771305039531
30
0
41
1
10
93.4379298456581
20
8.37717799791085
30
0
41
1
10
93.3749442201198
20
8.40662696856035
30
0
41
1
10
93.3112987633021
20
8.42632843512158
30
0
0
SPLINE
5
DB
100
AcDbEntity
8
1
62
256
6
ByLayer
370
-1
48
1
60
0
100
AcDbSpline
70
4
71
3
72
12
73
8
40
0
40
0
40
0
40
0
40
0.321499323659294
40
0.321499323659294
40
0.790361623223744
40
0.790361623223744
40
1
40
1
40
1
40
1
41
1
10
95.7681712502447
20
8.00770851085878
30
0
41
1
10
95.7474245191358
20
7.96044215351316
30
0
41
1
10
95.7323081586077
20
7.91122733385063
30
0
41
1
10
95.7096424100033
20
7.79250880422063
30
0
41
1
10
95.7081834696797
20
7.72204808560906
30
0
41
1
10
95.72075645891
20
7.62610121450183
30
0
41
1
10
95.7267084216715
20
7.59690565337957
30
0
41
1
10
95.734535019417
20
7.56855062579086
30
0
0
SPLINE
5
DC
100
AcDbEntity
8
1
62
256
6
ByLayer
370
-1
48
1
60
0
100
AcDbSpline
70
4
71
3
72
14
73
10
40
0
40
0
40
0
40
0
40
0.28255681954818
40
0.28255681954818
40
0.56905669995107
40
0.56905669995107
40
0.828364287555967
40
0.828364287555967
40
1
40
1
40
1
40
1
41
1
10
94.3035208475416
20
10.1079700878702
30
0
41
1
10
94.2801895285572
20
10.1327562274141
30
0
41
1
10
94.2519448393768
20
10.154136913992
30
0
41
1
10
94.1889774383798
20
10.185756747839
30
0
41
1
10
94.15316518472
20
10.1962687626485
30
0
41
1
10
94.0834634727406
20
10.2024406899148
30
0
41
1
10
94.0486569840621
20
10.199447524381
30
0
41
1
10
93.9938926019015
20
10.184288954533
30
0
41
1
10
93.9724525904898
20
10.175474643029
30
0
41
1
10
93.9525139265051
20
10.1642883983292
30
0
0
SPLINE
5
DD
100
AcDbEntity
8
1
62
256
6
ByLayer
370
-1
48
1
60
0
100
AcDbSpline
70
4
71
3
72
14
73
10
40
0
40
0
40
0
40
0
40
0.281483374970154
40
0.281483374970154
40
0.566301676413402
40
0.566301676413402
40
0.82399315275347
40
0.82399315275347
40
1
40
1
40
1
40
1
41
1
10
93.3178254698216
20
8.98972102201628
30
0
41
1
10
93.2853892197573
20
8.98258043272315
30
0
41
1
10
93.2533856501839
20
8.96941407176968
30
0
41
1
10
93.1956661130728
20
8.93172077626608
30
0
41
1
10
93.1691686678129
20
8.90642279946826
30
0
41
1
10
93.1296888248231
20
8.84978682936247
30
0
41
1
10
93.1151130478648
20
8.81836109485815
30
0
41
1
10
93.1008690133152
20
8.76281867610055
30
0
41
1
10
93.0977944581296
20
8.73908477198859
30
0
41
1
10
93.0976561474106
20
8.71545504606334
30
0
0
SPLINE
5
DE
100
AcDbEntity
8
1
62
256
6
ByLayer
370
-1
48
1
60
0
100
AcDbSpline
70
4
71
3
72
16
73
12
40
0
40
0
40
0
40
0
40
0.0518354783318414
40
0.0518354783318414
40
0.27264774447155
40
0.27264774447155
40
0.495628613702249
40
0.495628613702249
40
0.732434036661602
40
0.732434036661602
40
1
40
1
40
1
40
1
41
1
10
95.5957247534574
20
7.24644063709218
30
0
41
1
10
95.6018377294528
20
7.24987021719747
30
0
41
1
10
95.6078311328785
20
7.25351558844341
30
0
41
1
10
95.6383848464069
20
7.27360464719766
30
0
41
1
10
95.6607764031373
20
7.29376076563801
30
0
41
1
10
95.6977645687654
20
7.338594848463
30
0
41
1
10
95.7127718465798
20
7.36387241758859
30
0
41
1
10
95.734746558048
20
7.41745479982157
30
0
41
1
10
95.7414625482478
20
7.44650995574381
30
0
41
1
10
95.746024460492
20
7.50690883585921
30
0
41
1
10
95.7427278489732
20
7.53886877479465
30
0
41
1
10
95.7345350194171
20
7.56855062579089
30
0
0
SPLINE
5
DF
100
AcDbEntity
8
1
62
256
6
ByLayer
370
-1
48
1
60
0
100
AcDbSpline
70
4
71
3
72
16
73
12
40
0
40
0
40
0
40
0
40
0.0718709331194036
40
0.0718709331194036
40
0.382782271082567
40
0.382782271082567
40
0.665014904903635
40
0.665014904903635
40
0.913906911032885
40
0.913906911032885
40
1
40
1
40
1
40
1
41
1
10
95.7579544213552
20
9.81246883043715
30
0
41
1
10
95.7602286180434
20
9.82096131212782
30
0
41
1
10
95.7621514772778
20
9.82959032281488
30
0
41
1
10
95.7703469411589
20
9.87565793227827
30
0
41
1
10
95.7701300139431
20
9.91565985742704
30
0
41
1
10
95.7547859369672
20
9.98930267423899
30
0
41
1
10
95.7407162233266
20
10.0243305039681
30
0
41
1
10
95.7028809206828
20
10.0827296753547
30
0
41
1
10
95.6798588540252
20
10.1078215167907
30
0
41
1
10
95.6444226364413
20
10.1349190637681
30
0
41
1
10
95.6348098279701
20
10.1413882751985
30
0
41
1
10
95.6248684513254
20
10.1472344018824
30
0
0
SPLINE
5
E0
100
AcDbEntity
8
1
62
256
6
ByLayer
370
-1
48
1
60
0
100
AcDbSpline
70
4
71
3
72
12
73
8
40
0
40
0
40
0
40
0
40
0.4949626717786
40
0.4949626717786
40
0.899981336234238
40
0.899981336234238
40
1
40
1
40
1
40
1
41
1
10
96.2297212173382
20
8.40780400415989
30
0
41
1
10
96.1605184912138
20
8.38819030965124
30
0
41
1
10
96.0917767826026
20
8.35720568109355
30
0
41
1
10
95.9762989008773
20
8.28069532456578
30
0
41
1
10
95.9266176488077
20
8.23784766376792
30
0
41
1
10
95.872872442912
20
8.17649199356029
30
0
41
1
10
95.8625338763573
20
8.16385128975537
30
0
41
1
10
95.8526339026592
20
8.15085782859515
30
0
0
SPLINE
5
E1
100
AcDbEntity
8
1
62
256
6
ByLayer
370
-1
48
1
60
0
100
AcDbSpline
70
4
71
3
72
14
73
10
40
0
40
0
40
0
40
0
40
0.269061426293238
40
0.269061426293238
40
0.557255928578834
40
0.557255928578834
40
0.8179376849061
40
0.8179376849061
40
1
40
1
40
1
40
1
41
1
10
95.2440367129435
20
7.28976241370955
30
0
41
1
10
95.2663600490762
20
7.26812205903502
30
0
41
1
10
95.293107273788
20
7.24948986141055
30
0
41
1
10
95.3543100593878
20
7.22094036396123
30
0
41
1
10
95.3901818696947
20
7.21135225324673
30
0
41
1
10
95.4601935488831
20
7.20634528600965
30
0
41
1
10
95.4952379243693
20
7.2096463101249
30
0
41
1
10
95.5517232729455
20
7.22520765185371
30
0
41
1
10
95.5745796842281
20
7.23457755946706
30
0
41
1
10
95.5957247534574
20
7.24644063709218
30
0
0
SPLINE
5
E2
100
AcDbEntity
8
1
62
256
6
ByLayer
370
-1
48
1
60
0
100
AcDbSpline
70
4
71
3
72
16
73
12
40
0
40
0
40
0
40
0
40
0.0614390980882738
40
0.0614390980882738
40
0.282197352654251
40
0.282197352654251
40
0.505673090950552
40
0.505673090950552
40
0.743425178571393
40
0.743425178571393
40
1
40
1
40
1
40
1
41
1
10
93.9525139265051
20
10.1642883983292
30
0
41
1
10
93.9452794847558
20
10.1602296391397
30
0
41
1
10
93.9382103524719
20
10.1558475579813
30
0
41
1
10
93.906880499067
20
10.1344857977701
30
0
41
1
10
93.8847718721176
20
10.1136732717355
30
0
41
1
10
93.8483232739458
20
10.0671370287806
30
0
41
1
10
93.8335997836751
20
10.040778666787
30
0
41
1
10
93.8121957247034
20
9.98466777177669
30
0
41
1
10
93.805791228245
20
9.95411523387989
30
0
41
1
10
93.8019791255974
20
9.89180698294166
30
0
41
1
10
93.8052398119512
20
9.85939023190559
30
0
41
1
10
93.813011667743
20
9.8289744003855
30
0
0
SPLINE
5
E3
100
AcDbEntity
8
1
62
256
6
ByLayer
370
-1
48
1
60
0
100
AcDbSpline
70
4
71
3
72
14
73
10
40
0
40
0
40
0
40
0
40
0.271969763943142
40
0.271969763943142
40
0.557979173754344
40
0.557979173754344
40
0.816643577032564
40
0.816643577032564
40
1
40
1
40
1
40
1
41
1
10
96.2297212173382
20
8.40780400415986
30
0
41
1
10
96.2611697560762
20
8.4167172661958
30
0
41
1
10
96.2921933156808
20
8.43115209221892
30
0
41
1
10
96.349634714731
20
8.47100052042018
30
0
41
1
10
96.3765966911809
20
8.49762974772938
30
0
41
1
10
96.4169551450644
20
8.55629289523813
30
0
41
1
10
96.4319626451546
20
8.58849120381052
30
0
41
1
10
96.4470937099404
20
8.64574574208845
30
0
41
1
10
96.450438467449
20
8.67066115445141
30
0
41
1
10
96.4505825325516
20
8.69527398935793
30
0
0
SPLINE
5
E4
100
AcDbEntity
8
1
62
256
6
ByLayer
370
-1
48
1
60
0
100
AcDbSpline
70
4
71
3
72
16
73
12
40
0
40
0
40
0
40
0
40
0.0505596990165694
40
0.0505596990165694
40
0.273614755705195
40
0.273614755705195
40
0.498757020940633
40
0.498757020940633
40
0.737778360863311
40
0.737778360863311
40
1
40
1
40
1
40
1
41
1
10
93.9233702286369
20
7.26349463353893
30
0
41
1
10
93.9292070954839
20
7.26006220518974
30
0
41
1
10
93.9351677565177
20
7.25682360219577
30
0
41
1
10
93.9677384652232
20
7.24052840953689
30
0
41
1
10
93.9965990044588
20
7.23115018206721
30
0
41
1
10
94.0545271236139
20
7.22127323781896
30
0
41
1
10
94.0843288910656
20
7.22071014205258
30
0
41
1
10
94.1427052191249
20
7.22792908963092
30
0
41
1
10
94.1718266719047
20
7.23628729148351
30
0
41
1
10
94.2270166174703
20
7.26132306637905
30
0
41
1
10
94.2532256713946
20
7.2790107180671
30
0
41
1
10
94.2753061252665
20
7.29964113724267
30
0
0
SPLINE
5
E5
100
AcDbEntity
8
1
62
256
6
ByLayer
370
-1
48
1
60
0
100
AcDbSpline
70
4
71
3
72
12
73
8
40
0
40
0
40
0
40
0
40
0.488246810186355
40
0.488246810186355
40
0.894430614572591
40
0.894430614572591
40
1
40
1
40
1
40
1
41
1
10
93.3178254698216
20
8.98972102201637
30
0
41
1
10
93.3858640733185
20
9.00469919374348
30
0
41
1
10
93.4534488008985
20
9.030963992854
30
0
41
1
10
93.5681262938325
20
9.10030214366145
30
0
41
1
10
93.617969477318
20
9.14074535397467
30
0
41
1
10
93.6725535328001
20
9.20098644378072
30
0
41
1
10
93.6834736494147
20
9.21401321643441
30
0
41
1
10
93.6939082615161
20
9.22749975720845
30
0
0
SPLINE
5
E6
100
AcDbEntity
8
1
62
256
6
ByLayer
370
-1
48
1
60
0
100
AcDbSpline
70
4
71
3
72
16
73
12
40
0
40
0
40
0
40
0
40
0.14209834742959
40
0.14209834742959
40
0.364496957945576
40
0.364496957945576
40
0.594066000669926
40
0.594066000669926
40
0.841610670481228
40
0.841610670481228
40
1
40
1
40
1
40
1
41
1
10
95.6248684513254
20
10.1472344018824
30
0
41
1
10
95.6085803029142
20
10.1568128116401
30
0
41
1
10
95.5912536159512
20
10.164792217773
30
0
41
1
10
95.5457086262673
20
10.1805064168556
30
0
41
1
10
95.5162506486111
20
10.1856994254482
30
0
41
1
10
95.4576914886917
20
10.1870676760416
30
0
41
1
10
95.4278940599153
20
10.182991617669
30
0
41
1
10
95.3701568296941
20
10.1661139108318
30
0
41
1
10
95.3418139492003
20
10.1524758249851
30
0
41
1
10
95.300680390248
20
10.1243547903282
30
0
41
1
10
95.2857356427562
20
10.1117968651736
30
0
41
1
10
95.2722514352187
20
10.0980913643369
30
0
0
LINE
5
4A
100
AcDbEntity
8
1
62
256
6
ByLayer
370
-1
48
1
60
0
100
AcDbLine
10
0
20
-12.49125
30
0
11
85.627562
21
-12.49125
31
0
39
0
210
0
220
0
230
1
0
LINE
5
4B
100
AcDbEntity
8
1
62
256
6
ByLayer
370
-1
48
1
60
0
100
AcDbLine
10
66.085303
20
12.49125
30
0
11
0
21
12.49125
31
0
39
0
210
0
220
0
230
1
0
LINE
5
4C
100
AcDbEntity
8
1
62
256
6
ByLayer
370
-1
48
1
60
0
100
AcDbLine
10
87.425232
20
0.331663
30
0
11
87.439909
21
0.611722
31
0
39
0
210
0
220
0
230
1
0
LINE
5
4D
100
AcDbEntity
8
SK1
62
256
6
ByLayer
370
-1
48
1
60
0
100
AcDbLine
10
-199.32
20
-12.49125
30
0
11
0
21
-12.49125
31
0
39
0
210
0
220
0
230
1
0
LINE
5
4F
100
AcDbEntity
8
SK1
62
256
6
ByLayer
370
-1
48
1
60
0
100
AcDbLine
10
0
20
12.49125
30
0
11
-199.32
21
12.49125
31
0
39
0
210
0
220
0
230
1
0
LINE
5
50
100
AcDbEntity
8
SK1
62
256
6
ByLayer
370
-1
48
1
60
0
100
AcDbLine
10
-199.32
20
12.49125
30
0
11
-201.32
21
10.49125
31
0
39
0
210
0
220
0
230
1
0
LINE
5
51
100
AcDbEntity
8
SK1
62
256
6
ByLayer
370
-1
48
1
60
0
100
AcDbLine
10
-201.32
20
-10.49125
30
0
11
-199.32
21
-12.49125
31
0
39
0
210
0
220
0
230
1
0
LINE
5
52
100
AcDbEntity
8
1
62
256
6
ByLayer
370
-1
48
1
60
0
100
AcDbLine
10
93.808974
20
7.652072
30
0
11
93.812867
21
7.726361
31
0
39
0
210
0
220
0
230
1
0
LINE
5
53
100
AcDbEntity
8
1
62
256
6
ByLayer
370
-1
48
1
60
0
100
AcDbLine
10
95.712294
20
7.774159
30
0
11
95.708478
21
7.701334
31
0
39
0
210
0
220
0
230
1
0
LINE
5
54
100
AcDbEntity
8
1
62
256
6
ByLayer
370
-1
48
1
60
0
100
AcDbLine
10
95.734259
20
9.663142
30
0
11
95.730356
21
9.588661
31
0
39
0
210
0
220
0
230
1
0
LINE
5
55
100
AcDbEntity
8
1
62
256
6
ByLayer
370
-1
48
1
60
0
100
AcDbLine
10
97.391145
20
8.484476
30
0
11
97.394661
21
8.551553
31
0
39
0
210
0
220
0
230
1
0
LINE
5
56
100
AcDbEntity
8
1
62
256
6
ByLayer
370
-1
48
1
60
0
100
AcDbLine
10
92.151856
20
8.826317
30
0
11
92.14834
21
8.759239
31
0
39
0
210
0
220
0
230
1
0
LINE
5
57
100
AcDbEntity
8
1
62
256
6
ByLayer
370
-1
48
1
60
0
100
AcDbLine
10
93.830852
20
9.539399
30
0
11
93.834668
21
9.612225
31
0
39
0
210
0
220
0
230
1
0
LINE
5
58
100
AcDbEntity
8
80
62
256
6
ByLayer
370
-1
48
1
60
0
100
AcDbLine
10
0
20
0
30
0
11
-10
21
0
31
0
39
0
210
0
220
0
230
1
0
LINE
5
59
100
AcDbEntity
8
81
62
256
6
ByLayer
370
-1
48
1
60
0
100
AcDbLine
10
99.93
20
16.9
30
0
11
109.93
21
16.9
31
0
39
0
210
0
220
0
230
1
0
LINE
5
5A
100
AcDbEntity
8
SK4
62
256
6
ByLayer
370
-1
48
0.05
60
0
100
AcDbLine
10
-206.32
20
0
30
0
11
104.716021
21
0
31
0
39
0
210
0
220
0
230
1
0
LINE
5
5C
100
AcDbEntity
8
4
62
256
6
ByLayer
370
-1
48
0.05
60
0
100
AcDbLine
10
0
20
0
30
0
11
104.716021
21
0
31
0
39
0
210
0
220
0
230
1
0
LINE
5
5E
100
AcDbEntity
8
1
62
256
6
ByLayer
370
-1
48
1
60
0
100
AcDbLine
10
88.459445
20
2.128991
30
0
11
84.384724
21
8.046795
31
0
39
0
210
0
220
0
230
1
0
LINE
5
5F
100
AcDbEntity
8
1
62
256
6
ByLayer
370
-1
48
1
60
0
100
AcDbLine
10
0
20
-0.23467
30
0
11
71.764595
21
-0.23467
31
0
39
0
210
0
220
0
230
1
0
LINE
5
60
100
AcDbEntity
8
1
62
256
6
ByLayer
370
-1
48
1
60
0
100
AcDbLine
10
89.728437
20
4.176972
30
0
11
89.762795
21
4.082215
31
0
39
0
210
0
220
0
230
1
0
LINE
5
61
100
AcDbEntity
8
1
62
256
6
ByLayer
370
-1
48
1
60
0
100
AcDbLine
10
87.821592
20
11.947425
30
0
11
87.277354
21
12.490696
31
0
39
0
210
0
220
0
230
1
0
LINE
5
62
100
AcDbEntity
8
1
62
256
6
ByLayer
370
-1
48
1
60
0
100
AcDbLine
10
87.289789
20
-0.232923
30
0
11
81.997342
21
-12.132276
31
0
39
0
210
0
220
0
230
1
0
LINE
5
63
100
AcDbEntity
8
1
62
256
6
ByLayer
370
-1
48
1
60
0
100
AcDbLine
10
68.872064
20
10.984594
30
0
11
66.71639
21
12.491136
31
0
39
0
210
0
220
0
230
1
0
LINE
5
64
100
AcDbEntity
8
1
62
256
6
ByLayer
370
-1
48
1
60
0
100
AcDbLine
10
83.659946
20
-12.414578
30
0
11
88.747152
21
-0.976683
31
0
39
0
210
0
220
0
230
1
0
LINE
5
65
100
AcDbEntity
8
1
62
256
6
ByLayer
370
-1
48
1
60
0
100
AcDbLine
10
87.304886
20
0.055135
30
0
11
87.289789
21
-0.232923
31
0
39
0
210
0
220
0
230
1
0
LINE
5
66
100
AcDbEntity
8
1
62
256
6
ByLayer
370
-1
48
1
60
0
100
AcDbLine
10
99.175586
20
5.560956
30
0
11
98.875794
21
-0.159407
31
0
39
0
210
0
220
0
230
1
0
LINE
5
67
100
AcDbEntity
8
1
62
256
6
ByLayer
370
-1
48
1
60
0
100
AcDbLine
10
85.709172
20
-12.415285
30
0
11
85.627562
21
-12.49125
31
0
39
0
210
0
220
0
230
1
0
LINE
5
68
100
AcDbEntity
8
1
62
256
6
ByLayer
370
-1
48
1
60
0
100
AcDbLine
10
87.304886
20
0.055135
30
0
11
83.850963
21
-7.584944
31
0
39
0
210
0
220
0
230
1
0
LINE
5
69
100
AcDbEntity
8
1
62
256
6
ByLayer
370
-1
48
1
60
0
100
AcDbLine
10
0
20
-12.49125
30
0
11
0
21
-0.23467
31
0
39
0
210
0
220
0
230
1
0
LINE
5
6A
100
AcDbEntity
8
1
62
256
6
ByLayer
370
-1
48
1
60
0
100
AcDbLine
10
0
20
0.23467
30
0
11
0
21
12.49125
31
0
39
0
210
0
220
0
230
1
0
LINE
5
6B
100
AcDbEntity
8
1
62
256
6
ByLayer
370
-1
48
1
60
0
100
AcDbLine
10
0
20
-0.23467
30
0
11
0
21
0.23467
31
0
39
0
210
0
220
0
230
1
0
LINE
5
6C
100
AcDbEntity
8
1
62
256
6
ByLayer
370
-1
48
1
60
0
100
AcDbLine
10
81.747105
20
9.432071
30
0
11
73.805088
21
9.432071
31
0
39
0
210
0
220
0
230
1
0
LINE
5
6D
100
AcDbEntity
8
1
62
256
6
ByLayer
370
-1
48
1
60
0
100
AcDbLine
10
83.087107
20
7.540965
30
0
11
87.160424
21
1.596368
31
0
39
0
210
0
220
0
230
1
0
LINE
5
6E
100
AcDbEntity
8
1
62
256
6
ByLayer
370
-1
48
1
60
0
100
AcDbLine
10
89.728437
20
4.176972
30
0
11
89.769088
21
4.202327
31
0
39
0
210
0
220
0
230
1
0
LINE
5
6F
100
AcDbEntity
8
1
62
256
6
ByLayer
370
-1
48
1
60
0
100
AcDbLine
10
71.467607
20
0.23467
30
0
11
0
21
0.23467
31
0
39
0
210
0
220
0
230
1
0
LINE
5
70
100
AcDbEntity
8
1
62
256
6
ByLayer
370
-1
48
1
60
0
100
AcDbLine
10
75.660469
20
8.376836
30
0
11
81.769351
21
8.253691
31
0
39
0
210
0
220
0
230
1
0
LINE
5
71
100
AcDbEntity
8
1
62
256
6
ByLayer
370
-1
48
1
60
0
100
AcDbLine
10
89.198906
20
1.894312
30
0
11
89.192028
21
1.763087
31
0
39
0
210
0
220
0
230
1
0
LINE
5
72
100
AcDbEntity
8
1
62
256
6
ByLayer
370
-1
48
1
60
0
100
AcDbLine
10
85.709172
20
-12.415285
30
0
11
98.875794
21
-0.159407
31
0
39
0
210
0
220
0
230
1
0
LINE
5
73
100
AcDbEntity
8
SK1
62
256
6
ByLayer
370
-1
48
1
60
0
100
AcDbLine
10
-201.32
20
-10.49125
30
0
11
-201.32
21
10.49125
31
0
39
0
210
0
220
0
230
1
0
LINE
5
74
100
AcDbEntity
8
SK1
62
256
6
ByLayer
370
-1
48
1
60
0
100
AcDbLine
10
-75.07
20
-0.23467
30
0
11
-75.07
21
0.23467
31
0
39
0
210
0
220
0
230
1
0
LINE
5
75
100
AcDbEntity
8
SK1
62
256
6
ByLayer
370
-1
48
1
60
0
100
AcDbLine
10
-75.07
20
-0.23467
30
0
11
0
21
-0.23467
31
0
39
0
210
0
220
0
230
1
0
LINE
5
76
100
AcDbEntity
8
SK1
62
256
6
ByLayer
370
-1
48
1
60
0
100
AcDbLine
10
0
20
-0.23467
30
0
11
0
21
0.23467
31
0
39
0
210
0
220
0
230
1
0
LINE
5
77
100
AcDbEntity
8
SK1
62
256
6
ByLayer
370
-1
48
1
60
0
100
AcDbLine
10
-199.32
20
-12.49125
30
0
11
-199.32
21
12.49125
31
0
39
0
210
0
220
0
230
1
0
LINE
5
78
100
AcDbEntity
8
SK1
62
256
6
ByLayer
370
-1
48
1
60
0
100
AcDbLine
10
0
20
-12.49125
30
0
11
0
21
-0.23467
31
0
39
0
210
0
220
0
230
1
0
LINE
5
79
100
AcDbEntity
8
SK1
62
256
6
ByLayer
370
-1
48
1
60
0
100
AcDbLine
10
0
20
0.23467
30
0
11
0
21
12.49125
31
0
39
0
210
0
220
0
230
1
0
LINE
5
7A
100
AcDbEntity
8
SK1
62
256
6
ByLayer
370
-1
48
1
60
0
100
AcDbLine
10
0
20
0.23467
30
0
11
-75.07
21
0.23467
31
0
39
0
210
0
220
0
230
1
0
LINE
5
7B
100
AcDbEntity
8
1
62
256
6
ByLayer
370
-1
48
1
60
0
100
AcDbLine
10
95.730426
20
7.490154
30
0
11
95.734535
21
7.568551
31
0
39
0
210
0
220
0
230
1
0
LINE
5
7C
100
AcDbEntity
8
1
62
256
6
ByLayer
370
-1
48
1
60
0
100
AcDbLine
10
96.232145
20
8.892904
30
0
11
96.236259
21
8.971404
31
0
39
0
210
0
220
0
230
1
0
LINE
5
7D
100
AcDbEntity
8
1
62
256
6
ByLayer
370
-1
48
1
60
0
100
AcDbLine
10
95.268137
20
10.019591
30
0
11
95.272251
21
10.098091
31
0
39
0
210
0
220
0
230
1
0
LINE
5
7E
100
AcDbEntity
8
1
62
256
6
ByLayer
370
-1
48
1
60
0
100
AcDbLine
10
94.299407
20
10.02947
30
0
11
94.303521
21
10.10797
31
0
39
0
210
0
220
0
230
1
0
LINE
5
7F
100
AcDbEntity
8
1
62
256
6
ByLayer
370
-1
48
1
60
0
100
AcDbLine
10
93.313717
20
8.911325
30
0
11
93.317825
21
8.989721
31
0
39
0
210
0
220
0
230
1
0
LINE
5
80
100
AcDbEntity
8
1
62
256
6
ByLayer
370
-1
48
1
60
0
100
AcDbLine
10
93.785489
20
7.506764
30
0
11
93.789603
21
7.585264
31
0
39
0
210
0
220
0
230
1
0
LINE
5
81
100
AcDbEntity
8
1
62
256
6
ByLayer
370
-1
48
1
60
0
100
AcDbLine
10
93.693908
20
9.2275
30
0
11
93.690302
21
9.158687
31
0
39
0
210
0
220
0
230
1
0
LINE
5
82
100
AcDbEntity
8
1
62
256
6
ByLayer
370
-1
48
1
60
0
100
AcDbLine
10
93.774765
20
9.301837
30
0
11
93.778371
21
9.370649
31
0
39
0
210
0
220
0
230
1
0
LINE
5
83
100
AcDbEntity
8
1
62
256
6
ByLayer
370
-1
48
1
60
0
100
AcDbLine
10
90.126604
20
11.024121
30
0
11
89.620412
21
1.365388
31
0
39
0
210
0
220
0
230
1
0
LINE
5
84
100
AcDbEntity
8
1
62
256
6
ByLayer
370
-1
48
1
60
0
100
AcDbLine
10
98.715162
20
16.779388
30
0
11
90.4987
21
11.654757
31
0
39
0
210
0
220
0
230
1
0
LINE
5
85
100
AcDbEntity
8
1
62
256
6
ByLayer
370
-1
48
1
60
0
100
AcDbLine
10
99.422698
20
6.40691
30
0
11
99.928891
21
16.065643
31
0
39
0
210
0
220
0
230
1
0
LINE
5
86
100
AcDbEntity
8
1
62
256
6
ByLayer
370
-1
48
1
60
0
100
AcDbLine
10
90.83414
20
0.651642
30
0
11
99.050603
21
5.776274
31
0
39
0
210
0
220
0
230
1
0
LINE
5
87
100
AcDbEntity
8
2
62
256
6
ByLayer
370
-1
48
1
60
1
100
AcDbLine
10
99.93
20
0
30
0
11
99.931
21
0.001
31
0
39
0
210
0
220
0
230
1
0
MTEXT
5
E7
100
AcDbEntity
8
SK6
62
256
6
ByLayer
370
-1
48
1
60
0
100
AcDbMText
10
-47.32
20
-25.570625
30
0
210
0
220
0
230
1
1
\W00.749;\fsimplex.shx,bigfont.shx;A25T-SDUCR 11HP-R 
40
3.5
41
0
44
1.084337
50
0
71
7
72
5
7
DEFAULT
0
DIMENSION
5
11A
100
AcDbEntity
8
2
62
256
6
ByLayer
370
-3
48
1
60
0
100
AcDbDimension
2
DimnDraft3D1
10
112.18
20
0
30
0
11
112.18
21
3.849342
31
0
70
32
71
5
72
1
41
1
210
0
220
0
230
1
3
Standard
100
AcDbAlignedDimension
13
101.93
23
16.9
33
0
14
101.93
24
0
34
0
50
90
100
AcDbRotatedDimension
1001
ACAD
1000
DSTYLE
1002
{
1070
    74
1070
     0
1070
   279
1070
     0
1070
   172
1070
     1
1070
   173
1070
     1
1070
   340
1005
E8
1070
    77
1070
     1
1070
    73
1070
     0
1070
   171
1070
     4
1070
   274
1070
     4
1070
   177
1070
     2
1070
   176
1070
     2
1070
   178
1070
     7
1070
    78
1070
     8
1070
    41
1041
3.175
1070
   147
1041
2.25
1070
    42
1041
2.0
1070
    44
1041
2.0
1070
   140
1041
4.5
1070
   343
1005
11B
1070
   344
1005
11B
1002
}
0
DIMENSION
5
130
100
AcDbEntity
8
SK2
62
256
6
ByLayer
370
-3
48
1
60
0
100
AcDbDimension
2
DimnDraft3D2
10
-211.07
20
12.49125
30
0
11
-211.07
21
-4.784211
31
0
70
32
71
5
72
1
41
1
210
0
220
0
230
1
3
Standard
100
AcDbAlignedDimension
13
-203.32
23
-12.49125
33
0
14
-203.32
24
12.49125
34
0
50
90
100
AcDbRotatedDimension
1001
ACAD
1000
DSTYLE
1002
{
1070
    74
1070
     0
1070
   279
1070
     0
1070
   172
1070
     1
1070
   173
1070
     1
1070
   340
1005
E8
1070
    77
1070
     1
1070
    73
1070
     0
1070
   171
1070
     4
1070
   274
1070
     4
1070
   177
1070
     2
1070
   176
1070
     2
1070
   178
1070
     7
1070
    78
1070
     8
1070
    41
1041
3.175
1070
   147
1041
2.25
1070
    42
1041
2.0
1070
    44
1041
2.0
1070
   140
1041
4.5
1070
   343
1005
11B
1070
   344
1005
11B
1002
}
0
DIMENSION
5
13E
100
AcDbEntity
8
SK2
62
256
6
ByLayer
370
-3
48
1
60
0
100
AcDbDimension
2
DimnDraft3D3
10
-201.32
20
29.65
30
0
11
-57.510132
21
29.65
31
0
70
32
71
5
72
1
41
1
210
0
220
0
230
1
3
Standard
100
AcDbAlignedDimension
13
99.93
23
18.9
33
0
14
-201.32
24
14.49125
34
0
50
0
100
AcDbRotatedDimension
1001
ACAD
1000
DSTYLE
1002
{
1070
   279
1070
     0
1070
   172
1070
     1
1070
   173
1070
     1
1070
   340
1005
E8
1070
    77
1070
     1
1070
    73
1070
     0
1070
   171
1070
     4
1070
   274
1070
     4
1070
   177
1070
     2
1070
   176
1070
     2
1070
   178
1070
     7
1070
    78
1070
     8
1070
    41
1041
3.175
1070
   147
1041
2.25
1070
    42
1041
2.0
1070
    44
1041
2.0
1070
   140
1041
4.5
1070
   343
1005
11B
1070
   344
1005
11B
1002
}
0
DIMENSION
5
14C
100
AcDbEntity
8
2
62
256
6
ByLayer
370
-3
48
1
60
0
100
AcDbDimension
2
DimnDraft3D4
10
147.970715
20
0
30
0
11
125.176119
21
-36.792664
31
0
70
34
71
5
72
1
41
1
210
0
220
0
230
1
3
Standard
100
AcDb2LineAngularDimension
13
99.249633
23
3.917816
33
0
14
96.483698
24
-48.859355
34
0
15
101.93
25
0
35
0
16
128.24872
26
-30.775028
36
0
40
0
0
ENDSEC
0
SECTION
2
OBJECTS
0
DICTIONARY
5
17d
330
0
100
AcDbDictionary
280
0
281
1
3
ACAD_GROUP
350
17e
3
ACAD_MLINESTYLE
350
17f
0
DICTIONARY
5
17e
330
0
100
AcDbDictionary
280
0
281
1
0
DICTIONARY
5
17f
330
0
100
AcDbDictionary
280
0
281
1
3
Standard
350
18
0
MLINESTYLE
5
18
330
17f
100
AcDbMlineStyle
2
Standard
70
0
3

62
256
51
90
52
90
71
2
49
-0.5
62
256
6
ByLayer
49
0.5
62
256
6
ByLayer
0
RASTERVARIABLES
5
16b
330

100
AcDbRasterVariables
90
0
70
1
71
1
72
1
0
ENDSEC
0
EOF
