0
SECTION
2
HEADER
9
$ACADVER
1
AC1015
9
$DWGCODEPAGE
3
ANSI_1252
9
$HANDSEED
5
19d
9
$ANGBASE
50
0
9
$ANGDIR
70
0
9
$ATTMODE
70
1
9
$AUNITS
70
0
9
$AUPREC
70
0
9
$CECOLOR
62
256
9
$CELTSCALE
40
1
9
$CELTYPE
6
ByLayer
9
$CELWEIGHT
370
-1
9
$CLAYER
8
0
9
$CMLJUST
70
0
9
$CMLSCALE
40
1
9
$CMLSTYLE
2
Standard
9
$DIMSTYLE
2
Standard
9
$TEXTSIZE
40
0.2
9
$TEXTSTYLE
7
Standard
9
$LUNITS
70
2
9
$LUPREC
70
4
9
$EXTNAMES
290
1
9
$INSUNITS
70
4
9
$LTSCALE
40
1
9
$LWDISPLAY
290
0
9
$PDMODE
70
0
9
$PDSIZE
40
0
9
$PLINEGEN
70
0
0
ENDSEC
0
SECTION
2
CLASSES
0
CLASS
1
RASTERVARIABLES
2
AcDbRasterVariables
3
ISM
90
0
280
0
281
0
0
ENDSEC
0
SECTION
2
TABLES
0
TABLE
2
VPORT
5
193
100
AcDbSymbolTable
0
VPORT
5
1
100
AcDbSymbolTableRecord
100
AcDbViewportTableRecord
2
*Active
70
0
10
0
20
0
11
1
21
1
12
-1
22
1
13
0
23
0
14
0.5
24
0.5
15
10
25
10
16
0
26
0
36
1
17
0
27
0
37
0
0
ENDTAB
0
TABLE
2
LTYPE
5
194
100
AcDbSymbolTable
0
LTYPE
5
14
100
AcDbSymbolTableRecord
100
AcDbLinetypeTableRecord
70
0
2
ByBlock
3

72
65
73
0
40
0
0
LTYPE
5
15
100
AcDbSymbolTableRecord
100
AcDbLinetypeTableRecord
70
0
2
ByLayer
3

72
65
73
0
40
0
0
LTYPE
5
16
100
AcDbSymbolTableRecord
100
AcDbLinetypeTableRecord
70
0
2
CONTINUOUS
3
Solid line
72
65
73
0
40
0
0
LTYPE
5
3B
100
AcDbSymbolTableRecord
100
AcDbLinetypeTableRecord
70
0
2
DASHED
3
__ __ __ __ __ __ __ __ __
72
65
73
2
40
25.72
49
12.86
74
0
49
-12.86
74
0
0
LTYPE
5
3C
100
AcDbSymbolTableRecord
100
AcDbLinetypeTableRecord
70
0
2
HIDDEN
3
_ _ _ _ _ _ _ _ _ _ _ _ _ _ _
72
65
73
2
40
0.5
49
0.25
74
0
49
-0.25
74
0
0
LTYPE
5
3D
100
AcDbSymbolTableRecord
100
AcDbLinetypeTableRecord
70
0
2
PHANTOM
3
____ _ _ ____ _ _ _____ _ _ ____
72
65
73
6
40
50.5
49
18
74
0
49
-6.5
74
0
49
6.5
74
0
49
-6.5
74
0
49
6.5
74
0
49
-6.5
74
0
0
LTYPE
5
3E
100
AcDbSymbolTableRecord
100
AcDbLinetypeTableRecord
70
0
2
CENTER
3
____ _ ____ _ ____ _ ____
72
65
73
4
40
47.5
49
22
74
0
49
-8.5
74
0
49
8.5
74
0
49
-8.5
74
0
0
LTYPE
5
3F
100
AcDbSymbolTableRecord
100
AcDbLinetypeTableRecord
70
0
2
DOT
3
.........................
72
65
73
2
40
10
49
0
74
0
49
-10
74
0
0
LTYPE
5
40
100
AcDbSymbolTableRecord
100
AcDbLinetypeTableRecord
70
0
2
DASHDOT
3
_._._._._._._._._._._._._._._._.
72
65
73
4
40
70
49
31
74
0
49
-13
74
0
49
13
74
0
49
-13
74
0
0
ENDTAB
0
TABLE
2
LAYER
5
195
100
AcDbSymbolTable
0
LAYER
5
10
100
AcDbSymbolTableRecord
100
AcDbLayerTableRecord
2
0
70
0
62
7
6
CONTINUOUS
290
1
370
-3
390
0
0
LAYER
5
42
100
AcDbSymbolTableRecord
100
AcDbLayerTableRecord
2
80
70
0
62
-6
6
CONTINUOUS
290
1
370
-3
390
0
0
LAYER
5
44
100
AcDbSymbolTableRecord
100
AcDbLayerTableRecord
2
81
70
0
62
-3
6
CONTINUOUS
290
1
370
-3
390
0
0
LAYER
5
46
100
AcDbSymbolTableRecord
100
AcDbLayerTableRecord
2
1
70
0
62
4
6
CONTINUOUS
290
1
370
-3
390
0
0
LAYER
5
48
100
AcDbSymbolTableRecord
100
AcDbLayerTableRecord
2
2
70
0
62
7
6
CONTINUOUS
290
1
370
-3
390
0
0
LAYER
5
4E
100
AcDbSymbolTableRecord
100
AcDbLayerTableRecord
2
4
70
0
62
-2
6
CENTER
290
1
370
-3
390
0
0
LAYER
5
17f
100
AcDbSymbolTableRecord
100
AcDbLayerTableRecord
2
SK4
70
0
62
2
6
CENTER
290
1
370
-3
390
0
0
LAYER
5
180
100
AcDbSymbolTableRecord
100
AcDbLayerTableRecord
2
SK1
70
0
62
4
6
CONTINUOUS
290
1
370
-3
390
0
0
LAYER
5
181
100
AcDbSymbolTableRecord
100
AcDbLayerTableRecord
2
SK6
70
0
62
5
6
CONTINUOUS
290
1
370
-3
390
0
0
LAYER
5
182
100
AcDbSymbolTableRecord
100
AcDbLayerTableRecord
2
SK2
70
0
62
7
6
CONTINUOUS
290
1
370
-3
390
0
0
ENDTAB
0
TABLE
2
STYLE
5
196
100
AcDbSymbolTable
0
STYLE
5
11
100
AcDbSymbolTableRecord
100
AcDbTextStyleTableRecord
2
Standard
3
txt
70
0
71
0
40
0
41
1
42
0
50
0
0
STYLE
5
FB
100
AcDbSymbolTableRecord
100
AcDbTextStyleTableRecord
2
DEFAULT
3
simplex.shx
70
0
71
0
40
0
41
1
42
0
50
0
0
STYLE
5
11E
100
AcDbSymbolTableRecord
100
AcDbTextStyleTableRecord
2
DWGDirectTextStyle
3
SIMPLEX
70
0
71
0
40
0
41
1
42
0
50
0
0
ENDTAB
0
TABLE
2
DIMSTYLE
5
197
100
AcDbSymbolTable
100
AcDbDimStyleTable
0
DIMSTYLE
105
27
100
AcDbSymbolTableRecord
100
AcDbDimStyleTableRecord
2
Standard
70
0
3
<>
41
0.18
42
0.0625
44
0.18
140
0.18
147
0.09
73
0
74
0
77
1
271
2
275
0
278
52
280
0
340
11
0
ENDTAB
0
TABLE
2
VIEW
5
198
100
AcDbSymbolTable
0
ENDTAB
0
TABLE
2
UCS
5
199
100
AcDbSymbolTable
0
ENDTAB
0
TABLE
2
APPID
5
19a
100
AcDbSymbolTable
0
APPID
5
12
100
AcDbSymbolTableRecord
100
AcDbRegAppTableRecord
2
ACAD
70
0
0
ENDTAB
0
TABLE
2
BLOCK_RECORD
5
19b
100
AcDbSymbolTable
0
BLOCK_RECORD
5
1F
100
AcDbSymbolTableRecord
100
AcDbBlockTableRecord
2
*Model_Space
340
0
70
0
0
BLOCK_RECORD
5
1B
100
AcDbSymbolTableRecord
100
AcDbBlockTableRecord
2
*Paper_Space
340
0
70
0
0
BLOCK_RECORD
5
23
100
AcDbSymbolTableRecord
100
AcDbBlockTableRecord
2
*Paper_Space0
340
0
70
0
0
BLOCK_RECORD
5
120
100
AcDbSymbolTableRecord
100
AcDbBlockTableRecord
2
DimnDraft3D1
340
0
70
0
0
BLOCK_RECORD
5
12E
100
AcDbSymbolTableRecord
100
AcDbBlockTableRecord
2
_CLOSED
340
0
70
0
0
BLOCK_RECORD
5
135
100
AcDbSymbolTableRecord
100
AcDbBlockTableRecord
2
DimnDraft3D2
340
0
70
0
0
BLOCK_RECORD
5
144
100
AcDbSymbolTableRecord
100
AcDbBlockTableRecord
2
DimnDraft3D3
340
0
70
0
0
BLOCK_RECORD
5
152
100
AcDbSymbolTableRecord
100
AcDbBlockTableRecord
2
DimnDraft3D4
340
0
70
0
0
ENDTAB
0
ENDSEC
0
SECTION
2
BLOCKS
0
BLOCK
5
20
100
AcDbEntity
8
0
100
AcDbBlockBegin
2
*Model_Space
70
0
10
0
20
0
30
0
3
*Model_Space
0
ENDBLK
5
21
100
AcDbEntity
8
0
100
AcDbBlockEnd
0
BLOCK
5
1C
100
AcDbEntity
8
0
100
AcDbBlockBegin
2
*Paper_Space
70
0
10
0
20
0
30
0
3
*Paper_Space
0
ENDBLK
5
1D
100
AcDbEntity
8
0
100
AcDbBlockEnd
0
BLOCK
5
24
100
AcDbEntity
8
0
100
AcDbBlockBegin
2
*Paper_Space0
70
0
10
0
20
0
30
0
3
*Paper_Space0
0
ENDBLK
5
25
100
AcDbEntity
8
0
100
AcDbBlockEnd
0
BLOCK
5
12B
100
AcDbEntity
8
0
100
AcDbBlockBegin
2
DimnDraft3D1
70
0
10
0
20
0
30
0
3
DimnDraft3D1
0
MTEXT
5
121
100
AcDbEntity
8
2
62
256
6
ByLayer
370
-1
48
1
60
0
100
AcDbMText
10
111.055
20
-11.925658
30
0
210
0
220
0
230
1
1
\W01.000;\fsimplex.shx,bigfont.shx;17.0 
40
4.5
41
0
44
1.084337
50
90
71
7
72
5
7
DEFAULT
0
LINE
5
122
100
AcDbEntity
8
2
62
256
6
ByLayer
370
-1
48
1
60
0
100
AcDbLine
10
101.93
20
-16.9
30
0
11
114.18
21
-16.9
31
0
39
0
210
0
220
0
230
1
0
LINE
5
123
100
AcDbEntity
8
2
62
256
6
ByLayer
370
-1
48
1
60
0
100
AcDbLine
10
101.93
20
0
30
0
11
114.18
21
0
31
0
39
0
210
0
220
0
230
1
0
LINE
5
124
100
AcDbEntity
8
2
62
256
6
ByLayer
370
-1
48
1
60
0
100
AcDbLine
10
112.18
20
-28.15
30
0
11
112.18
21
11.25
31
0
39
0
210
0
220
0
230
1
0
LINE
5
125
100
AcDbEntity
8
2
62
256
6
ByLayer
370
-1
48
1
60
0
100
AcDbLine
10
112.18
20
-16.9
30
0
11
112.597997
21
-20.074998
31
0
39
0
210
0
220
0
230
1
0
LINE
5
126
100
AcDbEntity
8
2
62
256
6
ByLayer
370
-1
48
1
60
0
100
AcDbLine
10
112.18
20
-16.9
30
0
11
111.762003
21
-20.075002
31
0
39
0
210
0
220
0
230
1
0
LINE
5
127
100
AcDbEntity
8
2
62
256
6
ByLayer
370
-1
48
1
60
0
100
AcDbLine
10
112.597997
20
-20.074998
30
0
11
111.762003
21
-20.075002
31
0
39
0
210
0
220
0
230
1
0
LINE
5
128
100
AcDbEntity
8
2
62
256
6
ByLayer
370
-1
48
1
60
0
100
AcDbLine
10
112.18
20
0
30
0
11
111.762003
21
3.174998
31
0
39
0
210
0
220
0
230
1
0
LINE
5
129
100
AcDbEntity
8
2
62
256
6
ByLayer
370
-1
48
1
60
0
100
AcDbLine
10
112.18
20
0
30
0
11
112.597997
21
3.175002
31
0
39
0
210
0
220
0
230
1
0
LINE
5
12A
100
AcDbEntity
8
2
62
256
6
ByLayer
370
-1
48
1
60
0
100
AcDbLine
10
111.762003
20
3.174998
30
0
11
112.597997
21
3.175002
31
0
39
0
210
0
220
0
230
1
0
ENDBLK
5
12C
100
AcDbEntity
8
0
100
AcDbBlockEnd
0
BLOCK
5
12F
100
AcDbEntity
8
0
100
AcDbBlockBegin
2
_CLOSED
70
0
10
0
20
0
30
0
3
_CLOSED
0
LINE
5
131
100
AcDbEntity
8
0
62
256
6
ByLayer
370
-2
48
1
60
0
100
AcDbLine
10
-1
20
0.166667
30
0
11
0
21
0
31
0
39
0
210
0
220
0
230
1
0
LINE
5
132
100
AcDbEntity
8
0
62
256
6
ByLayer
370
-2
48
1
60
0
100
AcDbLine
10
0
20
0
30
0
11
-1
21
-0.166667
31
0
39
0
210
0
220
0
230
1
0
LINE
5
133
100
AcDbEntity
8
0
62
256
6
ByLayer
370
-2
48
1
60
0
100
AcDbLine
10
-1
20
0.166667
30
0
11
-1
21
-0.166667
31
0
39
0
210
0
220
0
230
1
0
LINE
5
134
100
AcDbEntity
8
0
62
256
6
ByLayer
370
-2
48
1
60
0
100
AcDbLine
10
0
20
0
30
0
11
-1
21
0
31
0
39
0
210
0
220
0
230
1
0
ENDBLK
5
130
100
AcDbEntity
8
0
100
AcDbBlockEnd
0
BLOCK
5
141
100
AcDbEntity
8
0
100
AcDbBlockBegin
2
DimnDraft3D2
70
0
10
0
20
0
30
0
3
DimnDraft3D2
0
MTEXT
5
136
100
AcDbEntity
8
SK2
62
256
6
ByLayer
370
-1
48
1
60
0
100
AcDbMText
10
-212.195
20
-3.659211
30
0
210
0
220
0
230
1
1
\W01.000;\fsimplex.shx,bigfont.shx;%%c25 
40
4.5
41
0
44
1.084337
50
90
71
7
72
5
7
DEFAULT
0
LINE
5
138
100
AcDbEntity
8
SK2
62
256
6
ByLayer
370
-1
48
1
60
0
100
AcDbLine
10
-203.32
20
-12.49125
30
0
11
-213.07
21
-12.49125
31
0
39
0
210
0
220
0
230
1
0
LINE
5
139
100
AcDbEntity
8
SK2
62
256
6
ByLayer
370
-1
48
1
60
0
100
AcDbLine
10
-203.32
20
12.49125
30
0
11
-213.07
21
12.49125
31
0
39
0
210
0
220
0
230
1
0
LINE
5
13A
100
AcDbEntity
8
SK2
62
256
6
ByLayer
370
-1
48
1
60
0
100
AcDbLine
10
-211.07
20
-12.49125
30
0
11
-211.07
21
12.49125
31
0
39
0
210
0
220
0
230
1
0
LINE
5
13B
100
AcDbEntity
8
SK2
62
256
6
ByLayer
370
-1
48
1
60
0
100
AcDbLine
10
-211.07
20
-12.49125
30
0
11
-211.487997
21
-9.316252
31
0
39
0
210
0
220
0
230
1
0
LINE
5
13C
100
AcDbEntity
8
SK2
62
256
6
ByLayer
370
-1
48
1
60
0
100
AcDbLine
10
-211.07
20
-12.49125
30
0
11
-210.652003
21
-9.316248
31
0
39
0
210
0
220
0
230
1
0
LINE
5
13D
100
AcDbEntity
8
SK2
62
256
6
ByLayer
370
-1
48
1
60
0
100
AcDbLine
10
-211.487997
20
-9.316252
30
0
11
-210.652003
21
-9.316248
31
0
39
0
210
0
220
0
230
1
0
LINE
5
13E
100
AcDbEntity
8
SK2
62
256
6
ByLayer
370
-1
48
1
60
0
100
AcDbLine
10
-211.07
20
12.49125
30
0
11
-210.652003
21
9.316252
31
0
39
0
210
0
220
0
230
1
0
LINE
5
13F
100
AcDbEntity
8
SK2
62
256
6
ByLayer
370
-1
48
1
60
0
100
AcDbLine
10
-211.07
20
12.49125
30
0
11
-211.487997
21
9.316248
31
0
39
0
210
0
220
0
230
1
0
LINE
5
140
100
AcDbEntity
8
SK2
62
256
6
ByLayer
370
-1
48
1
60
0
100
AcDbLine
10
-210.652003
20
9.316252
30
0
11
-211.487997
21
9.316248
31
0
39
0
210
0
220
0
230
1
0
ENDBLK
5
142
100
AcDbEntity
8
0
100
AcDbBlockEnd
0
BLOCK
5
14F
100
AcDbEntity
8
0
100
AcDbBlockBegin
2
DimnDraft3D3
70
0
10
0
20
0
30
0
3
DimnDraft3D3
0
MTEXT
5
145
100
AcDbEntity
8
2
62
256
6
ByLayer
370
-1
48
1
60
0
100
AcDbMText
10
120.966394
20
32.335899
30
0
210
0
220
0
230
1
1
\W01.000;\fsimplex.shx,bigfont.shx;95%%d0' 
40
4.5
41
0
44
1.084337
50
317.5
71
7
72
5
7
DEFAULT
0
LINE
5
146
100
AcDbEntity
8
2
62
256
6
ByLayer
370
-1
48
1
60
0
100
AcDbLine
10
98.971287
20
-5.941858
30
0
11
94.971626
21
39.774475
31
0
39
0
210
0
220
0
230
1
0
LINE
5
147
100
AcDbEntity
8
2
62
256
6
ByLayer
370
-1
48
1
60
0
100
AcDbLine
10
101.93
20
0
30
0
11
138.377848
21
0
31
0
39
0
210
0
220
0
230
1
0
ARC
5
148
100
AcDbEntity
8
2
62
256
6
ByLayer
370
-1
48
1
60
0
100
AcDbCircle
39
0
10
98.451442
20
0
30
0
40
37.926406864093
210
0
220
0
230
1
100
AcDbArc
50
0
51
95
0
LINE
5
149
100
AcDbEntity
8
2
62
256
6
ByLayer
370
-1
48
1
60
0
100
AcDbLine
10
95.145937
20
37.782085
30
0
11
98.286236
21
38.409669
31
0
39
0
210
0
220
0
230
1
0
LINE
5
14A
100
AcDbEntity
8
2
62
256
6
ByLayer
370
-1
48
1
60
0
100
AcDbLine
10
95.145937
20
37.782085
30
0
11
98.341667
21
37.575515
31
0
39
0
210
0
220
0
230
1
0
LINE
5
14B
100
AcDbEntity
8
2
62
256
6
ByLayer
370
-1
48
1
60
0
100
AcDbLine
10
98.286236
20
38.409669
30
0
11
98.341667
21
37.575515
31
0
39
0
210
0
220
0
230
1
0
LINE
5
14C
100
AcDbEntity
8
2
62
256
6
ByLayer
370
-1
48
1
60
0
100
AcDbLine
10
136.377848
20
0
30
0
11
135.893538
21
3.165562
31
0
39
0
210
0
220
0
230
1
0
LINE
5
14D
100
AcDbEntity
8
2
62
256
6
ByLayer
370
-1
48
1
60
0
100
AcDbLine
10
136.377848
20
0
30
0
11
136.729349
21
3.183049
31
0
39
0
210
0
220
0
230
1
0
LINE
5
14E
100
AcDbEntity
8
2
62
256
6
ByLayer
370
-1
48
1
60
0
100
AcDbLine
10
135.893538
20
3.165562
30
0
11
136.729349
21
3.183049
31
0
39
0
210
0
220
0
230
1
0
ENDBLK
5
150
100
AcDbEntity
8
0
100
AcDbBlockEnd
0
BLOCK
5
15D
100
AcDbEntity
8
0
100
AcDbBlockBegin
2
DimnDraft3D4
70
0
10
0
20
0
30
0
3
DimnDraft3D4
0
MTEXT
5
153
100
AcDbEntity
8
SK2
62
256
6
ByLayer
370
-1
48
1
60
0
100
AcDbMText
10
-56.385132
20
-33.025
30
0
210
0
220
0
230
1
1
\W01.000;\fsimplex.shx,bigfont.shx;300.0 
40
4.5
41
0
44
1.084337
50
0
71
7
72
5
7
DEFAULT
0
LINE
5
154
100
AcDbEntity
8
SK2
62
256
6
ByLayer
370
-1
48
1
60
0
100
AcDbLine
10
-201.32
20
-14.49125
30
0
11
-201.32
21
-36.15
31
0
39
0
210
0
220
0
230
1
0
LINE
5
155
100
AcDbEntity
8
SK2
62
256
6
ByLayer
370
-1
48
1
60
0
100
AcDbLine
10
99.93
20
-18.9
30
0
11
99.93
21
-36.15
31
0
39
0
210
0
220
0
230
1
0
LINE
5
156
100
AcDbEntity
8
SK2
62
256
6
ByLayer
370
-1
48
1
60
0
100
AcDbLine
10
-201.32
20
-34.15
30
0
11
99.93
21
-34.15
31
0
39
0
210
0
220
0
230
1
0
LINE
5
157
100
AcDbEntity
8
SK2
62
256
6
ByLayer
370
-1
48
1
60
0
100
AcDbLine
10
-201.32
20
-34.15
30
0
11
-198.145002
21
-33.732003
31
0
39
0
210
0
220
0
230
1
0
LINE
5
158
100
AcDbEntity
8
SK2
62
256
6
ByLayer
370
-1
48
1
60
0
100
AcDbLine
10
-201.32
20
-34.15
30
0
11
-198.144998
21
-34.567997
31
0
39
0
210
0
220
0
230
1
0
LINE
5
159
100
AcDbEntity
8
SK2
62
256
6
ByLayer
370
-1
48
1
60
0
100
AcDbLine
10
-198.145002
20
-33.732003
30
0
11
-198.144998
21
-34.567997
31
0
39
0
210
0
220
0
230
1
0
LINE
5
15A
100
AcDbEntity
8
SK2
62
256
6
ByLayer
370
-1
48
1
60
0
100
AcDbLine
10
99.93
20
-34.15
30
0
11
96.755002
21
-34.567997
31
0
39
0
210
0
220
0
230
1
0
LINE
5
15B
100
AcDbEntity
8
SK2
62
256
6
ByLayer
370
-1
48
1
60
0
100
AcDbLine
10
99.93
20
-34.15
30
0
11
96.754998
21
-33.732003
31
0
39
0
210
0
220
0
230
1
0
LINE
5
15C
100
AcDbEntity
8
SK2
62
256
6
ByLayer
370
-1
48
1
60
0
100
AcDbLine
10
96.755002
20
-34.567997
30
0
11
96.754998
21
-33.732003
31
0
39
0
210
0
220
0
230
1
0
ENDBLK
5
15E
100
AcDbEntity
8
0
100
AcDbBlockEnd
0
ENDSEC
0
SECTION
2
ENTITIES
0
ELLIPSE
5
9B
100
AcDbEntity
8
1
62
256
6
ByLayer
370
-1
48
1
60
0
100
AcDbEllipse
10
90.155036
20
-6.926632
30
0
11
1.49429204713762
21
0.130733614121485
31
0
210
0
220
0
230
1
40
0.998215
41
-2.56419691126068
42
-1.97097618870432
0
ELLIPSE
5
9C
100
AcDbEntity
8
1
62
256
6
ByLayer
370
-1
48
1
60
0
100
AcDbEllipse
10
90.173517
20
-7.137866
30
0
11
1.49429204713762
21
0.130733614121485
31
0
210
0
220
0
230
1
40
0.998215
41
2.85976105314951
42
-2.70463844860428
0
ELLIPSE
5
9D
100
AcDbEntity
8
1
62
256
6
ByLayer
370
-1
48
1
60
0
100
AcDbEllipse
10
82.958981
20
-11.873009
30
0
11
9.79685083057902E-17
21
1.6
31
0
210
0
220
0
230
1
40
0.005215
41
0.620174977727137
42
1.51125872356702
0
ELLIPSE
5
9E
100
AcDbEntity
8
1
62
256
6
ByLayer
370
-1
48
1
60
0
100
AcDbEllipse
10
90.173517
20
-7.137866
30
0
11
1.49429204713762
21
0.130733614121485
31
0
210
0
220
0
230
1
40
0.998215
41
0.207802264825674
42
1.81772134219531
0
ELLIPSE
5
9F
100
AcDbEntity
8
1
62
256
6
ByLayer
370
-1
48
1
60
0
100
AcDbEllipse
10
90.468873
20
-8.204152
30
0
11
-1.49429204713762
21
-0.130733614121484
31
0
210
0
220
0
230
1
40
0.998215
41
-0.236828448521969
42
0.00436332312999399
0
ELLIPSE
5
A0
100
AcDbEntity
8
1
62
256
6
ByLayer
370
-1
48
1
60
0
100
AcDbEllipse
10
87.490281
20
-3.476545
30
0
11
1.59391151694679
21
0.139449188396251
31
0
210
0
220
0
230
1
40
0.998215
41
-2.51438938331843E-06
42
0.396269078083334
0
ELLIPSE
5
A1
100
AcDbEntity
8
1
62
256
6
ByLayer
370
-1
48
1
60
0
100
AcDbEllipse
10
82.951645
20
-8.583475
30
0
11
-3.18782303389359
21
-0.2788983767925
31
0
210
0
220
0
230
1
40
0.998215
41
1.48337457210887
42
2.33874119767241
0
ELLIPSE
5
A2
100
AcDbEntity
8
1
62
256
6
ByLayer
370
-1
48
1
60
0
100
AcDbEllipse
10
87.481952
20
-3.381341
30
0
11
-3.18782303389359
21
-0.2788983767925
31
0
210
0
220
0
230
1
40
0.998215
41
2.33874119767241
42
-2.74532357550645
0
ELLIPSE
5
A3
100
AcDbEntity
8
1
62
256
6
ByLayer
370
-1
48
1
60
0
100
AcDbEllipse
10
74.893452
20
-20.362567
30
0
11
8.56727440358901
21
0.749539387629851
31
0
210
0
220
0
230
1
40
0.998215
41
1.48337457210887
42
2.01965206928273
0
ELLIPSE
5
A4
100
AcDbEntity
8
1
62
256
6
ByLayer
370
-1
48
1
60
0
100
AcDbEllipse
10
85.374686
20
-10.773973
30
0
11
-1.20659754111347
21
1.05077227493826
31
0
210
0
220
0
230
1
40
0.041492
41
-1.5277800611576
42
-0.505093289755983
0
ELLIPSE
5
A5
100
AcDbEntity
8
1
62
256
6
ByLayer
370
-1
48
1
60
0
100
AcDbEllipse
10
90.498217
20
-8.527322
30
0
11
1.64355828396664
21
0.1437927176912
31
0
210
0
220
0
230
1
40
0.998215
41
-3.13722933045981
42
-2.06788971319473
0
ELLIPSE
5
A6
100
AcDbEntity
8
1
62
256
6
ByLayer
370
-1
48
1
60
0
100
AcDbEllipse
10
109.021674
20
0
30
0
11
37.5065278548832
21
3.05025372924448
31
0
210
0
220
0
230
-1
40
0.325709
41
2.38806277807517
42
-2.40872351067273
0
ELLIPSE
5
A7
100
AcDbEntity
8
1
62
256
6
ByLayer
370
-1
48
1
60
0
100
AcDbEllipse
10
90.475901
20
-8.284481
30
0
11
1.64355828396664
21
0.1437927176912
31
0
210
0
220
0
230
1
40
0.998215
41
2.81075575176745
42
-3.1372293304598
0
ELLIPSE
5
A8
100
AcDbEntity
8
1
62
256
6
ByLayer
370
-1
48
1
60
0
100
AcDbEllipse
10
87.513829
20
-3.745706
30
0
11
1.34727734616408
21
0.877992612011633
31
0
210
0
220
0
230
-1
40
0.977041
41
0.0844332045431617
42
1.28355373854145
0
ELLIPSE
5
A9
100
AcDbEntity
8
1
62
256
6
ByLayer
370
-1
48
1
60
0
100
AcDbEllipse
10
69.971277
20
-13.425545
30
0
11
0.916504832583652
21
-1.31149490729122
31
0
210
0
220
0
230
1
40
0.029857
41
2.44065221729059
42
-3.14125436011155
0
ELLIPSE
5
AA
100
AcDbEntity
8
1
62
256
6
ByLayer
370
-1
48
1
60
0
100
AcDbEllipse
10
90.151652
20
-6.887955
30
0
11
-1.49429204713762
21
-0.130733614121484
31
0
210
0
220
0
230
1
40
0.998215
41
0.0837947753612057
42
1.17058921665737
0
ELLIPSE
5
AB
100
AcDbEntity
8
1
62
256
6
ByLayer
370
-1
48
1
60
0
100
AcDbEllipse
10
86.189475
20
0
30
0
11
17.7404953823179
21
12.4050764306399
31
0
210
0
220
0
230
-1
40
0.029685
41
2.89868206789967
42
2.96846826067146
0
ELLIPSE
5
AC
100
AcDbEntity
8
1
62
256
6
ByLayer
370
-1
48
1
60
0
100
AcDbEllipse
10
90.479737
20
-8.316088
30
0
11
-1.49429204713762
21
-0.130733614121484
31
0
210
0
220
0
230
1
40
0.998215
41
0.00436332312999518
42
1.01866064303718
0
ELLIPSE
5
AD
100
AcDbEntity
8
1
62
256
6
ByLayer
370
-1
48
1
60
0
100
AcDbEllipse
10
82.987069
20
-8.988374
30
0
11
1.34727734610534
21
0.877992612100011
31
0
210
0
220
0
230
-1
40
0.977041
41
1.28355373861007
42
2.13892036417131
0
ELLIPSE
5
AE
100
AcDbEntity
8
1
62
256
6
ByLayer
370
-1
48
1
60
0
100
AcDbEllipse
10
90.491189
20
-8.446994
30
0
11
-1.49429204713762
21
-0.130733614121484
31
0
210
0
220
0
230
1
40
0.998215
41
0.00436332313001416
42
1.01866064303719
0
ELLIPSE
5
AF
100
AcDbEntity
8
1
62
256
6
ByLayer
370
-1
48
1
60
0
100
AcDbEllipse
10
90.323615
20
-1.991023
30
0
11
-1.4160968888292
21
-0.74476143928661
31
0
210
0
220
0
230
1
40
0.055101
41
-1.5938878904178
42
-0.0230915636227481
0
ELLIPSE
5
B0
100
AcDbEntity
8
1
62
256
6
ByLayer
370
-1
48
1
60
0
100
AcDbEllipse
10
89.904993
20
-5.57184
30
0
11
-1.20659754111347
21
1.05077227493826
31
0
210
0
220
0
230
1
40
0.041492
41
-1.52778006115762
42
-0.449427898111707
0
ELLIPSE
5
B1
100
AcDbEntity
8
1
62
256
6
ByLayer
370
-1
48
1
60
0
100
AcDbEllipse
10
74.90445
20
-11.873009
30
0
11
9.79685083057902E-17
21
1.6
31
0
210
0
220
0
230
1
40
0.005215
41
0.609057028592838
42
1.51125872356702
0
ELLIPSE
5
B2
100
AcDbEntity
8
1
62
256
6
ByLayer
370
-1
48
1
60
0
100
AcDbEllipse
10
98.434813
20
-8.092944
30
0
11
0.790978590284842
21
0.0692016597416393
31
0
210
0
220
0
230
1
40
0.998215
41
0
42
1.39626339904113
0
ELLIPSE
5
B3
100
AcDbEntity
8
1
62
256
6
ByLayer
370
-1
48
1
60
0
100
AcDbEllipse
10
99.135986
20
-16.107382
30
0
11
0.790978590284792
21
0.0692016597416349
31
0
210
0
220
0
230
1
40
0.998215
41
-1.74532925454868
42
-2.5543250746217E-09
0
ELLIPSE
5
B4
100
AcDbEntity
8
1
62
256
6
ByLayer
370
-1
48
1
60
0
100
AcDbEllipse
10
94.766263
20
-11.694652
30
0
11
2.99461313765094
21
0.261994701190251
31
0
210
0
220
0
230
1
40
0.998215
41
0
42
6.28318530717959
0
ELLIPSE
5
B5
100
AcDbEntity
8
1
62
256
6
ByLayer
370
-1
48
1
60
0
100
AcDbEllipse
10
94.771122
20
-11.750194
30
0
11
3.05963802797408
21
0.267683641940542
31
0
210
0
220
0
230
1
40
0.998215
41
0
42
6.28318530717959
0
ELLIPSE
5
B6
100
AcDbEntity
8
1
62
256
6
ByLayer
370
-1
48
1
60
0
100
AcDbEllipse
10
94.765461
20
-11.685488
30
0
11
-2.93926815525662
21
-0.257152642647704
31
0
210
0
220
0
230
1
40
0.998215
41
0
42
6.28318530717959
0
ELLIPSE
5
B7
100
AcDbEntity
8
1
62
256
6
ByLayer
370
-1
48
1
60
0
100
AcDbEllipse
10
91.107431
20
-15.407445
30
0
11
0.790978590284779
21
0.0692016597416339
31
0
210
0
220
0
230
1
40
0.998215
41
3.14159265103537
42
-1.74532925454868
0
ELLIPSE
5
B8
100
AcDbEntity
8
1
62
256
6
ByLayer
370
-1
48
1
60
0
100
AcDbEllipse
10
90.406259
20
-7.393007
30
0
11
0.790978590284827
21
0.069201659741638
31
0
210
0
220
0
230
1
40
0.998215
41
1.39626339904098
42
3.14159265103535
0
ELLIPSE
5
B9
100
AcDbEntity
8
1
62
256
6
ByLayer
370
-1
48
1
60
0
100
AcDbEllipse
10
93.430081
20
-12.986126
30
0
11
-0.683389562890938
21
-0.0597888395248922
31
0
210
0
220
0
230
1
40
0.998215
41
-2.32184691157488
42
-1.65219961787067
0
ELLIPSE
5
BA
100
AcDbEntity
8
1
62
256
6
ByLayer
370
-1
48
1
60
0
100
AcDbEllipse
10
93.78403
20
-10.678593
30
0
11
-0.29088885184279
21
-0.0254494768823156
31
0
210
0
220
0
230
1
40
0.998215
41
0.143103935378258
42
0.433529519381587
0
ELLIPSE
5
BB
100
AcDbEntity
8
1
62
256
6
ByLayer
370
-1
48
1
60
0
100
AcDbEllipse
10
94.762855
20
-11.655696
30
0
11
-1.2019089032477
21
-0.105153403625048
31
0
210
0
220
0
230
1
40
0.998215
41
2.79113152935022
42
-2.61315880896241
0
ELLIPSE
5
BC
100
AcDbEntity
8
1
62
256
6
ByLayer
370
-1
48
1
60
0
100
AcDbEllipse
10
94.762855
20
-11.655696
30
0
11
1.20190890324772
21
0.105153403625051
31
0
210
0
220
0
230
1
40
0.998215
41
-2.51249358620398
42
-2.37442831937995
0
ELLIPSE
5
BD
100
AcDbEntity
8
1
62
256
6
ByLayer
370
-1
48
1
60
0
100
AcDbEllipse
10
94.770273
20
-11.740487
30
0
11
1.67012041135081
21
0.146116602716447
31
0
210
0
220
0
230
1
40
0.998215
41
-2.9698502760717
42
-1.91707162951243
0
ELLIPSE
5
BE
100
AcDbEntity
8
1
62
256
6
ByLayer
370
-1
48
1
60
0
100
AcDbEllipse
10
94.76886
20
-11.724341
30
0
11
1.20190890324769
21
0.105153403625048
31
0
210
0
220
0
230
1
40
0.998215
41
0.629099067385793
42
0.767164334209426
0
ELLIPSE
5
BF
100
AcDbEntity
8
1
62
256
6
ByLayer
370
-1
48
1
60
0
100
AcDbEllipse
10
94.770273
20
-11.740487
30
0
11
1.79315045656517
21
0.156880336945785
31
0
210
0
220
0
230
1
40
0.998215
41
0
42
6.28318530717959
0
ELLIPSE
5
C0
100
AcDbEntity
8
1
62
256
6
ByLayer
370
-1
48
1
60
0
100
AcDbEllipse
10
94.770273
20
-11.740487
30
0
11
1.67012041135081
21
0.146116602716447
31
0
210
0
220
0
230
1
40
0.998215
41
0.171742377518029
42
1.2245210240774
0
ELLIPSE
5
C1
100
AcDbEntity
8
1
62
256
6
ByLayer
370
-1
48
1
60
0
100
AcDbEllipse
10
94.40805
20
-12.991699
30
0
11
-0.29088885184279
21
-0.0254494768823156
31
0
210
0
220
0
230
1
40
0.998215
41
0.223617929212912
42
2.53071516945627
0
ELLIPSE
5
C2
100
AcDbEntity
8
1
62
256
6
ByLayer
370
-1
48
1
60
0
100
AcDbEllipse
10
94.768839
20
-11.724098
30
0
11
2.61501108249079
21
0.228783824712596
31
0
210
0
220
0
230
1
40
0.998215
41
0
42
6.28318530717959
0
ELLIPSE
5
C3
100
AcDbEntity
8
1
62
256
6
ByLayer
370
-1
48
1
60
0
100
AcDbEllipse
10
94.762985
20
-11.657184
30
0
11
2.61501108249077
21
0.228783824712594
31
0
210
0
220
0
230
1
40
0.998215
41
3.05417086824605
42
-3.14154056399912
0
ELLIPSE
5
C4
100
AcDbEntity
8
1
62
256
6
ByLayer
370
-1
48
1
60
0
100
AcDbEllipse
10
94.762985
20
-11.657184
30
0
11
2.61501108249077
21
0.228783824712594
31
0
210
0
220
0
230
1
40
0.998215
41
0
42
3.05417087507978
0
ELLIPSE
5
C5
100
AcDbEntity
8
1
62
256
6
ByLayer
370
-1
48
1
60
0
100
AcDbEllipse
10
93.424499
20
-12.009877
30
0
11
-0.29088885184279
21
-0.0254494768823156
31
0
210
0
220
0
230
1
40
0.998215
41
3.25625176021625E-05
42
1.48939303571929
0
ELLIPSE
5
C6
100
AcDbEntity
8
1
62
256
6
ByLayer
370
-1
48
1
60
0
100
AcDbEllipse
10
96.101211
20
-11.301515
30
0
11
-0.29088885184279
21
-0.0254494768823156
31
0
210
0
220
0
230
1
40
0.998215
41
2.00714088572958
42
3.00686577417668
0
ELLIPSE
5
C7
100
AcDbEntity
8
1
62
256
6
ByLayer
370
-1
48
1
60
0
100
AcDbEllipse
10
95.741679
20
-12.632799
30
0
11
-0.29088885184279
21
-0.0254494768823156
31
0
210
0
220
0
230
1
40
0.998215
41
0.962733882214422
42
3.00460254787186
0
ELLIPSE
5
C8
100
AcDbEntity
8
1
62
256
6
ByLayer
370
-1
48
1
60
0
100
AcDbEllipse
10
94.76886
20
-11.724341
30
0
11
1.20190890324769
21
0.105153403625048
31
0
210
0
220
0
230
1
40
0.998215
41
-2.51249358620409
42
-2.37442831937979
0
ELLIPSE
5
C9
100
AcDbEntity
8
1
62
256
6
ByLayer
370
-1
48
1
60
0
100
AcDbEllipse
10
93.430081
20
-12.986126
30
0
11
-0.683389562890938
21
-0.0597888395248922
31
0
210
0
220
0
230
1
40
0.998215
41
-3.14158937507207
42
-2.56507499400906
0
ELLIPSE
5
CA
100
AcDbEntity
8
1
62
256
6
ByLayer
370
-1
48
1
60
0
100
AcDbEllipse
10
96.590083
20
-12.146905
30
0
11
-0.683389562890938
21
-0.0597888395248922
31
0
210
0
220
0
230
1
40
0.998215
41
-0.35046112423952
42
6.93692669782495E-06
0
ELLIPSE
5
CB
100
AcDbEntity
8
1
62
256
6
ByLayer
370
-1
48
1
60
0
100
AcDbEllipse
10
94.770273
20
-11.740487
30
0
11
1.67012041135081
21
0.146116602716447
31
0
210
0
220
0
230
1
40
0.998215
41
2.26892802759273
42
-2.9698502760717
0
ELLIPSE
5
CC
100
AcDbEntity
8
1
62
256
6
ByLayer
370
-1
48
1
60
0
100
AcDbEllipse
10
94.762855
20
-11.655696
30
0
11
-1.2019089032477
21
-0.105153403625048
31
0
210
0
220
0
230
1
40
0.998215
41
-1.19166602573379
42
-0.350461124239512
0
ELLIPSE
5
CD
100
AcDbEntity
8
1
62
256
6
ByLayer
370
-1
48
1
60
0
100
AcDbEllipse
10
94.762855
20
-11.655696
30
0
11
1.20190890324772
21
0.105153403625051
31
0
210
0
220
0
230
1
40
0.998215
41
-1.39486812775472
42
-0.350461124239589
0
ELLIPSE
5
CE
100
AcDbEntity
8
1
62
256
6
ByLayer
370
-1
48
1
60
0
100
AcDbEllipse
10
95.25493
20
-13.479711
30
0
11
-0.683389562890938
21
-0.0597888395248922
31
0
210
0
220
0
230
1
40
0.998215
41
-2.17885877137562
42
-1.39486812775485
0
ELLIPSE
5
CF
100
AcDbEntity
8
1
62
256
6
ByLayer
370
-1
48
1
60
0
100
AcDbEllipse
10
96.590083
20
-12.146905
30
0
11
-0.683389562890938
21
-0.0597888395248922
31
0
210
0
220
0
230
1
40
0.998215
41
-1.13445176786039
42
-0.35046112423952
0
ELLIPSE
5
D0
100
AcDbEntity
8
1
62
256
6
ByLayer
370
-1
48
1
60
0
100
AcDbEllipse
10
94.770273
20
-11.740487
30
0
11
1.67012041135081
21
0.146116602716447
31
0
210
0
220
0
230
1
40
0.998215
41
-1.91707162951243
42
-0.872664625997186
0
ELLIPSE
5
D1
100
AcDbEntity
8
1
62
256
6
ByLayer
370
-1
48
1
60
0
100
AcDbEllipse
10
94.770273
20
-11.740487
30
0
11
1.67012041135081
21
0.146116602716447
31
0
210
0
220
0
230
1
40
0.998215
41
1.2245210240774
42
2.26892802759273
0
ELLIPSE
5
D2
100
AcDbEntity
8
1
62
256
6
ByLayer
370
-1
48
1
60
0
100
AcDbEllipse
10
95.25493
20
-13.479711
30
0
11
-0.683389562890938
21
-0.0597888395248922
31
0
210
0
220
0
230
1
40
0.998215
41
-1.39486812775485
42
-0.610877484134168
0
ELLIPSE
5
D3
100
AcDbEntity
8
1
62
256
6
ByLayer
370
-1
48
1
60
0
100
AcDbEllipse
10
94.762855
20
-11.655696
30
0
11
-1.2019089032477
21
-0.105153403625048
31
0
210
0
220
0
230
1
40
0.998215
41
0.767164334209829
42
1.74672452583507
0
ELLIPSE
5
D4
100
AcDbEntity
8
1
62
256
6
ByLayer
370
-1
48
1
60
0
100
AcDbEllipse
10
94.770273
20
-11.740487
30
0
11
1.67012041135081
21
0.146116602716447
31
0
210
0
220
0
230
1
40
0.998215
41
-0.872664625997186
42
0.171742377518029
0
ELLIPSE
5
D5
100
AcDbEntity
8
1
62
256
6
ByLayer
370
-1
48
1
60
0
100
AcDbEllipse
10
94.762855
20
-11.655696
30
0
11
-1.2019089032477
21
-0.105153403625048
31
0
210
0
220
0
230
1
40
0.998215
41
-0.227128704804264
42
0.629099067385847
0
ELLIPSE
5
D6
100
AcDbEntity
8
1
62
256
6
ByLayer
370
-1
48
1
60
0
100
AcDbEllipse
10
94.762855
20
-11.655696
30
0
11
-1.2019089032477
21
-0.105153403625048
31
0
210
0
220
0
230
1
40
0.998215
41
-2.30561440355163
42
-1.54705202550274
0
ELLIPSE
5
D7
100
AcDbEntity
8
1
62
256
6
ByLayer
370
-1
48
1
60
0
100
AcDbEllipse
10
92.935626
20
-11.164487
30
0
11
-0.683389562890938
21
-0.0597888395248922
31
0
210
0
220
0
230
1
40
0.998215
41
-3.14158487140741
42
-2.70806313420851
0
POINT
5
41
100
AcDbEntity
8
80
62
256
6
ByLayer
370
-1
48
1
60
0
100
AcDbPoint
10
0
20
0
30
0
39
0
210
0
220
0
230
1
50
360
0
POINT
5
43
100
AcDbEntity
8
81
62
256
6
ByLayer
370
-1
48
1
60
0
100
AcDbPoint
10
99.93
20
-16.9
30
0
39
0
210
0
220
0
230
1
50
360
0
POINT
5
45
100
AcDbEntity
8
1
62
256
6
ByLayer
370
-1
48
1
60
0
100
AcDbPoint
10
-201.32
20
0
30
0
39
0
210
0
220
0
230
1
50
360
0
POINT
5
47
100
AcDbEntity
8
2
62
256
6
ByLayer
370
-1
48
1
60
0
100
AcDbPoint
10
99.93
20
16.9
30
0
39
0
210
0
220
0
230
1
50
360
0
SPLINE
5
D8
100
AcDbEntity
8
1
62
256
6
ByLayer
370
-1
48
1
60
0
100
AcDbSpline
70
4
71
3
72
8
73
4
40
0
40
0
40
0
40
0
40
1
40
1
40
1
40
1
41
1
10
88.8748463467451
20
-7.88754421661758
30
0
41
1
10
88.9084675972555
20
-7.9228852778032
30
0
41
1
10
88.9456423659939
20
-7.95407410847631
30
0
41
1
10
88.9856735671146
20
-7.9812708805608
30
0
0
SPLINE
5
D9
100
AcDbEntity
8
1
62
256
6
ByLayer
370
-1
48
1
60
0
100
AcDbSpline
70
4
71
3
72
8
73
4
40
0
40
0
40
0
40
0
40
1
40
1
40
1
40
1
41
1
10
70.0595919684949
20
-11.6605221206808
30
0
41
1
10
69.6343096217109
20
-11.8575598979771
30
0
41
1
10
69.3073748300255
20
-12.0344250099331
30
0
41
1
10
69.0583778123739
20
-12.1675570629897
30
0
0
SPLINE
5
DA
100
AcDbEntity
8
1
62
256
6
ByLayer
370
-1
48
1
60
0
100
AcDbSpline
70
4
71
3
72
8
73
4
40
0
40
0
40
0
40
0
40
1
40
1
40
1
40
1
41
1
10
70.0595919684947
20
11.4569394087077
30
0
41
1
10
70.1028479415085
20
11.4338952139735
30
0
41
1
10
70.1483965566866
20
11.409629636646
30
0
41
1
10
70.1961115158914
20
11.3842099608177
30
0
0
SPLINE
5
DB
100
AcDbEntity
8
1
62
256
6
ByLayer
370
-1
48
1
60
0
100
AcDbSpline
70
4
71
3
72
8
73
4
40
0
40
0
40
0
40
0
40
1
40
1
40
1
40
1
41
1
10
70.5017254448185
20
-12.9829626573758
30
0
41
1
10
70.6677006463703
20
-13.1956863754407
30
0
41
1
10
70.8336852960032
20
-13.40840274675
30
0
41
1
10
70.9996781228371
20
-13.6211127578962
30
0
0
SPLINE
5
DC
100
AcDbEntity
8
1
62
256
6
ByLayer
370
-1
48
1
60
0
100
AcDbSpline
70
4
71
3
72
12
73
8
40
0
40
0
40
0
40
0
40
0.322977399088802
40
0.322977399088802
40
0.646009438648339
40
0.646009438648339
40
1
40
1
40
1
40
1
41
1
10
88.7018837168042
20
-6.84859766791786
30
0
41
1
10
88.7343171548978
20
-6.684422920168
30
0
41
1
10
88.7955547293238
20
-6.52397951812009
30
0
41
1
10
88.9654648677508
20
-6.23589649159263
30
0
41
1
10
89.0765316743904
20
-6.1042354843633
30
0
41
1
10
89.3442269067858
20
-5.87755574085023
30
0
41
1
10
89.5086577918289
20
-5.78345159727857
30
0
41
1
10
89.6817346635227
20
-5.72343880032432
30
0
0
SPLINE
5
DD
100
AcDbEntity
8
1
62
256
6
ByLayer
370
-1
48
1
60
0
100
AcDbSpline
70
4
71
3
72
10
73
6
40
0
40
0
40
0
40
0
40
0.399282534182923
40
0.399282534182923
40
1
40
1
40
1
40
1
41
1
10
69.2961052194946
20
-12.4056055736304
30
0
41
1
10
69.387862564174
20
-12.4082005961284
30
0
41
1
10
69.4855495479732
20
-12.4099924966143
30
0
41
1
10
69.7380499485718
20
-12.4133480791801
30
0
41
1
10
69.8976734875114
20
-12.4143576637874
30
0
41
1
10
70.0595919684944
20
-12.4149984765527
30
0
0
SPLINE
5
DE
100
AcDbEntity
8
1
62
256
6
ByLayer
370
-1
48
1
60
0
100
AcDbSpline
70
4
71
2
72
6
73
3
40
0
40
0
40
0
40
1
40
1
40
1
41
0.501611279394307
10
74.9316364257462
20
-10.5809077639912
30
0
41
0.498388720605693
10
78.6409743008609
20
-10.5819633014455
30
0
41
0.501611279394307
10
82.3487464161878
20
-10.5830183327155
30
0
0
SPLINE
5
DF
100
AcDbEntity
8
1
62
256
6
ByLayer
370
-1
48
1
60
0
100
AcDbSpline
70
4
71
3
72
8
73
4
40
0
40
0
40
0
40
0
40
1
40
1
40
1
40
1
41
1
10
74.9316364257253
20
-10.5809077639912
30
0
41
1
10
73.1122676041501
20
-10.5803900403438
30
0
41
1
10
71.3694360364126
20
-11.089565703425
30
0
41
1
10
70.196111515918
20
-11.623647200363
30
0
0
SPLINE
5
E0
100
AcDbEntity
8
1
62
256
6
ByLayer
370
-1
48
1
60
0
100
AcDbSpline
70
4
71
3
72
28
73
24
40
0
40
0
40
0
40
0
40
0.265345136312038
40
0.265345136312038
40
0.3980747578006
40
0.3980747578006
40
0.452545031005671
40
0.452545031005671
40
0.479913660376259
40
0.479913660376259
40
0.492804609371677
40
0.492804609371677
40
0.505829159021949
40
0.505829159021949
40
0.51766131092301
40
0.51766131092301
40
0.536867332918771
40
0.536867332918771
40
0.573939415797704
40
0.573939415797704
40
0.696836256011535
40
0.696836256011535
40
1
40
1
40
1
40
1
41
1
10
62.618100345954
20
0.234670284410527
30
0
41
1
10
62.7832668762165
20
0.234670284410356
30
0
41
1
10
62.9495096327005
20
0.223879374692956
30
0
41
1
10
63.193209939291
20
0.178706038979414
30
0
41
1
10
63.2747621763756
20
0.159213163723734
30
0
41
1
10
63.3818005531934
20
0.112740403320203
30
0
41
1
10
63.4126340094584
20
0.0967242741414225
30
0
41
1
10
63.4519689166955
20
0.0640893002885434
30
0
41
1
10
63.4642454901264
20
0.0513189597320434
30
0
41
1
10
63.4765606147964
20
0.0292718919463084
30
0
41
1
10
63.479650807428
20
0.021523487348361
30
0
41
1
10
63.4829419560629
20
0.0055077367848924
30
0
41
1
10
63.4831109422705
20
-0.0029700778713107
30
0
41
1
10
63.480515404138
20
-0.0184459757059301
30
0
41
1
10
63.4780201225785
20
-0.0256811419048404
30
0
41
1
10
63.4693160026892
20
-0.0432341323424623
30
0
41
1
10
63.461710021971
20
-0.0530297777705755
30
0
41
1
10
63.4370456553095
20
-0.0784004019435827
30
0
41
1
10
63.4173824548039
20
-0.0917652966231799
30
0
41
1
10
63.3306229664199
20
-0.141083463346263
30
0
41
1
10
63.2552266307663
20
-0.162461624198215
30
0
41
1
10
62.997011548191
20
-0.221725025039632
30
0
41
1
10
62.806514175323
20
-0.234670284410754
30
0
41
1
10
62.6181003459506
20
-0.234670284410754
30
0
0
SPLINE
5
E1
100
AcDbEntity
8
1
62
256
6
ByLayer
370
-1
48
1
60
0
100
AcDbSpline
70
4
71
3
72
12
73
8
40
0
40
0
40
0
40
0
40
0.137368509471776
40
0.137368509471776
40
0.863295397120938
40
0.863295397120938
40
1
40
1
40
1
40
1
41
1
10
70.5017254448184
20
-12.9829626573759
30
0
41
1
10
70.4803795677566
20
-12.9556045081374
30
0
41
1
10
70.4590557720975
20
-12.9282773901732
30
0
41
1
10
70.3266664298552
20
-12.7586197782553
30
0
41
1
10
70.2160954466606
20
-12.6170365412042
30
0
41
1
10
70.0968335032554
20
-12.4631801786868
30
0
41
1
10
70.0780229586699
20
-12.4388715391782
30
0
41
1
10
70.0595919684944
20
-12.4149984765527
30
0
0
SPLINE
5
E2
100
AcDbEntity
8
1
62
256
6
ByLayer
370
-1
48
1
60
0
100
AcDbSpline
70
4
71
3
72
8
73
4
40
0
40
0
40
0
40
0
40
1
40
1
40
1
40
1
41
1
10
68.7776094687563
20
-12.3103546768936
30
0
41
1
10
68.7701212899338
20
-12.3138989876681
30
0
41
1
10
68.7638686086628
20
-12.3174121513489
30
0
41
1
10
68.7589281129561
20
-12.3208681754347
30
0
0
SPLINE
5
E3
100
AcDbEntity
8
1
62
256
6
ByLayer
370
-1
48
1
60
0
100
AcDbSpline
70
4
71
3
72
14
73
10
40
0
40
0
40
0
40
0
40
0.0005775859019689
40
0.0005775859019689
40
0.312576085996837
40
0.312576085996837
40
0.68028424490484
40
0.68028424490484
40
1
40
1
40
1
40
1
41
1
10
68.7487822909069
20
-12.346724988937
30
0
41
1
10
68.7487998007986
20
-12.3467451675075
30
0
41
1
10
68.7488173807307
20
-12.3467653402466
30
0
41
1
10
68.7583680549918
20
-12.3576779480033
30
0
41
1
10
68.7886043034778
20
-12.3671673543831
30
0
41
1
10
68.887714422776
20
-12.383729688056
30
0
41
1
10
68.9632786426524
20
-12.3904381929948
30
0
41
1
10
69.1239718208016
20
-12.3998745989065
30
0
41
1
10
69.2078614067879
20
-12.403109918595
30
0
41
1
10
69.2961052194964
20
-12.4056055736304
30
0
0
SPLINE
5
E4
100
AcDbEntity
8
1
62
256
6
ByLayer
370
-1
48
1
60
0
100
AcDbSpline
70
4
71
3
72
8
73
4
40
0
40
0
40
0
40
0
40
1
40
1
40
1
40
1
41
1
10
70.0595919685162
20
-11.6605221206914
30
0
41
1
10
70.1028233320812
20
-11.6490957361631
30
0
41
1
10
70.1483510333117
20
-11.636752140728
30
0
41
1
10
70.1961115159054
20
-11.6236472003712
30
0
0
SPLINE
5
E5
100
AcDbEntity
8
1
62
256
6
ByLayer
370
-1
48
1
60
0
100
AcDbSpline
70
4
71
3
72
16
73
12
40
0
40
0
40
0
40
0
40
0.0490367523827001
40
0.0490367523827001
40
0.272115022743625
40
0.272115022743625
40
0.497192913127685
40
0.497192913127685
40
0.73607834500764
40
0.73607834500764
40
1
40
1
40
1
40
1
41
1
10
93.5850082856524
20
-10.5573066981876
30
0
41
1
10
93.5896554381859
20
-10.5526677155376
30
0
41
1
10
93.5944623574866
20
-10.5481760008287
30
0
41
1
10
93.6217281569307
20
-10.5243302643265
30
0
41
1
10
93.647333469781
20
-10.5079728115808
30
0
41
1
10
93.7010327380803
20
-10.4837958266381
30
0
41
1
10
93.7298223550474
20
-10.475725238473
30
0
41
1
10
93.7883619322326
20
-10.4679594170683
30
0
41
1
10
93.8187923101119
20
-10.4686801251893
30
0
41
1
10
93.8790626838829
20
-10.4789634013306
30
0
41
1
10
93.9092834558489
20
-10.4895376855867
30
0
41
1
10
93.9362094718782
20
-10.5040402383922
30
0
0
SPLINE
5
E6
100
AcDbEntity
8
1
62
256
6
ByLayer
370
-1
48
1
60
0
100
AcDbSpline
70
4
71
3
72
14
73
10
40
0
40
0
40
0
40
0
40
0.247955268336181
40
0.247955268336181
40
0.538794963950421
40
0.538794963950421
40
0.801671624296045
40
0.801671624296045
40
1
40
1
40
1
40
1
41
1
10
94.8716586170014
20
-10.2522966434355
30
0
41
1
10
94.8863858808411
20
-10.2278787886655
30
0
41
1
10
94.9053707429104
20
-10.2050145023912
30
0
41
1
10
94.9540623256491
20
-10.1624239650559
30
0
41
1
10
94.98591552339
20
-10.1432939271384
30
0
41
1
10
95.0520088026307
20
-10.1192807916462
30
0
41
1
10
95.0867540461133
20
-10.1128987178693
30
0
41
1
10
95.147616017211
20
-10.112586427942
30
0
41
1
10
95.174374478724
20
-10.1159628972141
30
0
41
1
10
95.1999078567897
20
-10.1227126578255
30
0
0
SPLINE
5
E7
100
AcDbEntity
8
1
62
256
6
ByLayer
370
-1
48
1
60
0
100
AcDbSpline
70
4
71
3
72
18
73
14
40
0
40
0
40
0
40
0
40
0.207103538016674
40
0.207103538016674
40
0.382182817161294
40
0.382182817161294
40
0.559006769208226
40
0.559006769208226
40
0.712167326212217
40
0.712167326212217
40
0.91407855282959
40
0.91407855282959
40
1
40
1
40
1
40
1
41
1
10
96.001836841874
20
-12.5660350252435
30
0
41
1
10
95.9672420193367
20
-12.5040110928028
30
0
41
1
10
95.9407498934872
20
-12.4348914975237
30
0
41
1
10
95.9124881508928
20
-12.3004583210077
30
0
41
1
10
95.9073696955528
20
-12.234652013497
30
0
41
1
10
95.9162337839002
20
-12.1035005298566
30
0
41
1
10
95.9307389829638
20
-12.0362358838158
30
0
41
1
10
95.9743380814541
20
-11.9213073183564
30
0
41
1
10
96.0016603454918
20
-11.8708140155215
30
0
41
1
10
96.0752867258111
20
-11.7678392619933
30
0
41
1
10
96.1259336065879
20
-11.7179015443088
30
0
41
1
10
96.2043018694256
20
-11.6611626142295
30
0
41
1
10
96.2288243783791
20
-11.645816725511
30
0
41
1
10
96.2540236051979
20
-11.6322306240698
30
0
0
SPLINE
5
E8
100
AcDbEntity
8
1
62
256
6
ByLayer
370
-1
48
1
60
0
100
AcDbSpline
70
4
71
3
72
16
73
12
40
0
40
0
40
0
40
0
40
0.0327515511004914
40
0.0327515511004914
40
0.347180443807629
40
0.347180443807629
40
0.633661804001968
40
0.633661804001968
40
0.885945352435751
40
0.885945352435751
40
1
40
1
40
1
40
1
41
1
10
96.0018368418741
20
-12.5660350252434
30
0
41
1
10
96.0037911731931
20
-12.5695388823183
30
0
41
1
10
96.005681394834
20
-12.5730878995533
30
0
41
1
10
96.0247712322227
20
-12.6106840742288
30
0
41
1
10
96.0362007553368
20
-12.6492745649246
30
0
41
1
10
96.0428831244106
20
-12.7248906036829
30
0
41
1
10
96.0395075559727
20
-12.7629523213147
30
0
41
1
10
96.0198934991154
20
-12.8306290889871
30
0
41
1
10
96.0048951881502
20
-12.8616994114741
30
0
41
1
10
95.9762990755802
20
-12.9012027702124
30
0
41
1
10
95.9663262287939
20
-12.9128976385739
30
0
41
1
10
95.9555376337519
20
-12.9236672668262
30
0
0
SPLINE
5
E9
100
AcDbEntity
8
1
62
256
6
ByLayer
370
-1
48
1
60
0
100
AcDbSpline
70
4
71
3
72
14
73
10
40
0
40
0
40
0
40
0
40
0.265562085191073
40
0.265562085191073
40
0.552373124837118
40
0.552373124837118
40
0.811699399628919
40
0.811699399628919
40
1
40
1
40
1
40
1
41
1
10
96.1063858862705
20
-11.0882428600982
30
0
41
1
10
96.1380911952159
20
-11.089033517374
30
0
41
1
10
96.1707214402373
20
-11.0950144652953
30
0
41
1
10
96.2354204979608
20
-11.1185204455861
30
0
41
1
10
96.2682395188093
20
-11.1373779811669
30
0
41
1
10
96.3222195795539
20
-11.1838280257059
30
0
41
1
10
96.3449751186834
20
-11.2111632772156
30
0
41
1
10
96.3746020864163
20
-11.263271802806
30
0
41
1
10
96.3844157011874
20
-11.2871764337356
30
0
41
1
10
96.3908967316369
20
-11.3116070764436
30
0
0
SPLINE
5
EA
100
AcDbEntity
8
1
62
256
6
ByLayer
370
-1
48
1
60
0
100
AcDbSpline
70
4
71
3
72
16
73
12
40
0
40
0
40
0
40
0
40
0.0560581168323405
40
0.0560581168323405
40
0.279003513461826
40
0.279003513461826
40
0.504351589751859
40
0.504351589751859
40
0.743834571001491
40
0.743834571001491
40
1
40
1
40
1
40
1
41
1
10
93.1496491877676
20
-12.1693668885701
30
0
41
1
10
93.1477277944985
20
-12.1621240785224
30
0
41
1
10
93.1460843375295
20
-12.1547922557925
30
0
41
1
10
93.1393695579056
20
-12.1182739886426
30
0
41
1
10
93.1385172736818
20
-12.0878694753722
30
0
41
1
10
93.1456096647327
20
-12.0291045878133
30
0
41
1
10
93.1537164333691
20
-12.0000187358132
30
0
41
1
10
93.1778238060353
20
-11.9451450147889
30
0
41
1
10
93.1945606396291
20
-11.918978550896
30
0
41
1
10
93.234864784172
20
-11.8723405252256
30
0
41
1
10
93.2592822963207
20
-11.8518072999071
30
0
41
1
10
93.2853880371593
20
-11.8357784949661
30
0
0
SPLINE
5
EB
100
AcDbEntity
8
1
62
256
6
ByLayer
370
-1
48
1
60
0
100
AcDbSpline
70
4
71
3
72
12
73
8
40
0
40
0
40
0
40
0
40
0.321294093508295
40
0.321294093508295
40
0.790111701772278
40
0.790111701772278
40
1
40
1
40
1
40
1
41
1
10
95.5612363567356
20
-10.815891177849
30
0
41
1
10
95.5292456575093
20
-10.7753614925397
30
0
41
1
10
95.5021425819322
20
-10.731556175401
30
0
41
1
10
95.4499663558211
20
-10.6224261209994
30
0
41
1
10
95.4304984517473
20
-10.5546627182124
30
0
41
1
10
95.4179866232288
20
-10.4587215753509
30
0
41
1
10
95.4162264249778
20
-10.4289682413011
30
0
41
1
10
95.4164918862066
20
-10.3995620978906
30
0
0
SPLINE
5
EC
100
AcDbEntity
8
1
62
256
6
ByLayer
370
-1
48
1
60
0
100
AcDbSpline
70
4
71
3
72
12
73
8
40
0
40
0
40
0
40
0
40
0.315078767455861
40
0.315078767455861
40
0.782351794416617
40
0.782351794416617
40
1
40
1
40
1
40
1
41
1
10
93.9764843330551
20
-12.6327902649072
30
0
41
1
10
94.0078926299283
20
-12.6731718332084
30
0
41
1
10
94.0346613582744
20
-12.717304346067
30
0
41
1
10
94.0871948000655
20
-12.8293802147878
30
0
41
1
10
94.1072525361568
20
-12.9003316305766
30
0
41
1
10
94.1209263061427
20
-13.0028631785947
30
0
41
1
10
94.1230060940916
20
-13.0357126896498
30
0
41
1
10
94.1229016486587
20
-13.0682400516036
30
0
0
SPLINE
5
ED
100
AcDbEntity
8
1
62
256
6
ByLayer
370
-1
48
1
60
0
100
AcDbSpline
70
4
71
3
72
14
73
10
40
0
40
0
40
0
40
0
40
0.280634318517747
40
0.280634318517747
40
0.567375644517281
40
0.567375644517281
40
0.826877536311266
40
0.826877536311266
40
1
40
1
40
1
40
1
41
1
10
94.6677530253531
20
-13.2157124756046
30
0
41
1
10
94.6512705820958
20
-13.2453818276184
30
0
41
1
10
94.6292672194057
20
-13.2730060648802
30
0
41
1
10
94.5761437875875
20
-13.3194158357459
30
0
41
1
10
94.5439665490709
20
-13.3386673714668
30
0
41
1
10
94.477800773666
20
-13.36228096296
30
0
41
1
10
94.4432552693629
20
-13.3681821309435
30
0
41
1
10
94.3861314722748
20
-13.3673298298628
30
0
41
1
10
94.3629385986152
20
-13.3641564644652
30
0
41
1
10
94.3406380626147
20
-13.3582613071882
30
0
0
SPLINE
5
EE
100
AcDbEntity
8
1
62
256
6
ByLayer
370
-1
48
1
60
0
100
AcDbSpline
70
4
71
3
72
12
73
8
40
0
40
0
40
0
40
0
40
0.494596658475952
40
0.494596658475952
40
0.899678546539501
40
0.899678546539501
40
1
40
1
40
1
40
1
41
1
10
96.1063858862705
20
-11.0882428600982
30
0
41
1
10
96.0349924841104
20
-11.0864624733194
30
0
41
1
10
95.9611733139669
20
-11.0735804829369
30
0
41
1
10
95.8308786882123
20
-11.0282976412686
30
0
41
1
10
95.7722619664054
20
-10.9991986916525
30
0
41
1
10
95.7049601796256
20
-10.9531829199803
30
0
41
1
10
95.6917691438791
20
-10.9434965882879
30
0
41
1
10
95.6789098245637
20
-10.9333577067771
30
0
0
SPLINE
5
EF
100
AcDbEntity
8
1
62
256
6
ByLayer
370
-1
48
1
60
0
100
AcDbSpline
70
4
71
3
72
18
73
14
40
0
40
0
40
0
40
0
40
0.211508225586418
40
0.211508225586418
40
0.385802085534695
40
0.385802085534695
40
0.561788896280821
40
0.561788896280821
40
0.714781331703496
40
0.714781331703496
40
0.917463112277665
40
0.917463112277665
40
1
40
1
40
1
40
1
41
1
10
94.8716586170017
20
-10.2522966434356
30
0
41
1
10
94.8361350616806
20
-10.3111948219558
30
0
41
1
10
94.7898441220511
20
-10.3667315719773
30
0
41
1
10
94.6881029254894
20
-10.4542221685515
30
0
41
1
10
94.6344401123599
20
-10.4894865212888
30
0
41
1
10
94.5174718822867
20
-10.5447910675691
30
0
41
1
10
94.4522594925215
20
-10.5653477145457
30
0
41
1
10
94.3306661979843
20
-10.5858904333734
30
0
41
1
10
94.2728078346012
20
-10.5885348646015
30
0
41
1
10
94.1449497406314
20
-10.5797424767994
30
0
41
1
10
94.0748700457789
20
-10.5635256271683
30
0
41
1
10
93.9854552516415
20
-10.5286661323612
30
0
41
1
10
93.9602954563694
20
-10.5170131290559
30
0
41
1
10
93.9362094718783
20
-10.5040402383922
30
0
0
SPLINE
5
F0
100
AcDbEntity
8
1
62
256
6
ByLayer
370
-1
48
1
60
0
100
AcDbSpline
70
4
71
3
72
14
73
10
40
0
40
0
40
0
40
0
40
0.28095625186449
40
0.28095625186449
40
0.565840565638525
40
0.565840565638525
40
0.82358563753001
40
0.82358563753001
40
1
40
1
40
1
40
1
41
1
10
93.433007648598
20
-12.3795592893966
30
0
41
1
10
93.3996514566488
20
-12.380797536835
30
0
41
1
10
93.3652186529709
20
-12.3761148043275
30
0
41
1
10
93.2995503664066
20
-12.3541935739563
30
0
41
1
10
93.2673674465667
20
-12.3363789867405
30
0
41
1
10
93.2146590927632
20
-12.2914952855185
30
0
41
1
10
93.1925580744963
20
-12.2647430311081
30
0
41
1
10
93.1646965017177
20
-12.2145153644249
30
0
41
1
10
93.1557225502659
20
-12.1922608018744
30
0
41
1
10
93.1496491877676
20
-12.1693668885701
30
0
0
SPLINE
5
F1
100
AcDbEntity
8
1
62
256
6
ByLayer
370
-1
48
1
60
0
100
AcDbSpline
70
4
71
3
72
18
73
14
40
0
40
0
40
0
40
0
40
0.207129291941706
40
0.207129291941706
40
0.382203979873573
40
0.382203979873573
40
0.559023039584432
40
0.559023039584432
40
0.712182593001848
40
0.712182593001848
40
0.914098312126345
40
0.914098312126345
40
1
40
1
40
1
40
1
41
1
10
94.6677530253531
20
-13.2157124756047
30
0
41
1
10
94.702166020748
20
-13.1537670917601
30
0
41
1
10
94.746902649111
20
-13.0952983522465
30
0
41
1
10
94.8464121067153
20
-13.0020521898219
30
0
41
1
10
94.8998078527264
20
-12.9640787667623
30
0
41
1
10
95.0166410324414
20
-12.9052443841771
30
0
41
1
10
95.0820109392054
20
-12.8838732413539
30
0
41
1
10
95.2040289666823
20
-12.8640047109698
30
0
41
1
10
95.2621156705625
20
-12.8624996251294
30
0
41
1
10
95.3903058136905
20
-12.8752265763216
30
0
41
1
10
95.4605813177358
20
-12.8945765222449
30
0
41
1
10
95.5515812116038
20
-12.9348590120531
30
0
41
1
10
95.57797249608
20
-12.9486747721422
30
0
41
1
10
95.603202170479
20
-12.963968880644
30
0
0
SPLINE
5
F2
100
AcDbEntity
8
1
62
256
6
ByLayer
370
-1
48
1
60
0
100
AcDbSpline
70
4
71
3
72
16
73
12
40
0
40
0
40
0
40
0
40
0.0600729240319466
40
0.0600729240319466
40
0.280858446230571
40
0.280858446230571
40
0.504283547384325
40
0.504283547384325
40
0.741922058115763
40
0.741922058115763
40
1
40
1
40
1
40
1
41
1
10
94.3406380626147
20
-13.3582613071882
30
0
41
1
10
94.3327933253449
20
-13.3561875471673
30
0
41
1
10
94.3250263512778
20
-13.3537746335405
30
0
41
1
10
94.2895004870019
20
-13.3410525540131
30
0
41
1
10
94.2628868606045
20
-13.3264705901222
30
0
41
1
10
94.2159968451693
20
-13.2905895508807
30
0
41
1
10
94.1951888705476
20
-13.2687746104742
30
0
41
1
10
94.1605488906968
20
-13.2198316526967
30
0
41
1
10
94.1467851986934
20
-13.1918600284662
30
0
41
1
10
94.1276353927826
20
-13.1322847587262
30
0
41
1
10
94.1228001409247
20
-13.0998525281442
30
0
41
1
10
94.1229016486585
20
-13.0682400516036
30
0
0
SPLINE
5
F3
100
AcDbEntity
8
1
62
256
6
ByLayer
370
-1
48
1
60
0
100
AcDbSpline
70
4
71
3
72
18
73
14
40
0
40
0
40
0
40
0
40
0.0369987881761678
40
0.0369987881761678
40
0.258316855520047
40
0.258316855520047
40
0.480945916867572
40
0.480945916867572
40
0.716712788606153
40
0.716712788606153
40
0.974963590876813
40
0.974963590876813
40
1
40
1
40
1
40
1
41
1
10
95.1999078567897
20
-10.1227126578255
30
0
41
1
10
95.2047502578041
20
-10.1239927488322
30
0
41
1
10
95.2095612310101
20
-10.1253942288674
30
0
41
1
10
95.2425798931562
20
-10.1359160873905
30
0
41
1
10
95.2697091530097
20
-10.149326186653
30
0
41
1
10
95.3176299527378
20
-10.1825782645429
30
0
41
1
10
95.339007803365
20
-10.2028645250137
30
0
41
1
10
95.374843201708
20
-10.2484483901268
30
0
41
1
10
95.389291895727
20
-10.2745237702207
30
0
41
1
10
95.4100486455967
20
-10.3303925887265
30
0
41
1
10
95.415743356
20
-10.360993310441
30
0
41
1
10
95.4164978602067
20
-10.3937304090101
30
0
41
1
10
95.4165181844082
20
-10.3966489471007
30
0
41
1
10
95.4164918862099
20
-10.3995620978912
30
0
0
SPLINE
5
F4
100
AcDbEntity
8
1
62
256
6
ByLayer
370
-1
48
1
60
0
100
AcDbSpline
70
4
71
3
72
18
73
14
40
0
40
0
40
0
40
0
40
0.13691697044702
40
0.13691697044702
40
0.325733048416733
40
0.325733048416733
40
0.483215994218327
40
0.483215994218327
40
0.64107013704327
40
0.64107013704327
40
0.795275287513541
40
0.795275287513541
40
1
40
1
40
1
40
1
41
1
10
93.5375748004832
20
-10.9019740937926
30
0
41
1
10
93.5602227546973
20
-10.9401969394508
30
0
41
1
10
93.5792819489824
20
-10.9814652369132
30
0
41
1
10
93.6140731918709
20
-11.0851258232117
30
0
41
1
10
93.6260984261672
20
-11.1510041516876
30
0
41
1
10
93.6288084257545
20
-11.2755160815149
30
0
41
1
10
93.622582444846
20
-11.3349344217566
30
0
41
1
10
93.5949039541864
20
-11.4500546901697
30
0
41
1
10
93.5730514603439
20
-11.5071639066965
30
0
41
1
10
93.5183898853386
20
-11.6099380859448
30
0
41
1
10
93.485309207015
20
-11.6570860363934
30
0
41
1
10
93.4002507680679
20
-11.7532852343859
30
0
41
1
10
93.3444658457802
20
-11.7995049918859
30
0
41
1
10
93.2853880371594
20
-11.8357784949663
30
0
0
SPLINE
5
F5
100
AcDbEntity
8
1
62
256
6
ByLayer
370
-1
48
1
60
0
100
AcDbSpline
70
4
71
3
72
12
73
8
40
0
40
0
40
0
40
0
40
0.483719714464247
40
0.483719714464247
40
0.890694950076897
40
0.890694950076897
40
1
40
1
40
1
40
1
41
1
10
93.4330076485981
20
-12.3795592893967
30
0
41
1
10
93.5024596925497
20
-12.3769810929512
30
0
41
1
10
93.5742215506426
20
-12.3852415639998
30
0
41
1
10
93.7028107266389
20
-12.4229818324055
30
0
41
1
10
93.7616180743228
20
-12.4494858900682
30
0
41
1
10
93.8304542717123
20
-12.4943115148277
30
0
41
1
10
93.8448268362584
20
-12.5045134691497
30
0
41
1
10
93.8588108652264
20
-12.5153237359787
30
0
0
SPLINE
5
F6
100
AcDbEntity
8
1
62
256
6
ByLayer
370
-1
48
1
60
0
100
AcDbSpline
70
4
71
3
72
18
73
14
40
0
40
0
40
0
40
0
40
0.0449628729984326
40
0.0449628729984326
40
0.268160193424428
40
0.268160193424428
40
0.493122118380491
40
0.493122118380491
40
0.731702505885214
40
0.731702505885214
40
0.99324170205388
40
0.99324170205388
40
1
40
1
40
1
40
1
41
1
10
96.3908967316369
20
-11.3116070764436
30
0
41
1
10
96.392439459925
20
-11.3174224855663
30
0
41
1
10
96.3938019973902
20
-11.3232838076357
30
0
41
1
10
96.4007762799878
20
-11.3581410985707
30
0
41
1
10
96.4020536274912
20
-11.3882043134565
30
0
41
1
10
96.3957053576172
20
-11.4458801179958
30
0
41
1
10
96.3879509919357
20
-11.4742099383287
30
0
41
1
10
96.3644814978686
20
-11.5272133436999
30
0
41
1
10
96.3480477550952
20
-11.5522387669652
30
0
41
1
10
96.3077441224401
20
-11.5969108606975
30
0
41
1
10
96.2828314668573
20
-11.6163933432991
30
0
41
1
10
96.2554236218824
20
-11.6314719710863
30
0
41
1
10
96.2547243106898
20
-11.6318528404194
30
0
41
1
10
96.2540236051979
20
-11.6322306240698
30
0
0
SPLINE
5
F7
100
AcDbEntity
8
1
62
256
6
ByLayer
370
-1
48
1
60
0
100
AcDbSpline
70
4
71
3
72
16
73
12
40
0
40
0
40
0
40
0
40
0.115697177920282
40
0.115697177920282
40
0.338059171823445
40
0.338059171823445
40
0.566160918642381
40
0.566160918642381
40
0.811093759657261
40
0.811093759657261
40
1
40
1
40
1
40
1
41
1
10
95.9555376337519
20
-12.9236672668262
30
0
41
1
10
95.9446371678109
20
-12.934548569304
30
0
41
1
10
95.9328218524748
20
-12.9445669731602
30
0
41
1
10
95.8964867210584
20
-12.9706348405313
30
0
41
1
10
95.86973450157
20
-12.9840403409854
30
0
41
1
10
95.8141817496116
20
-13.0019859373208
30
0
41
1
10
95.7846514290015
20
-13.0065405120303
30
0
41
1
10
95.7250523266049
20
-13.0067727674631
30
0
41
1
10
95.6943597317959
20
-13.0018071334336
30
0
41
1
10
95.6437850932492
20
-12.9854985620257
30
0
41
1
10
95.6226803432182
20
-12.9757764562226
30
0
41
1
10
95.603202170479
20
-12.9639688806439
30
0
0
SPLINE
5
F8
100
AcDbEntity
8
1
62
256
6
ByLayer
370
-1
48
1
60
0
100
AcDbSpline
70
4
71
3
72
14
73
10
40
0
40
0
40
0
40
0
40
0.264416138574581
40
0.264416138574581
40
0.553193587749951
40
0.553193587749951
40
0.814353745446299
40
0.814353745446299
40
1
40
1
40
1
40
1
41
1
10
93.5375748004831
20
-10.9019740937927
30
0
41
1
10
93.52212655175
20
-10.8759021571651
30
0
41
1
10
93.5106747489517
20
-10.8464820429564
30
0
41
1
10
93.4978518312861
20
-10.7818930441148
30
0
41
1
10
93.4973809471646
20
-10.7453974146603
30
0
41
1
10
93.5100800088709
20
-10.6775016285662
30
0
41
1
10
93.5222040536282
20
-10.6449285825602
30
0
41
1
10
93.5521245575609
20
-10.5945714612989
30
0
41
1
10
93.5675165731431
20
-10.5747676595536
30
0
41
1
10
93.5850082856524
20
-10.5573066981876
30
0
0
SPLINE
5
F9
100
AcDbEntity
8
SK1
62
256
6
ByLayer
370
-1
48
1
60
0
100
AcDbSpline
70
4
71
3
72
34
73
30
40
0
40
0
40
0
40
0
40
0.217401536066269
40
0.217401536066269
40
0.435096189293022
40
0.435096189293022
40
0.489682713739688
40
0.489682713739688
40
0.496424752611488
40
0.496424752611488
40
0.499827716366196
40
0.499827716366196
40
0.501221335421431
40
0.501221335421431
40
0.502631422618684
40
0.502631422618684
40
0.503888875466475
40
0.503888875466475
40
0.506006326341781
40
0.506006326341781
40
0.511464845542495
40
0.511464845542495
40
0.532512938526578
40
0.532512938526578
40
0.61604965645277
40
0.61604965645277
40
0.949479024361978
40
0.949479024361978
40
1
40
1
40
1
40
1
41
1
10
-75.0700000040495
20
0.234670284410242
30
0
41
1
10
-75.4700064472991
20
0.234670284410242
30
0
41
1
10
-75.8701232483065
20
0.227970241868832
30
0
41
1
10
-76.6697893197136
20
0.195494684745
30
0
41
1
10
-77.0713370539448
20
0.176891731587375
30
0
41
1
10
-77.5659938841649
20
0.0996805507180909
30
0
41
1
10
-77.6682572441832
20
0.0865193849705008
30
0
41
1
10
-77.7709539786505
20
0.0396411306649043
30
0
41
1
10
-77.7822855233382
20
0.0337382311877263
30
0
41
1
10
-77.79702137743
20
0.0219157473509881
30
0
41
1
10
-77.8017110878204
20
0.0173068007109691
30
0
41
1
10
-77.8061192907579
20
0.0095065790782485
30
0
41
1
10
-77.8071371792056
20
0.007015234910682
30
0
41
1
10
-77.8082348853154
20
0.0018522115922792
30
0
41
1
10
-77.8083007029537
20
-0.0008888427524596
30
0
41
1
10
-77.8074703692357
20
-0.0058452740892108
30
0
41
1
10
-77.8066797586504
20
-0.0081402936263828
30
0
41
1
10
-77.8038722073259
20
-0.0138466647665325
30
0
41
1
10
-77.8013741606357
20
-0.0170720040323431
30
0
41
1
10
-77.7915694080488
20
-0.0273045780345456
30
0
41
1
10
-77.7827295834825
20
-0.0328902269622802
30
0
41
1
10
-77.7394809066666
20
-0.0564798090606473
30
0
41
1
10
-77.7010509587574
20
-0.0669596151246878
30
0
41
1
10
-77.5130753631169
20
-0.115123589139188
30
0
41
1
10
-77.3580161737116
20
-0.132424615807736
30
0
41
1
10
-76.5891558546583
20
-0.214102141366197
30
0
41
1
10
-75.9693947343856
20
-0.228220267770837
30
0
41
1
10
-75.2574713330193
20
-0.234275218157279
30
0
41
1
10
-75.1637352371176
20
-0.234670284410242
30
0
41
1
10
-75.0700000040495
20
-0.234670284410242
30
0
0
LINE
5
49
100
AcDbEntity
8
80
62
256
6
ByLayer
370
-1
48
1
60
0
100
AcDbLine
10
0
20
0
30
0
11
-10
21
0
31
0
39
0
210
0
220
0
230
1
0
LINE
5
4A
100
AcDbEntity
8
81
62
256
6
ByLayer
370
-1
48
1
60
0
100
AcDbLine
10
99.93
20
-16.9
30
0
11
109.93
21
-16.9
31
0
39
0
210
0
220
0
230
1
0
LINE
5
4B
100
AcDbEntity
8
SK4
62
256
6
ByLayer
370
-1
48
0.05
60
0
100
AcDbLine
10
-206.32
20
0
30
0
11
104.10597
21
0
31
0
39
0
210
0
220
0
230
1
0
LINE
5
4D
100
AcDbEntity
8
4
62
256
6
ByLayer
370
-1
48
0.05
60
0
100
AcDbLine
10
0
20
0
30
0
11
104.10597
21
0
31
0
39
0
210
0
220
0
230
1
0
LINE
5
4F
100
AcDbEntity
8
1
62
256
6
ByLayer
370
-1
48
1
60
0
100
AcDbLine
10
0
20
-12.49125
30
0
11
67.1181
21
-12.49125
31
0
39
0
210
0
220
0
230
1
0
LINE
5
50
100
AcDbEntity
8
1
62
256
6
ByLayer
370
-1
48
1
60
0
100
AcDbLine
10
67.1181
20
12.49125
30
0
11
0
21
12.49125
31
0
39
0
210
0
220
0
230
1
0
LINE
5
51
100
AcDbEntity
8
1
62
256
6
ByLayer
370
-1
48
1
60
0
100
AcDbLine
10
67.1181
20
-12.49125
30
0
11
67.1931
21
-12.41625
31
0
39
0
210
0
220
0
230
1
0
LINE
5
52
100
AcDbEntity
8
1
62
256
6
ByLayer
370
-1
48
1
60
0
100
AcDbLine
10
67.1931
20
12.41625
30
0
11
67.1181
21
12.49125
31
0
39
0
210
0
220
0
230
1
0
LINE
5
53
100
AcDbEntity
8
1
62
256
6
ByLayer
370
-1
48
1
60
0
100
AcDbLine
10
68.258882
20
12.41625
30
0
11
67.1931
21
12.41625
31
0
39
0
210
0
220
0
230
1
0
LINE
5
54
100
AcDbEntity
8
1
62
256
6
ByLayer
370
-1
48
1
60
0
100
AcDbLine
10
67.1931
20
-12.41625
30
0
11
70.059592
21
-12.41625
31
0
39
0
210
0
220
0
230
1
0
LINE
5
55
100
AcDbEntity
8
1
62
256
6
ByLayer
370
-1
48
1
60
0
100
AcDbLine
10
89.105085
20
-3.575896
30
0
11
89.084192
21
-3.337096
31
0
39
0
210
0
220
0
230
1
0
LINE
5
56
100
AcDbEntity
8
1
62
256
6
ByLayer
370
-1
48
1
60
0
100
AcDbLine
10
70.059592
20
-12.41625
30
0
11
70.384625
21
-12.832899
31
0
39
0
210
0
220
0
230
1
0
LINE
5
57
100
AcDbEntity
8
SK1
62
256
6
ByLayer
370
-1
48
1
60
0
100
AcDbLine
10
-199.32
20
-12.49125
30
0
11
0
21
-12.49125
31
0
39
0
210
0
220
0
230
1
0
LINE
5
59
100
AcDbEntity
8
SK1
62
256
6
ByLayer
370
-1
48
1
60
0
100
AcDbLine
10
0
20
12.49125
30
0
11
-199.32
21
12.49125
31
0
39
0
210
0
220
0
230
1
0
LINE
5
5A
100
AcDbEntity
8
SK1
62
256
6
ByLayer
370
-1
48
1
60
0
100
AcDbLine
10
-199.32
20
12.49125
30
0
11
-201.32
21
10.49125
31
0
39
0
210
0
220
0
230
1
0
LINE
5
5B
100
AcDbEntity
8
SK1
62
256
6
ByLayer
370
-1
48
1
60
0
100
AcDbLine
10
-201.32
20
-10.49125
30
0
11
-199.32
21
-12.49125
31
0
39
0
210
0
220
0
230
1
0
LINE
5
5C
100
AcDbEntity
8
1
62
256
6
ByLayer
370
-1
48
1
60
0
100
AcDbLine
10
95.412239
20
-10.385055
30
0
11
95.418915
21
-10.461364
31
0
39
0
210
0
220
0
230
1
0
LINE
5
5D
100
AcDbEntity
8
1
62
256
6
ByLayer
370
-1
48
1
60
0
100
AcDbLine
10
93.625231
20
-11.175732
30
0
11
93.619016
21
-11.104698
31
0
39
0
210
0
220
0
230
1
0
LINE
5
5E
100
AcDbEntity
8
1
62
256
6
ByLayer
370
-1
48
1
60
0
100
AcDbLine
10
95.906693
20
-12.206694
30
0
11
95.912916
21
-12.277815
31
0
39
0
210
0
220
0
230
1
0
LINE
5
5F
100
AcDbEntity
8
1
62
256
6
ByLayer
370
-1
48
1
60
0
100
AcDbLine
10
92.147974
20
-11.885967
30
0
11
92.153828
21
-11.952881
31
0
39
0
210
0
220
0
230
1
0
LINE
5
60
100
AcDbEntity
8
1
62
256
6
ByLayer
370
-1
48
1
60
0
100
AcDbLine
10
97.38385
20
-11.495314
30
0
11
97.377996
21
-11.4284
31
0
39
0
210
0
220
0
230
1
0
LINE
5
61
100
AcDbEntity
8
1
62
256
6
ByLayer
370
-1
48
1
60
0
100
AcDbLine
10
94.120147
20
-13.002651
30
0
11
94.113471
21
-12.926338
31
0
39
0
210
0
220
0
230
1
0
LINE
5
62
100
AcDbEntity
8
1
62
256
6
ByLayer
370
-1
48
1
60
0
100
AcDbLine
10
62.6181
20
-0.23467
30
0
11
0
21
-0.23467
31
0
39
0
210
0
220
0
230
1
0
LINE
5
63
100
AcDbEntity
8
1
62
256
6
ByLayer
370
-1
48
1
60
0
100
AcDbLine
10
88.997481
20
-8.584234
30
0
11
88.975165
21
-8.341393
31
0
39
0
210
0
220
0
230
1
0
LINE
5
64
100
AcDbEntity
8
1
62
256
6
ByLayer
370
-1
48
1
60
0
100
AcDbLine
10
0
20
-0.23467
30
0
11
0
21
0.23467
31
0
39
0
210
0
220
0
230
1
0
LINE
5
65
100
AcDbEntity
8
1
62
256
6
ByLayer
370
-1
48
1
60
0
100
AcDbLine
10
84.191452
20
-10.002044
30
0
11
88.718213
21
-4.759375
31
0
39
0
210
0
220
0
230
1
0
LINE
5
66
100
AcDbEntity
8
1
62
256
6
ByLayer
370
-1
48
1
60
0
100
AcDbLine
10
70.059592
20
-11.660522
30
0
11
70.059592
21
11.456939
31
0
39
0
210
0
220
0
230
1
0
LINE
5
67
100
AcDbEntity
8
1
62
256
6
ByLayer
370
-1
48
1
60
0
100
AcDbLine
10
88.986028
20
-8.453329
30
0
11
88.971946
21
-8.300085
31
0
39
0
210
0
220
0
230
1
0
LINE
5
68
100
AcDbEntity
8
1
62
256
6
ByLayer
370
-1
48
1
60
0
100
AcDbLine
10
67.1181
20
-12.49125
30
0
11
67.1181
21
12.49125
31
0
39
0
210
0
220
0
230
1
0
LINE
5
69
100
AcDbEntity
8
1
62
256
6
ByLayer
370
-1
48
1
60
0
100
AcDbLine
10
88.928651
20
-2.981852
30
0
11
88.906948
21
-2.733784
31
0
39
0
210
0
220
0
230
1
0
LINE
5
6A
100
AcDbEntity
8
1
62
256
6
ByLayer
370
-1
48
1
60
0
100
AcDbLine
10
70.196112
20
-11.623647
30
0
11
70.196112
21
11.38421
31
0
39
0
210
0
220
0
230
1
0
LINE
5
6B
100
AcDbEntity
8
1
62
256
6
ByLayer
370
-1
48
1
60
0
100
AcDbLine
10
82.348746
20
-10.583018
30
0
11
82.985243
21
-10.570342
31
0
39
0
210
0
220
0
230
1
0
LINE
5
6C
100
AcDbEntity
8
1
62
256
6
ByLayer
370
-1
48
1
60
0
100
AcDbLine
10
98.761124
20
-7.37028
30
0
11
98.799436
21
-7.356908
31
0
39
0
210
0
220
0
230
1
0
LINE
5
6D
100
AcDbEntity
8
1
62
256
6
ByLayer
370
-1
48
1
60
0
100
AcDbLine
10
88.832985
20
-8.435431
30
0
11
88.975165
21
-8.341393
31
0
39
0
210
0
220
0
230
1
0
LINE
5
6E
100
AcDbEntity
8
1
62
256
6
ByLayer
370
-1
48
1
60
0
100
AcDbLine
10
62.6181
20
0.23467
30
0
11
62.6181
21
-0.23467
31
0
39
0
210
0
220
0
230
1
0
LINE
5
6F
100
AcDbEntity
8
1
62
256
6
ByLayer
370
-1
48
1
60
0
100
AcDbLine
10
88.906948
20
-2.733784
30
0
11
85.874822
21
3.031531
31
0
39
0
210
0
220
0
230
1
0
LINE
5
70
100
AcDbEntity
8
1
62
256
6
ByLayer
370
-1
48
1
60
0
100
AcDbLine
10
90.301303
20
-15.303848
30
0
11
70.999678
21
-13.621113
31
0
39
0
210
0
220
0
230
1
0
LINE
5
71
100
AcDbEntity
8
1
62
256
6
ByLayer
370
-1
48
1
60
0
100
AcDbLine
10
88.701884
20
-6.848598
30
0
11
85.366357
21
-10.678769
31
0
39
0
210
0
220
0
230
1
0
LINE
5
72
100
AcDbEntity
8
1
62
256
6
ByLayer
370
-1
48
1
60
0
100
AcDbLine
10
88.855301
20
-8.678272
30
0
11
88.997481
21
-8.584234
31
0
39
0
210
0
220
0
230
1
0
LINE
5
73
100
AcDbEntity
8
1
62
256
6
ByLayer
370
-1
48
1
60
0
100
AcDbLine
10
0
20
0.23467
30
0
11
62.6181
21
0.23467
31
0
39
0
210
0
220
0
230
1
0
LINE
5
74
100
AcDbEntity
8
1
62
256
6
ByLayer
370
-1
48
1
60
0
100
AcDbLine
10
67.1931
20
-12.41625
30
0
11
67.1931
21
12.41625
31
0
39
0
210
0
220
0
230
1
0
LINE
5
75
100
AcDbEntity
8
1
62
256
6
ByLayer
370
-1
48
1
60
0
100
AcDbLine
10
88.443588
20
1.663046
30
0
11
98.477983
21
-3.682679
31
0
39
0
210
0
220
0
230
1
0
LINE
5
76
100
AcDbEntity
8
1
62
256
6
ByLayer
370
-1
48
1
60
0
100
AcDbLine
10
0
20
-12.49125
30
0
11
0
21
-0.23467
31
0
39
0
210
0
220
0
230
1
0
LINE
5
77
100
AcDbEntity
8
1
62
256
6
ByLayer
370
-1
48
1
60
0
100
AcDbLine
10
0
20
0.23467
30
0
11
0
21
12.49125
31
0
39
0
210
0
220
0
230
1
0
LINE
5
78
100
AcDbEntity
8
1
62
256
6
ByLayer
370
-1
48
1
60
0
100
AcDbLine
10
88.832985
20
-8.435431
30
0
11
88.855301
21
-8.678272
31
0
39
0
210
0
220
0
230
1
0
LINE
5
79
100
AcDbEntity
8
1
62
256
6
ByLayer
370
-1
48
1
60
0
100
AcDbLine
10
98.799436
20
-7.356908
30
0
11
98.477983
21
-3.682679
31
0
39
0
210
0
220
0
230
1
0
LINE
5
7A
100
AcDbEntity
8
1
62
256
6
ByLayer
370
-1
48
1
60
0
100
AcDbLine
10
80.479995
20
5.905572
30
0
11
85.64756
21
3.152602
31
0
39
0
210
0
220
0
230
1
0
LINE
5
7B
100
AcDbEntity
8
1
62
256
6
ByLayer
370
-1
48
1
60
0
100
AcDbLine
10
80.479995
20
5.905572
30
0
11
70.196112
21
11.38421
31
0
39
0
210
0
220
0
230
1
0
LINE
5
7C
100
AcDbEntity
8
1
62
256
6
ByLayer
370
-1
48
1
60
0
100
AcDbLine
10
98.799436
20
-7.356908
30
0
11
98.708984
21
-7.349023
31
0
39
0
210
0
220
0
230
1
0
LINE
5
7D
100
AcDbEntity
8
1
62
256
6
ByLayer
370
-1
48
1
60
0
100
AcDbLine
10
82.950652
20
-11.777805
30
0
11
74.896121
21
-11.777805
31
0
39
0
210
0
220
0
230
1
0
LINE
5
7E
100
AcDbEntity
8
1
62
256
6
ByLayer
370
-1
48
1
60
0
100
AcDbLine
10
88.986028
20
-8.453329
30
0
11
88.997481
21
-8.584234
31
0
39
0
210
0
220
0
230
1
0
LINE
5
7F
100
AcDbEntity
8
1
62
256
6
ByLayer
370
-1
48
1
60
0
100
AcDbLine
10
88.443588
20
1.663046
30
0
11
85.874822
21
3.031531
31
0
39
0
210
0
220
0
230
1
0
LINE
5
80
100
AcDbEntity
8
1
62
256
6
ByLayer
370
-1
48
1
60
0
100
AcDbLine
10
89.896664
20
-5.476636
30
0
11
89.681735
21
-5.723439
31
0
39
0
210
0
220
0
230
1
0
LINE
5
81
100
AcDbEntity
8
1
62
256
6
ByLayer
370
-1
48
1
60
0
100
AcDbLine
10
70.059592
20
-12.41625
30
0
11
70.059592
21
-12.414998
31
0
39
0
210
0
220
0
230
1
0
LINE
5
82
100
AcDbEntity
8
1
62
256
6
ByLayer
370
-1
48
1
60
0
100
AcDbLine
10
88.443588
20
1.663046
30
0
11
90.315285
21
-1.895819
31
0
39
0
210
0
220
0
230
1
0
LINE
5
83
100
AcDbEntity
8
1
62
256
6
ByLayer
370
-1
48
1
60
0
100
AcDbLine
10
88.974221
20
-7.850366
30
0
11
88.985674
21
-7.981271
31
0
39
0
210
0
220
0
230
1
0
LINE
5
84
100
AcDbEntity
8
1
62
256
6
ByLayer
370
-1
48
1
60
0
100
AcDbLine
10
85.64756
20
3.152602
30
0
11
85.874822
21
3.031531
31
0
39
0
210
0
220
0
230
1
0
LINE
5
85
100
AcDbEntity
8
1
62
256
6
ByLayer
370
-1
48
1
60
0
100
AcDbLine
10
70.059592
20
11.456939
30
0
11
68.258882
21
12.41625
31
0
39
0
210
0
220
0
230
1
0
LINE
5
86
100
AcDbEntity
8
1
62
256
6
ByLayer
370
-1
48
1
60
0
100
AcDbLine
10
88.928651
20
-2.981852
30
0
11
85.64756
21
3.152602
31
0
39
0
210
0
220
0
230
1
0
LINE
5
87
100
AcDbEntity
8
SK1
62
256
6
ByLayer
370
-1
48
1
60
0
100
AcDbLine
10
0
20
-0.23467
30
0
11
-75.07
21
-0.23467
31
0
39
0
210
0
220
0
230
1
0
LINE
5
88
100
AcDbEntity
8
SK1
62
256
6
ByLayer
370
-1
48
1
60
0
100
AcDbLine
10
0
20
-12.49125
30
0
11
0
21
-0.23467
31
0
39
0
210
0
220
0
230
1
0
LINE
5
89
100
AcDbEntity
8
SK1
62
256
6
ByLayer
370
-1
48
1
60
0
100
AcDbLine
10
0
20
0.23467
30
0
11
0
21
12.49125
31
0
39
0
210
0
220
0
230
1
0
LINE
5
8A
100
AcDbEntity
8
SK1
62
256
6
ByLayer
370
-1
48
1
60
0
100
AcDbLine
10
0
20
-0.23467
30
0
11
0
21
0.23467
31
0
39
0
210
0
220
0
230
1
0
LINE
5
8B
100
AcDbEntity
8
SK1
62
256
6
ByLayer
370
-1
48
1
60
0
100
AcDbLine
10
-75.07
20
0.23467
30
0
11
-75.07
21
-0.23467
31
0
39
0
210
0
220
0
230
1
0
LINE
5
8C
100
AcDbEntity
8
1
62
256
6
ByLayer
370
-1
48
1
60
0
100
AcDbLine
10
90.316453
20
-15.476646
30
0
11
89.61528
21
-7.462208
31
0
39
0
210
0
220
0
230
1
0
LINE
5
8D
100
AcDbEntity
8
1
62
256
6
ByLayer
370
-1
48
1
60
0
100
AcDbLine
10
99.066662
20
-16.89697
30
0
11
91.038108
21
-16.197032
31
0
39
0
210
0
220
0
230
1
0
LINE
5
8E
100
AcDbEntity
8
1
62
256
6
ByLayer
370
-1
48
1
60
0
100
AcDbLine
10
90.475582
20
-6.603419
30
0
11
98.504137
21
-7.303356
31
0
39
0
210
0
220
0
230
1
0
LINE
5
8F
100
AcDbEntity
8
1
62
256
6
ByLayer
370
-1
48
1
60
0
100
AcDbLine
10
99.225792
20
-8.023743
30
0
11
99.926964
21
-16.03818
31
0
39
0
210
0
220
0
230
1
0
LINE
5
90
100
AcDbEntity
8
1
62
256
6
ByLayer
370
-1
48
1
60
0
100
AcDbLine
10
94.660902
20
-13.137404
30
0
11
94.667753
21
-13.215712
31
0
39
0
210
0
220
0
230
1
0
LINE
5
91
100
AcDbEntity
8
1
62
256
6
ByLayer
370
-1
48
1
60
0
100
AcDbLine
10
93.970479
20
-12.564146
30
0
11
93.976484
21
-12.63279
31
0
39
0
210
0
220
0
230
1
0
LINE
5
92
100
AcDbEntity
8
1
62
256
6
ByLayer
370
-1
48
1
60
0
100
AcDbLine
10
93.530724
20
-10.823666
30
0
11
93.537575
21
-10.901974
31
0
39
0
210
0
220
0
230
1
0
LINE
5
93
100
AcDbEntity
8
1
62
256
6
ByLayer
370
-1
48
1
60
0
100
AcDbLine
10
93.426166
20
-12.301354
30
0
11
93.433008
21
-12.379559
31
0
39
0
210
0
220
0
230
1
0
LINE
5
94
100
AcDbEntity
8
1
62
256
6
ByLayer
370
-1
48
1
60
0
100
AcDbLine
10
95.596351
20
-12.88566
30
0
11
95.603202
21
-12.963969
31
0
39
0
210
0
220
0
230
1
0
LINE
5
95
100
AcDbEntity
8
1
62
256
6
ByLayer
370
-1
48
1
60
0
100
AcDbLine
10
96.247172
20
-11.553922
30
0
11
96.254024
21
-11.632231
31
0
39
0
210
0
220
0
230
1
0
LINE
5
96
100
AcDbEntity
8
1
62
256
6
ByLayer
370
-1
48
1
60
0
100
AcDbLine
10
93.858811
20
-12.515324
30
0
11
93.852805
21
-12.446679
31
0
39
0
210
0
220
0
230
1
0
LINE
5
97
100
AcDbEntity
8
SK1
62
256
6
ByLayer
370
-1
48
1
60
0
100
AcDbLine
10
-201.32
20
10.49125
30
0
11
-201.32
21
-10.49125
31
0
39
0
210
0
220
0
230
1
0
LINE
5
98
100
AcDbEntity
8
SK1
62
256
6
ByLayer
370
-1
48
1
60
0
100
AcDbLine
10
-199.32
20
12.49125
30
0
11
-199.32
21
-12.49125
31
0
39
0
210
0
220
0
230
1
0
LINE
5
99
100
AcDbEntity
8
SK1
62
256
6
ByLayer
370
-1
48
1
60
0
100
AcDbLine
10
-75.07
20
0.23467
30
0
11
0
21
0.23467
31
0
39
0
210
0
220
0
230
1
0
LINE
5
9A
100
AcDbEntity
8
2
62
256
6
ByLayer
370
-1
48
1
60
1
100
AcDbLine
10
99.93
20
0
30
0
11
99.931
21
0.001
31
0
39
0
210
0
220
0
230
1
0
MTEXT
5
FA
100
AcDbEntity
8
SK6
62
256
6
ByLayer
370
-1
48
1
60
0
100
AcDbMText
10
-47.32
20
19.199631
30
0
210
0
220
0
230
1
1
\W00.780;\fsimplex.shx,bigfont.shx;A25T-SCLCL 09HP-R 
40
3.5
41
0
44
1.084337
50
0
71
7
72
5
7
DEFAULT
0
DIMENSION
5
12D
100
AcDbEntity
8
2
62
256
6
ByLayer
370
-3
48
1
60
0
100
AcDbDimension
2
DimnDraft3D1
10
112.18
20
0
30
0
11
112.18
21
-13.050658
31
0
70
32
71
5
72
1
41
1
210
0
220
0
230
1
3
Standard
100
AcDbAlignedDimension
13
101.93
23
-16.9
33
0
14
101.93
24
0
34
0
50
90
100
AcDbRotatedDimension
1001
ACAD
1000
DSTYLE
1002
{
1070
    74
1070
     0
1070
   279
1070
     0
1070
   172
1070
     1
1070
   173
1070
     1
1070
   340
1005
FB
1070
    77
1070
     1
1070
    73
1070
     0
1070
   171
1070
     4
1070
   274
1070
     4
1070
   177
1070
     2
1070
   176
1070
     2
1070
   178
1070
     7
1070
    78
1070
     8
1070
    41
1041
3.175
1070
   147
1041
2.25
1070
    42
1041
2.0
1070
    44
1041
2.0
1070
   140
1041
4.5
1070
   343
1005
12E
1070
   344
1005
12E
1002
}
0
DIMENSION
5
143
100
AcDbEntity
8
SK2
62
256
6
ByLayer
370
-3
48
1
60
0
100
AcDbDimension
2
DimnDraft3D2
10
-211.07
20
12.49125
30
0
11
-211.07
21
-4.784211
31
0
70
32
71
5
72
1
41
1
210
0
220
0
230
1
3
Standard
100
AcDbAlignedDimension
13
-203.32
23
-12.49125
33
0
14
-203.32
24
12.49125
34
0
50
90
100
AcDbRotatedDimension
1001
ACAD
1000
DSTYLE
1002
{
1070
    74
1070
     0
1070
   279
1070
     0
1070
   172
1070
     1
1070
   173
1070
     1
1070
   340
1005
FB
1070
    77
1070
     1
1070
    73
1070
     0
1070
   171
1070
     4
1070
   274
1070
     4
1070
   177
1070
     2
1070
   176
1070
     2
1070
   178
1070
     7
1070
    78
1070
     8
1070
    41
1041
3.175
1070
   147
1041
2.25
1070
    42
1041
2.0
1070
    44
1041
2.0
1070
   140
1041
4.5
1070
   343
1005
12E
1070
   344
1005
12E
1002
}
0
DIMENSION
5
151
100
AcDbEntity
8
2
62
256
6
ByLayer
370
-3
48
1
60
0
100
AcDbDimension
2
DimnDraft3D3
10
138.377848
20
0
30
0
11
120.896996
21
33.925375
31
0
70
34
71
5
72
1
41
1
210
0
220
0
230
1
3
Standard
100
AcDb2LineAngularDimension
13
98.971287
23
-5.941858
33
0
14
94.971626
24
39.774475
34
0
15
101.93
25
0
35
0
16
127.114307
26
31.280028
36
0
40
0
0
DIMENSION
5
15F
100
AcDbEntity
8
SK2
62
256
6
ByLayer
370
-3
48
1
60
0
100
AcDbDimension
2
DimnDraft3D4
10
99.93
20
-34.15
30
0
11
-57.510132
21
-34.15
31
0
70
32
71
5
72
1
41
1
210
0
220
0
230
1
3
Standard
100
AcDbAlignedDimension
13
-201.32
23
-14.49125
33
0
14
99.93
24
-18.9
34
0
50
0
100
AcDbRotatedDimension
1001
ACAD
1000
DSTYLE
1002
{
1070
   279
1070
     0
1070
   172
1070
     1
1070
   173
1070
     1
1070
   340
1005
FB
1070
    77
1070
     1
1070
    73
1070
     0
1070
   171
1070
     4
1070
   274
1070
     4
1070
   177
1070
     2
1070
   176
1070
     2
1070
   178
1070
     7
1070
    78
1070
     8
1070
    41
1041
3.175
1070
   147
1041
2.25
1070
    42
1041
2.0
1070
    44
1041
2.0
1070
   140
1041
4.5
1070
   343
1005
12E
1070
   344
1005
12E
1002
}
0
ENDSEC
0
SECTION
2
OBJECTS
0
DICTIONARY
5
190
330
0
100
AcDbDictionary
280
0
281
1
3
ACAD_GROUP
350
191
3
ACAD_MLINESTYLE
350
192
0
DICTIONARY
5
191
330
0
100
AcDbDictionary
280
0
281
1
0
DICTIONARY
5
192
330
0
100
AcDbDictionary
280
0
281
1
3
Standard
350
18
0
MLINESTYLE
5
18
330
192
100
AcDbMlineStyle
2
Standard
70
0
3

62
256
51
90
52
90
71
2
49
-0.5
62
256
6
ByLayer
49
0.5
62
256
6
ByLayer
0
RASTERVARIABLES
5
17e
330

100
AcDbRasterVariables
90
0
70
1
71
1
72
1
0
ENDSEC
0
EOF
