0
SECTION
2
HEADER
9
$ACADVER
1
AC1015
9
$DWGCODEPAGE
3
ANSI_1252
9
$HANDSEED
5
188
9
$ANGBASE
50
0
9
$ANGDIR
70
0
9
$ATTMODE
70
1
9
$AUNITS
70
0
9
$AUPREC
70
0
9
$CECOLOR
62
256
9
$CELTSCALE
40
1
9
$CELTYPE
6
ByLayer
9
$CELWEIGHT
370
-1
9
$CLAYER
8
0
9
$CMLJUST
70
0
9
$CMLSCALE
40
1
9
$CMLSTYLE
2
Standard
9
$DIMSTYLE
2
Standard
9
$TEXTSIZE
40
0.2
9
$TEXTSTYLE
7
Standard
9
$LUNITS
70
2
9
$LUPREC
70
4
9
$EXTNAMES
290
1
9
$INSUNITS
70
4
9
$LTSCALE
40
1
9
$LWDISPLAY
290
0
9
$PDMODE
70
0
9
$PDSIZE
40
0
9
$PLINEGEN
70
0
0
ENDSEC
0
SECTION
2
CLASSES
0
CLASS
1
RASTERVARIABLES
2
AcDbRasterVariables
3
ISM
90
0
280
0
281
0
0
ENDSEC
0
SECTION
2
TABLES
0
TABLE
2
VPORT
5
17e
100
AcDbSymbolTable
0
VPORT
5
1
100
AcDbSymbolTableRecord
100
AcDbViewportTableRecord
2
*Active
70
0
10
0
20
0
11
1
21
1
12
-1
22
1
13
0
23
0
14
0.5
24
0.5
15
10
25
10
16
0
26
0
36
1
17
0
27
0
37
0
0
ENDTAB
0
TABLE
2
LTYPE
5
17f
100
AcDbSymbolTable
0
LTYPE
5
14
100
AcDbSymbolTableRecord
100
AcDbLinetypeTableRecord
70
0
2
ByBlock
3

72
65
73
0
40
0
0
LTYPE
5
15
100
AcDbSymbolTableRecord
100
AcDbLinetypeTableRecord
70
0
2
ByLayer
3

72
65
73
0
40
0
0
LTYPE
5
16
100
AcDbSymbolTableRecord
100
AcDbLinetypeTableRecord
70
0
2
CONTINUOUS
3
Solid line
72
65
73
0
40
0
0
LTYPE
5
3B
100
AcDbSymbolTableRecord
100
AcDbLinetypeTableRecord
70
0
2
DASHED
3
__ __ __ __ __ __ __ __ __
72
65
73
2
40
25.72
49
12.86
74
0
49
-12.86
74
0
0
LTYPE
5
3C
100
AcDbSymbolTableRecord
100
AcDbLinetypeTableRecord
70
0
2
HIDDEN
3
_ _ _ _ _ _ _ _ _ _ _ _ _ _ _
72
65
73
2
40
0.5
49
0.25
74
0
49
-0.25
74
0
0
LTYPE
5
3D
100
AcDbSymbolTableRecord
100
AcDbLinetypeTableRecord
70
0
2
PHANTOM
3
____ _ _ ____ _ _ _____ _ _ ____
72
65
73
6
40
50.5
49
18
74
0
49
-6.5
74
0
49
6.5
74
0
49
-6.5
74
0
49
6.5
74
0
49
-6.5
74
0
0
LTYPE
5
3E
100
AcDbSymbolTableRecord
100
AcDbLinetypeTableRecord
70
0
2
CENTER
3
____ _ ____ _ ____ _ ____
72
65
73
4
40
47.5
49
22
74
0
49
-8.5
74
0
49
8.5
74
0
49
-8.5
74
0
0
LTYPE
5
3F
100
AcDbSymbolTableRecord
100
AcDbLinetypeTableRecord
70
0
2
DOT
3
.........................
72
65
73
2
40
10
49
0
74
0
49
-10
74
0
0
LTYPE
5
40
100
AcDbSymbolTableRecord
100
AcDbLinetypeTableRecord
70
0
2
DASHDOT
3
_._._._._._._._._._._._._._._._.
72
65
73
4
40
70
49
31
74
0
49
-13
74
0
49
13
74
0
49
-13
74
0
0
ENDTAB
0
TABLE
2
LAYER
5
180
100
AcDbSymbolTable
0
LAYER
5
10
100
AcDbSymbolTableRecord
100
AcDbLayerTableRecord
2
0
70
0
62
7
6
CONTINUOUS
290
1
370
-3
390
0
0
LAYER
5
42
100
AcDbSymbolTableRecord
100
AcDbLayerTableRecord
2
80
70
0
62
-6
6
CONTINUOUS
290
1
370
-3
390
0
0
LAYER
5
44
100
AcDbSymbolTableRecord
100
AcDbLayerTableRecord
2
81
70
0
62
-3
6
CONTINUOUS
290
1
370
-3
390
0
0
LAYER
5
46
100
AcDbSymbolTableRecord
100
AcDbLayerTableRecord
2
1
70
0
62
4
6
CONTINUOUS
290
1
370
-3
390
0
0
LAYER
5
48
100
AcDbSymbolTableRecord
100
AcDbLayerTableRecord
2
2
70
0
62
7
6
CONTINUOUS
290
1
370
-3
390
0
0
LAYER
5
62
100
AcDbSymbolTableRecord
100
AcDbLayerTableRecord
2
4
70
0
62
-2
6
CENTER
290
1
370
-3
390
0
0
LAYER
5
16a
100
AcDbSymbolTableRecord
100
AcDbLayerTableRecord
2
SK1
70
0
62
4
6
CONTINUOUS
290
1
370
-3
390
0
0
LAYER
5
16b
100
AcDbSymbolTableRecord
100
AcDbLayerTableRecord
2
SK4
70
0
62
2
6
CENTER
290
1
370
-3
390
0
0
LAYER
5
16c
100
AcDbSymbolTableRecord
100
AcDbLayerTableRecord
2
SK6
70
0
62
5
6
CONTINUOUS
290
1
370
-3
390
0
0
LAYER
5
16d
100
AcDbSymbolTableRecord
100
AcDbLayerTableRecord
2
SK2
70
0
62
7
6
CONTINUOUS
290
1
370
-3
390
0
0
ENDTAB
0
TABLE
2
STYLE
5
181
100
AcDbSymbolTable
0
STYLE
5
11
100
AcDbSymbolTableRecord
100
AcDbTextStyleTableRecord
2
Standard
3
txt
70
0
71
0
40
0
41
1
42
0
50
0
0
STYLE
5
E6
100
AcDbSymbolTableRecord
100
AcDbTextStyleTableRecord
2
DEFAULT
3
simplex.shx
70
0
71
0
40
0
41
1
42
0
50
0
0
STYLE
5
109
100
AcDbSymbolTableRecord
100
AcDbTextStyleTableRecord
2
DWGDirectTextStyle
3
SIMPLEX
70
0
71
0
40
0
41
1
42
0
50
0
0
ENDTAB
0
TABLE
2
DIMSTYLE
5
182
100
AcDbSymbolTable
100
AcDbDimStyleTable
0
DIMSTYLE
105
27
100
AcDbSymbolTableRecord
100
AcDbDimStyleTableRecord
2
Standard
70
0
3
<>
41
0.18
42
0.0625
44
0.18
140
0.18
147
0.09
73
0
74
0
77
1
271
2
275
0
278
52
280
0
340
11
0
ENDTAB
0
TABLE
2
VIEW
5
183
100
AcDbSymbolTable
0
ENDTAB
0
TABLE
2
UCS
5
184
100
AcDbSymbolTable
0
ENDTAB
0
TABLE
2
APPID
5
185
100
AcDbSymbolTable
0
APPID
5
12
100
AcDbSymbolTableRecord
100
AcDbRegAppTableRecord
2
ACAD
70
0
0
ENDTAB
0
TABLE
2
BLOCK_RECORD
5
186
100
AcDbSymbolTable
0
BLOCK_RECORD
5
1F
100
AcDbSymbolTableRecord
100
AcDbBlockTableRecord
2
*Model_Space
340
0
70
0
0
BLOCK_RECORD
5
1B
100
AcDbSymbolTableRecord
100
AcDbBlockTableRecord
2
*Paper_Space
340
0
70
0
0
BLOCK_RECORD
5
23
100
AcDbSymbolTableRecord
100
AcDbBlockTableRecord
2
*Paper_Space0
340
0
70
0
0
BLOCK_RECORD
5
10B
100
AcDbSymbolTableRecord
100
AcDbBlockTableRecord
2
DimnDraft3D1
340
0
70
0
0
BLOCK_RECORD
5
119
100
AcDbSymbolTableRecord
100
AcDbBlockTableRecord
2
_CLOSED
340
0
70
0
0
BLOCK_RECORD
5
120
100
AcDbSymbolTableRecord
100
AcDbBlockTableRecord
2
DimnDraft3D2
340
0
70
0
0
BLOCK_RECORD
5
12F
100
AcDbSymbolTableRecord
100
AcDbBlockTableRecord
2
DimnDraft3D3
340
0
70
0
0
BLOCK_RECORD
5
13D
100
AcDbSymbolTableRecord
100
AcDbBlockTableRecord
2
DimnDraft3D4
340
0
70
0
0
ENDTAB
0
ENDSEC
0
SECTION
2
BLOCKS
0
BLOCK
5
20
100
AcDbEntity
8
0
100
AcDbBlockBegin
2
*Model_Space
70
0
10
0
20
0
30
0
3
*Model_Space
0
ENDBLK
5
21
100
AcDbEntity
8
0
100
AcDbBlockEnd
0
BLOCK
5
1C
100
AcDbEntity
8
0
100
AcDbBlockBegin
2
*Paper_Space
70
0
10
0
20
0
30
0
3
*Paper_Space
0
ENDBLK
5
1D
100
AcDbEntity
8
0
100
AcDbBlockEnd
0
BLOCK
5
24
100
AcDbEntity
8
0
100
AcDbBlockBegin
2
*Paper_Space0
70
0
10
0
20
0
30
0
3
*Paper_Space0
0
ENDBLK
5
25
100
AcDbEntity
8
0
100
AcDbBlockEnd
0
BLOCK
5
116
100
AcDbEntity
8
0
100
AcDbBlockBegin
2
DimnDraft3D1
70
0
10
0
20
0
30
0
3
DimnDraft3D1
0
MTEXT
5
10C
100
AcDbEntity
8
2
62
256
6
ByLayer
370
-1
48
1
60
0
100
AcDbMText
10
91.055
20
3.974342
30
0
210
0
220
0
230
1
1
\W01.000;\fsimplex.shx,bigfont.shx;15.0 
40
4.5
41
0
44
1.084337
50
90
71
7
72
5
7
DEFAULT
0
LINE
5
10D
100
AcDbEntity
8
2
62
256
6
ByLayer
370
-1
48
1
60
0
100
AcDbLine
10
81.93
20
14.9
30
0
11
94.18
21
14.9
31
0
39
0
210
0
220
0
230
1
0
LINE
5
10E
100
AcDbEntity
8
2
62
256
6
ByLayer
370
-1
48
1
60
0
100
AcDbLine
10
81.93
20
0
30
0
11
94.18
21
0
31
0
39
0
210
0
220
0
230
1
0
LINE
5
10F
100
AcDbEntity
8
2
62
256
6
ByLayer
370
-1
48
1
60
0
100
AcDbLine
10
92.18
20
26.15
30
0
11
92.18
21
-11.25
31
0
39
0
210
0
220
0
230
1
0
LINE
5
110
100
AcDbEntity
8
2
62
256
6
ByLayer
370
-1
48
1
60
0
100
AcDbLine
10
92.18
20
14.9
30
0
11
91.762003
21
18.074998
31
0
39
0
210
0
220
0
230
1
0
LINE
5
111
100
AcDbEntity
8
2
62
256
6
ByLayer
370
-1
48
1
60
0
100
AcDbLine
10
92.18
20
14.9
30
0
11
92.597997
21
18.075002
31
0
39
0
210
0
220
0
230
1
0
LINE
5
112
100
AcDbEntity
8
2
62
256
6
ByLayer
370
-1
48
1
60
0
100
AcDbLine
10
91.762003
20
18.074998
30
0
11
92.597997
21
18.075002
31
0
39
0
210
0
220
0
230
1
0
LINE
5
113
100
AcDbEntity
8
2
62
256
6
ByLayer
370
-1
48
1
60
0
100
AcDbLine
10
92.18
20
0
30
0
11
92.597997
21
-3.174998
31
0
39
0
210
0
220
0
230
1
0
LINE
5
114
100
AcDbEntity
8
2
62
256
6
ByLayer
370
-1
48
1
60
0
100
AcDbLine
10
92.18
20
0
30
0
11
91.762003
21
-3.175002
31
0
39
0
210
0
220
0
230
1
0
LINE
5
115
100
AcDbEntity
8
2
62
256
6
ByLayer
370
-1
48
1
60
0
100
AcDbLine
10
92.597997
20
-3.174998
30
0
11
91.762003
21
-3.175002
31
0
39
0
210
0
220
0
230
1
0
ENDBLK
5
117
100
AcDbEntity
8
0
100
AcDbBlockEnd
0
BLOCK
5
11A
100
AcDbEntity
8
0
100
AcDbBlockBegin
2
_CLOSED
70
0
10
0
20
0
30
0
3
_CLOSED
0
LINE
5
11C
100
AcDbEntity
8
0
62
256
6
ByLayer
370
-2
48
1
60
0
100
AcDbLine
10
-1
20
0.166667
30
0
11
0
21
0
31
0
39
0
210
0
220
0
230
1
0
LINE
5
11D
100
AcDbEntity
8
0
62
256
6
ByLayer
370
-2
48
1
60
0
100
AcDbLine
10
0
20
0
30
0
11
-1
21
-0.166667
31
0
39
0
210
0
220
0
230
1
0
LINE
5
11E
100
AcDbEntity
8
0
62
256
6
ByLayer
370
-2
48
1
60
0
100
AcDbLine
10
-1
20
0.166667
30
0
11
-1
21
-0.166667
31
0
39
0
210
0
220
0
230
1
0
LINE
5
11F
100
AcDbEntity
8
0
62
256
6
ByLayer
370
-2
48
1
60
0
100
AcDbLine
10
0
20
0
30
0
11
-1
21
0
31
0
39
0
210
0
220
0
230
1
0
ENDBLK
5
11B
100
AcDbEntity
8
0
100
AcDbBlockEnd
0
BLOCK
5
12C
100
AcDbEntity
8
0
100
AcDbBlockBegin
2
DimnDraft3D2
70
0
10
0
20
0
30
0
3
DimnDraft3D2
0
MTEXT
5
121
100
AcDbEntity
8
SK2
62
256
6
ByLayer
370
-1
48
1
60
0
100
AcDbMText
10
-182.195
20
-3.659211
30
0
210
0
220
0
230
1
1
\W01.000;\fsimplex.shx,bigfont.shx;%%c20 
40
4.5
41
0
44
1.084337
50
90
71
7
72
5
7
DEFAULT
0
LINE
5
123
100
AcDbEntity
8
SK2
62
256
6
ByLayer
370
-1
48
1
60
0
100
AcDbLine
10
-173.32
20
-9.99125
30
0
11
-183.07
21
-9.99125
31
0
39
0
210
0
220
0
230
1
0
LINE
5
124
100
AcDbEntity
8
SK2
62
256
6
ByLayer
370
-1
48
1
60
0
100
AcDbLine
10
-173.32
20
9.99125
30
0
11
-183.07
21
9.99125
31
0
39
0
210
0
220
0
230
1
0
LINE
5
125
100
AcDbEntity
8
SK2
62
256
6
ByLayer
370
-1
48
1
60
0
100
AcDbLine
10
-181.07
20
-9.99125
30
0
11
-181.07
21
9.99125
31
0
39
0
210
0
220
0
230
1
0
LINE
5
126
100
AcDbEntity
8
SK2
62
256
6
ByLayer
370
-1
48
1
60
0
100
AcDbLine
10
-181.07
20
-9.99125
30
0
11
-181.487997
21
-6.816252
31
0
39
0
210
0
220
0
230
1
0
LINE
5
127
100
AcDbEntity
8
SK2
62
256
6
ByLayer
370
-1
48
1
60
0
100
AcDbLine
10
-181.07
20
-9.99125
30
0
11
-180.652003
21
-6.816248
31
0
39
0
210
0
220
0
230
1
0
LINE
5
128
100
AcDbEntity
8
SK2
62
256
6
ByLayer
370
-1
48
1
60
0
100
AcDbLine
10
-181.487997
20
-6.816252
30
0
11
-180.652003
21
-6.816248
31
0
39
0
210
0
220
0
230
1
0
LINE
5
129
100
AcDbEntity
8
SK2
62
256
6
ByLayer
370
-1
48
1
60
0
100
AcDbLine
10
-181.07
20
9.99125
30
0
11
-180.652003
21
6.816252
31
0
39
0
210
0
220
0
230
1
0
LINE
5
12A
100
AcDbEntity
8
SK2
62
256
6
ByLayer
370
-1
48
1
60
0
100
AcDbLine
10
-181.07
20
9.99125
30
0
11
-181.487997
21
6.816248
31
0
39
0
210
0
220
0
230
1
0
LINE
5
12B
100
AcDbEntity
8
SK2
62
256
6
ByLayer
370
-1
48
1
60
0
100
AcDbLine
10
-180.652003
20
6.816252
30
0
11
-181.487997
21
6.816248
31
0
39
0
210
0
220
0
230
1
0
ENDBLK
5
12D
100
AcDbEntity
8
0
100
AcDbBlockEnd
0
BLOCK
5
13A
100
AcDbEntity
8
0
100
AcDbBlockBegin
2
DimnDraft3D3
70
0
10
0
20
0
30
0
3
DimnDraft3D3
0
MTEXT
5
130
100
AcDbEntity
8
SK2
62
256
6
ByLayer
370
-1
48
1
60
0
100
AcDbMText
10
-51.385132
20
28.775
30
0
210
0
220
0
230
1
1
\W01.000;\fsimplex.shx,bigfont.shx;250.0 
40
4.5
41
0
44
1.084337
50
0
71
7
72
5
7
DEFAULT
0
LINE
5
131
100
AcDbEntity
8
SK2
62
256
6
ByLayer
370
-1
48
1
60
0
100
AcDbLine
10
79.93
20
16.9
30
0
11
79.93
21
29.65
31
0
39
0
210
0
220
0
230
1
0
LINE
5
132
100
AcDbEntity
8
SK2
62
256
6
ByLayer
370
-1
48
1
60
0
100
AcDbLine
10
-171.32
20
11.99125
30
0
11
-171.32
21
29.65
31
0
39
0
210
0
220
0
230
1
0
LINE
5
133
100
AcDbEntity
8
SK2
62
256
6
ByLayer
370
-1
48
1
60
0
100
AcDbLine
10
79.93
20
27.65
30
0
11
-171.32
21
27.65
31
0
39
0
210
0
220
0
230
1
0
LINE
5
134
100
AcDbEntity
8
SK2
62
256
6
ByLayer
370
-1
48
1
60
0
100
AcDbLine
10
79.93
20
27.65
30
0
11
76.755002
21
27.232003
31
0
39
0
210
0
220
0
230
1
0
LINE
5
135
100
AcDbEntity
8
SK2
62
256
6
ByLayer
370
-1
48
1
60
0
100
AcDbLine
10
79.93
20
27.65
30
0
11
76.754998
21
28.067997
31
0
39
0
210
0
220
0
230
1
0
LINE
5
136
100
AcDbEntity
8
SK2
62
256
6
ByLayer
370
-1
48
1
60
0
100
AcDbLine
10
76.755002
20
27.232003
30
0
11
76.754998
21
28.067997
31
0
39
0
210
0
220
0
230
1
0
LINE
5
137
100
AcDbEntity
8
SK2
62
256
6
ByLayer
370
-1
48
1
60
0
100
AcDbLine
10
-171.32
20
27.65
30
0
11
-168.145002
21
28.067997
31
0
39
0
210
0
220
0
230
1
0
LINE
5
138
100
AcDbEntity
8
SK2
62
256
6
ByLayer
370
-1
48
1
60
0
100
AcDbLine
10
-171.32
20
27.65
30
0
11
-168.144998
21
27.232003
31
0
39
0
210
0
220
0
230
1
0
LINE
5
139
100
AcDbEntity
8
SK2
62
256
6
ByLayer
370
-1
48
1
60
0
100
AcDbLine
10
-168.145002
20
28.067997
30
0
11
-168.144998
21
27.232003
31
0
39
0
210
0
220
0
230
1
0
ENDBLK
5
13B
100
AcDbEntity
8
0
100
AcDbBlockEnd
0
BLOCK
5
148
100
AcDbEntity
8
0
100
AcDbBlockBegin
2
DimnDraft3D4
70
0
10
0
20
0
30
0
3
DimnDraft3D4
0
MTEXT
5
13E
100
AcDbEntity
8
2
62
256
6
ByLayer
370
-1
48
1
60
0
100
AcDbMText
10
106.87138
20
-36.834311
30
0
210
0
220
0
230
1
1
\W01.000;\fsimplex.shx,bigfont.shx;93%%d0' 
40
4.5
41
0
44
1.084337
50
43.4999999999998
71
7
72
5
7
DEFAULT
0
LINE
5
13F
100
AcDbEntity
8
2
62
256
6
ByLayer
370
-1
48
1
60
0
100
AcDbLine
10
79.249633
20
1.917816
30
0
11
76.588514
21
-48.859355
31
0
39
0
210
0
220
0
230
1
0
LINE
5
140
100
AcDbEntity
8
2
62
256
6
ByLayer
370
-1
48
1
60
0
100
AcDbLine
10
81.93
20
0
30
0
11
128.075531
21
0
31
0
39
0
210
0
220
0
230
1
0
ARC
5
141
100
AcDbEntity
8
2
62
256
6
ByLayer
370
-1
48
1
60
0
100
AcDbCircle
39
0
10
79.149124
20
0
30
0
40
46.9264068782929
210
0
220
0
230
1
100
AcDbArc
50
267
51
0
0
LINE
5
142
100
AcDbEntity
8
2
62
256
6
ByLayer
370
-1
48
1
60
0
100
AcDbLine
10
76.693186
20
-46.862096
30
0
11
79.881005
21
-46.556897
31
0
39
0
210
0
220
0
230
1
0
LINE
5
143
100
AcDbEntity
8
2
62
256
6
ByLayer
370
-1
48
1
60
0
100
AcDbLine
10
76.693186
20
-46.862096
30
0
11
79.851377
21
-47.392365
31
0
39
0
210
0
220
0
230
1
0
LINE
5
144
100
AcDbEntity
8
2
62
256
6
ByLayer
370
-1
48
1
60
0
100
AcDbLine
10
79.881005
20
-46.556897
30
0
11
79.851377
21
-47.392365
31
0
39
0
210
0
220
0
230
1
0
LINE
5
145
100
AcDbEntity
8
2
62
256
6
ByLayer
370
-1
48
1
60
0
100
AcDbLine
10
126.075531
20
0
30
0
11
126.439787
21
-3.181612
31
0
39
0
210
0
220
0
230
1
0
LINE
5
146
100
AcDbEntity
8
2
62
256
6
ByLayer
370
-1
48
1
60
0
100
AcDbLine
10
126.075531
20
0
30
0
11
125.603913
21
-3.16748
31
0
39
0
210
0
220
0
230
1
0
LINE
5
147
100
AcDbEntity
8
2
62
256
6
ByLayer
370
-1
48
1
60
0
100
AcDbLine
10
126.439787
20
-3.181612
30
0
11
125.603913
21
-3.16748
31
0
39
0
210
0
220
0
230
1
0
ENDBLK
5
149
100
AcDbEntity
8
0
100
AcDbBlockEnd
0
ENDSEC
0
SECTION
2
ENTITIES
0
ELLIPSE
5
93
100
AcDbEntity
8
1
62
256
6
ByLayer
370
-1
48
1
60
0
100
AcDbEllipse
10
82.097735
20
5.222391
30
0
11
-3.19561451121461
21
0.16747505997744
31
0
210
0
220
0
230
1
40
0.996754
41
0.362723820422573
42
0.48897986788734
0
ELLIPSE
5
94
100
AcDbEntity
8
1
62
256
6
ByLayer
370
-1
48
1
60
0
100
AcDbEllipse
10
72.389808
20
-1.852975
30
0
11
0.74660814414403
21
-2.55814060856637
31
0
210
0
220
0
230
-1
40
0.483045
41
-1.20294305623187
42
-1.13480413165058
0
ELLIPSE
5
95
100
AcDbEntity
8
1
62
256
6
ByLayer
370
-1
48
1
60
0
100
AcDbEllipse
10
71.647841
20
9.360188
30
0
11
-3.19561451121464
21
0.167475059977442
31
0
210
0
220
0
230
1
40
0.996754
41
0.837758040957299
42
1.71349382629579
0
ELLIPSE
5
96
100
AcDbEntity
8
1
62
256
6
ByLayer
370
-1
48
1
60
0
100
AcDbEllipse
10
72.338282
20
-2.836157
30
0
11
1.49794430213186
21
-0.0785039343644138
31
0
210
0
220
0
230
1
40
0.996754
41
1.3528727410522
42
3.05404504340649
0
ELLIPSE
5
97
100
AcDbEntity
8
1
62
256
6
ByLayer
370
-1
48
1
60
0
100
AcDbEllipse
10
72.338282
20
-2.836157
30
0
11
1.49794430213186
21
-0.0785039343644138
31
0
210
0
220
0
230
1
40
0.996754
41
0.0875960804610098
42
0.304856658354059
0
ELLIPSE
5
98
100
AcDbEntity
8
1
62
256
6
ByLayer
370
-1
48
1
60
0
100
AcDbEllipse
10
72.411015
20
-1.448332
30
0
11
1.52075748820795
21
1.18817885570018
31
0
210
0
220
0
230
-1
40
0.283274
41
-2.14257371892331
42
-1.87012717838707
0
ELLIPSE
5
99
100
AcDbEntity
8
1
62
256
6
ByLayer
370
-1
48
1
60
0
100
AcDbEllipse
10
72.339546
20
-2.812036
30
0
11
1.49794430213186
21
-0.0785039343644138
31
0
210
0
220
0
230
1
40
0.996754
41
1.35282960350491
42
2.3840224914464
0
ELLIPSE
5
9A
100
AcDbEntity
8
1
62
256
6
ByLayer
370
-1
48
1
60
0
100
AcDbEllipse
10
72.339546
20
-2.812036
30
0
11
1.49794430213186
21
-0.0785039343644138
31
0
210
0
220
0
230
1
40
0.996754
41
0.190506219572866
42
0.293190167908022
0
ELLIPSE
5
9B
100
AcDbEntity
8
1
62
256
6
ByLayer
370
-1
48
1
60
0
100
AcDbEllipse
10
72.351976
20
-2.574848
30
0
11
-1.49794430213186
21
0.0785039343644257
31
0
210
0
220
0
230
1
40
0.996754
41
2.88876858954605
42
-2.96162262860127
0
ELLIPSE
5
9C
100
AcDbEntity
8
1
62
256
6
ByLayer
370
-1
48
1
60
0
100
AcDbEllipse
10
76.430249
20
0
30
0
11
9.91090317182231
21
-9.90735190188675
31
0
210
0
220
0
230
-1
40
0.042377
41
-3.09923435725869
42
-3.0759150203218
0
ELLIPSE
5
9D
100
AcDbEntity
8
1
62
256
6
ByLayer
370
-1
48
1
60
0
100
AcDbEllipse
10
72.617147
20
6.914034
30
0
11
0.998629534754576
21
-0.0523359562429427
31
0
210
0
220
0
230
1
40
0.996754
41
-2.26648546751014
42
-1.87622894589387
0
ELLIPSE
5
9E
100
AcDbEntity
8
1
62
256
6
ByLayer
370
-1
48
1
60
0
100
AcDbEllipse
10
67.137121
20
10.986575
30
0
11
27.4038369502754
21
-27.3595789718806
31
0
210
0
220
0
230
-1
40
0.02999
41
1.54384326820353
42
1.56161416732746
0
ELLIPSE
5
9F
100
AcDbEntity
8
1
62
256
6
ByLayer
370
-1
48
1
60
0
100
AcDbEllipse
10
72.351977
20
-2.57484
30
0
11
-1.49794430213186
21
0.0785039343644257
31
0
210
0
220
0
230
1
40
0.996754
41
-1.03001670246272
42
2.88876858954616
0
ELLIPSE
5
A0
100
AcDbEntity
8
1
62
256
6
ByLayer
370
-1
48
1
60
0
100
AcDbEllipse
10
71.635411
20
9.122991
30
0
11
-3.19561451121464
21
0.167475059977442
31
0
210
0
220
0
230
1
40
0.996754
41
1.81328567492639
42
2.11331250461631
0
ELLIPSE
5
A1
100
AcDbEntity
8
1
62
256
6
ByLayer
370
-1
48
1
60
0
100
AcDbEllipse
10
73.570548
20
6.896655
30
0
11
0.396331096605695
21
-0.0207708326339165
31
0
210
0
220
0
230
1
40
0.996754
41
2.53072741539178
42
3.14159265358969
0
ELLIPSE
5
A2
100
AcDbEntity
8
1
62
256
6
ByLayer
370
-1
48
1
60
0
100
AcDbEllipse
10
73.065214
20
-2.74569
30
0
11
0.396331096605714
21
-0.0207708326339174
31
0
210
0
220
0
230
1
40
0.996754
41
3.14159265358976
42
-0.61086523819801
0
ELLIPSE
5
A3
100
AcDbEntity
8
1
62
256
6
ByLayer
370
-1
48
1
60
0
100
AcDbEllipse
10
79.533129
20
14.50441
30
0
11
0.396331096605714
21
-0.0207708326339174
31
0
210
0
220
0
230
1
40
0.996754
41
0
42
2.53072741539178
0
ELLIPSE
5
A4
100
AcDbEntity
8
1
62
256
6
ByLayer
370
-1
48
1
60
0
100
AcDbEllipse
10
79.027795
20
4.862065
30
0
11
0.396331096605695
21
-0.0207708326339165
31
0
210
0
220
0
230
1
40
0.996754
41
-0.610865238198024
42
-1.34713071213752E-13
0
ELLIPSE
5
A5
100
AcDbEntity
8
1
62
256
6
ByLayer
370
-1
48
1
60
0
100
AcDbEllipse
10
76.294902
20
5.797889
30
0
11
-0.746974891996423
21
0.039147295269727
31
0
210
0
220
0
230
1
40
0.996754
41
2.02339767939368
42
2.75372593920866
0
ELLIPSE
5
A6
100
AcDbEntity
8
1
62
256
6
ByLayer
370
-1
48
1
60
0
100
AcDbEllipse
10
76.298417
20
5.864969
30
0
11
0.746974891996424
21
-0.0391472952697212
31
0
210
0
220
0
230
1
40
0.996754
41
2.79842868257291
42
2.87389138640861
0
ELLIPSE
5
A7
100
AcDbEntity
8
1
62
256
6
ByLayer
370
-1
48
1
60
0
100
AcDbEllipse
10
76.299115
20
5.878292
30
0
11
1.03358156847099
21
-0.0541677147114459
31
0
210
0
220
0
230
1
40
0.996754
41
-1.87622894589382
42
-0.829889374357112
0
ELLIPSE
5
A8
100
AcDbEntity
8
1
62
256
6
ByLayer
370
-1
48
1
60
0
100
AcDbEllipse
10
77.389484
20
5.389803
30
0
11
-0.42142166366643
21
0.0220857735345251
31
0
210
0
220
0
230
1
40
0.996754
41
1.0787976301193E-05
42
0.47165358079291
0
ELLIPSE
5
A9
100
AcDbEntity
8
1
62
256
6
ByLayer
370
-1
48
1
60
0
100
AcDbEllipse
10
76.299115
20
5.878292
30
0
11
1.03358156847099
21
-0.0541677147114459
31
0
210
0
220
0
230
1
40
0.996754
41
-2.9225685174306
42
-1.87622894589382
0
ELLIPSE
5
AA
100
AcDbEntity
8
1
62
256
6
ByLayer
370
-1
48
1
60
0
100
AcDbEllipse
10
76.294902
20
5.797889
30
0
11
-0.746974891996423
21
0.039147295269727
31
0
210
0
220
0
230
1
40
0.996754
41
0.870648765882483
42
1.55871495701034
0
ELLIPSE
5
AB
100
AcDbEntity
8
1
62
256
6
ByLayer
370
-1
48
1
60
0
100
AcDbEllipse
10
76.298417
20
5.864969
30
0
11
0.746974891996424
21
-0.0391472952697212
31
0
210
0
220
0
230
1
40
0.996754
41
-0.343163971014911
42
-0.267701267182997
0
ELLIPSE
5
AC
100
AcDbEntity
8
1
62
256
6
ByLayer
370
-1
48
1
60
0
100
AcDbEllipse
10
76.294902
20
5.797889
30
0
11
-0.746974891996423
21
0.039147295269727
31
0
210
0
220
0
230
1
40
0.996754
41
-2.39939873166229
42
-1.35305916012558
0
ELLIPSE
5
AD
100
AcDbEntity
8
1
62
256
6
ByLayer
370
-1
48
1
60
0
100
AcDbEllipse
10
76.294902
20
5.797889
30
0
11
0.746974891996415
21
-0.0391472952697207
31
0
210
0
220
0
230
1
40
0.996754
41
-0.124138339006224
42
0.74219392192747
0
ELLIPSE
5
AE
100
AcDbEntity
8
1
62
256
6
ByLayer
370
-1
48
1
60
0
100
AcDbEllipse
10
76.299115
20
5.878292
30
0
11
1.03358156847099
21
-0.0541677147114459
31
0
210
0
220
0
230
1
40
0.996754
41
2.31170327923251
42
-2.9225685174306
0
ELLIPSE
5
AF
100
AcDbEntity
8
1
62
256
6
ByLayer
370
-1
48
1
60
0
100
AcDbEllipse
10
76.102097
20
6.948222
30
0
11
-0.42142166366643
21
0.0220857735345251
31
0
210
0
220
0
230
1
40
0.996754
41
1.78853349346434
42
2.56343322131681
0
ELLIPSE
5
B0
100
AcDbEntity
8
1
62
256
6
ByLayer
370
-1
48
1
60
0
100
AcDbEllipse
10
76.299115
20
5.878292
30
0
11
1.03358156847099
21
-0.0541677147114459
31
0
210
0
220
0
230
1
40
0.996754
41
-0.829889374357112
42
0.219024136159164
0
ELLIPSE
5
B1
100
AcDbEntity
8
1
62
256
6
ByLayer
370
-1
48
1
60
0
100
AcDbEllipse
10
76.294902
20
5.797889
30
0
11
0.746974891996415
21
-0.0391472952697207
31
0
210
0
220
0
230
1
40
0.996754
41
2.79842868257292
42
2.87389138640862
0
ELLIPSE
5
B2
100
AcDbEntity
8
1
62
256
6
ByLayer
370
-1
48
1
60
0
100
AcDbEllipse
10
76.299115
20
5.878292
30
0
11
1.03358156847099
21
-0.0541677147114459
31
0
210
0
220
0
230
1
40
0.996754
41
0.219024136159164
42
1.26536370769578
0
ELLIPSE
5
B3
100
AcDbEntity
8
1
62
256
6
ByLayer
370
-1
48
1
60
0
100
AcDbEllipse
10
75.200319
20
6.205975
30
0
11
-0.42142166366643
21
0.0220857735345251
31
0
210
0
220
0
230
1
40
0.996754
41
2.90307335680837
42
-3.14158197385192
0
ELLIPSE
5
B4
100
AcDbEntity
8
1
62
256
6
ByLayer
370
-1
48
1
60
0
100
AcDbEllipse
10
76.294902
20
5.797889
30
0
11
-0.746974891996423
21
0.039147295269727
31
0
210
0
220
0
230
1
40
0.996754
41
-0.267701267181167
42
0.504300814377806
0
ELLIPSE
5
B5
100
AcDbEntity
8
1
62
256
6
ByLayer
370
-1
48
1
60
0
100
AcDbEllipse
10
76.299115
20
5.878292
30
0
11
1.03358156847099
21
-0.0541677147114459
31
0
210
0
220
0
230
1
40
0.996754
41
1.26536370769578
42
2.31170327923251
0
ELLIPSE
5
B6
100
AcDbEntity
8
1
62
256
6
ByLayer
370
-1
48
1
60
0
100
AcDbEllipse
10
76.294902
20
5.797889
30
0
11
-0.746974891996423
21
0.039147295269727
31
0
210
0
220
0
230
1
40
0.996754
41
-1.35305916012558
42
-0.343163971016872
0
ELLIPSE
5
B7
100
AcDbEntity
8
1
62
256
6
ByLayer
370
-1
48
1
60
0
100
AcDbEllipse
10
77.197249
20
6.539924
30
0
11
-0.42142166366643
21
0.0220857735345251
31
0
210
0
220
0
230
1
40
0.996754
41
0.742193921927488
42
1.51709364978008
0
ELLIPSE
5
B8
100
AcDbEntity
8
1
62
256
6
ByLayer
370
-1
48
1
60
0
100
AcDbEllipse
10
75.456711
20
5.657478
30
0
11
-0.184746463929596
21
0.00968215190494583
31
0
210
0
220
0
230
1
40
0.996754
41
-1.08251881899075
42
-0.251820196506754
0
ELLIPSE
5
B9
100
AcDbEntity
8
1
62
256
6
ByLayer
370
-1
48
1
60
0
100
AcDbEllipse
10
75.200319
20
6.205975
30
0
11
-0.42142166366643
21
0.0220857735345251
31
0
210
0
220
0
230
1
40
0.996754
41
2.05907383459894
42
2.76924671217326
0
ELLIPSE
5
BA
100
AcDbEntity
8
1
62
256
6
ByLayer
370
-1
48
1
60
0
100
AcDbEllipse
10
75.754691
20
6.4522
30
0
11
-0.184746463929596
21
0.00968215190494583
31
0
210
0
220
0
230
1
40
0.996754
41
-2.12795888797765
42
-0.19933258621089
0
ELLIPSE
5
BB
100
AcDbEntity
8
1
62
256
6
ByLayer
370
-1
48
1
60
0
100
AcDbEllipse
10
76.102097
20
6.948222
30
0
11
-0.42142166366643
21
0.0220857735345251
31
0
210
0
220
0
230
1
40
0.996754
41
1.01363376561183
42
1.78853349346434
0
ELLIPSE
5
BC
100
AcDbEntity
8
1
62
256
6
ByLayer
370
-1
48
1
60
0
100
AcDbEllipse
10
76.59244
20
6.591432
30
0
11
-0.184746463929596
21
0.00968215190494583
31
0
210
0
220
0
230
1
40
0.996754
41
-3.0823403795653
42
-0.57815943227284
0
ELLIPSE
5
BD
100
AcDbEntity
8
1
62
256
6
ByLayer
370
-1
48
1
60
0
100
AcDbEllipse
10
77.197249
20
6.539924
30
0
11
-0.42142166366643
21
0.0220857735345251
31
0
210
0
220
0
230
1
40
0.996754
41
1.0469759495735E-05
42
0.742193921927488
0
ELLIPSE
5
BE
100
AcDbEntity
8
1
62
256
6
ByLayer
370
-1
48
1
60
0
100
AcDbEllipse
10
77.133092
20
5.9383
30
0
11
-0.184746463929596
21
0.00968215190494583
31
0
210
0
220
0
230
1
40
0.996754
41
-2.93291499299934
42
-1.62449900380949
0
ELLIPSE
5
BF
100
AcDbEntity
8
1
62
256
6
ByLayer
370
-1
48
1
60
0
100
AcDbEllipse
10
76.298382
20
5.864307
30
0
11
1.72263594745164
21
-0.090279524519076
31
0
210
0
220
0
230
1
40
0.996754
41
0
42
6.28318530717959
0
ELLIPSE
5
C0
100
AcDbEntity
8
1
62
256
6
ByLayer
370
-1
48
1
60
0
100
AcDbEllipse
10
76.295323
20
5.805929
30
0
11
1.72263594745163
21
-0.0902795245190754
31
0
210
0
220
0
230
1
40
0.996754
41
3.14154626955112
42
0
0
ELLIPSE
5
C1
100
AcDbEntity
8
1
62
256
6
ByLayer
370
-1
48
1
60
0
100
AcDbEllipse
10
76.299115
20
5.878292
30
0
11
1.29821839518096
21
-0.0680367431158261
31
0
210
0
220
0
230
1
40
0.996754
41
0
42
6.28318530717959
0
ELLIPSE
5
C2
100
AcDbEntity
8
1
62
256
6
ByLayer
370
-1
48
1
60
0
100
AcDbEllipse
10
76.299171
20
5.87936
30
0
11
-1.90207913049533
21
0.0996837432498908
31
0
210
0
220
0
230
1
40
0.996754
41
0
42
6.28318530717959
0
ELLIPSE
5
C3
100
AcDbEntity
8
1
62
256
6
ByLayer
370
-1
48
1
60
0
100
AcDbEllipse
10
76.295853
20
5.816049
30
0
11
-1.79894586426107
21
0.0942787577963459
31
0
210
0
220
0
230
1
40
0.996754
41
0
42
6.28318530717959
0
ELLIPSE
5
C4
100
AcDbEntity
8
1
62
256
6
ByLayer
370
-1
48
1
60
0
100
AcDbEllipse
10
76.296906
20
5.836143
30
0
11
1.87864353036251
21
-0.0984555354907494
31
0
210
0
220
0
230
1
40
0.996754
41
-0.571030461225535
42
-9.47332093225194E-16
0
ELLIPSE
5
C5
100
AcDbEntity
8
1
62
256
6
ByLayer
370
-1
48
1
60
0
100
AcDbEllipse
10
76.296906
20
5.836143
30
0
11
1.87864353036251
21
-0.0984555354907494
31
0
210
0
220
0
230
1
40
0.996754
41
0
42
0.0525299710760554
0
ELLIPSE
5
C6
100
AcDbEntity
8
1
62
256
6
ByLayer
370
-1
48
1
60
0
100
AcDbEllipse
10
76.296906
20
5.836143
30
0
11
1.87864353036251
21
-0.0984555354907494
31
0
210
0
220
0
230
1
40
0.996754
41
-2.57055643979585
42
-1.51792658805639
0
ELLIPSE
5
C7
100
AcDbEntity
8
1
62
256
6
ByLayer
370
-1
48
1
60
0
100
AcDbEllipse
10
76.296906
20
5.836143
30
0
11
1.87864353036251
21
-0.0984555354907494
31
0
210
0
220
0
230
1
40
0.996754
41
0.0525302878531694
42
-2.5705559070026
0
POINT
5
41
100
AcDbEntity
8
80
62
256
6
ByLayer
370
-1
48
1
60
0
100
AcDbPoint
10
0
20
0
30
0
39
0
210
0
220
0
230
1
50
360
0
POINT
5
43
100
AcDbEntity
8
81
62
256
6
ByLayer
370
-1
48
1
60
0
100
AcDbPoint
10
79.93
20
14.9
30
0
39
0
210
0
220
0
230
1
50
360
0
POINT
5
45
100
AcDbEntity
8
1
62
256
6
ByLayer
370
-1
48
1
60
0
100
AcDbPoint
10
-171.32
20
0
30
0
39
0
210
0
220
0
230
1
50
360
0
POINT
5
47
100
AcDbEntity
8
2
62
256
6
ByLayer
370
-1
48
1
60
0
100
AcDbPoint
10
79.93
20
14.9
30
0
39
0
210
0
220
0
230
1
50
360
0
POINT
5
49
100
AcDbEntity
8
2
62
256
6
ByLayer
370
-1
48
1
60
0
100
AcDbPoint
10
79.716987
20
13.773205
30
0
39
0
210
0
220
0
230
1
50
360
0
SPLINE
5
C8
100
AcDbEntity
8
1
62
256
6
ByLayer
370
-1
48
1
60
0
100
AcDbSpline
70
4
71
3
72
12
73
8
40
0
40
0
40
0
40
0
40
0.249999999999999
40
0.249999999999999
40
0.499999999999998
40
0.499999999999998
40
1
40
1
40
1
40
1
41
1
10
64.6275576800001
20
-9.45686438791174
30
0
41
1
10
63.2748654170829
20
-9.28299531198974
30
0
41
1
10
62.0029358692993
20
-9.02703873692889
30
0
41
1
10
59.6115416732935
20
-8.21747190897804
30
0
41
1
10
58.4851778413918
20
-7.65192198147287
30
0
41
1
10
55.4990999093499
20
-5.38698810580695
30
0
41
1
10
53.9461546173389
20
-2.97101674605628
30
0
41
1
10
53.0299813878354
20
-0.23343616432274
30
0
0
SPLINE
5
C9
100
AcDbEntity
8
1
62
256
6
ByLayer
370
-1
48
1
60
0
100
AcDbSpline
70
4
71
3
72
8
73
4
40
0
40
0
40
0
40
0
40
1
40
1
40
1
40
1
41
1
10
64.7025576800001
20
9.9098469665976
30
0
41
1
10
64.6775581359877
20
9.93486012867447
30
0
41
1
10
64.6525581202913
20
9.95987276145615
30
0
41
1
10
64.6275576799999
20
9.98488483698515
30
0
0
SPLINE
5
CA
100
AcDbEntity
8
1
62
256
6
ByLayer
370
-1
48
1
60
0
100
AcDbSpline
70
4
71
3
72
14
73
10
40
0
40
0
40
0
40
0
40
0.25
40
0.25
40
0.5
40
0.5
40
0.75
40
0.75
40
1
40
1
40
1
40
1
41
1
10
52.8807815103424
20
0.23343616432291
30
0
41
1
10
52.3377446812734
20
2.01646731435457
30
0
41
1
10
52.0610939578364
20
3.89713348797011
30
0
41
1
10
52.5572879942647
20
6.99709994883182
30
0
41
1
10
53.3987417280054
20
8.14118744666601
30
0
41
1
10
55.9347940973759
20
9.45582407668462
30
0
41
1
10
57.5398291706795
20
9.70137346871618
30
0
41
1
10
60.9372985528265
20
9.9640173965991
30
0
41
1
10
62.7665638738133
20
9.97718337321115
30
0
41
1
10
64.6275576800002
20
9.98488483698529
30
0
0
SPLINE
5
CB
100
AcDbEntity
8
1
62
256
6
ByLayer
370
-1
48
1
60
0
100
AcDbSpline
70
4
71
3
72
8
73
4
40
0
40
0
40
0
40
0
40
1
40
1
40
1
40
1
41
1
10
66.568268173208
20
9.91355582694229
30
0
41
1
10
65.945109801952
20
9.91324341674058
30
0
41
1
10
65.3219030780527
20
9.91236653518368
30
0
41
1
10
64.7025576800001
20
9.9098469665976
30
0
0
SPLINE
5
CC
100
AcDbEntity
8
1
62
256
6
ByLayer
370
-1
48
1
60
0
100
AcDbSpline
70
4
71
3
72
8
73
4
40
0
40
0
40
0
40
0
40
1
40
1
40
1
40
1
41
1
10
64.7025576800001
20
-9.39192020317969
30
0
41
1
10
65.4706485628316
20
-9.48870915850375
30
0
41
1
10
66.2582215818833
20
-9.55807067272238
30
0
41
1
10
67.0567338236187
20
-9.60945066297347
30
0
0
SPLINE
5
CD
100
AcDbEntity
8
1
62
256
6
ByLayer
370
-1
48
1
60
0
100
AcDbSpline
70
4
71
3
72
8
73
4
40
0
40
0
40
0
40
0
40
1
40
1
40
1
40
1
41
1
10
64.6275576800001
20
-9.45686438791094
30
0
41
1
10
64.6525496584711
20
-9.43525764235073
30
0
41
1
10
64.6775497643374
20
-9.41360934344058
30
0
41
1
10
64.7025576800001
20
-9.39192020317969
30
0
0
SPLINE
5
CE
100
AcDbEntity
8
1
62
256
6
ByLayer
370
-1
48
1
60
0
100
AcDbSpline
70
4
71
3
72
28
73
24
40
-0.125000000000008
40
-0.125000000000008
40
0
40
0
40
0.124999999999993
40
0.124999999999993
40
0.187499999999992
40
0.187499999999992
40
0.24999999999999
40
0.24999999999999
40
0.374999999999987
40
0.374999999999987
40
0.499999999999984
40
0.499999999999984
40
0.624999999999981
40
0.624999999999981
40
0.687499999999982
40
0.687499999999982
40
0.718749999999983
40
0.718749999999983
40
0.749999999999983
40
0.749999999999983
40
0.874999999999992
40
0.874999999999992
40
1
40
1
40
1.12499999999999
40
1.12499999999999
41
1
10
60.8895197822866
20
3.98422475307439
30
0
41
1
10
59.7558018137279
20
3.42333254458998
30
0
41
1
10
59.1612526044746
20
3.21183343684891
30
0
41
1
10
58.2504310938454
20
3.26788890586744
30
0
41
1
10
57.9274069872935
20
3.35919789936355
30
0
41
1
10
57.4440342450718
20
3.83965236471246
30
0
41
1
10
57.3432896265986
20
4.23057683041034
30
0
41
1
10
57.4858097558349
20
5.2294969018065
30
0
41
1
10
57.9467104426649
20
5.69563102366192
30
0
41
1
10
58.9330452727963
20
6.40644499760467
30
0
41
1
10
59.5128160521073
20
6.66171785757885
30
0
41
1
10
60.7261360019772
20
7.03698374925287
30
0
41
1
10
61.3756180351214
20
7.16888221590497
30
0
41
1
10
62.3874146518944
20
7.21225131442139
30
0
41
1
10
62.7355375563728
20
7.21701198062206
30
0
41
1
10
63.2262208204555
20
7.02782769949425
30
0
41
1
10
63.3839422884772
20
6.89948568836812
30
0
41
1
10
63.4342553965578
20
6.54820075922538
30
0
41
1
10
63.3625541350144
20
6.37843946636821
30
0
41
1
10
62.9542667454053
20
5.61734990555485
30
0
41
1
10
62.432526010098
20
5.16938567788378
30
0
41
1
10
61.4204081865857
20
4.34177084369455
30
0
41
1
10
60.8895197822866
20
3.98422475307439
30
0
41
1
10
59.7558018137279
20
3.42333254458998
30
0
0
SPLINE
5
CF
100
AcDbEntity
8
1
62
256
6
ByLayer
370
-1
48
1
60
0
100
AcDbSpline
70
4
71
3
72
14
73
10
40
0
40
0
40
0
40
0
40
0.103049999253974
40
0.103049999253974
40
0.430518781215244
40
0.430518781215244
40
0.774697214085372
40
0.774697214085372
40
1
40
1
40
1
40
1
41
1
10
53.0299813878355
20
-0.233436164322711
30
0
41
1
10
53.0291904686179
20
-0.21740561141516
30
0
41
1
10
53.0278609238213
20
-0.20107977130084
30
0
41
1
10
53.0201536769123
20
-0.132507466956497
30
0
41
1
10
53.0088394732697
20
-0.078014136103377
30
0
41
1
10
52.977107638829
20
0.0303316548292969
30
0
41
1
10
52.9559374709164
20
0.085299854441331
30
0
41
1
10
52.9160667032456
20
0.170232314110962
30
0
41
1
10
52.8988781179416
20
0.202681442086742
30
0
41
1
10
52.8807815103423
20
0.233436164322882
30
0
0
SPLINE
5
D0
100
AcDbEntity
8
SK1
62
256
6
ByLayer
370
-1
48
1
60
0
100
AcDbSpline
70
4
71
3
72
34
73
30
40
0
40
0
40
0
40
0
40
0.217457722716224
40
0.217457722716224
40
0.435205736046568
40
0.435205736046568
40
0.489804543994878
40
0.489804543994878
40
0.496549308752554
40
0.496549308752554
40
0.499955506609483
40
0.499955506609483
40
0.501333585706673
40
0.501333585706673
40
0.502727669322812
40
0.502727669322812
40
0.503969738093622
40
0.503969738093622
40
0.506084034866097
40
0.506084034866097
40
0.511582108692614
40
0.511582108692614
40
0.532968432685216
40
0.532968432685216
40
0.617843090853689
40
0.617843090853689
40
0.991279786412478
40
0.991279786412478
40
1
40
1
40
1
40
1
41
1
10
-60.07
20
-0.233436164322711
30
0
41
1
10
-60.4700057987322
20
-0.233436164322711
30
0
41
1
10
-60.8701208961381
20
-0.226764338557643
30
0
41
1
10
-61.669788890028
20
-0.194439129841101
30
0
41
1
10
-62.0713188507156
20
-0.175922319090432
30
0
41
1
10
-62.5660317074295
20
-0.0991142584228157
30
0
41
1
10
-62.6682903311479
20
-0.0860601938297805
30
0
41
1
10
-62.7710652211984
20
-0.0393601932101433
30
0
41
1
10
-62.7824106913997
20
-0.0334791827027914
30
0
41
1
10
-62.7971573166669
20
-0.0216662685330675
30
0
41
1
10
-62.8018552013267
20
-0.0170508851722104
30
0
41
1
10
-62.8062097532358
20
-0.0092514148736598
30
0
41
1
10
-62.8072008706596
20
-0.006780393331411
30
0
41
1
10
-62.8082484512515
20
-0.0016667993909607
30
0
41
1
10
-62.8082910029577
20
0.0010442320272261
30
0
41
1
10
-62.8074328101159
20
0.0059371585597034
30
0
41
1
10
-62.8066364740706
20
0.0081988054900819
30
0
41
1
10
-62.8038120270865
20
0.0138593692916515
30
0
41
1
10
-62.8012989095358
20
0.0170658976253719
30
0
41
1
10
-62.7913933262466
20
0.027298602384235
30
0
41
1
10
-62.7824578935857
20
0.032876467013665
30
0
41
1
10
-62.7384762058085
20
0.0566035527719464
30
0
41
1
10
-62.6993830440455
20
0.0670885454558174
30
0
41
1
10
-62.5081904081079
20
0.115383286102372
30
0
41
1
10
-62.3506046797186
20
0.13266514094309
30
0
41
1
10
-61.505331047694
20
0.220917708457137
30
0
41
1
10
-60.8109209829838
20
0.232394670085569
30
0
41
1
10
-60.1023607472352
20
0.233424410073695
30
0
41
1
10
-60.0861803714794
20
0.233436164322683
30
0
41
1
10
-60.07
20
0.233436164322683
30
0
0
SPLINE
5
D1
100
AcDbEntity
8
1
62
256
6
ByLayer
370
-1
48
1
60
0
100
AcDbSpline
70
4
71
3
72
18
73
14
40
0
40
0
40
0
40
0
40
0.207469139915455
40
0.207469139915455
40
0.384109687256884
40
0.384109687256884
40
0.562457818897913
40
0.562457818897913
40
0.717579143625025
40
0.717579143625025
40
0.922764482176768
40
0.922764482176768
40
1
40
1
40
1
40
1
41
1
10
75.8645001853316
20
6.6783154995143
30
0
41
1
10
75.8989754631735
20
6.65250935683963
30
0
41
1
10
75.9382512426953
20
6.63125429606231
30
0
41
1
10
76.01672006788
20
6.60443072899392
30
0
41
1
10
76.0559857348291
20
6.59680105967635
30
0
41
1
10
76.1358598004115
20
6.59384355437871
30
0
41
1
10
76.1776666171239
20
6.59872336497887
30
0
41
1
10
76.2509215437767
20
6.61917301593101
30
0
41
1
10
76.2838974011982
20
6.63345304419551
30
0
41
1
10
76.352837045173
20
6.67415400687477
30
0
41
1
10
76.3875970314472
20
6.70356286353828
30
0
41
1
10
76.4273457382994
20
6.74868702885149
30
0
41
1
10
76.4375360474143
20
6.76168384264091
30
0
41
1
10
76.446921820514
20
6.77511269119773
30
0
0
SPLINE
5
D2
100
AcDbEntity
8
1
62
256
6
ByLayer
370
-1
48
1
60
0
100
AcDbSpline
70
4
71
3
72
16
73
12
40
0
40
0
40
0
40
0
40
0.110229113146171
40
0.110229113146171
40
0.334434877158584
40
0.334434877158584
40
0.564012330617004
40
0.564012330617004
40
0.810092314337504
40
0.810092314337504
40
1
40
1
40
1
40
1
41
1
10
77.3197357192344
20
6.04926255631878
30
0
41
1
10
77.3182011137685
20
6.05834655403916
30
0
41
1
10
77.3159715790377
20
6.06731938115811
30
0
41
1
10
77.3072679206126
20
6.09360587677486
30
0
41
1
10
77.2986145136023
20
6.11032384026214
30
0
41
1
10
77.2770355252653
20
6.139858267618
30
0
41
1
10
77.2637522989206
20
6.15295567043805
30
0
41
1
10
77.2337025388159
20
6.17469807316422
30
0
41
1
10
77.2163906980198
20
6.18324437965785
30
0
41
1
10
77.1849080873444
20
6.19309730513953
30
0
41
1
10
77.1707053479129
20
6.19568897083298
30
0
41
1
10
77.1565730532771
20
6.19660031423936
30
0
0
SPLINE
5
D3
100
AcDbEntity
8
1
62
256
6
ByLayer
370
-1
48
1
60
0
100
AcDbSpline
70
4
71
3
72
14
73
10
40
0
40
0
40
0
40
0
40
0.0443283930607222
40
0.0443283930607222
40
0.381627464733558
40
0.381627464733558
40
0.827675399617443
40
0.827675399617443
40
1
40
1
40
1
40
1
41
1
10
75.6081237424932
20
6.15235109540239
30
0
41
1
10
75.6094739838047
20
6.1568679587925
30
0
41
1
10
75.6107481498433
20
6.16141007773459
30
0
41
1
10
75.6209704589921
20
6.20036542725688
30
0
41
1
10
75.6255719691292
20
6.2362372273123
30
0
41
1
10
75.6263459275074
20
6.31693928437574
30
0
41
1
10
75.6194858749266
20
6.36230779888672
30
0
41
1
10
75.6020343661684
20
6.42060455997054
30
0
41
1
10
75.5962456714872
20
6.43658502422824
30
0
41
1
10
75.5896570047128
20
6.45206859625961
30
0
0
SPLINE
5
D4
100
AcDbEntity
8
1
62
256
6
ByLayer
370
-1
48
1
60
0
100
AcDbSpline
70
4
71
3
72
18
73
14
40
0
40
0
40
0
40
0
40
0.206970373488495
40
0.206970373488495
40
0.383698889605073
40
0.383698889605073
40
0.56214081467379
40
0.56214081467379
40
0.71728036564407
40
0.71728036564407
40
0.922378173496304
40
0.922378173496304
40
1
40
1
40
1
40
1
41
1
10
76.7806995518995
20
6.65067249459304
30
0
41
1
10
76.7770424798491
20
6.60716622273131
30
0
41
1
10
76.7796281921606
20
6.56186078322094
30
0
41
1
10
76.7976433264525
20
6.47947452033398
30
0
41
1
10
76.8114474788634
20
6.44124889326235
30
0
41
1
10
76.8497716871792
20
6.37021010975792
30
0
41
1
10
76.8750677464378
20
6.33646903380117
30
0
41
1
10
76.9290558921586
20
6.2837491540825
30
0
41
1
10
76.9574796494615
20
6.26274356790705
30
0
41
1
10
77.0257645068429
20
6.22461910077013
30
0
41
1
10
77.0674653362237
20
6.21012429020277
30
0
41
1
10
77.1247504619632
20
6.19957849285248
30
0
41
1
10
77.1406830828741
20
6.19762500415186
30
0
41
1
10
77.1565730532772
20
6.1966003142393
30
0
0
SPLINE
5
D5
100
AcDbEntity
8
1
62
256
6
ByLayer
370
-1
48
1
60
0
100
AcDbSpline
70
4
71
3
72
14
73
10
40
0
40
0
40
0
40
0
40
0.261796787589939
40
0.261796787589939
40
0.551855467281632
40
0.551855467281632
40
0.814410176977077
40
0.814410176977077
40
1
40
1
40
1
40
1
41
1
10
75.8169583043917
20
5.09498322141934
30
0
41
1
10
75.815349053504
20
5.07644641021343
30
0
41
1
10
75.8168209873327
20
5.05706656528392
30
0
41
1
10
75.8269067215592
20
5.01731804768994
30
0
41
1
10
75.8364864925113
20
4.99644406837132
30
0
41
1
10
75.8620220730423
20
4.96108346174378
30
0
41
1
10
75.8777056159557
20
4.94566512908898
30
0
41
1
10
75.9082378638071
20
4.92474875300803
30
0
41
1
10
75.9222466936835
20
4.91746869101937
30
0
41
1
10
75.9368183440166
20
4.91203603670545
30
0
0
SPLINE
5
D6
100
AcDbEntity
8
1
62
256
6
ByLayer
370
-1
48
1
60
0
100
AcDbSpline
70
4
71
3
72
18
73
14
40
0
40
0
40
0
40
0
40
0.0179538189412762
40
0.0179538189412762
40
0.243672900460587
40
0.243672900460587
40
0.469573628037982
40
0.469573628037982
40
0.707761872479668
40
0.707761872479668
40
0.967895505486053
40
0.967895505486053
40
1
40
1
40
1
40
1
41
1
10
75.2784948205347
20
5.70732061140941
30
0
41
1
10
75.2787470109484
20
5.70582778657953
30
0
41
1
10
75.2790176319479
20
5.70433719990697
30
0
41
1
10
75.2828953772732
20
5.68437085338942
30
0
41
1
10
75.2894480424323
20
5.66611401888903
30
0
41
1
10
75.3072332417033
20
5.63295416179275
30
0
41
1
10
75.3186856293057
20
5.61762301696362
30
0
41
1
10
75.3453482641239
20
5.59077746302185
30
0
41
1
10
75.3610502142278
20
5.57916565680372
30
0
41
1
10
75.3954600349419
20
5.56056846604079
30
0
41
1
10
75.4147333337958
20
5.55385485582536
30
0
41
1
10
75.436295731149
20
5.54981212119353
30
0
41
1
10
75.4386902474044
20
5.54941043893328
30
0
41
1
10
75.4410848030141
20
5.54905540177302
30
0
0
SPLINE
5
D7
100
AcDbEntity
8
1
62
256
6
ByLayer
370
-1
48
1
60
0
100
AcDbSpline
70
4
71
3
72
18
73
14
40
0
40
0
40
0
40
0
40
0.212919783666987
40
0.212919783666987
40
0.388605499086005
40
0.388605499086005
40
0.565934927857093
40
0.565934927857093
40
0.720868248414191
40
0.720868248414191
40
0.927019025572033
40
0.927019025572033
40
1
40
1
40
1
40
1
41
1
10
76.7331576709592
20
5.06734021649834
30
0
41
1
10
76.6975868725398
20
5.09024137468896
30
0
41
1
10
76.656947679468
20
5.10856512696347
30
0
41
1
10
76.57695788884
20
5.1301157529625
30
0
41
1
10
76.5376927804689
20
5.13558075402446
30
0
41
1
10
76.4580573059195
20
5.13584638612002
30
0
41
1
10
76.4165085631325
20
5.13045336350373
30
0
41
1
10
76.3437215533045
20
5.11079833117628
30
0
41
1
10
76.310961243263
20
5.09755328668868
30
0
41
1
10
76.2423507425304
20
5.06021687446028
30
0
41
1
10
76.2077902914203
20
5.03345281973643
30
0
41
1
10
76.1690572098
20
4.99307453661223
30
0
41
1
10
76.1595372994867
20
4.98198699162296
30
0
41
1
10
76.1507360357771
20
4.97054302481448
30
0
0
SPLINE
5
D8
100
AcDbEntity
8
1
62
256
6
ByLayer
370
-1
48
1
60
0
100
AcDbSpline
70
4
71
3
72
18
73
14
40
0
40
0
40
0
40
0
40
0.111232252729569
40
0.111232252729569
40
0.306909375613039
40
0.306909375613039
40
0.468221251227209
40
0.468221251227209
40
0.630084364756088
40
0.630084364756088
40
0.78547408511396
40
0.78547408511396
40
1
40
1
40
1
40
1
41
1
10
75.8169583043917
20
5.09498322141934
30
0
41
1
10
75.8188301179723
20
5.11654446784897
30
0
41
1
10
75.8189060705819
20
5.13859898359385
30
0
41
1
10
75.8137817871722
20
5.19988242730645
30
0
41
1
10
75.8043671826949
20
5.24031934298355
30
0
41
1
10
75.775158559628
20
5.31175610910555
30
0
41
1
10
75.7570645347088
20
5.34393294400226
30
0
41
1
10
75.7130649716649
20
5.40281765726138
30
0
41
1
10
75.6865576425818
20
5.43023428129186
30
0
41
1
10
75.6305819982679
20
5.47553819124249
30
0
41
1
10
75.6006620274278
20
5.49434097921355
30
0
41
1
10
75.5283277535009
20
5.52938576970203
30
0
41
1
10
75.484320332459
20
5.54264493482273
30
0
41
1
10
75.4410848030141
20
5.54905540177302
30
0
0
SPLINE
5
D9
100
AcDbEntity
8
1
62
256
6
ByLayer
370
-1
48
1
60
0
100
AcDbSpline
70
4
71
3
72
14
73
10
40
0
40
0
40
0
40
0
40
0.0511748960367752
40
0.0511748960367752
40
0.387803089306717
40
0.387803089306717
40
0.835335744635053
40
0.835335744635053
40
1
40
1
40
1
40
1
41
1
10
76.9887103711354
20
5.57758667426222
30
0
41
1
10
76.9871539618964
20
5.57242359746093
30
0
41
1
10
76.985699741499
20
5.56724172836243
30
0
41
1
10
76.9755420091817
20
5.52818750265621
30
0
41
1
10
76.9711883930982
20
5.49354983412834
30
0
41
1
10
76.9709833039528
20
5.41653005546581
30
0
41
1
10
76.9782494743916
20
5.37400187480432
30
0
41
1
10
76.9960488904769
20
5.32091763191175
30
0
41
1
10
77.0016601495727
20
5.30698541295533
30
0
41
1
10
77.0079980592544
20
5.29353383903427
30
0
0
SPLINE
5
DA
100
AcDbEntity
8
1
62
256
6
ByLayer
370
-1
48
1
60
0
100
AcDbSpline
70
4
71
3
72
14
73
10
40
0
40
0
40
0
40
0
40
0.28299320848576
40
0.28299320848576
40
0.570398012088526
40
0.570398012088526
40
0.830812977923509
40
0.830812977923509
40
1
40
1
40
1
40
1
41
1
10
75.8645001853316
20
6.6783154995143
30
0
41
1
10
75.8472856535811
20
6.69120127419799
30
0
41
1
10
75.8274185500636
20
6.70141288774633
30
0
41
1
10
75.7848962930578
20
6.71417785114716
30
0
41
1
10
75.7615335998727
20
6.71676770751333
30
0
41
1
10
75.7176440080799
20
6.71288607273209
30
0
41
1
10
75.6963997040052
20
6.70714645053167
30
0
41
1
10
75.6643742304016
20
6.69170518119739
30
0
41
1
10
75.6522827506246
20
6.68399498766254
30
0
41
1
10
75.6413300095382
20
6.67501172068148
30
0
0
SPLINE
5
DB
100
AcDbEntity
8
1
62
256
6
ByLayer
370
-1
48
1
60
0
100
AcDbSpline
70
4
71
3
72
14
73
10
40
0
40
0
40
0
40
0
40
0.217843291500279
40
0.217843291500279
40
0.512812242922411
40
0.512812242922411
40
0.779451760153555
40
0.779451760153555
40
1
40
1
40
1
40
1
41
1
10
75.3824942222066
20
5.89955993977145
30
0
41
1
10
75.3677918384519
20
5.89339380803955
30
0
41
1
10
75.3536944459459
20
5.88509181154504
30
0
41
1
10
75.3237831262902
20
5.86110401582499
30
0
41
1
10
75.3086561447575
20
5.84337586283419
30
0
41
1
10
75.2875294618471
20
5.80482185700555
30
0
41
1
10
75.2805070203883
20
5.78384705887157
30
0
41
1
10
75.2751280298519
20
5.74434021029074
30
0
41
1
10
75.2754186049535
20
5.72553007041901
30
0
41
1
10
75.2784948205347
20
5.70732061140941
30
0
0
SPLINE
5
DC
100
AcDbEntity
8
1
62
256
6
ByLayer
370
-1
48
1
60
0
100
AcDbSpline
70
4
71
3
72
16
73
12
40
0
40
0
40
0
40
0
40
0.0530634347561329
40
0.0530634347561329
40
0.277116076863422
40
0.277116076863422
40
0.503371417424825
40
0.503371417424825
40
0.743518159785249
40
0.743518159785249
40
1
40
1
40
1
40
1
41
1
10
76.9569005302308
20
5.08157144704671
30
0
41
1
10
76.9603643558004
20
5.0844124226183
30
0
41
1
10
76.9637267285845
20
5.0873753316389
30
0
41
1
10
76.9805667473344
20
5.10330948773182
30
0
41
1
10
76.9922598345187
20
5.11832556296307
30
0
41
1
10
77.0102408072844
20
5.15026063341367
30
0
41
1
10
77.0167164636487
20
5.16759741748854
30
0
41
1
10
77.0242736313301
20
5.20320592316699
30
0
41
1
10
77.0251138026132
20
5.22191230953524
30
0
41
1
10
77.0210868826492
20
5.25862333959475
30
0
41
1
10
77.0158154878615
20
5.27694213545021
30
0
41
1
10
77.0079980592544
20
5.29353383903427
30
0
0
SPLINE
5
DD
100
AcDbEntity
8
1
62
256
6
ByLayer
370
-1
48
1
60
0
100
AcDbSpline
70
4
71
3
72
16
73
12
40
0
40
0
40
0
40
0
40
0.033550482102947
40
0.033550482102947
40
0.354306321728491
40
0.354306321728491
40
0.641314562974024
40
0.641314562974024
40
0.894106739250681
40
0.894106739250681
40
1
40
1
40
1
40
1
41
1
10
76.7806995518997
20
6.65067249459301
30
0
41
1
10
76.7809187182962
20
6.65327980248756
30
0
41
1
10
76.7810869775797
20
6.65589609905712
30
0
41
1
10
76.7823026684432
20
6.68325192824969
30
0
41
1
10
76.7786680972758
20
6.70908567875213
30
0
41
1
10
76.7623037343383
20
6.7548461298681
30
0
41
1
10
76.7502637560687
20
6.77581029319154
30
0
41
1
10
76.7210445358708
20
6.80935624908543
30
0
41
1
10
76.7041921782484
20
6.82311346219421
30
0
41
1
10
76.6779152863482
20
6.83767799011474
30
0
41
1
10
76.6697649066788
20
6.8414330437362
30
0
41
1
10
76.6614121957525
20
6.84454713102281
30
0
0
SPLINE
5
DE
100
AcDbEntity
8
1
62
256
6
ByLayer
370
-1
48
1
60
0
100
AcDbSpline
70
4
71
3
72
12
73
8
40
0
40
0
40
0
40
0
40
0.46311026311952
40
0.46311026311952
40
0.844740085570595
40
0.844740085570595
40
1
40
1
40
1
40
1
41
1
10
77.2151608417605
20
5.84604249552319
30
0
41
1
10
77.1757784150477
20
5.82600783053144
30
0
41
1
10
77.137932728533
20
5.79932937130619
30
0
41
1
10
77.0768882411215
20
5.73993089470224
30
0
41
1
10
77.0516629008504
20
5.70836623891498
30
0
41
1
10
77.0228486681434
20
5.65985955256204
30
0
41
1
10
77.0152178140597
20
5.64523130487726
30
0
41
1
10
77.0084643782818
20
5.6302711372563
30
0
0
SPLINE
5
DF
100
AcDbEntity
8
1
62
256
6
ByLayer
370
-1
48
1
60
0
100
AcDbSpline
70
4
71
3
72
14
73
10
40
0
40
0
40
0
40
0
40
0.265335046065009
40
0.265335046065009
40
0.554950778207645
40
0.554950778207645
40
0.817144318520911
40
0.817144318520911
40
1
40
1
40
1
40
1
41
1
10
76.7331576709592
20
5.06734021649831
30
0
41
1
10
76.7493871451837
20
5.05689137157265
30
0
41
1
10
76.7679223326476
20
5.04872113911108
30
0
41
1
10
76.8090777408159
20
5.03827259222075
30
0
41
1
10
76.8325852560968
20
5.03648315162249
30
0
41
1
10
76.8768937424699
20
5.041415537646
30
0
41
1
10
76.8984068942689
20
5.04745984426035
30
0
41
1
10
76.931884597114
20
5.06349628656597
30
0
41
1
10
76.9450666452402
20
5.07186547961308
30
0
41
1
10
76.9569005302308
20
5.08157144704671
30
0
0
SPLINE
5
E0
100
AcDbEntity
8
1
62
256
6
ByLayer
370
-1
48
1
60
0
100
AcDbSpline
70
4
71
3
72
16
73
12
40
0
40
0
40
0
40
0
40
0.065734291324082
40
0.065734291324082
40
0.289645604553661
40
0.289645604553661
40
0.516474142402028
40
0.516474142402028
40
0.757779260423817
40
0.757779260423817
40
1
40
1
40
1
40
1
41
1
10
75.6413300095382
20
6.67501172068148
30
0
41
1
10
75.6370460209099
20
6.67149806019336
30
0
41
1
10
75.6329153756537
20
6.66777779531466
30
0
41
1
10
75.6156090475739
20
6.6506834833738
30
0
41
1
10
75.6041828942792
20
6.63515919118743
30
0
41
1
10
75.5867033583676
20
6.60187377363826
30
0
41
1
10
75.5804861657105
20
6.58366960070401
30
0
41
1
10
75.5734388726896
20
6.54601596889762
30
0
41
1
10
75.5728698421743
20
6.52609351346288
30
0
41
1
10
75.5772998257088
20
6.48791845378716
30
0
41
1
10
75.582341330312
20
6.46926065884583
30
0
41
1
10
75.5896570047128
20
6.45206859625961
30
0
0
SPLINE
5
E1
100
AcDbEntity
8
1
62
256
6
ByLayer
370
-1
48
1
60
0
100
AcDbSpline
70
4
71
3
72
16
73
12
40
0
40
0
40
0
40
0
40
0.0204184567259427
40
0.0204184567259427
40
0.336456865949701
40
0.336456865949701
40
0.624661576118841
40
0.624661576118841
40
0.878663326018039
40
0.878663326018039
40
1
40
1
40
1
40
1
41
1
10
77.2151608417605
20
5.84604249552316
30
0
41
1
10
77.2165603864779
20
5.84675447322218
30
0
41
1
10
77.2179535539241
20
5.84748437251224
30
0
41
1
10
77.2404802739201
20
5.85963458448509
30
0
41
1
10
77.2603614311507
20
5.87552998581509
30
0
41
1
10
77.291410671808
20
5.91239347364734
30
0
41
1
10
77.3036436814397
20
5.93340702497062
30
0
41
1
10
77.3185153531745
20
5.97575062960061
30
0
41
1
10
77.3223090115512
20
5.99738759965459
30
0
41
1
10
77.3222944676398
20
6.02892437122901
30
0
41
1
10
77.3214353927012
20
6.03920144925124
30
0
41
1
10
77.3197357192344
20
6.04926255631878
30
0
0
SPLINE
5
E2
100
AcDbEntity
8
1
62
256
6
ByLayer
370
-1
48
1
60
0
100
AcDbSpline
70
4
71
3
72
16
73
12
40
0
40
0
40
0
40
0
40
0.0507138845111014
40
0.0507138845111014
40
0.275587481923972
40
0.275587481923972
40
0.502527670853834
40
0.502527670853834
40
0.743290160059969
40
0.743290160059969
40
1
40
1
40
1
40
1
41
1
10
75.9368183440166
20
4.91203603670545
30
0
41
1
10
75.9408221486711
20
4.91054332406606
30
0
41
1
10
75.9448805339429
20
4.90918239285008
30
0
41
1
10
75.9669887613736
20
4.90257759844627
30
0
41
1
10
75.9860254177894
20
4.89985037459579
30
0
41
1
10
76.0232197756307
20
4.89991176108208
30
0
41
1
10
76.0418425006766
20
4.90273796433374
30
0
41
1
10
76.0773606878163
20
4.9134164843675
30
0
41
1
10
76.0945332889546
20
4.92167980146959
30
0
41
1
10
76.1255700209946
20
4.94270594956714
30
0
41
1
10
76.1395238052942
20
4.95596416458136
30
0
41
1
10
76.1507360357771
20
4.97054302481448
30
0
0
SPLINE
5
E3
100
AcDbEntity
8
1
62
256
6
ByLayer
370
-1
48
1
60
0
100
AcDbSpline
70
4
71
3
72
12
73
8
40
0
40
0
40
0
40
0
40
0.452419268244725
40
0.452419268244725
40
0.835845868639606
40
0.835845868639606
40
1
40
1
40
1
40
1
41
1
10
75.3824942222069
20
5.89955993977077
30
0
41
1
10
75.4207882330076
20
5.91562032284068
30
0
41
1
10
75.4576103928197
20
5.93820736741088
30
0
41
1
10
75.5180969438831
20
5.99152223513511
30
0
41
1
10
75.5435330903925
20
6.02117602892591
30
0
41
1
10
75.5731378347278
20
6.06890344305705
30
0
41
1
10
75.5812407017482
20
6.08402289407073
30
0
41
1
10
75.5883697353459
20
6.09966663240567
30
0
0
SPLINE
5
E4
100
AcDbEntity
8
1
62
256
6
ByLayer
370
-1
48
1
60
0
100
AcDbSpline
70
4
71
3
72
16
73
12
40
0
40
0
40
0
40
0
40
0.125073191060097
40
0.125073191060097
40
0.349216723932949
40
0.349216723932949
40
0.579534080577524
40
0.579534080577524
40
0.826997509485547
40
0.826997509485547
40
1
40
1
40
1
40
1
41
1
10
76.6614121957525
20
6.84454713102281
30
0
41
1
10
76.6515975445821
20
6.84820626405178
30
0
41
1
10
76.6414238060071
20
6.8510073692126
30
0
41
1
10
76.6127974259528
20
6.85624504891575
30
0
41
1
10
76.5937671424474
20
6.85666184488011
30
0
41
1
10
76.5568386789835
20
6.85180783775942
30
0
41
1
10
76.5385168881078
20
6.84633541686418
30
0
41
1
10
76.5039029377645
20
6.83008824009224
30
0
41
1
10
76.4874216648373
20
6.81876521587492
30
0
41
1
10
76.4634335258451
20
6.79633113706691
30
0
41
1
10
76.4545681079996
20
6.78605274222758
30
0
41
1
10
76.446921820514
20
6.77511269119773
30
0
0
LINE
5
4A
100
AcDbEntity
8
80
62
256
6
ByLayer
370
-1
48
1
60
0
100
AcDbLine
10
0
20
0
30
0
11
-10
21
0
31
0
39
0
210
0
220
0
230
1
0
LINE
5
4B
100
AcDbEntity
8
1
62
256
6
ByLayer
370
-1
48
1
60
0
100
AcDbLine
10
79.340575
20
4.618462
30
0
11
73.377994
21
-2.989293
31
0
39
0
210
0
220
0
230
1
0
LINE
5
4C
100
AcDbEntity
8
1
62
256
6
ByLayer
370
-1
48
1
60
0
100
AcDbLine
10
79.92946
20
14.483639
30
0
11
79.424126
21
4.841294
31
0
39
0
210
0
220
0
230
1
0
LINE
5
4D
100
AcDbEntity
8
1
62
256
6
ByLayer
370
-1
48
1
60
0
100
AcDbLine
10
72.668883
20
-2.72492
30
0
11
73.174217
21
6.917426
31
0
39
0
210
0
220
0
230
1
0
LINE
5
4E
100
AcDbEntity
8
SK1
62
256
6
ByLayer
370
-1
48
1
60
0
100
AcDbLine
10
-170.82
20
-9.99125
30
0
11
0
21
-9.99125
31
0
39
0
210
0
220
0
230
1
0
LINE
5
50
100
AcDbEntity
8
SK1
62
256
6
ByLayer
370
-1
48
1
60
0
100
AcDbLine
10
0
20
9.99125
30
0
11
-170.82
21
9.99125
31
0
39
0
210
0
220
0
230
1
0
LINE
5
51
100
AcDbEntity
8
SK1
62
256
6
ByLayer
370
-1
48
1
60
0
100
AcDbLine
10
-170.82
20
9.99125
30
0
11
-171.32
21
9.49125
31
0
39
0
210
0
220
0
230
1
0
LINE
5
52
100
AcDbEntity
8
SK1
62
256
6
ByLayer
370
-1
48
1
60
0
100
AcDbLine
10
-171.32
20
-9.49125
30
0
11
-170.82
21
-9.99125
31
0
39
0
210
0
220
0
230
1
0
LINE
5
53
100
AcDbEntity
8
1
62
256
6
ByLayer
370
-1
48
1
60
0
100
AcDbLine
10
0
20
-9.99125
30
0
11
64.627558
21
-9.99125
31
0
39
0
210
0
220
0
230
1
0
LINE
5
54
100
AcDbEntity
8
1
62
256
6
ByLayer
370
-1
48
1
60
0
100
AcDbLine
10
64.627558
20
9.99125
30
0
11
0
21
9.99125
31
0
39
0
210
0
220
0
230
1
0
LINE
5
55
100
AcDbEntity
8
1
62
256
6
ByLayer
370
-1
48
1
60
0
100
AcDbLine
10
64.627558
20
-9.99125
30
0
11
64.702558
21
-9.91625
31
0
39
0
210
0
220
0
230
1
0
LINE
5
56
100
AcDbEntity
8
1
62
256
6
ByLayer
370
-1
48
1
60
0
100
AcDbLine
10
64.702558
20
9.91625
30
0
11
64.627558
21
9.99125
31
0
39
0
210
0
220
0
230
1
0
LINE
5
57
100
AcDbEntity
8
1
62
256
6
ByLayer
370
-1
48
1
60
0
100
AcDbLine
10
66.546021
20
9.91625
30
0
11
64.702558
21
9.91625
31
0
39
0
210
0
220
0
230
1
0
LINE
5
58
100
AcDbEntity
8
1
62
256
6
ByLayer
370
-1
48
1
60
0
100
AcDbLine
10
64.702558
20
-9.91625
30
0
11
65.908303
21
-9.91625
31
0
39
0
210
0
220
0
230
1
0
LINE
5
59
100
AcDbEntity
8
1
62
256
6
ByLayer
370
-1
48
1
60
0
100
AcDbLine
10
76.971655
20
5.480423
30
0
11
76.968063
21
5.411888
31
0
39
0
210
0
220
0
230
1
0
LINE
5
5A
100
AcDbEntity
8
1
62
256
6
ByLayer
370
-1
48
1
60
0
100
AcDbLine
10
78.017959
20
5.71565
30
0
11
78.021018
21
5.774028
31
0
39
0
210
0
220
0
230
1
0
LINE
5
5B
100
AcDbEntity
8
1
62
256
6
ByLayer
370
-1
48
1
60
0
100
AcDbLine
10
74.575746
20
5.954587
30
0
11
74.572687
21
5.896209
31
0
39
0
210
0
220
0
230
1
0
LINE
5
5C
100
AcDbEntity
8
1
62
256
6
ByLayer
370
-1
48
1
60
0
100
AcDbLine
10
76.779728
20
6.63645
30
0
11
76.775827
21
6.56201
31
0
39
0
210
0
220
0
230
1
0
LINE
5
5D
100
AcDbEntity
8
1
62
256
6
ByLayer
370
-1
48
1
60
0
100
AcDbLine
10
75.62174
20
6.183889
30
0
11
75.625332
21
6.252415
31
0
39
0
210
0
220
0
230
1
0
LINE
5
5E
100
AcDbEntity
8
81
62
256
6
ByLayer
370
-1
48
1
60
0
100
AcDbLine
10
79.93
20
14.9
30
0
11
89.93
21
14.9
31
0
39
0
210
0
220
0
230
1
0
LINE
5
5F
100
AcDbEntity
8
SK4
62
256
6
ByLayer
370
-1
48
0.05
60
0
100
AcDbLine
10
-176.32
20
0
30
0
11
84.716987
21
0
31
0
39
0
210
0
220
0
230
1
0
LINE
5
61
100
AcDbEntity
8
4
62
256
6
ByLayer
370
-1
48
0.05
60
0
100
AcDbLine
10
0
20
0
30
0
11
84.716987
21
0
31
0
39
0
210
0
220
0
230
1
0
LINE
5
63
100
AcDbEntity
8
1
62
256
6
ByLayer
370
-1
48
1
60
0
100
AcDbLine
10
78.901618
20
3.506942
30
0
11
78.567152
21
3.631638
31
0
39
0
210
0
220
0
230
1
0
LINE
5
64
100
AcDbEntity
8
1
62
256
6
ByLayer
370
-1
48
1
60
0
100
AcDbLine
10
64.702558
20
-9.39192
30
0
11
64.702558
21
-9.91625
31
0
39
0
210
0
220
0
230
1
0
LINE
5
65
100
AcDbEntity
8
1
62
256
6
ByLayer
370
-1
48
1
60
0
100
AcDbLine
10
64.702558
20
9.91625
30
0
11
64.702558
21
9.909847
31
0
39
0
210
0
220
0
230
1
0
LINE
5
66
100
AcDbEntity
8
1
62
256
6
ByLayer
370
-1
48
1
60
0
100
AcDbLine
10
79.198195
20
3.874051
30
0
11
79.173641
21
3.405534
31
0
39
0
210
0
220
0
230
1
0
LINE
5
67
100
AcDbEntity
8
1
62
256
6
ByLayer
370
-1
48
1
60
0
100
AcDbLine
10
67.056734
20
-9.609451
30
0
11
71.829747
21
-8.334357
31
0
39
0
210
0
220
0
230
1
0
LINE
5
68
100
AcDbEntity
8
1
62
256
6
ByLayer
370
-1
48
1
60
0
100
AcDbLine
10
72.783532
20
5.787916
30
0
11
72.783532
21
5.787908
31
0
39
0
210
0
220
0
230
1
0
LINE
5
69
100
AcDbEntity
8
1
62
256
6
ByLayer
370
-1
48
1
60
0
100
AcDbLine
10
0
20
-0.233436
30
0
11
0
21
0.233436
31
0
39
0
210
0
220
0
230
1
0
LINE
5
6A
100
AcDbEntity
8
1
62
256
6
ByLayer
370
-1
48
1
60
0
100
AcDbLine
10
71.647912
20
-1.254396
30
0
11
72.441013
21
-0.242466
31
0
39
0
210
0
220
0
230
1
0
LINE
5
6B
100
AcDbEntity
8
1
62
256
6
ByLayer
370
-1
48
1
60
0
100
AcDbLine
10
72.441017
20
-0.24246
30
0
11
72.441016
21
-0.242468
31
0
39
0
210
0
220
0
230
1
0
LINE
5
6C
100
AcDbEntity
8
1
62
256
6
ByLayer
370
-1
48
1
60
0
100
AcDbLine
10
67.055437
20
9.427701
30
0
11
71.829747
21
-8.334357
31
0
39
0
210
0
220
0
230
1
0
LINE
5
6D
100
AcDbEntity
8
1
62
256
6
ByLayer
370
-1
48
1
60
0
100
AcDbLine
10
65.908303
20
-9.91625
30
0
11
67.056734
21
-9.609451
31
0
39
0
210
0
220
0
230
1
0
LINE
5
6E
100
AcDbEntity
8
1
62
256
6
ByLayer
370
-1
48
1
60
0
100
AcDbLine
10
73.108664
20
5.666691
30
0
11
72.783532
21
5.787908
31
0
39
0
210
0
220
0
230
1
0
LINE
5
6F
100
AcDbEntity
8
1
62
256
6
ByLayer
370
-1
48
1
60
0
100
AcDbLine
10
0
20
-9.99125
30
0
11
0
21
-0.233436
31
0
39
0
210
0
220
0
230
1
0
LINE
5
70
100
AcDbEntity
8
1
62
256
6
ByLayer
370
-1
48
1
60
0
100
AcDbLine
10
0
20
0.233436
30
0
11
0
21
9.99125
31
0
39
0
210
0
220
0
230
1
0
LINE
5
71
100
AcDbEntity
8
1
62
256
6
ByLayer
370
-1
48
1
60
0
100
AcDbLine
10
71.647912
20
-1.254396
30
0
11
71.640959
21
-1.387068
31
0
39
0
210
0
220
0
230
1
0
LINE
5
72
100
AcDbEntity
8
1
62
256
6
ByLayer
370
-1
48
1
60
0
100
AcDbLine
10
78.901618
20
3.50695
30
0
11
79.173641
21
3.405533
31
0
39
0
210
0
220
0
230
1
0
LINE
5
73
100
AcDbEntity
8
1
62
256
6
ByLayer
370
-1
48
1
60
0
100
AcDbLine
10
52.880782
20
0.233436
30
0
11
0
21
0.233436
31
0
39
0
210
0
220
0
230
1
0
LINE
5
74
100
AcDbEntity
8
1
62
256
6
ByLayer
370
-1
48
1
60
0
100
AcDbLine
10
79.173641
20
3.405533
30
0
11
78.653921
21
-6.511303
31
0
39
0
210
0
220
0
230
1
0
LINE
5
75
100
AcDbEntity
8
1
62
256
6
ByLayer
370
-1
48
1
60
0
100
AcDbLine
10
69.385504
20
7.105156
30
0
11
67.055437
21
9.427701
31
0
39
0
210
0
220
0
230
1
0
LINE
5
76
100
AcDbEntity
8
1
62
256
6
ByLayer
370
-1
48
1
60
0
100
AcDbLine
10
72.818971
20
0.23977
30
0
11
72.824343
21
0.241431
31
0
39
0
210
0
220
0
230
1
0
LINE
5
77
100
AcDbEntity
8
1
62
256
6
ByLayer
370
-1
48
1
60
0
100
AcDbLine
10
72.817671
20
0.114318
30
0
11
71.640959
21
-1.387068
31
0
39
0
210
0
220
0
230
1
0
LINE
5
78
100
AcDbEntity
8
1
62
256
6
ByLayer
370
-1
48
1
60
0
100
AcDbLine
10
0
20
-0.233436
30
0
11
53.029981
21
-0.233436
31
0
39
0
210
0
220
0
230
1
0
LINE
5
79
100
AcDbEntity
8
1
62
256
6
ByLayer
370
-1
48
1
60
0
100
AcDbLine
10
72.887344
20
1.443551
30
0
11
72.818971
21
0.23977
31
0
39
0
210
0
220
0
230
1
0
LINE
5
7A
100
AcDbEntity
8
1
62
256
6
ByLayer
370
-1
48
1
60
0
100
AcDbLine
10
71.829747
20
-8.334357
30
0
11
78.653921
21
-6.511303
31
0
39
0
210
0
220
0
230
1
0
LINE
5
7B
100
AcDbEntity
8
1
62
256
6
ByLayer
370
-1
48
1
60
0
100
AcDbLine
10
78.901618
20
3.50695
30
0
11
73.782728
21
-3.024326
31
0
39
0
210
0
220
0
230
1
0
LINE
5
7C
100
AcDbEntity
8
1
62
256
6
ByLayer
370
-1
48
1
60
0
100
AcDbLine
10
72.818971
20
0.23977
30
0
11
72.441016
21
-0.242468
31
0
39
0
210
0
220
0
230
1
0
LINE
5
7D
100
AcDbEntity
8
1
62
256
6
ByLayer
370
-1
48
1
60
0
100
AcDbLine
10
64.627558
20
-9.456864
30
0
11
64.627558
21
-9.99125
31
0
39
0
210
0
220
0
230
1
0
LINE
5
7E
100
AcDbEntity
8
1
62
256
6
ByLayer
370
-1
48
1
60
0
100
AcDbLine
10
64.627558
20
9.99125
30
0
11
64.627558
21
9.984885
31
0
39
0
210
0
220
0
230
1
0
LINE
5
7F
100
AcDbEntity
8
1
62
256
6
ByLayer
370
-1
48
1
60
0
100
AcDbLine
10
72.783532
20
5.787908
30
0
11
72.441016
21
-0.242468
31
0
39
0
210
0
220
0
230
1
0
LINE
5
80
100
AcDbEntity
8
1
62
256
6
ByLayer
370
-1
48
1
60
0
100
AcDbLine
10
72.441016
20
-0.242468
30
0
11
72.783532
21
5.787916
31
0
39
0
210
0
220
0
230
1
0
LINE
5
81
100
AcDbEntity
8
1
62
256
6
ByLayer
370
-1
48
1
60
0
100
AcDbLine
10
72.267101
20
5.980454
30
0
11
72.783532
21
5.787916
31
0
39
0
210
0
220
0
230
1
0
LINE
5
82
100
AcDbEntity
8
SK1
62
256
6
ByLayer
370
-1
48
1
60
0
100
AcDbLine
10
0
20
0.233436
30
0
11
-60.07
21
0.233436
31
0
39
0
210
0
220
0
230
1
0
LINE
5
83
100
AcDbEntity
8
SK1
62
256
6
ByLayer
370
-1
48
1
60
0
100
AcDbLine
10
0
20
-9.99125
30
0
11
0
21
-0.233436
31
0
39
0
210
0
220
0
230
1
0
LINE
5
84
100
AcDbEntity
8
SK1
62
256
6
ByLayer
370
-1
48
1
60
0
100
AcDbLine
10
0
20
0.233436
30
0
11
0
21
9.99125
31
0
39
0
210
0
220
0
230
1
0
LINE
5
85
100
AcDbEntity
8
SK1
62
256
6
ByLayer
370
-1
48
1
60
0
100
AcDbLine
10
-60.07
20
-0.233436
30
0
11
-60.07
21
0.233436
31
0
39
0
210
0
220
0
230
1
0
LINE
5
86
100
AcDbEntity
8
SK1
62
256
6
ByLayer
370
-1
48
1
60
0
100
AcDbLine
10
0
20
-0.233436
30
0
11
0
21
0.233436
31
0
39
0
210
0
220
0
230
1
0
LINE
5
87
100
AcDbEntity
8
SK1
62
256
6
ByLayer
370
-1
48
1
60
0
100
AcDbLine
10
-60.07
20
-0.233436
30
0
11
0
21
-0.233436
31
0
39
0
210
0
220
0
230
1
0
LINE
5
88
100
AcDbEntity
8
SK1
62
256
6
ByLayer
370
-1
48
1
60
0
100
AcDbLine
10
-170.82
20
-9.99125
30
0
11
-170.82
21
9.99125
31
0
39
0
210
0
220
0
230
1
0
LINE
5
89
100
AcDbEntity
8
SK1
62
256
6
ByLayer
370
-1
48
1
60
0
100
AcDbLine
10
-171.32
20
-9.49125
30
0
11
-171.32
21
9.49125
31
0
39
0
210
0
220
0
230
1
0
LINE
5
8A
100
AcDbEntity
8
1
62
256
6
ByLayer
370
-1
48
1
60
0
100
AcDbLine
10
75.58837
20
6.099667
30
0
11
75.584854
21
6.032587
31
0
39
0
210
0
220
0
230
1
0
LINE
5
8B
100
AcDbEntity
8
1
62
256
6
ByLayer
370
-1
48
1
60
0
100
AcDbLine
10
75.604608
20
6.085271
30
0
11
75.608124
21
6.152351
31
0
39
0
210
0
220
0
230
1
0
LINE
5
8C
100
AcDbEntity
8
1
62
256
6
ByLayer
370
-1
48
1
60
0
100
AcDbLine
10
77.004072
20
5.218621
30
0
11
77.007998
21
5.293534
31
0
39
0
210
0
220
0
230
1
0
LINE
5
8D
100
AcDbEntity
8
1
62
256
6
ByLayer
370
-1
48
1
60
0
100
AcDbLine
10
77.152646
20
6.121661
30
0
11
77.156573
21
6.1966
31
0
39
0
210
0
220
0
230
1
0
LINE
5
8E
100
AcDbEntity
8
1
62
256
6
ByLayer
370
-1
48
1
60
0
100
AcDbLine
10
76.442994
20
6.700174
30
0
11
76.446922
21
6.775113
31
0
39
0
210
0
220
0
230
1
0
LINE
5
8F
100
AcDbEntity
8
1
62
256
6
ByLayer
370
-1
48
1
60
0
100
AcDbLine
10
75.860573
20
6.603376
30
0
11
75.8645
21
6.678315
31
0
39
0
210
0
220
0
230
1
0
LINE
5
90
100
AcDbEntity
8
1
62
256
6
ByLayer
370
-1
48
1
60
0
100
AcDbLine
10
75.378568
20
5.824648
30
0
11
75.382494
21
5.89956
31
0
39
0
210
0
220
0
230
1
0
LINE
5
91
100
AcDbEntity
8
1
62
256
6
ByLayer
370
-1
48
1
60
0
100
AcDbLine
10
73.257767
20
7.140257
30
0
11
79.220348
21
14.748013
31
0
39
0
210
0
220
0
230
1
0
LINE
5
92
100
AcDbEntity
8
2
62
256
6
ByLayer
370
-1
48
1
60
1
100
AcDbLine
10
79.93
20
0
30
0
11
79.931
21
0.001
31
0
39
0
210
0
220
0
230
1
0
MTEXT
5
E5
100
AcDbEntity
8
SK6
62
256
6
ByLayer
370
-1
48
1
60
0
100
AcDbMText
10
-42.32
20
-23.320625
30
0
210
0
220
0
230
1
1
\W00.760;\fsimplex.shx,bigfont.shx;A20S-SVUBR 11-ERB1 
40
3.5
41
0
44
1.084337
50
0
71
7
72
5
7
DEFAULT
0
DIMENSION
5
118
100
AcDbEntity
8
2
62
256
6
ByLayer
370
-3
48
1
60
0
100
AcDbDimension
2
DimnDraft3D1
10
92.18
20
0
30
0
11
92.18
21
2.849342
31
0
70
32
71
5
72
1
41
1
210
0
220
0
230
1
3
Standard
100
AcDbAlignedDimension
13
81.93
23
14.9
33
0
14
81.93
24
0
34
0
50
90
100
AcDbRotatedDimension
1001
ACAD
1000
DSTYLE
1002
{
1070
    74
1070
     0
1070
   279
1070
     0
1070
   172
1070
     1
1070
   173
1070
     1
1070
   340
1005
E6
1070
    77
1070
     1
1070
    73
1070
     0
1070
   171
1070
     4
1070
   274
1070
     4
1070
   177
1070
     2
1070
   176
1070
     2
1070
   178
1070
     7
1070
    78
1070
     8
1070
    41
1041
3.175
1070
   147
1041
2.25
1070
    42
1041
2.0
1070
    44
1041
2.0
1070
   140
1041
4.5
1070
   343
1005
119
1070
   344
1005
119
1002
}
0
DIMENSION
5
12E
100
AcDbEntity
8
SK2
62
256
6
ByLayer
370
-3
48
1
60
0
100
AcDbDimension
2
DimnDraft3D2
10
-181.07
20
9.99125
30
0
11
-181.07
21
-4.784211
31
0
70
32
71
5
72
1
41
1
210
0
220
0
230
1
3
Standard
100
AcDbAlignedDimension
13
-173.32
23
-9.99125
33
0
14
-173.32
24
9.99125
34
0
50
90
100
AcDbRotatedDimension
1001
ACAD
1000
DSTYLE
1002
{
1070
    74
1070
     0
1070
   279
1070
     0
1070
   172
1070
     1
1070
   173
1070
     1
1070
   340
1005
E6
1070
    77
1070
     1
1070
    73
1070
     0
1070
   171
1070
     4
1070
   274
1070
     4
1070
   177
1070
     2
1070
   176
1070
     2
1070
   178
1070
     7
1070
    78
1070
     8
1070
    41
1041
3.175
1070
   147
1041
2.25
1070
    42
1041
2.0
1070
    44
1041
2.0
1070
   140
1041
4.5
1070
   343
1005
119
1070
   344
1005
119
1002
}
0
DIMENSION
5
13C
100
AcDbEntity
8
SK2
62
256
6
ByLayer
370
-3
48
1
60
0
100
AcDbDimension
2
DimnDraft3D3
10
-171.32
20
27.65
30
0
11
-52.510132
21
27.65
31
0
70
32
71
5
72
1
41
1
210
0
220
0
230
1
3
Standard
100
AcDbAlignedDimension
13
79.93
23
16.9
33
0
14
-171.32
24
11.99125
34
0
50
0
100
AcDbRotatedDimension
1001
ACAD
1000
DSTYLE
1002
{
1070
   279
1070
     0
1070
   172
1070
     1
1070
   173
1070
     1
1070
   340
1005
E6
1070
    77
1070
     1
1070
    73
1070
     0
1070
   171
1070
     4
1070
   274
1070
     4
1070
   177
1070
     2
1070
   176
1070
     2
1070
   178
1070
     7
1070
    78
1070
     8
1070
    41
1041
3.175
1070
   147
1041
2.25
1070
    42
1041
2.0
1070
    44
1041
2.0
1070
   140
1041
4.5
1070
   343
1005
119
1070
   344
1005
119
1002
}
0
DIMENSION
5
14A
100
AcDbEntity
8
2
62
256
6
ByLayer
370
-3
48
1
60
0
100
AcDbDimension
2
DimnDraft3D4
10
128.075531
20
0
30
0
11
105.280935
21
-36.792664
31
0
70
34
71
5
72
1
41
1
210
0
220
0
230
1
3
Standard
100
AcDb2LineAngularDimension
13
79.249633
23
1.917816
33
0
14
76.588514
24
-48.859355
34
0
15
81.93
25
0
35
0
16
108.353535
26
-30.775028
36
0
40
0
0
ENDSEC
0
SECTION
2
OBJECTS
0
DICTIONARY
5
17b
330
0
100
AcDbDictionary
280
0
281
1
3
ACAD_GROUP
350
17c
3
ACAD_MLINESTYLE
350
17d
0
DICTIONARY
5
17c
330
0
100
AcDbDictionary
280
0
281
1
0
DICTIONARY
5
17d
330
0
100
AcDbDictionary
280
0
281
1
3
Standard
350
18
0
MLINESTYLE
5
18
330
17d
100
AcDbMlineStyle
2
Standard
70
0
3

62
256
51
90
52
90
71
2
49
-0.5
62
256
6
ByLayer
49
0.5
62
256
6
ByLayer
0
RASTERVARIABLES
5
169
330

100
AcDbRasterVariables
90
0
70
1
71
1
72
1
0
ENDSEC
0
EOF
