0
SECTION
2
HEADER
9
$ACADVER
1
AC1015
9
$DWGCODEPAGE
3
ANSI_1252
9
$HANDSEED
5
17e
9
$ANGBASE
50
0
9
$ANGDIR
70
0
9
$ATTMODE
70
1
9
$AUNITS
70
0
9
$AUPREC
70
0
9
$CECOLOR
62
256
9
$CELTSCALE
40
1
9
$CELTYPE
6
ByLayer
9
$CELWEIGHT
370
-1
9
$CLAYER
8
0
9
$CMLJUST
70
0
9
$CMLSCALE
40
1
9
$CMLSTYLE
2
Standard
9
$DIMSTYLE
2
Standard
9
$TEXTSIZE
40
0.2
9
$TEXTSTYLE
7
Standard
9
$LUNITS
70
2
9
$LUPREC
70
4
9
$EXTNAMES
290
1
9
$INSUNITS
70
4
9
$LTSCALE
40
1
9
$LWDISPLAY
290
0
9
$PDMODE
70
0
9
$PDSIZE
40
0
9
$PLINEGEN
70
0
0
ENDSEC
0
SECTION
2
CLASSES
0
CLASS
1
RASTERVARIABLES
2
AcDbRasterVariables
3
ISM
90
0
280
0
281
0
0
ENDSEC
0
SECTION
2
TABLES
0
TABLE
2
VPORT
5
174
100
AcDbSymbolTable
0
VPORT
5
1
100
AcDbSymbolTableRecord
100
AcDbViewportTableRecord
2
*Active
70
0
10
0
20
0
11
1
21
1
12
-1
22
1
13
0
23
0
14
0.5
24
0.5
15
10
25
10
16
0
26
0
36
1
17
0
27
0
37
0
0
ENDTAB
0
TABLE
2
LTYPE
5
175
100
AcDbSymbolTable
0
LTYPE
5
14
100
AcDbSymbolTableRecord
100
AcDbLinetypeTableRecord
70
0
2
ByBlock
3

72
65
73
0
40
0
0
LTYPE
5
15
100
AcDbSymbolTableRecord
100
AcDbLinetypeTableRecord
70
0
2
ByLayer
3

72
65
73
0
40
0
0
LTYPE
5
16
100
AcDbSymbolTableRecord
100
AcDbLinetypeTableRecord
70
0
2
CONTINUOUS
3
Solid line
72
65
73
0
40
0
0
LTYPE
5
3B
100
AcDbSymbolTableRecord
100
AcDbLinetypeTableRecord
70
0
2
DASHED
3
__ __ __ __ __ __ __ __ __
72
65
73
2
40
25.72
49
12.86
74
0
49
-12.86
74
0
0
LTYPE
5
3C
100
AcDbSymbolTableRecord
100
AcDbLinetypeTableRecord
70
0
2
HIDDEN
3
_ _ _ _ _ _ _ _ _ _ _ _ _ _ _
72
65
73
2
40
0.5
49
0.25
74
0
49
-0.25
74
0
0
LTYPE
5
3D
100
AcDbSymbolTableRecord
100
AcDbLinetypeTableRecord
70
0
2
PHANTOM
3
____ _ _ ____ _ _ _____ _ _ ____
72
65
73
6
40
50.5
49
18
74
0
49
-6.5
74
0
49
6.5
74
0
49
-6.5
74
0
49
6.5
74
0
49
-6.5
74
0
0
LTYPE
5
3E
100
AcDbSymbolTableRecord
100
AcDbLinetypeTableRecord
70
0
2
CENTER
3
____ _ ____ _ ____ _ ____
72
65
73
4
40
47.5
49
22
74
0
49
-8.5
74
0
49
8.5
74
0
49
-8.5
74
0
0
LTYPE
5
3F
100
AcDbSymbolTableRecord
100
AcDbLinetypeTableRecord
70
0
2
DOT
3
.........................
72
65
73
2
40
10
49
0
74
0
49
-10
74
0
0
LTYPE
5
40
100
AcDbSymbolTableRecord
100
AcDbLinetypeTableRecord
70
0
2
DASHDOT
3
_._._._._._._._._._._._._._._._.
72
65
73
4
40
70
49
31
74
0
49
-13
74
0
49
13
74
0
49
-13
74
0
0
ENDTAB
0
TABLE
2
LAYER
5
176
100
AcDbSymbolTable
0
LAYER
5
10
100
AcDbSymbolTableRecord
100
AcDbLayerTableRecord
2
0
70
0
62
7
6
CONTINUOUS
290
1
370
-3
390
0
0
LAYER
5
42
100
AcDbSymbolTableRecord
100
AcDbLayerTableRecord
2
80
70
0
62
-6
6
CONTINUOUS
290
1
370
-3
390
0
0
LAYER
5
44
100
AcDbSymbolTableRecord
100
AcDbLayerTableRecord
2
81
70
0
62
-3
6
CONTINUOUS
290
1
370
-3
390
0
0
LAYER
5
46
100
AcDbSymbolTableRecord
100
AcDbLayerTableRecord
2
1
70
0
62
4
6
CONTINUOUS
290
1
370
-3
390
0
0
LAYER
5
48
100
AcDbSymbolTableRecord
100
AcDbLayerTableRecord
2
2
70
0
62
7
6
CONTINUOUS
290
1
370
-3
390
0
0
LAYER
5
4F
100
AcDbSymbolTableRecord
100
AcDbLayerTableRecord
2
4
70
0
62
-2
6
CENTER
290
1
370
-3
390
0
0
LAYER
5
160
100
AcDbSymbolTableRecord
100
AcDbLayerTableRecord
2
SK4
70
0
62
2
6
CENTER
290
1
370
-3
390
0
0
LAYER
5
161
100
AcDbSymbolTableRecord
100
AcDbLayerTableRecord
2
SK1
70
0
62
4
6
CONTINUOUS
290
1
370
-3
390
0
0
LAYER
5
162
100
AcDbSymbolTableRecord
100
AcDbLayerTableRecord
2
SK6
70
0
62
5
6
CONTINUOUS
290
1
370
-3
390
0
0
LAYER
5
163
100
AcDbSymbolTableRecord
100
AcDbLayerTableRecord
2
SK2
70
0
62
7
6
CONTINUOUS
290
1
370
-3
390
0
0
ENDTAB
0
TABLE
2
STYLE
5
177
100
AcDbSymbolTable
0
STYLE
5
11
100
AcDbSymbolTableRecord
100
AcDbTextStyleTableRecord
2
Standard
3
txt
70
0
71
0
40
0
41
1
42
0
50
0
0
STYLE
5
DC
100
AcDbSymbolTableRecord
100
AcDbTextStyleTableRecord
2
DEFAULT
3
simplex.shx
70
0
71
0
40
0
41
1
42
0
50
0
0
STYLE
5
FF
100
AcDbSymbolTableRecord
100
AcDbTextStyleTableRecord
2
DWGDirectTextStyle
3
SIMPLEX
70
0
71
0
40
0
41
1
42
0
50
0
0
ENDTAB
0
TABLE
2
DIMSTYLE
5
178
100
AcDbSymbolTable
100
AcDbDimStyleTable
0
DIMSTYLE
105
27
100
AcDbSymbolTableRecord
100
AcDbDimStyleTableRecord
2
Standard
70
0
3
<>
41
0.18
42
0.0625
44
0.18
140
0.18
147
0.09
73
0
74
0
77
1
271
2
275
0
278
52
280
0
340
11
0
ENDTAB
0
TABLE
2
VIEW
5
179
100
AcDbSymbolTable
0
ENDTAB
0
TABLE
2
UCS
5
17a
100
AcDbSymbolTable
0
ENDTAB
0
TABLE
2
APPID
5
17b
100
AcDbSymbolTable
0
APPID
5
12
100
AcDbSymbolTableRecord
100
AcDbRegAppTableRecord
2
ACAD
70
0
0
ENDTAB
0
TABLE
2
BLOCK_RECORD
5
17c
100
AcDbSymbolTable
0
BLOCK_RECORD
5
1F
100
AcDbSymbolTableRecord
100
AcDbBlockTableRecord
2
*Model_Space
340
0
70
0
0
BLOCK_RECORD
5
1B
100
AcDbSymbolTableRecord
100
AcDbBlockTableRecord
2
*Paper_Space
340
0
70
0
0
BLOCK_RECORD
5
23
100
AcDbSymbolTableRecord
100
AcDbBlockTableRecord
2
*Paper_Space0
340
0
70
0
0
BLOCK_RECORD
5
101
100
AcDbSymbolTableRecord
100
AcDbBlockTableRecord
2
DimnDraft3D1
340
0
70
0
0
BLOCK_RECORD
5
10F
100
AcDbSymbolTableRecord
100
AcDbBlockTableRecord
2
_CLOSED
340
0
70
0
0
BLOCK_RECORD
5
116
100
AcDbSymbolTableRecord
100
AcDbBlockTableRecord
2
DimnDraft3D2
340
0
70
0
0
BLOCK_RECORD
5
125
100
AcDbSymbolTableRecord
100
AcDbBlockTableRecord
2
DimnDraft3D3
340
0
70
0
0
BLOCK_RECORD
5
133
100
AcDbSymbolTableRecord
100
AcDbBlockTableRecord
2
DimnDraft3D4
340
0
70
0
0
ENDTAB
0
ENDSEC
0
SECTION
2
BLOCKS
0
BLOCK
5
20
100
AcDbEntity
8
0
100
AcDbBlockBegin
2
*Model_Space
70
0
10
0
20
0
30
0
3
*Model_Space
0
ENDBLK
5
21
100
AcDbEntity
8
0
100
AcDbBlockEnd
0
BLOCK
5
1C
100
AcDbEntity
8
0
100
AcDbBlockBegin
2
*Paper_Space
70
0
10
0
20
0
30
0
3
*Paper_Space
0
ENDBLK
5
1D
100
AcDbEntity
8
0
100
AcDbBlockEnd
0
BLOCK
5
24
100
AcDbEntity
8
0
100
AcDbBlockBegin
2
*Paper_Space0
70
0
10
0
20
0
30
0
3
*Paper_Space0
0
ENDBLK
5
25
100
AcDbEntity
8
0
100
AcDbBlockEnd
0
BLOCK
5
10C
100
AcDbEntity
8
0
100
AcDbBlockBegin
2
DimnDraft3D1
70
0
10
0
20
0
30
0
3
DimnDraft3D1
0
MTEXT
5
102
100
AcDbEntity
8
2
62
256
6
ByLayer
370
-1
48
1
60
0
100
AcDbMText
10
91.055
20
-10.925658
30
0
210
0
220
0
230
1
1
\W01.000;\fsimplex.shx,bigfont.shx;15.0 
40
4.5
41
0
44
1.084337
50
90
71
7
72
5
7
DEFAULT
0
LINE
5
103
100
AcDbEntity
8
2
62
256
6
ByLayer
370
-1
48
1
60
0
100
AcDbLine
10
81.93
20
-14.9
30
0
11
94.18
21
-14.9
31
0
39
0
210
0
220
0
230
1
0
LINE
5
104
100
AcDbEntity
8
2
62
256
6
ByLayer
370
-1
48
1
60
0
100
AcDbLine
10
81.93
20
0
30
0
11
94.18
21
0
31
0
39
0
210
0
220
0
230
1
0
LINE
5
105
100
AcDbEntity
8
2
62
256
6
ByLayer
370
-1
48
1
60
0
100
AcDbLine
10
92.18
20
-26.15
30
0
11
92.18
21
11.25
31
0
39
0
210
0
220
0
230
1
0
LINE
5
106
100
AcDbEntity
8
2
62
256
6
ByLayer
370
-1
48
1
60
0
100
AcDbLine
10
92.18
20
-14.9
30
0
11
92.597997
21
-18.074998
31
0
39
0
210
0
220
0
230
1
0
LINE
5
107
100
AcDbEntity
8
2
62
256
6
ByLayer
370
-1
48
1
60
0
100
AcDbLine
10
92.18
20
-14.9
30
0
11
91.762003
21
-18.075002
31
0
39
0
210
0
220
0
230
1
0
LINE
5
108
100
AcDbEntity
8
2
62
256
6
ByLayer
370
-1
48
1
60
0
100
AcDbLine
10
92.597997
20
-18.074998
30
0
11
91.762003
21
-18.075002
31
0
39
0
210
0
220
0
230
1
0
LINE
5
109
100
AcDbEntity
8
2
62
256
6
ByLayer
370
-1
48
1
60
0
100
AcDbLine
10
92.18
20
0
30
0
11
91.762003
21
3.174998
31
0
39
0
210
0
220
0
230
1
0
LINE
5
10A
100
AcDbEntity
8
2
62
256
6
ByLayer
370
-1
48
1
60
0
100
AcDbLine
10
92.18
20
0
30
0
11
92.597997
21
3.175002
31
0
39
0
210
0
220
0
230
1
0
LINE
5
10B
100
AcDbEntity
8
2
62
256
6
ByLayer
370
-1
48
1
60
0
100
AcDbLine
10
91.762003
20
3.174998
30
0
11
92.597997
21
3.175002
31
0
39
0
210
0
220
0
230
1
0
ENDBLK
5
10D
100
AcDbEntity
8
0
100
AcDbBlockEnd
0
BLOCK
5
110
100
AcDbEntity
8
0
100
AcDbBlockBegin
2
_CLOSED
70
0
10
0
20
0
30
0
3
_CLOSED
0
LINE
5
112
100
AcDbEntity
8
0
62
256
6
ByLayer
370
-2
48
1
60
0
100
AcDbLine
10
-1
20
0.166667
30
0
11
0
21
0
31
0
39
0
210
0
220
0
230
1
0
LINE
5
113
100
AcDbEntity
8
0
62
256
6
ByLayer
370
-2
48
1
60
0
100
AcDbLine
10
0
20
0
30
0
11
-1
21
-0.166667
31
0
39
0
210
0
220
0
230
1
0
LINE
5
114
100
AcDbEntity
8
0
62
256
6
ByLayer
370
-2
48
1
60
0
100
AcDbLine
10
-1
20
0.166667
30
0
11
-1
21
-0.166667
31
0
39
0
210
0
220
0
230
1
0
LINE
5
115
100
AcDbEntity
8
0
62
256
6
ByLayer
370
-2
48
1
60
0
100
AcDbLine
10
0
20
0
30
0
11
-1
21
0
31
0
39
0
210
0
220
0
230
1
0
ENDBLK
5
111
100
AcDbEntity
8
0
100
AcDbBlockEnd
0
BLOCK
5
122
100
AcDbEntity
8
0
100
AcDbBlockBegin
2
DimnDraft3D2
70
0
10
0
20
0
30
0
3
DimnDraft3D2
0
MTEXT
5
117
100
AcDbEntity
8
SK2
62
256
6
ByLayer
370
-1
48
1
60
0
100
AcDbMText
10
-182.195
20
-3.659211
30
0
210
0
220
0
230
1
1
\W01.000;\fsimplex.shx,bigfont.shx;%%c20 
40
4.5
41
0
44
1.084337
50
90
71
7
72
5
7
DEFAULT
0
LINE
5
119
100
AcDbEntity
8
SK2
62
256
6
ByLayer
370
-1
48
1
60
0
100
AcDbLine
10
-173.32
20
-9.99125
30
0
11
-183.07
21
-9.99125
31
0
39
0
210
0
220
0
230
1
0
LINE
5
11A
100
AcDbEntity
8
SK2
62
256
6
ByLayer
370
-1
48
1
60
0
100
AcDbLine
10
-173.32
20
9.99125
30
0
11
-183.07
21
9.99125
31
0
39
0
210
0
220
0
230
1
0
LINE
5
11B
100
AcDbEntity
8
SK2
62
256
6
ByLayer
370
-1
48
1
60
0
100
AcDbLine
10
-181.07
20
-9.99125
30
0
11
-181.07
21
9.99125
31
0
39
0
210
0
220
0
230
1
0
LINE
5
11C
100
AcDbEntity
8
SK2
62
256
6
ByLayer
370
-1
48
1
60
0
100
AcDbLine
10
-181.07
20
-9.99125
30
0
11
-181.487997
21
-6.816252
31
0
39
0
210
0
220
0
230
1
0
LINE
5
11D
100
AcDbEntity
8
SK2
62
256
6
ByLayer
370
-1
48
1
60
0
100
AcDbLine
10
-181.07
20
-9.99125
30
0
11
-180.652003
21
-6.816248
31
0
39
0
210
0
220
0
230
1
0
LINE
5
11E
100
AcDbEntity
8
SK2
62
256
6
ByLayer
370
-1
48
1
60
0
100
AcDbLine
10
-181.487997
20
-6.816252
30
0
11
-180.652003
21
-6.816248
31
0
39
0
210
0
220
0
230
1
0
LINE
5
11F
100
AcDbEntity
8
SK2
62
256
6
ByLayer
370
-1
48
1
60
0
100
AcDbLine
10
-181.07
20
9.99125
30
0
11
-180.652003
21
6.816252
31
0
39
0
210
0
220
0
230
1
0
LINE
5
120
100
AcDbEntity
8
SK2
62
256
6
ByLayer
370
-1
48
1
60
0
100
AcDbLine
10
-181.07
20
9.99125
30
0
11
-181.487997
21
6.816248
31
0
39
0
210
0
220
0
230
1
0
LINE
5
121
100
AcDbEntity
8
SK2
62
256
6
ByLayer
370
-1
48
1
60
0
100
AcDbLine
10
-180.652003
20
6.816252
30
0
11
-181.487997
21
6.816248
31
0
39
0
210
0
220
0
230
1
0
ENDBLK
5
123
100
AcDbEntity
8
0
100
AcDbBlockEnd
0
BLOCK
5
130
100
AcDbEntity
8
0
100
AcDbBlockBegin
2
DimnDraft3D3
70
0
10
0
20
0
30
0
3
DimnDraft3D3
0
MTEXT
5
126
100
AcDbEntity
8
SK2
62
256
6
ByLayer
370
-1
48
1
60
0
100
AcDbMText
10
-51.385132
20
-31.025
30
0
210
0
220
0
230
1
1
\W01.000;\fsimplex.shx,bigfont.shx;250.0 
40
4.5
41
0
44
1.084337
50
0
71
7
72
5
7
DEFAULT
0
LINE
5
127
100
AcDbEntity
8
SK2
62
256
6
ByLayer
370
-1
48
1
60
0
100
AcDbLine
10
-171.32
20
-11.99125
30
0
11
-171.32
21
-34.15
31
0
39
0
210
0
220
0
230
1
0
LINE
5
128
100
AcDbEntity
8
SK2
62
256
6
ByLayer
370
-1
48
1
60
0
100
AcDbLine
10
79.93
20
-16.9
30
0
11
79.93
21
-34.15
31
0
39
0
210
0
220
0
230
1
0
LINE
5
129
100
AcDbEntity
8
SK2
62
256
6
ByLayer
370
-1
48
1
60
0
100
AcDbLine
10
-171.32
20
-32.15
30
0
11
79.93
21
-32.15
31
0
39
0
210
0
220
0
230
1
0
LINE
5
12A
100
AcDbEntity
8
SK2
62
256
6
ByLayer
370
-1
48
1
60
0
100
AcDbLine
10
-171.32
20
-32.15
30
0
11
-168.145002
21
-31.732003
31
0
39
0
210
0
220
0
230
1
0
LINE
5
12B
100
AcDbEntity
8
SK2
62
256
6
ByLayer
370
-1
48
1
60
0
100
AcDbLine
10
-171.32
20
-32.15
30
0
11
-168.144998
21
-32.567997
31
0
39
0
210
0
220
0
230
1
0
LINE
5
12C
100
AcDbEntity
8
SK2
62
256
6
ByLayer
370
-1
48
1
60
0
100
AcDbLine
10
-168.145002
20
-31.732003
30
0
11
-168.144998
21
-32.567997
31
0
39
0
210
0
220
0
230
1
0
LINE
5
12D
100
AcDbEntity
8
SK2
62
256
6
ByLayer
370
-1
48
1
60
0
100
AcDbLine
10
79.93
20
-32.15
30
0
11
76.755002
21
-32.567997
31
0
39
0
210
0
220
0
230
1
0
LINE
5
12E
100
AcDbEntity
8
SK2
62
256
6
ByLayer
370
-1
48
1
60
0
100
AcDbLine
10
79.93
20
-32.15
30
0
11
76.754998
21
-31.732003
31
0
39
0
210
0
220
0
230
1
0
LINE
5
12F
100
AcDbEntity
8
SK2
62
256
6
ByLayer
370
-1
48
1
60
0
100
AcDbLine
10
76.755002
20
-32.567997
30
0
11
76.754998
21
-31.732003
31
0
39
0
210
0
220
0
230
1
0
ENDBLK
5
131
100
AcDbEntity
8
0
100
AcDbBlockEnd
0
BLOCK
5
13E
100
AcDbEntity
8
0
100
AcDbBlockBegin
2
DimnDraft3D4
70
0
10
0
20
0
30
0
3
DimnDraft3D4
0
MTEXT
5
134
100
AcDbEntity
8
2
62
256
6
ByLayer
370
-1
48
1
60
0
100
AcDbMText
10
102.224987
20
31.938034
30
0
210
0
220
0
230
1
1
\W01.000;\fsimplex.shx,bigfont.shx;93%%d0' 
40
4.5
41
0
44
1.084337
50
316.5
71
7
72
5
7
DEFAULT
0
LINE
5
135
100
AcDbEntity
8
2
62
256
6
ByLayer
370
-1
48
1
60
0
100
AcDbLine
10
79.249633
20
-1.917816
30
0
11
77.059537
21
39.871689
31
0
39
0
210
0
220
0
230
1
0
LINE
5
136
100
AcDbEntity
8
2
62
256
6
ByLayer
370
-1
48
1
60
0
100
AcDbLine
10
81.93
20
0
30
0
11
119.075531
21
0
31
0
39
0
210
0
220
0
230
1
0
ARC
5
137
100
AcDbEntity
8
2
62
256
6
ByLayer
370
-1
48
1
60
0
100
AcDbCircle
39
0
10
79.149124
20
0
30
0
40
37.9264068640928
210
0
220
0
230
1
100
AcDbArc
50
0
51
93
0
LINE
5
138
100
AcDbEntity
8
2
62
256
6
ByLayer
370
-1
48
1
60
0
100
AcDbLine
10
77.164209
20
37.87443
30
0
11
80.324497
21
38.392036
31
0
39
0
210
0
220
0
230
1
0
LINE
5
139
100
AcDbEntity
8
2
62
256
6
ByLayer
370
-1
48
1
60
0
100
AcDbLine
10
77.164209
20
37.87443
30
0
11
80.350783
21
37.556456
31
0
39
0
210
0
220
0
230
1
0
LINE
5
13A
100
AcDbEntity
8
2
62
256
6
ByLayer
370
-1
48
1
60
0
100
AcDbLine
10
80.324497
20
38.392036
30
0
11
80.350783
21
37.556456
31
0
39
0
210
0
220
0
230
1
0
LINE
5
13B
100
AcDbEntity
8
2
62
256
6
ByLayer
370
-1
48
1
60
0
100
AcDbLine
10
117.075531
20
0
30
0
11
116.591221
21
3.165562
31
0
39
0
210
0
220
0
230
1
0
LINE
5
13C
100
AcDbEntity
8
2
62
256
6
ByLayer
370
-1
48
1
60
0
100
AcDbLine
10
117.075531
20
0
30
0
11
117.427031
21
3.183049
31
0
39
0
210
0
220
0
230
1
0
LINE
5
13D
100
AcDbEntity
8
2
62
256
6
ByLayer
370
-1
48
1
60
0
100
AcDbLine
10
116.591221
20
3.165562
30
0
11
117.427031
21
3.183049
31
0
39
0
210
0
220
0
230
1
0
ENDBLK
5
13F
100
AcDbEntity
8
0
100
AcDbBlockEnd
0
ENDSEC
0
SECTION
2
ENTITIES
0
ELLIPSE
5
8F
100
AcDbEntity
8
1
62
256
6
ByLayer
370
-1
48
1
60
0
100
AcDbEllipse
10
72.35203
20
2.573808
30
0
11
-1.49794430213186
21
-0.0785039343644173
31
0
210
0
220
0
230
1
40
0.996685
41
-2.88876858954591
42
1.03001670246285
0
ELLIPSE
5
90
100
AcDbEntity
8
1
62
256
6
ByLayer
370
-1
48
1
60
0
100
AcDbEllipse
10
72.352029
20
2.573816
30
0
11
-1.49794430213186
21
-0.0785039343644173
31
0
210
0
220
0
230
1
40
0.996685
41
2.9616226286013
42
-2.88876858954602
0
ELLIPSE
5
91
100
AcDbEntity
8
1
62
256
6
ByLayer
370
-1
48
1
60
0
100
AcDbEllipse
10
72.390258
20
1.844357
30
0
11
0.747321793217034
21
2.57133413512707
31
0
210
0
220
0
230
-1
40
0.480133
41
1.13364893184409
42
1.20243201454703
0
ELLIPSE
5
92
100
AcDbEntity
8
1
62
256
6
ByLayer
370
-1
48
1
60
0
100
AcDbEllipse
10
71.63529
20
-9.120712
30
0
11
-3.19561451121464
21
-0.167475059977424
31
0
210
0
220
0
230
1
40
0.996685
41
-2.11331268991959
42
-1.81466488319432
0
ELLIPSE
5
93
100
AcDbEntity
8
1
62
256
6
ByLayer
370
-1
48
1
60
0
100
AcDbEllipse
10
72.617165
20
-6.914412
30
0
11
0.998629534754575
21
0.0523359562429457
31
0
210
0
220
0
230
1
40
0.996685
41
1.8762289458939
42
2.2664854675101
0
ELLIPSE
5
94
100
AcDbEntity
8
1
62
256
6
ByLayer
370
-1
48
1
60
0
100
AcDbEllipse
10
82.097626
20
-5.220342
30
0
11
-3.19561451121462
21
-0.167475059977423
31
0
210
0
220
0
230
1
40
0.996685
41
-0.488979867887334
42
-0.362135557694189
0
ELLIPSE
5
95
100
AcDbEntity
8
1
62
256
6
ByLayer
370
-1
48
1
60
0
100
AcDbEllipse
10
72.411688
20
1.435462
30
0
11
1.5222368774467
21
-1.19645601658372
31
0
210
0
220
0
230
-1
40
0.278071
41
1.87305584968105
42
2.14550238928616
0
ELLIPSE
5
96
100
AcDbEntity
8
1
62
256
6
ByLayer
370
-1
48
1
60
0
100
AcDbEllipse
10
31.629304
20
-143.101133
30
0
11
65.1170018761016
21
242.241229056447
31
0
210
5.66993775627602E-31
220
2.60436403249364E-16
230
1
40
0.077382
41
0.937403246021098
42
0.981794666972472
0
ELLIPSE
5
97
100
AcDbEntity
8
1
62
256
6
ByLayer
370
-1
48
1
60
0
100
AcDbEllipse
10
72.338191
20
2.837872
30
0
11
1.49794430213186
21
0.0785039343644183
31
0
210
0
220
0
230
1
40
0.996685
41
-3.05304917661675
42
-1.35276064505358
0
ELLIPSE
5
98
100
AcDbEntity
8
1
62
256
6
ByLayer
370
-1
48
1
60
0
100
AcDbEllipse
10
72.338191
20
2.837872
30
0
11
1.49794430213186
21
0.0785039343644183
31
0
210
0
220
0
230
1
40
0.996685
41
-0.306315599339311
42
-0.0884658465527727
0
ELLIPSE
5
99
100
AcDbEntity
8
1
62
256
6
ByLayer
370
-1
48
1
60
0
100
AcDbEllipse
10
72.339468
20
2.813497
30
0
11
1.49794430213186
21
0.0785039343644182
31
0
210
0
220
0
230
1
40
0.996685
41
-2.38402249144639
42
-1.35282993895098
0
ELLIPSE
5
9A
100
AcDbEntity
8
1
62
256
6
ByLayer
370
-1
48
1
60
0
100
AcDbEllipse
10
72.339468
20
2.813497
30
0
11
1.49794430213186
21
0.0785039343644182
31
0
210
0
220
0
230
1
40
0.996685
41
-0.294492767405147
42
-0.190506219572855
0
ELLIPSE
5
9B
100
AcDbEntity
8
1
62
256
6
ByLayer
370
-1
48
1
60
0
100
AcDbEllipse
10
71.647851
20
-9.360401
30
0
11
-3.19561451121464
21
-0.167475059977424
31
0
210
0
220
0
230
1
40
0.996685
41
-1.7134938262958
42
-0.837758040957282
0
ELLIPSE
5
9C
100
AcDbEntity
8
1
62
256
6
ByLayer
370
-1
48
1
60
0
100
AcDbEllipse
10
76.299203
20
-5.879992
30
0
11
-1.90207913049532
21
-0.0996837432498797
31
0
210
0
220
0
230
1
40
0.996685
41
0
42
6.28318530717959
0
ELLIPSE
5
9D
100
AcDbEntity
8
1
62
256
6
ByLayer
370
-1
48
1
60
0
100
AcDbEllipse
10
73.570576
20
-6.897226
30
0
11
0.396331096605804
21
0.0207708326339234
31
0
210
0
220
0
230
1
40
0.996685
41
-3.14159265358978
42
-2.53072741539182
0
ELLIPSE
5
9E
100
AcDbEntity
8
1
62
256
6
ByLayer
370
-1
48
1
60
0
100
AcDbEllipse
10
73.065277
20
2.744454
30
0
11
0.396331096605749
21
0.0207708326339205
31
0
210
0
220
0
230
1
40
0.996685
41
0.610865238198272
42
-3.14159265358966
0
ELLIPSE
5
9F
100
AcDbEntity
8
1
62
256
6
ByLayer
370
-1
48
1
60
0
100
AcDbEllipse
10
76.296914
20
-5.836321
30
0
11
1.87864353036252
21
0.0984555354907559
31
0
210
0
220
0
230
1
40
0.996685
41
3.08905902436138
42
-9.47397676548336E-16
0
ELLIPSE
5
A0
100
AcDbEntity
8
1
62
256
6
ByLayer
370
-1
48
1
60
0
100
AcDbEllipse
10
76.296914
20
-5.836321
30
0
11
1.87864353036252
21
0.0984555354907559
31
0
210
0
220
0
230
1
40
0.996685
41
0
42
0.564298368666388
0
ELLIPSE
5
A1
100
AcDbEntity
8
1
62
256
6
ByLayer
370
-1
48
1
60
0
100
AcDbEllipse
10
76.296914
20
-5.836321
30
0
11
1.87864353036252
21
0.0984555354907559
31
0
210
0
220
0
230
1
40
0.996685
41
2.57717542370374
42
3.08905849102872
0
ELLIPSE
5
A2
100
AcDbEntity
8
1
62
256
6
ByLayer
370
-1
48
1
60
0
100
AcDbEllipse
10
79.02783
20
-4.862757
30
0
11
0.396331096605804
21
0.0207708326339234
31
0
210
0
220
0
230
1
40
0.996685
41
0
42
0.610865238197924
0
ELLIPSE
5
A3
100
AcDbEntity
8
1
62
256
6
ByLayer
370
-1
48
1
60
0
100
AcDbEllipse
10
76.29585
20
-5.816015
30
0
11
-1.79894586426109
21
-0.0942787577963369
31
0
210
0
220
0
230
1
40
0.996685
41
0
42
6.28318530717959
0
ELLIPSE
5
A4
100
AcDbEntity
8
1
62
256
6
ByLayer
370
-1
48
1
60
0
100
AcDbEllipse
10
79.533129
20
-14.504437
30
0
11
0.396331096605749
21
0.0207708326339205
31
0
210
0
220
0
230
1
40
0.996685
41
-2.53072741539159
42
9.87964247099374E-14
0
ELLIPSE
5
A5
100
AcDbEntity
8
1
62
256
6
ByLayer
370
-1
48
1
60
0
100
AcDbEllipse
10
77.197233
20
-6.539645
30
0
11
-0.42142166366643
21
-0.0220857735345227
31
0
210
0
220
0
230
1
40
0.996685
41
-1.51709364978015
42
-0.74219392192764
0
ELLIPSE
5
A6
100
AcDbEntity
8
1
62
256
6
ByLayer
370
-1
48
1
60
0
100
AcDbEllipse
10
76.298406
20
-5.864781
30
0
11
1.72263594745164
21
0.0902795245190813
31
0
210
0
220
0
230
1
40
0.996685
41
0
42
6.28318530717959
0
ELLIPSE
5
A7
100
AcDbEntity
8
1
62
256
6
ByLayer
370
-1
48
1
60
0
100
AcDbEllipse
10
76.299146
20
-5.878912
30
0
11
1.03358156847098
21
0.0541677147114488
31
0
210
0
220
0
230
1
40
0.996685
41
1.87622894589388
42
2.92256851743063
0
ELLIPSE
5
A8
100
AcDbEntity
8
1
62
256
6
ByLayer
370
-1
48
1
60
0
100
AcDbEllipse
10
77.389473
20
-5.389602
30
0
11
-0.42142166366643
21
-0.0220857735345227
31
0
210
0
220
0
230
1
40
0.996685
41
-0.471653580792953
42
-9.1168826529125E-06
0
ELLIPSE
5
A9
100
AcDbEntity
8
1
62
256
6
ByLayer
370
-1
48
1
60
0
100
AcDbEllipse
10
75.456698
20
-5.657266
30
0
11
-0.184746463929596
21
-0.00968215190494488
31
0
210
0
220
0
230
1
40
0.996685
41
0.254133479447386
42
1.0825188189911
0
ELLIPSE
5
AA
100
AcDbEntity
8
1
62
256
6
ByLayer
370
-1
48
1
60
0
100
AcDbEllipse
10
76.299146
20
-5.878912
30
0
11
1.03358156847098
21
0.0541677147114488
31
0
210
0
220
0
230
1
40
0.996685
41
-2.31170327923255
42
-1.26536370769586
0
ELLIPSE
5
AB
100
AcDbEntity
8
1
62
256
6
ByLayer
370
-1
48
1
60
0
100
AcDbEllipse
10
76.299146
20
-5.878912
30
0
11
1.03358156847098
21
0.0541677147114488
31
0
210
0
220
0
230
1
40
0.996685
41
0.829889374357108
42
1.87622894589388
0
ELLIPSE
5
AC
100
AcDbEntity
8
1
62
256
6
ByLayer
370
-1
48
1
60
0
100
AcDbEllipse
10
76.299146
20
-5.878912
30
0
11
1.03358156847098
21
0.0541677147114488
31
0
210
0
220
0
230
1
40
0.996685
41
-1.26536370769586
42
-0.219024136159169
0
ELLIPSE
5
AD
100
AcDbEntity
8
1
62
256
6
ByLayer
370
-1
48
1
60
0
100
AcDbEllipse
10
76.294888
20
-5.797664
30
0
11
-0.746974891996418
21
-0.0391472952697226
31
0
210
0
220
0
230
1
40
0.996685
41
-0.50303859268315
42
0.267701267182643
0
ELLIPSE
5
AE
100
AcDbEntity
8
1
62
256
6
ByLayer
370
-1
48
1
60
0
100
AcDbEllipse
10
77.133078
20
-5.938063
30
0
11
-0.184746463929596
21
-0.00968215190494488
31
0
210
0
220
0
230
1
40
0.996685
41
1.62449900380995
42
2.93161552180228
0
ELLIPSE
5
AF
100
AcDbEntity
8
1
62
256
6
ByLayer
370
-1
48
1
60
0
100
AcDbEllipse
10
76.294888
20
-5.797664
30
0
11
-0.746974891996418
21
-0.0391472952697226
31
0
210
0
220
0
230
1
40
0.996685
41
1.35305916012546
42
2.39939873166218
0
ELLIPSE
5
B0
100
AcDbEntity
8
1
62
256
6
ByLayer
370
-1
48
1
60
0
100
AcDbEllipse
10
76.294888
20
-5.797664
30
0
11
0.74697489199642
21
0.0391472952697233
31
0
210
0
220
0
230
1
40
0.996685
41
-0.742193921927617
42
0.122608217614149
0
ELLIPSE
5
B1
100
AcDbEntity
8
1
62
256
6
ByLayer
370
-1
48
1
60
0
100
AcDbEllipse
10
76.294888
20
-5.797664
30
0
11
-0.746974891996418
21
-0.0391472952697226
31
0
210
0
220
0
230
1
40
0.996685
41
-1.55739082936427
42
-0.871254191966251
0
ELLIPSE
5
B2
100
AcDbEntity
8
1
62
256
6
ByLayer
370
-1
48
1
60
0
100
AcDbEllipse
10
76.299146
20
-5.878912
30
0
11
1.03358156847098
21
0.0541677147114488
31
0
210
0
220
0
230
1
40
0.996685
41
-0.219024136159169
42
0.829889374357108
0
ELLIPSE
5
B3
100
AcDbEntity
8
1
62
256
6
ByLayer
370
-1
48
1
60
0
100
AcDbEllipse
10
76.298441
20
-5.865449
30
0
11
0.746974891996416
21
0.0391472952697231
31
0
210
0
220
0
230
1
40
0.996685
41
0.267701267181954
42
0.343163971016033
0
ELLIPSE
5
B4
100
AcDbEntity
8
1
62
256
6
ByLayer
370
-1
48
1
60
0
100
AcDbEllipse
10
76.294888
20
-5.797664
30
0
11
-0.746974891996418
21
-0.0391472952697226
31
0
210
0
220
0
230
1
40
0.996685
41
0.343163971015387
42
1.35305916012546
0
ELLIPSE
5
B5
100
AcDbEntity
8
1
62
256
6
ByLayer
370
-1
48
1
60
0
100
AcDbEllipse
10
76.10208
20
-6.947919
30
0
11
-0.42142166366643
21
-0.0220857735345227
31
0
210
0
220
0
230
1
40
0.996685
41
-2.56343322131673
42
-1.78853349346414
0
ELLIPSE
5
B6
100
AcDbEntity
8
1
62
256
6
ByLayer
370
-1
48
1
60
0
100
AcDbEllipse
10
76.10208
20
-6.947919
30
0
11
-0.42142166366643
21
-0.0220857735345227
31
0
210
0
220
0
230
1
40
0.996685
41
-1.78853349346414
42
-1.01363376561179
0
ELLIPSE
5
B7
100
AcDbEntity
8
1
62
256
6
ByLayer
370
-1
48
1
60
0
100
AcDbEllipse
10
76.299146
20
-5.878912
30
0
11
1.29821839518094
21
0.0680367431158289
31
0
210
0
220
0
230
1
40
0.996685
41
0
42
6.28318530717959
0
ELLIPSE
5
B8
100
AcDbEntity
8
1
62
256
6
ByLayer
370
-1
48
1
60
0
100
AcDbEllipse
10
76.299146
20
-5.878912
30
0
11
1.03358156847098
21
0.0541677147114488
31
0
210
0
220
0
230
1
40
0.996685
41
2.92256851743063
42
-2.31170327923255
0
ELLIPSE
5
B9
100
AcDbEntity
8
1
62
256
6
ByLayer
370
-1
48
1
60
0
100
AcDbEllipse
10
76.592424
20
-6.591152
30
0
11
-0.184746463929596
21
-0.00968215190494488
31
0
210
0
220
0
230
1
40
0.996685
41
0.578159432273155
42
3.08233830215159
0
ELLIPSE
5
BA
100
AcDbEntity
8
1
62
256
6
ByLayer
370
-1
48
1
60
0
100
AcDbEllipse
10
76.294888
20
-5.797664
30
0
11
-0.746974891996418
21
-0.0391472952697226
31
0
210
0
220
0
230
1
40
0.996685
41
-2.75372520204978
42
-2.0254639656244
0
ELLIPSE
5
BB
100
AcDbEntity
8
1
62
256
6
ByLayer
370
-1
48
1
60
0
100
AcDbEllipse
10
76.295314
20
-5.805789
30
0
11
1.72263594745164
21
0.0902795245190814
31
0
210
0
220
0
230
1
40
0.996685
41
3.08905878453785
42
-3.14150469706781
0
ELLIPSE
5
BC
100
AcDbEntity
8
1
62
256
6
ByLayer
370
-1
48
1
60
0
100
AcDbEllipse
10
76.295314
20
-5.805789
30
0
11
1.72263594745164
21
0.0902795245190814
31
0
210
0
220
0
230
1
40
0.996685
41
0
42
3.08905910791664
0
ELLIPSE
5
BD
100
AcDbEntity
8
1
62
256
6
ByLayer
370
-1
48
1
60
0
100
AcDbEllipse
10
76.298441
20
-5.865449
30
0
11
0.746974891996416
21
0.0391472952697231
31
0
210
0
220
0
230
1
40
0.996685
41
-2.87389138640712
42
-2.79842868257441
0
ELLIPSE
5
BE
100
AcDbEntity
8
1
62
256
6
ByLayer
370
-1
48
1
60
0
100
AcDbEllipse
10
75.754676
20
-6.451933
30
0
11
-0.184746463929596
21
-0.00968215190494488
31
0
210
0
220
0
230
1
40
0.996685
41
0.201603807546747
42
2.12795888797801
0
ELLIPSE
5
BF
100
AcDbEntity
8
1
62
256
6
ByLayer
370
-1
48
1
60
0
100
AcDbEllipse
10
77.197233
20
-6.539645
30
0
11
-0.42142166366643
21
-0.0220857735345227
31
0
210
0
220
0
230
1
40
0.996685
41
-0.74219392192764
42
-1.05329784728887E-05
0
POINT
5
41
100
AcDbEntity
8
80
62
256
6
ByLayer
370
-1
48
1
60
0
100
AcDbPoint
10
0
20
0
30
0
39
0
210
0
220
0
230
1
50
360
0
POINT
5
43
100
AcDbEntity
8
81
62
256
6
ByLayer
370
-1
48
1
60
0
100
AcDbPoint
10
79.93
20
-14.9
30
0
39
0
210
0
220
0
230
1
50
360
0
POINT
5
45
100
AcDbEntity
8
1
62
256
6
ByLayer
370
-1
48
1
60
0
100
AcDbPoint
10
-171.32
20
0
30
0
39
0
210
0
220
0
230
1
50
360
0
POINT
5
47
100
AcDbEntity
8
2
62
256
6
ByLayer
370
-1
48
1
60
0
100
AcDbPoint
10
79.93
20
14.9
30
0
39
0
210
0
220
0
230
1
50
360
0
POINT
5
49
100
AcDbEntity
8
2
62
256
6
ByLayer
370
-1
48
1
60
0
100
AcDbPoint
10
79.716848
20
13.770576
30
0
39
0
210
0
220
0
230
1
50
360
0
SPLINE
5
C0
100
AcDbEntity
8
1
62
256
6
ByLayer
370
-1
48
1
60
0
100
AcDbSpline
70
4
71
3
72
28
73
24
40
-0.125000000000005
40
-0.125000000000005
40
0
40
0
40
0.124999999999999
40
0.124999999999999
40
0.187499999999998
40
0.187499999999998
40
0.249999999999997
40
0.249999999999997
40
0.374999999999995
40
0.374999999999995
40
0.499999999999994
40
0.499999999999994
40
0.624999999999992
40
0.624999999999992
40
0.687499999999989
40
0.687499999999989
40
0.718749999999989
40
0.718749999999989
40
0.74999999999999
40
0.74999999999999
40
0.874999999999995
40
0.874999999999995
40
1
40
1
40
1.125
40
1.125
41
1
10
60.9038349994031
20
-3.99196803470119
30
0
41
1
10
59.7736539589917
20
-3.4327564065629
30
0
41
1
10
59.1877766611041
20
-3.22226151677705
30
0
41
1
10
58.2745149871985
20
-3.2709528540916
30
0
41
1
10
57.9520831977088
20
-3.35781637880197
30
0
41
1
10
57.4612089630627
20
-3.82890722308858
30
0
41
1
10
57.353194940038
20
-4.22185786893039
30
0
41
1
10
57.4850431178714
20
-5.21880451603744
30
0
41
1
10
57.9445031674849
20
-5.69138433610621
30
0
41
1
10
58.9434706020461
20
-6.41350798033127
30
0
41
1
10
59.5131253115209
20
-6.66430658153285
30
0
41
1
10
60.7455393714472
20
-7.0465841974669
30
0
41
1
10
61.3883611998028
20
-7.17695518405159
30
0
41
1
10
62.4040218572665
20
-7.22292034353791
30
0
41
1
10
62.7565550395254
20
-7.22826837973022
30
0
41
1
10
63.2495880845864
20
-7.04123708674382
30
0
41
1
10
63.4087376083839
20
-6.91390971342463
30
0
41
1
10
63.4608448724936
20
-6.56368178476819
30
0
41
1
10
63.3882088508099
20
-6.3917032639275
30
0
41
1
10
62.9837596349166
20
-5.63830385789632
30
0
41
1
10
62.4626953202176
20
-5.18810173018431
30
0
41
1
10
61.4413654463534
20
-4.35288474593091
30
0
41
1
10
60.9038349994031
20
-3.99196803470119
30
0
41
1
10
59.7736539589917
20
-3.4327564065629
30
0
0
SPLINE
5
C1
100
AcDbEntity
8
1
62
256
6
ByLayer
370
-1
48
1
60
0
100
AcDbSpline
70
4
71
3
72
8
73
4
40
0
40
0
40
0
40
0
40
1
40
1
40
1
40
1
41
1
10
64.7053943500002
20
9.38583568210331
30
0
41
1
10
65.4780010553725
20
9.48359410822565
30
0
41
1
10
66.2702772570075
20
9.55358517148596
30
0
41
1
10
67.0735475225781
20
9.60537848569047
30
0
0
SPLINE
5
C2
100
AcDbEntity
8
1
62
256
6
ByLayer
370
-1
48
1
60
0
100
AcDbSpline
70
4
71
3
72
8
73
4
40
0
40
0
40
0
40
0
40
1
40
1
40
1
40
1
41
1
10
64.6303943500002
20
9.45074521361778
30
0
41
1
10
64.6553863811419
20
9.42914999379784
30
0
41
1
10
64.6803864868143
20
9.40751324689603
30
0
41
1
10
64.7053943500002
20
9.38583568210331
30
0
0
SPLINE
5
C3
100
AcDbEntity
8
1
62
256
6
ByLayer
370
-1
48
1
60
0
100
AcDbSpline
70
4
71
3
72
10
73
6
40
0
40
0
40
0
40
0
40
0.5
40
0.5
40
1
40
1
40
1
40
1
41
1
10
52.2174301296615
20
-4.33878745302215
30
0
41
1
10
52.2285839678252
20
-5.25446627832821
30
0
41
1
10
52.3851782252021
20
-6.10867785077264
30
0
41
1
10
53.0391715754742
20
-7.51874532142935
30
0
41
1
10
53.5427974829761
20
-8.0863065543281
30
0
41
1
10
54.1756940591466
20
-8.50875000000048
30
0
0
SPLINE
5
C4
100
AcDbEntity
8
1
62
256
6
ByLayer
370
-1
48
1
60
0
100
AcDbSpline
70
4
71
3
72
10
73
6
40
0
40
0
40
0
40
0
40
0.5
40
0.5
40
1
40
1
40
1
40
1
41
1
10
64.6303943500002
20
9.4507452136186
30
0
41
1
10
62.6627851955475
20
9.19681712258117
30
0
41
1
10
60.8639817686899
20
8.77431123464464
30
0
41
1
10
57.5864800589305
20
7.14488831748108
30
0
41
1
10
56.1839813303919
20
5.93740027676688
30
0
41
1
10
55.0620258864652
20
4.33878745302161
30
0
0
SPLINE
5
C5
100
AcDbEntity
8
1
62
256
6
ByLayer
370
-1
48
1
60
0
100
AcDbSpline
70
4
71
3
72
16
73
12
40
0
40
0
40
0
40
0
40
0.122456601739957
40
0.122456601739957
40
0.346600521668579
40
0.346600521668579
40
0.576777511080909
40
0.576777511080909
40
0.823987467274143
40
0.823987467274143
40
1
40
1
40
1
40
1
41
1
10
76.6614398169865
20
-6.84509994938273
30
0
41
1
10
76.6518289935045
20
-6.84868287481709
30
0
41
1
10
76.6418747667103
20
-6.85144280005238
30
0
41
1
10
76.6134771735572
20
-6.85674381417229
30
0
41
1
10
76.5944441741782
20
-6.85722762565888
30
0
41
1
10
76.557500690719
20
-6.85249905661613
30
0
41
1
10
76.5391647390081
20
-6.84708987711838
30
0
41
1
10
76.5045103045526
20
-6.83096490909105
30
0
41
1
10
76.4879993381912
20
-6.8197037190717
30
0
41
1
10
76.4637650760636
20
-6.79719535086835
30
0
41
1
10
76.4547246204892
20
-6.78674623564726
30
0
41
1
10
76.4469467033439
20
-6.77561325769349
30
0
0
SPLINE
5
C6
100
AcDbEntity
8
1
62
256
6
ByLayer
370
-1
48
1
60
0
100
AcDbSpline
70
4
71
3
72
16
73
12
40
0
40
0
40
0
40
0
40
0.0657238138407513
40
0.0657238138407513
40
0.289635315366927
40
0.289635315366927
40
0.516463453221773
40
0.516463453221773
40
0.757767694675438
40
0.757767694675438
40
1
40
1
40
1
40
1
41
1
10
75.6413584341752
20
-6.67557986888238
30
0
41
1
10
75.6370751379823
20
-6.6720670222148
30
0
41
1
10
75.6329451326655
20
-6.66834755024072
30
0
41
1
10
75.6156391916567
20
-6.65125445749169
30
0
41
1
10
75.6042127628102
20
-6.63572955214471
30
0
41
1
10
75.5867325827887
20
-6.6024409074459
30
0
41
1
10
75.5805149975068
20
-6.58423406061942
30
0
41
1
10
75.5734668115845
20
-6.54657318224278
30
0
41
1
10
75.5728972524188
20
-6.52664595443107
30
0
41
1
10
75.5773262254617
20
-6.48845891181747
30
0
41
1
10
75.5823675306544
20
-6.46979382947512
30
0
41
1
10
75.5896831984914
20
-6.45259417714544
30
0
0
SPLINE
5
C7
100
AcDbEntity
8
1
62
256
6
ByLayer
370
-1
48
1
60
0
100
AcDbSpline
70
4
71
3
72
16
73
12
40
0
40
0
40
0
40
0
40
0.0202472526905851
40
0.0202472526905851
40
0.336299786432431
40
0.336299786432431
40
0.624522725252532
40
0.624522725252532
40
0.878539547942294
40
0.878539547942294
40
1
40
1
40
1
40
1
41
1
10
77.2151889119971
20
-5.84660388136325
30
0
41
1
10
77.2165767771662
20
-5.84731051787631
30
0
41
1
10
77.217958370385
20
-5.84803477273007
30
0
41
1
10
77.2404768722363
20
-5.86018438285049
30
0
41
1
10
77.260361982677
20
-5.87608467906963
30
0
41
1
10
77.2914199780255
20
-5.91295627214501
30
0
41
1
10
77.3036577479266
20
-5.93397341871918
30
0
41
1
10
77.3185380995533
20
-5.97632233740245
30
0
41
1
10
77.3223358595585
20
-5.99796128491639
30
0
41
1
10
77.3223266156058
20
-6.02950965184073
30
0
41
1
10
77.3214675139484
20
-6.03979705400275
30
0
41
1
10
77.3197660813985
20
-6.0498676747429
30
0
0
SPLINE
5
C8
100
AcDbEntity
8
1
62
256
6
ByLayer
370
-1
48
1
60
0
100
AcDbSpline
70
4
71
3
72
16
73
12
40
0
40
0
40
0
40
0
40
0.0505329540391724
40
0.0505329540391724
40
0.275409402399332
40
0.275409402399332
40
0.502342167451252
40
0.502342167451252
40
0.743088829458667
40
0.743088829458667
40
1
40
1
40
1
40
1
41
1
10
75.9368530644642
20
-4.91272431612941
30
0
41
1
10
75.9408426790034
20
-4.91123698349529
30
0
41
1
10
75.9448864733518
20
-4.90988043313064
30
0
41
1
10
75.9669789285339
20
-4.90327440408419
30
0
41
1
10
75.986015447008
20
-4.90054105219625
30
0
41
1
10
76.0232100824379
20
-4.90058827997308
30
0
41
1
10
76.0418332949117
20
-4.90340600985826
30
0
41
1
10
76.0773530700477
20
-4.91406555228286
30
0
41
1
10
76.0945269646135
20
-4.92231787816851
30
0
41
1
10
76.1255807964879
20
-4.94332955166277
30
0
41
1
10
76.1395471339961
20
-4.95658808109823
30
0
41
1
10
76.1507674759874
20
-4.97116871358057
30
0
0
SPLINE
5
C9
100
AcDbEntity
8
1
62
256
6
ByLayer
370
-1
48
1
60
0
100
AcDbSpline
70
4
71
3
72
12
73
8
40
0
40
0
40
0
40
0
40
0.452297839333097
40
0.452297839333097
40
0.835745020863196
40
0.835745020863196
40
1
40
1
40
1
40
1
41
1
10
75.3825224456643
20
-5.9001242492366
30
0
41
1
10
75.4208051965111
20
-5.91616052107028
30
0
41
1
10
75.4576167426847
20
-5.93872043767453
30
0
41
1
10
75.5180982681186
20
-5.99199243021513
30
0
41
1
10
75.5435372661332
20
-6.02163317285522
30
0
41
1
10
75.5731512928926
20
-6.06935669513842
30
0
41
1
10
75.5812595758418
20
-6.08448229278645
30
0
41
1
10
75.5883928567904
20
-6.1001335896606
30
0
0
SPLINE
5
CA
100
AcDbEntity
8
1
62
256
6
ByLayer
370
-1
48
1
60
0
100
AcDbSpline
70
4
71
3
72
16
73
12
40
0
40
0
40
0
40
0
40
0.0529187445056747
40
0.0529187445056747
40
0.276971925041752
40
0.276971925041752
40
0.503219609272092
40
0.503219609272092
40
0.743351907089319
40
0.743351907089319
40
1
40
1
40
1
40
1
41
1
10
76.9569344472755
20
-5.08224439662985
30
0
41
1
10
76.9603889034287
20
-5.08507748923876
30
0
41
1
10
76.9637424440217
20
-5.08803177641147
30
0
41
1
10
76.9805769782458
20
-5.1039528781688
30
0
41
1
10
76.992273168764
20
-5.11896435305562
30
0
41
1
10
77.0102600911808
20
-5.15088870299152
30
0
41
1
10
77.0167388719334
20
-5.16821916725402
30
0
41
1
10
77.0243023144096
20
-5.20381366191111
30
0
41
1
10
77.0251458748843
20
-5.22251215713956
30
0
41
1
10
77.0211244399288
20
-5.25921949161085
30
0
41
1
10
77.0158508912545
20
-5.27754154863962
30
0
41
1
10
77.00802815917
20
-5.29413395345441
30
0
0
SPLINE
5
CB
100
AcDbEntity
8
1
62
256
6
ByLayer
370
-1
48
1
60
0
100
AcDbSpline
70
4
71
3
72
16
73
12
40
0
40
0
40
0
40
0
40
0.0297904073129313
40
0.0297904073129313
40
0.350790465252812
40
0.350790465252812
40
0.638207853934446
40
0.638207853934446
40
0.891334197098646
40
0.891334197098646
40
1
40
1
40
1
40
1
41
1
10
76.7807248200377
20
-6.65118041320702
30
0
41
1
10
76.7809195471879
20
-6.65349728934953
30
0
41
1
10
76.7810741039349
20
-6.65582120971331
30
0
41
1
10
76.7823972989294
20
-6.68289750129659
30
0
41
1
10
76.7788754966413
20
-6.70876402713216
30
0
41
1
10
76.7627026245132
20
-6.75464092077556
30
0
41
1
10
76.750740581467
20
-6.77568516592447
30
0
41
1
10
76.7216290591536
20
-6.80939718039042
30
0
41
1
10
76.7048127391951
20
-6.82324160338854
30
0
41
1
10
76.6783672371114
20
-6.83803472622839
30
0
41
1
10
76.6700097261102
20
-6.84190507795191
30
0
41
1
10
76.6614398169865
20
-6.84509994938273
30
0
0
SPLINE
5
CC
100
AcDbEntity
8
1
62
256
6
ByLayer
370
-1
48
1
60
0
100
AcDbSpline
70
4
71
3
72
18
73
14
40
0
40
0
40
0
40
0
40
0.110005843284413
40
0.110005843284413
40
0.305944493593769
40
0.305944493593769
40
0.467358049843955
40
0.467358049843955
40
0.629333337707508
40
0.629333337707508
40
0.784673852477968
40
0.784673852477968
40
1
40
1
40
1
40
1
41
1
10
75.8169893592937
20
-5.09560155806716
30
0
41
1
10
75.8188401065044
20
-5.1169156677627
30
0
41
1
10
75.8189341456558
20
-5.13871174246748
30
0
41
1
10
75.8139409168667
20
-5.19976072747914
30
0
41
1
10
75.8045859936879
20
-5.24023324425022
30
0
41
1
10
75.775464600642
20
-5.31173683167461
30
0
41
1
10
75.7574106488913
20
-5.34394266572102
30
0
41
1
10
75.7134660435354
20
-5.40290946975267
30
0
41
1
10
75.6869724157398
20
-5.43038053461856
30
0
41
1
10
75.6310285220238
20
-5.47577020090208
30
0
41
1
10
75.6011316766977
20
-5.49461306635052
30
0
41
1
10
75.5286777705718
20
-5.52984026318953
30
0
41
1
10
75.4845056130114
20
-5.54319128666984
30
0
41
1
10
75.4411142929667
20
-5.54964387740648
30
0
0
SPLINE
5
CD
100
AcDbEntity
8
1
62
256
6
ByLayer
370
-1
48
1
60
0
100
AcDbSpline
70
4
71
3
72
14
73
10
40
0
40
0
40
0
40
0
40
0.261544027531089
40
0.261544027531089
40
0.551634345602242
40
0.551634345602242
40
0.814214915408439
40
0.814214915408439
40
1
40
1
40
1
40
1
41
1
10
75.8169893592937
20
-5.09560155806716
30
0
41
1
10
75.8153821705253
20
-5.07709238646643
30
0
41
1
10
75.8168501072536
20
-5.05774173722568
30
0
41
1
10
75.8269192095694
20
-5.01802575080964
30
0
41
1
10
75.836493506367
20
-4.99715604033145
30
0
41
1
10
75.8620210136725
20
-4.9617986931051
30
0
41
1
10
75.8777015765891
20
-4.94637980131108
30
0
41
1
10
75.9082430522025
20
-4.92545083769537
30
0
41
1
10
75.9222661313125
20
-4.91816234065413
30
0
41
1
10
75.9368530644642
20
-4.91272431612941
30
0
0
SPLINE
5
CE
100
AcDbEntity
8
1
62
256
6
ByLayer
370
-1
48
1
60
0
100
AcDbSpline
70
4
71
3
72
14
73
10
40
0
40
0
40
0
40
0
40
0.0442504909534348
40
0.0442504909534348
40
0.381554037575751
40
0.381554037575751
40
0.827580801804184
40
0.827580801804184
40
1
40
1
40
1
40
1
41
1
10
75.608146670397
20
-6.15281435969152
30
0
41
1
10
75.6094945447413
20
-6.15732324415131
30
0
41
1
10
75.6107666125357
20
-6.16185735214634
30
0
41
1
10
75.6209892675442
20
-6.20080493932292
30
0
41
1
10
75.6255930733646
20
-6.23668093668368
30
0
41
1
10
75.6263719522557
20
-6.31739607342911
30
0
41
1
10
75.6195153752896
20
-6.36277566384385
30
0
41
1
10
75.6020662365896
20
-6.42110075286621
30
0
41
1
10
75.5962751307927
20
-6.43709607823092
30
0
41
1
10
75.5896831984913
20
-6.45259417714541
30
0
0
SPLINE
5
CF
100
AcDbEntity
8
1
62
256
6
ByLayer
370
-1
48
1
60
0
100
AcDbSpline
70
4
71
3
72
14
73
10
40
0
40
0
40
0
40
0
40
0.0511686584187592
40
0.0511686584187592
40
0.387793612001741
40
0.387793612001741
40
0.835320012781704
40
0.835320012781704
40
1
40
1
40
1
40
1
41
1
10
76.9887351091123
20
-5.57808447680242
30
0
41
1
10
76.9871789059521
20
-5.57292261173507
30
0
41
1
10
76.9857248732441
20
-5.56774203957224
30
0
41
1
10
76.9755674249216
20
-5.52869438449815
30
0
41
1
10
76.9712141111348
20
-5.49406537233213
30
0
41
1
10
76.9710100385865
20
-5.41707094926522
30
0
41
1
10
76.9782769695083
20
-5.37456136154637
30
0
41
1
10
76.9960777176955
20
-5.32150366083701
30
0
41
1
10
77.0016895792227
20
-5.30757839758169
30
0
41
1
10
77.0080281591699
20
-5.29413395345432
30
0
0
SPLINE
5
D0
100
AcDbEntity
8
1
62
256
6
ByLayer
370
-1
48
1
60
0
100
AcDbSpline
70
4
71
3
72
18
73
14
40
0
40
0
40
0
40
0
40
0.017319191508664
40
0.017319191508664
40
0.243057368039449
40
0.243057368039449
40
0.468940193424765
40
0.468940193424765
40
0.707080340075198
40
0.707080340075198
40
0.967142961170399
40
0.967142961170399
40
1
40
1
40
1
40
1
41
1
10
75.278526800052
20
-5.70795659076924
30
0
41
1
10
75.2787701003165
20
-5.70651651917191
30
0
41
1
10
75.2790305525176
20
-5.70507852791184
30
0
41
1
10
75.282881164566
20
-5.6851616001951
30
0
41
1
10
75.2894190246577
20
-5.66689742110216
30
0
41
1
10
75.307177774925
20
-5.63371937602827
30
0
41
1
10
75.3186174497576
20
-5.61837658561592
30
0
41
1
10
75.3452566107823
20
-5.59150386792189
30
0
41
1
10
75.3609473301069
20
-5.57987533206241
30
0
41
1
10
75.3953369340351
20
-5.56123961020199
30
0
41
1
10
75.4146012584991
20
-5.55450289022437
30
0
41
1
10
75.4362131062359
20
-5.55042157020739
30
0
41
1
10
75.4386636841332
20
-5.55000829996473
30
0
41
1
10
75.4411142929667
20
-5.54964387740645
30
0
0
SPLINE
5
D1
100
AcDbEntity
8
1
62
256
6
ByLayer
370
-1
48
1
60
0
100
AcDbSpline
70
4
71
3
72
14
73
10
40
0
40
0
40
0
40
0
40
0.282978628223968
40
0.282978628223968
40
0.570385256735423
40
0.570385256735423
40
0.83080167426689
40
0.83080167426689
40
1
40
1
40
1
40
1
41
1
10
75.8645255268689
20
-6.67882481866855
30
0
41
1
10
75.8473123195479
20
-6.69171833108041
30
0
41
1
10
75.8274468213566
20
-6.70193769179838
30
0
41
1
10
75.7849265887727
20
-6.71471784707401
30
0
41
1
10
75.7615641820517
20
-6.71731490078548
30
0
41
1
10
75.7176748665598
20
-6.71344443083964
30
0
41
1
10
75.6964305799433
20
-6.7077091837669
30
0
41
1
10
75.664404172643
20
-6.69227245661196
30
0
41
1
10
75.652311869731
20
-6.68456307664059
30
0
41
1
10
75.6413584341752
20
-6.67557986888238
30
0
0
SPLINE
5
D2
100
AcDbEntity
8
1
62
256
6
ByLayer
370
-1
48
1
60
0
100
AcDbSpline
70
4
71
3
72
18
73
14
40
0
40
0
40
0
40
0
40
0.207406795547598
40
0.207406795547598
40
0.384058284520259
40
0.384058284520259
40
0.562418085098415
40
0.562418085098415
40
0.717541641559238
40
0.717541641559238
40
0.922715993005262
40
0.922715993005262
40
1
40
1
40
1
40
1
41
1
10
75.8645255268689
20
-6.67882481866852
30
0
41
1
10
75.8989895566844
20
-6.65300961828748
30
0
41
1
10
75.9382509972137
20
-6.6317435792393
30
0
41
1
10
76.0167041587757
20
-6.60489166729494
30
0
41
1
10
76.0559704171704
20
-6.5972484685081
30
0
41
1
10
76.1358478349002
20
-6.59427225691365
30
0
41
1
10
76.1776576382164
20
-6.59914694839307
30
0
41
1
10
76.2509174518414
20
-6.61959657227885
30
0
41
1
10
76.2838953361709
20
-6.6338798661379
30
0
41
1
10
76.3528373469091
20
-6.67459271755607
30
0
41
1
10
76.3875985232011
20
-6.70401133105989
30
0
41
1
10
76.4273572148362
20
-6.74915944360799
30
0
41
1
10
76.4375547332107
20
-6.76216999332291
30
0
41
1
10
76.4469467033439
20
-6.77561325769349
30
0
0
SPLINE
5
D3
100
AcDbEntity
8
1
62
256
6
ByLayer
370
-1
48
1
60
0
100
AcDbSpline
70
4
71
3
72
14
73
10
40
0
40
0
40
0
40
0
40
0.265133048696938
40
0.265133048696938
40
0.554774071023451
40
0.554774071023451
40
0.816988188266455
40
0.816988188266455
40
1
40
1
40
1
40
1
41
1
10
76.7331886524621
20
-5.067957152606
30
0
41
1
10
76.7494063015452
20
-5.05752553770861
30
0
41
1
10
76.7679258776074
20
-5.04936853924926
30
0
41
1
10
76.8090647447477
20
-5.03892931454033
30
0
41
1
10
76.8325734297109
20
-5.03714129797385
30
0
41
1
10
76.8768859715707
20
-5.04207392339848
30
0
41
1
10
76.898401920738
20
-5.04811722666085
30
0
41
1
10
76.9318959980134
20
-5.06415553759044
30
0
41
1
10
76.9450905376113
20
-5.07253088705184
30
0
41
1
10
76.9569344472755
20
-5.08224439662985
30
0
0
SPLINE
5
D4
100
AcDbEntity
8
1
62
256
6
ByLayer
370
-1
48
1
60
0
100
AcDbSpline
70
4
71
3
72
16
73
12
40
0
40
0
40
0
40
0
40
0.110112068133815
40
0.110112068133815
40
0.334317801169991
40
0.334317801169991
40
0.563888866493049
40
0.563888866493049
40
0.809957312301007
40
0.809957312301007
40
1
40
1
40
1
40
1
41
1
10
77.3197660813985
20
-6.0498676747429
30
0
41
1
10
77.3182330576909
20
-6.05894149923662
30
0
41
1
10
77.3160065684784
20
-6.06790408743819
30
0
41
1
10
77.3073098886919
20
-6.09417969736919
30
0
41
1
10
77.2986588638823
20
-6.11089592612691
30
0
41
1
10
77.2770840609647
20
-6.14042533096591
30
0
41
1
10
77.2638027809014
20
-6.15351948258905
30
0
41
1
10
77.2337564589258
20
-6.17525418100561
30
0
41
1
10
77.2164461437232
20
-6.18379599716124
30
0
41
1
10
77.1849553129592
20
-6.1936438142161
30
0
41
1
10
77.1707422969845
20
-6.19623234955239
30
0
41
1
10
77.1565998863646
20
-6.19713809386772
30
0
0
SPLINE
5
D5
100
AcDbEntity
8
1
62
256
6
ByLayer
370
-1
48
1
60
0
100
AcDbSpline
70
4
71
3
72
14
73
10
40
0
40
0
40
0
40
0
40
0.216944038529896
40
0.216944038529896
40
0.512024183197208
40
0.512024183197208
40
0.778760382411024
40
0.778760382411024
40
1
40
1
40
1
40
1
41
1
10
75.382522445664
20
-5.90012424923725
30
0
41
1
10
75.3678808967321
20
-5.89399104685384
30
0
41
1
10
75.3538398505904
20
-5.88573986187299
30
0
41
1
10
75.3239508768038
20
-5.86184340495524
30
0
41
1
10
75.3088006955828
20
-5.84413711461966
30
0
41
1
10
75.2876285078089
20
-5.80561130425053
30
0
41
1
10
75.2805830856955
20
-5.78464446063378
30
0
41
1
10
75.275158454643
20
-5.74509060542036
30
0
41
1
10
75.2754409193601
20
-5.726221631073
30
0
41
1
10
75.278526800052
20
-5.70795659076924
30
0
0
SPLINE
5
D6
100
AcDbEntity
8
1
62
256
6
ByLayer
370
-1
48
1
60
0
100
AcDbSpline
70
4
71
3
72
12
73
8
40
0
40
0
40
0
40
0
40
0.463101453282698
40
0.463101453282698
40
0.844732743877253
40
0.844732743877253
40
1
40
1
40
1
40
1
41
1
10
77.2151889119971
20
-5.84660388136331
30
0
41
1
10
77.1758063130313
20
-5.82655209028903
30
0
41
1
10
77.1379604903272
20
-5.79985831289432
30
0
41
1
10
77.076915097767
20
-5.74043889197955
30
0
41
1
10
77.0516891197543
20
-5.70886695165913
30
0
41
1
10
77.0228739485185
20
-5.66035536853173
30
0
41
1
10
77.0152426647804
20
-5.64572590528232
30
0
41
1
10
77.0084889227192
20
-5.6307652468343
30
0
0
SPLINE
5
D7
100
AcDbEntity
8
1
62
256
6
ByLayer
370
-1
48
1
60
0
100
AcDbSpline
70
4
71
3
72
18
73
14
40
0
40
0
40
0
40
0
40
0.212915284676097
40
0.212915284676097
40
0.388601713035505
40
0.388601713035505
40
0.565931906258663
40
0.565931906258663
40
0.720865320016287
40
0.720865320016287
40
0.927015238050179
40
0.927015238050179
40
1
40
1
40
1
40
1
41
1
10
76.733188652462
20
-5.067957152606
30
0
41
1
10
76.6976175266247
20
-5.09083742855105
30
0
41
1
10
76.6569783114898
20
-5.10914191774637
30
0
41
1
10
76.5769881216947
20
-5.13066556809295
30
0
41
1
10
76.5377224216607
20
-5.13612105039621
30
0
41
1
10
76.4580861052216
20
-5.13637651366301
30
0
41
1
10
76.4165371012946
20
-5.13098292910277
30
0
41
1
10
76.3437501664951
20
-5.11133591508548
30
0
41
1
10
76.3109901180619
20
-5.09809834687925
30
0
41
1
10
76.2423807081919
20
-5.06078512299817
30
0
41
1
10
76.2078211419241
20
-5.034038920787
30
0
41
1
10
76.1690888005705
20
-4.9936866999079
30
0
41
1
10
76.1595687753479
20
-4.98260584370047
30
0
41
1
10
76.1507674759873
20
-4.9711687135806
30
0
0
SPLINE
5
D8
100
AcDbEntity
8
1
62
256
6
ByLayer
370
-1
48
1
60
0
100
AcDbSpline
70
4
71
3
72
18
73
14
40
0
40
0
40
0
40
0
40
0.206904900336217
40
0.206904900336217
40
0.383644926742792
40
0.383644926742792
40
0.562099125584742
40
0.562099125584742
40
0.717241047543858
40
0.717241047543858
40
0.92232733985649
40
0.92232733985649
40
1
40
1
40
1
40
1
41
1
10
76.7807248200376
20
-6.65118041320704
30
0
41
1
10
76.7770680975254
20
-6.60767249383389
30
0
41
1
10
76.7796502143208
20
-6.56236796956401
30
0
41
1
10
76.7976532605665
20
-6.47997223387205
30
0
41
1
10
76.8114540686224
20
-6.44173607748385
30
0
41
1
10
76.8497738311008
20
-6.37068294786008
30
0
41
1
10
76.8750689172375
20
-6.33693798765353
30
0
41
1
10
76.9290564672416
20
-6.2842207246992
30
0
41
1
10
76.9574799890779
20
-6.26322003637318
30
0
41
1
10
77.0257626388406
20
-6.22511363967621
30
0
41
1
10
77.067461497938
20
-6.21063270717647
30
0
41
1
10
77.1247557123629
20
-6.20010493676705
30
0
41
1
10
77.1406991582166
20
-6.19815644883693
30
0
41
1
10
77.1565998863646
20
-6.19713809386781
30
0
0
SPLINE
5
D9
100
AcDbEntity
8
SK1
62
256
6
ByLayer
370
-1
48
1
60
0
100
AcDbSpline
70
4
71
3
72
10
73
6
40
0
40
0
40
0
40
0
40
0.5
40
0.5
40
1
40
1
40
1
40
1
41
1
10
-169.32
20
-4.33878745302189
30
0
41
1
10
-169.919233025873
20
-2.95888879825199
30
0
41
1
10
-170.310991214146
20
-1.50358877622818
30
0
41
1
10
-170.311508518976
20
1.50048916054567
30
0
41
1
10
-169.920392105394
20
2.95621969924952
30
0
41
1
10
-169.32
20
4.33878745302189
30
0
0
SPLINE
5
DA
100
AcDbEntity
8
SK1
62
256
6
ByLayer
370
-1
48
1
60
0
100
AcDbSpline
70
4
71
3
72
8
73
4
40
0
40
0
40
0
40
0
40
1
40
1
40
1
40
1
41
1
10
-170.802499986183
20
-8.50874999999999
30
0
41
1
10
-170.802576023436
20
-8.50874999999999
30
0
41
1
10
-170.174914121567
20
-8.50874999999999
30
0
41
1
10
-169.32
20
-8.50874999999999
30
0
0
LINE
5
4A
100
AcDbEntity
8
80
62
256
6
ByLayer
370
-1
48
1
60
0
100
AcDbLine
10
0
20
0
30
0
11
-10
21
0
31
0
39
0
210
0
220
0
230
1
0
LINE
5
4B
100
AcDbEntity
8
81
62
256
6
ByLayer
370
-1
48
1
60
0
100
AcDbLine
10
79.93
20
-14.9
30
0
11
89.93
21
-14.9
31
0
39
0
210
0
220
0
230
1
0
LINE
5
4C
100
AcDbEntity
8
SK4
62
256
6
ByLayer
370
-1
48
0.05
60
0
100
AcDbLine
10
-176.32
20
0
30
0
11
84.716848
21
0
31
0
39
0
210
0
220
0
230
1
0
LINE
5
4E
100
AcDbEntity
8
4
62
256
6
ByLayer
370
-1
48
0.05
60
0
100
AcDbLine
10
0
20
0
30
0
11
84.716848
21
0
31
0
39
0
210
0
220
0
230
1
0
LINE
5
50
100
AcDbEntity
8
SK1
62
256
6
ByLayer
370
-1
48
1
60
0
100
AcDbLine
10
-169.32
20
9.99125
30
0
11
-171.32
21
7.99125
31
0
39
0
210
0
220
0
230
1
0
LINE
5
52
100
AcDbEntity
8
SK1
62
256
6
ByLayer
370
-1
48
1
60
0
100
AcDbLine
10
-171.32
20
-7.99125
30
0
11
-170.8025
21
-8.50875
31
0
39
0
210
0
220
0
230
1
0
LINE
5
53
100
AcDbEntity
8
SK1
62
256
6
ByLayer
370
-1
48
1
60
0
100
AcDbLine
10
0
20
9.99125
30
0
11
-169.32
21
9.99125
31
0
39
0
210
0
220
0
230
1
0
LINE
5
54
100
AcDbEntity
8
1
62
256
6
ByLayer
370
-1
48
1
60
0
100
AcDbLine
10
76.968051
20
-5.411688
30
0
11
76.97168
21
-5.480943
31
0
39
0
210
0
220
0
230
1
0
LINE
5
55
100
AcDbEntity
8
1
62
256
6
ByLayer
370
-1
48
1
60
0
100
AcDbLine
10
74.572678
20
-5.896069
30
0
11
74.57577
21
-5.955061
31
0
39
0
210
0
220
0
230
1
0
LINE
5
56
100
AcDbEntity
8
1
62
256
6
ByLayer
370
-1
48
1
60
0
100
AcDbLine
10
78.021042
20
-5.774501
30
0
11
78.01795
21
-5.71551
31
0
39
0
210
0
220
0
230
1
0
LINE
5
57
100
AcDbEntity
8
1
62
256
6
ByLayer
370
-1
48
1
60
0
100
AcDbLine
10
76.775811
20
-6.561731
30
0
11
76.779753
21
-6.636953
31
0
39
0
210
0
220
0
230
1
0
LINE
5
58
100
AcDbEntity
8
1
62
256
6
ByLayer
370
-1
48
1
60
0
100
AcDbLine
10
75.625355
20
-6.252886
30
0
11
75.621726
21
-6.183641
31
0
39
0
210
0
220
0
230
1
0
LINE
5
59
100
AcDbEntity
8
1
62
256
6
ByLayer
370
-1
48
1
60
0
100
AcDbLine
10
64.630394
20
9.99125
30
0
11
0
21
9.99125
31
0
39
0
210
0
220
0
230
1
0
LINE
5
5A
100
AcDbEntity
8
1
62
256
6
ByLayer
370
-1
48
1
60
0
100
AcDbLine
10
64.705394
20
9.91625
30
0
11
64.630394
21
9.99125
31
0
39
0
210
0
220
0
230
1
0
LINE
5
5B
100
AcDbEntity
8
1
62
256
6
ByLayer
370
-1
48
1
60
0
100
AcDbLine
10
65.910893
20
9.91625
30
0
11
64.705394
21
9.91625
31
0
39
0
210
0
220
0
230
1
0
LINE
5
5C
100
AcDbEntity
8
1
62
256
6
ByLayer
370
-1
48
1
60
0
100
AcDbLine
10
64.630394
20
9.99125
30
0
11
64.630394
21
9.450745
31
0
39
0
210
0
220
0
230
1
0
LINE
5
5D
100
AcDbEntity
8
1
62
256
6
ByLayer
370
-1
48
1
60
0
100
AcDbLine
10
72.783555
20
-5.788371
30
0
11
72.783554
21
-5.788363
31
0
39
0
210
0
220
0
230
1
0
LINE
5
5E
100
AcDbEntity
8
1
62
256
6
ByLayer
370
-1
48
1
60
0
100
AcDbLine
10
67.30258
20
-8.50875
30
0
11
67.977664
21
-8.50875
31
0
39
0
210
0
220
0
230
1
0
LINE
5
5F
100
AcDbEntity
8
1
62
256
6
ByLayer
370
-1
48
1
60
0
100
AcDbLine
10
71.64796
20
1.253452
30
0
11
72.441057
21
0.241595
31
0
39
0
210
0
220
0
230
1
0
LINE
5
60
100
AcDbEntity
8
1
62
256
6
ByLayer
370
-1
48
1
60
0
100
AcDbLine
10
0
20
-4.338787
30
0
11
0
21
4.338787
31
0
39
0
210
0
220
0
230
1
0
LINE
5
61
100
AcDbEntity
8
1
62
256
6
ByLayer
370
-1
48
1
60
0
100
AcDbLine
10
72.887382
20
-1.444305
30
0
11
72.819013
21
-0.240606
31
0
39
0
210
0
220
0
230
1
0
LINE
5
62
100
AcDbEntity
8
1
62
256
6
ByLayer
370
-1
48
1
60
0
100
AcDbLine
10
69.385522
20
-7.105532
30
0
11
67.977664
21
-8.50875
31
0
39
0
210
0
220
0
230
1
0
LINE
5
63
100
AcDbEntity
8
1
62
256
6
ByLayer
370
-1
48
1
60
0
100
AcDbLine
10
65.910893
20
9.91625
30
0
11
67.073548
21
9.605378
31
0
39
0
210
0
220
0
230
1
0
LINE
5
64
100
AcDbEntity
8
1
62
256
6
ByLayer
370
-1
48
1
60
0
100
AcDbLine
10
0
20
4.338787
30
0
11
0
21
9.99125
31
0
39
0
210
0
220
0
230
1
0
LINE
5
65
100
AcDbEntity
8
1
62
256
6
ByLayer
370
-1
48
1
60
0
100
AcDbLine
10
52.21743
20
-4.338787
30
0
11
0
21
-4.338787
31
0
39
0
210
0
220
0
230
1
0
LINE
5
66
100
AcDbEntity
8
1
62
256
6
ByLayer
370
-1
48
1
60
0
100
AcDbLine
10
71.64796
20
1.253452
30
0
11
71.640934
21
1.387519
31
0
39
0
210
0
220
0
230
1
0
LINE
5
67
100
AcDbEntity
8
1
62
256
6
ByLayer
370
-1
48
1
60
0
100
AcDbLine
10
0
20
-4.338787
30
0
11
0
21
-8.50875
31
0
39
0
210
0
220
0
230
1
0
LINE
5
68
100
AcDbEntity
8
1
62
256
6
ByLayer
370
-1
48
1
60
0
100
AcDbLine
10
78.901647
20
-3.507531
30
0
11
78.567073
21
-3.632261
31
0
39
0
210
0
220
0
230
1
0
LINE
5
69
100
AcDbEntity
8
1
62
256
6
ByLayer
370
-1
48
1
60
0
100
AcDbLine
10
64.705394
20
9.91625
30
0
11
64.705394
21
9.385836
31
0
39
0
210
0
220
0
230
1
0
LINE
5
6A
100
AcDbEntity
8
1
62
256
6
ByLayer
370
-1
48
1
60
0
100
AcDbLine
10
0
20
-8.50875
30
0
11
54.175694
21
-8.50875
31
0
39
0
210
0
220
0
230
1
0
LINE
5
6B
100
AcDbEntity
8
1
62
256
6
ByLayer
370
-1
48
1
60
0
100
AcDbLine
10
71.829981
20
8.333599
30
0
11
78.654042
21
6.508976
31
0
39
0
210
0
220
0
230
1
0
LINE
5
6C
100
AcDbEntity
8
1
62
256
6
ByLayer
370
-1
48
1
60
0
100
AcDbLine
10
79.198091
20
-3.872106
30
0
11
79.173671
21
-3.406135
31
0
39
0
210
0
220
0
230
1
0
LINE
5
6D
100
AcDbEntity
8
1
62
256
6
ByLayer
370
-1
48
1
60
0
100
AcDbLine
10
72.819013
20
-0.240606
30
0
11
72.441061
21
0.241597
31
0
39
0
210
0
220
0
230
1
0
LINE
5
6E
100
AcDbEntity
8
1
62
256
6
ByLayer
370
-1
48
1
60
0
100
AcDbLine
10
72.441061
20
0.241589
30
0
11
72.441061
21
0.241597
31
0
39
0
210
0
220
0
230
1
0
LINE
5
6F
100
AcDbEntity
8
1
62
256
6
ByLayer
370
-1
48
1
60
0
100
AcDbLine
10
78.901648
20
-3.50754
30
0
11
73.782782
21
3.023269
31
0
39
0
210
0
220
0
230
1
0
LINE
5
70
100
AcDbEntity
8
1
62
256
6
ByLayer
370
-1
48
1
60
0
100
AcDbLine
10
79.17367
20
-3.406129
30
0
11
78.654042
21
6.508976
31
0
39
0
210
0
220
0
230
1
0
LINE
5
71
100
AcDbEntity
8
1
62
256
6
ByLayer
370
-1
48
1
60
0
100
AcDbLine
10
72.819013
20
-0.240606
30
0
11
72.824383
21
-0.242209
31
0
39
0
210
0
220
0
230
1
0
LINE
5
72
100
AcDbEntity
8
1
62
256
6
ByLayer
370
-1
48
1
60
0
100
AcDbLine
10
78.901648
20
-3.50754
30
0
11
79.17367
21
-3.406129
31
0
39
0
210
0
220
0
230
1
0
LINE
5
73
100
AcDbEntity
8
1
62
256
6
ByLayer
370
-1
48
1
60
0
100
AcDbLine
10
67.30258
20
-8.50875
30
0
11
71.829981
21
8.333599
31
0
39
0
210
0
220
0
230
1
0
LINE
5
74
100
AcDbEntity
8
1
62
256
6
ByLayer
370
-1
48
1
60
0
100
AcDbLine
10
72.81764
20
-0.11376
30
0
11
71.640934
21
1.387519
31
0
39
0
210
0
220
0
230
1
0
LINE
5
75
100
AcDbEntity
8
1
62
256
6
ByLayer
370
-1
48
1
60
0
100
AcDbLine
10
72.267123
20
-5.980897
30
0
11
72.783555
21
-5.788371
31
0
39
0
210
0
220
0
230
1
0
LINE
5
76
100
AcDbEntity
8
1
62
256
6
ByLayer
370
-1
48
1
60
0
100
AcDbLine
10
0
20
4.338787
30
0
11
55.062026
21
4.338787
31
0
39
0
210
0
220
0
230
1
0
LINE
5
77
100
AcDbEntity
8
1
62
256
6
ByLayer
370
-1
48
1
60
0
100
AcDbLine
10
73.108687
20
-5.667153
30
0
11
72.783554
21
-5.788363
31
0
39
0
210
0
220
0
230
1
0
LINE
5
78
100
AcDbEntity
8
1
62
256
6
ByLayer
370
-1
48
1
60
0
100
AcDbLine
10
67.073548
20
9.605378
30
0
11
71.829981
21
8.333599
31
0
39
0
210
0
220
0
230
1
0
LINE
5
79
100
AcDbEntity
8
1
62
256
6
ByLayer
370
-1
48
1
60
0
100
AcDbLine
10
72.441061
20
0.241597
30
0
11
72.783555
21
-5.788371
31
0
39
0
210
0
220
0
230
1
0
LINE
5
7A
100
AcDbEntity
8
1
62
256
6
ByLayer
370
-1
48
1
60
0
100
AcDbLine
10
72.783554
20
-5.788363
30
0
11
72.441061
21
0.241597
31
0
39
0
210
0
220
0
230
1
0
LINE
5
7B
100
AcDbEntity
8
1
62
256
6
ByLayer
370
-1
48
1
60
0
100
AcDbLine
10
54.175694
20
-8.50875
30
0
11
67.30258
21
-8.50875
31
0
39
0
210
0
220
0
230
1
0
LINE
5
7C
100
AcDbEntity
8
1
62
256
6
ByLayer
370
-1
48
1
60
0
100
AcDbLine
10
72.668946
20
2.723683
30
0
11
73.174245
21
-6.917997
31
0
39
0
210
0
220
0
230
1
0
LINE
5
7D
100
AcDbEntity
8
1
62
256
6
ByLayer
370
-1
48
1
60
0
100
AcDbLine
10
79.92946
20
-14.483666
30
0
11
79.424161
21
-4.841986
31
0
39
0
210
0
220
0
230
1
0
LINE
5
7E
100
AcDbEntity
8
1
62
256
6
ByLayer
370
-1
48
1
60
0
100
AcDbLine
10
79.340611
20
-4.61917
30
0
11
73.378059
21
2.988041
31
0
39
0
210
0
220
0
230
1
0
LINE
5
7F
100
AcDbEntity
8
1
62
256
6
ByLayer
370
-1
48
1
60
0
100
AcDbLine
10
73.257795
20
-7.140813
30
0
11
79.220347
21
-14.748024
31
0
39
0
210
0
220
0
230
1
0
LINE
5
80
100
AcDbEntity
8
1
62
256
6
ByLayer
370
-1
48
1
60
0
100
AcDbLine
10
76.442978
20
-6.699887
30
0
11
76.446947
21
-6.775613
31
0
39
0
210
0
220
0
230
1
0
LINE
5
81
100
AcDbEntity
8
1
62
256
6
ByLayer
370
-1
48
1
60
0
100
AcDbLine
10
77.004061
20
-5.218434
30
0
11
77.008028
21
-5.294134
31
0
39
0
210
0
220
0
230
1
0
LINE
5
82
100
AcDbEntity
8
1
62
256
6
ByLayer
370
-1
48
1
60
0
100
AcDbLine
10
75.860557
20
-6.603098
30
0
11
75.864526
21
-6.678825
31
0
39
0
210
0
220
0
230
1
0
LINE
5
83
100
AcDbEntity
8
1
62
256
6
ByLayer
370
-1
48
1
60
0
100
AcDbLine
10
77.152631
20
-6.121411
30
0
11
77.1566
21
-6.197138
31
0
39
0
210
0
220
0
230
1
0
LINE
5
84
100
AcDbEntity
8
1
62
256
6
ByLayer
370
-1
48
1
60
0
100
AcDbLine
10
75.378555
20
-5.824425
30
0
11
75.382522
21
-5.900124
31
0
39
0
210
0
220
0
230
1
0
LINE
5
85
100
AcDbEntity
8
SK1
62
256
6
ByLayer
370
-1
48
1
60
0
100
AcDbLine
10
-171.32
20
7.99125
30
0
11
-171.32
21
-7.99125
31
0
39
0
210
0
220
0
230
1
0
LINE
5
86
100
AcDbEntity
8
SK1
62
256
6
ByLayer
370
-1
48
1
60
0
100
AcDbLine
10
-169.32
20
-4.338787
30
0
11
-169.32
21
-8.50875
31
0
39
0
210
0
220
0
230
1
0
LINE
5
87
100
AcDbEntity
8
SK1
62
256
6
ByLayer
370
-1
48
1
60
0
100
AcDbLine
10
-169.32
20
9.99125
30
0
11
-169.32
21
4.338787
31
0
39
0
210
0
220
0
230
1
0
LINE
5
88
100
AcDbEntity
8
SK1
62
256
6
ByLayer
370
-1
48
1
60
0
100
AcDbLine
10
0
20
9.99125
30
0
11
0
21
4.338787
31
0
39
0
210
0
220
0
230
1
0
LINE
5
89
100
AcDbEntity
8
SK1
62
256
6
ByLayer
370
-1
48
1
60
0
100
AcDbLine
10
0
20
-4.338787
30
0
11
-169.32
21
-4.338787
31
0
39
0
210
0
220
0
230
1
0
LINE
5
8A
100
AcDbEntity
8
SK1
62
256
6
ByLayer
370
-1
48
1
60
0
100
AcDbLine
10
0
20
-4.338787
30
0
11
0
21
-8.50875
31
0
39
0
210
0
220
0
230
1
0
LINE
5
8B
100
AcDbEntity
8
SK1
62
256
6
ByLayer
370
-1
48
1
60
0
100
AcDbLine
10
-169.32
20
4.338787
30
0
11
0
21
4.338787
31
0
39
0
210
0
220
0
230
1
0
LINE
5
8C
100
AcDbEntity
8
SK1
62
256
6
ByLayer
370
-1
48
1
60
0
100
AcDbLine
10
-169.32
20
-8.50875
30
0
11
0
21
-8.50875
31
0
39
0
210
0
220
0
230
1
0
LINE
5
8D
100
AcDbEntity
8
SK1
62
256
6
ByLayer
370
-1
48
1
60
0
100
AcDbLine
10
0
20
-4.338787
30
0
11
0
21
4.338787
31
0
39
0
210
0
220
0
230
1
0
LINE
5
8E
100
AcDbEntity
8
2
62
256
6
ByLayer
370
-1
48
1
60
1
100
AcDbLine
10
79.93
20
0
30
0
11
79.931
21
0.001
31
0
39
0
210
0
220
0
230
1
0
MTEXT
5
DB
100
AcDbEntity
8
SK6
62
256
6
ByLayer
370
-1
48
1
60
0
100
AcDbMText
10
-42.32
20
16.661875
30
0
210
0
220
0
230
1
1
\W00.757;\fsimplex.shx,bigfont.shx;A20S-SVUBL 11-EB1 
40
3.5
41
0
44
1.084337
50
0
71
7
72
5
7
DEFAULT
0
DIMENSION
5
10E
100
AcDbEntity
8
2
62
256
6
ByLayer
370
-3
48
1
60
0
100
AcDbDimension
2
DimnDraft3D1
10
92.18
20
0
30
0
11
92.18
21
-12.050658
31
0
70
32
71
5
72
1
41
1
210
0
220
0
230
1
3
Standard
100
AcDbAlignedDimension
13
81.93
23
-14.9
33
0
14
81.93
24
0
34
0
50
90
100
AcDbRotatedDimension
1001
ACAD
1000
DSTYLE
1002
{
1070
    74
1070
     0
1070
   279
1070
     0
1070
   172
1070
     1
1070
   173
1070
     1
1070
   340
1005
DC
1070
    77
1070
     1
1070
    73
1070
     0
1070
   171
1070
     4
1070
   274
1070
     4
1070
   177
1070
     2
1070
   176
1070
     2
1070
   178
1070
     7
1070
    78
1070
     8
1070
    41
1041
3.175
1070
   147
1041
2.25
1070
    42
1041
2.0
1070
    44
1041
2.0
1070
   140
1041
4.5
1070
   343
1005
10F
1070
   344
1005
10F
1002
}
0
DIMENSION
5
124
100
AcDbEntity
8
SK2
62
256
6
ByLayer
370
-3
48
1
60
0
100
AcDbDimension
2
DimnDraft3D2
10
-181.07
20
9.99125
30
0
11
-181.07
21
-4.784211
31
0
70
32
71
5
72
1
41
1
210
0
220
0
230
1
3
Standard
100
AcDbAlignedDimension
13
-173.32
23
-9.99125
33
0
14
-173.32
24
9.99125
34
0
50
90
100
AcDbRotatedDimension
1001
ACAD
1000
DSTYLE
1002
{
1070
    74
1070
     0
1070
   279
1070
     0
1070
   172
1070
     1
1070
   173
1070
     1
1070
   340
1005
DC
1070
    77
1070
     1
1070
    73
1070
     0
1070
   171
1070
     4
1070
   274
1070
     4
1070
   177
1070
     2
1070
   176
1070
     2
1070
   178
1070
     7
1070
    78
1070
     8
1070
    41
1041
3.175
1070
   147
1041
2.25
1070
    42
1041
2.0
1070
    44
1041
2.0
1070
   140
1041
4.5
1070
   343
1005
10F
1070
   344
1005
10F
1002
}
0
DIMENSION
5
132
100
AcDbEntity
8
SK2
62
256
6
ByLayer
370
-3
48
1
60
0
100
AcDbDimension
2
DimnDraft3D3
10
79.93
20
-32.15
30
0
11
-52.510132
21
-32.15
31
0
70
32
71
5
72
1
41
1
210
0
220
0
230
1
3
Standard
100
AcDbAlignedDimension
13
-171.32
23
-11.99125
33
0
14
79.93
24
-16.9
34
0
50
0
100
AcDbRotatedDimension
1001
ACAD
1000
DSTYLE
1002
{
1070
   279
1070
     0
1070
   172
1070
     1
1070
   173
1070
     1
1070
   340
1005
DC
1070
    77
1070
     1
1070
    73
1070
     0
1070
   171
1070
     4
1070
   274
1070
     4
1070
   177
1070
     2
1070
   176
1070
     2
1070
   178
1070
     7
1070
    78
1070
     8
1070
    41
1041
3.175
1070
   147
1041
2.25
1070
    42
1041
2.0
1070
    44
1041
2.0
1070
   140
1041
4.5
1070
   343
1005
10F
1070
   344
1005
10F
1002
}
0
DIMENSION
5
140
100
AcDbEntity
8
2
62
256
6
ByLayer
370
-3
48
1
60
0
100
AcDbDimension
2
DimnDraft3D4
10
119.075531
20
0
30
0
11
102.183339
21
33.528479
31
0
70
34
71
5
72
1
41
1
210
0
220
0
230
1
3
Standard
100
AcDb2LineAngularDimension
13
79.249633
23
-1.917816
33
0
14
77.059537
24
39.871689
34
0
15
81.93
25
0
35
0
16
108.353535
26
30.775028
36
0
40
0
0
ENDSEC
0
SECTION
2
OBJECTS
0
DICTIONARY
5
171
330
0
100
AcDbDictionary
280
0
281
1
3
ACAD_GROUP
350
172
3
ACAD_MLINESTYLE
350
173
0
DICTIONARY
5
172
330
0
100
AcDbDictionary
280
0
281
1
0
DICTIONARY
5
173
330
0
100
AcDbDictionary
280
0
281
1
3
Standard
350
18
0
MLINESTYLE
5
18
330
173
100
AcDbMlineStyle
2
Standard
70
0
3

62
256
51
90
52
90
71
2
49
-0.5
62
256
6
ByLayer
49
0.5
62
256
6
ByLayer
0
RASTERVARIABLES
5
15f
330

100
AcDbRasterVariables
90
0
70
1
71
1
72
1
0
ENDSEC
0
EOF
