0
SECTION
2
HEADER
9
$ACADVER
1
AC1015
9
$DWGCODEPAGE
3
ANSI_1252
9
$HANDSEED
5
188
9
$ANGBASE
50
0
9
$ANGDIR
70
0
9
$ATTMODE
70
1
9
$AUNITS
70
0
9
$AUPREC
70
0
9
$CECOLOR
62
256
9
$CELTSCALE
40
1
9
$CELTYPE
6
ByLayer
9
$CELWEIGHT
370
-1
9
$CLAYER
8
0
9
$CMLJUST
70
0
9
$CMLSCALE
40
1
9
$CMLSTYLE
2
Standard
9
$DIMSTYLE
2
Standard
9
$TEXTSIZE
40
0.2
9
$TEXTSTYLE
7
Standard
9
$LUNITS
70
2
9
$LUPREC
70
4
9
$EXTNAMES
290
1
9
$INSUNITS
70
4
9
$LTSCALE
40
1
9
$LWDISPLAY
290
0
9
$PDMODE
70
0
9
$PDSIZE
40
0
9
$PLINEGEN
70
0
0
ENDSEC
0
SECTION
2
CLASSES
0
CLASS
1
RASTERVARIABLES
2
AcDbRasterVariables
3
ISM
90
0
280
0
281
0
0
ENDSEC
0
SECTION
2
TABLES
0
TABLE
2
VPORT
5
17e
100
AcDbSymbolTable
0
VPORT
5
1
100
AcDbSymbolTableRecord
100
AcDbViewportTableRecord
2
*Active
70
0
10
0
20
0
11
1
21
1
12
-1
22
1
13
0
23
0
14
0.5
24
0.5
15
10
25
10
16
0
26
0
36
1
17
0
27
0
37
0
0
ENDTAB
0
TABLE
2
LTYPE
5
17f
100
AcDbSymbolTable
0
LTYPE
5
14
100
AcDbSymbolTableRecord
100
AcDbLinetypeTableRecord
70
0
2
ByBlock
3

72
65
73
0
40
0
0
LTYPE
5
15
100
AcDbSymbolTableRecord
100
AcDbLinetypeTableRecord
70
0
2
ByLayer
3

72
65
73
0
40
0
0
LTYPE
5
16
100
AcDbSymbolTableRecord
100
AcDbLinetypeTableRecord
70
0
2
CONTINUOUS
3
Solid line
72
65
73
0
40
0
0
LTYPE
5
3B
100
AcDbSymbolTableRecord
100
AcDbLinetypeTableRecord
70
0
2
DASHED
3
__ __ __ __ __ __ __ __ __
72
65
73
2
40
25.72
49
12.86
74
0
49
-12.86
74
0
0
LTYPE
5
3C
100
AcDbSymbolTableRecord
100
AcDbLinetypeTableRecord
70
0
2
HIDDEN
3
_ _ _ _ _ _ _ _ _ _ _ _ _ _ _
72
65
73
2
40
0.5
49
0.25
74
0
49
-0.25
74
0
0
LTYPE
5
3D
100
AcDbSymbolTableRecord
100
AcDbLinetypeTableRecord
70
0
2
PHANTOM
3
____ _ _ ____ _ _ _____ _ _ ____
72
65
73
6
40
50.5
49
18
74
0
49
-6.5
74
0
49
6.5
74
0
49
-6.5
74
0
49
6.5
74
0
49
-6.5
74
0
0
LTYPE
5
3E
100
AcDbSymbolTableRecord
100
AcDbLinetypeTableRecord
70
0
2
CENTER
3
____ _ ____ _ ____ _ ____
72
65
73
4
40
47.5
49
22
74
0
49
-8.5
74
0
49
8.5
74
0
49
-8.5
74
0
0
LTYPE
5
3F
100
AcDbSymbolTableRecord
100
AcDbLinetypeTableRecord
70
0
2
DOT
3
.........................
72
65
73
2
40
10
49
0
74
0
49
-10
74
0
0
LTYPE
5
40
100
AcDbSymbolTableRecord
100
AcDbLinetypeTableRecord
70
0
2
DASHDOT
3
_._._._._._._._._._._._._._._._.
72
65
73
4
40
70
49
31
74
0
49
-13
74
0
49
13
74
0
49
-13
74
0
0
ENDTAB
0
TABLE
2
LAYER
5
180
100
AcDbSymbolTable
0
LAYER
5
10
100
AcDbSymbolTableRecord
100
AcDbLayerTableRecord
2
0
70
0
62
7
6
CONTINUOUS
290
1
370
-3
390
0
0
LAYER
5
42
100
AcDbSymbolTableRecord
100
AcDbLayerTableRecord
2
80
70
0
62
-6
6
CONTINUOUS
290
1
370
-3
390
0
0
LAYER
5
44
100
AcDbSymbolTableRecord
100
AcDbLayerTableRecord
2
81
70
0
62
-3
6
CONTINUOUS
290
1
370
-3
390
0
0
LAYER
5
46
100
AcDbSymbolTableRecord
100
AcDbLayerTableRecord
2
1
70
0
62
4
6
CONTINUOUS
290
1
370
-3
390
0
0
LAYER
5
48
100
AcDbSymbolTableRecord
100
AcDbLayerTableRecord
2
2
70
0
62
7
6
CONTINUOUS
290
1
370
-3
390
0
0
LAYER
5
4F
100
AcDbSymbolTableRecord
100
AcDbLayerTableRecord
2
4
70
0
62
-2
6
CENTER
290
1
370
-3
390
0
0
LAYER
5
16a
100
AcDbSymbolTableRecord
100
AcDbLayerTableRecord
2
SK4
70
0
62
2
6
CENTER
290
1
370
-3
390
0
0
LAYER
5
16b
100
AcDbSymbolTableRecord
100
AcDbLayerTableRecord
2
SK1
70
0
62
4
6
CONTINUOUS
290
1
370
-3
390
0
0
LAYER
5
16c
100
AcDbSymbolTableRecord
100
AcDbLayerTableRecord
2
SK6
70
0
62
5
6
CONTINUOUS
290
1
370
-3
390
0
0
LAYER
5
16d
100
AcDbSymbolTableRecord
100
AcDbLayerTableRecord
2
SK2
70
0
62
7
6
CONTINUOUS
290
1
370
-3
390
0
0
ENDTAB
0
TABLE
2
STYLE
5
181
100
AcDbSymbolTable
0
STYLE
5
11
100
AcDbSymbolTableRecord
100
AcDbTextStyleTableRecord
2
Standard
3
txt
70
0
71
0
40
0
41
1
42
0
50
0
0
STYLE
5
E6
100
AcDbSymbolTableRecord
100
AcDbTextStyleTableRecord
2
DEFAULT
3
simplex.shx
70
0
71
0
40
0
41
1
42
0
50
0
0
STYLE
5
109
100
AcDbSymbolTableRecord
100
AcDbTextStyleTableRecord
2
DWGDirectTextStyle
3
SIMPLEX
70
0
71
0
40
0
41
1
42
0
50
0
0
ENDTAB
0
TABLE
2
DIMSTYLE
5
182
100
AcDbSymbolTable
100
AcDbDimStyleTable
0
DIMSTYLE
105
27
100
AcDbSymbolTableRecord
100
AcDbDimStyleTableRecord
2
Standard
70
0
3
<>
41
0.18
42
0.0625
44
0.18
140
0.18
147
0.09
73
0
74
0
77
1
271
2
275
0
278
52
280
0
340
11
0
ENDTAB
0
TABLE
2
VIEW
5
183
100
AcDbSymbolTable
0
ENDTAB
0
TABLE
2
UCS
5
184
100
AcDbSymbolTable
0
ENDTAB
0
TABLE
2
APPID
5
185
100
AcDbSymbolTable
0
APPID
5
12
100
AcDbSymbolTableRecord
100
AcDbRegAppTableRecord
2
ACAD
70
0
0
ENDTAB
0
TABLE
2
BLOCK_RECORD
5
186
100
AcDbSymbolTable
0
BLOCK_RECORD
5
1F
100
AcDbSymbolTableRecord
100
AcDbBlockTableRecord
2
*Model_Space
340
0
70
0
0
BLOCK_RECORD
5
1B
100
AcDbSymbolTableRecord
100
AcDbBlockTableRecord
2
*Paper_Space
340
0
70
0
0
BLOCK_RECORD
5
23
100
AcDbSymbolTableRecord
100
AcDbBlockTableRecord
2
*Paper_Space0
340
0
70
0
0
BLOCK_RECORD
5
10B
100
AcDbSymbolTableRecord
100
AcDbBlockTableRecord
2
DimnDraft3D1
340
0
70
0
0
BLOCK_RECORD
5
119
100
AcDbSymbolTableRecord
100
AcDbBlockTableRecord
2
_CLOSED
340
0
70
0
0
BLOCK_RECORD
5
120
100
AcDbSymbolTableRecord
100
AcDbBlockTableRecord
2
DimnDraft3D2
340
0
70
0
0
BLOCK_RECORD
5
12F
100
AcDbSymbolTableRecord
100
AcDbBlockTableRecord
2
DimnDraft3D3
340
0
70
0
0
BLOCK_RECORD
5
13D
100
AcDbSymbolTableRecord
100
AcDbBlockTableRecord
2
DimnDraft3D4
340
0
70
0
0
ENDTAB
0
ENDSEC
0
SECTION
2
BLOCKS
0
BLOCK
5
20
100
AcDbEntity
8
0
100
AcDbBlockBegin
2
*Model_Space
70
0
10
0
20
0
30
0
3
*Model_Space
0
ENDBLK
5
21
100
AcDbEntity
8
0
100
AcDbBlockEnd
0
BLOCK
5
1C
100
AcDbEntity
8
0
100
AcDbBlockBegin
2
*Paper_Space
70
0
10
0
20
0
30
0
3
*Paper_Space
0
ENDBLK
5
1D
100
AcDbEntity
8
0
100
AcDbBlockEnd
0
BLOCK
5
24
100
AcDbEntity
8
0
100
AcDbBlockBegin
2
*Paper_Space0
70
0
10
0
20
0
30
0
3
*Paper_Space0
0
ENDBLK
5
25
100
AcDbEntity
8
0
100
AcDbBlockEnd
0
BLOCK
5
116
100
AcDbEntity
8
0
100
AcDbBlockBegin
2
DimnDraft3D1
70
0
10
0
20
0
30
0
3
DimnDraft3D1
0
MTEXT
5
10C
100
AcDbEntity
8
2
62
256
6
ByLayer
370
-1
48
1
60
0
100
AcDbMText
10
91.055
20
-10.925658
30
0
210
0
220
0
230
1
1
\W01.000;\fsimplex.shx,bigfont.shx;15.0 
40
4.5
41
0
44
1.084337
50
90
71
7
72
5
7
DEFAULT
0
LINE
5
10D
100
AcDbEntity
8
2
62
256
6
ByLayer
370
-1
48
1
60
0
100
AcDbLine
10
81.93
20
-14.9
30
0
11
94.18
21
-14.9
31
0
39
0
210
0
220
0
230
1
0
LINE
5
10E
100
AcDbEntity
8
2
62
256
6
ByLayer
370
-1
48
1
60
0
100
AcDbLine
10
81.93
20
0
30
0
11
94.18
21
0
31
0
39
0
210
0
220
0
230
1
0
LINE
5
10F
100
AcDbEntity
8
2
62
256
6
ByLayer
370
-1
48
1
60
0
100
AcDbLine
10
92.18
20
-26.15
30
0
11
92.18
21
11.25
31
0
39
0
210
0
220
0
230
1
0
LINE
5
110
100
AcDbEntity
8
2
62
256
6
ByLayer
370
-1
48
1
60
0
100
AcDbLine
10
92.18
20
-14.9
30
0
11
92.597997
21
-18.074998
31
0
39
0
210
0
220
0
230
1
0
LINE
5
111
100
AcDbEntity
8
2
62
256
6
ByLayer
370
-1
48
1
60
0
100
AcDbLine
10
92.18
20
-14.9
30
0
11
91.762003
21
-18.075002
31
0
39
0
210
0
220
0
230
1
0
LINE
5
112
100
AcDbEntity
8
2
62
256
6
ByLayer
370
-1
48
1
60
0
100
AcDbLine
10
92.597997
20
-18.074998
30
0
11
91.762003
21
-18.075002
31
0
39
0
210
0
220
0
230
1
0
LINE
5
113
100
AcDbEntity
8
2
62
256
6
ByLayer
370
-1
48
1
60
0
100
AcDbLine
10
92.18
20
0
30
0
11
91.762003
21
3.174998
31
0
39
0
210
0
220
0
230
1
0
LINE
5
114
100
AcDbEntity
8
2
62
256
6
ByLayer
370
-1
48
1
60
0
100
AcDbLine
10
92.18
20
0
30
0
11
92.597997
21
3.175002
31
0
39
0
210
0
220
0
230
1
0
LINE
5
115
100
AcDbEntity
8
2
62
256
6
ByLayer
370
-1
48
1
60
0
100
AcDbLine
10
91.762003
20
3.174998
30
0
11
92.597997
21
3.175002
31
0
39
0
210
0
220
0
230
1
0
ENDBLK
5
117
100
AcDbEntity
8
0
100
AcDbBlockEnd
0
BLOCK
5
11A
100
AcDbEntity
8
0
100
AcDbBlockBegin
2
_CLOSED
70
0
10
0
20
0
30
0
3
_CLOSED
0
LINE
5
11C
100
AcDbEntity
8
0
62
256
6
ByLayer
370
-2
48
1
60
0
100
AcDbLine
10
-1
20
0.166667
30
0
11
0
21
0
31
0
39
0
210
0
220
0
230
1
0
LINE
5
11D
100
AcDbEntity
8
0
62
256
6
ByLayer
370
-2
48
1
60
0
100
AcDbLine
10
0
20
0
30
0
11
-1
21
-0.166667
31
0
39
0
210
0
220
0
230
1
0
LINE
5
11E
100
AcDbEntity
8
0
62
256
6
ByLayer
370
-2
48
1
60
0
100
AcDbLine
10
-1
20
0.166667
30
0
11
-1
21
-0.166667
31
0
39
0
210
0
220
0
230
1
0
LINE
5
11F
100
AcDbEntity
8
0
62
256
6
ByLayer
370
-2
48
1
60
0
100
AcDbLine
10
0
20
0
30
0
11
-1
21
0
31
0
39
0
210
0
220
0
230
1
0
ENDBLK
5
11B
100
AcDbEntity
8
0
100
AcDbBlockEnd
0
BLOCK
5
12C
100
AcDbEntity
8
0
100
AcDbBlockBegin
2
DimnDraft3D2
70
0
10
0
20
0
30
0
3
DimnDraft3D2
0
MTEXT
5
121
100
AcDbEntity
8
SK2
62
256
6
ByLayer
370
-1
48
1
60
0
100
AcDbMText
10
-182.195
20
-3.659211
30
0
210
0
220
0
230
1
1
\W01.000;\fsimplex.shx,bigfont.shx;%%c20 
40
4.5
41
0
44
1.084337
50
90
71
7
72
5
7
DEFAULT
0
LINE
5
123
100
AcDbEntity
8
SK2
62
256
6
ByLayer
370
-1
48
1
60
0
100
AcDbLine
10
-173.32
20
-9.99125
30
0
11
-183.07
21
-9.99125
31
0
39
0
210
0
220
0
230
1
0
LINE
5
124
100
AcDbEntity
8
SK2
62
256
6
ByLayer
370
-1
48
1
60
0
100
AcDbLine
10
-173.32
20
9.99125
30
0
11
-183.07
21
9.99125
31
0
39
0
210
0
220
0
230
1
0
LINE
5
125
100
AcDbEntity
8
SK2
62
256
6
ByLayer
370
-1
48
1
60
0
100
AcDbLine
10
-181.07
20
-9.99125
30
0
11
-181.07
21
9.99125
31
0
39
0
210
0
220
0
230
1
0
LINE
5
126
100
AcDbEntity
8
SK2
62
256
6
ByLayer
370
-1
48
1
60
0
100
AcDbLine
10
-181.07
20
-9.99125
30
0
11
-181.487997
21
-6.816252
31
0
39
0
210
0
220
0
230
1
0
LINE
5
127
100
AcDbEntity
8
SK2
62
256
6
ByLayer
370
-1
48
1
60
0
100
AcDbLine
10
-181.07
20
-9.99125
30
0
11
-180.652003
21
-6.816248
31
0
39
0
210
0
220
0
230
1
0
LINE
5
128
100
AcDbEntity
8
SK2
62
256
6
ByLayer
370
-1
48
1
60
0
100
AcDbLine
10
-181.487997
20
-6.816252
30
0
11
-180.652003
21
-6.816248
31
0
39
0
210
0
220
0
230
1
0
LINE
5
129
100
AcDbEntity
8
SK2
62
256
6
ByLayer
370
-1
48
1
60
0
100
AcDbLine
10
-181.07
20
9.99125
30
0
11
-180.652003
21
6.816252
31
0
39
0
210
0
220
0
230
1
0
LINE
5
12A
100
AcDbEntity
8
SK2
62
256
6
ByLayer
370
-1
48
1
60
0
100
AcDbLine
10
-181.07
20
9.99125
30
0
11
-181.487997
21
6.816248
31
0
39
0
210
0
220
0
230
1
0
LINE
5
12B
100
AcDbEntity
8
SK2
62
256
6
ByLayer
370
-1
48
1
60
0
100
AcDbLine
10
-180.652003
20
6.816252
30
0
11
-181.487997
21
6.816248
31
0
39
0
210
0
220
0
230
1
0
ENDBLK
5
12D
100
AcDbEntity
8
0
100
AcDbBlockEnd
0
BLOCK
5
13A
100
AcDbEntity
8
0
100
AcDbBlockBegin
2
DimnDraft3D3
70
0
10
0
20
0
30
0
3
DimnDraft3D3
0
MTEXT
5
130
100
AcDbEntity
8
SK2
62
256
6
ByLayer
370
-1
48
1
60
0
100
AcDbMText
10
-51.385132
20
-31.025
30
0
210
0
220
0
230
1
1
\W01.000;\fsimplex.shx,bigfont.shx;250.0 
40
4.5
41
0
44
1.084337
50
0
71
7
72
5
7
DEFAULT
0
LINE
5
131
100
AcDbEntity
8
SK2
62
256
6
ByLayer
370
-1
48
1
60
0
100
AcDbLine
10
-171.32
20
-11.99125
30
0
11
-171.32
21
-34.15
31
0
39
0
210
0
220
0
230
1
0
LINE
5
132
100
AcDbEntity
8
SK2
62
256
6
ByLayer
370
-1
48
1
60
0
100
AcDbLine
10
79.93
20
-16.9
30
0
11
79.93
21
-34.15
31
0
39
0
210
0
220
0
230
1
0
LINE
5
133
100
AcDbEntity
8
SK2
62
256
6
ByLayer
370
-1
48
1
60
0
100
AcDbLine
10
-171.32
20
-32.15
30
0
11
79.93
21
-32.15
31
0
39
0
210
0
220
0
230
1
0
LINE
5
134
100
AcDbEntity
8
SK2
62
256
6
ByLayer
370
-1
48
1
60
0
100
AcDbLine
10
-171.32
20
-32.15
30
0
11
-168.145002
21
-31.732003
31
0
39
0
210
0
220
0
230
1
0
LINE
5
135
100
AcDbEntity
8
SK2
62
256
6
ByLayer
370
-1
48
1
60
0
100
AcDbLine
10
-171.32
20
-32.15
30
0
11
-168.144998
21
-32.567997
31
0
39
0
210
0
220
0
230
1
0
LINE
5
136
100
AcDbEntity
8
SK2
62
256
6
ByLayer
370
-1
48
1
60
0
100
AcDbLine
10
-168.145002
20
-31.732003
30
0
11
-168.144998
21
-32.567997
31
0
39
0
210
0
220
0
230
1
0
LINE
5
137
100
AcDbEntity
8
SK2
62
256
6
ByLayer
370
-1
48
1
60
0
100
AcDbLine
10
79.93
20
-32.15
30
0
11
76.755002
21
-32.567997
31
0
39
0
210
0
220
0
230
1
0
LINE
5
138
100
AcDbEntity
8
SK2
62
256
6
ByLayer
370
-1
48
1
60
0
100
AcDbLine
10
79.93
20
-32.15
30
0
11
76.754998
21
-31.732003
31
0
39
0
210
0
220
0
230
1
0
LINE
5
139
100
AcDbEntity
8
SK2
62
256
6
ByLayer
370
-1
48
1
60
0
100
AcDbLine
10
76.755002
20
-32.567997
30
0
11
76.754998
21
-31.732003
31
0
39
0
210
0
220
0
230
1
0
ENDBLK
5
13B
100
AcDbEntity
8
0
100
AcDbBlockEnd
0
BLOCK
5
148
100
AcDbEntity
8
0
100
AcDbBlockBegin
2
DimnDraft3D4
70
0
10
0
20
0
30
0
3
DimnDraft3D4
0
MTEXT
5
13E
100
AcDbEntity
8
2
62
256
6
ByLayer
370
-1
48
1
60
0
100
AcDbMText
10
91.882045
20
36.215882
30
0
210
0
220
0
230
1
1
\W01.000;\fsimplex.shx,bigfont.shx;107%%d30' 
40
4.5
41
0
44
1.084337
50
323.75
71
7
72
5
7
DEFAULT
0
LINE
5
13F
100
AcDbEntity
8
2
62
256
6
ByLayer
370
-1
48
1
60
0
100
AcDbLine
10
76.020825
20
-2.50168
30
0
11
63.225946
21
38.078491
31
0
39
0
210
0
220
0
230
1
0
LINE
5
140
100
AcDbEntity
8
2
62
256
6
ByLayer
370
-1
48
1
60
0
100
AcDbLine
10
81.93
20
0
30
0
11
115.158455
21
0
31
0
39
0
210
0
220
0
230
1
0
ARC
5
141
100
AcDbEntity
8
2
62
256
6
ByLayer
370
-1
48
1
60
0
100
AcDbCircle
39
0
10
75.232048
20
0
30
0
40
37.9264068640929
210
0
220
0
230
1
100
AcDbArc
50
0
51
107.5
0
LINE
5
142
100
AcDbEntity
8
2
62
256
6
ByLayer
370
-1
48
1
60
0
100
AcDbLine
10
63.827358
20
36.171057
30
0
11
66.757385
21
37.463449
31
0
39
0
210
0
220
0
230
1
0
LINE
5
143
100
AcDbEntity
8
2
62
256
6
ByLayer
370
-1
48
1
60
0
100
AcDbLine
10
63.827358
20
36.171057
30
0
11
66.992045
21
36.661066
31
0
39
0
210
0
220
0
230
1
0
LINE
5
144
100
AcDbEntity
8
2
62
256
6
ByLayer
370
-1
48
1
60
0
100
AcDbLine
10
66.757385
20
37.463449
30
0
11
66.992045
21
36.661066
31
0
39
0
210
0
220
0
230
1
0
LINE
5
145
100
AcDbEntity
8
2
62
256
6
ByLayer
370
-1
48
1
60
0
100
AcDbLine
10
113.158455
20
0
30
0
11
112.674145
21
3.165562
31
0
39
0
210
0
220
0
230
1
0
LINE
5
146
100
AcDbEntity
8
2
62
256
6
ByLayer
370
-1
48
1
60
0
100
AcDbLine
10
113.158455
20
0
30
0
11
113.509955
21
3.183049
31
0
39
0
210
0
220
0
230
1
0
LINE
5
147
100
AcDbEntity
8
2
62
256
6
ByLayer
370
-1
48
1
60
0
100
AcDbLine
10
112.674145
20
3.165562
30
0
11
113.509955
21
3.183049
31
0
39
0
210
0
220
0
230
1
0
ENDBLK
5
149
100
AcDbEntity
8
0
100
AcDbBlockEnd
0
ENDSEC
0
SECTION
2
ENTITIES
0
ELLIPSE
5
93
100
AcDbEntity
8
1
62
256
6
ByLayer
370
-1
48
1
60
0
100
AcDbEllipse
10
68.229634
20
0.4703
30
0
11
1.43057542612234
21
0.451058699256406
31
0
210
0
220
0
230
1
40
0.996182
41
-2.3840224914464
42
-1.35283020241939
0
ELLIPSE
5
94
100
AcDbEntity
8
1
62
256
6
ByLayer
370
-1
48
1
60
0
100
AcDbEllipse
10
68.229634
20
0.4703
30
0
11
1.43057542612234
21
0.451058699256406
31
0
210
0
220
0
230
1
40
0.996182
41
-0.303746200465501
42
-0.19050621957288
0
ELLIPSE
5
95
100
AcDbEntity
8
1
62
256
6
ByLayer
370
-1
48
1
60
0
100
AcDbEllipse
10
68.542755
20
-0.522791
30
0
11
0.0610615018373813
21
2.76759210050963
31
0
210
0
220
0
230
-1
40
0.460522
41
1.1257226159836
42
1.19889275006277
0
ELLIPSE
5
96
100
AcDbEntity
8
1
62
256
6
ByLayer
370
-1
48
1
60
0
100
AcDbEllipse
10
79.687191
20
-4.860293
30
0
11
-3.05189424239435
21
-0.962258558413677
31
0
210
0
220
0
230
1
40
0.996182
41
-0.488979867887346
42
-0.357994246955435
0
ELLIPSE
5
97
100
AcDbEntity
8
1
62
256
6
ByLayer
370
-1
48
1
60
0
100
AcDbEllipse
10
68.674865
20
-0.941791
30
0
11
1.79804332746557
21
-0.83229951977794
31
0
210
0
220
0
230
-1
40
0.24294
41
1.89372757330974
42
2.16617411356051
0
ELLIPSE
5
98
100
AcDbEntity
8
1
62
256
6
ByLayer
370
-1
48
1
60
0
100
AcDbEllipse
10
70.611613
20
-11.49999
30
0
11
-3.0518942423943
21
-0.962258558413661
31
0
210
0
220
0
230
1
40
0.996182
41
-1.71349382629574
42
-1.09083078249642
0
ELLIPSE
5
99
100
AcDbEntity
8
1
62
256
6
ByLayer
370
-1
48
1
60
0
100
AcDbEllipse
10
68.221759
20
0.495276
30
0
11
1.43057542612234
21
0.451058699256407
31
0
210
0
220
0
230
1
40
0.996182
41
-3.04649114272615
42
-1.35277984851599
0
ELLIPSE
5
9A
100
AcDbEntity
8
1
62
256
6
ByLayer
370
-1
48
1
60
0
100
AcDbEllipse
10
68.221759
20
0.495276
30
0
11
1.43057542612234
21
0.451058699256407
31
0
210
0
220
0
230
1
40
0.996182
41
-0.316348793683218
42
-0.0951608540768533
0
ELLIPSE
5
9B
100
AcDbEntity
8
1
62
256
6
ByLayer
370
-1
48
1
60
0
100
AcDbEllipse
10
70.937988
20
-8.890365
30
0
11
0.953716950748229
21
0.300705799504272
31
0
210
0
220
0
230
1
40
0.996182
41
1.8762289458939
42
2.26648546751016
0
ELLIPSE
5
9C
100
AcDbEntity
8
1
62
256
6
ByLayer
370
-1
48
1
60
0
100
AcDbEllipse
10
68.307073
20
0.224696
30
0
11
-1.43057542612234
21
-0.451058699256405
31
0
210
0
220
0
230
1
40
0.996182
41
2.96162262860128
42
-2.88876858954606
0
ELLIPSE
5
9D
100
AcDbEntity
8
1
62
256
6
ByLayer
370
-1
48
1
60
0
100
AcDbEllipse
10
70.534172
20
-11.254377
30
0
11
-3.0518942423943
21
-0.962258558413661
31
0
210
0
220
0
230
1
40
0.996182
41
-2.11331265478743
42
-1.82452282020772
0
ELLIPSE
5
9E
100
AcDbEntity
8
1
62
256
6
ByLayer
370
-1
48
1
60
0
100
AcDbEllipse
10
63.893583
20
-12.69125
30
0
11
3.19783503220761
21
0.117689861312293
31
0
210
0
220
0
230
-1
40
1
41
-1.61791247671142
42
-1.53400994818042
0
ELLIPSE
5
9F
100
AcDbEntity
8
1
62
256
6
ByLayer
370
-1
48
1
60
0
100
AcDbEllipse
10
68.307075
20
0.224687
30
0
11
-1.43057542612234
21
-0.451058699256405
31
0
210
0
220
0
230
1
40
0.996182
41
-2.88876858954601
42
1.03001670246283
0
ELLIPSE
5
A0
100
AcDbEntity
8
1
62
256
6
ByLayer
370
-1
48
1
60
0
100
AcDbEllipse
10
74.230177
20
-6.923949
30
0
11
1.79415300365668
21
0.565694269116539
31
0
210
0
220
0
230
1
40
0.996182
41
2.83506150726303
42
-9.4787604398654E-16
0
ELLIPSE
5
A1
100
AcDbEntity
8
1
62
256
6
ByLayer
370
-1
48
1
60
0
100
AcDbEllipse
10
74.230177
20
-6.923949
30
0
11
1.79415300365668
21
0.565694269116539
31
0
210
0
220
0
230
1
40
0.996182
41
0
42
0.521475001839338
0
ELLIPSE
5
A2
100
AcDbEntity
8
1
62
256
6
ByLayer
370
-1
48
1
60
0
100
AcDbEllipse
10
74.230177
20
-6.923949
30
0
11
1.79415300365668
21
0.565694269116539
31
0
210
0
220
0
230
1
40
0.996182
41
2.61996070378476
42
2.83506150726303
0
ELLIPSE
5
A3
100
AcDbEntity
8
1
62
256
6
ByLayer
370
-1
48
1
60
0
100
AcDbEllipse
10
74.223617
20
-6.903141
30
0
11
-1.71803967789301
21
-0.541695829685701
31
0
210
0
220
0
230
1
40
0.996182
41
0
42
6.28318530717959
0
ELLIPSE
5
A4
100
AcDbEntity
8
1
62
256
6
ByLayer
370
-1
48
1
60
0
100
AcDbEllipse
10
79.533262
20
-14.504503
30
0
11
0.378506414828225
21
0.119342614178265
31
0
210
0
220
0
230
1
40
0.996182
41
-2.53072741539172
42
1.07832337933894E-13
0
ELLIPSE
5
A5
100
AcDbEntity
8
1
62
256
6
ByLayer
370
-1
48
1
60
0
100
AcDbEllipse
10
68.955312
20
0.567106
30
0
11
0.378506414828225
21
0.119342614178265
31
0
210
0
220
0
230
1
40
0.996182
41
0.610865238198063
42
-3.14159265358972
0
ELLIPSE
5
A6
100
AcDbEntity
8
1
62
256
6
ByLayer
370
-1
48
1
60
0
100
AcDbEllipse
10
76.631437
20
-5.301091
30
0
11
0.378506414828194
21
0.119342614178255
31
0
210
0
220
0
230
1
40
0.996182
41
0
42
0.610865238197893
0
ELLIPSE
5
A7
100
AcDbEntity
8
1
62
256
6
ByLayer
370
-1
48
1
60
0
100
AcDbEllipse
10
74.244287
20
-6.968699
30
0
11
-1.81653460596243
21
-0.57275116121671
31
0
210
0
220
0
230
1
40
0.996182
41
0
42
6.28318530717959
0
ELLIPSE
5
A8
100
AcDbEntity
8
1
62
256
6
ByLayer
370
-1
48
1
60
0
100
AcDbEllipse
10
71.857136
20
-8.636306
30
0
11
0.378506414828194
21
0.119342614178255
31
0
210
0
220
0
230
1
40
0.996182
41
-3.14159265358972
42
-2.53072741539191
0
ELLIPSE
5
A9
100
AcDbEntity
8
1
62
256
6
ByLayer
370
-1
48
1
60
0
100
AcDbEllipse
10
74.243938
20
-6.967592
30
0
11
0.987097044024406
21
0.311230502486918
31
0
210
0
220
0
230
1
40
0.996182
41
-2.3117032792326
42
-1.2653637076958
0
ELLIPSE
5
AA
100
AcDbEntity
8
1
62
256
6
ByLayer
370
-1
48
1
60
0
100
AcDbEllipse
10
75.175289
20
-6.215379
30
0
11
-0.402468553215752
21
-0.126897847390803
31
0
210
0
220
0
230
1
40
0.996182
41
-0.471653580792899
42
-9.39249889180486E-06
0
ELLIPSE
5
AB
100
AcDbEntity
8
1
62
256
6
ByLayer
370
-1
48
1
60
0
100
AcDbEllipse
10
74.217688
20
-6.884337
30
0
11
-0.71338027915968
21
-0.224927938029197
31
0
210
0
220
0
230
1
40
0.996182
41
2.39939873166225
42
-2.98966634010171
0
ELLIPSE
5
AC
100
AcDbEntity
8
1
62
256
6
ByLayer
370
-1
48
1
60
0
100
AcDbEllipse
10
75.064304
20
-6.810309
30
0
11
-0.176437635888422
21
-0.0556305729082903
31
0
210
0
220
0
230
1
40
0.996182
41
1.62449900381011
42
2.90391336727278
0
ELLIPSE
5
AD
100
AcDbEntity
8
1
62
256
6
ByLayer
370
-1
48
1
60
0
100
AcDbEllipse
10
74.220313
20
-6.892662
30
0
11
1.64516174004069
21
0.518717504144869
31
0
210
0
220
0
230
1
40
0.996182
41
2.83506141951338
42
-3.14152394478483
0
ELLIPSE
5
AE
100
AcDbEntity
8
1
62
256
6
ByLayer
370
-1
48
1
60
0
100
AcDbEllipse
10
74.220313
20
-6.892662
30
0
11
1.64516174004069
21
0.518717504144869
31
0
210
0
220
0
230
1
40
0.996182
41
0
42
2.83506133781684
0
ELLIPSE
5
AF
100
AcDbEntity
8
1
62
256
6
ByLayer
370
-1
48
1
60
0
100
AcDbEllipse
10
74.239372
20
-6.953112
30
0
11
1.64516174004068
21
0.518717504144865
31
0
210
0
220
0
230
1
40
0.996182
41
0
42
6.28318530717959
0
ELLIPSE
5
B0
100
AcDbEntity
8
1
62
256
6
ByLayer
370
-1
48
1
60
0
100
AcDbEllipse
10
74.243938
20
-6.967592
30
0
11
0.987097044024406
21
0.311230502486918
31
0
210
0
220
0
230
1
40
0.996182
41
-0.219024136159176
42
0.829889374357157
0
ELLIPSE
5
B1
100
AcDbEntity
8
1
62
256
6
ByLayer
370
-1
48
1
60
0
100
AcDbEllipse
10
74.243938
20
-6.967592
30
0
11
1.23983203597273
21
0.390917539355564
31
0
210
0
220
0
230
1
40
0.996182
41
0
42
6.28318530717959
0
ELLIPSE
5
B2
100
AcDbEntity
8
1
62
256
6
ByLayer
370
-1
48
1
60
0
100
AcDbEllipse
10
75.276948
20
-7.376376
30
0
11
-0.402468553215752
21
-0.126897847390803
31
0
210
0
220
0
230
1
40
0.996182
41
-0.742193921927539
42
-9.53537605988214E-06
0
ELLIPSE
5
B3
100
AcDbEntity
8
1
62
256
6
ByLayer
370
-1
48
1
60
0
100
AcDbEllipse
10
74.243938
20
-6.967592
30
0
11
0.987097044024406
21
0.311230502486918
31
0
210
0
220
0
230
1
40
0.996182
41
0.829889374357157
42
1.87622894589391
0
ELLIPSE
5
B4
100
AcDbEntity
8
1
62
256
6
ByLayer
370
-1
48
1
60
0
100
AcDbEllipse
10
74.217688
20
-6.884337
30
0
11
-0.71338027915968
21
-0.224927938029197
31
0
210
0
220
0
230
1
40
0.996182
41
-0.494154247913881
42
0.267701267181437
0
ELLIPSE
5
B5
100
AcDbEntity
8
1
62
256
6
ByLayer
370
-1
48
1
60
0
100
AcDbEllipse
10
74.217688
20
-6.884337
30
0
11
-0.71338027915968
21
-0.224927938029197
31
0
210
0
220
0
230
1
40
0.996182
41
-2.75372516416873
42
-2.03961903986973
0
ELLIPSE
5
B6
100
AcDbEntity
8
1
62
256
6
ByLayer
370
-1
48
1
60
0
100
AcDbEllipse
10
74.318848
20
-8.045681
30
0
11
-0.402468553215752
21
-0.126897847390803
31
0
210
0
220
0
230
1
40
0.996182
41
-1.7885334934642
42
-1.01363376561194
0
ELLIPSE
5
B7
100
AcDbEntity
8
1
62
256
6
ByLayer
370
-1
48
1
60
0
100
AcDbEllipse
10
74.217688
20
-6.884337
30
0
11
-0.71338027915968
21
-0.224927938029197
31
0
210
0
220
0
230
1
40
0.996182
41
-1.54798968100663
42
-0.875928889720468
0
ELLIPSE
5
B8
100
AcDbEntity
8
1
62
256
6
ByLayer
370
-1
48
1
60
0
100
AcDbEllipse
10
74.243938
20
-6.967592
30
0
11
0.987097044024406
21
0.311230502486918
31
0
210
0
220
0
230
1
40
0.996182
41
-1.2653637076958
42
-0.219024136159176
0
ELLIPSE
5
B9
100
AcDbEntity
8
1
62
256
6
ByLayer
370
-1
48
1
60
0
100
AcDbEllipse
10
74.217688
20
-6.884337
30
0
11
0.713380279159675
21
0.224927938029196
31
0
210
0
220
0
230
1
40
0.996182
41
-1.78853349346418
42
-0.74219392192751
0
ELLIPSE
5
BA
100
AcDbEntity
8
1
62
256
6
ByLayer
370
-1
48
1
60
0
100
AcDbEllipse
10
73.371071
20
-6.958365
30
0
11
-0.176437635888422
21
-0.0556305729082903
31
0
210
0
220
0
230
1
40
0.996182
41
0.270584534300424
42
1.08251881899119
0
ELLIPSE
5
BB
100
AcDbEntity
8
1
62
256
6
ByLayer
370
-1
48
1
60
0
100
AcDbEllipse
10
74.704297
20
-7.577665
30
0
11
-0.176437635888422
21
-0.0556305729082903
31
0
210
0
220
0
230
1
40
0.996182
41
0.578159432273394
42
3.08233964773783
0
ELLIPSE
5
BC
100
AcDbEntity
8
1
62
256
6
ByLayer
370
-1
48
1
60
0
100
AcDbEllipse
10
75.276948
20
-7.376376
30
0
11
-0.402468553215752
21
-0.126897847390803
31
0
210
0
220
0
230
1
40
0.996182
41
-1.51709364978008
42
-0.742193921927539
0
ELLIPSE
5
BD
100
AcDbEntity
8
1
62
256
6
ByLayer
370
-1
48
1
60
0
100
AcDbEllipse
10
74.243938
20
-6.967592
30
0
11
0.987097044024406
21
0.311230502486918
31
0
210
0
220
0
230
1
40
0.996182
41
1.87622894589391
42
2.92256851743056
0
ELLIPSE
5
BE
100
AcDbEntity
8
1
62
256
6
ByLayer
370
-1
48
1
60
0
100
AcDbEllipse
10
74.243938
20
-6.967592
30
0
11
0.987097044024406
21
0.311230502486918
31
0
210
0
220
0
230
1
40
0.996182
41
2.92256851743056
42
-2.3117032792326
0
ELLIPSE
5
BF
100
AcDbEntity
8
1
62
256
6
ByLayer
370
-1
48
1
60
0
100
AcDbEllipse
10
74.239588
20
-6.953797
30
0
11
0.713380279159684
21
0.224927938029199
31
0
210
0
220
0
230
1
40
0.996182
41
-2.87389138640842
42
-2.79842868257304
0
ELLIPSE
5
C0
100
AcDbEntity
8
1
62
256
6
ByLayer
370
-1
48
1
60
0
100
AcDbEllipse
10
74.239588
20
-6.953797
30
0
11
0.713380279159684
21
0.224927938029199
31
0
210
0
220
0
230
1
40
0.996182
41
0.267701267182589
42
0.34316397101547
0
ELLIPSE
5
C1
100
AcDbEntity
8
1
62
256
6
ByLayer
370
-1
48
1
60
0
100
AcDbEllipse
10
74.318848
20
-8.045681
30
0
11
-0.402468553215752
21
-0.126897847390803
31
0
210
0
220
0
230
1
40
0.996182
41
-2.5634332213166
42
-1.7885334934642
0
ELLIPSE
5
C2
100
AcDbEntity
8
1
62
256
6
ByLayer
370
-1
48
1
60
0
100
AcDbEllipse
10
74.217688
20
-6.884337
30
0
11
-0.71338027915968
21
-0.224927938029197
31
0
210
0
220
0
230
1
40
0.996182
41
0.343163971016664
42
1.35305916012562
0
ELLIPSE
5
C3
100
AcDbEntity
8
1
62
256
6
ByLayer
370
-1
48
1
60
0
100
AcDbEllipse
10
73.858403
20
-7.652723
30
0
11
-0.176437635888422
21
-0.0556305729082903
31
0
210
0
220
0
230
1
40
0.996182
41
0.219558697951379
42
2.12795888797829
0
POINT
5
41
100
AcDbEntity
8
80
62
256
6
ByLayer
370
-1
48
1
60
0
100
AcDbPoint
10
0
20
0
30
0
39
0
210
0
220
0
230
1
50
360
0
POINT
5
43
100
AcDbEntity
8
81
62
256
6
ByLayer
370
-1
48
1
60
0
100
AcDbPoint
10
79.93
20
-14.9
30
0
39
0
210
0
220
0
230
1
50
360
0
POINT
5
45
100
AcDbEntity
8
1
62
256
6
ByLayer
370
-1
48
1
60
0
100
AcDbPoint
10
-171.32
20
0
30
0
39
0
210
0
220
0
230
1
50
360
0
POINT
5
47
100
AcDbEntity
8
2
62
256
6
ByLayer
370
-1
48
1
60
0
100
AcDbPoint
10
79.93
20
14.9
30
0
39
0
210
0
220
0
230
1
50
360
0
POINT
5
49
100
AcDbEntity
8
2
62
256
6
ByLayer
370
-1
48
1
60
0
100
AcDbPoint
10
79.551195
20
13.823531
30
0
39
0
210
0
220
0
230
1
50
360
0
SPLINE
5
C4
100
AcDbEntity
8
1
62
256
6
ByLayer
370
-1
48
1
60
0
100
AcDbSpline
70
4
71
3
72
8
73
4
40
0
40
0
40
0
40
0
40
1
40
1
40
1
40
1
41
1
10
60.2501513649999
20
-9.85930244739052
30
0
41
1
10
60.2251514187724
20
-9.88416861132097
30
0
41
1
10
60.2001513917098
20
-9.90903094345543
30
0
41
1
10
60.1751513649997
20
-9.93388935139566
30
0
0
SPLINE
5
C5
100
AcDbEntity
8
1
62
256
6
ByLayer
370
-1
48
1
60
0
100
AcDbSpline
70
4
71
3
72
8
73
4
40
0
40
0
40
0
40
0
40
1
40
1
40
1
40
1
41
1
10
60.1751513649999
20
8.77014015074522
30
0
41
1
10
60.2001265893359
20
8.75365780251127
30
0
41
1
10
60.225126491652
20
8.73706330515643
30
0
41
1
10
60.2501513649999
20
8.72035795651203
30
0
0
SPLINE
5
C6
100
AcDbEntity
8
1
62
256
6
ByLayer
370
-1
48
1
60
0
100
AcDbSpline
70
4
71
3
72
8
73
4
40
0
40
0
40
0
40
0
40
1
40
1
40
1
40
1
41
1
10
62.3433829636422
20
-9.8918070957701
30
0
41
1
10
61.6382556497695
20
-9.88669078412818
30
0
41
1
10
60.9403671971761
20
-9.87777971534649
30
0
41
1
10
60.2501513649999
20
-9.85930244739052
30
0
0
SPLINE
5
C7
100
AcDbEntity
8
1
62
256
6
ByLayer
370
-1
48
1
60
0
100
AcDbSpline
70
4
71
3
72
8
73
4
40
0
40
0
40
0
40
0
40
1
40
1
40
1
40
1
41
1
10
62.3433829636422
20
-9.8918070957701
30
0
41
1
10
62.313908584846
20
-9.90812862035037
30
0
41
1
10
62.2990135354244
20
-9.91606291696721
30
0
41
1
10
62.2991379011869
20
-9.91579360189724
30
0
0
SPLINE
5
C8
100
AcDbEntity
8
1
62
256
6
ByLayer
370
-1
48
1
60
0
100
AcDbSpline
70
4
71
3
72
8
73
4
40
0
40
0
40
0
40
0
40
1
40
1
40
1
40
1
41
1
10
60.2501513649999
20
8.72035795651198
30
0
41
1
10
60.6101648478208
20
8.83848642530137
30
0
41
1
10
60.9785650002386
20
8.94079218225275
30
0
41
1
10
61.3555252188414
20
9.03019454746104
30
0
0
SPLINE
5
C9
100
AcDbEntity
8
1
62
256
6
ByLayer
370
-1
48
1
60
0
100
AcDbSpline
70
4
71
3
72
14
73
10
40
0
40
0
40
0
40
0
40
0.25
40
0.25
40
0.5
40
0.5
40
0.75
40
0.75
40
1
40
1
40
1
40
1
41
1
10
52.8841441086019
20
-0.233436164314099
30
0
41
1
10
52.447351249406
20
-1.72738109104384
30
0
41
1
10
52.1429898868672
20
-3.23069621911262
30
0
41
1
10
52.0401874654117
20
-5.96436260299336
30
0
41
1
10
52.2804947575103
20
-7.17265725767362
30
0
41
1
10
53.6257759616045
20
-8.84123304372625
30
0
41
1
10
54.6961103000456
20
-9.29888092474891
30
0
41
1
10
57.2469520581614
20
-9.81794757755006
30
0
41
1
10
58.6697192720412
20
-9.89294643919271
30
0
41
1
10
60.1751513649999
20
-9.93388935139581
30
0
0
SPLINE
5
CA
100
AcDbEntity
8
1
62
256
6
ByLayer
370
-1
48
1
60
0
100
AcDbSpline
70
4
71
3
72
10
73
6
40
0
40
0
40
0
40
0
40
0.44327496099653
40
0.44327496099653
40
1
40
1
40
1
40
1
41
1
10
62.3433829636422
20
-9.8918070957701
30
0
41
1
10
62.5170737871113
20
-9.79562528769145
30
0
41
1
10
62.7005234167329
20
-9.71534107290654
30
0
41
1
10
63.1268464636776
20
-9.57438488472803
30
0
41
1
10
63.3756965081178
20
-9.5235076688441
30
0
41
1
10
63.6254095757515
20
-9.50250680867023
30
0
0
SPLINE
5
CB
100
AcDbEntity
8
1
62
256
6
ByLayer
370
-1
48
1
60
0
100
AcDbSpline
70
4
71
3
72
28
73
24
40
-0.125000000000002
40
-0.125000000000002
40
0
40
0
40
0.124999999999995
40
0.124999999999995
40
0.187499999999995
40
0.187499999999995
40
0.249999999999995
40
0.249999999999995
40
0.374999999999995
40
0.374999999999995
40
0.499999999999995
40
0.499999999999995
40
0.624999999999995
40
0.624999999999995
40
0.687499999999995
40
0.687499999999995
40
0.718749999999996
40
0.718749999999996
40
0.749999999999996
40
0.749999999999996
40
0.874999999999998
40
0.874999999999998
40
1
40
1
40
1.12499999999999
40
1.12499999999999
41
1
10
59.4458903589283
20
-3.28051644428515
30
0
41
1
10
58.4236702348727
20
-2.77363456531424
30
0
41
1
10
57.8900610903503
20
-2.59535478570382
30
0
41
1
10
57.0710661773061
20
-2.73322082151231
30
0
41
1
10
56.7966540734652
20
-2.85982415087631
30
0
41
1
10
56.3942812849091
20
-3.35348345548593
30
0
41
1
10
56.304517565869
20
-3.6983605393242
30
0
41
1
10
56.3628842433445
20
-4.62393741057687
30
0
41
1
10
56.7344558543051
20
-5.08838836291613
30
0
41
1
10
57.5960283226461
20
-5.75757421086794
30
0
41
1
10
58.11963974312
20
-5.98453463186681
30
0
41
1
10
59.2294154023441
20
-6.29866874947584
30
0
41
1
10
59.8275854179724
20
-6.39672704629319
30
0
41
1
10
60.759353880239
20
-6.38763252888245
30
0
41
1
10
61.0847003895868
20
-6.37239028450963
30
0
41
1
10
61.516647793498
20
-6.15753818432253
30
0
41
1
10
61.6437807406362
20
-6.02623821877273
30
0
41
1
10
61.6876212500521
20
-5.70448855074162
30
0
41
1
10
61.6316655907404
20
-5.54592423108346
30
0
41
1
10
61.2914003730538
20
-4.83428963082767
30
0
41
1
10
60.8260331979312
20
-4.40196778350614
30
0
41
1
10
59.9206395447597
20
-3.61579063689984
30
0
41
1
10
59.4458903589283
20
-3.28051644428515
30
0
41
1
10
58.4236702348727
20
-2.77363456531424
30
0
0
SPLINE
5
CC
100
AcDbEntity
8
1
62
256
6
ByLayer
370
-1
48
1
60
0
100
AcDbSpline
70
4
71
3
72
10
73
6
40
0
40
0
40
0
40
0
40
0.5
40
0.5
40
1
40
1
40
1
40
1
41
1
10
60.1751513649999
20
8.77014015074593
30
0
41
1
10
58.3937867264656
20
8.17308257394754
30
0
41
1
10
56.9129770544589
20
7.179297258335
30
0
41
1
10
54.5598678551884
20
4.23291086211566
30
0
41
1
10
53.6737514687262
20
2.30032531681121
30
0
41
1
10
53.0255817682818
20
0.23343616432274
30
0
0
SPLINE
5
CD
100
AcDbEntity
8
1
62
256
6
ByLayer
370
-1
48
1
60
0
100
AcDbSpline
70
4
71
3
72
8
73
4
40
0
40
0
40
0
40
0
40
1
40
1
40
1
40
1
41
1
10
60.2501513649902
20
9.51741629957758
30
0
41
1
10
60.225564242451
20
9.52825370167579
30
0
41
1
10
60.200554068475
20
9.5392775744975
30
0
41
1
10
60.1751513649994
20
9.5504744647196
30
0
0
SPLINE
5
CE
100
AcDbEntity
8
1
62
256
6
ByLayer
370
-1
48
1
60
0
100
AcDbSpline
70
4
71
3
72
12
73
8
40
0
40
0
40
0
40
0
40
0.327281818977718
40
0.327281818977718
40
0.696190732395774
40
0.696190732395774
40
1
40
1
40
1
40
1
41
1
10
53.0255817682818
20
0.233436164322711
30
0
41
1
10
53.0199353232489
20
0.183432978462747
30
0
41
1
10
53.0102886844277
20
0.1303684471157
30
0
41
1
10
52.9829733464899
20
0.018448908472152
30
0
41
1
10
52.9641185770372
20
-0.0416458565807432
30
0
41
1
10
52.9248633805202
20
-0.145401135016584
30
0
41
1
10
52.9050637395817
20
-0.190879306945447
30
0
41
1
10
52.8841441086039
20
-0.233436164313702
30
0
0
SPLINE
5
CF
100
AcDbEntity
8
1
62
256
6
ByLayer
370
-1
48
1
60
0
100
AcDbSpline
70
4
71
3
72
8
73
4
40
0
40
0
40
0
40
0
40
1
40
1
40
1
40
1
41
1
10
68.828246771641
20
0.941753422611299
30
0
41
1
10
68.83356418264
20
0.943767115659739
30
0
41
1
10
68.8390066024917
20
0.945482485452231
30
0
41
1
10
68.8445212314453
20
0.946883582168823
30
0
0
SPLINE
5
D0
100
AcDbEntity
8
1
62
256
6
ByLayer
370
-1
48
1
60
0
100
AcDbSpline
70
4
71
3
72
16
73
12
40
0
40
0
40
0
40
0
40
0.0816458280540602
40
0.0816458280540602
40
0.305952300969687
40
0.305952300969687
40
0.534061690581209
40
0.534061690581209
40
0.777399353902478
40
0.777399353902478
40
1
40
1
40
1
40
1
41
1
10
74.836456517297
20
-7.81182089944795
30
0
41
1
10
74.8308319264671
20
-7.81575010698975
30
0
41
1
10
74.8249723531643
20
-7.81935861919124
30
0
41
1
10
74.8024674522281
20
-7.83148715088137
30
0
41
1
10
74.7844062963978
20
-7.83776440144806
30
0
41
1
10
74.7477674715436
20
-7.84443536682286
30
0
41
1
10
74.7287236118088
20
-7.84482770647818
30
0
41
1
10
74.6910708449231
20
-7.83996047732577
30
0
41
1
10
74.6721022372453
20
-7.83428145505152
30
0
41
1
10
74.6390072815931
20
-7.8186925865613
30
0
41
1
10
74.6242963445975
20
-7.80906840949564
30
0
41
1
10
74.6112875070405
20
-7.79790365527583
30
0
0
SPLINE
5
D1
100
AcDbEntity
8
1
62
256
6
ByLayer
370
-1
48
1
60
0
100
AcDbSpline
70
4
71
3
72
16
73
12
40
0
40
0
40
0
40
0
40
0.111286993951787
40
0.111286993951787
40
0.41930134759822
40
0.41930134759822
40
0.698165902842896
40
0.698165902842896
40
0.945021751030299
40
0.945021751030299
40
1
40
1
40
1
40
1
41
1
10
74.4611052583667
20
-6.07378381194792
30
0
41
1
10
74.4666324173367
20
-6.06783988845262
30
0
41
1
10
74.4726301521642
20
-6.06219829799019
30
0
41
1
10
74.496654110892
20
-6.04251617205497
30
0
41
1
10
74.5179324338478
20
-6.03074164823801
30
0
41
1
10
74.5619522938006
20
-6.01665056963483
30
0
41
1
10
74.5850667808372
20
-6.01336933649384
30
0
41
1
10
74.6283879499276
20
-6.01512114954792
30
0
41
1
10
74.6492539015733
20
-6.01929476362443
30
0
41
1
10
74.6729183145954
20
-6.0282208395779
30
0
41
1
10
74.6772090081395
20
-6.03002010049346
30
0
41
1
10
74.6814196745701
20
-6.03196942328458
30
0
0
SPLINE
5
D2
100
AcDbEntity
8
1
62
256
6
ByLayer
370
-1
48
1
60
0
100
AcDbSpline
70
4
71
3
72
16
73
12
40
0
40
0
40
0
40
0
40
0.0599636752964841
40
0.0599636752964841
40
0.284626778439889
40
0.284626778439889
40
0.511880125128114
40
0.511880125128114
40
0.753379665410537
40
0.753379665410537
40
1
40
1
40
1
40
1
41
1
10
73.2130576908372
20
-7.05773274636161
30
0
41
1
10
73.2126275369959
20
-7.05271962136888
30
0
41
1
10
73.2124008108166
20
-7.04767514237625
30
0
41
1
10
73.212295220126
20
-7.02386134091435
30
0
41
1
10
73.2151216463628
20
-7.0047725538125
30
0
41
1
10
73.2259575974769
20
-6.9687743361097
30
0
41
1
10
73.23415059293
20
-6.95142986609358
30
0
41
1
10
73.2550238191527
20
-6.91962480661738
30
0
41
1
10
73.2681983057277
20
-6.90500370281978
30
0
41
1
10
73.2974081145451
20
-6.88061515646848
30
0
41
1
10
73.3138055431147
20
-6.87066749224795
30
0
41
1
10
73.3307285749832
20
-6.86343851285002
30
0
0
SPLINE
5
D3
100
AcDbEntity
8
1
62
256
6
ByLayer
370
-1
48
1
60
0
100
AcDbSpline
70
4
71
3
72
14
73
10
40
0
40
0
40
0
40
0
40
0.295767142574775
40
0.295767142574775
40
0.589434278237337
40
0.589434278237337
40
0.847908508191301
40
0.847908508191301
40
1
40
1
40
1
40
1
41
1
10
74.9032946951427
20
-7.59391426645442
30
0
41
1
10
74.9108436262703
20
-7.61547083024118
30
0
41
1
10
74.9148385708501
20
-7.63900156294625
30
0
41
1
10
74.9140667512222
20
-7.6859470850971
30
0
41
1
10
74.9092793121058
20
-7.710121440649
30
0
41
1
10
74.8918988119403
20
-7.75202129854043
30
0
41
1
10
74.8800142089548
20
-7.77078560332689
30
0
41
1
10
74.856680858104
20
-7.79599383212349
30
0
41
1
10
74.8469284759026
20
-7.80450543420332
30
0
41
1
10
74.836456517297
20
-7.81182089944795
30
0
0
SPLINE
5
D4
100
AcDbEntity
8
1
62
256
6
ByLayer
370
-1
48
1
60
0
100
AcDbSpline
70
4
71
3
72
20
73
16
40
0
40
0
40
0
40
0
40
0.0962132578332757
40
0.0962132578332757
40
0.295181734740597
40
0.295181734740597
40
0.457828397466149
40
0.457828397466149
40
0.621155658032598
40
0.621155658032598
40
0.776047895746425
40
0.776047895746425
40
0.997890246686025
40
0.997890246686025
40
1
40
1
40
1
40
1
41
1
10
73.581013764676
20
-6.32995544101914
30
0
41
1
10
73.5872323817585
20
-6.34754553243701
30
0
41
1
10
73.5922394695748
20
-6.36582443471411
30
0
41
1
10
73.6034422585125
20
-6.42338837941685
30
0
41
1
10
73.6052969762467
20
-6.46519430388565
30
0
41
1
10
73.5961787009894
20
-6.542278296039
30
0
41
1
10
73.5872896256238
20
-6.5782096365167
30
0
41
1
10
73.5603440968359
20
-6.64706411724831
30
0
41
1
10
73.541872237471
20
-6.68084488397528
30
0
41
1
10
73.4996361449591
20
-6.73960824587598
30
0
41
1
10
73.4757524500109
20
-6.76567713867303
30
0
41
1
10
73.4139818771687
20
-6.81983770382675
30
0
41
1
10
73.3734631889618
20
-6.84503523810824
30
0
41
1
10
73.3315290571488
20
-6.86309586828628
30
0
41
1
10
73.3311288907427
20
-6.86326751072698
30
0
41
1
10
73.3307285749833
20
-6.86343851285002
30
0
0
SPLINE
5
D5
100
AcDbEntity
8
1
62
256
6
ByLayer
370
-1
48
1
60
0
100
AcDbSpline
70
4
71
3
72
14
73
10
40
0
40
0
40
0
40
0
40
0.0093197521643113
40
0.0093197521643113
40
0.349229778035216
40
0.349229778035216
40
0.785985373873856
40
0.785985373873856
40
1
40
1
40
1
40
1
41
1
10
73.6431940745013
20
-7.40472398951667
30
0
41
1
10
73.6437083841573
20
-7.40557505398522
30
0
41
1
10
73.6442196847568
20
-7.4064280381975
30
0
41
1
10
73.6630329398282
20
-7.43807006492739
30
0
41
1
10
73.6774697628812
20
-7.47168110104886
30
0
41
1
10
73.7001285737837
20
-7.54879975862588
30
0
41
1
10
73.705928246208
20
-7.59364777783065
30
0
41
1
10
73.705297988812
20
-7.65813227262277
30
0
41
1
10
73.7035943414413
20
-7.67928178014105
30
0
41
1
10
73.7005074513611
20
-7.69998989702617
30
0
0
SPLINE
5
D6
100
AcDbEntity
8
1
62
256
6
ByLayer
370
-1
48
1
60
0
100
AcDbSpline
70
4
71
3
72
14
73
10
40
0
40
0
40
0
40
0
40
0.272944851352899
40
0.272944851352899
40
0.561607713664728
40
0.561607713664728
40
0.823029825471619
40
0.823029825471619
40
1
40
1
40
1
40
1
41
1
10
74.0232032014499
20
-7.85008589552436
30
0
41
1
10
74.010258558814
20
-7.86633906609245
30
0
41
1
10
73.9943138792827
20
-7.88079377209795
30
0
41
1
10
73.9572965297667
20
-7.90401376430734
30
0
41
1
10
73.9353759819761
20
-7.91272794787685
30
0
41
1
10
73.8918909232363
20
-7.9205865154197
30
0
41
1
10
73.8698253533699
20
-7.92063673086616
30
0
41
1
10
73.834198459876
20
-7.91399420517879
30
0
41
1
10
73.8198966962708
20
-7.90943761325977
30
0
41
1
10
73.8064564488114
20
-7.90321546740171
30
0
0
SPLINE
5
D7
100
AcDbEntity
8
1
62
256
6
ByLayer
370
-1
48
1
60
0
100
AcDbSpline
70
4
71
3
72
14
73
10
40
0
40
0
40
0
40
0
40
0.259355747159288
40
0.259355747159288
40
0.549719947575043
40
0.549719947575043
40
0.812524731541702
40
0.812524731541702
40
1
40
1
40
1
40
1
41
1
10
73.581013764676
20
-6.32995544101911
30
0
41
1
10
73.5748957135432
20
-6.31264981224385
30
0
41
1
10
73.571497150687
20
-6.29378615651268
30
0
41
1
10
73.5712244051443
20
-6.25309541993829
30
0
41
1
10
73.5752276991458
20
-6.23052830503963
30
0
41
1
10
73.5910226186083
20
-6.1899316027216
30
0
41
1
10
73.6023146648596
20
-6.17107253157658
30
0
41
1
10
73.6266905374928
20
-6.14303046277217
30
0
41
1
10
73.6385425652473
20
-6.13235959065256
30
0
41
1
10
73.6514196060846
20
-6.12336399123836
30
0
0
SPLINE
5
D8
100
AcDbEntity
8
1
62
256
6
ByLayer
370
-1
48
1
60
0
100
AcDbSpline
70
4
71
3
72
12
73
8
40
0
40
0
40
0
40
0
40
0.396498936900809
40
0.396498936900809
40
0.789802939113295
40
0.789802939113295
40
1
40
1
40
1
40
1
41
1
10
73.3617031083338
20
-7.21725680398418
30
0
41
1
10
73.3977054496395
20
-7.22235144763565
30
0
41
1
10
73.4338019330438
20
-7.23256404603475
30
0
41
1
10
73.5025448412483
20
-7.26371745599263
30
0
41
1
10
73.5359927872113
20
-7.28505069052065
30
0
41
1
10
73.5819011848826
20
-7.32580708728838
30
0
41
1
10
73.5970647907378
20
-7.34163520068753
30
0
41
1
10
73.610887386337
20
-7.35869297538002
30
0
0
SPLINE
5
D9
100
AcDbEntity
8
1
62
256
6
ByLayer
370
-1
48
1
60
0
100
AcDbSpline
70
4
71
3
72
16
73
12
40
0
40
0
40
0
40
0
40
0.0489587313563552
40
0.0489587313563552
40
0.273820738522006
40
0.273820738522006
40
0.500649746977521
40
0.500649746977521
40
0.741217467495002
40
0.741217467495002
40
1
40
1
40
1
40
1
41
1
10
73.6514196060846
20
-6.12336399123836
30
0
41
1
10
73.6548024587483
20
-6.12100080952416
30
0
41
1
10
73.6582651263612
20
-6.11874342901891
30
0
41
1
10
73.6778653711499
20
-6.10684112222694
30
0
41
1
10
73.6955975343316
20
-6.09938009336071
30
0
41
1
10
73.7315937223548
20
-6.09000289067325
30
0
41
1
10
73.7503170143055
20
-6.08800251784376
30
0
41
1
10
73.7873516897236
20
-6.08928324736723
30
0
41
1
10
73.806035035241
20
-6.09288823763967
30
0
41
1
10
73.8414799006362
20
-6.10532011453901
30
0
41
1
10
73.8584311651423
20
-6.11464802765497
30
0
41
1
10
73.8730209527778
20
-6.12596605219764
30
0
0
SPLINE
5
DA
100
AcDbEntity
8
1
62
256
6
ByLayer
370
-1
48
1
60
0
100
AcDbSpline
70
4
71
3
72
18
73
14
40
0
40
0
40
0
40
0
40
0.20478101556147
40
0.20478101556147
40
0.381893562033257
40
0.381893562033257
40
0.560744980968143
40
0.560744980968143
40
0.715964024241704
40
0.715964024241704
40
0.920676609906289
40
0.920676609906289
40
1
40
1
40
1
40
1
41
1
10
74.02320320145
20
-7.85008589552444
30
0
41
1
10
74.0497303570243
20
-7.81677865048405
30
0
41
1
10
74.0818884836052
20
-7.78660468237752
30
0
41
1
10
74.1504432369872
20
-7.74079904093841
30
0
41
1
10
74.1865255877975
20
-7.72332436967846
30
0
41
1
10
74.2631731615614
20
-7.70002708103419
30
0
41
1
10
74.3049601415366
20
-7.69410358419907
30
0
41
1
10
74.3811613561286
20
-7.6953652038452
30
0
41
1
10
74.4167282675072
20
-7.7008767009963
30
0
41
1
10
74.4937126902767
20
-7.72292917675796
30
0
41
1
10
74.5347425124524
20
-7.74264535601461
30
0
41
1
10
74.5849824524037
20
-7.77658902982026
30
0
41
1
10
74.5984887645157
20
-7.78691921381537
30
0
41
1
10
74.6112875070405
20
-7.79790365527577
30
0
0
SPLINE
5
DB
100
AcDbEntity
8
1
62
256
6
ByLayer
370
-1
48
1
60
0
100
AcDbSpline
70
4
71
3
72
18
73
14
40
0
40
0
40
0
40
0
40
0.206360362215905
40
0.206360362215905
40
0.383194602891748
40
0.383194602891748
40
0.561749332960266
40
0.561749332960266
40
0.716909879068103
40
0.716909879068103
40
0.921899234316964
40
0.921899234316964
40
1
40
1
40
1
40
1
41
1
10
74.9032946951426
20
-7.59391426645445
30
0
41
1
10
74.8888666029212
20
-7.55271371964386
30
0
41
1
10
74.8800020390548
20
-7.50823902478899
30
0
41
1
10
74.8766931378559
20
-7.42393568913047
30
0
41
1
10
74.8804350186321
20
-7.38339376247981
30
0
41
1
10
74.89968130011
20
-7.30491250258009
30
0
41
1
10
74.9157056060414
20
-7.26587945923214
30
0
41
1
10
74.9547715297978
20
-7.20133569663923
30
0
41
1
10
74.9770370383445
20
-7.17391816866893
30
0
41
1
10
75.0336151399035
20
-7.12005214822156
30
0
41
1
10
75.0703668529017
20
-7.09568770521747
30
0
41
1
10
75.1233013413407
20
-7.07124677404335
30
0
41
1
10
75.1383437552263
20
-7.06537802228374
30
0
41
1
10
75.1535798848366
20
-7.06043119462299
30
0
0
SPLINE
5
DC
100
AcDbEntity
8
1
62
256
6
ByLayer
370
-1
48
1
60
0
100
AcDbSpline
70
4
71
3
72
16
73
12
40
0
40
0
40
0
40
0
40
0.222881195388279
40
0.222881195388279
40
0.448190425565907
40
0.448190425565907
40
0.684754460901056
40
0.684754460901056
40
0.942472386464884
40
0.942472386464884
40
1
40
1
40
1
40
1
41
1
10
75.2748184325444
20
-6.87745214432462
30
0
41
1
10
75.2764051754884
20
-6.8959444601989
30
0
41
1
10
75.2750840727302
20
-6.91481709960499
30
0
41
1
10
75.2669543817509
20
-6.95050354180844
30
0
41
1
10
75.2599912831399
20
-6.96775265022418
30
0
41
1
10
75.2413016008618
20
-6.99920271972235
30
0
41
1
10
75.2291361446443
20
-7.01361316739391
30
0
41
1
10
75.2005734697016
20
-7.03846613604182
30
0
41
1
10
75.1835521799389
20
-7.048766683021
30
0
41
1
10
75.1617397052575
20
-7.05762046485049
30
0
41
1
10
75.157678739638
20
-7.05910038891136
30
0
41
1
10
75.1535798848366
20
-7.06043119462302
30
0
0
SPLINE
5
DD
100
AcDbEntity
8
1
62
256
6
ByLayer
370
-1
48
1
60
0
100
AcDbSpline
70
4
71
3
72
16
73
12
40
0
40
0
40
0
40
0
40
0.187298358436315
40
0.187298358436315
40
0.486015577721619
40
0.486015577721619
40
0.75598316166148
40
0.75598316166148
40
0.996515131372388
40
0.996515131372388
40
1
40
1
40
1
40
1
41
1
10
75.1225879560539
20
-6.70655773224183
30
0
41
1
10
75.1365256509374
20
-6.70967842200099
30
0
41
1
10
75.1503977012372
20
-6.71439157096322
30
0
41
1
10
75.1848073848078
20
-6.73059279714408
30
0
41
1
10
75.2050132513205
20
-6.74481232128534
30
0
41
1
10
75.2372175942395
20
-6.77821657431744
30
0
41
1
10
75.2502823354547
20
-6.79733576011307
30
0
41
1
10
75.2676182590053
20
-6.83636290014886
30
0
41
1
10
75.2729219859432
20
-6.85652473550599
30
0
41
1
10
75.2747670597196
20
-6.87686188956567
30
0
41
1
10
75.2747931075643
20
-6.87715700040687
30
0
41
1
10
75.2748184325444
20
-6.87745214432462
30
0
0
SPLINE
5
DE
100
AcDbEntity
8
1
62
256
6
ByLayer
370
-1
48
1
60
0
100
AcDbSpline
70
4
71
3
72
14
73
10
40
0
40
0
40
0
40
0
40
0.276770818362645
40
0.276770818362645
40
0.564393497873698
40
0.564393497873698
40
0.824895839479873
40
0.824895839479873
40
1
40
1
40
1
40
1
41
1
10
73.3617031083335
20
-7.21725680398586
30
0
41
1
10
73.3416984659455
20
-7.21442597352748
30
0
41
1
10
73.3217104598252
20
-7.20797338846748
30
0
41
1
10
73.2844260433293
20
-7.18769516009709
30
0
41
1
10
73.2667050554446
20
-7.17323498506892
30
0
41
1
10
73.2393873883903
20
-7.13977348030491
30
0
41
1
10
73.2287993664919
20
-7.12079941066125
30
0
41
1
10
73.2173399550286
20
-7.08685829410641
30
0
41
1
10
73.2143117388051
20
-7.07234774826247
30
0
41
1
10
73.2130576908372
20
-7.05773274636161
30
0
0
SPLINE
5
DF
100
AcDbEntity
8
1
62
256
6
ByLayer
370
-1
48
1
60
0
100
AcDbSpline
70
4
71
3
72
16
73
12
40
0
40
0
40
0
40
0
40
0.0585279484197216
40
0.0585279484197216
40
0.282576306588251
40
0.282576306588251
40
0.509136147589939
40
0.509136147589939
40
0.749843731964366
40
0.749843731964366
40
1
40
1
40
1
40
1
41
1
10
73.8064564488114
20
-7.90321546740171
30
0
41
1
10
73.8019780269535
20
-7.90114218756824
30
0
41
1
10
73.7975767014399
20
-7.89887948953606
30
0
41
1
10
73.7769404873697
20
-7.8871732157009
30
0
41
1
10
73.7618582730583
20
-7.87513811183626
30
0
41
1
10
73.7363280259573
20
-7.84750587815012
30
0
41
1
10
73.725597813159
20
-7.83152851499514
30
0
41
1
10
73.7090221931258
20
-7.79697733925923
30
0
41
1
10
73.7032980271669
20
-7.77787977253979
30
0
41
1
10
73.6975437946136
20
-7.73916705271731
30
0
41
1
10
73.6976553535454
20
-7.71912293169964
30
0
41
1
10
73.700507451361
20
-7.69998989702617
30
0
0
SPLINE
5
E0
100
AcDbEntity
8
1
62
256
6
ByLayer
370
-1
48
1
60
0
100
AcDbSpline
70
4
71
3
72
12
73
8
40
0
40
0
40
0
40
0
40
0.459220429090063
40
0.459220429090063
40
0.841500493197017
40
0.841500493197017
40
1
40
1
40
1
40
1
41
1
10
75.122587956052
20
-6.70655773224331
30
0
41
1
10
75.0797623282531
20
-6.696968951656
30
0
41
1
10
75.0367746136567
20
-6.68069231808974
30
0
41
1
10
74.9629570211444
20
-6.6386760188127
30
0
41
1
10
74.9305110249348
20
-6.61442445757925
30
0
41
1
10
74.8900838919832
20
-6.57445594704828
30
0
41
1
10
74.8787860652369
20
-6.56195711687391
30
0
41
1
10
74.8682893789258
20
-6.54890107631394
30
0
0
SPLINE
5
E1
100
AcDbEntity
8
1
62
256
6
ByLayer
370
-1
48
1
60
0
100
AcDbSpline
70
4
71
3
72
14
73
10
40
0
40
0
40
0
40
0
40
0.0486651159196868
40
0.0486651159196868
40
0.385445539957216
40
0.385445539957216
40
0.832319135592037
40
0.832319135592037
40
1
40
1
40
1
40
1
41
1
10
74.8359826907625
20
-6.5028700621788
30
0
41
1
10
74.8333214781152
20
-6.49849119071942
30
0
41
1
10
74.8307457151308
20
-6.49407334335893
30
0
41
1
10
74.8111971260515
20
-6.45909630047314
30
0
41
1
10
74.7982593572225
20
-6.42671435936347
30
0
41
1
10
74.778710956038
20
-6.35244753338267
30
0
41
1
10
74.7750603279126
20
-6.30964950843969
30
0
41
1
10
74.7789618619474
20
-6.25376142861779
30
0
41
1
10
74.7809452477856
20
-6.23864528477424
30
0
41
1
10
74.7837836130315
20
-6.22382463920468
30
0
0
SPLINE
5
E2
100
AcDbEntity
8
1
62
256
6
ByLayer
370
-1
48
1
60
0
100
AcDbSpline
70
4
71
3
72
18
73
14
40
0
40
0
40
0
40
0
40
0.209966037856634
40
0.209966037856634
40
0.386139001948449
40
0.386139001948449
40
0.563989783030918
40
0.563989783030918
40
0.719000561213452
40
0.719000561213452
40
0.924603438610183
40
0.924603438610183
40
1
40
1
40
1
40
1
41
1
10
74.4611052583687
20
-6.07378381194914
30
0
41
1
10
74.432748084306
20
-6.10427920281558
30
0
41
1
10
74.3985176416443
20
-6.13170315544531
30
0
41
1
10
74.327109065981
20
-6.17239531008246
30
0
41
1
10
74.2904306542582
20
-6.18761832133072
30
0
41
1
10
74.213262702525
20
-6.2080618783813
30
0
41
1
10
74.1715739779756
20
-6.21339298182633
30
0
41
1
10
74.0960317843923
20
-6.21286370540946
30
0
41
1
10
74.0609553360786
20
-6.20839227037393
30
0
41
1
10
73.9852187473014
20
-6.18981310622701
30
0
41
1
10
73.94511405623
20
-6.17284263131023
30
0
41
1
10
73.8971220956619
20
-6.14360416306897
30
0
41
1
10
73.8847482721531
20
-6.13506351761859
30
0
41
1
10
73.8730209527777
20
-6.12596605219778
30
0
0
SPLINE
5
E3
100
AcDbEntity
8
1
62
256
6
ByLayer
370
-1
48
1
60
0
100
AcDbSpline
70
4
71
3
72
16
73
12
40
0
40
0
40
0
40
0
40
0.172912065834137
40
0.172912065834137
40
0.396689495199124
40
0.396689495199124
40
0.629169619292044
40
0.629169619292044
40
0.880775942029447
40
0.880775942029447
40
1
40
1
40
1
40
1
41
1
10
74.6814196745701
20
-6.03196942328458
30
0
41
1
10
74.6945541429595
20
-6.03805000910219
30
0
41
1
10
74.707039143558
20
-6.04568272445661
30
0
41
1
10
74.7328143176825
20
-6.06583160833682
30
0
41
1
10
74.7455725652042
20
-6.0794005693175
30
0
41
1
10
74.7662529402527
20
-6.10919002277035
30
0
41
1
10
74.7742431957495
20
-6.12585893153354
30
0
41
1
10
74.7849414415218
20
-6.16096152649448
30
0
41
1
10
74.7873155384755
20
-6.17986109468325
30
0
41
1
10
74.7863762659339
20
-6.20678385392472
30
0
41
1
10
74.7853963680115
20
-6.21540357007578
30
0
41
1
10
74.7837836130315
20
-6.22382463920468
30
0
0
SPLINE
5
E4
100
AcDbEntity
8
SK1
62
256
6
ByLayer
370
-1
48
1
60
0
100
AcDbSpline
70
4
71
3
72
34
73
30
40
0
40
0
40
0
40
0
40
0.217457722716224
40
0.217457722716224
40
0.435205736046568
40
0.435205736046568
40
0.489804543994878
40
0.489804543994878
40
0.496549308752554
40
0.496549308752554
40
0.499955506609483
40
0.499955506609483
40
0.501333585706673
40
0.501333585706673
40
0.502727669322812
40
0.502727669322812
40
0.503969738093622
40
0.503969738093622
40
0.506084034866097
40
0.506084034866097
40
0.511582108692614
40
0.511582108692614
40
0.532968432685216
40
0.532968432685216
40
0.617843090853689
40
0.617843090853689
40
0.991279786412478
40
0.991279786412478
40
1
40
1
40
1
40
1
41
1
10
-60.07
20
0.233436164322711
30
0
41
1
10
-60.4700057987322
20
0.233436164322711
30
0
41
1
10
-60.8701208961381
20
0.226764338557643
30
0
41
1
10
-61.669788890028
20
0.194439129841101
30
0
41
1
10
-62.0713188507156
20
0.175922319090432
30
0
41
1
10
-62.5660317074295
20
0.0991142584228157
30
0
41
1
10
-62.6682903311479
20
0.0860601938297805
30
0
41
1
10
-62.7710652211984
20
0.0393601932101433
30
0
41
1
10
-62.7824106913997
20
0.0334791827027914
30
0
41
1
10
-62.7971573166669
20
0.0216662685330675
30
0
41
1
10
-62.8018552013267
20
0.0170508851722104
30
0
41
1
10
-62.8062097532358
20
0.0092514148736598
30
0
41
1
10
-62.8072008706596
20
0.006780393331411
30
0
41
1
10
-62.8082484512515
20
0.0016667993909607
30
0
41
1
10
-62.8082910029577
20
-0.0010442320272261
30
0
41
1
10
-62.8074328101159
20
-0.0059371585597034
30
0
41
1
10
-62.8066364740706
20
-0.0081988054900819
30
0
41
1
10
-62.8038120270865
20
-0.0138593692916515
30
0
41
1
10
-62.8012989095358
20
-0.0170658976253719
30
0
41
1
10
-62.7913933262466
20
-0.027298602384235
30
0
41
1
10
-62.7824578935857
20
-0.032876467013665
30
0
41
1
10
-62.7384762058085
20
-0.0566035527719464
30
0
41
1
10
-62.6993830440455
20
-0.0670885454558174
30
0
41
1
10
-62.5081904081079
20
-0.115383286102372
30
0
41
1
10
-62.3506046797186
20
-0.13266514094309
30
0
41
1
10
-61.505331047694
20
-0.220917708457137
30
0
41
1
10
-60.8109209829838
20
-0.232394670085569
30
0
41
1
10
-60.1023607472352
20
-0.233424410073695
30
0
41
1
10
-60.0861803714794
20
-0.233436164322683
30
0
41
1
10
-60.07
20
-0.233436164322683
30
0
0
LINE
5
4A
100
AcDbEntity
8
80
62
256
6
ByLayer
370
-1
48
1
60
0
100
AcDbLine
10
0
20
0
30
0
11
-10
21
0
31
0
39
0
210
0
220
0
230
1
0
LINE
5
4B
100
AcDbEntity
8
81
62
256
6
ByLayer
370
-1
48
1
60
0
100
AcDbLine
10
79.93
20
-14.9
30
0
11
89.93
21
-14.9
31
0
39
0
210
0
220
0
230
1
0
LINE
5
4C
100
AcDbEntity
8
SK4
62
256
6
ByLayer
370
-1
48
0.05
60
0
100
AcDbLine
10
-176.32
20
0
30
0
11
84.551195
21
0
31
0
39
0
210
0
220
0
230
1
0
LINE
5
4E
100
AcDbEntity
8
4
62
256
6
ByLayer
370
-1
48
0.05
60
0
100
AcDbLine
10
0
20
0
30
0
11
84.551195
21
0
31
0
39
0
210
0
220
0
230
1
0
LINE
5
50
100
AcDbEntity
8
1
62
256
6
ByLayer
370
-1
48
1
60
0
100
AcDbLine
10
0
20
-9.99125
30
0
11
60.175151
21
-9.99125
31
0
39
0
210
0
220
0
230
1
0
LINE
5
51
100
AcDbEntity
8
1
62
256
6
ByLayer
370
-1
48
1
60
0
100
AcDbLine
10
59.175151
20
9.99125
30
0
11
0
21
9.99125
31
0
39
0
210
0
220
0
230
1
0
LINE
5
52
100
AcDbEntity
8
1
62
256
6
ByLayer
370
-1
48
1
60
0
100
AcDbLine
10
60.175151
20
-9.99125
30
0
11
60.250151
21
-9.91625
31
0
39
0
210
0
220
0
230
1
0
LINE
5
53
100
AcDbEntity
8
1
62
256
6
ByLayer
370
-1
48
1
60
0
100
AcDbLine
10
60.250151
20
-9.91625
30
0
11
62.305469
21
-9.91625
31
0
39
0
210
0
220
0
230
1
0
LINE
5
54
100
AcDbEntity
8
1
62
256
6
ByLayer
370
-1
48
1
60
0
100
AcDbLine
10
68.858144
20
0.950344
30
0
11
68.844513
21
0.946882
31
0
39
0
210
0
220
0
230
1
0
LINE
5
55
100
AcDbEntity
8
1
62
256
6
ByLayer
370
-1
48
1
60
0
100
AcDbLine
10
68.828242
20
0.941752
30
0
11
68.815091
21
0.93677
31
0
39
0
210
0
220
0
230
1
0
LINE
5
56
100
AcDbEntity
8
SK1
62
256
6
ByLayer
370
-1
48
1
60
0
100
AcDbLine
10
-170.82
20
-9.99125
30
0
11
0
21
-9.99125
31
0
39
0
210
0
220
0
230
1
0
LINE
5
58
100
AcDbEntity
8
SK1
62
256
6
ByLayer
370
-1
48
1
60
0
100
AcDbLine
10
0
20
9.99125
30
0
11
-170.82
21
9.99125
31
0
39
0
210
0
220
0
230
1
0
LINE
5
59
100
AcDbEntity
8
SK1
62
256
6
ByLayer
370
-1
48
1
60
0
100
AcDbLine
10
-170.82
20
9.99125
30
0
11
-171.32
21
9.49125
31
0
39
0
210
0
220
0
230
1
0
LINE
5
5A
100
AcDbEntity
8
SK1
62
256
6
ByLayer
370
-1
48
1
60
0
100
AcDbLine
10
-171.32
20
-9.49125
30
0
11
-170.82
21
-9.99125
31
0
39
0
210
0
220
0
230
1
0
LINE
5
5B
100
AcDbEntity
8
1
62
256
6
ByLayer
370
-1
48
1
60
0
100
AcDbLine
10
74.772821
20
-6.342277
30
0
11
74.795195
21
-6.41324
31
0
39
0
210
0
220
0
230
1
0
LINE
5
5C
100
AcDbEntity
8
1
62
256
6
ByLayer
370
-1
48
1
60
0
100
AcDbLine
10
72.575151
20
-7.41138
30
0
11
72.594211
21
-7.47183
31
0
39
0
210
0
220
0
230
1
0
LINE
5
5D
100
AcDbEntity
8
1
62
256
6
ByLayer
370
-1
48
1
60
0
100
AcDbLine
10
75.884534
20
-6.434395
30
0
11
75.865474
21
-6.373945
31
0
39
0
210
0
220
0
230
1
0
LINE
5
5E
100
AcDbEntity
8
1
62
256
6
ByLayer
370
-1
48
1
60
0
100
AcDbLine
10
74.874479
20
-7.503274
30
0
11
74.898783
21
-7.580355
31
0
39
0
210
0
220
0
230
1
0
LINE
5
5F
100
AcDbEntity
8
1
62
256
6
ByLayer
370
-1
48
1
60
0
100
AcDbLine
10
73.684908
20
-7.497294
30
0
11
73.662555
21
-7.426397
31
0
39
0
210
0
220
0
230
1
0
LINE
5
60
100
AcDbEntity
8
1
62
256
6
ByLayer
370
-1
48
1
60
0
100
AcDbLine
10
61.355525
20
9.030195
30
0
11
60.250151
21
9.517416
31
0
39
0
210
0
220
0
230
1
0
LINE
5
61
100
AcDbEntity
8
1
62
256
6
ByLayer
370
-1
48
1
60
0
100
AcDbLine
10
0
20
0.233436
30
0
11
53.025582
21
0.233436
31
0
39
0
210
0
220
0
230
1
0
LINE
5
62
100
AcDbEntity
8
1
62
256
6
ByLayer
370
-1
48
1
60
0
100
AcDbLine
10
60.175151
20
8.77014
30
0
11
60.175151
21
9.550474
31
0
39
0
210
0
220
0
230
1
0
LINE
5
63
100
AcDbEntity
8
1
62
256
6
ByLayer
370
-1
48
1
60
0
100
AcDbLine
10
59.175151
20
9.99125
30
0
11
60.175151
21
9.550474
31
0
39
0
210
0
220
0
230
1
0
LINE
5
64
100
AcDbEntity
8
1
62
256
6
ByLayer
370
-1
48
1
60
0
100
AcDbLine
10
68.107699
20
-9.49125
30
0
11
63.893583
21
-9.49125
31
0
39
0
210
0
220
0
230
1
0
LINE
5
65
100
AcDbEntity
8
1
62
256
6
ByLayer
370
-1
48
1
60
0
100
AcDbLine
10
76.169745
20
-4.019969
30
0
11
75.876361
21
-4.224921
31
0
39
0
210
0
220
0
230
1
0
LINE
5
66
100
AcDbEntity
8
1
62
256
6
ByLayer
370
-1
48
1
60
0
100
AcDbLine
10
69.463428
20
-2.381795
30
0
11
69.468903
21
-2.381606
31
0
39
0
210
0
220
0
230
1
0
LINE
5
67
100
AcDbEntity
8
1
62
256
6
ByLayer
370
-1
48
1
60
0
100
AcDbLine
10
67.955829
20
-1.229281
30
0
11
68.976853
21
-2.009827
31
0
39
0
210
0
220
0
230
1
0
LINE
5
68
100
AcDbEntity
8
1
62
256
6
ByLayer
370
-1
48
1
60
0
100
AcDbLine
10
52.884144
20
-0.233436
30
0
11
0
21
-0.233436
31
0
39
0
210
0
220
0
230
1
0
LINE
5
69
100
AcDbEntity
8
1
62
256
6
ByLayer
370
-1
48
1
60
0
100
AcDbLine
10
0
20
-9.99125
30
0
11
0
21
-0.233436
31
0
39
0
210
0
220
0
230
1
0
LINE
5
6A
100
AcDbEntity
8
1
62
256
6
ByLayer
370
-1
48
1
60
0
100
AcDbLine
10
0
20
0.233436
30
0
11
0
21
9.99125
31
0
39
0
210
0
220
0
230
1
0
LINE
5
6B
100
AcDbEntity
8
1
62
256
6
ByLayer
370
-1
48
1
60
0
100
AcDbLine
10
76.169748
20
-4.019978
30
0
11
76.407728
21
-3.85373
31
0
39
0
210
0
220
0
230
1
0
LINE
5
6C
100
AcDbEntity
8
1
62
256
6
ByLayer
370
-1
48
1
60
0
100
AcDbLine
10
61.355525
20
9.030195
30
0
11
67.836508
21
6.173536
31
0
39
0
210
0
220
0
230
1
0
LINE
5
6D
100
AcDbEntity
8
1
62
256
6
ByLayer
370
-1
48
1
60
0
100
AcDbLine
10
76.542669
20
-4.281706
30
0
11
76.40773
21
-3.853735
31
0
39
0
210
0
220
0
230
1
0
LINE
5
6E
100
AcDbEntity
8
1
62
256
6
ByLayer
370
-1
48
1
60
0
100
AcDbLine
10
71.10175
20
-7.560352
30
0
11
70.817306
21
-7.759058
31
0
39
0
210
0
220
0
230
1
0
LINE
5
6F
100
AcDbEntity
8
1
62
256
6
ByLayer
370
-1
48
1
60
0
100
AcDbLine
10
67.836508
20
6.173536
30
0
11
74.119301
21
3.404234
31
0
39
0
210
0
220
0
230
1
0
LINE
5
70
100
AcDbEntity
8
1
62
256
6
ByLayer
370
-1
48
1
60
0
100
AcDbLine
10
69.427392
20
-2.249986
30
0
11
67.912513
21
-1.091901
31
0
39
0
210
0
220
0
230
1
0
LINE
5
71
100
AcDbEntity
8
1
62
256
6
ByLayer
370
-1
48
1
60
0
100
AcDbLine
10
68.35213
20
-9.247583
30
0
11
68.107699
21
-9.49125
31
0
39
0
210
0
220
0
230
1
0
LINE
5
72
100
AcDbEntity
8
1
62
256
6
ByLayer
370
-1
48
1
60
0
100
AcDbLine
10
70.817306
20
-7.759058
30
0
11
68.976856
21
-2.009823
31
0
39
0
210
0
220
0
230
1
0
LINE
5
73
100
AcDbEntity
8
1
62
256
6
ByLayer
370
-1
48
1
60
0
100
AcDbLine
10
69.463428
20
-2.381795
30
0
11
68.976856
21
-2.009823
31
0
39
0
210
0
220
0
230
1
0
LINE
5
74
100
AcDbEntity
8
1
62
256
6
ByLayer
370
-1
48
1
60
0
100
AcDbLine
10
60.250151
20
-9.91625
30
0
11
60.250151
21
-9.859302
31
0
39
0
210
0
220
0
230
1
0
LINE
5
75
100
AcDbEntity
8
1
62
256
6
ByLayer
370
-1
48
1
60
0
100
AcDbLine
10
76.407728
20
-3.85373
30
0
11
74.119301
21
3.404234
31
0
39
0
210
0
220
0
230
1
0
LINE
5
76
100
AcDbEntity
8
1
62
256
6
ByLayer
370
-1
48
1
60
0
100
AcDbLine
10
76.169748
20
-4.019978
30
0
11
69.579776
21
1.017884
31
0
39
0
210
0
220
0
230
1
0
LINE
5
77
100
AcDbEntity
8
1
62
256
6
ByLayer
370
-1
48
1
60
0
100
AcDbLine
10
60.175151
20
-9.99125
30
0
11
60.175151
21
-9.933889
31
0
39
0
210
0
220
0
230
1
0
LINE
5
78
100
AcDbEntity
8
1
62
256
6
ByLayer
370
-1
48
1
60
0
100
AcDbLine
10
63.62541
20
-9.502507
30
0
11
67.836508
21
6.173536
31
0
39
0
210
0
220
0
230
1
0
LINE
5
79
100
AcDbEntity
8
1
62
256
6
ByLayer
370
-1
48
1
60
0
100
AcDbLine
10
0
20
-0.233436
30
0
11
0
21
0.233436
31
0
39
0
210
0
220
0
230
1
0
LINE
5
7A
100
AcDbEntity
8
1
62
256
6
ByLayer
370
-1
48
1
60
0
100
AcDbLine
10
68.976858
20
-2.009831
30
0
11
68.976856
21
-2.009823
31
0
39
0
210
0
220
0
230
1
0
LINE
5
7B
100
AcDbEntity
8
1
62
256
6
ByLayer
370
-1
48
1
60
0
100
AcDbLine
10
60.250151
20
8.720358
30
0
11
60.250151
21
9.517416
31
0
39
0
210
0
220
0
230
1
0
LINE
5
7C
100
AcDbEntity
8
1
62
256
6
ByLayer
370
-1
48
1
60
0
100
AcDbLine
10
70.365506
20
-8.074685
30
0
11
70.817309
21
-7.759066
31
0
39
0
210
0
220
0
230
1
0
LINE
5
7D
100
AcDbEntity
8
1
62
256
6
ByLayer
370
-1
48
1
60
0
100
AcDbLine
10
69.830818
20
-3.529455
30
0
11
69.463428
21
-2.381795
31
0
39
0
210
0
220
0
230
1
0
LINE
5
7E
100
AcDbEntity
8
1
62
256
6
ByLayer
370
-1
48
1
60
0
100
AcDbLine
10
67.955829
20
-1.229281
30
0
11
67.912513
21
-1.091901
31
0
39
0
210
0
220
0
230
1
0
LINE
5
7F
100
AcDbEntity
8
1
62
256
6
ByLayer
370
-1
48
1
60
0
100
AcDbLine
10
70.817309
20
-7.759066
30
0
11
70.817306
21
-7.759058
31
0
39
0
210
0
220
0
230
1
0
LINE
5
80
100
AcDbEntity
8
1
62
256
6
ByLayer
370
-1
48
1
60
0
100
AcDbLine
10
68.976856
20
-2.009823
30
0
11
70.817309
21
-7.759066
31
0
39
0
210
0
220
0
230
1
0
LINE
5
81
100
AcDbEntity
8
SK1
62
256
6
ByLayer
370
-1
48
1
60
0
100
AcDbLine
10
-171.32
20
9.49125
30
0
11
-171.32
21
-9.49125
31
0
39
0
210
0
220
0
230
1
0
LINE
5
82
100
AcDbEntity
8
SK1
62
256
6
ByLayer
370
-1
48
1
60
0
100
AcDbLine
10
-170.82
20
9.99125
30
0
11
-170.82
21
-9.99125
31
0
39
0
210
0
220
0
230
1
0
LINE
5
83
100
AcDbEntity
8
1
62
256
6
ByLayer
370
-1
48
1
60
0
100
AcDbLine
10
76.873301
20
-4.987058
30
0
11
69.197175
21
0.881139
31
0
39
0
210
0
220
0
230
1
0
LINE
5
84
100
AcDbEntity
8
1
62
256
6
ByLayer
370
-1
48
1
60
0
100
AcDbLine
10
68.576805
20
0.447763
30
0
11
71.47863
21
-8.755649
31
0
39
0
210
0
220
0
230
1
0
LINE
5
85
100
AcDbEntity
8
1
62
256
6
ByLayer
370
-1
48
1
60
0
100
AcDbLine
10
71.615273
20
-8.950339
30
0
11
79.291398
21
-14.818536
31
0
39
0
210
0
220
0
230
1
0
LINE
5
86
100
AcDbEntity
8
1
62
256
6
ByLayer
370
-1
48
1
60
0
100
AcDbLine
10
79.911768
20
-14.38516
30
0
11
77.009944
21
-5.181748
31
0
39
0
210
0
220
0
230
1
0
LINE
5
87
100
AcDbEntity
8
1
62
256
6
ByLayer
370
-1
48
1
60
0
100
AcDbLine
10
75.129113
20
-6.982833
30
0
11
75.15358
21
-7.060431
31
0
39
0
210
0
220
0
230
1
0
LINE
5
88
100
AcDbEntity
8
1
62
256
6
ByLayer
370
-1
48
1
60
0
100
AcDbLine
10
73.998737
20
-7.772488
30
0
11
74.023203
21
-7.850086
31
0
39
0
210
0
220
0
230
1
0
LINE
5
89
100
AcDbEntity
8
1
62
256
6
ByLayer
370
-1
48
1
60
0
100
AcDbLine
10
74.759326
20
-6.146254
30
0
11
74.783784
21
-6.223825
31
0
39
0
210
0
220
0
230
1
0
LINE
5
8A
100
AcDbEntity
8
1
62
256
6
ByLayer
370
-1
48
1
60
0
100
AcDbLine
10
74.586821
20
-7.720306
30
0
11
74.611288
21
-7.797904
31
0
39
0
210
0
220
0
230
1
0
LINE
5
8B
100
AcDbEntity
8
1
62
256
6
ByLayer
370
-1
48
1
60
0
100
AcDbLine
10
73.337245
20
-7.139686
30
0
11
73.361703
21
-7.217257
31
0
39
0
210
0
220
0
230
1
0
LINE
5
8C
100
AcDbEntity
8
SK1
62
256
6
ByLayer
370
-1
48
1
60
0
100
AcDbLine
10
0
20
-9.99125
30
0
11
0
21
-0.233436
31
0
39
0
210
0
220
0
230
1
0
LINE
5
8D
100
AcDbEntity
8
SK1
62
256
6
ByLayer
370
-1
48
1
60
0
100
AcDbLine
10
0
20
0.233436
30
0
11
0
21
9.99125
31
0
39
0
210
0
220
0
230
1
0
LINE
5
8E
100
AcDbEntity
8
SK1
62
256
6
ByLayer
370
-1
48
1
60
0
100
AcDbLine
10
0
20
-0.233436
30
0
11
-60.07
21
-0.233436
31
0
39
0
210
0
220
0
230
1
0
LINE
5
8F
100
AcDbEntity
8
SK1
62
256
6
ByLayer
370
-1
48
1
60
0
100
AcDbLine
10
-60.07
20
0.233436
30
0
11
0
21
0.233436
31
0
39
0
210
0
220
0
230
1
0
LINE
5
90
100
AcDbEntity
8
SK1
62
256
6
ByLayer
370
-1
48
1
60
0
100
AcDbLine
10
-60.07
20
0.233436
30
0
11
-60.07
21
-0.233436
31
0
39
0
210
0
220
0
230
1
0
LINE
5
91
100
AcDbEntity
8
SK1
62
256
6
ByLayer
370
-1
48
1
60
0
100
AcDbLine
10
0
20
-0.233436
30
0
11
0
21
0.233436
31
0
39
0
210
0
220
0
230
1
0
LINE
5
92
100
AcDbEntity
8
2
62
256
6
ByLayer
370
-1
48
1
60
1
100
AcDbLine
10
79.93
20
0
30
0
11
79.931
21
0.001
31
0
39
0
210
0
220
0
230
1
0
MTEXT
5
E5
100
AcDbEntity
8
SK6
62
256
6
ByLayer
370
-1
48
1
60
0
100
AcDbMText
10
-42.32
20
16.661875
30
0
210
0
220
0
230
1
1
\W00.768;\fsimplex.shx,bigfont.shx;A20S-SVQBL 11-ERB1 
40
3.5
41
0
44
1.084337
50
0
71
7
72
5
7
DEFAULT
0
DIMENSION
5
118
100
AcDbEntity
8
2
62
256
6
ByLayer
370
-3
48
1
60
0
100
AcDbDimension
2
DimnDraft3D1
10
92.18
20
0
30
0
11
92.18
21
-12.050658
31
0
70
32
71
5
72
1
41
1
210
0
220
0
230
1
3
Standard
100
AcDbAlignedDimension
13
81.93
23
-14.9
33
0
14
81.93
24
0
34
0
50
90
100
AcDbRotatedDimension
1001
ACAD
1000
DSTYLE
1002
{
1070
    74
1070
     0
1070
   279
1070
     0
1070
   172
1070
     1
1070
   173
1070
     1
1070
   340
1005
E6
1070
    77
1070
     1
1070
    73
1070
     0
1070
   171
1070
     4
1070
   274
1070
     4
1070
   177
1070
     2
1070
   176
1070
     2
1070
   178
1070
     7
1070
    78
1070
     8
1070
    41
1041
3.175
1070
   147
1041
2.25
1070
    42
1041
2.0
1070
    44
1041
2.0
1070
   140
1041
4.5
1070
   343
1005
119
1070
   344
1005
119
1002
}
0
DIMENSION
5
12E
100
AcDbEntity
8
SK2
62
256
6
ByLayer
370
-3
48
1
60
0
100
AcDbDimension
2
DimnDraft3D2
10
-181.07
20
9.99125
30
0
11
-181.07
21
-4.784211
31
0
70
32
71
5
72
1
41
1
210
0
220
0
230
1
3
Standard
100
AcDbAlignedDimension
13
-173.32
23
-9.99125
33
0
14
-173.32
24
9.99125
34
0
50
90
100
AcDbRotatedDimension
1001
ACAD
1000
DSTYLE
1002
{
1070
    74
1070
     0
1070
   279
1070
     0
1070
   172
1070
     1
1070
   173
1070
     1
1070
   340
1005
E6
1070
    77
1070
     1
1070
    73
1070
     0
1070
   171
1070
     4
1070
   274
1070
     4
1070
   177
1070
     2
1070
   176
1070
     2
1070
   178
1070
     7
1070
    78
1070
     8
1070
    41
1041
3.175
1070
   147
1041
2.25
1070
    42
1041
2.0
1070
    44
1041
2.0
1070
   140
1041
4.5
1070
   343
1005
119
1070
   344
1005
119
1002
}
0
DIMENSION
5
13C
100
AcDbEntity
8
SK2
62
256
6
ByLayer
370
-3
48
1
60
0
100
AcDbDimension
2
DimnDraft3D3
10
79.93
20
-32.15
30
0
11
-52.510132
21
-32.15
31
0
70
32
71
5
72
1
41
1
210
0
220
0
230
1
3
Standard
100
AcDbAlignedDimension
13
-171.32
23
-11.99125
33
0
14
79.93
24
-16.9
34
0
50
0
100
AcDbRotatedDimension
1001
ACAD
1000
DSTYLE
1002
{
1070
   279
1070
     0
1070
   172
1070
     1
1070
   173
1070
     1
1070
   340
1005
E6
1070
    77
1070
     1
1070
    73
1070
     0
1070
   171
1070
     4
1070
   274
1070
     4
1070
   177
1070
     2
1070
   176
1070
     2
1070
   178
1070
     7
1070
    78
1070
     8
1070
    41
1041
3.175
1070
   147
1041
2.25
1070
    42
1041
2.0
1070
    44
1041
2.0
1070
   140
1041
4.5
1070
   343
1005
119
1070
   344
1005
119
1002
}
0
DIMENSION
5
14A
100
AcDbEntity
8
2
62
256
6
ByLayer
370
-3
48
1
60
0
100
AcDbDimension
2
DimnDraft3D4
10
115.158455
20
0
30
0
11
91.640019
21
37.788356
31
0
70
34
71
5
72
1
41
1
210
0
220
0
230
1
3
Standard
100
AcDb2LineAngularDimension
13
76.020825
23
-2.50168
33
0
14
63.225946
24
38.078491
34
0
15
81.93
25
0
35
0
16
100.319192
26
34.214547
36
0
40
0
0
ENDSEC
0
SECTION
2
OBJECTS
0
DICTIONARY
5
17b
330
0
100
AcDbDictionary
280
0
281
1
3
ACAD_GROUP
350
17c
3
ACAD_MLINESTYLE
350
17d
0
DICTIONARY
5
17c
330
0
100
AcDbDictionary
280
0
281
1
0
DICTIONARY
5
17d
330
0
100
AcDbDictionary
280
0
281
1
3
Standard
350
18
0
MLINESTYLE
5
18
330
17d
100
AcDbMlineStyle
2
Standard
70
0
3

62
256
51
90
52
90
71
2
49
-0.5
62
256
6
ByLayer
49
0.5
62
256
6
ByLayer
0
RASTERVARIABLES
5
169
330

100
AcDbRasterVariables
90
0
70
1
71
1
72
1
0
ENDSEC
0
EOF
