0
SECTION
2
HEADER
9
$ACADVER
1
AC1015
9
$DWGCODEPAGE
3
ANSI_1252
9
$HANDSEED
5
199
9
$ANGBASE
50
0
9
$ANGDIR
70
0
9
$ATTMODE
70
1
9
$AUNITS
70
0
9
$AUPREC
70
0
9
$CECOLOR
62
256
9
$CELTSCALE
40
1
9
$CELTYPE
6
ByLayer
9
$CELWEIGHT
370
-1
9
$CLAYER
8
0
9
$CMLJUST
70
0
9
$CMLSCALE
40
1
9
$CMLSTYLE
2
Standard
9
$DIMSTYLE
2
Standard
9
$TEXTSIZE
40
0.2
9
$TEXTSTYLE
7
Standard
9
$LUNITS
70
2
9
$LUPREC
70
4
9
$EXTNAMES
290
1
9
$INSUNITS
70
4
9
$LTSCALE
40
1
9
$LWDISPLAY
290
0
9
$PDMODE
70
0
9
$PDSIZE
40
0
9
$PLINEGEN
70
0
0
ENDSEC
0
SECTION
2
CLASSES
0
CLASS
1
RASTERVARIABLES
2
AcDbRasterVariables
3
ISM
90
0
280
0
281
0
0
ENDSEC
0
SECTION
2
TABLES
0
TABLE
2
VPORT
5
18f
100
AcDbSymbolTable
0
VPORT
5
1
100
AcDbSymbolTableRecord
100
AcDbViewportTableRecord
2
*Active
70
0
10
0
20
0
11
1
21
1
12
-1
22
1
13
0
23
0
14
0.5
24
0.5
15
10
25
10
16
0
26
0
36
1
17
0
27
0
37
0
0
ENDTAB
0
TABLE
2
LTYPE
5
190
100
AcDbSymbolTable
0
LTYPE
5
14
100
AcDbSymbolTableRecord
100
AcDbLinetypeTableRecord
70
0
2
ByBlock
3

72
65
73
0
40
0
0
LTYPE
5
15
100
AcDbSymbolTableRecord
100
AcDbLinetypeTableRecord
70
0
2
ByLayer
3

72
65
73
0
40
0
0
LTYPE
5
16
100
AcDbSymbolTableRecord
100
AcDbLinetypeTableRecord
70
0
2
CONTINUOUS
3
Solid line
72
65
73
0
40
0
0
LTYPE
5
3B
100
AcDbSymbolTableRecord
100
AcDbLinetypeTableRecord
70
0
2
DASHED
3
__ __ __ __ __ __ __ __ __
72
65
73
2
40
25.72
49
12.86
74
0
49
-12.86
74
0
0
LTYPE
5
3C
100
AcDbSymbolTableRecord
100
AcDbLinetypeTableRecord
70
0
2
HIDDEN
3
_ _ _ _ _ _ _ _ _ _ _ _ _ _ _
72
65
73
2
40
0.5
49
0.25
74
0
49
-0.25
74
0
0
LTYPE
5
3D
100
AcDbSymbolTableRecord
100
AcDbLinetypeTableRecord
70
0
2
PHANTOM
3
____ _ _ ____ _ _ _____ _ _ ____
72
65
73
6
40
50.5
49
18
74
0
49
-6.5
74
0
49
6.5
74
0
49
-6.5
74
0
49
6.5
74
0
49
-6.5
74
0
0
LTYPE
5
3E
100
AcDbSymbolTableRecord
100
AcDbLinetypeTableRecord
70
0
2
CENTER
3
____ _ ____ _ ____ _ ____
72
65
73
4
40
47.5
49
22
74
0
49
-8.5
74
0
49
8.5
74
0
49
-8.5
74
0
0
LTYPE
5
3F
100
AcDbSymbolTableRecord
100
AcDbLinetypeTableRecord
70
0
2
DOT
3
.........................
72
65
73
2
40
10
49
0
74
0
49
-10
74
0
0
LTYPE
5
40
100
AcDbSymbolTableRecord
100
AcDbLinetypeTableRecord
70
0
2
DASHDOT
3
_._._._._._._._._._._._._._._._.
72
65
73
4
40
70
49
31
74
0
49
-13
74
0
49
13
74
0
49
-13
74
0
0
ENDTAB
0
TABLE
2
LAYER
5
191
100
AcDbSymbolTable
0
LAYER
5
10
100
AcDbSymbolTableRecord
100
AcDbLayerTableRecord
2
0
70
0
62
7
6
CONTINUOUS
290
1
370
-3
390
0
0
LAYER
5
42
100
AcDbSymbolTableRecord
100
AcDbLayerTableRecord
2
80
70
0
62
-6
6
CONTINUOUS
290
1
370
-3
390
0
0
LAYER
5
44
100
AcDbSymbolTableRecord
100
AcDbLayerTableRecord
2
81
70
0
62
-3
6
CONTINUOUS
290
1
370
-3
390
0
0
LAYER
5
46
100
AcDbSymbolTableRecord
100
AcDbLayerTableRecord
2
1
70
0
62
4
6
CONTINUOUS
290
1
370
-3
390
0
0
LAYER
5
48
100
AcDbSymbolTableRecord
100
AcDbLayerTableRecord
2
2
70
0
62
7
6
CONTINUOUS
290
1
370
-3
390
0
0
LAYER
5
4E
100
AcDbSymbolTableRecord
100
AcDbLayerTableRecord
2
4
70
0
62
-2
6
CENTER
290
1
370
-3
390
0
0
LAYER
5
17b
100
AcDbSymbolTableRecord
100
AcDbLayerTableRecord
2
SK4
70
0
62
2
6
CENTER
290
1
370
-3
390
0
0
LAYER
5
17c
100
AcDbSymbolTableRecord
100
AcDbLayerTableRecord
2
SK1
70
0
62
4
6
CONTINUOUS
290
1
370
-3
390
0
0
LAYER
5
17d
100
AcDbSymbolTableRecord
100
AcDbLayerTableRecord
2
SK6
70
0
62
5
6
CONTINUOUS
290
1
370
-3
390
0
0
LAYER
5
17e
100
AcDbSymbolTableRecord
100
AcDbLayerTableRecord
2
SK2
70
0
62
7
6
CONTINUOUS
290
1
370
-3
390
0
0
ENDTAB
0
TABLE
2
STYLE
5
192
100
AcDbSymbolTable
0
STYLE
5
11
100
AcDbSymbolTableRecord
100
AcDbTextStyleTableRecord
2
Standard
3
txt
70
0
71
0
40
0
41
1
42
0
50
0
0
STYLE
5
F7
100
AcDbSymbolTableRecord
100
AcDbTextStyleTableRecord
2
DEFAULT
3
simplex.shx
70
0
71
0
40
0
41
1
42
0
50
0
0
STYLE
5
11A
100
AcDbSymbolTableRecord
100
AcDbTextStyleTableRecord
2
DWGDirectTextStyle
3
SIMPLEX
70
0
71
0
40
0
41
1
42
0
50
0
0
ENDTAB
0
TABLE
2
DIMSTYLE
5
193
100
AcDbSymbolTable
100
AcDbDimStyleTable
0
DIMSTYLE
105
27
100
AcDbSymbolTableRecord
100
AcDbDimStyleTableRecord
2
Standard
70
0
3
<>
41
0.18
42
0.0625
44
0.18
140
0.18
147
0.09
73
0
74
0
77
1
271
2
275
0
278
52
280
0
340
11
0
ENDTAB
0
TABLE
2
VIEW
5
194
100
AcDbSymbolTable
0
ENDTAB
0
TABLE
2
UCS
5
195
100
AcDbSymbolTable
0
ENDTAB
0
TABLE
2
APPID
5
196
100
AcDbSymbolTable
0
APPID
5
12
100
AcDbSymbolTableRecord
100
AcDbRegAppTableRecord
2
ACAD
70
0
0
ENDTAB
0
TABLE
2
BLOCK_RECORD
5
197
100
AcDbSymbolTable
0
BLOCK_RECORD
5
1F
100
AcDbSymbolTableRecord
100
AcDbBlockTableRecord
2
*Model_Space
340
0
70
0
0
BLOCK_RECORD
5
1B
100
AcDbSymbolTableRecord
100
AcDbBlockTableRecord
2
*Paper_Space
340
0
70
0
0
BLOCK_RECORD
5
23
100
AcDbSymbolTableRecord
100
AcDbBlockTableRecord
2
*Paper_Space0
340
0
70
0
0
BLOCK_RECORD
5
11C
100
AcDbSymbolTableRecord
100
AcDbBlockTableRecord
2
DimnDraft3D1
340
0
70
0
0
BLOCK_RECORD
5
12A
100
AcDbSymbolTableRecord
100
AcDbBlockTableRecord
2
_CLOSED
340
0
70
0
0
BLOCK_RECORD
5
131
100
AcDbSymbolTableRecord
100
AcDbBlockTableRecord
2
DimnDraft3D2
340
0
70
0
0
BLOCK_RECORD
5
140
100
AcDbSymbolTableRecord
100
AcDbBlockTableRecord
2
DimnDraft3D3
340
0
70
0
0
BLOCK_RECORD
5
14E
100
AcDbSymbolTableRecord
100
AcDbBlockTableRecord
2
DimnDraft3D4
340
0
70
0
0
ENDTAB
0
ENDSEC
0
SECTION
2
BLOCKS
0
BLOCK
5
20
100
AcDbEntity
8
0
100
AcDbBlockBegin
2
*Model_Space
70
0
10
0
20
0
30
0
3
*Model_Space
0
ENDBLK
5
21
100
AcDbEntity
8
0
100
AcDbBlockEnd
0
BLOCK
5
1C
100
AcDbEntity
8
0
100
AcDbBlockBegin
2
*Paper_Space
70
0
10
0
20
0
30
0
3
*Paper_Space
0
ENDBLK
5
1D
100
AcDbEntity
8
0
100
AcDbBlockEnd
0
BLOCK
5
24
100
AcDbEntity
8
0
100
AcDbBlockBegin
2
*Paper_Space0
70
0
10
0
20
0
30
0
3
*Paper_Space0
0
ENDBLK
5
25
100
AcDbEntity
8
0
100
AcDbBlockEnd
0
BLOCK
5
127
100
AcDbEntity
8
0
100
AcDbBlockBegin
2
DimnDraft3D1
70
0
10
0
20
0
30
0
3
DimnDraft3D1
0
MTEXT
5
11D
100
AcDbEntity
8
2
62
256
6
ByLayer
370
-1
48
1
60
0
100
AcDbMText
10
91.055
20
24.28
30
0
210
0
220
0
230
1
1
\W01.000;\fsimplex.shx,bigfont.shx;13.0 
40
4.5
41
0
44
1.084337
50
90
71
7
72
5
7
DEFAULT
0
LINE
5
11E
100
AcDbEntity
8
2
62
256
6
ByLayer
370
-1
48
1
60
0
100
AcDbLine
10
81.93
20
12.9
30
0
11
94.18
21
12.9
31
0
39
0
210
0
220
0
230
1
0
LINE
5
11F
100
AcDbEntity
8
2
62
256
6
ByLayer
370
-1
48
1
60
0
100
AcDbLine
10
81.93
20
0
30
0
11
94.18
21
0
31
0
39
0
210
0
220
0
230
1
0
LINE
5
120
100
AcDbEntity
8
2
62
256
6
ByLayer
370
-1
48
1
60
0
100
AcDbLine
10
92.18
20
0
30
0
11
92.18
21
32.356316
31
0
39
0
210
0
220
0
230
1
0
LINE
5
121
100
AcDbEntity
8
2
62
256
6
ByLayer
370
-1
48
1
60
0
100
AcDbLine
10
92.18
20
12.9
30
0
11
92.597997
21
9.725002
31
0
39
0
210
0
220
0
230
1
0
LINE
5
122
100
AcDbEntity
8
2
62
256
6
ByLayer
370
-1
48
1
60
0
100
AcDbLine
10
92.18
20
12.9
30
0
11
91.762003
21
9.724998
31
0
39
0
210
0
220
0
230
1
0
LINE
5
123
100
AcDbEntity
8
2
62
256
6
ByLayer
370
-1
48
1
60
0
100
AcDbLine
10
92.597997
20
9.725002
30
0
11
91.762003
21
9.724998
31
0
39
0
210
0
220
0
230
1
0
LINE
5
124
100
AcDbEntity
8
2
62
256
6
ByLayer
370
-1
48
1
60
0
100
AcDbLine
10
92.18
20
0
30
0
11
91.762003
21
3.174998
31
0
39
0
210
0
220
0
230
1
0
LINE
5
125
100
AcDbEntity
8
2
62
256
6
ByLayer
370
-1
48
1
60
0
100
AcDbLine
10
92.18
20
0
30
0
11
92.597997
21
3.175002
31
0
39
0
210
0
220
0
230
1
0
LINE
5
126
100
AcDbEntity
8
2
62
256
6
ByLayer
370
-1
48
1
60
0
100
AcDbLine
10
91.762003
20
3.174998
30
0
11
92.597997
21
3.175002
31
0
39
0
210
0
220
0
230
1
0
ENDBLK
5
128
100
AcDbEntity
8
0
100
AcDbBlockEnd
0
BLOCK
5
12B
100
AcDbEntity
8
0
100
AcDbBlockBegin
2
_CLOSED
70
0
10
0
20
0
30
0
3
_CLOSED
0
LINE
5
12D
100
AcDbEntity
8
0
62
256
6
ByLayer
370
-2
48
1
60
0
100
AcDbLine
10
-1
20
0.166667
30
0
11
0
21
0
31
0
39
0
210
0
220
0
230
1
0
LINE
5
12E
100
AcDbEntity
8
0
62
256
6
ByLayer
370
-2
48
1
60
0
100
AcDbLine
10
0
20
0
30
0
11
-1
21
-0.166667
31
0
39
0
210
0
220
0
230
1
0
LINE
5
12F
100
AcDbEntity
8
0
62
256
6
ByLayer
370
-2
48
1
60
0
100
AcDbLine
10
-1
20
0.166667
30
0
11
-1
21
-0.166667
31
0
39
0
210
0
220
0
230
1
0
LINE
5
130
100
AcDbEntity
8
0
62
256
6
ByLayer
370
-2
48
1
60
0
100
AcDbLine
10
0
20
0
30
0
11
-1
21
0
31
0
39
0
210
0
220
0
230
1
0
ENDBLK
5
12C
100
AcDbEntity
8
0
100
AcDbBlockEnd
0
BLOCK
5
13D
100
AcDbEntity
8
0
100
AcDbBlockBegin
2
DimnDraft3D2
70
0
10
0
20
0
30
0
3
DimnDraft3D2
0
MTEXT
5
132
100
AcDbEntity
8
SK2
62
256
6
ByLayer
370
-1
48
1
60
0
100
AcDbMText
10
-182.195
20
-3.659211
30
0
210
0
220
0
230
1
1
\W01.000;\fsimplex.shx,bigfont.shx;%%c20 
40
4.5
41
0
44
1.084337
50
90
71
7
72
5
7
DEFAULT
0
LINE
5
134
100
AcDbEntity
8
SK2
62
256
6
ByLayer
370
-1
48
1
60
0
100
AcDbLine
10
-173.32
20
-9.99125
30
0
11
-183.07
21
-9.99125
31
0
39
0
210
0
220
0
230
1
0
LINE
5
135
100
AcDbEntity
8
SK2
62
256
6
ByLayer
370
-1
48
1
60
0
100
AcDbLine
10
-173.32
20
9.99125
30
0
11
-183.07
21
9.99125
31
0
39
0
210
0
220
0
230
1
0
LINE
5
136
100
AcDbEntity
8
SK2
62
256
6
ByLayer
370
-1
48
1
60
0
100
AcDbLine
10
-181.07
20
-9.99125
30
0
11
-181.07
21
9.99125
31
0
39
0
210
0
220
0
230
1
0
LINE
5
137
100
AcDbEntity
8
SK2
62
256
6
ByLayer
370
-1
48
1
60
0
100
AcDbLine
10
-181.07
20
-9.99125
30
0
11
-181.487997
21
-6.816252
31
0
39
0
210
0
220
0
230
1
0
LINE
5
138
100
AcDbEntity
8
SK2
62
256
6
ByLayer
370
-1
48
1
60
0
100
AcDbLine
10
-181.07
20
-9.99125
30
0
11
-180.652003
21
-6.816248
31
0
39
0
210
0
220
0
230
1
0
LINE
5
139
100
AcDbEntity
8
SK2
62
256
6
ByLayer
370
-1
48
1
60
0
100
AcDbLine
10
-181.487997
20
-6.816252
30
0
11
-180.652003
21
-6.816248
31
0
39
0
210
0
220
0
230
1
0
LINE
5
13A
100
AcDbEntity
8
SK2
62
256
6
ByLayer
370
-1
48
1
60
0
100
AcDbLine
10
-181.07
20
9.99125
30
0
11
-180.652003
21
6.816252
31
0
39
0
210
0
220
0
230
1
0
LINE
5
13B
100
AcDbEntity
8
SK2
62
256
6
ByLayer
370
-1
48
1
60
0
100
AcDbLine
10
-181.07
20
9.99125
30
0
11
-181.487997
21
6.816248
31
0
39
0
210
0
220
0
230
1
0
LINE
5
13C
100
AcDbEntity
8
SK2
62
256
6
ByLayer
370
-1
48
1
60
0
100
AcDbLine
10
-180.652003
20
6.816252
30
0
11
-181.487997
21
6.816248
31
0
39
0
210
0
220
0
230
1
0
ENDBLK
5
13E
100
AcDbEntity
8
0
100
AcDbBlockEnd
0
BLOCK
5
14B
100
AcDbEntity
8
0
100
AcDbBlockBegin
2
DimnDraft3D3
70
0
10
0
20
0
30
0
3
DimnDraft3D3
0
MTEXT
5
141
100
AcDbEntity
8
SK2
62
256
6
ByLayer
370
-1
48
1
60
0
100
AcDbMText
10
-51.385132
20
26.775
30
0
210
0
220
0
230
1
1
\W01.000;\fsimplex.shx,bigfont.shx;250.0 
40
4.5
41
0
44
1.084337
50
0
71
7
72
5
7
DEFAULT
0
LINE
5
142
100
AcDbEntity
8
SK2
62
256
6
ByLayer
370
-1
48
1
60
0
100
AcDbLine
10
79.93
20
14.9
30
0
11
79.93
21
27.65
31
0
39
0
210
0
220
0
230
1
0
LINE
5
143
100
AcDbEntity
8
SK2
62
256
6
ByLayer
370
-1
48
1
60
0
100
AcDbLine
10
-171.32
20
11.99125
30
0
11
-171.32
21
27.65
31
0
39
0
210
0
220
0
230
1
0
LINE
5
144
100
AcDbEntity
8
SK2
62
256
6
ByLayer
370
-1
48
1
60
0
100
AcDbLine
10
79.93
20
25.65
30
0
11
-171.32
21
25.65
31
0
39
0
210
0
220
0
230
1
0
LINE
5
145
100
AcDbEntity
8
SK2
62
256
6
ByLayer
370
-1
48
1
60
0
100
AcDbLine
10
79.93
20
25.65
30
0
11
76.755002
21
25.232003
31
0
39
0
210
0
220
0
230
1
0
LINE
5
146
100
AcDbEntity
8
SK2
62
256
6
ByLayer
370
-1
48
1
60
0
100
AcDbLine
10
79.93
20
25.65
30
0
11
76.754998
21
26.067997
31
0
39
0
210
0
220
0
230
1
0
LINE
5
147
100
AcDbEntity
8
SK2
62
256
6
ByLayer
370
-1
48
1
60
0
100
AcDbLine
10
76.755002
20
25.232003
30
0
11
76.754998
21
26.067997
31
0
39
0
210
0
220
0
230
1
0
LINE
5
148
100
AcDbEntity
8
SK2
62
256
6
ByLayer
370
-1
48
1
60
0
100
AcDbLine
10
-171.32
20
25.65
30
0
11
-168.145002
21
26.067997
31
0
39
0
210
0
220
0
230
1
0
LINE
5
149
100
AcDbEntity
8
SK2
62
256
6
ByLayer
370
-1
48
1
60
0
100
AcDbLine
10
-171.32
20
25.65
30
0
11
-168.144998
21
25.232003
31
0
39
0
210
0
220
0
230
1
0
LINE
5
14A
100
AcDbEntity
8
SK2
62
256
6
ByLayer
370
-1
48
1
60
0
100
AcDbLine
10
-168.145002
20
26.067997
30
0
11
-168.144998
21
25.232003
31
0
39
0
210
0
220
0
230
1
0
ENDBLK
5
14C
100
AcDbEntity
8
0
100
AcDbBlockEnd
0
BLOCK
5
159
100
AcDbEntity
8
0
100
AcDbBlockBegin
2
DimnDraft3D4
70
0
10
0
20
0
30
0
3
DimnDraft3D4
0
MTEXT
5
14F
100
AcDbEntity
8
2
62
256
6
ByLayer
370
-1
48
1
60
0
100
AcDbMText
10
108.466914
20
-35.950619
30
0
210
0
220
0
230
1
1
\W01.000;\fsimplex.shx,bigfont.shx;91%%d0' 
40
4.5
41
0
44
1.084337
50
44.5
71
7
72
5
7
DEFAULT
0
LINE
5
150
100
AcDbEntity
8
2
62
256
6
ByLayer
370
-1
48
1
60
0
100
AcDbLine
10
79.703119
20
-0.09802
30
0
11
78.850946
21
-48.918955
31
0
39
0
210
0
220
0
230
1
0
LINE
5
151
100
AcDbEntity
8
2
62
256
6
ByLayer
370
-1
48
1
60
0
100
AcDbLine
10
81.93
20
0
30
0
11
128.631237
21
0
31
0
39
0
210
0
220
0
230
1
0
ARC
5
152
100
AcDbEntity
8
2
62
256
6
ByLayer
370
-1
48
1
60
0
100
AcDbCircle
39
0
10
79.70483
20
0
30
0
40
46.9264068782928
210
0
220
0
230
1
100
AcDbArc
50
269
51
0
0
LINE
5
153
100
AcDbEntity
8
2
62
256
6
ByLayer
370
-1
48
1
60
0
100
AcDbLine
10
78.885851
20
-46.91926
30
0
11
82.061077
21
-46.502993
31
0
39
0
210
0
220
0
230
1
0
LINE
5
154
100
AcDbEntity
8
2
62
256
6
ByLayer
370
-1
48
1
60
0
100
AcDbLine
10
78.885851
20
-46.91926
30
0
11
82.060624
21
-47.338987
31
0
39
0
210
0
220
0
230
1
0
LINE
5
155
100
AcDbEntity
8
2
62
256
6
ByLayer
370
-1
48
1
60
0
100
AcDbLine
10
82.061077
20
-46.502993
30
0
11
82.060624
21
-47.338987
31
0
39
0
210
0
220
0
230
1
0
LINE
5
156
100
AcDbEntity
8
2
62
256
6
ByLayer
370
-1
48
1
60
0
100
AcDbLine
10
126.631237
20
0
30
0
11
126.995492
21
-3.181612
31
0
39
0
210
0
220
0
230
1
0
LINE
5
157
100
AcDbEntity
8
2
62
256
6
ByLayer
370
-1
48
1
60
0
100
AcDbLine
10
126.631237
20
0
30
0
11
126.159618
21
-3.16748
31
0
39
0
210
0
220
0
230
1
0
LINE
5
158
100
AcDbEntity
8
2
62
256
6
ByLayer
370
-1
48
1
60
0
100
AcDbLine
10
126.995492
20
-3.181612
30
0
11
126.159618
21
-3.16748
31
0
39
0
210
0
220
0
230
1
0
ENDBLK
5
15A
100
AcDbEntity
8
0
100
AcDbBlockEnd
0
ENDSEC
0
SECTION
2
ENTITIES
0
ELLIPSE
5
9A
100
AcDbEntity
8
1
62
256
6
ByLayer
370
-1
48
1
60
0
100
AcDbEllipse
10
71.069342
20
7.682116
30
0
11
1.04984007991436
21
-0.0183250267591224
31
0
210
0
220
0
230
1
40
0.998917
41
3.06923215017274
42
-3.10664854640062
0
ELLIPSE
5
9B
100
AcDbEntity
8
1
62
256
6
ByLayer
370
-1
48
1
60
0
100
AcDbEllipse
10
71.069342
20
7.682116
30
0
11
1.04984007991436
21
-0.0183250267591224
31
0
210
0
220
0
230
1
40
0.998917
41
1.03632706822663
42
3.06923215017274
0
ELLIPSE
5
9C
100
AcDbEntity
8
1
62
256
6
ByLayer
370
-1
48
1
60
0
100
AcDbEllipse
10
54.064366
20
9.86346
30
0
11
0.917039245987352
21
1.31112128398518
31
0
210
0
220
0
230
1
40
0.026015
41
-2.7477742823888
42
-1.60938941511684
0
ELLIPSE
5
9D
100
AcDbEntity
8
1
62
256
6
ByLayer
370
-1
48
1
60
0
100
AcDbEllipse
10
65.243501
20
3E-05
30
0
11
14.1612789229343
21
-9.91126567629127
31
0
210
0
220
0
230
-1
40
0.022133
41
-2.64503259481257
42
-2.609783038137
0
ELLIPSE
5
9E
100
AcDbEntity
8
1
62
256
6
ByLayer
370
-1
48
1
60
0
100
AcDbEllipse
10
71.415872
20
0.660279
30
0
11
1.59975631225023
21
-0.0279238502996111
31
0
210
0
220
0
230
1
40
0.998917
41
-0.412771340364089
42
-0.00572012332856928
0
ELLIPSE
5
9F
100
AcDbEntity
8
1
62
256
6
ByLayer
370
-1
48
1
60
0
100
AcDbEllipse
10
71.069586
20
7.696071
30
0
11
-1.0498400799143
21
0.0183250267591478
31
0
210
0
220
0
230
1
40
0.998917
41
-2.11840823829258
42
-1.45556903857824
0
ELLIPSE
5
A0
100
AcDbEntity
8
1
62
256
6
ByLayer
370
-1
48
1
60
0
100
AcDbEllipse
10
65.243542
20
0
30
0
11
14.2684273508479
21
-9.9862579192738
31
0
210
0
220
0
230
-1
40
0.022133
41
-2.95565659915494
42
-2.64241050524081
0
ELLIPSE
5
A1
100
AcDbEntity
8
1
62
256
6
ByLayer
370
-1
48
1
60
0
100
AcDbEllipse
10
72.143398
20
8.317559
30
0
11
-1.24980961894549
21
0.0218155080466026
31
0
210
0
220
0
230
1
40
0.998917
41
-0.523598775598298
42
-0.32759600783856
0
ELLIPSE
5
A2
100
AcDbEntity
8
1
62
256
6
ByLayer
370
-1
48
1
60
0
100
AcDbEllipse
10
74.32422
20
-0.682229
30
0
11
-1.45390858096401
21
0.667944487363456
31
0
210
0
220
0
230
1
40
0.042616
41
0.0186823760871505
42
1.58947870288216
0
ELLIPSE
5
A3
100
AcDbEntity
8
1
62
256
6
ByLayer
370
-1
48
1
60
0
100
AcDbEllipse
10
58.99718
20
8.309851
30
0
11
-2.93905524917371E-16
21
-1.6
31
0
210
0
220
0
230
1
40
0.000813
41
-1.52426284494228
42
-0.550785995381461
0
ELLIPSE
5
A4
100
AcDbEntity
8
1
62
256
6
ByLayer
370
-1
48
1
60
0
100
AcDbEllipse
10
72.146112
20
8.463979
30
0
11
-1.24980961894549
21
0.0218155080466026
31
0
210
0
220
0
230
1
40
0.998917
41
-0.523570993957409
42
-0.327562522536673
0
ELLIPSE
5
A5
100
AcDbEntity
8
1
62
256
6
ByLayer
370
-1
48
1
60
0
100
AcDbEllipse
10
58.996192
20
16.834814
30
0
11
8.59869017834497
21
-0.15009069536041
31
0
210
0
220
0
230
1
40
0.998917
41
-2.16417691948299
42
-1.55332411891329
0
ELLIPSE
5
A6
100
AcDbEntity
8
1
62
256
6
ByLayer
370
-1
48
1
60
0
100
AcDbEllipse
10
67.101953
20
8.309851
30
0
11
-2.93905524917371E-16
21
-1.6
31
0
210
0
220
0
230
1
40
0.000813
41
-1.52426284494228
42
-0.446942615940369
0
ELLIPSE
5
A7
100
AcDbEntity
8
1
62
256
6
ByLayer
370
-1
48
1
60
0
100
AcDbEllipse
10
69.403918
20
7.333772
30
0
11
-1.15034143542197
21
-1.11207669787264
31
0
210
0
220
0
230
1
40
0.032897
41
0.355802417845263
42
1.53787528746377
0
ELLIPSE
5
A8
100
AcDbEntity
8
1
62
256
6
ByLayer
370
-1
48
1
60
0
100
AcDbEllipse
10
86.009347
20
0
30
0
11
30.0200194768942
21
-2.40311759371708
31
0
210
0
220
0
230
-1
40
0.32648
41
2.33983074663535
42
-2.6191454590811
0
ELLIPSE
5
A9
100
AcDbEntity
8
1
62
256
6
ByLayer
370
-1
48
1
60
0
100
AcDbEllipse
10
72.249123
20
8.635228
30
0
11
-1.24980961894549
21
0.0218155080466026
31
0
210
0
220
0
230
1
40
0.998917
41
-2.09438507348395
42
-0.523570993957372
0
ELLIPSE
5
AA
100
AcDbEntity
8
1
62
256
6
ByLayer
370
-1
48
1
60
0
100
AcDbEllipse
10
67.100965
20
5.047893
30
0
11
-3.19951262450045
21
0.0558477005993027
31
0
210
0
220
0
230
1
40
0.998917
41
-2.35617492636963
42
-1.5533241189133
0
ELLIPSE
5
AB
100
AcDbEntity
8
1
62
256
6
ByLayer
370
-1
48
1
60
0
100
AcDbEllipse
10
71.41457
20
0.585853
30
0
11
-3.19951262450045
21
0.0558477005993027
31
0
210
0
220
0
230
1
40
0.998917
41
2.72882131322571
42
-2.35617492636965
0
ELLIPSE
5
AC
100
AcDbEntity
8
1
62
256
6
ByLayer
370
-1
48
1
60
0
100
AcDbEllipse
10
67.105006
20
5.281293
30
0
11
1.37805135688992
21
-0.827112903429592
31
0
210
0
220
0
230
-1
40
0.981889
41
-2.10351183078868
42
-1.30064145950053
0
ELLIPSE
5
AD
100
AcDbEntity
8
1
62
256
6
ByLayer
370
-1
48
1
60
0
100
AcDbEllipse
10
71.418203
20
0.786066
30
0
11
1.3780513568601
21
-0.827112903521172
31
0
210
0
220
0
230
-1
40
0.981889
41
-1.300641459563
42
-0.10244072260719
0
ELLIPSE
5
AE
100
AcDbEntity
8
1
62
256
6
ByLayer
370
-1
48
1
60
0
100
AcDbEllipse
10
71.072277
20
7.842451
30
0
11
-1.0498400799143
21
0.0183250267591478
31
0
210
0
220
0
230
1
40
0.998917
41
-1.45556867813166
42
2.28144386925367
0
ELLIPSE
5
AF
100
AcDbEntity
8
1
62
256
6
ByLayer
370
-1
48
1
60
0
100
AcDbEllipse
10
73.717692
20
2.871569
30
0
11
-1.15034143542197
21
-1.11207669787264
31
0
210
0
220
0
230
1
40
0.032897
41
0.305805827309806
42
1.5378752874637
0
ELLIPSE
5
B0
100
AcDbEntity
8
1
62
256
6
ByLayer
370
-1
48
1
60
0
100
AcDbEllipse
10
72.246402
20
8.488805
30
0
11
-1.24980961894549
21
0.0218155080466026
31
0
210
0
220
0
230
1
40
0.998917
41
-2.09439510239322
42
-0.523598775598287
0
ELLIPSE
5
B1
100
AcDbEntity
8
1
62
256
6
ByLayer
370
-1
48
1
60
0
100
AcDbEllipse
10
71.116132
20
7.843098
30
0
11
0.396814554015145
21
-0.0069264238047855
31
0
210
0
220
0
230
1
40
0.998917
41
2.09439510239363
42
-2.0943951023928
0
ELLIPSE
5
B2
100
AcDbEntity
8
1
62
256
6
ByLayer
370
-1
48
1
60
0
100
AcDbEllipse
10
79.36535
20
2.891732
30
0
11
0.396814554015145
21
-0.0069264238047855
31
0
210
0
220
0
230
1
40
0.998917
41
-2.09439510239268
42
3.2037093404821E-13
0
ELLIPSE
5
B3
100
AcDbEntity
8
1
62
256
6
ByLayer
370
-1
48
1
60
0
100
AcDbEllipse
10
76.671828
20
7.755495
30
0
11
1.90439934775033
21
-0.0332414142641866
31
0
210
0
220
0
230
1
40
0.998917
41
0
42
6.28318530717959
0
ELLIPSE
5
B4
100
AcDbEntity
8
1
62
256
6
ByLayer
370
-1
48
1
60
0
100
AcDbEllipse
10
76.671391
20
7.730492
30
0
11
1.88093516011926
21
-0.032831845345599
31
0
210
0
220
0
230
1
40
0.998917
41
-1.21696095604101
42
-9.45280792348699E-16
0
ELLIPSE
5
B5
100
AcDbEntity
8
1
62
256
6
ByLayer
370
-1
48
1
60
0
100
AcDbEllipse
10
76.671391
20
7.730492
30
0
11
1.88093516011926
21
-0.032831845345599
31
0
210
0
220
0
230
1
40
0.998917
41
0
42
0.0124873298367842
0
ELLIPSE
5
B6
100
AcDbEntity
8
1
62
256
6
ByLayer
370
-1
48
1
60
0
100
AcDbEllipse
10
76.671391
20
7.730492
30
0
11
1.88093516011926
21
-0.032831845345599
31
0
210
0
220
0
230
1
40
0.998917
41
0.0124872221168705
42
-1.92478752146006
0
ELLIPSE
5
B7
100
AcDbEntity
8
1
62
256
6
ByLayer
370
-1
48
1
60
0
100
AcDbEllipse
10
76.671188
20
7.718867
30
0
11
-1.80114027624329
21
0.0314390204666518
31
0
210
0
220
0
230
1
40
0.998917
41
0
42
6.28318530717959
0
ELLIPSE
5
B8
100
AcDbEntity
8
1
62
256
6
ByLayer
370
-1
48
1
60
0
100
AcDbEllipse
10
79.533597
20
12.513029
30
0
11
0.396814554015145
21
-0.0069264238047855
31
0
210
0
220
0
230
1
40
0.998917
41
0
42
2.09440399007754
0
ELLIPSE
5
B9
100
AcDbEntity
8
1
62
256
6
ByLayer
370
-1
48
1
60
0
100
AcDbEllipse
10
75.647696
20
7.133911
30
0
11
-0.421935727355997
21
0.00736491551653305
31
0
210
0
220
0
230
1
40
0.998917
41
2.89072069116557
42
-3.14159196226335
0
ELLIPSE
5
BA
100
AcDbEntity
8
1
62
256
6
ByLayer
370
-1
48
1
60
0
100
AcDbEllipse
10
75.820864
20
7.715049
30
0
11
-0.184971823603932
21
0.00322869519089718
31
0
210
0
220
0
230
1
40
0.998917
41
-1.30068497549006
42
-0.126718675756689
0
ELLIPSE
5
BB
100
AcDbEntity
8
1
62
256
6
ByLayer
370
-1
48
1
60
0
100
AcDbEllipse
10
76.259283
20
8.443926
30
0
11
-0.184971823603932
21
0.00322869519089718
31
0
210
0
220
0
230
1
40
0.998917
41
-2.34612504447782
42
-0.0852772284328731
0
ELLIPSE
5
BC
100
AcDbEntity
8
1
62
256
6
ByLayer
370
-1
48
1
60
0
100
AcDbEllipse
10
76.691646
20
8.869489
30
0
11
-0.421935727355997
21
0.00736491551653305
31
0
210
0
220
0
230
1
40
0.998917
41
0.795467609112419
42
1.57036733696481
0
ELLIPSE
5
BD
100
AcDbEntity
8
1
62
256
6
ByLayer
370
-1
48
1
60
0
100
AcDbEllipse
10
77.108516
20
8.428738
30
0
11
-0.184971823603932
21
0.00322869519089718
31
0
210
0
220
0
230
1
40
0.998917
41
-3.14157315317976
42
-0.796325588772547
0
ELLIPSE
5
BE
100
AcDbEntity
8
1
62
256
6
ByLayer
370
-1
48
1
60
0
100
AcDbEllipse
10
77.693798
20
8.267975
30
0
11
-0.421935727355997
21
0.00736491551653305
31
0
210
0
220
0
230
1
40
0.998917
41
2.41567453739531E-06
42
0.524027765428265
0
ELLIPSE
5
BF
100
AcDbEntity
8
1
62
256
6
ByLayer
370
-1
48
1
60
0
100
AcDbEllipse
10
77.52063
20
7.686837
30
0
11
-0.184971823603932
21
0.00322869519089718
31
0
210
0
220
0
230
1
40
0.998917
41
3.14156882831187
42
-1.84266516030932
0
ELLIPSE
5
C0
100
AcDbEntity
8
1
62
256
6
ByLayer
370
-1
48
1
60
0
100
AcDbEllipse
10
76.671038
20
7.71031
30
0
11
-0.747886075976987
21
0.0130544000150871
31
0
210
0
220
0
230
1
40
0.998917
41
1.71709728257711
42
2.56963241545354
0
ELLIPSE
5
C1
100
AcDbEntity
8
1
62
256
6
ByLayer
370
-1
48
1
60
0
100
AcDbEllipse
10
76.671717
20
7.749118
30
0
11
0.747886075976996
21
-0.0130544000150684
31
0
210
0
220
0
230
1
40
0.998917
41
2.58028902402757
42
2.65575424471011
0
ELLIPSE
5
C2
100
AcDbEntity
8
1
62
256
6
ByLayer
370
-1
48
1
60
0
100
AcDbEllipse
10
76.671852
20
7.756826
30
0
11
1.03484236448688
21
-0.0180632406625612
31
0
210
0
220
0
230
1
40
0.998917
41
-2.09438507348399
42
-1.04804667066962
0
ELLIPSE
5
C3
100
AcDbEntity
8
1
62
256
6
ByLayer
370
-1
48
1
60
0
100
AcDbEllipse
10
77.672378
20
7.099742
30
0
11
-0.421935727355997
21
0.00736491551653305
31
0
210
0
220
0
230
1
40
0.998917
41
-1.1119154664582E-05
42
0.253487424293575
0
ELLIPSE
5
C4
100
AcDbEntity
8
1
62
256
6
ByLayer
370
-1
48
1
60
0
100
AcDbEllipse
10
76.671852
20
7.756826
30
0
11
1.03484236448688
21
-0.0180632406625612
31
0
210
0
220
0
230
1
40
0.998917
41
-3.14069687404098
42
-2.09438507348399
0
ELLIPSE
5
C5
100
AcDbEntity
8
1
62
256
6
ByLayer
370
-1
48
1
60
0
100
AcDbEllipse
10
76.671038
20
7.71031
30
0
11
-0.747886075976987
21
0.0130544000150871
31
0
210
0
220
0
230
1
40
0.998917
41
0.597351543719133
42
1.39154442896991
0
ELLIPSE
5
C6
100
AcDbEntity
8
1
62
256
6
ByLayer
370
-1
48
1
60
0
100
AcDbEllipse
10
76.671717
20
7.749118
30
0
11
0.747886075976996
21
-0.0130544000150684
31
0
210
0
220
0
230
1
40
0.998917
41
-0.561303629560539
42
-0.485838408881197
0
ELLIPSE
5
C7
100
AcDbEntity
8
1
62
256
6
ByLayer
370
-1
48
1
60
0
100
AcDbEllipse
10
76.671038
20
7.71031
30
0
11
0.747886075976979
21
-0.0130544000150681
31
0
210
0
220
0
230
1
40
0.998917
41
0.524056673916977
42
1.57036734902883
0
ELLIPSE
5
C8
100
AcDbEntity
8
1
62
256
6
ByLayer
370
-1
48
1
60
0
100
AcDbEllipse
10
76.671038
20
7.71031
30
0
11
-0.747886075976987
21
0.0130544000150871
31
0
210
0
220
0
230
1
40
0.998917
41
2.73351104751291
42
-2.62840046712838
0
ELLIPSE
5
C9
100
AcDbEntity
8
1
62
256
6
ByLayer
370
-1
48
1
60
0
100
AcDbEllipse
10
76.671852
20
7.756826
30
0
11
1.03484236448688
21
-0.0180632406625612
31
0
210
0
220
0
230
1
40
0.998917
41
-1.04804667066962
42
0.000895779548993614
0
ELLIPSE
5
CA
100
AcDbEntity
8
1
62
256
6
ByLayer
370
-1
48
1
60
0
100
AcDbEllipse
10
76.691646
20
8.869489
30
0
11
-0.421935727355997
21
0.00736491551653305
31
0
210
0
220
0
230
1
40
0.998917
41
1.57036733696481
42
2.34526706481734
0
ELLIPSE
5
CB
100
AcDbEntity
8
1
62
256
6
ByLayer
370
-1
48
1
60
0
100
AcDbEllipse
10
76.671852
20
7.756826
30
0
11
1.03484236448688
21
-0.0180632406625612
31
0
210
0
220
0
230
1
40
0.998917
41
2.09354598292009
42
-3.14069687404098
0
ELLIPSE
5
CC
100
AcDbEntity
8
1
62
256
6
ByLayer
370
-1
48
1
60
0
100
AcDbEllipse
10
76.671852
20
7.756826
30
0
11
1.03484236448688
21
-0.0180632406625612
31
0
210
0
220
0
230
1
40
0.998917
41
0.000895779548993614
42
1.04720758010581
0
ELLIPSE
5
CD
100
AcDbEntity
8
1
62
256
6
ByLayer
370
-1
48
1
60
0
100
AcDbEllipse
10
76.671038
20
7.71031
30
0
11
-0.747886075976987
21
0.0130544000150871
31
0
210
0
220
0
230
1
40
0.998917
41
-0.474640503324013
42
0.397025292059209
0
ELLIPSE
5
CE
100
AcDbEntity
8
1
62
256
6
ByLayer
370
-1
48
1
60
0
100
AcDbEllipse
10
76.671852
20
7.756826
30
0
11
1.03484236448688
21
-0.0180632406625612
31
0
210
0
220
0
230
1
40
0.998917
41
1.04720758010581
42
2.09354598292009
0
ELLIPSE
5
CF
100
AcDbEntity
8
1
62
256
6
ByLayer
370
-1
48
1
60
0
100
AcDbEllipse
10
76.671038
20
7.71031
30
0
11
-0.747886075976987
21
0.0130544000150871
31
0
210
0
220
0
230
1
40
0.998917
41
-1.57122530456093
42
-0.561303629561734
0
ELLIPSE
5
D0
100
AcDbEntity
8
1
62
256
6
ByLayer
370
-1
48
1
60
0
100
AcDbEllipse
10
77.693798
20
8.267975
30
0
11
-0.421935727355997
21
0.00736491551653305
31
0
210
0
220
0
230
1
40
0.998917
41
0.524027765428265
42
1.29892749328083
0
ELLIPSE
5
D1
100
AcDbEntity
8
1
62
256
6
ByLayer
370
-1
48
1
60
0
100
AcDbEllipse
10
76.671852
20
7.756826
30
0
11
1.29980200370333
21
-0.0226881283684344
31
0
210
0
220
0
230
1
40
0.998917
41
0
42
6.28318530717959
0
ELLIPSE
5
D2
100
AcDbEntity
8
1
62
256
6
ByLayer
370
-1
48
1
60
0
100
AcDbEllipse
10
76.67171
20
7.748736
30
0
11
1.72473727414477
21
-0.0301054011042681
31
0
210
0
220
0
230
1
40
0.998917
41
0
42
6.28318530717959
0
ELLIPSE
5
D3
100
AcDbEntity
8
1
62
256
6
ByLayer
370
-1
48
1
60
0
100
AcDbEllipse
10
76.671119
20
7.714961
30
0
11
1.72473727414476
21
-0.0301054011042679
31
0
210
0
220
0
230
1
40
0.998917
41
-3.13621831367623
42
-0.00540295180093538
0
POINT
5
41
100
AcDbEntity
8
80
62
256
6
ByLayer
370
-1
48
1
60
0
100
AcDbPoint
10
0
20
0
30
0
39
0
210
0
220
0
230
1
50
360
0
POINT
5
43
100
AcDbEntity
8
81
62
256
6
ByLayer
370
-1
48
1
60
0
100
AcDbPoint
10
79.93
20
12.9
30
0
39
0
210
0
220
0
230
1
50
360
0
POINT
5
45
100
AcDbEntity
8
1
62
256
6
ByLayer
370
-1
48
1
60
0
100
AcDbPoint
10
-171.32
20
0
30
0
39
0
210
0
220
0
230
1
50
360
0
POINT
5
47
100
AcDbEntity
8
2
62
256
6
ByLayer
370
-1
48
1
60
0
100
AcDbPoint
10
79.93
20
12.9
30
0
39
0
210
0
220
0
230
1
50
360
0
SPLINE
5
D4
100
AcDbEntity
8
1
62
256
6
ByLayer
370
-1
48
1
60
0
100
AcDbSpline
70
4
71
3
72
8
73
4
40
0
40
0
40
0
40
0
40
1
40
1
40
1
40
1
41
1
10
59.0018072316557
20
6.97318349984766
30
0
41
1
10
59.4630320005269
20
6.97320021372144
30
0
41
1
10
59.9242567693981
20
6.97321692759036
30
0
41
1
10
60.3854815382693
20
6.97323364145433
30
0
0
SPLINE
5
D5
100
AcDbEntity
8
1
62
256
6
ByLayer
370
-1
48
1
60
0
100
AcDbSpline
70
4
71
3
72
8
73
4
40
0
40
0
40
0
40
0
40
1
40
1
40
1
40
1
41
1
10
55.7300841132185
20
7.47607060134726
30
0
41
1
10
54.7084039039984
20
7.8046612257497
30
0
41
1
10
53.82826076801
20
8.2632536287245
30
0
41
1
10
53.1492622132888
20
8.70139606722248
30
0
0
SPLINE
5
D6
100
AcDbEntity
8
1
62
256
6
ByLayer
370
-1
48
1
60
0
100
AcDbSpline
70
4
71
3
72
8
73
4
40
0
40
0
40
0
40
0
40
1
40
1
40
1
40
1
41
1
10
59.0018072316557
20
6.97318349984766
30
0
41
1
10
57.945199378201
20
6.97314521046795
30
0
41
1
10
56.9115356585049
20
7.13182584389361
30
0
41
1
10
55.9446336495332
20
7.4211440528631
30
0
0
SPLINE
5
D7
100
AcDbEntity
8
1
62
256
6
ByLayer
370
-1
48
1
60
0
100
AcDbSpline
70
4
71
3
72
28
73
24
40
0
40
0
40
0
40
0
40
0.26191344578554
40
0.26191344578554
40
0.392874206699312
40
0.392874206699312
40
0.458889996712804
40
0.458889996712804
40
0.477439013837985
40
0.477439013837985
40
0.491333212112039
40
0.491333212112039
40
0.503134820949976
40
0.503134820949976
40
0.514905014238437
40
0.514905014238437
40
0.532468538861822
40
0.532468538861822
40
0.564905816967583
40
0.564905816967583
40
0.667639414391643
40
0.667639414391643
40
1
40
1
40
1
40
1
41
1
10
48.3220339145462
20
-0.233436164322967
30
0
41
1
10
48.4850372023827
20
-0.233436164322797
30
0
41
1
10
48.649042430242
20
-0.222912372624705
30
0
41
1
10
48.8897212707067
20
-0.179381613961823
30
0
41
1
10
48.9701406509054
20
-0.160563873277965
30
0
41
1
10
49.0834559913927
20
-0.113709336690789
30
0
41
1
10
49.1215551844965
20
-0.0948260261698692
30
0
41
1
10
49.160158367226
20
-0.0588562110405064
30
0
41
1
10
49.1680777173644
20
-0.0499287003482607
30
0
41
1
10
49.1789115908484
20
-0.0325248932471141
30
0
41
1
10
49.1826303692403
20
-0.0243285444992409
30
0
41
1
10
49.1864585037563
20
-0.008553912243201
30
0
41
1
10
49.1870304172773
20
-0.0009064922417679
30
0
41
1
10
49.1855497220676
20
0.0139257046229773
30
0
41
1
10
49.1835046351933
20
0.0212749967943466
30
0
41
1
10
49.1761281325032
20
0.0382681342408375
30
0
41
1
10
49.169640739953
20
0.0475882661414175
30
0
41
1
10
49.1487957783667
20
0.0711606765021884
30
0
41
1
10
49.1321374623834
20
0.0836732243387246
30
0
41
1
10
49.0606006759584
20
0.128492231222964
30
0
41
1
10
48.9982718525168
20
0.148992218628706
30
0
41
1
10
48.7375608628771
20
0.219496548606315
30
0
41
1
10
48.5280855514653
20
0.233436164323535
30
0
41
1
10
48.3220339145431
20
0.233436164323564
30
0
0
SPLINE
5
D8
100
AcDbEntity
8
1
62
256
6
ByLayer
370
-1
48
1
60
0
100
AcDbSpline
70
4
71
3
72
8
73
4
40
0
40
0
40
0
40
0
40
1
40
1
40
1
40
1
41
1
10
52.8220339145272
20
8.91885404118875
30
0
41
1
10
52.8470425628636
20
8.90042938853932
30
0
41
1
10
52.872042670014
20
8.88200995355373
30
0
41
1
10
52.897033914543
20
8.8635959353405
30
0
0
SPLINE
5
D9
100
AcDbEntity
8
1
62
256
6
ByLayer
370
-1
48
1
60
0
100
AcDbSpline
70
4
71
3
72
8
73
4
40
0
40
0
40
0
40
0
40
1
40
1
40
1
40
1
41
1
10
55.7300841132181
20
-9.1710082924059
30
0
41
1
10
55.7971506246561
20
-9.1421774210261
30
0
41
1
10
55.8688101312495
20
-9.11137209101204
30
0
41
1
10
55.9446336496423
20
-9.07877671577216
30
0
0
SPLINE
5
DA
100
AcDbEntity
8
1
62
256
6
ByLayer
370
-1
48
1
60
0
100
AcDbSpline
70
4
71
3
72
15
73
11
40
0
40
0
40
0
40
0
40
0.531019507124641
40
0.531019507124641
40
0.531019507124641
40
0.700523988585918
40
0.700523988585918
40
0.8723068823502
40
0.8723068823502
40
1
40
1
40
1
40
1
41
1
10
52.822033914543
20
9.99121930254847
30
0
41
1
10
52.4559382671706
20
9.99102499913283
30
0
41
1
10
52.0888053880444
20
9.990780437019
30
0
41
1
10
51.7785135132171
20
9.9815523978848
30
0
41
1
10
51.6776983179747
20
9.97855416737187
30
0
41
1
10
51.5822529418861
20
9.97445060308573
30
0
41
1
10
51.4157911638698
20
9.96238365220401
30
0
41
1
10
51.3434328904051
20
9.9541650875077
30
0
41
1
10
51.2593051139575
20
9.93487394388288
30
0
41
1
10
51.2363716515732
20
9.92482385709033
30
0
41
1
10
51.2298537920452
20
9.91346506722394
30
0
0
SPLINE
5
DB
100
AcDbEntity
8
1
62
256
6
ByLayer
370
-1
48
1
60
0
100
AcDbSpline
70
4
71
3
72
8
73
4
40
0
40
0
40
0
40
0
40
1
40
1
40
1
40
1
41
1
10
51.2465542168329
20
9.88184312294172
30
0
41
1
10
51.2509468266374
20
9.87876395772068
30
0
41
1
10
51.2560782842102
20
9.87564899957781
30
0
41
1
10
51.2619101403484
20
9.87251187799509
30
0
0
SPLINE
5
DC
100
AcDbEntity
8
1
62
256
6
ByLayer
370
-1
48
1
60
0
100
AcDbSpline
70
4
71
3
72
8
73
4
40
0
40
0
40
0
40
0
40
1
40
1
40
1
40
1
41
1
10
52.8220339145429
20
9.99121930254819
30
0
41
1
10
52.8470380618095
20
9.96620655871109
30
0
41
1
10
52.8720381535933
20
9.94119592154087
30
0
41
1
10
52.8970339145429
20
9.91618747450232
30
0
0
SPLINE
5
DD
100
AcDbEntity
8
1
62
256
6
ByLayer
370
-1
48
1
60
0
100
AcDbSpline
70
4
71
3
72
8
73
4
40
0
40
0
40
0
40
0
40
1
40
1
40
1
40
1
41
1
10
55.7300841159454
20
7.47607060524857
30
0
41
1
10
55.8003714871654
20
7.45734416876869
30
0
41
1
10
55.8719060292331
20
7.43900499724637
30
0
41
1
10
55.9446336495132
20
7.42114405286216
30
0
0
SPLINE
5
DE
100
AcDbEntity
8
1
62
256
6
ByLayer
370
-1
48
1
60
0
100
AcDbSpline
70
4
71
3
72
12
73
8
40
0
40
0
40
0
40
0
40
0.185683147435953
40
0.185683147435953
40
0.592841573717992
40
0.592841573717992
40
1
40
1
40
1
40
1
41
1
10
53.8815352769983
20
9.9160020790124
30
0
41
1
10
53.9959500656987
20
9.91600142158771
30
0
41
1
10
54.1103648543992
20
9.91600076285587
30
0
41
1
10
54.4756637214554
20
9.91599865551055
30
0
41
1
10
54.7265477998112
20
9.91599720191931
30
0
41
1
10
55.2283159565225
20
9.91599428216725
30
0
41
1
10
55.4792000348783
20
9.91599281600642
30
0
41
1
10
55.7300841132338
20
9.91599134356085
30
0
0
SPLINE
5
DF
100
AcDbEntity
8
1
62
256
6
ByLayer
370
-1
48
1
60
0
100
AcDbSpline
70
4
71
3
72
8
73
4
40
0
40
0
40
0
40
0
40
1
40
1
40
1
40
1
41
1
10
55.7300841132182
20
9.91599134356116
30
0
41
1
10
56.0040818368521
20
10.1394100717131
30
0
41
1
10
56.2780855602473
20
10.3628214580016
30
0
41
1
10
56.5520942100613
20
10.5862268149587
30
0
0
SPLINE
5
E0
100
AcDbEntity
8
1
62
256
6
ByLayer
370
-1
48
1
60
0
100
AcDbSpline
70
4
71
3
72
8
73
4
40
0
40
0
40
0
40
0
40
1
40
1
40
1
40
1
41
1
10
52.897033914543
20
9.91618747450221
30
0
41
1
10
53.2191859263375
20
9.91644218278978
30
0
41
1
10
53.5514952762904
20
9.91600397541453
30
0
41
1
10
53.8815352769944
20
9.9160020790124
30
0
0
SPLINE
5
E1
100
AcDbEntity
8
SK1
62
256
6
ByLayer
370
-1
48
1
60
0
100
AcDbSpline
70
4
71
3
72
34
73
30
40
0
40
0
40
0
40
0
40
0.217457722715885
40
0.217457722715885
40
0.435205736045891
40
0.435205736045891
40
0.489804543994116
40
0.489804543994116
40
0.496549308751781
40
0.496549308751781
40
0.499955506608705
40
0.499955506608705
40
0.501333585705893
40
0.501333585705893
40
0.502727669322057
40
0.502727669322057
40
0.503969738092859
40
0.503969738092859
40
0.506084034865344
40
0.506084034865344
40
0.511582108691907
40
0.511582108691907
40
0.532968432684792
40
0.532968432684792
40
0.617843090854393
40
0.617843090854393
40
0.991279786412537
40
0.991279786412537
40
1
40
1
40
1
40
1
41
1
10
-60.069999995457
20
-0.233436164322711
30
0
41
1
10
-60.4700057941893
20
-0.233436164322711
30
0
41
1
10
-60.8701208915951
20
-0.226764338557643
30
0
41
1
10
-61.669788885485
20
-0.194439129841101
30
0
41
1
10
-62.0713188461726
20
-0.175922319090432
30
0
41
1
10
-62.5660317028865
20
-0.0991142584228157
30
0
41
1
10
-62.668290326605
20
-0.0860601938297805
30
0
41
1
10
-62.7710652166554
20
-0.0393601932101433
30
0
41
1
10
-62.7824106868567
20
-0.0334791827027914
30
0
41
1
10
-62.7971573121239
20
-0.0216662685330675
30
0
41
1
10
-62.8018551967837
20
-0.0170508851722104
30
0
41
1
10
-62.8062097486929
20
-0.0092514148736598
30
0
41
1
10
-62.8072008661167
20
-0.006780393331411
30
0
41
1
10
-62.8082484467085
20
-0.0016667993909323
30
0
41
1
10
-62.8082909984144
20
0.001044232027283
30
0
41
1
10
-62.8074328055726
20
0.0059371585597319
30
0
41
1
10
-62.8066364695275
20
0.0081988054901956
30
0
41
1
10
-62.8038120225433
20
0.0138593692917368
30
0
41
1
10
-62.8012989049928
20
0.0170658976255424
30
0
41
1
10
-62.7913933217035
20
0.0272986023844339
30
0
41
1
10
-62.7824578890425
20
0.0328764670137787
30
0
41
1
10
-62.7384762012648
20
0.0566035527722306
30
0
41
1
10
-62.6993830395014
20
0.0670885454561869
30
0
41
1
10
-62.5081904035613
20
0.115383286102997
30
0
41
1
10
-62.3506046751703
20
0.1326651409438
30
0
41
1
10
-61.505331043146
20
0.220917708457023
30
0
41
1
10
-60.8109209784382
20
0.232394670085597
30
0
41
1
10
-60.1023607426919
20
0.233424410073695
30
0
41
1
10
-60.0861803669363
20
0.233436164322683
30
0
41
1
10
-60.069999995457
20
0.233436164322683
30
0
0
SPLINE
5
E2
100
AcDbEntity
8
1
62
256
6
ByLayer
370
-1
48
1
60
0
100
AcDbSpline
70
4
71
3
72
18
73
14
40
0
40
0
40
0
40
0
40
0.211983449928413
40
0.211983449928413
40
0.387837110769643
40
0.387837110769643
40
0.565345577795786
40
0.565345577795786
40
0.720313357419226
40
0.720313357419226
40
0.926300897971849
40
0.926300897971849
40
1
40
1
40
1
40
1
41
1
10
76.3918143252011
20
8.6169836921012
30
0
41
1
10
76.4220277680544
20
8.58530339262771
30
0
41
1
10
76.4580326035338
20
8.5573421205942
30
0
41
1
10
76.5319143106626
20
8.51770753361473
30
0
41
1
10
76.569308705064
20
8.50371602844842
30
0
41
1
10
76.6473545027101
20
8.4872549146877
30
0
41
1
10
76.6892049540051
20
8.48477173286247
30
0
41
1
10
76.764573251174
20
8.49172977976977
30
0
41
1
10
76.7993774492608
20
8.49972080110612
30
0
41
1
10
76.8741471243854
20
8.52690282495891
30
0
41
1
10
76.913387927326
20
8.54923475695315
30
0
41
1
10
76.9595464679923
20
8.58544288918395
30
0
41
1
10
76.9712086390377
20
8.59567619028681
30
0
41
1
10
76.9822198220405
20
8.60642504312628
30
0
0
SPLINE
5
E3
100
AcDbEntity
8
1
62
256
6
ByLayer
370
-1
48
1
60
0
100
AcDbSpline
70
4
71
3
72
16
73
12
40
0
40
0
40
0
40
0
40
0.062973397621682
40
0.062973397621682
40
0.287523006726325
40
0.287523006726325
40
0.514832618621549
40
0.514832618621549
40
0.75652303385435
40
0.75652303385435
40
1
40
1
40
1
40
1
41
1
10
77.706416465272
20
7.7302834688611
30
0
41
1
10
77.7065043703787
20
7.73558026348096
30
0
41
1
10
77.7063636705287
20
7.74088177651609
30
0
41
1
10
77.7046932087803
20
7.76481937072433
30
0
41
1
10
77.7004376374213
20
7.78340120615877
30
0
41
1
10
77.6868655203027
20
7.81768773845113
30
0
41
1
10
77.677328360177
20
7.83379658177151
30
0
41
1
10
77.6539350442593
20
7.86250476213067
30
0
41
1
10
77.6395664027069
20
7.87519003566578
30
0
41
1
10
77.6085223436306
20
7.89513053978666
30
0
41
1
10
77.591513054929
20
7.90258751888845
30
0
41
1
10
77.5741643784822
20
7.90731061864
30
0
0
SPLINE
5
E4
100
AcDbEntity
8
1
62
256
6
ByLayer
370
-1
48
1
60
0
100
AcDbSpline
70
4
71
3
72
14
73
10
40
0
40
0
40
0
40
0
40
0.0504416692028953
40
0.0504416692028953
40
0.387397004132348
40
0.387397004132348
40
0.83509889889398
40
0.83509889889398
40
1
40
1
40
1
40
1
41
1
10
76.0452446342368
20
8.14848133666928
30
0
41
1
10
76.0476887459602
20
8.15325346367354
30
0
41
1
10
76.0500405066329
20
8.15807295371565
30
0
41
1
10
76.067240018916
20
8.19511007742602
30
0
41
1
10
76.0780262800446
20
8.22937654434369
30
0
41
1
10
76.0928231732827
20
8.30815318507845
30
0
41
1
10
76.093847349266
20
8.35365882624993
30
0
41
1
10
76.0866307933999
20
8.41274604766906
30
0
41
1
10
76.0838041739998
20
8.42856041028904
30
0
41
1
10
76.0801698232812
20
8.44405428804416
30
0
0
SPLINE
5
E5
100
AcDbEntity
8
1
62
256
6
ByLayer
370
-1
48
1
60
0
100
AcDbSpline
70
4
71
3
72
18
73
14
40
0
40
0
40
0
40
0
40
0.20949545530255
40
0.20949545530255
40
0.385781833291239
40
0.385781833291239
40
0.56375213986526
40
0.56375213986526
40
0.718802841226284
40
0.718802841226284
40
0.924346918514858
40
0.924346918514858
40
1
40
1
40
1
40
1
41
1
10
77.2876531519076
20
8.42309709440005
30
0
41
1
10
77.276351151659
20
8.3810787486656
30
0
41
1
10
77.2709785925049
20
8.33602932300201
30
0
41
1
10
77.2745136433556
20
8.25205703668945
30
0
41
1
10
77.2814341168879
20
8.21234933838821
30
0
41
1
10
77.3065663370729
20
8.1360639922236
30
0
41
1
10
77.325366618255
20
8.09843659372982
30
0
41
1
10
77.3687681446954
20
8.0366894950844
30
0
41
1
10
77.3927838438651
20
8.01068253066771
30
0
41
1
10
77.4526876710218
20
7.9600804990111
30
0
41
1
10
77.4908347587519
20
7.93770225136456
30
0
41
1
10
77.5444795736959
20
7.9162946107312
30
0
41
1
10
77.5592626806976
20
7.91136753936928
30
0
41
1
10
77.5741643784822
20
7.90731061863991
30
0
0
SPLINE
5
E6
100
AcDbEntity
8
1
62
256
6
ByLayer
370
-1
48
1
60
0
100
AcDbSpline
70
4
71
3
72
14
73
10
40
0
40
0
40
0
40
0
40
0.271186465993408
40
0.271186465993408
40
0.560069516840425
40
0.560069516840425
40
0.821669225243218
40
0.821669225243218
40
1
40
1
40
1
40
1
41
1
10
76.0553544977256
20
7.06550045406357
30
0
41
1
10
76.0500150135081
20
7.04655363741554
30
0
41
1
10
76.0477717389976
20
7.02611820729015
30
0
41
1
10
76.0506425009594
20
6.98389099876769
30
0
41
1
10
76.0563386583127
20
6.96143471535339
30
0
41
1
10
76.0751422056064
20
6.92185516734688
30
0
41
1
10
76.0878175486811
20
6.90384645306276
30
0
41
1
10
76.1137235647142
20
6.87825525126138
30
0
41
1
10
76.1256967186086
20
6.86895379376995
30
0
41
1
10
76.1385115317841
20
6.86126205490896
30
0
0
SPLINE
5
E7
100
AcDbEntity
8
1
62
256
6
ByLayer
370
-1
48
1
60
0
100
AcDbSpline
70
4
71
3
72
16
73
12
40
0
40
0
40
0
40
0
40
0.0650308624161391
40
0.0650308624161391
40
0.289568494474039
40
0.289568494474039
40
0.51698172970198
40
0.51698172970198
40
0.758870844302328
40
0.758870844302328
40
1
40
1
40
1
40
1
41
1
10
75.6367015358563
20
7.76463611251683
30
0
41
1
10
75.6366107853967
20
7.75916786881555
30
0
41
1
10
75.6367635302638
20
7.75368364454954
30
0
41
1
10
75.6385113039101
20
7.72949080892411
30
0
41
1
10
75.6428136803988
20
7.7107243234895
30
0
41
1
10
75.6564666979919
20
7.67584535239274
30
0
41
1
10
75.6660412880495
20
7.65932046966435
30
0
41
1
10
75.6895005147812
20
7.62957721434722
30
0
41
1
10
75.7038989496237
20
7.61625121681769
30
0
41
1
10
75.7348316926704
20
7.59500840975653
30
0
41
1
10
75.7516703761035
20
7.58682546290453
30
0
41
1
10
75.7688432711515
20
7.58128692982359
30
0
0
SPLINE
5
E8
100
AcDbEntity
8
1
62
256
6
ByLayer
370
-1
48
1
60
0
100
AcDbSpline
70
4
71
3
72
18
73
14
40
0
40
0
40
0
40
0
40
0.213202590202305
40
0.213202590202305
40
0.38884458270028
40
0.38884458270028
40
0.566127071004735
40
0.566127071004735
40
0.721055379677813
40
0.721055379677813
40
0.927261033748918
40
0.927261033748918
40
1
40
1
40
1
40
1
41
1
10
76.9511933244322
20
6.87161385636247
30
0
41
1
10
76.9207695059048
20
6.90140028540523
30
0
41
1
10
76.8844846773032
20
6.9275480195617
30
0
41
1
10
76.8102604281943
20
6.9643053164491
30
0
41
1
10
76.7728551784687
20
6.97717333746357
30
0
41
1
10
76.6948412097736
20
6.99229718723817
30
0
41
1
10
76.653037818123
20
6.99457372221906
30
0
41
1
10
76.5777568039871
20
6.98819500800843
30
0
41
1
10
76.5429919733519
20
6.98085631364981
30
0
41
1
10
76.4682728945708
20
6.95577225834495
30
0
41
1
10
76.4290598844604
20
6.93508359795774
30
0
41
1
10
76.3831315829249
20
6.90147186361082
30
0
41
1
10
76.3716426266609
20
6.8920646896938
30
0
41
1
10
76.3607878275937
20
6.88217250533822
30
0
0
SPLINE
5
E9
100
AcDbEntity
8
1
62
256
6
ByLayer
370
-1
48
1
60
0
100
AcDbSpline
70
4
71
3
72
18
73
14
40
0
40
0
40
0
40
0
40
0.154801087195183
40
0.154801087195183
40
0.341522159491194
40
0.341522159491194
40
0.499677258032015
40
0.499677258032015
40
0.658016174118901
40
0.658016174118901
40
0.815823044833807
40
0.815823044833807
40
1
40
1
40
1
40
1
41
1
10
76.0553544977257
20
7.06550045406357
30
0
41
1
10
76.0636787807784
20
7.09503863758556
30
0
41
1
10
76.0687656902605
20
7.12618699162942
30
0
41
1
10
76.0716483389934
20
7.19664723952968
30
0
41
1
10
76.0676506865958
20
7.23721063901277
30
0
41
1
10
76.0486815249262
20
7.31092254699959
30
0
41
1
10
76.035186066009
20
7.34505944419342
30
0
41
1
10
76.0001461848092
20
7.40835643120616
30
0
41
1
10
75.9781670093306
20
7.43827766418016
30
0
41
1
10
75.9293715910406
20
7.49012939872389
30
0
41
1
10
75.9020539279053
20
7.51273916249505
30
0
41
1
10
75.8403310606371
20
7.55298717839747
30
0
41
1
10
75.804818653674
20
7.56968429406268
30
0
41
1
10
75.7688432711515
20
7.58128692982359
30
0
0
SPLINE
5
EA
100
AcDbEntity
8
1
62
256
6
ByLayer
370
-1
48
1
60
0
100
AcDbSpline
70
4
71
3
72
14
73
10
40
0
40
0
40
0
40
0
40
0.0516667313883204
40
0.0516667313883204
40
0.388415187285019
40
0.388415187285019
40
0.836268155556697
40
0.836268155556697
40
1
40
1
40
1
40
1
41
1
10
77.2976042868185
20
7.3310226576213
30
0
41
1
10
77.2951005736043
20
7.32616388092117
30
0
41
1
10
77.2926939523981
20
7.32126424680496
30
0
41
1
10
77.2754838861694
20
7.28445971747973
30
0
41
1
10
77.2647443306957
20
7.25088601953192
30
0
41
1
10
77.2500493575491
20
7.17427150256793
30
0
41
1
10
77.2490967954166
20
7.13044884969176
30
0
41
1
10
77.2564026123031
20
7.07406819867486
30
0
41
1
10
77.2592232676138
20
7.05912396418671
30
0
41
1
10
77.262837288293
20
7.04451243507535
30
0
0
SPLINE
5
EB
100
AcDbEntity
8
1
62
256
6
ByLayer
370
-1
48
1
60
0
100
AcDbSpline
70
4
71
3
72
14
73
10
40
0
40
0
40
0
40
0
40
0.283903324293169
40
0.283903324293169
40
0.57119421975833
40
0.57119421975833
40
0.831518625569858
40
0.831518625569858
40
1
40
1
40
1
40
1
41
1
10
76.391814325201
20
8.61698369210114
30
0
41
1
10
76.3770020891727
20
8.6325150592323
30
0
41
1
10
76.3590807652226
20
8.64589775906015
30
0
41
1
10
76.319194429427
20
8.66561434397181
30
0
41
1
10
76.2965498586448
20
8.67213100039842
30
0
41
1
10
76.2524795660657
20
8.67586582519075
30
0
41
1
10
76.230472462617
20
8.67391804453609
30
0
41
1
10
76.1961578811702
20
8.66438783559852
30
0
41
1
10
76.1829029083287
20
8.65898139246818
30
0
41
1
10
76.1705409511901
20
8.65215046883077
30
0
0
SPLINE
5
EC
100
AcDbEntity
8
1
62
256
6
ByLayer
370
-1
48
1
60
0
100
AcDbSpline
70
4
71
3
72
14
73
10
40
0
40
0
40
0
40
0
40
0.283804609989816
40
0.283804609989816
40
0.57054738229122
40
0.57054738229122
40
0.830345667085344
40
0.830345667085344
40
1
40
1
40
1
40
1
41
1
10
75.7753712203789
20
7.93732299752884
30
0
41
1
10
75.7548897653173
20
7.93254697912718
30
0
41
1
10
75.7346907625236
20
7.92397817803476
30
0
41
1
10
75.6983187891203
20
7.89974532054674
30
0
41
1
10
75.6816496833201
20
7.8836012520608
30
0
41
1
10
75.6568123513389
20
7.84760674167279
30
0
41
1
10
75.6476492181924
20
7.82768326588706
30
0
41
1
10
75.6388570550114
20
7.7931802404116
30
0
41
1
10
75.6369380007169
20
7.77888449749281
30
0
41
1
10
75.6367015358563
20
7.76463611251683
30
0
0
SPLINE
5
ED
100
AcDbEntity
8
1
62
256
6
ByLayer
370
-1
48
1
60
0
100
AcDbSpline
70
4
71
3
72
16
73
12
40
0
40
0
40
0
40
0
40
0.063555319510911
40
0.063555319510911
40
0.287525028242847
40
0.287525028242847
40
0.514289450623362
40
0.514289450623362
40
0.755432191557384
40
0.755432191557384
40
1
40
1
40
1
40
1
41
1
10
77.1725770499381
20
6.84276911254707
30
0
41
1
10
77.1772719584528
20
6.84536340738154
30
0
41
1
10
77.1818588880443
20
6.84816011913574
30
0
41
1
10
77.2018756287025
20
6.86156881669925
30
0
41
1
10
77.2159515168927
20
6.87447682195699
30
0
41
1
10
77.2391813884491
20
6.90317858179003
30
0
41
1
10
77.2485792493138
20
6.91936279861162
30
0
41
1
10
77.262265117127
20
6.95366460212486
30
0
41
1
10
77.2663815462726
20
6.97226236671915
30
0
41
1
10
77.2688203515352
20
7.00885552429946
30
0
41
1
10
77.2671102866254
20
7.02723665138348
30
0
41
1
10
77.2628372882938
20
7.04451243507563
30
0
0
SPLINE
5
EE
100
AcDbEntity
8
1
62
256
6
ByLayer
370
-1
48
1
60
0
100
AcDbSpline
70
4
71
3
72
16
73
12
40
0
40
0
40
0
40
0
40
0.09940583444334
40
0.09940583444334
40
0.408675348154889
40
0.408675348154889
40
0.688844930923157
40
0.688844930923157
40
0.936656943546727
40
0.936656943546727
40
1
40
1
40
1
40
1
41
1
10
77.2876531519094
20
8.42309709439925
30
0
41
1
10
77.2896269598904
20
8.43043527740528
30
0
41
1
10
77.2911821706098
20
8.43794203710715
30
0
41
1
10
77.2956955171836
20
8.46901081721032
30
0
41
1
10
77.2947689593388
20
8.49402453989629
30
0
41
1
10
77.2837403049364
20
8.53977193579559
30
0
41
1
10
77.2742900651815
20
8.56138931540988
30
0
41
1
10
77.2495891189204
20
8.59727197930445
30
0
41
1
10
77.2347508003107
20
8.61260579643547
30
0
41
1
10
77.2136650000649
20
8.62794393418176
30
0
41
1
10
77.2091930937275
20
8.63090453143667
30
0
41
1
10
77.2046064693441
20
8.63365752646888
30
0
0
SPLINE
5
EF
100
AcDbEntity
8
1
62
256
6
ByLayer
370
-1
48
1
60
0
100
AcDbSpline
70
4
71
3
72
12
73
8
40
0
40
0
40
0
40
0
40
0.463835901482344
40
0.463835901482344
40
0.845344868733711
40
0.845344868733711
40
1
40
1
40
1
40
1
41
1
10
77.5676358911988
20
7.5512437255918
30
0
41
1
10
77.5255835225246
20
7.53936193122345
30
0
41
1
10
77.4838029817981
20
7.52059091242208
30
0
41
1
10
77.4134313363182
20
7.47407716498529
30
0
41
1
10
77.3830747314964
20
7.44791540904296
30
0
41
1
10
77.3460964374195
20
7.40568925049089
30
0
41
1
10
77.3359922795796
20
7.39277081660026
30
0
41
1
10
77.3266683576288
20
7.37934201987915
30
0
0
SPLINE
5
F0
100
AcDbEntity
8
1
62
256
6
ByLayer
370
-1
48
1
60
0
100
AcDbSpline
70
4
71
3
72
14
73
10
40
0
40
0
40
0
40
0
40
0.279951849662347
40
0.279951849662347
40
0.567737363580632
40
0.567737363580632
40
0.828455759550006
40
0.828455759550006
40
1
40
1
40
1
40
1
41
1
10
76.9511933244322
20
6.8716138563625
30
0
41
1
10
76.9658174477941
20
6.85729611342569
30
0
41
1
10
76.9834584874928
20
6.84502080319163
30
0
41
1
10
77.0230148353263
20
6.82691701992548
30
0
41
1
10
77.0456695637424
20
6.82103457035802
30
0
41
1
10
77.0897953257895
20
6.81818988822988
30
0
41
1
10
77.1118453847723
20
6.82043487960433
30
0
41
1
10
77.1464762954838
20
6.8302612317479
30
0
41
1
10
77.1599912536839
20
6.83581450073567
30
0
41
1
10
77.1725770499381
20
6.84276911254707
30
0
0
SPLINE
5
F1
100
AcDbEntity
8
1
62
256
6
ByLayer
370
-1
48
1
60
0
100
AcDbSpline
70
4
71
3
72
16
73
12
40
0
40
0
40
0
40
0
40
0.0663884299350949
40
0.0663884299350949
40
0.290288050450783
40
0.290288050450783
40
0.517141614840269
40
0.517141614840269
40
0.758501504482064
40
0.758501504482064
40
1
40
1
40
1
40
1
41
1
10
76.1705409511901
20
8.65215046883077
30
0
41
1
10
76.1656375570764
20
8.64944096981057
30
0
41
1
10
76.1608515197442
20
8.64649921889603
30
0
41
1
10
76.14069287928
20
8.63278782988408
30
0
41
1
10
76.1266695633954
20
8.61962805183575
30
0
41
1
10
76.1035408910961
20
8.59020867693073
30
0
41
1
10
76.0941966621529
20
8.57354536001722
30
0
41
1
10
76.0806193521155
20
8.53808655826438
30
0
41
1
10
76.0765624232712
20
8.51878609250559
30
0
41
1
10
76.0742597432815
20
8.48093029103697
30
0
41
1
10
76.0759664580265
20
8.4619739750687
30
0
41
1
10
76.080169823281
20
8.44405428804413
30
0
0
SPLINE
5
F2
100
AcDbEntity
8
1
62
256
6
ByLayer
370
-1
48
1
60
0
100
AcDbSpline
70
4
71
3
72
14
73
10
40
0
40
0
40
0
40
0
40
0.280965519683032
40
0.280965519683032
40
0.568063411715148
40
0.568063411715148
40
0.8281450872471
40
0.8281450872471
40
1
40
1
40
1
40
1
41
1
10
77.5676358911988
20
7.55124372559183
30
0
41
1
10
77.5879306231935
20
7.55697795269828
30
0
41
1
10
77.6079444727937
20
7.56637783492027
30
0
41
1
10
77.6442621688614
20
7.59205263683518
30
0
41
1
10
77.6610161481528
20
7.60890557428985
30
0
41
1
10
77.6860140256597
20
7.64594785040217
30
0
41
1
10
77.6952561979359
20
7.6662534012562
30
0
41
1
10
77.7042088979663
20
7.70129256891488
30
0
41
1
10
77.7061769451
20
7.71585098358165
30
0
41
1
10
77.706416465272
20
7.7302834688611
30
0
0
SPLINE
5
F3
100
AcDbEntity
8
1
62
256
6
ByLayer
370
-1
48
1
60
0
100
AcDbSpline
70
4
71
3
72
16
73
12
40
0
40
0
40
0
40
0
40
0.0574496537954006
40
0.0574496537954006
40
0.282227076008144
40
0.282227076008144
40
0.509452576307533
40
0.509452576307533
40
0.750812436257674
40
0.750812436257674
40
1
40
1
40
1
40
1
41
1
10
76.1385115317841
20
6.86126205490896
30
0
41
1
10
76.1426584884879
20
6.85877295829894
30
0
41
1
10
76.1469072179436
20
6.856440184863
30
0
41
1
10
76.1680380357694
20
6.84587253480944
30
0
41
1
10
76.1863279400278
20
6.83995541687221
30
0
41
1
10
76.2230683720385
20
6.83377839789298
30
0
41
1
10
76.241984461424
20
6.83348778229532
30
0
41
1
10
76.2790501821299
20
6.83824193109828
30
0
41
1
10
76.2975462942573
20
6.84365970197589
30
0
41
1
10
76.3315415976988
20
6.85933043254417
30
0
41
1
10
76.3473147820562
20
6.86989426329373
30
0
41
1
10
76.3607878275937
20
6.88217250533822
30
0
0
SPLINE
5
F4
100
AcDbEntity
8
1
62
256
6
ByLayer
370
-1
48
1
60
0
100
AcDbSpline
70
4
71
3
72
12
73
8
40
0
40
0
40
0
40
0
40
0.461910100605849
40
0.461910100605849
40
0.843740118291709
40
0.843740118291709
40
1
40
1
40
1
40
1
41
1
10
75.7753712203789
20
7.93732299752878
30
0
41
1
10
75.8172136993655
20
7.94708013875777
30
0
41
1
10
75.8587853536907
20
7.96378660318359
30
0
41
1
10
75.9290175253017
20
8.00724396710879
30
0
41
1
10
75.9594075917936
20
8.03233240928063
30
0
41
1
10
75.9965482963574
20
8.07381455671671
30
0
41
1
10
76.0067620990047
20
8.08668720863474
30
0
41
1
10
76.0161805634253
20
8.10016197440942
30
0
0
SPLINE
5
F5
100
AcDbEntity
8
1
62
256
6
ByLayer
370
-1
48
1
60
0
100
AcDbSpline
70
4
71
3
72
16
73
12
40
0
40
0
40
0
40
0
40
0.165451256510018
40
0.165451256510018
40
0.389811393437338
40
0.389811393437338
40
0.622484651729674
40
0.622484651729674
40
0.874012446975921
40
0.874012446975921
40
1
40
1
40
1
40
1
41
1
10
77.2046064693441
20
8.63365752646888
30
0
41
1
10
77.19274753882
20
8.64077552308052
30
0
41
1
10
77.1799862650436
20
8.64655893524198
30
0
41
1
10
77.1491770380383
20
8.65647983141139
30
0
41
1
10
77.1304607786416
20
8.65939497593084
30
0
41
1
10
77.0933058209724
20
8.65956028542519
30
0
41
1
10
77.0744347650421
20
8.65661643343208
30
0
41
1
10
77.0379573804343
20
8.64521020921381
30
0
41
1
10
77.0201146761352
20
8.63619800909598
30
0
41
1
10
76.9965294877161
20
8.61937093339736
30
0
41
1
10
76.9890905934268
20
8.61313212541768
30
0
41
1
10
76.9822198220405
20
8.60642504312628
30
0
0
LINE
5
49
100
AcDbEntity
8
80
62
256
6
ByLayer
370
-1
48
1
60
0
100
AcDbLine
10
0
20
0
30
0
11
-10
21
0
31
0
39
0
210
0
220
0
230
1
0
LINE
5
4A
100
AcDbEntity
8
81
62
256
6
ByLayer
370
-1
48
1
60
0
100
AcDbLine
10
79.93
20
12.9
30
0
11
89.93
21
12.9
31
0
39
0
210
0
220
0
230
1
0
LINE
5
4B
100
AcDbEntity
8
SK4
62
256
6
ByLayer
370
-1
48
0.05
60
0
100
AcDbLine
10
-176.32
20
0
30
0
11
84.256775
21
0
31
0
39
0
210
0
220
0
230
1
0
LINE
5
4D
100
AcDbEntity
8
4
62
256
6
ByLayer
370
-1
48
0.05
60
0
100
AcDbLine
10
0
20
0
30
0
11
84.256775
21
0
31
0
39
0
210
0
220
0
230
1
0
LINE
5
4F
100
AcDbEntity
8
1
62
256
6
ByLayer
370
-1
48
1
60
0
100
AcDbLine
10
0
20
-9.99125
30
0
11
52.822034
21
-9.99125
31
0
39
0
210
0
220
0
230
1
0
LINE
5
50
100
AcDbEntity
8
1
62
256
6
ByLayer
370
-1
48
1
60
0
100
AcDbLine
10
52.819192
20
9.99125
30
0
11
0
21
9.99125
31
0
39
0
210
0
220
0
230
1
0
LINE
5
51
100
AcDbEntity
8
1
62
256
6
ByLayer
370
-1
48
1
60
0
100
AcDbLine
10
52.822034
20
-9.99125
30
0
11
52.897034
21
-9.91625
31
0
39
0
210
0
220
0
230
1
0
LINE
5
52
100
AcDbEntity
8
1
62
256
6
ByLayer
370
-1
48
1
60
0
100
AcDbLine
10
52.897034
20
9.91625
30
0
11
52.822034
21
9.99125
31
0
39
0
210
0
220
0
230
1
0
LINE
5
53
100
AcDbEntity
8
1
62
256
6
ByLayer
370
-1
48
1
60
0
100
AcDbLine
10
53.226159
20
9.91625
30
0
11
52.897034
21
9.91625
31
0
39
0
210
0
220
0
230
1
0
LINE
5
54
100
AcDbEntity
8
1
62
256
6
ByLayer
370
-1
48
1
60
0
100
AcDbLine
10
52.897034
20
-9.91625
30
0
11
53.996499
21
-9.91625
31
0
39
0
210
0
220
0
230
1
0
LINE
5
55
100
AcDbEntity
8
1
62
256
6
ByLayer
370
-1
48
1
60
0
100
AcDbLine
10
73.015604
20
0.623188
30
0
11
73.017521
21
0.733066
31
0
39
0
210
0
220
0
230
1
0
LINE
5
56
100
AcDbEntity
8
1
62
256
6
ByLayer
370
-1
48
1
60
0
100
AcDbLine
10
77.251161
20
7.148261
30
0
11
77.250442
21
7.107107
31
0
39
0
210
0
220
0
230
1
0
LINE
5
57
100
AcDbEntity
8
1
62
256
6
ByLayer
370
-1
48
1
60
0
100
AcDbLine
10
76.069632
20
7.126546
30
0
11
76.07035
21
7.167646
31
0
39
0
210
0
220
0
230
1
0
LINE
5
58
100
AcDbEntity
8
1
62
256
6
ByLayer
370
-1
48
1
60
0
100
AcDbLine
10
77.27258
20
8.316473
30
0
11
77.271862
21
8.27534
31
0
39
0
210
0
220
0
230
1
0
LINE
5
59
100
AcDbEntity
8
1
62
256
6
ByLayer
370
-1
48
1
60
0
100
AcDbLine
10
76.091052
20
8.29478
30
0
11
76.09177
21
8.335934
31
0
39
0
210
0
220
0
230
1
0
LINE
5
5A
100
AcDbEntity
8
1
62
256
6
ByLayer
370
-1
48
1
60
0
100
AcDbLine
10
78.395566
20
7.675489
30
0
11
78.396155
21
7.709264
31
0
39
0
210
0
220
0
230
1
0
LINE
5
5B
100
AcDbEntity
8
1
62
256
6
ByLayer
370
-1
48
1
60
0
100
AcDbLine
10
74.946681
20
7.769475
30
0
11
74.946091
21
7.7357
31
0
39
0
210
0
220
0
230
1
0
LINE
5
5C
100
AcDbEntity
8
SK1
62
256
6
ByLayer
370
-1
48
1
60
0
100
AcDbLine
10
-169.82
20
-9.99125
30
0
11
0
21
-9.99125
31
0
39
0
210
0
220
0
230
1
0
LINE
5
5E
100
AcDbEntity
8
SK1
62
256
6
ByLayer
370
-1
48
1
60
0
100
AcDbLine
10
0
20
9.99125
30
0
11
-169.82
21
9.99125
31
0
39
0
210
0
220
0
230
1
0
LINE
5
5F
100
AcDbEntity
8
SK1
62
256
6
ByLayer
370
-1
48
1
60
0
100
AcDbLine
10
-169.82
20
9.99125
30
0
11
-171.32
21
8.49125
31
0
39
0
210
0
220
0
230
1
0
LINE
5
60
100
AcDbEntity
8
SK1
62
256
6
ByLayer
370
-1
48
1
60
0
100
AcDbLine
10
-171.32
20
-8.49125
30
0
11
-169.82
21
-9.99125
31
0
39
0
210
0
220
0
230
1
0
LINE
5
61
100
AcDbEntity
8
1
62
256
6
ByLayer
370
-1
48
1
60
0
100
AcDbLine
10
72.87208
20
0.101658
30
0
11
71.76216
21
-2.279063
31
0
39
0
210
0
220
0
230
1
0
LINE
5
62
100
AcDbEntity
8
1
62
256
6
ByLayer
370
-1
48
1
60
0
100
AcDbLine
10
77.146274
20
12.024367
30
0
11
56.552094
21
10.586227
31
0
39
0
210
0
220
0
230
1
0
LINE
5
63
100
AcDbEntity
8
1
62
256
6
ByLayer
370
-1
48
1
60
0
100
AcDbLine
10
0
20
-9.99125
30
0
11
0
21
-0.233436
31
0
39
0
210
0
220
0
230
1
0
LINE
5
64
100
AcDbEntity
8
1
62
256
6
ByLayer
370
-1
48
1
60
0
100
AcDbLine
10
0
20
0.233436
30
0
11
0
21
9.99125
31
0
39
0
210
0
220
0
230
1
0
LINE
5
65
100
AcDbEntity
8
1
62
256
6
ByLayer
370
-1
48
1
60
0
100
AcDbLine
10
73.133203
20
9.413224
30
0
11
72.890179
21
9.559092
31
0
39
0
210
0
220
0
230
1
0
LINE
5
66
100
AcDbEntity
8
1
62
256
6
ByLayer
370
-1
48
1
60
0
100
AcDbLine
10
48.322034
20
-0.233436
30
0
11
48.322034
21
0.233436
31
0
39
0
210
0
220
0
230
1
0
LINE
5
67
100
AcDbEntity
8
1
62
256
6
ByLayer
370
-1
48
1
60
0
100
AcDbLine
10
60.385482
20
6.973234
30
0
11
67.104725
21
6.866959
31
0
39
0
210
0
220
0
230
1
0
LINE
5
68
100
AcDbEntity
8
1
62
256
6
ByLayer
370
-1
48
1
60
0
100
AcDbLine
10
71.071927
20
8.96068
30
0
11
71.074322
21
9.097904
31
0
39
0
210
0
220
0
230
1
0
LINE
5
69
100
AcDbEntity
8
1
62
256
6
ByLayer
370
-1
48
1
60
0
100
AcDbLine
10
77.667227
20
11.923689
30
0
11
77.143878
21
11.887142
31
0
39
0
210
0
220
0
230
1
0
LINE
5
6A
100
AcDbEntity
8
1
62
256
6
ByLayer
370
-1
48
1
60
0
100
AcDbLine
10
72.870034
20
-0.015559
30
0
11
71.846883
21
-2.242642
31
0
39
0
210
0
220
0
230
1
0
LINE
5
6B
100
AcDbEntity
8
1
62
256
6
ByLayer
370
-1
48
1
60
0
100
AcDbLine
10
77.146274
20
12.024367
30
0
11
77.139415
21
11.631454
31
0
39
0
210
0
220
0
230
1
0
LINE
5
6C
100
AcDbEntity
8
1
62
256
6
ByLayer
370
-1
48
1
60
0
100
AcDbLine
10
71.174931
20
9.131926
30
0
11
71.177327
21
9.26915
31
0
39
0
210
0
220
0
230
1
0
LINE
5
6D
100
AcDbEntity
8
1
62
256
6
ByLayer
370
-1
48
1
60
0
100
AcDbLine
10
70.967067
20
8.739927
30
0
11
70.969462
21
8.877151
31
0
39
0
210
0
220
0
230
1
0
LINE
5
6E
100
AcDbEntity
8
1
62
256
6
ByLayer
370
-1
48
1
60
0
100
AcDbLine
10
53.996499
20
-9.91625
30
0
11
55.730084
21
-9.171008
31
0
39
0
210
0
220
0
230
1
0
LINE
5
6F
100
AcDbEntity
8
1
62
256
6
ByLayer
370
-1
48
1
60
0
100
AcDbLine
10
52.897034
20
8.863596
30
0
11
52.897034
21
-9.91625
31
0
39
0
210
0
220
0
230
1
0
LINE
5
70
100
AcDbEntity
8
1
62
256
6
ByLayer
370
-1
48
1
60
0
100
AcDbLine
10
52.897034
20
9.91625
30
0
11
52.897034
21
9.916187
31
0
39
0
210
0
220
0
230
1
0
LINE
5
71
100
AcDbEntity
8
1
62
256
6
ByLayer
370
-1
48
1
60
0
100
AcDbLine
10
72.87208
20
0.101658
30
0
11
72.870034
21
-0.015559
31
0
39
0
210
0
220
0
230
1
0
LINE
5
72
100
AcDbEntity
8
1
62
256
6
ByLayer
370
-1
48
1
60
0
100
AcDbLine
10
54.063067
20
9.789033
30
0
11
53.881535
21
9.916002
31
0
39
0
210
0
220
0
230
1
0
LINE
5
73
100
AcDbEntity
8
1
62
256
6
ByLayer
370
-1
48
1
60
0
100
AcDbLine
10
55.944634
20
7.421144
30
0
11
55.944634
21
-9.078777
31
0
39
0
210
0
220
0
230
1
0
LINE
5
74
100
AcDbEntity
8
1
62
256
6
ByLayer
370
-1
48
1
60
0
100
AcDbLine
10
71.074322
20
9.097904
30
0
11
71.177327
21
9.26915
31
0
39
0
210
0
220
0
230
1
0
LINE
5
75
100
AcDbEntity
8
1
62
256
6
ByLayer
370
-1
48
1
60
0
100
AcDbLine
10
71.071927
20
8.96068
30
0
11
71.174931
21
9.131926
31
0
39
0
210
0
220
0
230
1
0
LINE
5
76
100
AcDbEntity
8
1
62
256
6
ByLayer
370
-1
48
1
60
0
100
AcDbLine
10
74.081581
20
-1.281979
30
0
11
79.256775
21
0.942758
31
0
39
0
210
0
220
0
230
1
0
LINE
5
77
100
AcDbEntity
8
1
62
256
6
ByLayer
370
-1
48
1
60
0
100
AcDbLine
10
79.256775
20
0.942758
30
0
11
79.256775
21
2.510401
31
0
39
0
210
0
220
0
230
1
0
LINE
5
78
100
AcDbEntity
8
1
62
256
6
ByLayer
370
-1
48
1
60
0
100
AcDbLine
10
73.253368
20
9.47976
30
0
11
72.892575
21
9.696316
31
0
39
0
210
0
220
0
230
1
0
LINE
5
79
100
AcDbEntity
8
1
62
256
6
ByLayer
370
-1
48
1
60
0
100
AcDbLine
10
72.890179
20
9.559092
30
0
11
72.892575
21
9.696316
31
0
39
0
210
0
220
0
230
1
0
LINE
5
7A
100
AcDbEntity
8
1
62
256
6
ByLayer
370
-1
48
1
60
0
100
AcDbLine
10
48.322034
20
0.233436
30
0
11
0
21
0.233436
31
0
39
0
210
0
220
0
230
1
0
LINE
5
7B
100
AcDbEntity
8
1
62
256
6
ByLayer
370
-1
48
1
60
0
100
AcDbLine
10
67.100653
20
8.235424
30
0
11
58.995881
21
8.235424
31
0
39
0
210
0
220
0
230
1
0
LINE
5
7C
100
AcDbEntity
8
1
62
256
6
ByLayer
370
-1
48
1
60
0
100
AcDbLine
10
64.568395
20
-5.371553
30
0
11
71.76216
21
-2.279063
31
0
39
0
210
0
220
0
230
1
0
LINE
5
7D
100
AcDbEntity
8
1
62
256
6
ByLayer
370
-1
48
1
60
0
100
AcDbLine
10
55.730084
20
7.476071
30
0
11
55.730084
21
-9.171008
31
0
39
0
210
0
220
0
230
1
0
LINE
5
7E
100
AcDbEntity
8
1
62
256
6
ByLayer
370
-1
48
1
60
0
100
AcDbLine
10
73.716393
20
2.797142
30
0
11
69.402619
21
7.259345
31
0
39
0
210
0
220
0
230
1
0
LINE
5
7F
100
AcDbEntity
8
1
62
256
6
ByLayer
370
-1
48
1
60
0
100
AcDbLine
10
52.822034
20
8.918854
30
0
11
52.822034
21
-9.99125
31
0
39
0
210
0
220
0
230
1
0
LINE
5
80
100
AcDbEntity
8
1
62
256
6
ByLayer
370
-1
48
1
60
0
100
AcDbLine
10
0
20
-0.233436
30
0
11
0
21
0.233436
31
0
39
0
210
0
220
0
230
1
0
LINE
5
81
100
AcDbEntity
8
1
62
256
6
ByLayer
370
-1
48
1
60
0
100
AcDbLine
10
64.568395
20
-5.371553
30
0
11
55.944634
21
-9.078777
31
0
39
0
210
0
220
0
230
1
0
LINE
5
82
100
AcDbEntity
8
1
62
256
6
ByLayer
370
-1
48
1
60
0
100
AcDbLine
10
71.76216
20
-2.279063
30
0
11
71.846883
21
-2.242642
31
0
39
0
210
0
220
0
230
1
0
LINE
5
83
100
AcDbEntity
8
1
62
256
6
ByLayer
370
-1
48
1
60
0
100
AcDbLine
10
74.081581
20
-1.281979
30
0
11
74.322921
21
-0.756656
31
0
39
0
210
0
220
0
230
1
0
LINE
5
84
100
AcDbEntity
8
1
62
256
6
ByLayer
370
-1
48
1
60
0
100
AcDbLine
10
0
20
-0.233436
30
0
11
48.322034
21
-0.233436
31
0
39
0
210
0
220
0
230
1
0
LINE
5
85
100
AcDbEntity
8
1
62
256
6
ByLayer
370
-1
48
1
60
0
100
AcDbLine
10
68.255457
20
6.364569
30
0
11
72.568655
21
1.869341
31
0
39
0
210
0
220
0
230
1
0
LINE
5
86
100
AcDbEntity
8
1
62
256
6
ByLayer
370
-1
48
1
60
0
100
AcDbLine
10
74.081581
20
-1.281979
30
0
11
71.846883
21
-2.242642
31
0
39
0
210
0
220
0
230
1
0
LINE
5
87
100
AcDbEntity
8
SK1
62
256
6
ByLayer
370
-1
48
1
60
0
100
AcDbLine
10
0
20
-9.99125
30
0
11
0
21
-0.233436
31
0
39
0
210
0
220
0
230
1
0
LINE
5
88
100
AcDbEntity
8
SK1
62
256
6
ByLayer
370
-1
48
1
60
0
100
AcDbLine
10
0
20
0.233436
30
0
11
0
21
9.99125
31
0
39
0
210
0
220
0
230
1
0
LINE
5
89
100
AcDbEntity
8
SK1
62
256
6
ByLayer
370
-1
48
1
60
0
100
AcDbLine
10
-169.82
20
-9.99125
30
0
11
-169.82
21
9.99125
31
0
39
0
210
0
220
0
230
1
0
LINE
5
8A
100
AcDbEntity
8
SK1
62
256
6
ByLayer
370
-1
48
1
60
0
100
AcDbLine
10
-60.07
20
-0.233436
30
0
11
-60.07
21
0.233436
31
0
39
0
210
0
220
0
230
1
0
LINE
5
8B
100
AcDbEntity
8
SK1
62
256
6
ByLayer
370
-1
48
1
60
0
100
AcDbLine
10
0
20
-0.233436
30
0
11
0
21
0.233436
31
0
39
0
210
0
220
0
230
1
0
LINE
5
8C
100
AcDbEntity
8
SK1
62
256
6
ByLayer
370
-1
48
1
60
0
100
AcDbLine
10
-60.07
20
-0.233436
30
0
11
0
21
-0.233436
31
0
39
0
210
0
220
0
230
1
0
LINE
5
8D
100
AcDbEntity
8
SK1
62
256
6
ByLayer
370
-1
48
1
60
0
100
AcDbLine
10
-171.32
20
-8.49125
30
0
11
-171.32
21
8.49125
31
0
39
0
210
0
220
0
230
1
0
LINE
5
8E
100
AcDbEntity
8
SK1
62
256
6
ByLayer
370
-1
48
1
60
0
100
AcDbLine
10
0
20
0.233436
30
0
11
-60.07
21
0.233436
31
0
39
0
210
0
220
0
230
1
0
LINE
5
8F
100
AcDbEntity
8
1
62
256
6
ByLayer
370
-1
48
1
60
0
100
AcDbLine
10
70.911733
20
7.503282
30
0
11
79.160951
21
2.551916
31
0
39
0
210
0
220
0
230
1
0
LINE
5
90
100
AcDbEntity
8
1
62
256
6
ByLayer
370
-1
48
1
60
0
100
AcDbLine
10
79.34071
20
12.850297
30
0
11
70.923717
21
8.189841
31
0
39
0
210
0
220
0
230
1
0
LINE
5
91
100
AcDbEntity
8
1
62
256
6
ByLayer
370
-1
48
1
60
0
100
AcDbLine
10
79.762165
20
2.884806
30
0
11
79.92994
21
12.496628
31
0
39
0
210
0
220
0
230
1
0
LINE
5
92
100
AcDbEntity
8
1
62
256
6
ByLayer
370
-1
48
1
60
0
100
AcDbLine
10
77.262081
20
7.001172
30
0
11
77.262837
21
7.044512
31
0
39
0
210
0
220
0
230
1
0
LINE
5
93
100
AcDbEntity
8
1
62
256
6
ByLayer
370
-1
48
1
60
0
100
AcDbLine
10
77.573408
20
7.863955
30
0
11
77.574164
21
7.907311
31
0
39
0
210
0
220
0
230
1
0
LINE
5
94
100
AcDbEntity
8
1
62
256
6
ByLayer
370
-1
48
1
60
0
100
AcDbLine
10
76.981463
20
8.563069
30
0
11
76.98222
21
8.606425
31
0
39
0
210
0
220
0
230
1
0
LINE
5
95
100
AcDbEntity
8
1
62
256
6
ByLayer
370
-1
48
1
60
0
100
AcDbLine
10
76.391058
20
8.573628
30
0
11
76.391814
21
8.616984
31
0
39
0
210
0
220
0
230
1
0
LINE
5
96
100
AcDbEntity
8
1
62
256
6
ByLayer
370
-1
48
1
60
0
100
AcDbLine
10
75.774615
20
7.893983
30
0
11
75.775371
21
7.937323
31
0
39
0
210
0
220
0
230
1
0
LINE
5
97
100
AcDbEntity
8
1
62
256
6
ByLayer
370
-1
48
1
60
0
100
AcDbLine
10
76.054598
20
7.022145
30
0
11
76.055354
21
7.0655
31
0
39
0
210
0
220
0
230
1
0
LINE
5
98
100
AcDbEntity
8
1
62
256
6
ByLayer
370
-1
48
1
60
0
100
AcDbLine
10
76.044567
20
8.109672
30
0
11
76.045245
21
8.148481
31
0
39
0
210
0
220
0
230
1
0
LINE
5
99
100
AcDbEntity
8
2
62
256
6
ByLayer
370
-1
48
1
60
1
100
AcDbLine
10
79.93
20
0
30
0
11
79.931
21
0.001
31
0
39
0
210
0
220
0
230
1
0
MTEXT
5
F6
100
AcDbEntity
8
SK6
62
256
6
ByLayer
370
-1
48
1
60
0
100
AcDbMText
10
-42.32
20
-22.454411
30
0
210
0
220
0
230
1
1
\W00.757;\fsimplex.shx,bigfont.shx;A20S-STFCR 11HP-RB1 
40
3.5
41
0
44
1.084337
50
0
71
7
72
5
7
DEFAULT
0
DIMENSION
5
129
100
AcDbEntity
8
2
62
256
6
ByLayer
370
-3
48
1
60
0
100
AcDbDimension
2
DimnDraft3D1
10
92.18
20
0
30
0
11
92.18
21
23.155
31
0
70
32
71
5
72
1
41
1
210
0
220
0
230
1
3
Standard
100
AcDbAlignedDimension
13
81.93
23
12.9
33
0
14
81.93
24
0
34
0
50
90
100
AcDbRotatedDimension
1001
ACAD
1000
DSTYLE
1002
{
1070
    74
1070
     0
1070
   279
1070
     0
1070
   172
1070
     1
1070
   173
1070
     1
1070
   340
1005
F7
1070
    77
1070
     1
1070
    73
1070
     0
1070
   171
1070
     4
1070
   274
1070
     4
1070
   177
1070
     2
1070
   176
1070
     2
1070
   178
1070
     7
1070
    78
1070
     8
1070
    41
1041
3.175
1070
   147
1041
2.25
1070
    42
1041
2.0
1070
    44
1041
2.0
1070
   140
1041
4.5
1070
   343
1005
12A
1070
   344
1005
12A
1002
}
0
DIMENSION
5
13F
100
AcDbEntity
8
SK2
62
256
6
ByLayer
370
-3
48
1
60
0
100
AcDbDimension
2
DimnDraft3D2
10
-181.07
20
9.99125
30
0
11
-181.07
21
-4.784211
31
0
70
32
71
5
72
1
41
1
210
0
220
0
230
1
3
Standard
100
AcDbAlignedDimension
13
-173.32
23
-9.99125
33
0
14
-173.32
24
9.99125
34
0
50
90
100
AcDbRotatedDimension
1001
ACAD
1000
DSTYLE
1002
{
1070
    74
1070
     0
1070
   279
1070
     0
1070
   172
1070
     1
1070
   173
1070
     1
1070
   340
1005
F7
1070
    77
1070
     1
1070
    73
1070
     0
1070
   171
1070
     4
1070
   274
1070
     4
1070
   177
1070
     2
1070
   176
1070
     2
1070
   178
1070
     7
1070
    78
1070
     8
1070
    41
1041
3.175
1070
   147
1041
2.25
1070
    42
1041
2.0
1070
    44
1041
2.0
1070
   140
1041
4.5
1070
   343
1005
12A
1070
   344
1005
12A
1002
}
0
DIMENSION
5
14D
100
AcDbEntity
8
SK2
62
256
6
ByLayer
370
-3
48
1
60
0
100
AcDbDimension
2
DimnDraft3D3
10
-171.32
20
25.65
30
0
11
-52.510132
21
25.65
31
0
70
32
71
5
72
1
41
1
210
0
220
0
230
1
3
Standard
100
AcDbAlignedDimension
13
79.93
23
14.9
33
0
14
-171.32
24
11.99125
34
0
50
0
100
AcDbRotatedDimension
1001
ACAD
1000
DSTYLE
1002
{
1070
   279
1070
     0
1070
   172
1070
     1
1070
   173
1070
     1
1070
   340
1005
F7
1070
    77
1070
     1
1070
    73
1070
     0
1070
   171
1070
     4
1070
   274
1070
     4
1070
   177
1070
     2
1070
   176
1070
     2
1070
   178
1070
     7
1070
    78
1070
     8
1070
    41
1041
3.175
1070
   147
1041
2.25
1070
    42
1041
2.0
1070
    44
1041
2.0
1070
   140
1041
4.5
1070
   343
1005
12A
1070
   344
1005
12A
1002
}
0
DIMENSION
5
15B
100
AcDbEntity
8
2
62
256
6
ByLayer
370
-3
48
1
60
0
100
AcDbDimension
2
DimnDraft3D4
10
128.631237
20
0
30
0
11
106.875984
21
-35.936736
31
0
70
34
71
5
72
1
41
1
210
0
220
0
230
1
3
Standard
100
AcDb2LineAngularDimension
13
79.703119
23
-0.09802
33
0
14
78.850946
24
-48.918955
34
0
15
81.93
25
0
35
0
16
109.441891
26
-30.260654
36
0
40
0
0
ENDSEC
0
SECTION
2
OBJECTS
0
DICTIONARY
5
18c
330
0
100
AcDbDictionary
280
0
281
1
3
ACAD_GROUP
350
18d
3
ACAD_MLINESTYLE
350
18e
0
DICTIONARY
5
18d
330
0
100
AcDbDictionary
280
0
281
1
0
DICTIONARY
5
18e
330
0
100
AcDbDictionary
280
0
281
1
3
Standard
350
18
0
MLINESTYLE
5
18
330
18e
100
AcDbMlineStyle
2
Standard
70
0
3

62
256
51
90
52
90
71
2
49
-0.5
62
256
6
ByLayer
49
0.5
62
256
6
ByLayer
0
RASTERVARIABLES
5
17a
330

100
AcDbRasterVariables
90
0
70
1
71
1
72
1
0
ENDSEC
0
EOF
