0
SECTION
2
HEADER
9
$ACADVER
1
AC1015
9
$DWGCODEPAGE
3
ANSI_1252
9
$HANDSEED
5
184
9
$ANGBASE
50
0
9
$ANGDIR
70
0
9
$ATTMODE
70
1
9
$AUNITS
70
0
9
$AUPREC
70
0
9
$CECOLOR
62
256
9
$CELTSCALE
40
1
9
$CELTYPE
6
ByLayer
9
$CELWEIGHT
370
-1
9
$CLAYER
8
0
9
$CMLJUST
70
0
9
$CMLSCALE
40
1
9
$CMLSTYLE
2
Standard
9
$DIMSTYLE
2
Standard
9
$TEXTSIZE
40
0.2
9
$TEXTSTYLE
7
Standard
9
$LUNITS
70
2
9
$LUPREC
70
4
9
$EXTNAMES
290
1
9
$INSUNITS
70
4
9
$LTSCALE
40
1
9
$LWDISPLAY
290
0
9
$PDMODE
70
0
9
$PDSIZE
40
0
9
$PLINEGEN
70
0
0
ENDSEC
0
SECTION
2
CLASSES
0
CLASS
1
RASTERVARIABLES
2
AcDbRasterVariables
3
ISM
90
0
280
0
281
0
0
ENDSEC
0
SECTION
2
TABLES
0
TABLE
2
VPORT
5
17a
100
AcDbSymbolTable
0
VPORT
5
1
100
AcDbSymbolTableRecord
100
AcDbViewportTableRecord
2
*Active
70
0
10
0
20
0
11
1
21
1
12
-1
22
1
13
0
23
0
14
0.5
24
0.5
15
10
25
10
16
0
26
0
36
1
17
0
27
0
37
0
0
ENDTAB
0
TABLE
2
LTYPE
5
17b
100
AcDbSymbolTable
0
LTYPE
5
14
100
AcDbSymbolTableRecord
100
AcDbLinetypeTableRecord
70
0
2
ByBlock
3

72
65
73
0
40
0
0
LTYPE
5
15
100
AcDbSymbolTableRecord
100
AcDbLinetypeTableRecord
70
0
2
ByLayer
3

72
65
73
0
40
0
0
LTYPE
5
16
100
AcDbSymbolTableRecord
100
AcDbLinetypeTableRecord
70
0
2
CONTINUOUS
3
Solid line
72
65
73
0
40
0
0
LTYPE
5
3B
100
AcDbSymbolTableRecord
100
AcDbLinetypeTableRecord
70
0
2
DASHED
3
__ __ __ __ __ __ __ __ __
72
65
73
2
40
25.72
49
12.86
74
0
49
-12.86
74
0
0
LTYPE
5
3C
100
AcDbSymbolTableRecord
100
AcDbLinetypeTableRecord
70
0
2
HIDDEN
3
_ _ _ _ _ _ _ _ _ _ _ _ _ _ _
72
65
73
2
40
0.5
49
0.25
74
0
49
-0.25
74
0
0
LTYPE
5
3D
100
AcDbSymbolTableRecord
100
AcDbLinetypeTableRecord
70
0
2
PHANTOM
3
____ _ _ ____ _ _ _____ _ _ ____
72
65
73
6
40
50.5
49
18
74
0
49
-6.5
74
0
49
6.5
74
0
49
-6.5
74
0
49
6.5
74
0
49
-6.5
74
0
0
LTYPE
5
3E
100
AcDbSymbolTableRecord
100
AcDbLinetypeTableRecord
70
0
2
CENTER
3
____ _ ____ _ ____ _ ____
72
65
73
4
40
47.5
49
22
74
0
49
-8.5
74
0
49
8.5
74
0
49
-8.5
74
0
0
LTYPE
5
3F
100
AcDbSymbolTableRecord
100
AcDbLinetypeTableRecord
70
0
2
DOT
3
.........................
72
65
73
2
40
10
49
0
74
0
49
-10
74
0
0
LTYPE
5
40
100
AcDbSymbolTableRecord
100
AcDbLinetypeTableRecord
70
0
2
DASHDOT
3
_._._._._._._._._._._._._._._._.
72
65
73
4
40
70
49
31
74
0
49
-13
74
0
49
13
74
0
49
-13
74
0
0
ENDTAB
0
TABLE
2
LAYER
5
17c
100
AcDbSymbolTable
0
LAYER
5
10
100
AcDbSymbolTableRecord
100
AcDbLayerTableRecord
2
0
70
0
62
7
6
CONTINUOUS
290
1
370
-3
390
0
0
LAYER
5
42
100
AcDbSymbolTableRecord
100
AcDbLayerTableRecord
2
80
70
0
62
-6
6
CONTINUOUS
290
1
370
-3
390
0
0
LAYER
5
44
100
AcDbSymbolTableRecord
100
AcDbLayerTableRecord
2
81
70
0
62
-3
6
CONTINUOUS
290
1
370
-3
390
0
0
LAYER
5
46
100
AcDbSymbolTableRecord
100
AcDbLayerTableRecord
2
1
70
0
62
4
6
CONTINUOUS
290
1
370
-3
390
0
0
LAYER
5
48
100
AcDbSymbolTableRecord
100
AcDbLayerTableRecord
2
2
70
0
62
7
6
CONTINUOUS
290
1
370
-3
390
0
0
LAYER
5
5D
100
AcDbSymbolTableRecord
100
AcDbLayerTableRecord
2
4
70
0
62
-2
6
CENTER
290
1
370
-3
390
0
0
LAYER
5
166
100
AcDbSymbolTableRecord
100
AcDbLayerTableRecord
2
SK1
70
0
62
4
6
CONTINUOUS
290
1
370
-3
390
0
0
LAYER
5
167
100
AcDbSymbolTableRecord
100
AcDbLayerTableRecord
2
SK4
70
0
62
2
6
CENTER
290
1
370
-3
390
0
0
LAYER
5
168
100
AcDbSymbolTableRecord
100
AcDbLayerTableRecord
2
SK6
70
0
62
5
6
CONTINUOUS
290
1
370
-3
390
0
0
LAYER
5
169
100
AcDbSymbolTableRecord
100
AcDbLayerTableRecord
2
SK2
70
0
62
7
6
CONTINUOUS
290
1
370
-3
390
0
0
ENDTAB
0
TABLE
2
STYLE
5
17d
100
AcDbSymbolTable
0
STYLE
5
11
100
AcDbSymbolTableRecord
100
AcDbTextStyleTableRecord
2
Standard
3
txt
70
0
71
0
40
0
41
1
42
0
50
0
0
STYLE
5
E2
100
AcDbSymbolTableRecord
100
AcDbTextStyleTableRecord
2
DEFAULT
3
simplex.shx
70
0
71
0
40
0
41
1
42
0
50
0
0
STYLE
5
105
100
AcDbSymbolTableRecord
100
AcDbTextStyleTableRecord
2
DWGDirectTextStyle
3
SIMPLEX
70
0
71
0
40
0
41
1
42
0
50
0
0
ENDTAB
0
TABLE
2
DIMSTYLE
5
17e
100
AcDbSymbolTable
100
AcDbDimStyleTable
0
DIMSTYLE
105
27
100
AcDbSymbolTableRecord
100
AcDbDimStyleTableRecord
2
Standard
70
0
3
<>
41
0.18
42
0.0625
44
0.18
140
0.18
147
0.09
73
0
74
0
77
1
271
2
275
0
278
52
280
0
340
11
0
ENDTAB
0
TABLE
2
VIEW
5
17f
100
AcDbSymbolTable
0
ENDTAB
0
TABLE
2
UCS
5
180
100
AcDbSymbolTable
0
ENDTAB
0
TABLE
2
APPID
5
181
100
AcDbSymbolTable
0
APPID
5
12
100
AcDbSymbolTableRecord
100
AcDbRegAppTableRecord
2
ACAD
70
0
0
ENDTAB
0
TABLE
2
BLOCK_RECORD
5
182
100
AcDbSymbolTable
0
BLOCK_RECORD
5
1F
100
AcDbSymbolTableRecord
100
AcDbBlockTableRecord
2
*Model_Space
340
0
70
0
0
BLOCK_RECORD
5
1B
100
AcDbSymbolTableRecord
100
AcDbBlockTableRecord
2
*Paper_Space
340
0
70
0
0
BLOCK_RECORD
5
23
100
AcDbSymbolTableRecord
100
AcDbBlockTableRecord
2
*Paper_Space0
340
0
70
0
0
BLOCK_RECORD
5
107
100
AcDbSymbolTableRecord
100
AcDbBlockTableRecord
2
DimnDraft3D1
340
0
70
0
0
BLOCK_RECORD
5
115
100
AcDbSymbolTableRecord
100
AcDbBlockTableRecord
2
_CLOSED
340
0
70
0
0
BLOCK_RECORD
5
11C
100
AcDbSymbolTableRecord
100
AcDbBlockTableRecord
2
DimnDraft3D2
340
0
70
0
0
BLOCK_RECORD
5
12B
100
AcDbSymbolTableRecord
100
AcDbBlockTableRecord
2
DimnDraft3D3
340
0
70
0
0
BLOCK_RECORD
5
139
100
AcDbSymbolTableRecord
100
AcDbBlockTableRecord
2
DimnDraft3D4
340
0
70
0
0
ENDTAB
0
ENDSEC
0
SECTION
2
BLOCKS
0
BLOCK
5
20
100
AcDbEntity
8
0
100
AcDbBlockBegin
2
*Model_Space
70
0
10
0
20
0
30
0
3
*Model_Space
0
ENDBLK
5
21
100
AcDbEntity
8
0
100
AcDbBlockEnd
0
BLOCK
5
1C
100
AcDbEntity
8
0
100
AcDbBlockBegin
2
*Paper_Space
70
0
10
0
20
0
30
0
3
*Paper_Space
0
ENDBLK
5
1D
100
AcDbEntity
8
0
100
AcDbBlockEnd
0
BLOCK
5
24
100
AcDbEntity
8
0
100
AcDbBlockBegin
2
*Paper_Space0
70
0
10
0
20
0
30
0
3
*Paper_Space0
0
ENDBLK
5
25
100
AcDbEntity
8
0
100
AcDbBlockEnd
0
BLOCK
5
112
100
AcDbEntity
8
0
100
AcDbBlockBegin
2
DimnDraft3D1
70
0
10
0
20
0
30
0
3
DimnDraft3D1
0
MTEXT
5
108
100
AcDbEntity
8
2
62
256
6
ByLayer
370
-1
48
1
60
0
100
AcDbMText
10
91.055
20
24.28
30
0
210
0
220
0
230
1
1
\W01.000;\fsimplex.shx,bigfont.shx;13.0 
40
4.5
41
0
44
1.084337
50
90
71
7
72
5
7
DEFAULT
0
LINE
5
109
100
AcDbEntity
8
2
62
256
6
ByLayer
370
-1
48
1
60
0
100
AcDbLine
10
81.93
20
12.9
30
0
11
94.18
21
12.9
31
0
39
0
210
0
220
0
230
1
0
LINE
5
10A
100
AcDbEntity
8
2
62
256
6
ByLayer
370
-1
48
1
60
0
100
AcDbLine
10
81.93
20
0
30
0
11
94.18
21
0
31
0
39
0
210
0
220
0
230
1
0
LINE
5
10B
100
AcDbEntity
8
2
62
256
6
ByLayer
370
-1
48
1
60
0
100
AcDbLine
10
92.18
20
0
30
0
11
92.18
21
32.356316
31
0
39
0
210
0
220
0
230
1
0
LINE
5
10C
100
AcDbEntity
8
2
62
256
6
ByLayer
370
-1
48
1
60
0
100
AcDbLine
10
92.18
20
12.9
30
0
11
92.597997
21
9.725002
31
0
39
0
210
0
220
0
230
1
0
LINE
5
10D
100
AcDbEntity
8
2
62
256
6
ByLayer
370
-1
48
1
60
0
100
AcDbLine
10
92.18
20
12.9
30
0
11
91.762003
21
9.724998
31
0
39
0
210
0
220
0
230
1
0
LINE
5
10E
100
AcDbEntity
8
2
62
256
6
ByLayer
370
-1
48
1
60
0
100
AcDbLine
10
92.597997
20
9.725002
30
0
11
91.762003
21
9.724998
31
0
39
0
210
0
220
0
230
1
0
LINE
5
10F
100
AcDbEntity
8
2
62
256
6
ByLayer
370
-1
48
1
60
0
100
AcDbLine
10
92.18
20
0
30
0
11
91.762003
21
3.174998
31
0
39
0
210
0
220
0
230
1
0
LINE
5
110
100
AcDbEntity
8
2
62
256
6
ByLayer
370
-1
48
1
60
0
100
AcDbLine
10
92.18
20
0
30
0
11
92.597997
21
3.175002
31
0
39
0
210
0
220
0
230
1
0
LINE
5
111
100
AcDbEntity
8
2
62
256
6
ByLayer
370
-1
48
1
60
0
100
AcDbLine
10
91.762003
20
3.174998
30
0
11
92.597997
21
3.175002
31
0
39
0
210
0
220
0
230
1
0
ENDBLK
5
113
100
AcDbEntity
8
0
100
AcDbBlockEnd
0
BLOCK
5
116
100
AcDbEntity
8
0
100
AcDbBlockBegin
2
_CLOSED
70
0
10
0
20
0
30
0
3
_CLOSED
0
LINE
5
118
100
AcDbEntity
8
0
62
256
6
ByLayer
370
-2
48
1
60
0
100
AcDbLine
10
-1
20
0.166667
30
0
11
0
21
0
31
0
39
0
210
0
220
0
230
1
0
LINE
5
119
100
AcDbEntity
8
0
62
256
6
ByLayer
370
-2
48
1
60
0
100
AcDbLine
10
0
20
0
30
0
11
-1
21
-0.166667
31
0
39
0
210
0
220
0
230
1
0
LINE
5
11A
100
AcDbEntity
8
0
62
256
6
ByLayer
370
-2
48
1
60
0
100
AcDbLine
10
-1
20
0.166667
30
0
11
-1
21
-0.166667
31
0
39
0
210
0
220
0
230
1
0
LINE
5
11B
100
AcDbEntity
8
0
62
256
6
ByLayer
370
-2
48
1
60
0
100
AcDbLine
10
0
20
0
30
0
11
-1
21
0
31
0
39
0
210
0
220
0
230
1
0
ENDBLK
5
117
100
AcDbEntity
8
0
100
AcDbBlockEnd
0
BLOCK
5
128
100
AcDbEntity
8
0
100
AcDbBlockBegin
2
DimnDraft3D2
70
0
10
0
20
0
30
0
3
DimnDraft3D2
0
MTEXT
5
11D
100
AcDbEntity
8
SK2
62
256
6
ByLayer
370
-1
48
1
60
0
100
AcDbMText
10
-182.195
20
-3.659211
30
0
210
0
220
0
230
1
1
\W01.000;\fsimplex.shx,bigfont.shx;%%c20 
40
4.5
41
0
44
1.084337
50
90
71
7
72
5
7
DEFAULT
0
LINE
5
11F
100
AcDbEntity
8
SK2
62
256
6
ByLayer
370
-1
48
1
60
0
100
AcDbLine
10
-173.32
20
-9.99125
30
0
11
-183.07
21
-9.99125
31
0
39
0
210
0
220
0
230
1
0
LINE
5
120
100
AcDbEntity
8
SK2
62
256
6
ByLayer
370
-1
48
1
60
0
100
AcDbLine
10
-173.32
20
9.99125
30
0
11
-183.07
21
9.99125
31
0
39
0
210
0
220
0
230
1
0
LINE
5
121
100
AcDbEntity
8
SK2
62
256
6
ByLayer
370
-1
48
1
60
0
100
AcDbLine
10
-181.07
20
-9.99125
30
0
11
-181.07
21
9.99125
31
0
39
0
210
0
220
0
230
1
0
LINE
5
122
100
AcDbEntity
8
SK2
62
256
6
ByLayer
370
-1
48
1
60
0
100
AcDbLine
10
-181.07
20
-9.99125
30
0
11
-181.487997
21
-6.816252
31
0
39
0
210
0
220
0
230
1
0
LINE
5
123
100
AcDbEntity
8
SK2
62
256
6
ByLayer
370
-1
48
1
60
0
100
AcDbLine
10
-181.07
20
-9.99125
30
0
11
-180.652003
21
-6.816248
31
0
39
0
210
0
220
0
230
1
0
LINE
5
124
100
AcDbEntity
8
SK2
62
256
6
ByLayer
370
-1
48
1
60
0
100
AcDbLine
10
-181.487997
20
-6.816252
30
0
11
-180.652003
21
-6.816248
31
0
39
0
210
0
220
0
230
1
0
LINE
5
125
100
AcDbEntity
8
SK2
62
256
6
ByLayer
370
-1
48
1
60
0
100
AcDbLine
10
-181.07
20
9.99125
30
0
11
-180.652003
21
6.816252
31
0
39
0
210
0
220
0
230
1
0
LINE
5
126
100
AcDbEntity
8
SK2
62
256
6
ByLayer
370
-1
48
1
60
0
100
AcDbLine
10
-181.07
20
9.99125
30
0
11
-181.487997
21
6.816248
31
0
39
0
210
0
220
0
230
1
0
LINE
5
127
100
AcDbEntity
8
SK2
62
256
6
ByLayer
370
-1
48
1
60
0
100
AcDbLine
10
-180.652003
20
6.816252
30
0
11
-181.487997
21
6.816248
31
0
39
0
210
0
220
0
230
1
0
ENDBLK
5
129
100
AcDbEntity
8
0
100
AcDbBlockEnd
0
BLOCK
5
136
100
AcDbEntity
8
0
100
AcDbBlockBegin
2
DimnDraft3D3
70
0
10
0
20
0
30
0
3
DimnDraft3D3
0
MTEXT
5
12C
100
AcDbEntity
8
SK2
62
256
6
ByLayer
370
-1
48
1
60
0
100
AcDbMText
10
-51.385132
20
26.775
30
0
210
0
220
0
230
1
1
\W01.000;\fsimplex.shx,bigfont.shx;250.0 
40
4.5
41
0
44
1.084337
50
0
71
7
72
5
7
DEFAULT
0
LINE
5
12D
100
AcDbEntity
8
SK2
62
256
6
ByLayer
370
-1
48
1
60
0
100
AcDbLine
10
79.93
20
14.9
30
0
11
79.93
21
27.65
31
0
39
0
210
0
220
0
230
1
0
LINE
5
12E
100
AcDbEntity
8
SK2
62
256
6
ByLayer
370
-1
48
1
60
0
100
AcDbLine
10
-171.32
20
11.99125
30
0
11
-171.32
21
27.65
31
0
39
0
210
0
220
0
230
1
0
LINE
5
12F
100
AcDbEntity
8
SK2
62
256
6
ByLayer
370
-1
48
1
60
0
100
AcDbLine
10
79.93
20
25.65
30
0
11
-171.32
21
25.65
31
0
39
0
210
0
220
0
230
1
0
LINE
5
130
100
AcDbEntity
8
SK2
62
256
6
ByLayer
370
-1
48
1
60
0
100
AcDbLine
10
79.93
20
25.65
30
0
11
76.755002
21
25.232003
31
0
39
0
210
0
220
0
230
1
0
LINE
5
131
100
AcDbEntity
8
SK2
62
256
6
ByLayer
370
-1
48
1
60
0
100
AcDbLine
10
79.93
20
25.65
30
0
11
76.754998
21
26.067997
31
0
39
0
210
0
220
0
230
1
0
LINE
5
132
100
AcDbEntity
8
SK2
62
256
6
ByLayer
370
-1
48
1
60
0
100
AcDbLine
10
76.755002
20
25.232003
30
0
11
76.754998
21
26.067997
31
0
39
0
210
0
220
0
230
1
0
LINE
5
133
100
AcDbEntity
8
SK2
62
256
6
ByLayer
370
-1
48
1
60
0
100
AcDbLine
10
-171.32
20
25.65
30
0
11
-168.145002
21
26.067997
31
0
39
0
210
0
220
0
230
1
0
LINE
5
134
100
AcDbEntity
8
SK2
62
256
6
ByLayer
370
-1
48
1
60
0
100
AcDbLine
10
-171.32
20
25.65
30
0
11
-168.144998
21
25.232003
31
0
39
0
210
0
220
0
230
1
0
LINE
5
135
100
AcDbEntity
8
SK2
62
256
6
ByLayer
370
-1
48
1
60
0
100
AcDbLine
10
-168.145002
20
26.067997
30
0
11
-168.144998
21
25.232003
31
0
39
0
210
0
220
0
230
1
0
ENDBLK
5
137
100
AcDbEntity
8
0
100
AcDbBlockEnd
0
BLOCK
5
144
100
AcDbEntity
8
0
100
AcDbBlockBegin
2
DimnDraft3D4
70
0
10
0
20
0
30
0
3
DimnDraft3D4
0
MTEXT
5
13A
100
AcDbEntity
8
2
62
256
6
ByLayer
370
-1
48
1
60
0
100
AcDbMText
10
108.466914
20
-35.950619
30
0
210
0
220
0
230
1
1
\W01.000;\fsimplex.shx,bigfont.shx;91%%d0' 
40
4.5
41
0
44
1.084337
50
44.5
71
7
72
5
7
DEFAULT
0
LINE
5
13B
100
AcDbEntity
8
2
62
256
6
ByLayer
370
-1
48
1
60
0
100
AcDbLine
10
79.703119
20
-0.09802
30
0
11
78.850946
21
-48.918955
31
0
39
0
210
0
220
0
230
1
0
LINE
5
13C
100
AcDbEntity
8
2
62
256
6
ByLayer
370
-1
48
1
60
0
100
AcDbLine
10
81.93
20
0
30
0
11
128.631237
21
0
31
0
39
0
210
0
220
0
230
1
0
ARC
5
13D
100
AcDbEntity
8
2
62
256
6
ByLayer
370
-1
48
1
60
0
100
AcDbCircle
39
0
10
79.70483
20
0
30
0
40
46.9264068782929
210
0
220
0
230
1
100
AcDbArc
50
269
51
0
0
LINE
5
13E
100
AcDbEntity
8
2
62
256
6
ByLayer
370
-1
48
1
60
0
100
AcDbLine
10
78.885851
20
-46.91926
30
0
11
82.061077
21
-46.502993
31
0
39
0
210
0
220
0
230
1
0
LINE
5
13F
100
AcDbEntity
8
2
62
256
6
ByLayer
370
-1
48
1
60
0
100
AcDbLine
10
78.885851
20
-46.91926
30
0
11
82.060624
21
-47.338987
31
0
39
0
210
0
220
0
230
1
0
LINE
5
140
100
AcDbEntity
8
2
62
256
6
ByLayer
370
-1
48
1
60
0
100
AcDbLine
10
82.061077
20
-46.502993
30
0
11
82.060624
21
-47.338987
31
0
39
0
210
0
220
0
230
1
0
LINE
5
141
100
AcDbEntity
8
2
62
256
6
ByLayer
370
-1
48
1
60
0
100
AcDbLine
10
126.631237
20
0
30
0
11
126.995492
21
-3.181612
31
0
39
0
210
0
220
0
230
1
0
LINE
5
142
100
AcDbEntity
8
2
62
256
6
ByLayer
370
-1
48
1
60
0
100
AcDbLine
10
126.631237
20
0
30
0
11
126.159618
21
-3.16748
31
0
39
0
210
0
220
0
230
1
0
LINE
5
143
100
AcDbEntity
8
2
62
256
6
ByLayer
370
-1
48
1
60
0
100
AcDbLine
10
126.995492
20
-3.181612
30
0
11
126.159618
21
-3.16748
31
0
39
0
210
0
220
0
230
1
0
ENDBLK
5
145
100
AcDbEntity
8
0
100
AcDbBlockEnd
0
ENDSEC
0
SECTION
2
ENTITIES
0
ELLIPSE
5
94
100
AcDbEntity
8
1
62
256
6
ByLayer
370
-1
48
1
60
0
100
AcDbEllipse
10
71.072296
20
7.843061
30
0
11
-1.0498400799143
21
0.0183250267591482
31
0
210
0
220
0
230
1
40
0.998848
41
-1.45556865520819
42
1.67989147288185
0
ELLIPSE
5
95
100
AcDbEntity
8
1
62
256
6
ByLayer
370
-1
48
1
60
0
100
AcDbEllipse
10
72.143322
20
8.313249
30
0
11
-1.24980961894549
21
0.0218155080466032
31
0
210
0
220
0
230
1
40
0.998848
41
-0.523598775598312
42
-0.327596007838564
0
ELLIPSE
5
96
100
AcDbEntity
8
1
62
256
6
ByLayer
370
-1
48
1
60
0
100
AcDbEllipse
10
71.06926
20
7.677414
30
0
11
1.04984007991436
21
-0.0183250267591233
31
0
210
0
220
0
230
1
40
0.998848
41
1.04114028124723
42
3.06697656222415
0
ELLIPSE
5
97
100
AcDbEntity
8
1
62
256
6
ByLayer
370
-1
48
1
60
0
100
AcDbEllipse
10
72.249143
20
8.635785
30
0
11
-1.24980961894549
21
0.0218155080466032
31
0
210
0
220
0
230
1
40
0.998848
41
-2.09438443598711
42
-0.523569227768348
0
ELLIPSE
5
98
100
AcDbEntity
8
1
62
256
6
ByLayer
370
-1
48
1
60
0
100
AcDbEllipse
10
-2.991107
20
279.063387
30
0
11
123.133288632764
21
-459.015744959833
31
-1.19544409652166E-13
210
-1.23259516440783E-32
220
2.60436403249364E-16
230
-1
40
0.04612
41
0.917778171144857
42
0.941587311668355
0
ELLIPSE
5
99
100
AcDbEntity
8
1
62
256
6
ByLayer
370
-1
48
1
60
0
100
AcDbEllipse
10
71.069511
20
7.691806
30
0
11
-1.0498400799143
21
0.0183250267591482
31
0
210
0
220
0
230
1
40
0.998848
41
-2.11404570279142
42
-1.45556903857821
0
ELLIPSE
5
9A
100
AcDbEntity
8
1
62
256
6
ByLayer
370
-1
48
1
60
0
100
AcDbEllipse
10
72.246326
20
8.484483
30
0
11
-1.24980961894549
21
0.0218155080466032
31
0
210
0
220
0
230
1
40
0.998848
41
-2.09439510239318
42
-0.523598775598296
0
ELLIPSE
5
9B
100
AcDbEntity
8
1
62
256
6
ByLayer
370
-1
48
1
60
0
100
AcDbEllipse
10
72.146132
20
8.464547
30
0
11
-1.24980961894549
21
0.0218155080466032
31
0
210
0
220
0
230
1
40
0.998848
41
-0.523569227768393
42
-0.327560393774511
0
ELLIPSE
5
9C
100
AcDbEntity
8
1
62
256
6
ByLayer
370
-1
48
1
60
0
100
AcDbEllipse
10
71.071981
20
7.833319
30
0
11
1.0498400799143
21
-0.0183250267591222
31
0
210
0
220
0
230
1
40
0.998848
41
-1.46170151763518
42
-0.860164223350554
0
ELLIPSE
5
9D
100
AcDbEntity
8
1
62
256
6
ByLayer
370
-1
48
1
60
0
100
AcDbEllipse
10
71.116138
20
7.843457
30
0
11
0.396814554015218
21
-0.00692642380478713
31
0
210
0
220
0
230
1
40
0.998848
41
2.09439510239319
42
-2.09439510239319
0
ELLIPSE
5
9E
100
AcDbEntity
8
1
62
256
6
ByLayer
370
-1
48
1
60
0
100
AcDbEllipse
10
79.365362
20
2.892421
30
0
11
0.396814554015218
21
-0.00692642380478713
31
0
210
0
220
0
230
1
40
0.998848
41
-2.09439510239319
42
3.80886860653111E-14
0
ELLIPSE
5
9F
100
AcDbEntity
8
1
62
256
6
ByLayer
370
-1
48
1
60
0
100
AcDbEllipse
10
75.647678
20
7.132897
30
0
11
-0.421935727355997
21
0.00736491551653323
31
0
210
0
220
0
230
1
40
0.998848
41
2.89072069116559
42
-3.14159164837325
0
ELLIPSE
5
A0
100
AcDbEntity
8
1
62
256
6
ByLayer
370
-1
48
1
60
0
100
AcDbEllipse
10
75.820845
20
7.713995
30
0
11
-0.184971823603932
21
0.00322869519089726
31
0
210
0
220
0
230
1
40
0.998848
41
-1.3006849754903
42
-0.130413094114191
0
ELLIPSE
5
A1
100
AcDbEntity
8
1
62
256
6
ByLayer
370
-1
48
1
60
0
100
AcDbEllipse
10
76.259263
20
8.442821
30
0
11
-0.184971823603932
21
0.00322869519089726
31
0
210
0
220
0
230
1
40
0.998848
41
-2.3461250444772
42
-0.0884015458680622
0
ELLIPSE
5
A2
100
AcDbEntity
8
1
62
256
6
ByLayer
370
-1
48
1
60
0
100
AcDbEllipse
10
76.691626
20
8.868355
30
0
11
-0.421935727355997
21
0.00736491551653323
31
0
210
0
220
0
230
1
40
0.998848
41
0.795467609112422
42
1.57036733696494
0
ELLIPSE
5
A3
100
AcDbEntity
8
1
62
256
6
ByLayer
370
-1
48
1
60
0
100
AcDbEllipse
10
77.108496
20
8.427633
30
0
11
-0.184971823603932
21
0.00322869519089726
31
0
210
0
220
0
230
1
40
0.998848
41
-3.14157174088621
42
-0.796325588772246
0
ELLIPSE
5
A4
100
AcDbEntity
8
1
62
256
6
ByLayer
370
-1
48
1
60
0
100
AcDbEllipse
10
77.693778
20
8.266881
30
0
11
-0.421935727355997
21
0.00736491551653323
31
0
210
0
220
0
230
1
40
0.998848
41
2.66659844976731E-06
42
0.524027765428178
0
ELLIPSE
5
A5
100
AcDbEntity
8
1
62
256
6
ByLayer
370
-1
48
1
60
0
100
AcDbEllipse
10
77.520611
20
7.685783
30
0
11
-0.184971823603932
21
0.00322869519089726
31
0
210
0
220
0
230
1
40
0.998848
41
3.14156931738101
42
-1.84266516030916
0
ELLIPSE
5
A6
100
AcDbEntity
8
1
62
256
6
ByLayer
370
-1
48
1
60
0
100
AcDbEllipse
10
76.671037
20
7.70985
30
0
11
-0.747886075976978
21
0.0130544000150873
31
0
210
0
220
0
230
1
40
0.998848
41
1.72021225520031
42
2.56896190833476
0
ELLIPSE
5
A7
100
AcDbEntity
8
1
62
256
6
ByLayer
370
-1
48
1
60
0
100
AcDbEllipse
10
76.671738
20
7.749872
30
0
11
0.74788607597698
21
-0.0130544000150688
31
0
210
0
220
0
230
1
40
0.998848
41
2.58029070861356
42
2.65575608928971
0
ELLIPSE
5
A8
100
AcDbEntity
8
1
62
256
6
ByLayer
370
-1
48
1
60
0
100
AcDbEllipse
10
76.671877
20
7.757821
30
0
11
1.03484236448686
21
-0.0180632406625617
31
0
210
0
220
0
230
1
40
0.998848
41
-2.0943844359871
42
-1.04804610736558
0
ELLIPSE
5
A9
100
AcDbEntity
8
1
62
256
6
ByLayer
370
-1
48
1
60
0
100
AcDbEllipse
10
77.67236
20
7.098728
30
0
11
-0.421935727355997
21
0.00736491551653323
31
0
210
0
220
0
230
1
40
0.998848
41
-1.16026775711354E-05
42
0.253487424293719
0
ELLIPSE
5
AA
100
AcDbEntity
8
1
62
256
6
ByLayer
370
-1
48
1
60
0
100
AcDbEllipse
10
76.671877
20
7.757821
30
0
11
1.03484236448686
21
-0.0180632406625617
31
0
210
0
220
0
230
1
40
0.998848
41
-3.14069447104952
42
-2.0943844359871
0
ELLIPSE
5
AB
100
AcDbEntity
8
1
62
256
6
ByLayer
370
-1
48
1
60
0
100
AcDbEllipse
10
76.671037
20
7.70985
30
0
11
-0.747886075976978
21
0.0130544000150873
31
0
210
0
220
0
230
1
40
0.998848
41
0.599670114513859
42
1.38691310878638
0
ELLIPSE
5
AC
100
AcDbEntity
8
1
62
256
6
ByLayer
370
-1
48
1
60
0
100
AcDbEllipse
10
76.671738
20
7.749872
30
0
11
0.74788607597698
21
-0.0130544000150688
31
0
210
0
220
0
230
1
40
0.998848
41
-0.561301944976376
42
-0.485836564299913
0
ELLIPSE
5
AD
100
AcDbEntity
8
1
62
256
6
ByLayer
370
-1
48
1
60
0
100
AcDbEllipse
10
76.671037
20
7.70985
30
0
11
0.747886075976973
21
-0.0130544000150687
31
0
210
0
220
0
230
1
40
0.998848
41
0.524058511594835
42
1.57036734979422
0
ELLIPSE
5
AE
100
AcDbEntity
8
1
62
256
6
ByLayer
370
-1
48
1
60
0
100
AcDbEllipse
10
76.671037
20
7.70985
30
0
11
-0.747886075976978
21
0.0130544000150873
31
0
210
0
220
0
230
1
40
0.998848
41
-1.57122530379561
42
-0.561301944975872
0
ELLIPSE
5
AF
100
AcDbEntity
8
1
62
256
6
ByLayer
370
-1
48
1
60
0
100
AcDbEllipse
10
76.671877
20
7.757821
30
0
11
1.03484236448686
21
-0.0180632406625617
31
0
210
0
220
0
230
1
40
0.998848
41
-1.04804610736558
42
0.000898182540267994
0
ELLIPSE
5
B0
100
AcDbEntity
8
1
62
256
6
ByLayer
370
-1
48
1
60
0
100
AcDbEllipse
10
76.691626
20
8.868355
30
0
11
-0.421935727355997
21
0.00736491551653323
31
0
210
0
220
0
230
1
40
0.998848
41
1.57036733696494
42
2.34526706481752
0
ELLIPSE
5
B1
100
AcDbEntity
8
1
62
256
6
ByLayer
370
-1
48
1
60
0
100
AcDbEllipse
10
76.671877
20
7.757821
30
0
11
1.03484236448686
21
-0.0180632406625617
31
0
210
0
220
0
230
1
40
0.998848
41
2.09354654622411
42
-3.14069447104952
0
ELLIPSE
5
B2
100
AcDbEntity
8
1
62
256
6
ByLayer
370
-1
48
1
60
0
100
AcDbEllipse
10
76.671877
20
7.757821
30
0
11
1.03484236448686
21
-0.0180632406625617
31
0
210
0
220
0
230
1
40
0.998848
41
0.000898182540268854
42
1.04720821760266
0
ELLIPSE
5
B3
100
AcDbEntity
8
1
62
256
6
ByLayer
370
-1
48
1
60
0
100
AcDbEllipse
10
76.671037
20
7.70985
30
0
11
-0.747886075976978
21
0.0130544000150873
31
0
210
0
220
0
230
1
40
0.998848
41
-0.473921834228414
42
0.393170085351879
0
ELLIPSE
5
B4
100
AcDbEntity
8
1
62
256
6
ByLayer
370
-1
48
1
60
0
100
AcDbEllipse
10
76.671877
20
7.757821
30
0
11
1.03484236448686
21
-0.0180632406625617
31
0
210
0
220
0
230
1
40
0.998848
41
1.04720821760266
42
2.09354654622411
0
ELLIPSE
5
B5
100
AcDbEntity
8
1
62
256
6
ByLayer
370
-1
48
1
60
0
100
AcDbEllipse
10
76.671037
20
7.70985
30
0
11
-0.747886075976978
21
0.0130544000150873
31
0
210
0
220
0
230
1
40
0.998848
41
2.73557304083919
42
-2.62909365094738
0
ELLIPSE
5
B6
100
AcDbEntity
8
1
62
256
6
ByLayer
370
-1
48
1
60
0
100
AcDbEllipse
10
77.693778
20
8.266881
30
0
11
-0.421935727355997
21
0.00736491551653323
31
0
210
0
220
0
230
1
40
0.998848
41
0.524027765428178
42
1.29892749328062
0
ELLIPSE
5
B7
100
AcDbEntity
8
1
62
256
6
ByLayer
370
-1
48
1
60
0
100
AcDbEllipse
10
76.671731
20
7.749478
30
0
11
1.72473727414477
21
-0.0301054011042696
31
0
210
0
220
0
230
1
40
0.998848
41
0
42
6.28318530717959
0
ELLIPSE
5
B8
100
AcDbEntity
8
1
62
256
6
ByLayer
370
-1
48
1
60
0
100
AcDbEllipse
10
76.671121
20
7.714647
30
0
11
1.72473727414477
21
-0.0301054011042696
31
0
210
0
220
0
230
1
40
0.998848
41
-3.13586934513731
42
-0.00574516686360969
0
ELLIPSE
5
B9
100
AcDbEntity
8
1
62
256
6
ByLayer
370
-1
48
1
60
0
100
AcDbEllipse
10
76.671877
20
7.757821
30
0
11
1.29980200370335
21
-0.0226881283684359
31
0
210
0
220
0
230
1
40
0.998848
41
0
42
6.28318530717959
0
ELLIPSE
5
BA
100
AcDbEntity
8
1
62
256
6
ByLayer
370
-1
48
1
60
0
100
AcDbEllipse
10
76.671853
20
7.756448
30
0
11
1.90439934775034
21
-0.0332414142641884
31
0
210
0
220
0
230
1
40
0.998848
41
0
42
6.28318530717959
0
ELLIPSE
5
BB
100
AcDbEntity
8
1
62
256
6
ByLayer
370
-1
48
1
60
0
100
AcDbEllipse
10
76.671402
20
7.730664
30
0
11
1.88093516011928
21
-0.032831845345601
31
0
210
0
220
0
230
1
40
0.998848
41
-1.14301404579397
42
-9.45346091948503E-16
0
ELLIPSE
5
BC
100
AcDbEntity
8
1
62
256
6
ByLayer
370
-1
48
1
60
0
100
AcDbEllipse
10
76.671402
20
7.730664
30
0
11
1.88093516011928
21
-0.032831845345601
31
0
210
0
220
0
230
1
40
0.998848
41
0
42
0.0121715414335141
0
ELLIPSE
5
BD
100
AcDbEntity
8
1
62
256
6
ByLayer
370
-1
48
1
60
0
100
AcDbEllipse
10
76.671402
20
7.730664
30
0
11
1.88093516011928
21
-0.032831845345601
31
0
210
0
220
0
230
1
40
0.998848
41
0.0121711807346546
42
-1.99873084697338
0
ELLIPSE
5
BE
100
AcDbEntity
8
1
62
256
6
ByLayer
370
-1
48
1
60
0
100
AcDbEllipse
10
76.671192
20
7.718675
30
0
11
-1.8011402762433
21
0.0314390204666528
31
0
210
0
220
0
230
1
40
0.998848
41
0
42
6.28318530717959
0
ELLIPSE
5
BF
100
AcDbEntity
8
1
62
256
6
ByLayer
370
-1
48
1
60
0
100
AcDbEllipse
10
79.533627
20
12.513658
30
0
11
0.396814554015218
21
-0.00692642380478713
31
0
210
0
220
0
230
1
40
0.998848
41
0
42
2.09440455512991
0
POINT
5
41
100
AcDbEntity
8
80
62
256
6
ByLayer
370
-1
48
1
60
0
100
AcDbPoint
10
0
20
0
30
0
39
0
210
0
220
0
230
1
50
360
0
POINT
5
43
100
AcDbEntity
8
81
62
256
6
ByLayer
370
-1
48
1
60
0
100
AcDbPoint
10
79.93
20
12.9
30
0
39
0
210
0
220
0
230
1
50
360
0
POINT
5
45
100
AcDbEntity
8
1
62
256
6
ByLayer
370
-1
48
1
60
0
100
AcDbPoint
10
-171.32
20
0
30
0
39
0
210
0
220
0
230
1
50
360
0
POINT
5
47
100
AcDbEntity
8
2
62
256
6
ByLayer
370
-1
48
1
60
0
100
AcDbPoint
10
79.93
20
12.9
30
0
39
0
210
0
220
0
230
1
50
360
0
SPLINE
5
C0
100
AcDbEntity
8
1
62
256
6
ByLayer
370
-1
48
1
60
0
100
AcDbSpline
70
4
71
3
72
8
73
4
40
0
40
0
40
0
40
0
40
1
40
1
40
1
40
1
41
1
10
77.1508669370747
20
12.2875445026224
30
0
41
1
10
76.8170838076412
20
12.2646852696543
30
0
41
1
10
76.4833006866833
20
12.2418259132822
30
0
41
1
10
76.1495175743452
20
12.2189664314123
30
0
0
SPLINE
5
C1
100
AcDbEntity
8
1
62
256
6
ByLayer
370
-1
48
1
60
0
100
AcDbSpline
70
4
71
3
72
8
73
4
40
0
40
0
40
0
40
0
40
1
40
1
40
1
40
1
41
1
10
66.3126124336046
20
9.91601090404725
30
0
41
1
10
65.927925273855
20
9.91571030533765
30
0
41
1
10
65.5441965560906
20
9.91507346280946
30
0
41
1
10
65.1621656693612
20
9.91363836936085
30
0
0
SPLINE
5
C2
100
AcDbEntity
8
1
62
256
6
ByLayer
370
-1
48
1
60
0
100
AcDbSpline
70
4
71
3
72
8
73
4
40
0
40
0
40
0
40
0
40
1
40
1
40
1
40
1
41
1
10
76.1495176021509
20
12.2189680244014
30
0
41
1
10
73.9129370990882
20
12.0657934384932
30
0
41
1
10
71.6763569825973
20
11.9126132241939
30
0
41
1
10
69.4397773000001
20
11.7594266932503
30
0
0
SPLINE
5
C3
100
AcDbEntity
8
1
62
256
6
ByLayer
370
-1
48
1
60
0
100
AcDbSpline
70
4
71
3
72
8
73
4
40
0
40
0
40
0
40
0
40
1
40
1
40
1
40
1
41
1
10
66.3126124336043
20
9.91601090404765
30
0
41
1
10
67.0569058404919
20
10.3558144115646
30
0
41
1
10
67.8045387136252
20
10.7955238160027
30
0
41
1
10
68.5541601240525
20
11.2374006595076
30
0
0
SPLINE
5
C4
100
AcDbEntity
8
1
62
256
6
ByLayer
370
-1
48
1
60
0
100
AcDbSpline
70
4
71
3
72
10
73
6
40
0
40
0
40
0
40
0
40
0.5
40
0.5
40
1
40
1
40
1
40
1
41
1
10
52.3579307534451
20
4.33878745302161
30
0
41
1
10
52.4156730499876
20
5.27520557194796
30
0
41
1
10
52.6342232105788
20
6.13027269635913
30
0
41
1
10
53.4111845367235
20
7.53569950897295
30
0
41
1
10
53.9725475331916
20
8.09254330546153
30
0
41
1
10
54.648307949227
20
8.50875000000008
30
0
0
SPLINE
5
C5
100
AcDbEntity
8
1
62
256
6
ByLayer
370
-1
48
1
60
0
100
AcDbSpline
70
4
71
3
72
8
73
4
40
0
40
0
40
0
40
0
40
1
40
1
40
1
40
1
41
1
10
77.6578546983769
20
11.9185814509068
30
0
41
1
10
77.4865032750063
20
11.9066258839641
30
0
41
1
10
77.3151518992992
20
11.8946696358824
30
0
41
1
10
77.1438005716859
20
11.8827127006278
30
0
0
SPLINE
5
C6
100
AcDbEntity
8
1
62
256
6
ByLayer
370
-1
48
1
60
0
100
AcDbSpline
70
4
71
3
72
8
73
4
40
0
40
0
40
0
40
0
40
1
40
1
40
1
40
1
41
1
10
68.5541601240525
20
11.2374006595076
30
0
41
1
10
68.8493635440352
20
11.4114132391902
30
0
41
1
10
69.1445693718776
20
11.5854217436887
30
0
41
1
10
69.4397773000001
20
11.7594266932503
30
0
0
SPLINE
5
C7
100
AcDbEntity
8
1
62
256
6
ByLayer
370
-1
48
1
60
0
100
AcDbSpline
70
4
71
3
72
28
73
24
40
-0.125000000000014
40
-0.125000000000014
40
0
40
0
40
0.124999999999997
40
0.124999999999997
40
0.187499999999994
40
0.187499999999994
40
0.249999999999991
40
0.249999999999991
40
0.374999999999984
40
0.374999999999984
40
0.499999999999977
40
0.499999999999977
40
0.62499999999997
40
0.62499999999997
40
0.687499999999969
40
0.687499999999969
40
0.718749999999971
40
0.718749999999971
40
0.749999999999972
40
0.749999999999972
40
0.874999999999986
40
0.874999999999986
40
1
40
1
40
1.125
40
1.125
41
1
10
62.8204724568103
20
4.0743869914069
30
0
41
1
10
61.5451831736478
20
3.53006128831743
30
0
41
1
10
60.8835351999958
20
3.3265815012405
30
0
41
1
10
59.8804186009569
20
3.40055196919434
30
0
41
1
10
59.5242852539153
20
3.49725563681679
30
0
41
1
10
59.017341585253
20
4.02474793432927
30
0
41
1
10
58.9569433160298
20
4.46103535133599
30
0
41
1
10
59.2645383512478
20
5.48237079211017
30
0
41
1
10
59.8350537542548
20
5.9239347933252
30
0
41
1
10
61.0002651128847
20
6.60175957982253
30
0
41
1
10
61.6571524789409
20
6.83993056964852
30
0
41
1
10
63.0089824444397
20
7.18685624989985
30
0
41
1
10
63.7202914338528
20
7.30647876083719
30
0
41
1
10
64.8162088952794
20
7.33615999234303
30
0
41
1
10
65.1915804288585
20
7.34221726508525
30
0
41
1
10
65.7169268613654
20
7.13371114285962
30
0
41
1
10
65.8747787059201
20
6.97309295445046
30
0
41
1
10
65.8432960423693
20
6.59730300897999
30
0
41
1
10
65.7356880831463
20
6.43144947783534
30
0
41
1
10
65.1894052868089
20
5.685106489558
30
0
41
1
10
64.5934705762424
20
5.24149729191691
30
0
41
1
10
63.4273358356922
20
4.42718174192049
30
0
41
1
10
62.8204724568103
20
4.0743869914069
30
0
41
1
10
61.5451831736478
20
3.53006128831743
30
0
0
SPLINE
5
C8
100
AcDbEntity
8
1
62
256
6
ByLayer
370
-1
48
1
60
0
100
AcDbSpline
70
4
71
3
72
10
73
6
40
0
40
0
40
0
40
0
40
0.5
40
0.5
40
1
40
1
40
1
40
1
41
1
10
63.439777296362
20
-9.38157240769718
30
0
41
1
10
61.7196712559568
20
-9.07470056869869
30
0
41
1
10
60.1510989246763
20
-8.59372243303466
30
0
41
1
10
57.284188418868
20
-6.96400893836699
30
0
41
1
10
56.0285856805853
20
-5.81342556214014
30
0
41
1
10
55.0088754336243
20
-4.33878745302218
30
0
0
SPLINE
5
C9
100
AcDbEntity
8
1
62
256
6
ByLayer
370
-1
48
1
60
0
100
AcDbSpline
70
4
71
3
72
8
73
4
40
0
40
0
40
0
40
0
40
1
40
1
40
1
40
1
41
1
10
63.4397772963616
20
-9.38157240769667
30
0
41
1
10
63.4647678947647
20
-9.36112596444659
30
0
41
1
10
63.4897679979562
20
-9.34062994753987
30
0
41
1
10
63.514777296362
20
-9.32008512584338
30
0
0
SPLINE
5
CA
100
AcDbEntity
8
1
62
256
6
ByLayer
370
-1
48
1
60
0
100
AcDbSpline
70
4
71
3
72
8
73
4
40
0
40
0
40
0
40
0
40
1
40
1
40
1
40
1
41
1
10
63.514777296362
20
-9.32008512584338
30
0
41
1
10
64.0165899972739
20
-9.4079883432654
30
0
41
1
10
64.5282086352095
20
-9.48027917168113
30
0
41
1
10
65.0473875006347
20
-9.54035464046166
30
0
0
SPLINE
5
CB
100
AcDbEntity
8
1
62
256
6
ByLayer
370
-1
48
1
60
0
100
AcDbSpline
70
4
71
3
72
18
73
14
40
0
40
0
40
0
40
0
40
0.211942228168215
40
0.211942228168215
40
0.387803028686458
40
0.387803028686458
40
0.565319118376544
40
0.565319118376544
40
0.720288229649855
40
0.720288229649855
40
0.926268387669071
40
0.926268387669071
40
1
40
1
40
1
40
1
41
1
10
76.3918180696938
20
8.61722503329366
30
0
41
1
10
76.4220251027734
20
8.58552071244938
30
0
41
1
10
76.4580211426695
20
8.55753566974968
30
0
41
1
10
76.5318922343752
20
8.51785818199218
30
0
41
1
10
76.5692866055705
20
8.5038484267393
30
0
41
1
10
76.6473338679451
20
8.48736450094302
30
0
41
1
10
76.6891859528359
20
8.48487685686743
30
0
41
1
10
76.7645569766253
20
8.49184156285955
30
0
41
1
10
76.7993622766966
20
8.49984141639015
30
0
41
1
10
76.8741329317815
20
8.52705245737383
30
0
41
1
10
76.9133741012081
20
8.5494072042689
30
0
41
1
10
76.9595395614535
20
8.58565422967231
30
0
41
1
10
76.9712073469502
20
8.59590219379612
30
0
41
1
10
76.9822235668374
20
8.60666640174355
30
0
0
SPLINE
5
CC
100
AcDbEntity
8
1
62
256
6
ByLayer
370
-1
48
1
60
0
100
AcDbSpline
70
4
71
3
72
16
73
12
40
0
40
0
40
0
40
0
40
0.0629040617809058
40
0.0629040617809058
40
0.287454085009698
40
0.287454085009698
40
0.514760212221672
40
0.514760212221672
40
0.756443935233827
40
0.756443935233827
40
1
40
1
40
1
40
1
41
1
10
77.706422976425
20
7.7306833119078
30
0
41
1
10
77.7065107792625
20
7.73597396307764
30
0
41
1
10
77.7063704741751
20
7.74126915829476
30
0
41
1
10
77.7047026044996
20
7.76519826888941
30
0
41
1
10
77.7004486539588
20
7.78377631091786
30
0
41
1
10
77.6868794245829
20
7.81805204863147
30
0
41
1
10
77.6773436469493
20
7.83415377902512
30
0
41
1
10
77.6539528646701
20
7.8628449266993
30
0
41
1
10
77.6395854265209
20
7.87551999477697
30
0
41
1
10
77.6085380724699
20
7.89544199254715
30
0
41
1
10
77.5915232852449
20
7.90288871961002
30
0
41
1
10
77.5741689510446
20
7.9075993999034
30
0
0
SPLINE
5
CD
100
AcDbEntity
8
1
62
256
6
ByLayer
370
-1
48
1
60
0
100
AcDbSpline
70
4
71
3
72
14
73
10
40
0
40
0
40
0
40
0
40
0.0503996018337186
40
0.0503996018337186
40
0.387356939069326
40
0.387356939069326
40
0.835047102458903
40
0.835047102458903
40
1
40
1
40
1
40
1
41
1
10
76.0452464626098
20
8.14861290345621
30
0
41
1
10
76.0476885490484
20
8.15338121018758
30
0
41
1
10
76.0500384393817
20
8.1581969296154
30
0
41
1
10
76.0672374329095
20
8.19523274400862
30
0
41
1
10
76.0780250097818
20
8.22950768788749
30
0
41
1
10
76.0928245514432
20
8.30831215629362
30
0
41
1
10
76.0938505459321
20
8.35384047855842
30
0
41
1
10
76.0866361216442
20
8.41296844357663
30
0
41
1
10
76.0838090591732
20
8.42879812312873
30
0
41
1
10
76.0801737737061
20
8.44430742708815
30
0
0
SPLINE
5
CE
100
AcDbEntity
8
1
62
256
6
ByLayer
370
-1
48
1
60
0
100
AcDbSpline
70
4
71
3
72
18
73
14
40
0
40
0
40
0
40
0
40
0.209376083298501
40
0.209376083298501
40
0.38568329799003
40
0.38568329799003
40
0.563675836722672
40
0.563675836722672
40
0.71873063403889
40
0.71873063403889
40
0.92425352968194
40
0.92425352968194
40
1
40
1
40
1
40
1
41
1
10
77.2876571106176
20
8.42335070808409
30
0
41
1
10
77.2763610498949
20
8.38132729115344
30
0
41
1
10
77.2709876907836
20
8.33627880371068
30
0
41
1
10
77.2745057873256
20
8.25229106720226
30
0
41
1
10
77.2814197214188
20
8.21256472842023
30
0
41
1
10
77.3065420272221
20
8.13625336262146
30
0
41
1
10
77.3253390888326
20
8.09861838365268
30
0
41
1
10
77.3687368348681
20
8.03687441042572
30
0
41
1
10
77.3927507661457
20
8.01087550278001
30
0
41
1
10
77.4526478999125
20
7.96030496476922
30
0
41
1
10
77.4907896458732
20
7.93795151686928
30
0
41
1
10
77.5444472487652
20
7.91657189828126
30
0
41
1
10
77.5592486704783
20
7.91164937789864
30
0
41
1
10
77.5741689510446
20
7.90759939990329
30
0
0
SPLINE
5
CF
100
AcDbEntity
8
1
62
256
6
ByLayer
370
-1
48
1
60
0
100
AcDbSpline
70
4
71
3
72
14
73
10
40
0
40
0
40
0
40
0
40
0.270755469310023
40
0.270755469310023
40
0.559692490286008
40
0.559692490286008
40
0.821335789862252
40
0.821335789862252
40
1
40
1
40
1
40
1
41
1
10
76.0553601138201
20
7.06584901924143
30
0
41
1
10
76.0500293742523
20
7.04694864655838
30
0
41
1
10
76.0477849142092
20
7.0265643157025
30
0
41
1
10
76.0506305957695
20
6.98439620580217
30
0
41
1
10
76.0563157201505
20
6.96194782095688
30
0
41
1
10
76.0751019850217
20
6.92237467345481
30
0
41
1
10
76.0877703740135
20
6.90436527939428
30
0
41
1
10
76.11368640726
20
6.87874926279545
30
0
41
1
10
76.1256804360128
20
6.86942916061548
30
0
41
1
10
76.1385191202011
20
6.86172361436633
30
0
0
SPLINE
5
D0
100
AcDbEntity
8
1
62
256
6
ByLayer
370
-1
48
1
60
0
100
AcDbSpline
70
4
71
3
72
16
73
12
40
0
40
0
40
0
40
0
40
0.0650257576619606
40
0.0650257576619606
40
0.289563425892839
40
0.289563425892839
40
0.516976410675125
40
0.516976410675125
40
0.758865039554196
40
0.758865039554196
40
1
40
1
40
1
40
1
41
1
10
75.6367080491416
20
7.76503607772844
30
0
41
1
10
75.636617312316
20
7.75956863605947
30
0
41
1
10
75.6367700299043
20
7.75408504928473
30
0
41
1
10
75.6385176097078
20
7.72989279823562
30
0
41
1
10
75.6428198282268
20
7.7111243722596
30
0
41
1
10
75.6564724858329
20
7.67623774654334
30
0
41
1
10
75.6660468627521
20
7.6597070060825
30
0
41
1
10
75.6895056147919
20
7.62994849364526
30
0
41
1
10
75.7039037770793
20
7.61661270584133
30
0
41
1
10
75.7348363520367
20
7.59534761813296
30
0
41
1
10
75.751675208029
20
7.58715208794436
30
0
41
1
10
75.7688482733936
20
7.58160032742194
30
0
0
SPLINE
5
D1
100
AcDbEntity
8
1
62
256
6
ByLayer
370
-1
48
1
60
0
100
AcDbSpline
70
4
71
3
72
18
73
14
40
0
40
0
40
0
40
0
40
0.213199580814384
40
0.213199580814384
40
0.388842064023069
40
0.388842064023069
40
0.566125077781177
40
0.566125077781177
40
0.721053458986039
40
0.721053458986039
40
0.927258549117434
40
0.927258549117434
40
1
40
1
40
1
40
1
41
1
10
76.9511991547438
20
6.87197469403182
30
0
41
1
10
76.9207751592706
20
6.90172616534753
30
0
41
1
10
76.8844903670355
20
6.92784118472932
30
0
41
1
10
76.8102660117132
20
6.96455144250385
30
0
41
1
10
76.7728604441346
20
6.97740248098145
30
0
41
1
10
76.6948460052486
20
6.99250712010007
30
0
41
1
10
76.6530424530468
20
6.9947815502052
30
0
41
1
10
76.5777614480278
20
6.98841414737777
30
0
41
1
10
76.5429967500033
20
6.98108695693867
30
0
41
1
10
76.4682782733228
20
6.95603934714669
30
0
41
1
10
76.4290657623306
20
6.93537916324308
30
0
41
1
10
76.3831377476042
20
6.90180977085535
30
0
41
1
10
76.3716486005125
20
6.8924139167942
30
0
41
1
10
76.3607936576014
20
6.88253332558287
30
0
0
SPLINE
5
D2
100
AcDbEntity
8
1
62
256
6
ByLayer
370
-1
48
1
60
0
100
AcDbSpline
70
4
71
3
72
18
73
14
40
0
40
0
40
0
40
0
40
0.152804178416358
40
0.152804178416358
40
0.339921483589873
40
0.339921483589873
40
0.498201475260677
40
0.498201475260677
40
0.656681868019479
40
0.656681868019479
40
0.814348379258937
40
0.814348379258937
40
1
40
1
40
1
40
1
41
1
10
76.0553601138201
20
7.06584901924143
30
0
41
1
10
76.0635772331455
20
7.09498317889373
30
0
41
1
10
76.0686392734499
20
7.12568408078224
30
0
41
1
10
76.071720077267
20
7.19571402552509
30
0
41
1
10
76.0678313468697
20
7.23632344696028
30
0
41
1
10
76.0490300905279
20
7.3101257646039
30
0
41
1
10
76.0356138578748
20
7.34430168193285
30
0
41
1
10
76.0006960666419
20
7.40772300219453
30
0
41
1
10
75.9787587121359
20
7.43773122580512
30
0
41
1
10
75.9300542374714
20
7.48971759024755
30
0
41
1
10
75.9027956789097
20
7.51239020439243
30
0
41
1
10
75.8408969072648
20
7.5529820442963
30
0
41
1
10
75.8051058595537
20
7.56987886528284
30
0
41
1
10
75.7688482733936
20
7.58160032742202
30
0
0
SPLINE
5
D3
100
AcDbEntity
8
1
62
256
6
ByLayer
370
-1
48
1
60
0
100
AcDbSpline
70
4
71
3
72
14
73
10
40
0
40
0
40
0
40
0
40
0.0516629125304508
40
0.0516629125304508
40
0.388406671893034
40
0.388406671893034
40
0.83625234510295
40
0.83625234510295
40
1
40
1
40
1
40
1
41
1
10
77.2976070713274
20
7.33120900138331
30
0
41
1
10
77.2951035207026
20
7.32635133195134
30
0
41
1
10
77.2926970531041
20
7.3214529522165
30
0
41
1
10
77.2754871713216
20
7.28465693778264
30
0
41
1
10
77.2647477598821
20
7.25109637923353
30
0
41
1
10
77.2500533208603
20
7.17452153556084
30
0
41
1
10
77.249101175875
20
7.13072875490172
30
0
41
1
10
77.2564076558457
20
7.07439201379464
30
0
41
1
10
77.2592285728286
20
7.05945977068382
30
0
41
1
10
77.2628428958523
20
7.04486051128006
30
0
0
SPLINE
5
D4
100
AcDbEntity
8
1
62
256
6
ByLayer
370
-1
48
1
60
0
100
AcDbSpline
70
4
71
3
72
14
73
10
40
0
40
0
40
0
40
0
40
0.283893601337495
40
0.283893601337495
40
0.571185713657514
40
0.571185713657514
40
0.83151108635253
40
0.83151108635253
40
1
40
1
40
1
40
1
41
1
10
76.3918180696939
20
8.61722503329372
30
0
41
1
10
76.377006597804
20
8.63277067313652
30
0
41
1
10
76.3590862535823
20
8.64616715479255
30
0
41
1
10
76.3192012414972
20
8.66590904603515
30
0
41
1
10
76.2965568744413
20
8.67243729519521
30
0
41
1
10
76.2524867859508
20
8.67618951828197
30
0
41
1
10
76.2304797025388
20
8.67424823909462
30
0
41
1
10
76.1961644684304
20
8.66472452508265
30
0
41
1
10
76.1829088863648
20
8.65931943004199
30
0
41
1
10
76.170546386679
20
8.65248868711328
30
0
0
SPLINE
5
D5
100
AcDbEntity
8
1
62
256
6
ByLayer
370
-1
48
1
60
0
100
AcDbSpline
70
4
71
3
72
14
73
10
40
0
40
0
40
0
40
0
40
0.283797567628889
40
0.283797567628889
40
0.570541220710572
40
0.570541220710572
40
0.830340207117463
40
0.830340207117463
40
1
40
1
40
1
40
1
41
1
10
75.775375786178
20
7.93761139132769
30
0
41
1
10
75.7548951218019
20
7.9328517590564
30
0
41
1
10
75.734696894694
20
7.92429901868243
30
0
41
1
10
75.6983256206415
20
7.90009502828156
30
0
41
1
10
75.6816565618214
20
7.88396396793655
30
0
41
1
10
75.6568192225237
20
7.84798926601295
30
0
41
1
10
75.6476560417451
20
7.82807334674072
30
0
41
1
10
75.638863638794
20
7.79357799768522
30
0
41
1
10
75.6369445044543
20
7.77928393819025
30
0
41
1
10
75.6367080491416
20
7.76503607772844
30
0
0
SPLINE
5
D6
100
AcDbEntity
8
1
62
256
6
ByLayer
370
-1
48
1
60
0
100
AcDbSpline
70
4
71
3
72
16
73
12
40
0
40
0
40
0
40
0
40
0.0634586329050119
40
0.0634586329050119
40
0.287427457823771
40
0.287427457823771
40
0.514185567646798
40
0.514185567646798
40
0.755317452576687
40
0.755317452576687
40
1
40
1
40
1
40
1
41
1
10
77.1725846388877
20
6.84323070252296
30
0
41
1
10
77.1772724969892
20
6.84582091925836
30
0
41
1
10
77.181852689943
20
6.8486127646803
30
0
41
1
10
77.201864627973
20
6.86201215782717
30
0
41
1
10
77.215942341777
20
6.87491451449552
30
0
41
1
10
77.2391757990293
20
6.90360167512131
30
0
41
1
10
77.2485755919957
20
6.91977666370556
30
0
41
1
10
77.2622654307943
20
6.95405697157827
30
0
41
1
10
77.266384060894
20
6.97264205209842
30
0
41
1
10
77.2688279223289
20
7.0092169378093
30
0
41
1
10
77.2671179960419
20
7.02759218849289
30
0
41
1
10
77.2628428958532
20
7.0448605112804
30
0
0
SPLINE
5
D7
100
AcDbEntity
8
1
62
256
6
ByLayer
370
-1
48
1
60
0
100
AcDbSpline
70
4
71
3
72
16
73
12
40
0
40
0
40
0
40
0
40
0.0932845550050814
40
0.0932845550050814
40
0.403187912879867
40
0.403187912879867
40
0.684028653617957
40
0.684028653617957
40
0.932338242249378
40
0.932338242249378
40
1
40
1
40
1
40
1
41
1
10
77.2876571106191
20
8.42335070808338
30
0
41
1
10
77.2895101684221
20
8.43024442285355
30
0
41
1
10
77.290994248916
20
8.43728587421131
30
0
41
1
10
77.2956677490191
20
8.46789984500265
30
0
41
1
10
77.2949189195266
20
8.49296447506669
30
0
41
1
10
77.2841933920473
20
8.53887612345221
30
0
41
1
10
77.2748732088208
20
8.56060420379623
30
0
41
1
10
77.2503617125021
20
8.59671933964108
30
0
41
1
10
77.2355937284988
20
8.61217692945257
30
0
41
1
10
77.2142761774837
20
8.62787998527958
30
0
41
1
10
77.2095092622617
20
8.63105647015826
30
0
41
1
10
77.2046119053655
20
8.63399577526994
30
0
0
SPLINE
5
D8
100
AcDbEntity
8
1
62
256
6
ByLayer
370
-1
48
1
60
0
100
AcDbSpline
70
4
71
3
72
12
73
8
40
0
40
0
40
0
40
0
40
0.463831155538576
40
0.463831155538576
40
0.845340912771869
40
0.845340912771869
40
1
40
1
40
1
40
1
41
1
10
77.5676408833844
20
7.55155654704171
30
0
41
1
10
77.5255883879724
20
7.53964309437828
30
0
41
1
10
77.4838077642567
20
7.52084291353145
30
0
41
1
10
77.4134356132943
20
7.47428806617765
30
0
41
1
10
77.3830786264381
20
7.44811179178589
30
0
41
1
10
77.3460997176942
20
7.40587517100957
30
0
41
1
10
77.3359952511737
20
7.3929546388317
30
0
41
1
10
77.3266710834591
20
7.37952500192466
30
0
0
SPLINE
5
D9
100
AcDbEntity
8
1
62
256
6
ByLayer
370
-1
48
1
60
0
100
AcDbSpline
70
4
71
3
72
14
73
10
40
0
40
0
40
0
40
0
40
0.27981819927826
40
0.27981819927826
40
0.567620445094699
40
0.567620445094699
40
0.828352203306389
40
0.828352203306389
40
1
40
1
40
1
40
1
41
1
10
76.9511991547438
20
6.87197469403179
30
0
41
1
10
76.9658166078995
20
6.85768036051292
30
0
41
1
10
76.9834479011465
20
6.84542566417255
30
0
41
1
10
77.0229925844582
20
6.82734697291716
30
0
41
1
10
77.0456474148797
20
6.82147284696055
30
0
41
1
10
77.089774693251
20
6.81863875669907
30
0
41
1
10
77.1118260723431
20
6.82088661602697
30
0
41
1
10
77.1464675521773
20
6.8307158584681
30
0
41
1
10
77.1599912837464
20
6.83627240333053
30
0
41
1
10
77.1725846388877
20
6.84323070252296
30
0
0
SPLINE
5
DA
100
AcDbEntity
8
1
62
256
6
ByLayer
370
-1
48
1
60
0
100
AcDbSpline
70
4
71
3
72
16
73
12
40
0
40
0
40
0
40
0
40
0.0663814403590244
40
0.0663814403590244
40
0.290281185156195
40
0.290281185156195
40
0.517134481573141
40
0.517134481573141
40
0.758493785503021
40
0.758493785503021
40
1
40
1
40
1
40
1
41
1
10
76.170546386679
20
8.65248868711328
30
0
41
1
10
76.1656435092328
20
8.64977966415699
30
0
41
1
10
76.1608579617571
20
8.64683827790151
30
0
41
1
10
76.1406996553613
20
8.63312684773976
30
0
41
1
10
76.1266761612941
20
8.61996490253449
30
0
41
1
10
76.1035470738107
20
8.59053779751872
30
0
41
1
10
76.0942025926359
20
8.57386878426769
30
0
41
1
10
76.0806247108589
20
8.53839541237335
30
0
41
1
10
76.0765674439585
20
8.5190857161476
30
0
41
1
10
76.0742640046873
20
8.48120860869159
30
0
41
1
10
76.0759704894135
20
8.46223999780798
30
0
41
1
10
76.0801737737062
20
8.44430742708815
30
0
0
SPLINE
5
DB
100
AcDbEntity
8
1
62
256
6
ByLayer
370
-1
48
1
60
0
100
AcDbSpline
70
4
71
3
72
14
73
10
40
0
40
0
40
0
40
0
40
0.280869779337823
40
0.280869779337823
40
0.567979647972801
40
0.567979647972801
40
0.828070898839411
40
0.828070898839411
40
1
40
1
40
1
40
1
41
1
10
77.5676408833843
20
7.55155654704171
30
0
41
1
10
77.5879289884001
20
7.55730415788835
30
0
41
1
10
77.6079362768934
20
7.5667138149384
30
0
41
1
10
77.6442515541797
20
7.59240481427238
30
0
41
1
10
77.6610081358032
20
7.60926696854574
30
0
41
1
10
77.6860110356426
20
7.64632230953356
30
0
41
1
10
77.6952557257285
20
7.66663230542417
30
0
41
1
10
77.7042137014508
20
7.70168065282652
30
0
41
1
10
77.7061833706113
20
7.71624561474005
30
0
41
1
10
77.706422976425
20
7.7306833119078
30
0
0
SPLINE
5
DC
100
AcDbEntity
8
1
62
256
6
ByLayer
370
-1
48
1
60
0
100
AcDbSpline
70
4
71
3
72
16
73
12
40
0
40
0
40
0
40
0
40
0.0571400188450459
40
0.0571400188450459
40
0.281922117016827
40
0.281922117016827
40
0.509134798201776
40
0.509134798201776
40
0.750467562041917
40
0.750467562041917
40
1
40
1
40
1
40
1
41
1
10
76.1385191202011
20
6.86172361436633
30
0
41
1
10
76.1426438752291
20
6.85924801093461
30
0
41
1
10
76.1468692908816
20
6.8569269288906
30
0
41
1
10
76.1679730675068
20
6.84636137670304
30
0
41
1
10
76.1862613918269
20
6.84043386001301
30
0
41
1
10
76.2229999213905
20
6.83423282083365
30
0
41
1
10
76.2419157091114
20
6.8339278064108
30
0
41
1
10
76.2789820806359
20
6.83864965345694
30
0
41
1
10
76.2974794132287
20
6.84404864791003
30
0
41
1
10
76.3315047466962
20
6.85969133560283
30
0
41
1
10
76.3473025814387
20
6.87025322336052
30
0
41
1
10
76.3607936576013
20
6.88253332558287
30
0
0
SPLINE
5
DD
100
AcDbEntity
8
1
62
256
6
ByLayer
370
-1
48
1
60
0
100
AcDbSpline
70
4
71
3
72
12
73
8
40
0
40
0
40
0
40
0
40
0.461845117471471
40
0.461845117471471
40
0.843685985726523
40
0.843685985726523
40
1
40
1
40
1
40
1
41
1
10
75.775375786178
20
7.93761139132772
30
0
41
1
10
75.8172118303299
20
7.94733393656313
30
0
41
1
10
75.8587770382883
20
7.96400518116596
30
0
41
1
10
75.92900534902
20
8.00740811229068
30
0
41
1
10
75.9593968434538
20
8.03247744166606
30
0
41
1
10
75.9965432431157
20
8.07394662733066
30
0
41
1
10
76.0067607848743
20
8.08681988682318
30
0
41
1
10
76.0161824504782
20
8.10029690291509
30
0
0
SPLINE
5
DE
100
AcDbEntity
8
1
62
256
6
ByLayer
370
-1
48
1
60
0
100
AcDbSpline
70
4
71
3
72
16
73
12
40
0
40
0
40
0
40
0
40
0.161340934431542
40
0.161340934431542
40
0.385665948751851
40
0.385665948751851
40
0.618089059671911
40
0.618089059671911
40
0.869196338437892
40
0.869196338437892
40
1
40
1
40
1
40
1
41
1
10
77.2046119053655
20
8.63399577526994
30
0
41
1
10
77.1930462864644
20
8.64093725073866
30
0
41
1
10
77.1806249770901
20
8.64660836105534
30
0
41
1
10
77.1501902687174
20
8.65659425858584
30
0
41
1
10
77.1314859847562
20
8.6596114754889
30
0
41
1
10
77.094338404959
20
8.65997154857709
30
0
41
1
10
77.0754606061428
20
8.65712787931884
30
0
41
1
10
77.038948705074
20
8.64591903293399
30
0
41
1
10
77.0210735169308
20
8.63700886622999
30
0
41
1
10
76.9971005750651
20
8.62009988177547
30
0
41
1
10
76.9893555044609
20
8.61363518599381
30
0
41
1
10
76.9822235668374
20
8.60666640174352
30
0
0
SPLINE
5
DF
100
AcDbEntity
8
SK1
62
256
6
ByLayer
370
-1
48
1
60
0
100
AcDbSpline
70
4
71
3
72
10
73
6
40
0
40
0
40
0
40
0
40
0.5
40
0.5
40
1
40
1
40
1
40
1
41
1
10
-169.32
20
4.33878745302189
30
0
41
1
10
-169.919233025873
20
2.95888879825199
30
0
41
1
10
-170.310991214146
20
1.50358877622818
30
0
41
1
10
-170.311508518976
20
-1.50048916054567
30
0
41
1
10
-169.920392105394
20
-2.95621969924952
30
0
41
1
10
-169.32
20
-4.33878745302189
30
0
0
SPLINE
5
E0
100
AcDbEntity
8
SK1
62
256
6
ByLayer
370
-1
48
1
60
0
100
AcDbSpline
70
4
71
3
72
8
73
4
40
0
40
0
40
0
40
0
40
1
40
1
40
1
40
1
41
1
10
-170.802499986183
20
8.50874999999999
30
0
41
1
10
-170.802576023436
20
8.50874999999999
30
0
41
1
10
-170.174914121567
20
8.50874999999999
30
0
41
1
10
-169.32
20
8.50874999999999
30
0
0
LINE
5
49
100
AcDbEntity
8
80
62
256
6
ByLayer
370
-1
48
1
60
0
100
AcDbLine
10
0
20
0
30
0
11
-10
21
0
31
0
39
0
210
0
220
0
230
1
0
LINE
5
4A
100
AcDbEntity
8
1
62
256
6
ByLayer
370
-1
48
1
60
0
100
AcDbLine
10
77.251165
20
7.148534
30
0
11
77.250424
21
7.106093
31
0
39
0
210
0
220
0
230
1
0
LINE
5
4B
100
AcDbEntity
8
1
62
256
6
ByLayer
370
-1
48
1
60
0
100
AcDbLine
10
76.069614
20
7.125532
30
0
11
76.070354
21
7.167922
31
0
39
0
210
0
220
0
230
1
0
LINE
5
4C
100
AcDbEntity
8
1
62
256
6
ByLayer
370
-1
48
1
60
0
100
AcDbLine
10
77.272583
20
8.316664
30
0
11
77.271842
21
8.274246
31
0
39
0
210
0
220
0
230
1
0
LINE
5
4D
100
AcDbEntity
8
1
62
256
6
ByLayer
370
-1
48
1
60
0
100
AcDbLine
10
76.091032
20
8.293685
30
0
11
76.091773
21
8.336126
31
0
39
0
210
0
220
0
230
1
0
LINE
5
4E
100
AcDbEntity
8
1
62
256
6
ByLayer
370
-1
48
1
60
0
100
AcDbLine
10
78.395549
20
7.674581
30
0
11
78.396157
21
7.709411
31
0
39
0
210
0
220
0
230
1
0
LINE
5
4F
100
AcDbEntity
8
1
62
256
6
ByLayer
370
-1
48
1
60
0
100
AcDbLine
10
74.946683
20
7.769622
30
0
11
74.946075
21
7.734791
31
0
39
0
210
0
220
0
230
1
0
LINE
5
50
100
AcDbEntity
8
SK1
62
256
6
ByLayer
370
-1
48
1
60
0
100
AcDbLine
10
-169.32
20
-9.99125
30
0
11
0
21
-9.99125
31
0
39
0
210
0
220
0
230
1
0
LINE
5
52
100
AcDbEntity
8
SK1
62
256
6
ByLayer
370
-1
48
1
60
0
100
AcDbLine
10
-170.8025
20
8.50875
30
0
11
-171.32
21
7.99125
31
0
39
0
210
0
220
0
230
1
0
LINE
5
53
100
AcDbEntity
8
SK1
62
256
6
ByLayer
370
-1
48
1
60
0
100
AcDbLine
10
-171.32
20
-7.99125
30
0
11
-169.32
21
-9.99125
31
0
39
0
210
0
220
0
230
1
0
LINE
5
54
100
AcDbEntity
8
1
62
256
6
ByLayer
370
-1
48
1
60
0
100
AcDbLine
10
0
20
-9.99125
30
0
11
63.439777
21
-9.99125
31
0
39
0
210
0
220
0
230
1
0
LINE
5
55
100
AcDbEntity
8
1
62
256
6
ByLayer
370
-1
48
1
60
0
100
AcDbLine
10
63.439777
20
-9.99125
30
0
11
63.514777
21
-9.91625
31
0
39
0
210
0
220
0
230
1
0
LINE
5
56
100
AcDbEntity
8
1
62
256
6
ByLayer
370
-1
48
1
60
0
100
AcDbLine
10
66.312612
20
9.91625
30
0
11
65.164777
21
9.91625
31
0
39
0
210
0
220
0
230
1
0
LINE
5
57
100
AcDbEntity
8
1
62
256
6
ByLayer
370
-1
48
1
60
0
100
AcDbLine
10
63.514777
20
-9.91625
30
0
11
64.540845
21
-9.91625
31
0
39
0
210
0
220
0
230
1
0
LINE
5
58
100
AcDbEntity
8
1
62
256
6
ByLayer
370
-1
48
1
60
0
100
AcDbLine
10
66.859192
20
10.238615
30
0
11
66.312612
21
9.91625
31
0
39
0
210
0
220
0
230
1
0
LINE
5
59
100
AcDbEntity
8
81
62
256
6
ByLayer
370
-1
48
1
60
0
100
AcDbLine
10
79.93
20
12.9
30
0
11
89.93
21
12.9
31
0
39
0
210
0
220
0
230
1
0
LINE
5
5A
100
AcDbEntity
8
SK4
62
256
6
ByLayer
370
-1
48
0.05
60
0
100
AcDbLine
10
-176.32
20
0
30
0
11
84.256695
21
0
31
0
39
0
210
0
220
0
230
1
0
LINE
5
5C
100
AcDbEntity
8
4
62
256
6
ByLayer
370
-1
48
0.05
60
0
100
AcDbLine
10
0
20
0
30
0
11
84.256695
21
0
31
0
39
0
210
0
220
0
230
1
0
LINE
5
5E
100
AcDbEntity
8
1
62
256
6
ByLayer
370
-1
48
1
60
0
100
AcDbLine
10
65.047388
20
-9.540355
30
0
11
72.620369
21
-3.920597
31
0
39
0
210
0
220
0
230
1
0
LINE
5
5F
100
AcDbEntity
8
1
62
256
6
ByLayer
370
-1
48
1
60
0
100
AcDbLine
10
71.071851
20
8.956327
30
0
11
71.074321
21
9.097846
31
0
39
0
210
0
220
0
230
1
0
LINE
5
60
100
AcDbEntity
8
1
62
256
6
ByLayer
370
-1
48
1
60
0
100
AcDbLine
10
76.138685
20
11.598346
30
0
11
76.138685
21
11.598341
31
0
39
0
210
0
220
0
230
1
0
LINE
5
61
100
AcDbEntity
8
1
62
256
6
ByLayer
370
-1
48
1
60
0
100
AcDbLine
10
52.357931
20
4.338787
30
0
11
0
21
4.338787
31
0
39
0
210
0
220
0
230
1
0
LINE
5
62
100
AcDbEntity
8
1
62
256
6
ByLayer
370
-1
48
1
60
0
100
AcDbLine
10
0
20
-4.338787
30
0
11
0
21
4.338787
31
0
39
0
210
0
220
0
230
1
0
LINE
5
63
100
AcDbEntity
8
1
62
256
6
ByLayer
370
-1
48
1
60
0
100
AcDbLine
10
63.757277
20
8.50875
30
0
11
65.162166
21
9.913638
31
0
39
0
210
0
220
0
230
1
0
LINE
5
64
100
AcDbEntity
8
1
62
256
6
ByLayer
370
-1
48
1
60
0
100
AcDbLine
10
79.256695
20
1.934298
30
0
11
71.168091
21
6.788932
31
0
39
0
210
0
220
0
230
1
0
LINE
5
65
100
AcDbEntity
8
1
62
256
6
ByLayer
370
-1
48
1
60
0
100
AcDbLine
10
0
20
8.50875
30
0
11
0
21
4.338787
31
0
39
0
210
0
220
0
230
1
0
LINE
5
66
100
AcDbEntity
8
1
62
256
6
ByLayer
370
-1
48
1
60
0
100
AcDbLine
10
72.892572
20
9.696214
30
0
11
72.892572
21
9.69621
31
0
39
0
210
0
220
0
230
1
0
LINE
5
67
100
AcDbEntity
8
1
62
256
6
ByLayer
370
-1
48
1
60
0
100
AcDbLine
10
79.256695
20
1.934293
30
0
11
79.256695
21
2.51115
31
0
39
0
210
0
220
0
230
1
0
LINE
5
68
100
AcDbEntity
8
1
62
256
6
ByLayer
370
-1
48
1
60
0
100
AcDbLine
10
72.892572
20
9.696214
30
0
11
72.78514
21
9.760693
31
0
39
0
210
0
220
0
230
1
0
LINE
5
69
100
AcDbEntity
8
1
62
256
6
ByLayer
370
-1
48
1
60
0
100
AcDbLine
10
72.890102
20
9.554696
30
0
11
72.892572
21
9.69621
31
0
39
0
210
0
220
0
230
1
0
LINE
5
6A
100
AcDbEntity
8
1
62
256
6
ByLayer
370
-1
48
1
60
0
100
AcDbLine
10
63.439777
20
-9.99125
30
0
11
63.439777
21
-9.381572
31
0
39
0
210
0
220
0
230
1
0
LINE
5
6B
100
AcDbEntity
8
1
62
256
6
ByLayer
370
-1
48
1
60
0
100
AcDbLine
10
79.256695
20
1.004088
30
0
11
79.256695
21
1.934298
31
0
39
0
210
0
220
0
230
1
0
LINE
5
6C
100
AcDbEntity
8
1
62
256
6
ByLayer
370
-1
48
1
60
0
100
AcDbLine
10
64.540845
20
-9.91625
30
0
11
65.047388
21
-9.540355
31
0
39
0
210
0
220
0
230
1
0
LINE
5
6D
100
AcDbEntity
8
1
62
256
6
ByLayer
370
-1
48
1
60
0
100
AcDbLine
10
68.55416
20
11.237401
30
0
11
72.620369
21
-3.920597
31
0
39
0
210
0
220
0
230
1
0
LINE
5
6E
100
AcDbEntity
8
1
62
256
6
ByLayer
370
-1
48
1
60
0
100
AcDbLine
10
76.138685
20
11.598346
30
0
11
72.78514
21
9.760693
31
0
39
0
210
0
220
0
230
1
0
LINE
5
6F
100
AcDbEntity
8
1
62
256
6
ByLayer
370
-1
48
1
60
0
100
AcDbLine
10
71.174855
20
9.127561
30
0
11
71.177325
21
9.26908
31
0
39
0
210
0
220
0
230
1
0
LINE
5
70
100
AcDbEntity
8
1
62
256
6
ByLayer
370
-1
48
1
60
0
100
AcDbLine
10
71.074321
20
9.097846
30
0
11
71.177325
21
9.26908
31
0
39
0
210
0
220
0
230
1
0
LINE
5
71
100
AcDbEntity
8
1
62
256
6
ByLayer
370
-1
48
1
60
0
100
AcDbLine
10
65.162166
20
9.913638
30
0
11
65.164777
21
9.91625
31
0
39
0
210
0
220
0
230
1
0
LINE
5
72
100
AcDbEntity
8
1
62
256
6
ByLayer
370
-1
48
1
60
0
100
AcDbLine
10
76.138685
20
11.598346
30
0
11
76.149518
21
12.218968
31
0
39
0
210
0
220
0
230
1
0
LINE
5
73
100
AcDbEntity
8
1
62
256
6
ByLayer
370
-1
48
1
60
0
100
AcDbLine
10
72.620369
20
-3.920597
30
0
11
79.256695
21
1.004088
31
0
39
0
210
0
220
0
230
1
0
LINE
5
74
100
AcDbEntity
8
1
62
256
6
ByLayer
370
-1
48
1
60
0
100
AcDbLine
10
70.966991
20
8.73559
30
0
11
70.969461
21
8.877108
31
0
39
0
210
0
220
0
230
1
0
LINE
5
75
100
AcDbEntity
8
1
62
256
6
ByLayer
370
-1
48
1
60
0
100
AcDbLine
10
66.312612
20
9.91625
30
0
11
66.312612
21
9.916011
31
0
39
0
210
0
220
0
230
1
0
LINE
5
76
100
AcDbEntity
8
1
62
256
6
ByLayer
370
-1
48
1
60
0
100
AcDbLine
10
0
20
8.50875
30
0
11
54.648308
21
8.50875
31
0
39
0
210
0
220
0
230
1
0
LINE
5
77
100
AcDbEntity
8
1
62
256
6
ByLayer
370
-1
48
1
60
0
100
AcDbLine
10
0
20
-9.99125
30
0
11
0
21
-4.338787
31
0
39
0
210
0
220
0
230
1
0
LINE
5
78
100
AcDbEntity
8
1
62
256
6
ByLayer
370
-1
48
1
60
0
100
AcDbLine
10
54.648308
20
8.50875
30
0
11
63.757277
21
8.50875
31
0
39
0
210
0
220
0
230
1
0
LINE
5
79
100
AcDbEntity
8
1
62
256
6
ByLayer
370
-1
48
1
60
0
100
AcDbLine
10
73.12915
20
9.411223
30
0
11
72.890102
21
9.554696
31
0
39
0
210
0
220
0
230
1
0
LINE
5
7A
100
AcDbEntity
8
1
62
256
6
ByLayer
370
-1
48
1
60
0
100
AcDbLine
10
0
20
-4.338787
30
0
11
55.008875
21
-4.338787
31
0
39
0
210
0
220
0
230
1
0
LINE
5
7B
100
AcDbEntity
8
1
62
256
6
ByLayer
370
-1
48
1
60
0
100
AcDbLine
10
71.071851
20
8.956327
30
0
11
71.174855
21
9.127561
31
0
39
0
210
0
220
0
230
1
0
LINE
5
7C
100
AcDbEntity
8
1
62
256
6
ByLayer
370
-1
48
1
60
0
100
AcDbLine
10
72.78514
20
9.760688
30
0
11
76.138685
21
11.598341
31
0
39
0
210
0
220
0
230
1
0
LINE
5
7D
100
AcDbEntity
8
1
62
256
6
ByLayer
370
-1
48
1
60
0
100
AcDbLine
10
77.150867
20
12.287545
30
0
11
77.139416
21
11.63154
31
0
39
0
210
0
220
0
230
1
0
LINE
5
7E
100
AcDbEntity
8
1
62
256
6
ByLayer
370
-1
48
1
60
0
100
AcDbLine
10
63.514777
20
-9.91625
30
0
11
63.514777
21
-9.320085
31
0
39
0
210
0
220
0
230
1
0
LINE
5
7F
100
AcDbEntity
8
1
62
256
6
ByLayer
370
-1
48
1
60
0
100
AcDbLine
10
73.253074
20
9.479843
30
0
11
72.892572
21
9.69621
31
0
39
0
210
0
220
0
230
1
0
LINE
5
80
100
AcDbEntity
8
SK1
62
256
6
ByLayer
370
-1
48
1
60
0
100
AcDbLine
10
-169.32
20
8.50875
30
0
11
0
21
8.50875
31
0
39
0
210
0
220
0
230
1
0
LINE
5
81
100
AcDbEntity
8
1
62
256
6
ByLayer
370
-1
48
1
60
0
100
AcDbLine
10
70.911739
20
7.503664
30
0
11
79.160963
21
2.552629
31
0
39
0
210
0
220
0
230
1
0
LINE
5
82
100
AcDbEntity
8
1
62
256
6
ByLayer
370
-1
48
1
60
0
100
AcDbLine
10
79.340709
20
12.850301
30
0
11
70.923722
21
8.190176
31
0
39
0
210
0
220
0
230
1
0
LINE
5
83
100
AcDbEntity
8
1
62
256
6
ByLayer
370
-1
48
1
60
0
100
AcDbLine
10
79.762176
20
2.885495
30
0
11
79.92994
21
12.496655
31
0
39
0
210
0
220
0
230
1
0
LINE
5
84
100
AcDbEntity
8
1
62
256
6
ByLayer
370
-1
48
1
60
0
100
AcDbLine
10
77.262063
20
7.000165
30
0
11
77.262843
21
7.044861
31
0
39
0
210
0
220
0
230
1
0
LINE
5
85
100
AcDbEntity
8
1
62
256
6
ByLayer
370
-1
48
1
60
0
100
AcDbLine
10
77.573389
20
7.862888
30
0
11
77.574169
21
7.907599
31
0
39
0
210
0
220
0
230
1
0
LINE
5
86
100
AcDbEntity
8
1
62
256
6
ByLayer
370
-1
48
1
60
0
100
AcDbLine
10
76.981443
20
8.561955
30
0
11
76.982224
21
8.606666
31
0
39
0
210
0
220
0
230
1
0
LINE
5
87
100
AcDbEntity
8
1
62
256
6
ByLayer
370
-1
48
1
60
0
100
AcDbLine
10
76.391038
20
8.572514
30
0
11
76.391818
21
8.617225
31
0
39
0
210
0
220
0
230
1
0
LINE
5
88
100
AcDbEntity
8
1
62
256
6
ByLayer
370
-1
48
1
60
0
100
AcDbLine
10
75.774596
20
7.892916
30
0
11
75.775376
21
7.937611
31
0
39
0
210
0
220
0
230
1
0
LINE
5
89
100
AcDbEntity
8
1
62
256
6
ByLayer
370
-1
48
1
60
0
100
AcDbLine
10
76.05458
20
7.021138
30
0
11
76.05536
21
7.065849
31
0
39
0
210
0
220
0
230
1
0
LINE
5
8A
100
AcDbEntity
8
1
62
256
6
ByLayer
370
-1
48
1
60
0
100
AcDbLine
10
76.044548
20
8.108591
30
0
11
76.045246
21
8.148613
31
0
39
0
210
0
220
0
230
1
0
LINE
5
8B
100
AcDbEntity
8
SK1
62
256
6
ByLayer
370
-1
48
1
60
0
100
AcDbLine
10
-169.32
20
-4.338787
30
0
11
0
21
-4.338787
31
0
39
0
210
0
220
0
230
1
0
LINE
5
8C
100
AcDbEntity
8
SK1
62
256
6
ByLayer
370
-1
48
1
60
0
100
AcDbLine
10
0
20
8.50875
30
0
11
0
21
4.338787
31
0
39
0
210
0
220
0
230
1
0
LINE
5
8D
100
AcDbEntity
8
SK1
62
256
6
ByLayer
370
-1
48
1
60
0
100
AcDbLine
10
0
20
-4.338787
30
0
11
0
21
4.338787
31
0
39
0
210
0
220
0
230
1
0
LINE
5
8E
100
AcDbEntity
8
SK1
62
256
6
ByLayer
370
-1
48
1
60
0
100
AcDbLine
10
-169.32
20
4.338787
30
0
11
-169.32
21
8.50875
31
0
39
0
210
0
220
0
230
1
0
LINE
5
8F
100
AcDbEntity
8
SK1
62
256
6
ByLayer
370
-1
48
1
60
0
100
AcDbLine
10
0
20
-9.99125
30
0
11
0
21
-4.338787
31
0
39
0
210
0
220
0
230
1
0
LINE
5
90
100
AcDbEntity
8
SK1
62
256
6
ByLayer
370
-1
48
1
60
0
100
AcDbLine
10
0
20
4.338787
30
0
11
-169.32
21
4.338787
31
0
39
0
210
0
220
0
230
1
0
LINE
5
91
100
AcDbEntity
8
SK1
62
256
6
ByLayer
370
-1
48
1
60
0
100
AcDbLine
10
-169.32
20
-9.99125
30
0
11
-169.32
21
-4.338787
31
0
39
0
210
0
220
0
230
1
0
LINE
5
92
100
AcDbEntity
8
SK1
62
256
6
ByLayer
370
-1
48
1
60
0
100
AcDbLine
10
-171.32
20
-7.99125
30
0
11
-171.32
21
7.99125
31
0
39
0
210
0
220
0
230
1
0
LINE
5
93
100
AcDbEntity
8
2
62
256
6
ByLayer
370
-1
48
1
60
1
100
AcDbLine
10
79.93
20
0
30
0
11
79.931
21
0.001
31
0
39
0
210
0
220
0
230
1
0
MTEXT
5
E1
100
AcDbEntity
8
SK6
62
256
6
ByLayer
370
-1
48
1
60
0
100
AcDbMText
10
-42.32
20
-22.163392
30
0
210
0
220
0
230
1
1
\W00.744;\fsimplex.shx,bigfont.shx;A20S-STFCR 11-B1 
40
3.5
41
0
44
1.084337
50
0
71
7
72
5
7
DEFAULT
0
DIMENSION
5
114
100
AcDbEntity
8
2
62
256
6
ByLayer
370
-3
48
1
60
0
100
AcDbDimension
2
DimnDraft3D1
10
92.18
20
0
30
0
11
92.18
21
23.155
31
0
70
32
71
5
72
1
41
1
210
0
220
0
230
1
3
Standard
100
AcDbAlignedDimension
13
81.93
23
12.9
33
0
14
81.93
24
0
34
0
50
90
100
AcDbRotatedDimension
1001
ACAD
1000
DSTYLE
1002
{
1070
    74
1070
     0
1070
   279
1070
     0
1070
   172
1070
     1
1070
   173
1070
     1
1070
   340
1005
E2
1070
    77
1070
     1
1070
    73
1070
     0
1070
   171
1070
     4
1070
   274
1070
     4
1070
   177
1070
     2
1070
   176
1070
     2
1070
   178
1070
     7
1070
    78
1070
     8
1070
    41
1041
3.175
1070
   147
1041
2.25
1070
    42
1041
2.0
1070
    44
1041
2.0
1070
   140
1041
4.5
1070
   343
1005
115
1070
   344
1005
115
1002
}
0
DIMENSION
5
12A
100
AcDbEntity
8
SK2
62
256
6
ByLayer
370
-3
48
1
60
0
100
AcDbDimension
2
DimnDraft3D2
10
-181.07
20
9.99125
30
0
11
-181.07
21
-4.784211
31
0
70
32
71
5
72
1
41
1
210
0
220
0
230
1
3
Standard
100
AcDbAlignedDimension
13
-173.32
23
-9.99125
33
0
14
-173.32
24
9.99125
34
0
50
90
100
AcDbRotatedDimension
1001
ACAD
1000
DSTYLE
1002
{
1070
    74
1070
     0
1070
   279
1070
     0
1070
   172
1070
     1
1070
   173
1070
     1
1070
   340
1005
E2
1070
    77
1070
     1
1070
    73
1070
     0
1070
   171
1070
     4
1070
   274
1070
     4
1070
   177
1070
     2
1070
   176
1070
     2
1070
   178
1070
     7
1070
    78
1070
     8
1070
    41
1041
3.175
1070
   147
1041
2.25
1070
    42
1041
2.0
1070
    44
1041
2.0
1070
   140
1041
4.5
1070
   343
1005
115
1070
   344
1005
115
1002
}
0
DIMENSION
5
138
100
AcDbEntity
8
SK2
62
256
6
ByLayer
370
-3
48
1
60
0
100
AcDbDimension
2
DimnDraft3D3
10
-171.32
20
25.65
30
0
11
-52.510132
21
25.65
31
0
70
32
71
5
72
1
41
1
210
0
220
0
230
1
3
Standard
100
AcDbAlignedDimension
13
79.93
23
14.9
33
0
14
-171.32
24
11.99125
34
0
50
0
100
AcDbRotatedDimension
1001
ACAD
1000
DSTYLE
1002
{
1070
   279
1070
     0
1070
   172
1070
     1
1070
   173
1070
     1
1070
   340
1005
E2
1070
    77
1070
     1
1070
    73
1070
     0
1070
   171
1070
     4
1070
   274
1070
     4
1070
   177
1070
     2
1070
   176
1070
     2
1070
   178
1070
     7
1070
    78
1070
     8
1070
    41
1041
3.175
1070
   147
1041
2.25
1070
    42
1041
2.0
1070
    44
1041
2.0
1070
   140
1041
4.5
1070
   343
1005
115
1070
   344
1005
115
1002
}
0
DIMENSION
5
146
100
AcDbEntity
8
2
62
256
6
ByLayer
370
-3
48
1
60
0
100
AcDbDimension
2
DimnDraft3D4
10
128.631237
20
0
30
0
11
106.875984
21
-35.936736
31
0
70
34
71
5
72
1
41
1
210
0
220
0
230
1
3
Standard
100
AcDb2LineAngularDimension
13
79.703119
23
-0.09802
33
0
14
78.850946
24
-48.918955
34
0
15
81.93
25
0
35
0
16
109.441891
26
-30.260654
36
0
40
0
0
ENDSEC
0
SECTION
2
OBJECTS
0
DICTIONARY
5
177
330
0
100
AcDbDictionary
280
0
281
1
3
ACAD_GROUP
350
178
3
ACAD_MLINESTYLE
350
179
0
DICTIONARY
5
178
330
0
100
AcDbDictionary
280
0
281
1
0
DICTIONARY
5
179
330
0
100
AcDbDictionary
280
0
281
1
3
Standard
350
18
0
MLINESTYLE
5
18
330
179
100
AcDbMlineStyle
2
Standard
70
0
3

62
256
51
90
52
90
71
2
49
-0.5
62
256
6
ByLayer
49
0.5
62
256
6
ByLayer
0
RASTERVARIABLES
5
165
330

100
AcDbRasterVariables
90
0
70
1
71
1
72
1
0
ENDSEC
0
EOF
