0
SECTION
2
HEADER
9
$ACADVER
1
AC1015
9
$DWGCODEPAGE
3
ANSI_1252
9
$HANDSEED
5
181
9
$ANGBASE
50
0
9
$ANGDIR
70
0
9
$ATTMODE
70
1
9
$AUNITS
70
0
9
$AUPREC
70
0
9
$CECOLOR
62
256
9
$CELTSCALE
40
1
9
$CELTYPE
6
ByLayer
9
$CELWEIGHT
370
-1
9
$CLAYER
8
0
9
$CMLJUST
70
0
9
$CMLSCALE
40
1
9
$CMLSTYLE
2
Standard
9
$DIMSTYLE
2
Standard
9
$TEXTSIZE
40
0.2
9
$TEXTSTYLE
7
Standard
9
$LUNITS
70
2
9
$LUPREC
70
4
9
$EXTNAMES
290
1
9
$INSUNITS
70
4
9
$LTSCALE
40
1
9
$LWDISPLAY
290
0
9
$PDMODE
70
0
9
$PDSIZE
40
0
9
$PLINEGEN
70
0
0
ENDSEC
0
SECTION
2
CLASSES
0
CLASS
1
RASTERVARIABLES
2
AcDbRasterVariables
3
ISM
90
0
280
0
281
0
0
ENDSEC
0
SECTION
2
TABLES
0
TABLE
2
VPORT
5
177
100
AcDbSymbolTable
0
VPORT
5
1
100
AcDbSymbolTableRecord
100
AcDbViewportTableRecord
2
*Active
70
0
10
0
20
0
11
1
21
1
12
-1
22
1
13
0
23
0
14
0.5
24
0.5
15
10
25
10
16
0
26
0
36
1
17
0
27
0
37
0
0
ENDTAB
0
TABLE
2
LTYPE
5
178
100
AcDbSymbolTable
0
LTYPE
5
14
100
AcDbSymbolTableRecord
100
AcDbLinetypeTableRecord
70
0
2
ByBlock
3

72
65
73
0
40
0
0
LTYPE
5
15
100
AcDbSymbolTableRecord
100
AcDbLinetypeTableRecord
70
0
2
ByLayer
3

72
65
73
0
40
0
0
LTYPE
5
16
100
AcDbSymbolTableRecord
100
AcDbLinetypeTableRecord
70
0
2
CONTINUOUS
3
Solid line
72
65
73
0
40
0
0
LTYPE
5
3B
100
AcDbSymbolTableRecord
100
AcDbLinetypeTableRecord
70
0
2
DASHED
3
__ __ __ __ __ __ __ __ __
72
65
73
2
40
25.72
49
12.86
74
0
49
-12.86
74
0
0
LTYPE
5
3C
100
AcDbSymbolTableRecord
100
AcDbLinetypeTableRecord
70
0
2
HIDDEN
3
_ _ _ _ _ _ _ _ _ _ _ _ _ _ _
72
65
73
2
40
0.5
49
0.25
74
0
49
-0.25
74
0
0
LTYPE
5
3D
100
AcDbSymbolTableRecord
100
AcDbLinetypeTableRecord
70
0
2
PHANTOM
3
____ _ _ ____ _ _ _____ _ _ ____
72
65
73
6
40
50.5
49
18
74
0
49
-6.5
74
0
49
6.5
74
0
49
-6.5
74
0
49
6.5
74
0
49
-6.5
74
0
0
LTYPE
5
3E
100
AcDbSymbolTableRecord
100
AcDbLinetypeTableRecord
70
0
2
CENTER
3
____ _ ____ _ ____ _ ____
72
65
73
4
40
47.5
49
22
74
0
49
-8.5
74
0
49
8.5
74
0
49
-8.5
74
0
0
LTYPE
5
3F
100
AcDbSymbolTableRecord
100
AcDbLinetypeTableRecord
70
0
2
DOT
3
.........................
72
65
73
2
40
10
49
0
74
0
49
-10
74
0
0
LTYPE
5
40
100
AcDbSymbolTableRecord
100
AcDbLinetypeTableRecord
70
0
2
DASHDOT
3
_._._._._._._._._._._._._._._._.
72
65
73
4
40
70
49
31
74
0
49
-13
74
0
49
13
74
0
49
-13
74
0
0
ENDTAB
0
TABLE
2
LAYER
5
179
100
AcDbSymbolTable
0
LAYER
5
10
100
AcDbSymbolTableRecord
100
AcDbLayerTableRecord
2
0
70
0
62
7
6
CONTINUOUS
290
1
370
-3
390
0
0
LAYER
5
42
100
AcDbSymbolTableRecord
100
AcDbLayerTableRecord
2
80
70
0
62
-6
6
CONTINUOUS
290
1
370
-3
390
0
0
LAYER
5
44
100
AcDbSymbolTableRecord
100
AcDbLayerTableRecord
2
81
70
0
62
-3
6
CONTINUOUS
290
1
370
-3
390
0
0
LAYER
5
46
100
AcDbSymbolTableRecord
100
AcDbLayerTableRecord
2
1
70
0
62
4
6
CONTINUOUS
290
1
370
-3
390
0
0
LAYER
5
48
100
AcDbSymbolTableRecord
100
AcDbLayerTableRecord
2
2
70
0
62
7
6
CONTINUOUS
290
1
370
-3
390
0
0
LAYER
5
4E
100
AcDbSymbolTableRecord
100
AcDbLayerTableRecord
2
4
70
0
62
-2
6
CENTER
290
1
370
-3
390
0
0
LAYER
5
163
100
AcDbSymbolTableRecord
100
AcDbLayerTableRecord
2
SK4
70
0
62
2
6
CENTER
290
1
370
-3
390
0
0
LAYER
5
164
100
AcDbSymbolTableRecord
100
AcDbLayerTableRecord
2
SK1
70
0
62
4
6
CONTINUOUS
290
1
370
-3
390
0
0
LAYER
5
165
100
AcDbSymbolTableRecord
100
AcDbLayerTableRecord
2
SK6
70
0
62
5
6
CONTINUOUS
290
1
370
-3
390
0
0
LAYER
5
166
100
AcDbSymbolTableRecord
100
AcDbLayerTableRecord
2
SK2
70
0
62
7
6
CONTINUOUS
290
1
370
-3
390
0
0
ENDTAB
0
TABLE
2
STYLE
5
17a
100
AcDbSymbolTable
0
STYLE
5
11
100
AcDbSymbolTableRecord
100
AcDbTextStyleTableRecord
2
Standard
3
txt
70
0
71
0
40
0
41
1
42
0
50
0
0
STYLE
5
DF
100
AcDbSymbolTableRecord
100
AcDbTextStyleTableRecord
2
DEFAULT
3
simplex.shx
70
0
71
0
40
0
41
1
42
0
50
0
0
STYLE
5
102
100
AcDbSymbolTableRecord
100
AcDbTextStyleTableRecord
2
DWGDirectTextStyle
3
SIMPLEX
70
0
71
0
40
0
41
1
42
0
50
0
0
ENDTAB
0
TABLE
2
DIMSTYLE
5
17b
100
AcDbSymbolTable
100
AcDbDimStyleTable
0
DIMSTYLE
105
27
100
AcDbSymbolTableRecord
100
AcDbDimStyleTableRecord
2
Standard
70
0
3
<>
41
0.18
42
0.0625
44
0.18
140
0.18
147
0.09
73
0
74
0
77
1
271
2
275
0
278
52
280
0
340
11
0
ENDTAB
0
TABLE
2
VIEW
5
17c
100
AcDbSymbolTable
0
ENDTAB
0
TABLE
2
UCS
5
17d
100
AcDbSymbolTable
0
ENDTAB
0
TABLE
2
APPID
5
17e
100
AcDbSymbolTable
0
APPID
5
12
100
AcDbSymbolTableRecord
100
AcDbRegAppTableRecord
2
ACAD
70
0
0
ENDTAB
0
TABLE
2
BLOCK_RECORD
5
17f
100
AcDbSymbolTable
0
BLOCK_RECORD
5
1F
100
AcDbSymbolTableRecord
100
AcDbBlockTableRecord
2
*Model_Space
340
0
70
0
0
BLOCK_RECORD
5
1B
100
AcDbSymbolTableRecord
100
AcDbBlockTableRecord
2
*Paper_Space
340
0
70
0
0
BLOCK_RECORD
5
23
100
AcDbSymbolTableRecord
100
AcDbBlockTableRecord
2
*Paper_Space0
340
0
70
0
0
BLOCK_RECORD
5
104
100
AcDbSymbolTableRecord
100
AcDbBlockTableRecord
2
DimnDraft3D1
340
0
70
0
0
BLOCK_RECORD
5
112
100
AcDbSymbolTableRecord
100
AcDbBlockTableRecord
2
_CLOSED
340
0
70
0
0
BLOCK_RECORD
5
119
100
AcDbSymbolTableRecord
100
AcDbBlockTableRecord
2
DimnDraft3D2
340
0
70
0
0
BLOCK_RECORD
5
128
100
AcDbSymbolTableRecord
100
AcDbBlockTableRecord
2
DimnDraft3D3
340
0
70
0
0
BLOCK_RECORD
5
136
100
AcDbSymbolTableRecord
100
AcDbBlockTableRecord
2
DimnDraft3D4
340
0
70
0
0
ENDTAB
0
ENDSEC
0
SECTION
2
BLOCKS
0
BLOCK
5
20
100
AcDbEntity
8
0
100
AcDbBlockBegin
2
*Model_Space
70
0
10
0
20
0
30
0
3
*Model_Space
0
ENDBLK
5
21
100
AcDbEntity
8
0
100
AcDbBlockEnd
0
BLOCK
5
1C
100
AcDbEntity
8
0
100
AcDbBlockBegin
2
*Paper_Space
70
0
10
0
20
0
30
0
3
*Paper_Space
0
ENDBLK
5
1D
100
AcDbEntity
8
0
100
AcDbBlockEnd
0
BLOCK
5
24
100
AcDbEntity
8
0
100
AcDbBlockBegin
2
*Paper_Space0
70
0
10
0
20
0
30
0
3
*Paper_Space0
0
ENDBLK
5
25
100
AcDbEntity
8
0
100
AcDbBlockEnd
0
BLOCK
5
10F
100
AcDbEntity
8
0
100
AcDbBlockBegin
2
DimnDraft3D1
70
0
10
0
20
0
30
0
3
DimnDraft3D1
0
MTEXT
5
105
100
AcDbEntity
8
2
62
256
6
ByLayer
370
-1
48
1
60
0
100
AcDbMText
10
91.055
20
24.28
30
0
210
0
220
0
230
1
1
\W01.000;\fsimplex.shx,bigfont.shx;13.0 
40
4.5
41
0
44
1.084337
50
90
71
7
72
5
7
DEFAULT
0
LINE
5
106
100
AcDbEntity
8
2
62
256
6
ByLayer
370
-1
48
1
60
0
100
AcDbLine
10
81.93
20
12.9
30
0
11
94.18
21
12.9
31
0
39
0
210
0
220
0
230
1
0
LINE
5
107
100
AcDbEntity
8
2
62
256
6
ByLayer
370
-1
48
1
60
0
100
AcDbLine
10
81.93
20
0
30
0
11
94.18
21
0
31
0
39
0
210
0
220
0
230
1
0
LINE
5
108
100
AcDbEntity
8
2
62
256
6
ByLayer
370
-1
48
1
60
0
100
AcDbLine
10
92.18
20
0
30
0
11
92.18
21
32.356316
31
0
39
0
210
0
220
0
230
1
0
LINE
5
109
100
AcDbEntity
8
2
62
256
6
ByLayer
370
-1
48
1
60
0
100
AcDbLine
10
92.18
20
12.9
30
0
11
92.597997
21
9.725002
31
0
39
0
210
0
220
0
230
1
0
LINE
5
10A
100
AcDbEntity
8
2
62
256
6
ByLayer
370
-1
48
1
60
0
100
AcDbLine
10
92.18
20
12.9
30
0
11
91.762003
21
9.724998
31
0
39
0
210
0
220
0
230
1
0
LINE
5
10B
100
AcDbEntity
8
2
62
256
6
ByLayer
370
-1
48
1
60
0
100
AcDbLine
10
92.597997
20
9.725002
30
0
11
91.762003
21
9.724998
31
0
39
0
210
0
220
0
230
1
0
LINE
5
10C
100
AcDbEntity
8
2
62
256
6
ByLayer
370
-1
48
1
60
0
100
AcDbLine
10
92.18
20
0
30
0
11
91.762003
21
3.174998
31
0
39
0
210
0
220
0
230
1
0
LINE
5
10D
100
AcDbEntity
8
2
62
256
6
ByLayer
370
-1
48
1
60
0
100
AcDbLine
10
92.18
20
0
30
0
11
92.597997
21
3.175002
31
0
39
0
210
0
220
0
230
1
0
LINE
5
10E
100
AcDbEntity
8
2
62
256
6
ByLayer
370
-1
48
1
60
0
100
AcDbLine
10
91.762003
20
3.174998
30
0
11
92.597997
21
3.175002
31
0
39
0
210
0
220
0
230
1
0
ENDBLK
5
110
100
AcDbEntity
8
0
100
AcDbBlockEnd
0
BLOCK
5
113
100
AcDbEntity
8
0
100
AcDbBlockBegin
2
_CLOSED
70
0
10
0
20
0
30
0
3
_CLOSED
0
LINE
5
115
100
AcDbEntity
8
0
62
256
6
ByLayer
370
-2
48
1
60
0
100
AcDbLine
10
-1
20
0.166667
30
0
11
0
21
0
31
0
39
0
210
0
220
0
230
1
0
LINE
5
116
100
AcDbEntity
8
0
62
256
6
ByLayer
370
-2
48
1
60
0
100
AcDbLine
10
0
20
0
30
0
11
-1
21
-0.166667
31
0
39
0
210
0
220
0
230
1
0
LINE
5
117
100
AcDbEntity
8
0
62
256
6
ByLayer
370
-2
48
1
60
0
100
AcDbLine
10
-1
20
0.166667
30
0
11
-1
21
-0.166667
31
0
39
0
210
0
220
0
230
1
0
LINE
5
118
100
AcDbEntity
8
0
62
256
6
ByLayer
370
-2
48
1
60
0
100
AcDbLine
10
0
20
0
30
0
11
-1
21
0
31
0
39
0
210
0
220
0
230
1
0
ENDBLK
5
114
100
AcDbEntity
8
0
100
AcDbBlockEnd
0
BLOCK
5
125
100
AcDbEntity
8
0
100
AcDbBlockBegin
2
DimnDraft3D2
70
0
10
0
20
0
30
0
3
DimnDraft3D2
0
MTEXT
5
11A
100
AcDbEntity
8
SK2
62
256
6
ByLayer
370
-1
48
1
60
0
100
AcDbMText
10
-182.195
20
-3.659211
30
0
210
0
220
0
230
1
1
\W01.000;\fsimplex.shx,bigfont.shx;%%c20 
40
4.5
41
0
44
1.084337
50
90
71
7
72
5
7
DEFAULT
0
LINE
5
11C
100
AcDbEntity
8
SK2
62
256
6
ByLayer
370
-1
48
1
60
0
100
AcDbLine
10
-173.32
20
-9.99125
30
0
11
-183.07
21
-9.99125
31
0
39
0
210
0
220
0
230
1
0
LINE
5
11D
100
AcDbEntity
8
SK2
62
256
6
ByLayer
370
-1
48
1
60
0
100
AcDbLine
10
-173.32
20
9.99125
30
0
11
-183.07
21
9.99125
31
0
39
0
210
0
220
0
230
1
0
LINE
5
11E
100
AcDbEntity
8
SK2
62
256
6
ByLayer
370
-1
48
1
60
0
100
AcDbLine
10
-181.07
20
-9.99125
30
0
11
-181.07
21
9.99125
31
0
39
0
210
0
220
0
230
1
0
LINE
5
11F
100
AcDbEntity
8
SK2
62
256
6
ByLayer
370
-1
48
1
60
0
100
AcDbLine
10
-181.07
20
-9.99125
30
0
11
-181.487997
21
-6.816252
31
0
39
0
210
0
220
0
230
1
0
LINE
5
120
100
AcDbEntity
8
SK2
62
256
6
ByLayer
370
-1
48
1
60
0
100
AcDbLine
10
-181.07
20
-9.99125
30
0
11
-180.652003
21
-6.816248
31
0
39
0
210
0
220
0
230
1
0
LINE
5
121
100
AcDbEntity
8
SK2
62
256
6
ByLayer
370
-1
48
1
60
0
100
AcDbLine
10
-181.487997
20
-6.816252
30
0
11
-180.652003
21
-6.816248
31
0
39
0
210
0
220
0
230
1
0
LINE
5
122
100
AcDbEntity
8
SK2
62
256
6
ByLayer
370
-1
48
1
60
0
100
AcDbLine
10
-181.07
20
9.99125
30
0
11
-180.652003
21
6.816252
31
0
39
0
210
0
220
0
230
1
0
LINE
5
123
100
AcDbEntity
8
SK2
62
256
6
ByLayer
370
-1
48
1
60
0
100
AcDbLine
10
-181.07
20
9.99125
30
0
11
-181.487997
21
6.816248
31
0
39
0
210
0
220
0
230
1
0
LINE
5
124
100
AcDbEntity
8
SK2
62
256
6
ByLayer
370
-1
48
1
60
0
100
AcDbLine
10
-180.652003
20
6.816252
30
0
11
-181.487997
21
6.816248
31
0
39
0
210
0
220
0
230
1
0
ENDBLK
5
126
100
AcDbEntity
8
0
100
AcDbBlockEnd
0
BLOCK
5
133
100
AcDbEntity
8
0
100
AcDbBlockBegin
2
DimnDraft3D3
70
0
10
0
20
0
30
0
3
DimnDraft3D3
0
MTEXT
5
129
100
AcDbEntity
8
SK2
62
256
6
ByLayer
370
-1
48
1
60
0
100
AcDbMText
10
-51.385132
20
26.775
30
0
210
0
220
0
230
1
1
\W01.000;\fsimplex.shx,bigfont.shx;250.0 
40
4.5
41
0
44
1.084337
50
0
71
7
72
5
7
DEFAULT
0
LINE
5
12A
100
AcDbEntity
8
SK2
62
256
6
ByLayer
370
-1
48
1
60
0
100
AcDbLine
10
79.93
20
14.9
30
0
11
79.93
21
27.65
31
0
39
0
210
0
220
0
230
1
0
LINE
5
12B
100
AcDbEntity
8
SK2
62
256
6
ByLayer
370
-1
48
1
60
0
100
AcDbLine
10
-171.32
20
11.99125
30
0
11
-171.32
21
27.65
31
0
39
0
210
0
220
0
230
1
0
LINE
5
12C
100
AcDbEntity
8
SK2
62
256
6
ByLayer
370
-1
48
1
60
0
100
AcDbLine
10
79.93
20
25.65
30
0
11
-171.32
21
25.65
31
0
39
0
210
0
220
0
230
1
0
LINE
5
12D
100
AcDbEntity
8
SK2
62
256
6
ByLayer
370
-1
48
1
60
0
100
AcDbLine
10
79.93
20
25.65
30
0
11
76.755002
21
25.232003
31
0
39
0
210
0
220
0
230
1
0
LINE
5
12E
100
AcDbEntity
8
SK2
62
256
6
ByLayer
370
-1
48
1
60
0
100
AcDbLine
10
79.93
20
25.65
30
0
11
76.754998
21
26.067997
31
0
39
0
210
0
220
0
230
1
0
LINE
5
12F
100
AcDbEntity
8
SK2
62
256
6
ByLayer
370
-1
48
1
60
0
100
AcDbLine
10
76.755002
20
25.232003
30
0
11
76.754998
21
26.067997
31
0
39
0
210
0
220
0
230
1
0
LINE
5
130
100
AcDbEntity
8
SK2
62
256
6
ByLayer
370
-1
48
1
60
0
100
AcDbLine
10
-171.32
20
25.65
30
0
11
-168.145002
21
26.067997
31
0
39
0
210
0
220
0
230
1
0
LINE
5
131
100
AcDbEntity
8
SK2
62
256
6
ByLayer
370
-1
48
1
60
0
100
AcDbLine
10
-171.32
20
25.65
30
0
11
-168.144998
21
25.232003
31
0
39
0
210
0
220
0
230
1
0
LINE
5
132
100
AcDbEntity
8
SK2
62
256
6
ByLayer
370
-1
48
1
60
0
100
AcDbLine
10
-168.145002
20
26.067997
30
0
11
-168.144998
21
25.232003
31
0
39
0
210
0
220
0
230
1
0
ENDBLK
5
134
100
AcDbEntity
8
0
100
AcDbBlockEnd
0
BLOCK
5
141
100
AcDbEntity
8
0
100
AcDbBlockBegin
2
DimnDraft3D4
70
0
10
0
20
0
30
0
3
DimnDraft3D4
0
MTEXT
5
137
100
AcDbEntity
8
2
62
256
6
ByLayer
370
-1
48
1
60
0
100
AcDbMText
10
116.529649
20
-32.044103
30
0
210
0
220
0
230
1
1
\W01.000;\fsimplex.shx,bigfont.shx;75%%d0' 
40
4.5
41
0
44
1.084337
50
52.5000000000002
71
7
72
5
7
DEFAULT
0
LINE
5
138
100
AcDbEntity
8
2
62
256
6
ByLayer
370
-1
48
1
60
0
100
AcDbLine
10
82.777009
20
2.274816
30
0
11
96.04963
21
-47.25928
31
0
39
0
210
0
220
0
230
1
0
LINE
5
139
100
AcDbEntity
8
2
62
256
6
ByLayer
370
-1
48
1
60
0
100
AcDbLine
10
81.93
20
0
30
0
11
132.312951
21
0
31
0
39
0
210
0
220
0
230
1
0
ARC
5
13A
100
AcDbEntity
8
2
62
256
6
ByLayer
370
-1
48
1
60
0
100
AcDbCircle
39
0
10
83.386545
20
0
30
0
40
46.9264068782928
210
0
220
0
230
1
100
AcDbArc
50
285
51
0
0
LINE
5
13B
100
AcDbEntity
8
2
62
256
6
ByLayer
370
-1
48
1
60
0
100
AcDbLine
10
95.531992
20
-45.327428
30
0
11
98.469477
21
-44.052077
31
0
39
0
210
0
220
0
230
1
0
LINE
5
13C
100
AcDbEntity
8
2
62
256
6
ByLayer
370
-1
48
1
60
0
100
AcDbLine
10
95.531992
20
-45.327428
30
0
11
98.699473
21
-44.85581
31
0
39
0
210
0
220
0
230
1
0
LINE
5
13D
100
AcDbEntity
8
2
62
256
6
ByLayer
370
-1
48
1
60
0
100
AcDbLine
10
98.469477
20
-44.052077
30
0
11
98.699473
21
-44.85581
31
0
39
0
210
0
220
0
230
1
0
LINE
5
13E
100
AcDbEntity
8
2
62
256
6
ByLayer
370
-1
48
1
60
0
100
AcDbLine
10
130.312951
20
0
30
0
11
130.677207
21
-3.181612
31
0
39
0
210
0
220
0
230
1
0
LINE
5
13F
100
AcDbEntity
8
2
62
256
6
ByLayer
370
-1
48
1
60
0
100
AcDbLine
10
130.312951
20
0
30
0
11
129.841333
21
-3.16748
31
0
39
0
210
0
220
0
230
1
0
LINE
5
140
100
AcDbEntity
8
2
62
256
6
ByLayer
370
-1
48
1
60
0
100
AcDbLine
10
130.677207
20
-3.181612
30
0
11
129.841333
21
-3.16748
31
0
39
0
210
0
220
0
230
1
0
ENDBLK
5
142
100
AcDbEntity
8
0
100
AcDbBlockEnd
0
ENDSEC
0
SECTION
2
ENTITIES
0
ELLIPSE
5
8A
100
AcDbEntity
8
1
62
256
6
ByLayer
370
-1
48
1
60
0
100
AcDbEllipse
10
73.215693
20
3.045492
30
0
11
-1.44888873943361
21
-0.388228567653781
31
0
210
0
220
0
230
1
40
0.99445
41
-0.00436332312998689
42
0.459149890369833
0
ELLIPSE
5
8B
100
AcDbEntity
8
1
62
256
6
ByLayer
370
-1
48
1
60
0
100
AcDbEllipse
10
72.984606
20
0.521605
30
0
11
1.4488887394336
21
0.388228567653782
31
0
210
0
220
0
230
1
40
0.99445
41
1.28572167034153
42
2.99298068285019
0
ELLIPSE
5
8C
100
AcDbEntity
8
1
62
256
6
ByLayer
370
-1
48
1
60
0
100
AcDbEllipse
10
72.984606
20
0.521605
30
0
11
1.4488887394336
21
0.388228567653782
31
0
210
0
220
0
230
1
40
0.99445
41
0.148563838009059
42
0.623827777476603
0
ELLIPSE
5
8D
100
AcDbEntity
8
1
62
256
6
ByLayer
370
-1
48
1
60
0
100
AcDbEllipse
10
73.178931
20
3.182692
30
0
11
1.59363031799318
21
0.427011956740026
31
0
210
0
220
0
230
1
40
0.99445
41
3.13722933045991
42
-2.69077804407226
0
ELLIPSE
5
8E
100
AcDbEntity
8
1
62
256
6
ByLayer
370
-1
48
1
60
0
100
AcDbEllipse
10
73.21762
20
3.042162
30
0
11
-1.4488887394336
21
-0.38822856765378
31
0
210
0
220
0
230
1
40
0.99445
41
-1.23805626467494
42
-0.0043633231299723
0
ELLIPSE
5
8F
100
AcDbEntity
8
1
62
256
6
ByLayer
370
-1
48
1
60
0
100
AcDbEllipse
10
72.870239
20
0.948427
30
0
11
1.4488887394336
21
0.388228567653782
31
0
210
0
220
0
230
1
40
0.99445
41
1.98855696349666
42
0.297703954947576
0
ELLIPSE
5
90
100
AcDbEntity
8
1
62
256
6
ByLayer
370
-1
48
1
60
0
100
AcDbEllipse
10
73.157715
20
3.265731
30
0
11
-1.4488887394336
21
-0.38822856765378
31
0
210
0
220
0
230
1
40
0.99445
41
-1.23805626467496
42
-0.00436332312999641
0
ELLIPSE
5
91
100
AcDbEntity
8
1
62
256
6
ByLayer
370
-1
48
1
60
0
100
AcDbEllipse
10
72.966907
20
0.587659
30
0
11
-1.4488887394336
21
-0.38822856765378
31
0
210
0
220
0
230
1
40
0.99445
41
-2.7374569101171
42
-2.57311634662866
0
ELLIPSE
5
92
100
AcDbEntity
8
1
62
256
6
ByLayer
370
-1
48
1
60
0
100
AcDbEllipse
10
72.966907
20
0.587659
30
0
11
-1.4488887394336
21
-0.38822856765378
31
0
210
0
220
0
230
1
40
0.99445
41
-1.84289296673084
42
-1.25335783941763
0
ELLIPSE
5
93
100
AcDbEntity
8
1
62
256
6
ByLayer
370
-1
48
1
60
0
100
AcDbEllipse
10
41.140219
20
110.725493
30
0
11
50.3667913535167
21
-186.927478090609
31
-4.86827200623925E-14
210
0
220
2.60436403249364E-16
230
-1
40
0.105207
41
0.936358883506885
42
0.993962378825399
0
ELLIPSE
5
94
100
AcDbEntity
8
1
62
256
6
ByLayer
370
-1
48
1
60
0
100
AcDbEllipse
10
73.120952
20
3.402931
30
0
11
1.59363031799317
21
0.427011956740024
31
0
210
0
220
0
230
1
40
0.99445
41
1.87232622213999
42
3.1372293304598
0
ELLIPSE
5
95
100
AcDbEntity
8
1
62
256
6
ByLayer
370
-1
48
1
60
0
100
AcDbEllipse
10
47.209153
20
0.000844
30
0
11
364.022231258264
21
1.00873012181191
31
0
210
0
220
0
230
-1
40
0.027097
41
-1.51274409576517
42
-1.50865226190963
0
ELLIPSE
5
96
100
AcDbEntity
8
1
62
256
6
ByLayer
370
-1
48
1
60
0
100
AcDbEllipse
10
76.551701
20
7.107096
30
0
11
-1.16538950941777
21
-0.312265177916192
31
0
210
0
220
0
230
1
40
0.99445
41
1.52768158209905
42
2.18389472987054
0
ELLIPSE
5
97
100
AcDbEntity
8
1
62
256
6
ByLayer
370
-1
48
1
60
0
100
AcDbEllipse
10
76.520288
20
7.224332
30
0
11
1.16538950941776
21
0.312265177916192
31
0
210
0
220
0
230
1
40
0.99445
41
2.28716185678023
42
2.42522712360451
0
ELLIPSE
5
98
100
AcDbEntity
8
1
62
256
6
ByLayer
370
-1
48
1
60
0
100
AcDbEllipse
10
76.512899
20
7.251908
30
0
11
1.61937464777361
21
0.433910129114374
31
0
210
0
220
0
230
1
40
0.99445
41
-2.35619449019232
42
-1.31178748667702
0
ELLIPSE
5
99
100
AcDbEntity
8
1
62
256
6
ByLayer
370
-1
48
1
60
0
100
AcDbEllipse
10
76.512899
20
7.251908
30
0
11
1.61937464777361
21
0.433910129114374
31
0
210
0
220
0
230
1
40
0.99445
41
2.88258381347199
42
-2.35619449019232
0
ELLIPSE
5
9A
100
AcDbEntity
8
1
62
256
6
ByLayer
370
-1
48
1
60
0
100
AcDbEllipse
10
76.551701
20
7.107096
30
0
11
-1.16538950941777
21
-0.312265177916192
31
0
210
0
220
0
230
1
40
0.99445
41
0.330183447473586
42
1.03132335779593
0
ELLIPSE
5
9B
100
AcDbEntity
8
1
62
256
6
ByLayer
370
-1
48
1
60
0
100
AcDbEllipse
10
76.520288
20
7.224332
30
0
11
1.16538950941776
21
0.312265177916192
31
0
210
0
220
0
230
1
40
0.99445
41
-0.854430796809069
42
-0.716365529985791
0
ELLIPSE
5
9C
100
AcDbEntity
8
1
62
256
6
ByLayer
370
-1
48
1
60
0
100
AcDbEllipse
10
76.551701
20
7.107096
30
0
11
1.16538950941777
21
0.312265177916194
31
0
210
0
220
0
230
1
40
0.99445
41
0.263194661639811
42
1.30760166515511
0
ELLIPSE
5
9D
100
AcDbEntity
8
1
62
256
6
ByLayer
370
-1
48
1
60
0
100
AcDbEllipse
10
76.551701
20
7.107096
30
0
11
-1.16538950941777
21
-0.312265177916192
31
0
210
0
220
0
230
1
40
0.99445
41
2.60491496408178
42
-2.87839799194998
0
ELLIPSE
5
9E
100
AcDbEntity
8
1
62
256
6
ByLayer
370
-1
48
1
60
0
100
AcDbEllipse
10
76.512899
20
7.251908
30
0
11
1.61937464777361
21
0.433910129114374
31
0
210
0
220
0
230
1
40
0.99445
41
-1.31178748667702
42
-0.259008840117766
0
ELLIPSE
5
9F
100
AcDbEntity
8
1
62
256
6
ByLayer
370
-1
48
1
60
0
100
AcDbEllipse
10
76.556966
20
8.989799
30
0
11
-0.662625116834301
21
-0.177549864940329
31
0
210
0
220
0
230
1
40
0.99445
41
1.30760166515503
42
2.09159230877589
0
ELLIPSE
5
A0
100
AcDbEntity
8
1
62
256
6
ByLayer
370
-1
48
1
60
0
100
AcDbEllipse
10
76.512899
20
7.251908
30
0
11
1.61937464777361
21
0.433910129114374
31
0
210
0
220
0
230
1
40
0.99445
41
1.82980516691268
42
2.88258381347199
0
ELLIPSE
5
A1
100
AcDbEntity
8
1
62
256
6
ByLayer
370
-1
48
1
60
0
100
AcDbEllipse
10
76.551701
20
7.107096
30
0
11
1.16538950941777
21
0.312265177916194
31
0
210
0
220
0
230
1
40
0.99445
41
2.28716185678017
42
2.42522712360454
0
ELLIPSE
5
A2
100
AcDbEntity
8
1
62
256
6
ByLayer
370
-1
48
1
60
0
100
AcDbEllipse
10
76.512899
20
7.251908
30
0
11
1.61937464777361
21
0.433910129114374
31
0
210
0
220
0
230
1
40
0.99445
41
-0.259008840117766
42
0.785398163397481
0
ELLIPSE
5
A3
100
AcDbEntity
8
1
62
256
6
ByLayer
370
-1
48
1
60
0
100
AcDbEllipse
10
74.921539
20
8.042233
30
0
11
-0.662625116834301
21
-0.177549864940329
31
0
210
0
220
0
230
1
40
0.99445
41
2.47780853140972
42
-3.13572948206598
0
ELLIPSE
5
A4
100
AcDbEntity
8
1
62
256
6
ByLayer
370
-1
48
1
60
0
100
AcDbEllipse
10
76.551701
20
7.107096
30
0
11
-1.16538950941777
21
-0.312265177916192
31
0
210
0
220
0
230
1
40
0.99445
41
-0.716365529985298
42
0.0796651415644599
0
ELLIPSE
5
A5
100
AcDbEntity
8
1
62
256
6
ByLayer
370
-1
48
1
60
0
100
AcDbEllipse
10
76.512899
20
7.251908
30
0
11
1.61937464777361
21
0.433910129114374
31
0
210
0
220
0
230
1
40
0.99445
41
0.785398163397481
42
1.82980516691268
0
ELLIPSE
5
A6
100
AcDbEntity
8
1
62
256
6
ByLayer
370
-1
48
1
60
0
100
AcDbEllipse
10
76.551701
20
7.107096
30
0
11
-1.16538950941777
21
-0.312265177916192
31
0
210
0
220
0
230
1
40
0.99445
41
-1.83399098843471
42
-0.854430796809636
0
ELLIPSE
5
A7
100
AcDbEntity
8
1
62
256
6
ByLayer
370
-1
48
1
60
0
100
AcDbEllipse
10
78.190039
20
8.052993
30
0
11
-0.662625116834301
21
-0.177549864940329
31
0
210
0
220
0
230
1
40
0.99445
41
0.263194661639849
42
1.04718530526059
0
ELLIPSE
5
A8
100
AcDbEntity
8
1
62
256
6
ByLayer
370
-1
48
1
60
0
100
AcDbEllipse
10
74.913363
20
6.1612
30
0
11
-0.662625116834301
21
-0.177549864940329
31
0
210
0
220
0
230
1
40
0.99445
41
2.6207966716088
42
3.14158748122239
0
ELLIPSE
5
A9
100
AcDbEntity
8
1
62
256
6
ByLayer
370
-1
48
1
60
0
100
AcDbEllipse
10
75.167716
20
7.101332
30
0
11
-0.282050341276408
21
-0.0755751611699358
31
0
210
0
220
0
230
1
40
0.99445
41
-1.57665949831875
42
-0.239071313488867
0
ELLIPSE
5
AA
100
AcDbEntity
8
1
62
256
6
ByLayer
370
-1
48
1
60
0
100
AcDbEllipse
10
74.921539
20
8.042233
30
0
11
-0.662625116834301
21
-0.177549864940329
31
0
210
0
220
0
230
1
40
0.99445
41
1.56493315527107
42
2.23458044897497
0
ELLIPSE
5
AB
100
AcDbEntity
8
1
62
256
6
ByLayer
370
-1
48
1
60
0
100
AcDbEllipse
10
75.864722
20
8.300862
30
0
11
-0.282050341276408
21
-0.0755751611699358
31
0
210
0
220
0
230
1
40
0.99445
41
-2.61798163205539
42
0.00586317152378852
0
ELLIPSE
5
AC
100
AcDbEntity
8
1
62
256
6
ByLayer
370
-1
48
1
60
0
100
AcDbEllipse
10
76.556966
20
8.989799
30
0
11
-0.662625116834301
21
-0.177549864940329
31
0
210
0
220
0
230
1
40
0.99445
41
0.523611021534266
42
1.30760166515503
0
ELLIPSE
5
AD
100
AcDbEntity
8
1
62
256
6
ByLayer
370
-1
48
1
60
0
100
AcDbEllipse
10
77.245357
20
8.300861
30
0
11
-0.282050341276408
21
-0.0755751611699358
31
0
210
0
220
0
230
1
40
0.99445
41
-2.88214019138968
42
-1.0500003448139
0
ELLIPSE
5
AE
100
AcDbEntity
8
1
62
256
6
ByLayer
370
-1
48
1
60
0
100
AcDbEllipse
10
78.190039
20
8.052993
30
0
11
-0.662625116834301
21
-0.177549864940329
31
0
210
0
220
0
230
1
40
0.99445
41
-5.24417919596848E-06
42
0.263194661639849
0
ELLIPSE
5
AF
100
AcDbEntity
8
1
62
256
6
ByLayer
370
-1
48
1
60
0
100
AcDbEllipse
10
77.935686
20
7.112861
30
0
11
-0.282050341276408
21
-0.0755751611699358
31
0
210
0
220
0
230
1
40
0.99445
41
-2.84220439014207
42
-2.09440734832891
0
ELLIPSE
5
B0
100
AcDbEntity
8
1
62
256
6
ByLayer
370
-1
48
1
60
0
100
AcDbEllipse
10
76.55102
20
7.109637
30
0
11
2.53555529400882
21
0.67939999339412
31
0
210
0
220
0
230
1
40
0.99445
41
3.14157143582123
42
-0.263194136389319
0
ELLIPSE
5
B1
100
AcDbEntity
8
1
62
256
6
ByLayer
370
-1
48
1
60
0
100
AcDbEllipse
10
76.55102
20
7.109637
30
0
11
2.53555529400882
21
0.67939999339412
31
0
210
0
220
0
230
1
40
0.99445
41
-0.26319413638931
42
-3.40242026944828E-16
0
ELLIPSE
5
B2
100
AcDbEntity
8
1
62
256
6
ByLayer
370
-1
48
1
60
0
100
AcDbEllipse
10
76.520399
20
7.223917
30
0
11
2.53555529400879
21
0.679399993394114
31
0
210
0
220
0
230
1
40
0.99445
41
0
42
6.28318530717959
0
ELLIPSE
5
B3
100
AcDbEntity
8
1
62
256
6
ByLayer
370
-1
48
1
60
0
100
AcDbEllipse
10
76.512899
20
7.251908
30
0
11
1.73866648732035
21
0.465874281184544
31
0
210
0
220
0
230
1
40
0.99445
41
0
42
6.28318530717959
0
ELLIPSE
5
B4
100
AcDbEntity
8
1
62
256
6
ByLayer
370
-1
48
1
60
0
100
AcDbEllipse
10
76.507803
20
7.270928
30
0
11
2.96667247474563
21
0.794917493815732
31
0
210
0
220
0
230
1
40
0.99445
41
0
42
6.28318530717959
0
ELLIPSE
5
B5
100
AcDbEntity
8
1
62
256
6
ByLayer
370
-1
48
1
60
0
100
AcDbEllipse
10
73.695949
20
2.431801
30
0
11
0.766945106073266
21
0.205502321811333
31
0
210
0
220
0
230
1
40
0.99445
41
-3.14159265358972
42
-1.57079632679486
0
ELLIPSE
5
B6
100
AcDbEntity
8
1
62
256
6
ByLayer
370
-1
48
1
60
0
100
AcDbEllipse
10
71.653103
20
10.055808
30
0
11
0.766945106073291
21
0.20550232181134
31
0
210
0
220
0
230
1
40
0.99445
41
1.570796326795
42
-3.14159265358974
0
ELLIPSE
5
B7
100
AcDbEntity
8
1
62
256
6
ByLayer
370
-1
48
1
60
0
100
AcDbEllipse
10
79.319656
20
12.110054
30
0
11
0.766945106073285
21
0.205502321811339
31
0
210
0
220
0
230
1
40
0.99445
41
0
42
1.5707963267949
0
ELLIPSE
5
B8
100
AcDbEntity
8
1
62
256
6
ByLayer
370
-1
48
1
60
0
100
AcDbEllipse
10
76.537414
20
7.160417
30
0
11
-2.8499599797006
21
-0.763644475021792
31
0
210
0
220
0
230
1
40
0.99445
41
0
42
6.28318530717959
0
ELLIPSE
5
B9
100
AcDbEntity
8
1
62
256
6
ByLayer
370
-1
48
1
60
0
100
AcDbEllipse
10
76.53322
20
7.176068
30
0
11
2.90362333281077
21
0.778023527150812
31
0
210
0
220
0
230
1
40
0.99445
41
-0.709628197587008
42
-0.2631938676563
0
ELLIPSE
5
BA
100
AcDbEntity
8
1
62
256
6
ByLayer
370
-1
48
1
60
0
100
AcDbEllipse
10
76.53322
20
7.176068
30
0
11
2.90362333281077
21
0.778023527150812
31
0
210
0
220
0
230
1
40
0.99445
41
-2.41944026959228
42
-0.722096803501333
0
ELLIPSE
5
BB
100
AcDbEntity
8
1
62
256
6
ByLayer
370
-1
48
1
60
0
100
AcDbEllipse
10
76.53322
20
7.176068
30
0
11
2.90362333281077
21
0.778023527150812
31
0
210
0
220
0
230
1
40
0.99445
41
-0.263193867656313
42
-2.97112391581842E-16
0
ELLIPSE
5
BC
100
AcDbEntity
8
1
62
256
6
ByLayer
370
-1
48
1
60
0
100
AcDbEllipse
10
76.53322
20
7.176068
30
0
11
2.90362333281077
21
0.778023527150812
31
0
210
0
220
0
230
1
40
0.99445
41
0
42
-2.43181012623846
0
ELLIPSE
5
BD
100
AcDbEntity
8
1
62
256
6
ByLayer
370
-1
48
1
60
0
100
AcDbEllipse
10
81.362502
20
4.486048
30
0
11
0.766945106073286
21
0.205502321811339
31
0
210
0
220
0
230
1
40
0.99445
41
-1.57079632679486
42
1.43981512661836E-13
0
POINT
5
41
100
AcDbEntity
8
80
62
256
6
ByLayer
370
-1
48
1
60
0
100
AcDbPoint
10
0
20
0
30
0
39
0
210
0
220
0
230
1
50
360
0
POINT
5
43
100
AcDbEntity
8
81
62
256
6
ByLayer
370
-1
48
1
60
0
100
AcDbPoint
10
79.93
20
12.9
30
0
39
0
210
0
220
0
230
1
50
360
0
POINT
5
45
100
AcDbEntity
8
1
62
256
6
ByLayer
370
-1
48
1
60
0
100
AcDbPoint
10
-171.32
20
0
30
0
39
0
210
0
220
0
230
1
50
360
0
POINT
5
47
100
AcDbEntity
8
2
62
256
6
ByLayer
370
-1
48
1
60
0
100
AcDbPoint
10
79.93
20
12.9
30
0
39
0
210
0
220
0
230
1
50
360
0
SPLINE
5
BE
100
AcDbEntity
8
1
62
256
6
ByLayer
370
-1
48
1
60
0
100
AcDbSpline
70
4
71
3
72
30
73
26
40
-0.124999999999993
40
-0.124999999999993
40
0
40
0
40
0.125000000000002
40
0.125000000000002
40
0.187500000000004
40
0.187500000000004
40
0.250000000000005
40
0.250000000000005
40
0.375000000000007
40
0.375000000000007
40
0.50000000000001
40
0.50000000000001
40
0.625000000000012
40
0.625000000000012
40
0.687500000000014
40
0.687500000000014
40
0.718750000000012
40
0.718750000000012
40
0.75000000000001
40
0.75000000000001
40
0.812500000000009
40
0.812500000000009
40
0.875000000000007
40
0.875000000000007
40
1
40
1
40
1.125
40
1.125
41
1
10
62.267296434845
20
3.88949462947613
30
0
41
1
10
61.0740480098802
20
3.37518580564998
30
0
41
1
10
60.4696880248321
20
3.19047327921336
30
0
41
1
10
59.5095627385566
20
3.22983122259777
30
0
41
1
10
59.1837326412449
20
3.29822950178536
30
0
41
1
10
58.6238155799833
20
3.7019429152987
30
0
41
1
10
58.4448207532874
20
4.07148827269708
30
0
41
1
10
58.4997722736807
20
5.09959577735702
30
0
41
1
10
59.0143232443164
20
5.57153597408549
30
0
41
1
10
60.0665399146193
20
6.25260171740936
30
0
41
1
10
60.6733043665808
20
6.48014479299906
30
0
41
1
10
61.9439189177397
20
6.80742379846731
30
0
41
1
10
62.6034905167065
20
6.90991808940774
30
0
41
1
10
63.6357782247611
20
6.93439885988624
30
0
41
1
10
63.992692691797
20
6.9267907267039
30
0
41
1
10
64.5031727207042
20
6.79205696093237
30
0
41
1
10
64.6842638866142
20
6.72523879123111
30
0
41
1
10
64.8957203621829
20
6.43144227884665
30
0
41
1
10
64.8634430100556
20
6.23022524191401
30
0
41
1
10
64.6490259154456
20
5.75392114312655
30
0
41
1
10
64.4015572555236
20
5.50167860393799
30
0
41
1
10
63.9110496843463
20
5.0329500808451
30
0
41
1
10
63.6486599888774
20
4.81998919819327
30
0
41
1
10
62.8342549325802
20
4.22366772344205
30
0
41
1
10
62.267296434845
20
3.88949462947613
30
0
41
1
10
61.0740480098802
20
3.37518580564998
30
0
0
SPLINE
5
BF
100
AcDbEntity
8
1
62
256
6
ByLayer
370
-1
48
1
60
0
100
AcDbSpline
70
4
71
3
72
10
73
6
40
0
40
0
40
0
40
0
40
0.5
40
0.5
40
1
40
1
40
1
40
1
41
1
10
67.0891875834257
20
-9.66695176514466
30
0
41
1
10
64.6562865961993
20
-9.49339053813367
30
0
41
1
10
62.3936209972437
20
-9.16499051556056
30
0
41
1
10
58.296688472216
20
-7.5507887048295
30
0
41
1
10
56.533598032998
20
-6.23427355681613
30
0
41
1
10
55.1547364363896
20
-4.33878745302212
30
0
0
SPLINE
5
C0
100
AcDbEntity
8
1
62
256
6
ByLayer
370
-1
48
1
60
0
100
AcDbSpline
70
4
71
3
72
10
73
6
40
0
40
0
40
0
40
0
40
0.5
40
0.5
40
1
40
1
40
1
40
1
41
1
10
52.1249731310847
20
4.33878745302161
30
0
41
1
10
52.1113586176205
20
5.2391046520186
30
0
41
1
10
52.2332071611279
20
6.08826803026884
30
0
41
1
10
52.8022144191831
20
7.49985766845185
30
0
41
1
10
53.2543477105954
20
8.07533268295779
30
0
41
1
10
53.8408001202095
20
8.50874999999996
30
0
0
SPLINE
5
C1
100
AcDbEntity
8
1
62
256
6
ByLayer
370
-1
48
1
60
0
100
AcDbSpline
70
4
71
3
72
8
73
4
40
0
40
0
40
0
40
0
40
1
40
1
40
1
40
1
41
1
10
67.1641875834258
20
9.90665725404983
30
0
41
1
10
67.1391882193364
20
9.93158080963903
30
0
41
1
10
67.1141882040297
20
9.95650582229675
30
0
41
1
10
67.0891875834256
20
9.9814322750473
30
0
0
SPLINE
5
C2
100
AcDbEntity
8
1
62
256
6
ByLayer
370
-1
48
1
60
0
100
AcDbSpline
70
4
71
3
72
8
73
4
40
0
40
0
40
0
40
0
40
1
40
1
40
1
40
1
41
1
10
66.7203939820735
20
9.98201191207309
30
0
41
1
10
66.8431329950121
20
9.9817770502911
30
0
41
1
10
66.9660638127866
20
9.98158236589117
30
0
41
1
10
67.0891875834257
20
9.98143227504764
30
0
0
SPLINE
5
C3
100
AcDbEntity
8
1
62
256
6
ByLayer
370
-1
48
1
60
0
100
AcDbSpline
70
4
71
3
72
8
73
4
40
0
40
0
40
0
40
0
40
1
40
1
40
1
40
1
41
1
10
71.9295321072421
20
2.10785183859895
30
0
41
1
10
71.980691625066
20
2.09341706409933
30
0
41
1
10
72.0334718278258
20
2.07710637058051
30
0
41
1
10
72.0879691658537
20
2.05890843812176
30
0
0
SPLINE
5
C4
100
AcDbEntity
8
1
62
256
6
ByLayer
370
-1
48
1
60
0
100
AcDbSpline
70
4
71
3
72
8
73
4
40
0
40
0
40
0
40
0
40
1
40
1
40
1
40
1
41
1
10
70.8718767856922
20
10.1793335548971
30
0
41
1
10
70.5109622773395
20
10.0890285581487
30
0
41
1
10
70.1500483578808
20
9.99872120591698
30
0
41
1
10
69.7891350767816
20
9.90841130057169
30
0
0
SPLINE
5
C5
100
AcDbEntity
8
1
62
256
6
ByLayer
370
-1
48
1
60
0
100
AcDbSpline
70
4
71
3
72
8
73
4
40
0
40
0
40
0
40
0
40
1
40
1
40
1
40
1
41
1
10
67.0891875834257
20
-9.66695176514386
30
0
41
1
10
67.1141816990403
20
-9.64410367049808
30
0
41
1
10
67.1391817759778
20
-9.62122662949554
30
0
41
1
10
67.1641875834258
20
-9.5983211498102
30
0
0
SPLINE
5
C6
100
AcDbEntity
8
1
62
256
6
ByLayer
370
-1
48
1
60
0
100
AcDbSpline
70
4
71
3
72
8
73
4
40
0
40
0
40
0
40
0
40
1
40
1
40
1
40
1
41
1
10
68.3023000089067
20
9.90671540051284
30
0
41
1
10
67.9230700850475
20
9.90626174932328
30
0
41
1
10
67.5434403377987
20
9.90624064053634
30
0
41
1
10
67.1641875834258
20
9.90665725404983
30
0
0
SPLINE
5
C7
100
AcDbEntity
8
1
62
256
6
ByLayer
370
-1
48
1
60
0
100
AcDbSpline
70
4
71
3
72
8
73
4
40
0
40
0
40
0
40
0
40
1
40
1
40
1
40
1
41
1
10
67.1641875834258
20
-9.59832114981018
30
0
41
1
10
67.6066261935356
20
-9.62915491876174
30
0
41
1
10
68.0531507062192
20
-9.65432289203295
30
0
41
1
10
68.5024313588463
20
-9.67508006938681
30
0
0
SPLINE
5
C8
100
AcDbEntity
8
1
62
256
6
ByLayer
370
-1
48
1
60
0
100
AcDbSpline
70
4
71
3
72
18
73
14
40
0
40
0
40
0
40
0
40
0.209367001422527
40
0.209367001422527
40
0.384033913650967
40
0.384033913650967
40
0.560418801950757
40
0.560418801950757
40
0.713485384511621
40
0.713485384511621
40
0.91578514430032
40
0.91578514430032
40
1
40
1
40
1
40
1
41
1
10
76.0355686886059
20
8.64029686439659
30
0
41
1
10
76.0859190091064
20
8.58748763649018
30
0
41
1
10
76.1455233079506
20
8.54090707398484
30
0
41
1
10
76.2674066047624
20
8.47484558925993
30
0
41
1
10
76.3290584147681
20
8.45156760200732
30
0
41
1
10
76.4572715392939
20
8.42471490892476
30
0
41
1
10
76.5258151907784
20
8.4211577502997
30
0
41
1
10
76.6483660052277
20
8.43439481103343
30
0
41
1
10
76.7045716943444
20
8.44861789238985
30
0
41
1
10
76.8244282773016
20
8.49597271848126
30
0
41
1
10
76.8868257822942
20
8.53427018081052
30
0
41
1
10
76.9630051299706
20
8.5984755749258
30
0
41
1
10
76.9842218663628
20
8.6188384405429
30
0
41
1
10
77.0039897576275
20
8.64029624224955
30
0
0
SPLINE
5
C9
100
AcDbEntity
8
1
62
256
6
ByLayer
370
-1
48
1
60
0
100
AcDbSpline
70
4
71
3
72
16
73
12
40
0
40
0
40
0
40
0
40
0.0514404732924301
40
0.0514404732924301
40
0.27440695839783
40
0.27440695839783
40
0.499511535153433
40
0.499511535153433
40
0.738532632353152
40
0.738532632353152
40
1
40
1
40
1
40
1
41
1
10
78.1887756694401
20
7.2588878429647
30
0
41
1
10
78.188766004156
20
7.26574551052829
30
0
41
1
10
78.1885150468918
20
7.27259557071432
30
0
41
1
10
78.1859142120844
20
7.30869668797155
30
0
41
1
10
78.1792032062029
20
7.33772048322311
30
0
41
1
10
78.1579254858803
20
7.390913424454
30
0
41
1
10
78.1430341997877
20
7.41572045495363
30
0
41
1
10
78.1065921673548
20
7.45956703533037
30
0
41
1
10
78.084254617501
20
7.47872499300027
30
0
41
1
10
78.0339827769595
20
7.50966681344113
30
0
41
1
10
78.0051146420693
20
7.52102238265803
30
0
41
1
10
77.9757925516527
20
7.52729487549973
30
0
0
SPLINE
5
CA
100
AcDbEntity
8
1
62
256
6
ByLayer
370
-1
48
1
60
0
100
AcDbSpline
70
4
71
3
72
12
73
8
40
0
40
0
40
0
40
0
40
0.318934399394707
40
0.318934399394707
40
0.787306606100814
40
0.787306606100814
40
1
40
1
40
1
40
1
41
1
10
75.520834669272
20
7.89333971092526
30
0
41
1
10
75.5409154171681
20
7.9411532755858
30
0
41
1
10
75.5553230236185
20
7.99166424105496
30
0
41
1
10
75.5763822967691
20
8.11544099519989
30
0
41
1
10
75.5767622726017
20
8.1903156140794
30
0
41
1
10
75.5625087308111
20
8.29388710818452
30
0
41
1
10
75.5558903268407
20
8.3259543539956
30
0
41
1
10
75.5473288373175
20
8.35720668773752
30
0
0
SPLINE
5
CB
100
AcDbEntity
8
1
62
256
6
ByLayer
370
-1
48
1
60
0
100
AcDbSpline
70
4
71
3
72
18
73
14
40
0
40
0
40
0
40
0
40
0.204357198710589
40
0.204357198710589
40
0.379898703705812
40
0.379898703705812
40
0.557216369959893
40
0.557216369959893
40
0.710464516918729
40
0.710464516918729
40
0.911876168090782
40
0.911876168090782
40
1
40
1
40
1
40
1
41
1
10
77.491573976806
20
8.36059542213476
30
0
41
1
10
77.4749698165668
20
8.29132882034912
30
0
41
1
10
77.4677354827423
20
8.21755679161225
30
0
41
1
10
77.4753277058259
20
8.07955104906071
30
0
41
1
10
77.4874367829232
20
8.01388345127199
30
0
41
1
10
77.5298306939231
20
7.88852150055007
30
0
41
1
10
77.5611185053161
20
7.82710616899394
30
0
41
1
10
77.6325332114691
20
7.72781867741247
30
0
41
1
10
77.6716733139954
20
7.68663274336549
30
0
41
1
10
77.7684357957967
20
7.6079778919233
30
0
41
1
10
77.8295196641355
20
7.574169094936
30
0
41
1
10
77.91949027383
20
7.54136092496776
30
0
41
1
10
77.9475408271691
20
7.53333839890019
30
0
41
1
10
77.9757925516527
20
7.52729487549953
30
0
0
SPLINE
5
CC
100
AcDbEntity
8
1
62
256
6
ByLayer
370
-1
48
1
60
0
100
AcDbSpline
70
4
71
3
72
14
73
10
40
0
40
0
40
0
40
0
40
0.253413222301875
40
0.253413222301875
40
0.543569886232523
40
0.543569886232523
40
0.805873804640101
40
0.805873804640101
40
1
40
1
40
1
40
1
41
1
10
75.540156900397
20
6.12107789028371
30
0
41
1
10
75.5320314213427
20
6.09386195220674
30
0
41
1
10
75.5282530260861
20
6.06462688770827
30
0
41
1
10
75.5310219723745
20
6.00158007443875
30
0
41
1
10
75.5392802673778
20
5.96669882213769
30
0
41
1
10
75.5679776649811
20
5.90495823465849
30
0
41
1
10
75.5876664637618
20
5.87673670042386
30
0
41
1
10
75.629790303679
20
5.83503118542828
30
0
41
1
10
75.650578326444
20
5.81920212114053
30
0
41
1
10
75.6729462083348
20
5.80637087135224
30
0
0
SPLINE
5
CD
100
AcDbEntity
8
1
62
256
6
ByLayer
370
-1
48
1
60
0
100
AcDbSpline
70
4
71
3
72
16
73
12
40
0
40
0
40
0
40
0
40
0.218005971317846
40
0.218005971317846
40
0.441439946436344
40
0.441439946436344
40
0.676011040495089
40
0.676011040495089
40
0.931666763594203
40
0.931666763594203
40
1
40
1
40
1
40
1
41
1
10
74.8370222322077
20
7.24492763566622
30
0
41
1
10
74.8370628408338
20
7.21611519171671
30
0
41
1
10
74.841604028595
20
7.18673989879193
30
0
41
1
10
74.858953633441
20
7.13072242138654
30
0
41
1
10
74.8721768368894
20
7.10344609141387
30
0
41
1
10
74.9057309423435
20
7.05364534911118
30
0
41
1
10
74.9267797306449
20
7.03078397396368
30
0
41
1
10
74.9750426020195
20
6.99118558363531
30
0
41
1
10
75.0032237738043
20
6.97466049049191
30
0
41
1
10
75.040063733967
20
6.95973228420314
30
0
41
1
10
75.0479745038527
20
6.95688997442076
30
0
41
1
10
75.0559383255505
20
6.95437843691872
30
0
0
SPLINE
5
CE
100
AcDbEntity
8
1
62
256
6
ByLayer
370
-1
48
1
60
0
100
AcDbSpline
70
4
71
3
72
18
73
14
40
0
40
0
40
0
40
0
40
0.171760828810297
40
0.171760828810297
40
0.35357141670156
40
0.35357141670156
40
0.537533417278065
40
0.537533417278065
40
0.692612709493372
40
0.692612709493372
40
0.852765749764314
40
0.852765749764314
40
1
40
1
40
1
40
1
41
1
10
76.9961621885975
20
5.84137644802155
30
0
41
1
10
76.9564896717836
20
5.87864063225499
30
0
41
1
10
76.9106587172747
20
5.91191812639551
30
0
41
1
10
76.8058549544803
20
5.96847657586289
30
0
41
1
10
76.7449022056679
20
5.99160549545917
30
0
41
1
10
76.6153241750454
20
6.02068514991149
30
0
41
1
10
76.5444749252663
20
6.02669217540313
30
0
41
1
10
76.4173301876926
20
6.01979137112761
30
0
41
1
10
76.3589611877681
20
6.00967077270343
30
0
41
1
10
76.2486804684237
20
5.97755943000953
30
0
41
1
10
76.1957148676334
20
5.95491229998117
30
0
41
1
10
76.1039253339445
20
5.90274595799579
30
0
41
1
10
76.0636021231031
20
5.87356422628906
30
0
41
1
10
76.0277411195755
20
5.84137707016893
30
0
0
SPLINE
5
CF
100
AcDbEntity
8
1
62
256
6
ByLayer
370
-1
48
1
60
0
100
AcDbSpline
70
4
71
3
72
18
73
14
40
0
40
0
40
0
40
0
40
0.0916162981302837
40
0.0916162981302837
40
0.290173509503417
40
0.290173509503417
40
0.451470239304007
40
0.451470239304007
40
0.613527758364174
40
0.613527758364174
40
0.765963818526292
40
0.765963818526292
40
1
40
1
40
1
40
1
41
1
10
75.5401569003971
20
6.12107789028366
30
0
41
1
10
75.5484980650384
20
6.14901625783671
30
0
41
1
10
75.5549119609859
20
6.17783706111348
30
0
41
1
10
75.5684841183448
20
6.27091368935783
30
0
41
1
10
75.5678756471879
20
6.33881222335697
30
0
41
1
10
75.5454274802515
20
6.4623498302285
30
0
41
1
10
75.5271778267842
20
6.51925874854916
30
0
41
1
10
75.4752883237221
20
6.62740046253199
30
0
41
1
10
75.4408390663569
20
6.67998121498474
30
0
41
1
10
75.3639777281173
20
6.7699699247361
30
0
41
1
10
75.3213480941462
20
6.80920535201858
30
0
41
1
10
75.208033935529
20
6.89263416341279
30
0
41
1
10
75.1322967547744
20
6.93029740323024
30
0
41
1
10
75.0559383255505
20
6.95437843691877
30
0
0
SPLINE
5
D0
100
AcDbEntity
8
1
62
256
6
ByLayer
370
-1
48
1
60
0
100
AcDbSpline
70
4
71
3
72
12
73
8
40
0
40
0
40
0
40
0
40
0.28421596819616
40
0.28421596819616
40
0.741847709438836
40
0.741847709438836
40
1
40
1
40
1
40
1
41
1
10
77.519740943234
20
6.55532459996493
30
0
41
1
10
77.5015352235088
20
6.51365280599248
30
0
41
1
10
77.4876161310012
20
6.47070536541872
30
0
41
1
10
77.4631571762907
20
6.36049773483458
30
0
41
1
10
77.4593770525806
20
6.29259395168879
30
0
41
1
10
77.468751540927
20
6.19292686314876
30
0
41
1
10
77.4752309286511
20
6.15785018615028
30
0
41
1
10
77.4844967533315
20
6.12411314928929
30
0
0
SPLINE
5
D1
100
AcDbEntity
8
1
62
256
6
ByLayer
370
-1
48
1
60
0
100
AcDbSpline
70
4
71
3
72
16
73
12
40
0
40
0
40
0
40
0
40
0.144148616872953
40
0.144148616872953
40
0.447519162264354
40
0.447519162264354
40
0.721767619880002
40
0.721767619880002
40
0.964757018307517
40
0.964757018307517
40
1
40
1
40
1
40
1
41
1
10
76.0355686886097
20
8.64029686439963
30
0
41
1
10
76.0232773888474
20
8.65318842187057
30
0
41
1
10
76.0097842099992
20
8.66513650229615
30
0
41
1
10
75.9650273231605
20
8.69821544978478
30
0
41
1
10
75.9295293160425
20
8.71555450393464
30
0
41
1
10
75.8581103869622
20
8.73394582280628
30
0
41
1
10
75.8214308669192
20
8.7366130090993
30
0
41
1
10
75.7541512651277
20
8.72834783894515
30
0
41
1
10
75.7223658913836
20
8.71877099715471
30
0
41
1
10
75.6893299983326
20
8.70205163027092
30
0
41
1
10
75.6851505094937
20
8.69980097196895
30
0
41
1
10
75.6810315017019
20
8.69744568131352
30
0
0
SPLINE
5
D2
100
AcDbEntity
8
1
62
256
6
ByLayer
370
-1
48
1
60
0
100
AcDbSpline
70
4
71
3
72
16
73
12
40
0
40
0
40
0
40
0
40
0.192791791195053
40
0.192791791195053
40
0.48858534846779
40
0.48858534846779
40
0.755755095293205
40
0.755755095293205
40
0.99337745607847
40
0.99337745607847
40
1
40
1
40
1
40
1
41
1
10
75.058426763325
20
7.51581890836314
30
0
41
1
10
75.0358661717597
20
7.51121725235382
30
0
41
1
10
75.0136151725191
20
7.50383208730148
30
0
41
1
10
74.9604158791629
20
7.4783281576415
30
0
41
1
10
74.930252312065
20
7.45600939632433
30
0
41
1
10
74.8835888701169
20
7.4033110859587
30
0
41
1
10
74.8653848886609
20
7.37306082683253
30
0
41
1
10
74.8430442421422
20
7.31127961390908
30
0
41
1
10
74.837286474711
20
7.2793613776889
30
0
41
1
10
74.8370239458437
20
7.24672534893887
30
0
41
1
10
74.8370209652252
20
7.24582657924921
30
0
41
1
10
74.8370222322077
20
7.24492763566622
30
0
0
SPLINE
5
D3
100
AcDbEntity
8
1
62
256
6
ByLayer
370
-1
48
1
60
0
100
AcDbSpline
70
4
71
3
72
18
73
14
40
0
40
0
40
0
40
0
40
0.0546729749826754
40
0.0546729749826754
40
0.275571530865441
40
0.275571530865441
40
0.498800915213254
40
0.498800915213254
40
0.735994152976879
40
0.735994152976879
40
0.996279096495831
40
0.996279096495831
40
1
40
1
40
1
40
1
41
1
10
77.3447663999461
20
5.80636979731744
30
0
41
1
10
77.3511792557194
20
5.81003673363836
30
0
41
1
10
77.3574619171249
20
5.81393567426684
30
0
41
1
10
77.3881225105472
20
5.83452731803595
30
0
41
1
10
77.4103679176218
20
5.85477475098779
30
0
41
1
10
77.4471516300069
20
5.89951039810254
30
0
41
1
10
77.4620928325284
20
5.9245972685078
30
0
41
1
10
77.4840164952428
20
5.97753783194696
30
0
41
1
10
77.4907466558072
20
6.0061188761903
30
0
41
1
10
77.4953558587724
20
6.0644503256934
30
0
41
1
10
77.4924031735053
20
6.09477555510497
30
0
41
1
10
77.4847186484448
20
6.12330133547786
30
0
41
1
10
77.4846081822964
20
6.12370743439303
30
0
41
1
10
77.4844967533315
20
6.12411314928929
30
0
0
SPLINE
5
D4
100
AcDbEntity
8
1
62
256
6
ByLayer
370
-1
48
1
60
0
100
AcDbSpline
70
4
71
3
72
14
73
10
40
0
40
0
40
0
40
0
40
0.279798780274902
40
0.279798780274902
40
0.574161225582825
40
0.574161225582825
40
0.833112986337033
40
0.833112986337033
40
1
40
1
40
1
40
1
41
1
10
77.4915739768063
20
8.36059542213471
30
0
41
1
10
77.4995901415284
20
8.39403598652657
30
0
41
1
10
77.502368615385
20
8.42981585899821
30
0
41
1
10
77.4955281330645
20
8.50246862371563
30
0
41
1
10
77.4850228637782
20
8.54048890965646
30
0
41
1
10
77.4525215297789
20
8.60537981846926
30
0
41
1
10
77.4315130743257
20
8.63399106157604
30
0
41
1
10
77.3902677451168
20
8.67288986629652
30
0
41
1
10
77.3721188312277
20
8.68639208739785
30
0
41
1
10
77.352851693313
20
8.69744460727864
30
0
0
SPLINE
5
D5
100
AcDbEntity
8
1
62
256
6
ByLayer
370
-1
48
1
60
0
100
AcDbSpline
70
4
71
3
72
12
73
8
40
0
40
0
40
0
40
0
40
0.43041324375432
40
0.43041324375432
40
0.847061883496252
40
0.847061883496252
40
1
40
1
40
1
40
1
41
1
10
77.9733988273267
20
6.96550092867125
30
0
41
1
10
77.9142930922453
20
6.94651795227998
30
0
41
1
10
77.8556748525299
20
6.91910188977135
30
0
41
1
10
77.7470332129332
20
6.84908491711397
30
0
41
1
10
77.6955899299437
20
6.8060306470569
30
0
41
1
10
77.6338683414705
20
6.73812053626767
30
0
41
1
10
77.6179981284789
20
6.7188522125962
30
0
41
1
10
77.603131728587
20
6.69883797706152
30
0
0
SPLINE
5
D6
100
AcDbEntity
8
1
62
256
6
ByLayer
370
-1
48
1
60
0
100
AcDbSpline
70
4
71
3
72
14
73
10
40
0
40
0
40
0
40
0
40
0.273021401570831
40
0.273021401570831
40
0.560718757608123
40
0.560718757608123
40
0.820994844954336
40
0.820994844954336
40
1
40
1
40
1
40
1
41
1
10
76.9961621885975
20
5.84137644802161
30
0
41
1
10
77.0184632011193
20
5.82042922546191
30
0
41
1
10
77.0453262355646
20
5.80257934844803
30
0
41
1
10
77.1064184427902
20
5.77607844193736
30
0
41
1
10
77.141959779845
20
5.76762031672129
30
0
41
1
10
77.2113480895849
20
5.76446989413813
30
0
41
1
10
77.2460890625591
20
5.76855448279207
30
0
41
1
10
77.3017441971593
20
5.785023784484
30
0
41
1
10
77.3240678176211
20
5.79453413688759
30
0
41
1
10
77.3447663999461
20
5.80636979731744
30
0
0
SPLINE
5
D7
100
AcDbEntity
8
1
62
256
6
ByLayer
370
-1
48
1
60
0
100
AcDbSpline
70
4
71
3
72
16
73
12
40
0
40
0
40
0
40
0
40
0.188650665582696
40
0.188650665582696
40
0.409344010614876
40
0.409344010614876
40
0.639667090536757
40
0.639667090536757
40
0.889784454758544
40
0.889784454758544
40
1
40
1
40
1
40
1
41
1
10
75.6810315017019
20
8.69744568131352
30
0
41
1
10
75.6590652400033
20
8.68488514889171
30
0
41
1
10
75.6385983748416
20
8.66913120074668
30
0
41
1
10
75.6000141004363
20
8.63019518015005
30
0
41
1
10
75.5824124295043
20
8.60569261418996
30
0
41
1
10
75.5551891843577
20
8.55262654189039
30
0
41
1
10
75.5455810671211
20
8.52327919446176
30
0
41
1
10
75.5349859855862
20
8.46199497901975
30
0
41
1
10
75.5346439555391
20
8.42929190916377
30
0
41
1
10
75.5408638529908
20
8.38418886100629
30
0
41
1
10
75.5436777728445
20
8.37053430847956
30
0
41
1
10
75.5473288373154
20
8.35720668773672
30
0
0
SPLINE
5
D8
100
AcDbEntity
8
1
62
256
6
ByLayer
370
-1
48
1
60
0
100
AcDbSpline
70
4
71
3
72
14
73
10
40
0
40
0
40
0
40
0
40
0.274585754726514
40
0.274585754726514
40
0.560267722712919
40
0.560267722712919
40
0.818663419535275
40
0.818663419535275
40
1
40
1
40
1
40
1
41
1
10
77.9733988273271
20
6.9655009286692
30
0
41
1
10
78.0045613637764
20
6.97550939388654
30
0
41
1
10
78.0352777514515
20
6.99109351111494
30
0
41
1
10
78.0916601783308
20
7.03298640391239
30
0
41
1
10
78.11791745991
20
7.060416863417
30
0
41
1
10
78.1570436507477
20
7.12017742875588
30
0
41
1
10
78.1714936162127
20
7.15272834801613
30
0
41
1
10
78.1857625798143
20
7.20998055780854
30
0
41
1
10
78.1888098619146
20
7.23462775701404
30
0
41
1
10
78.1887756694401
20
7.2588878429647
30
0
0
SPLINE
5
D9
100
AcDbEntity
8
1
62
256
6
ByLayer
370
-1
48
1
60
0
100
AcDbSpline
70
4
71
3
72
18
73
14
40
0
40
0
40
0
40
0
40
0.0412155027391337
40
0.0412155027391337
40
0.264503708125752
40
0.264503708125752
40
0.489339752137478
40
0.489339752137478
40
0.727618534244816
40
0.727618534244816
40
0.988726352206516
40
0.988726352206516
40
1
40
1
40
1
40
1
41
1
10
75.6729462083348
20
5.80637087135224
30
0
41
1
10
75.6777269559785
20
5.80362841377445
30
0
41
1
10
75.6825908099606
20
5.80101244607758
30
0
41
1
10
75.7140049887734
20
5.78520573903495
30
0
41
1
10
75.7429427932881
20
5.77565606012516
30
0
41
1
10
75.8011418136707
20
5.76528079752597
30
0
41
1
10
75.8311427503191
20
5.76436216001366
30
0
41
1
10
75.8900262317667
20
5.77068671455436
30
0
41
1
10
75.9194766349069
20
5.77847022111476
30
0
41
1
10
75.9754616616736
20
5.80214879557147
30
0
41
1
10
76.0021652219249
20
5.81901541668432
30
0
41
1
10
76.0257869884842
20
5.83963527522062
30
0
41
1
10
76.0267676224682
20
5.84050330478885
30
0
41
1
10
76.0277411195756
20
5.8413770701689
30
0
0
SPLINE
5
DA
100
AcDbEntity
8
1
62
256
6
ByLayer
370
-1
48
1
60
0
100
AcDbSpline
70
4
71
3
72
12
73
8
40
0
40
0
40
0
40
0
40
0.49028048039172
40
0.49028048039172
40
0.896110331895107
40
0.896110331895107
40
1
40
1
40
1
40
1
41
1
10
75.0584267633268
20
7.5158189083607
30
0
41
1
10
75.127712293521
20
7.52995099241949
30
0
41
1
10
75.1964044529624
20
7.55550508145103
30
0
41
1
10
75.3122177633825
20
7.62390967561916
30
0
41
1
10
75.3622357573806
20
7.66395380826992
30
0
41
1
10
75.4165054699762
20
7.72378114857634
30
0
41
1
10
75.4272194392954
20
7.73657258123586
30
0
41
1
10
75.4374438839184
20
7.74982633382766
30
0
0
SPLINE
5
DB
100
AcDbEntity
8
1
62
256
6
ByLayer
370
-1
48
1
60
0
100
AcDbSpline
70
4
71
3
72
16
73
12
40
0
40
0
40
0
40
0
40
0.0662411927194755
40
0.0662411927194755
40
0.289014984396446
40
0.289014984396446
40
0.514771810820395
40
0.514771810820395
40
0.755134414487615
40
0.755134414487615
40
1
40
1
40
1
40
1
41
1
10
77.352851693313
20
8.69744460727864
30
0
41
1
10
77.3451870074614
20
8.70184142496524
30
0
41
1
10
77.3373152062773
20
8.70587539768181
30
0
41
1
10
77.3024996211048
20
8.72168627019391
30
0
41
1
10
77.2735570974207
20
8.72955748573105
30
0
41
1
10
77.2157284840789
20
8.73588718273058
30
0
41
1
10
77.1861155097288
20
8.73432293513679
30
0
41
1
10
77.1283694243118
20
8.72232851932367
30
0
41
1
10
77.0997273176473
20
8.71121324333825
30
0
41
1
10
77.0478337438606
20
8.68133277968855
30
0
41
1
10
77.0241067317854
20
8.66213296912329
30
0
41
1
10
77.0039897576275
20
8.64029624224955
30
0
0
SPLINE
5
DC
100
AcDbEntity
8
SK1
62
256
6
ByLayer
370
-1
48
1
60
0
100
AcDbSpline
70
4
71
3
72
8
73
4
40
0
40
0
40
0
40
0
40
1
40
1
40
1
40
1
41
1
10
-170.802499986183
20
8.50874999999999
30
0
41
1
10
-170.802576023436
20
8.50874999999999
30
0
41
1
10
-170.174914121567
20
8.50874999999999
30
0
41
1
10
-169.32
20
8.50874999999999
30
0
0
SPLINE
5
DD
100
AcDbEntity
8
SK1
62
256
6
ByLayer
370
-1
48
1
60
0
100
AcDbSpline
70
4
71
3
72
10
73
6
40
0
40
0
40
0
40
0
40
0.5
40
0.5
40
1
40
1
40
1
40
1
41
1
10
-169.32
20
4.33878745302189
30
0
41
1
10
-169.919233025873
20
2.95888879825199
30
0
41
1
10
-170.310991214146
20
1.50358877622818
30
0
41
1
10
-170.311508518976
20
-1.50048916054567
30
0
41
1
10
-169.920392105394
20
-2.95621969924952
30
0
41
1
10
-169.32
20
-4.33878745302189
30
0
0
LINE
5
49
100
AcDbEntity
8
80
62
256
6
ByLayer
370
-1
48
1
60
0
100
AcDbLine
10
0
20
0
30
0
11
-10
21
0
31
0
39
0
210
0
220
0
230
1
0
LINE
5
4A
100
AcDbEntity
8
81
62
256
6
ByLayer
370
-1
48
1
60
0
100
AcDbLine
10
79.93
20
12.9
30
0
11
89.93
21
12.9
31
0
39
0
210
0
220
0
230
1
0
LINE
5
4B
100
AcDbEntity
8
SK4
62
256
6
ByLayer
370
-1
48
0.05
60
0
100
AcDbLine
10
-176.32
20
0
30
0
11
86.744733
21
0
31
0
39
0
210
0
220
0
230
1
0
LINE
5
4D
100
AcDbEntity
8
4
62
256
6
ByLayer
370
-1
48
0.05
60
0
100
AcDbLine
10
0
20
0
30
0
11
86.744733
21
0
31
0
39
0
210
0
220
0
230
1
0
LINE
5
4F
100
AcDbEntity
8
1
62
256
6
ByLayer
370
-1
48
1
60
0
100
AcDbLine
10
0
20
-9.99125
30
0
11
67.089188
21
-9.99125
31
0
39
0
210
0
220
0
230
1
0
LINE
5
50
100
AcDbEntity
8
1
62
256
6
ByLayer
370
-1
48
1
60
0
100
AcDbLine
10
67.089188
20
-9.99125
30
0
11
67.164188
21
-9.91625
31
0
39
0
210
0
220
0
230
1
0
LINE
5
51
100
AcDbEntity
8
1
62
256
6
ByLayer
370
-1
48
1
60
0
100
AcDbLine
10
67.164188
20
-9.91625
30
0
11
68.187215
21
-9.91625
31
0
39
0
210
0
220
0
230
1
0
LINE
5
52
100
AcDbEntity
8
SK1
62
256
6
ByLayer
370
-1
48
1
60
0
100
AcDbLine
10
-169.32
20
-9.99125
30
0
11
0
21
-9.99125
31
0
39
0
210
0
220
0
230
1
0
LINE
5
54
100
AcDbEntity
8
SK1
62
256
6
ByLayer
370
-1
48
1
60
0
100
AcDbLine
10
-170.8025
20
8.50875
30
0
11
-171.32
21
7.99125
31
0
39
0
210
0
220
0
230
1
0
LINE
5
55
100
AcDbEntity
8
SK1
62
256
6
ByLayer
370
-1
48
1
60
0
100
AcDbLine
10
-171.32
20
-7.99125
30
0
11
-169.32
21
-9.99125
31
0
39
0
210
0
220
0
230
1
0
LINE
5
56
100
AcDbEntity
8
1
62
256
6
ByLayer
370
-1
48
1
60
0
100
AcDbLine
10
75.575988
20
6.33875
30
0
11
75.543889
21
6.458543
31
0
39
0
210
0
220
0
230
1
0
LINE
5
57
100
AcDbEntity
8
1
62
256
6
ByLayer
370
-1
48
1
60
0
100
AcDbLine
10
79.086576
20
7.789037
30
0
11
79.055954
21
7.903317
31
0
39
0
210
0
220
0
230
1
0
LINE
5
58
100
AcDbEntity
8
1
62
256
6
ByLayer
370
-1
48
1
60
0
100
AcDbLine
10
73.984844
20
6.544517
30
0
11
74.015465
21
6.430237
31
0
39
0
210
0
220
0
230
1
0
LINE
5
59
100
AcDbEntity
8
1
62
256
6
ByLayer
370
-1
48
1
60
0
100
AcDbLine
10
77.49533
20
7.995184
30
0
11
77.527414
21
7.875443
31
0
39
0
210
0
220
0
230
1
0
LINE
5
5A
100
AcDbEntity
8
1
62
256
6
ByLayer
370
-1
48
1
60
0
100
AcDbLine
10
72.087969
20
2.058908
30
0
11
72.147874
21
1.83534
31
0
39
0
210
0
220
0
230
1
0
LINE
5
5B
100
AcDbEntity
8
1
62
256
6
ByLayer
370
-1
48
1
60
0
100
AcDbLine
10
53.8408
20
8.50875
30
0
11
65.247132
21
8.50875
31
0
39
0
210
0
220
0
230
1
0
LINE
5
5C
100
AcDbEntity
8
1
62
256
6
ByLayer
370
-1
48
1
60
0
100
AcDbLine
10
68.187215
20
-9.91625
30
0
11
68.502431
21
-9.67508
31
0
39
0
210
0
220
0
230
1
0
LINE
5
5D
100
AcDbEntity
8
1
62
256
6
ByLayer
370
-1
48
1
60
0
100
AcDbLine
10
0
20
-4.338787
30
0
11
0
21
4.338787
31
0
39
0
210
0
220
0
230
1
0
LINE
5
5E
100
AcDbEntity
8
1
62
256
6
ByLayer
370
-1
48
1
60
0
100
AcDbLine
10
67.164188
20
-9.91625
30
0
11
67.164188
21
-9.598321
31
0
39
0
210
0
220
0
230
1
0
LINE
5
5F
100
AcDbEntity
8
1
62
256
6
ByLayer
370
-1
48
1
60
0
100
AcDbLine
10
71.765134
20
2.663554
30
0
11
71.707155
21
2.883793
31
0
39
0
210
0
220
0
230
1
0
LINE
5
60
100
AcDbEntity
8
1
62
256
6
ByLayer
370
-1
48
1
60
0
100
AcDbLine
10
81.744733
20
3.786545
30
0
11
81.711711
21
3.777697
31
0
39
0
210
0
220
0
230
1
0
LINE
5
61
100
AcDbEntity
8
1
62
256
6
ByLayer
370
-1
48
1
60
0
100
AcDbLine
10
81.744733
20
3.779323
30
0
11
81.744733
21
3.786545
31
0
39
0
210
0
220
0
230
1
0
LINE
5
62
100
AcDbEntity
8
1
62
256
6
ByLayer
370
-1
48
1
60
0
100
AcDbLine
10
0
20
-4.338787
30
0
11
55.154736
21
-4.338787
31
0
39
0
210
0
220
0
230
1
0
LINE
5
63
100
AcDbEntity
8
1
62
256
6
ByLayer
370
-1
48
1
60
0
100
AcDbLine
10
71.525484
20
2.982838
30
0
11
71.583463
21
2.762599
31
0
39
0
210
0
220
0
230
1
0
LINE
5
64
100
AcDbEntity
8
1
62
256
6
ByLayer
370
-1
48
1
60
0
100
AcDbLine
10
71.583463
20
2.762599
30
0
11
71.765134
21
2.663554
31
0
39
0
210
0
220
0
230
1
0
LINE
5
65
100
AcDbEntity
8
1
62
256
6
ByLayer
370
-1
48
1
60
0
100
AcDbLine
10
65.247132
20
8.50875
30
0
11
66.720394
21
9.982012
31
0
39
0
210
0
220
0
230
1
0
LINE
5
66
100
AcDbEntity
8
1
62
256
6
ByLayer
370
-1
48
1
60
0
100
AcDbLine
10
71.525484
20
2.982838
30
0
11
71.707155
21
2.883793
31
0
39
0
210
0
220
0
230
1
0
LINE
5
67
100
AcDbEntity
8
1
62
256
6
ByLayer
370
-1
48
1
60
0
100
AcDbLine
10
68.502431
20
-9.67508
30
0
11
72.710941
21
-6.455179
31
0
39
0
210
0
220
0
230
1
0
LINE
5
68
100
AcDbEntity
8
1
62
256
6
ByLayer
370
-1
48
1
60
0
100
AcDbLine
10
74.09124
20
1.720271
30
0
11
74.147263
21
1.511189
31
0
39
0
210
0
220
0
230
1
0
LINE
5
69
100
AcDbEntity
8
1
62
256
6
ByLayer
370
-1
48
1
60
0
100
AcDbLine
10
81.744733
20
3.779323
30
0
11
81.744733
21
0.456513
31
0
39
0
210
0
220
0
230
1
0
LINE
5
6A
100
AcDbEntity
8
1
62
256
6
ByLayer
370
-1
48
1
60
0
100
AcDbLine
10
72.710941
20
-6.455179
30
0
11
81.744733
21
0.456513
31
0
39
0
210
0
220
0
230
1
0
LINE
5
6B
100
AcDbEntity
8
1
62
256
6
ByLayer
370
-1
48
1
60
0
100
AcDbLine
10
67.089188
20
-9.99125
30
0
11
67.089188
21
-9.666952
31
0
39
0
210
0
220
0
230
1
0
LINE
5
6C
100
AcDbEntity
8
1
62
256
6
ByLayer
370
-1
48
1
60
0
100
AcDbLine
10
52.124973
20
4.338787
30
0
11
0
21
4.338787
31
0
39
0
210
0
220
0
230
1
0
LINE
5
6D
100
AcDbEntity
8
1
62
256
6
ByLayer
370
-1
48
1
60
0
100
AcDbLine
10
0
20
8.50875
30
0
11
0
21
4.338787
31
0
39
0
210
0
220
0
230
1
0
LINE
5
6E
100
AcDbEntity
8
1
62
256
6
ByLayer
370
-1
48
1
60
0
100
AcDbLine
10
0
20
-9.99125
30
0
11
0
21
-4.338787
31
0
39
0
210
0
220
0
230
1
0
LINE
5
6F
100
AcDbEntity
8
1
62
256
6
ByLayer
370
-1
48
1
60
0
100
AcDbLine
10
81.673815
20
3.76032
30
0
11
81.744733
21
3.779323
31
0
39
0
210
0
220
0
230
1
0
LINE
5
70
100
AcDbEntity
8
1
62
256
6
ByLayer
370
-1
48
1
60
0
100
AcDbLine
10
0
20
8.50875
30
0
11
53.8408
21
8.50875
31
0
39
0
210
0
220
0
230
1
0
LINE
5
71
100
AcDbEntity
8
1
62
256
6
ByLayer
370
-1
48
1
60
0
100
AcDbLine
10
71.76706
20
2.660224
30
0
11
71.707155
21
2.883793
31
0
39
0
210
0
220
0
230
1
0
LINE
5
72
100
AcDbEntity
8
1
62
256
6
ByLayer
370
-1
48
1
60
0
100
AcDbLine
10
68.3023
20
9.906715
30
0
11
72.710941
21
-6.455179
31
0
39
0
210
0
220
0
230
1
0
LINE
5
73
100
AcDbEntity
8
1
62
256
6
ByLayer
370
-1
48
1
60
0
100
AcDbLine
10
71.780087
20
2.61074
30
0
11
71.76706
21
2.660224
31
0
39
0
210
0
220
0
230
1
0
LINE
5
74
100
AcDbEntity
8
1
62
256
6
ByLayer
370
-1
48
1
60
0
100
AcDbLine
10
75.437444
20
7.749826
30
0
11
75.468857
21
7.632591
31
0
39
0
210
0
220
0
230
1
0
LINE
5
75
100
AcDbEntity
8
1
62
256
6
ByLayer
370
-1
48
1
60
0
100
AcDbLine
10
75.552248
20
7.776104
30
0
11
75.520835
21
7.89334
31
0
39
0
210
0
220
0
230
1
0
LINE
5
76
100
AcDbEntity
8
1
62
256
6
ByLayer
370
-1
48
1
60
0
100
AcDbLine
10
78.011628
20
7.393555
30
0
11
77.975793
21
7.527295
31
0
39
0
210
0
220
0
230
1
0
LINE
5
77
100
AcDbEntity
8
1
62
256
6
ByLayer
370
-1
48
1
60
0
100
AcDbLine
10
77.039825
20
8.506556
30
0
11
77.00399
21
8.640296
31
0
39
0
210
0
220
0
230
1
0
LINE
5
78
100
AcDbEntity
8
1
62
256
6
ByLayer
370
-1
48
1
60
0
100
AcDbLine
10
76.071404
20
8.506557
30
0
11
76.035569
21
8.640297
31
0
39
0
210
0
220
0
230
1
0
LINE
5
79
100
AcDbEntity
8
1
62
256
6
ByLayer
370
-1
48
1
60
0
100
AcDbLine
10
75.583117
20
8.223643
30
0
11
75.547329
21
8.357207
31
0
39
0
210
0
220
0
230
1
0
LINE
5
7A
100
AcDbEntity
8
1
62
256
6
ByLayer
370
-1
48
1
60
0
100
AcDbLine
10
75.094215
20
7.382255
30
0
11
75.058427
21
7.515819
31
0
39
0
210
0
220
0
230
1
0
LINE
5
7B
100
AcDbEntity
8
1
62
256
6
ByLayer
370
-1
48
1
60
0
100
AcDbLine
10
75.575992
20
5.987338
30
0
11
75.540157
21
6.121078
31
0
39
0
210
0
220
0
230
1
0
LINE
5
7C
100
AcDbEntity
8
1
62
256
6
ByLayer
370
-1
48
1
60
0
100
AcDbLine
10
70.886158
20
9.850305
30
0
11
72.929004
21
2.226299
31
0
39
0
210
0
220
0
230
1
0
LINE
5
7D
100
AcDbEntity
8
1
62
256
6
ByLayer
370
-1
48
1
60
0
100
AcDbLine
10
79.115294
20
12.872743
30
0
11
71.448741
21
10.818496
31
0
39
0
210
0
220
0
230
1
0
LINE
5
7E
100
AcDbEntity
8
1
62
256
6
ByLayer
370
-1
48
1
60
0
100
AcDbLine
10
82.129448
20
4.69155
30
0
11
80.086601
21
12.315557
31
0
39
0
210
0
220
0
230
1
0
LINE
5
7F
100
AcDbEntity
8
1
62
256
6
ByLayer
370
-1
48
1
60
0
100
AcDbLine
10
73.900311
20
1.669112
30
0
11
81.566864
21
3.723359
31
0
39
0
210
0
220
0
230
1
0
LINE
5
80
100
AcDbEntity
8
SK1
62
256
6
ByLayer
370
-1
48
1
60
0
100
AcDbLine
10
0
20
4.338787
30
0
11
-169.32
21
4.338787
31
0
39
0
210
0
220
0
230
1
0
LINE
5
81
100
AcDbEntity
8
SK1
62
256
6
ByLayer
370
-1
48
1
60
0
100
AcDbLine
10
0
20
8.50875
30
0
11
0
21
4.338787
31
0
39
0
210
0
220
0
230
1
0
LINE
5
82
100
AcDbEntity
8
SK1
62
256
6
ByLayer
370
-1
48
1
60
0
100
AcDbLine
10
0
20
-9.99125
30
0
11
0
21
-4.338787
31
0
39
0
210
0
220
0
230
1
0
LINE
5
83
100
AcDbEntity
8
SK1
62
256
6
ByLayer
370
-1
48
1
60
0
100
AcDbLine
10
-169.32
20
8.50875
30
0
11
0
21
8.50875
31
0
39
0
210
0
220
0
230
1
0
LINE
5
84
100
AcDbEntity
8
SK1
62
256
6
ByLayer
370
-1
48
1
60
0
100
AcDbLine
10
0
20
-4.338787
30
0
11
0
21
4.338787
31
0
39
0
210
0
220
0
230
1
0
LINE
5
85
100
AcDbEntity
8
SK1
62
256
6
ByLayer
370
-1
48
1
60
0
100
AcDbLine
10
-169.32
20
-4.338787
30
0
11
0
21
-4.338787
31
0
39
0
210
0
220
0
230
1
0
LINE
5
86
100
AcDbEntity
8
SK1
62
256
6
ByLayer
370
-1
48
1
60
0
100
AcDbLine
10
-169.32
20
4.338787
30
0
11
-169.32
21
8.50875
31
0
39
0
210
0
220
0
230
1
0
LINE
5
87
100
AcDbEntity
8
SK1
62
256
6
ByLayer
370
-1
48
1
60
0
100
AcDbLine
10
-169.32
20
-9.99125
30
0
11
-169.32
21
-4.338787
31
0
39
0
210
0
220
0
230
1
0
LINE
5
88
100
AcDbEntity
8
SK1
62
256
6
ByLayer
370
-1
48
1
60
0
100
AcDbLine
10
-171.32
20
-7.99125
30
0
11
-171.32
21
7.99125
31
0
39
0
210
0
220
0
230
1
0
LINE
5
89
100
AcDbEntity
8
2
62
256
6
ByLayer
370
-1
48
1
60
1
100
AcDbLine
10
79.93
20
0
30
0
11
79.931
21
0.001
31
0
39
0
210
0
220
0
230
1
0
MTEXT
5
DE
100
AcDbEntity
8
SK6
62
256
6
ByLayer
370
-1
48
1
60
0
100
AcDbMText
10
-42.32
20
-22.320625
30
0
210
0
220
0
230
1
1
\W00.783;\fsimplex.shx,bigfont.shx;A20S-SSKCR 09 
40
3.5
41
0
44
1.084337
50
0
71
7
72
5
7
DEFAULT
0
DIMENSION
5
111
100
AcDbEntity
8
2
62
256
6
ByLayer
370
-3
48
1
60
0
100
AcDbDimension
2
DimnDraft3D1
10
92.18
20
0
30
0
11
92.18
21
23.155
31
0
70
32
71
5
72
1
41
1
210
0
220
0
230
1
3
Standard
100
AcDbAlignedDimension
13
81.93
23
12.9
33
0
14
81.93
24
0
34
0
50
90
100
AcDbRotatedDimension
1001
ACAD
1000
DSTYLE
1002
{
1070
    74
1070
     0
1070
   279
1070
     0
1070
   172
1070
     1
1070
   173
1070
     1
1070
   340
1005
DF
1070
    77
1070
     1
1070
    73
1070
     0
1070
   171
1070
     4
1070
   274
1070
     4
1070
   177
1070
     2
1070
   176
1070
     2
1070
   178
1070
     7
1070
    78
1070
     8
1070
    41
1041
3.175
1070
   147
1041
2.25
1070
    42
1041
2.0
1070
    44
1041
2.0
1070
   140
1041
4.5
1070
   343
1005
112
1070
   344
1005
112
1002
}
0
DIMENSION
5
127
100
AcDbEntity
8
SK2
62
256
6
ByLayer
370
-3
48
1
60
0
100
AcDbDimension
2
DimnDraft3D2
10
-181.07
20
9.99125
30
0
11
-181.07
21
-4.784211
31
0
70
32
71
5
72
1
41
1
210
0
220
0
230
1
3
Standard
100
AcDbAlignedDimension
13
-173.32
23
-9.99125
33
0
14
-173.32
24
9.99125
34
0
50
90
100
AcDbRotatedDimension
1001
ACAD
1000
DSTYLE
1002
{
1070
    74
1070
     0
1070
   279
1070
     0
1070
   172
1070
     1
1070
   173
1070
     1
1070
   340
1005
DF
1070
    77
1070
     1
1070
    73
1070
     0
1070
   171
1070
     4
1070
   274
1070
     4
1070
   177
1070
     2
1070
   176
1070
     2
1070
   178
1070
     7
1070
    78
1070
     8
1070
    41
1041
3.175
1070
   147
1041
2.25
1070
    42
1041
2.0
1070
    44
1041
2.0
1070
   140
1041
4.5
1070
   343
1005
112
1070
   344
1005
112
1002
}
0
DIMENSION
5
135
100
AcDbEntity
8
SK2
62
256
6
ByLayer
370
-3
48
1
60
0
100
AcDbDimension
2
DimnDraft3D3
10
-171.32
20
25.65
30
0
11
-52.510132
21
25.65
31
0
70
32
71
5
72
1
41
1
210
0
220
0
230
1
3
Standard
100
AcDbAlignedDimension
13
79.93
23
14.9
33
0
14
-171.32
24
11.99125
34
0
50
0
100
AcDbRotatedDimension
1001
ACAD
1000
DSTYLE
1002
{
1070
   279
1070
     0
1070
   172
1070
     1
1070
   173
1070
     1
1070
   340
1005
DF
1070
    77
1070
     1
1070
    73
1070
     0
1070
   171
1070
     4
1070
   274
1070
     4
1070
   177
1070
     2
1070
   176
1070
     2
1070
   178
1070
     7
1070
    78
1070
     8
1070
    41
1041
3.175
1070
   147
1041
2.25
1070
    42
1041
2.0
1070
    44
1041
2.0
1070
   140
1041
4.5
1070
   343
1005
112
1070
   344
1005
112
1002
}
0
DIMENSION
5
143
100
AcDbEntity
8
2
62
256
6
ByLayer
370
-3
48
1
60
0
100
AcDbDimension
2
DimnDraft3D4
10
132.312951
20
0
30
0
11
114.95227
21
-32.251769
31
0
70
34
71
5
72
1
41
1
210
0
220
0
230
1
3
Standard
100
AcDb2LineAngularDimension
13
82.777009
23
2.274816
33
0
14
96.04963
24
-47.25928
34
0
15
81.93
25
0
35
0
16
117.045676
26
-25.82756
36
0
40
0
0
ENDSEC
0
SECTION
2
OBJECTS
0
DICTIONARY
5
174
330
0
100
AcDbDictionary
280
0
281
1
3
ACAD_GROUP
350
175
3
ACAD_MLINESTYLE
350
176
0
DICTIONARY
5
175
330
0
100
AcDbDictionary
280
0
281
1
0
DICTIONARY
5
176
330
0
100
AcDbDictionary
280
0
281
1
3
Standard
350
18
0
MLINESTYLE
5
18
330
176
100
AcDbMlineStyle
2
Standard
70
0
3

62
256
51
90
52
90
71
2
49
-0.5
62
256
6
ByLayer
49
0.5
62
256
6
ByLayer
0
RASTERVARIABLES
5
162
330

100
AcDbRasterVariables
90
0
70
1
71
1
72
1
0
ENDSEC
0
EOF
