0
SECTION
2
HEADER
9
$ACADVER
1
AC1015
9
$DWGCODEPAGE
3
ANSI_1252
9
$HANDSEED
5
17c
9
$ANGBASE
50
0
9
$ANGDIR
70
0
9
$ATTMODE
70
1
9
$AUNITS
70
0
9
$AUPREC
70
0
9
$CECOLOR
62
256
9
$CELTSCALE
40
1
9
$CELTYPE
6
ByLayer
9
$CELWEIGHT
370
-1
9
$CLAYER
8
0
9
$CMLJUST
70
0
9
$CMLSCALE
40
1
9
$CMLSTYLE
2
Standard
9
$DIMSTYLE
2
Standard
9
$TEXTSIZE
40
0.2
9
$TEXTSTYLE
7
Standard
9
$LUNITS
70
2
9
$LUPREC
70
4
9
$EXTNAMES
290
1
9
$INSUNITS
70
4
9
$LTSCALE
40
1
9
$LWDISPLAY
290
0
9
$PDMODE
70
0
9
$PDSIZE
40
0
9
$PLINEGEN
70
0
0
ENDSEC
0
SECTION
2
CLASSES
0
CLASS
1
RASTERVARIABLES
2
AcDbRasterVariables
3
ISM
90
0
280
0
281
0
0
ENDSEC
0
SECTION
2
TABLES
0
TABLE
2
VPORT
5
172
100
AcDbSymbolTable
0
VPORT
5
1
100
AcDbSymbolTableRecord
100
AcDbViewportTableRecord
2
*Active
70
0
10
0
20
0
11
1
21
1
12
-1
22
1
13
0
23
0
14
0.5
24
0.5
15
10
25
10
16
0
26
0
36
1
17
0
27
0
37
0
0
ENDTAB
0
TABLE
2
LTYPE
5
173
100
AcDbSymbolTable
0
LTYPE
5
14
100
AcDbSymbolTableRecord
100
AcDbLinetypeTableRecord
70
0
2
ByBlock
3

72
65
73
0
40
0
0
LTYPE
5
15
100
AcDbSymbolTableRecord
100
AcDbLinetypeTableRecord
70
0
2
ByLayer
3

72
65
73
0
40
0
0
LTYPE
5
16
100
AcDbSymbolTableRecord
100
AcDbLinetypeTableRecord
70
0
2
CONTINUOUS
3
Solid line
72
65
73
0
40
0
0
LTYPE
5
3B
100
AcDbSymbolTableRecord
100
AcDbLinetypeTableRecord
70
0
2
DASHED
3
__ __ __ __ __ __ __ __ __
72
65
73
2
40
25.72
49
12.86
74
0
49
-12.86
74
0
0
LTYPE
5
3C
100
AcDbSymbolTableRecord
100
AcDbLinetypeTableRecord
70
0
2
HIDDEN
3
_ _ _ _ _ _ _ _ _ _ _ _ _ _ _
72
65
73
2
40
0.5
49
0.25
74
0
49
-0.25
74
0
0
LTYPE
5
3D
100
AcDbSymbolTableRecord
100
AcDbLinetypeTableRecord
70
0
2
PHANTOM
3
____ _ _ ____ _ _ _____ _ _ ____
72
65
73
6
40
50.5
49
18
74
0
49
-6.5
74
0
49
6.5
74
0
49
-6.5
74
0
49
6.5
74
0
49
-6.5
74
0
0
LTYPE
5
3E
100
AcDbSymbolTableRecord
100
AcDbLinetypeTableRecord
70
0
2
CENTER
3
____ _ ____ _ ____ _ ____
72
65
73
4
40
47.5
49
22
74
0
49
-8.5
74
0
49
8.5
74
0
49
-8.5
74
0
0
LTYPE
5
3F
100
AcDbSymbolTableRecord
100
AcDbLinetypeTableRecord
70
0
2
DOT
3
.........................
72
65
73
2
40
10
49
0
74
0
49
-10
74
0
0
LTYPE
5
40
100
AcDbSymbolTableRecord
100
AcDbLinetypeTableRecord
70
0
2
DASHDOT
3
_._._._._._._._._._._._._._._._.
72
65
73
4
40
70
49
31
74
0
49
-13
74
0
49
13
74
0
49
-13
74
0
0
ENDTAB
0
TABLE
2
LAYER
5
174
100
AcDbSymbolTable
0
LAYER
5
10
100
AcDbSymbolTableRecord
100
AcDbLayerTableRecord
2
0
70
0
62
7
6
CONTINUOUS
290
1
370
-3
390
0
0
LAYER
5
42
100
AcDbSymbolTableRecord
100
AcDbLayerTableRecord
2
80
70
0
62
-6
6
CONTINUOUS
290
1
370
-3
390
0
0
LAYER
5
44
100
AcDbSymbolTableRecord
100
AcDbLayerTableRecord
2
81
70
0
62
-3
6
CONTINUOUS
290
1
370
-3
390
0
0
LAYER
5
46
100
AcDbSymbolTableRecord
100
AcDbLayerTableRecord
2
1
70
0
62
4
6
CONTINUOUS
290
1
370
-3
390
0
0
LAYER
5
48
100
AcDbSymbolTableRecord
100
AcDbLayerTableRecord
2
2
70
0
62
7
6
CONTINUOUS
290
1
370
-3
390
0
0
LAYER
5
5D
100
AcDbSymbolTableRecord
100
AcDbLayerTableRecord
2
4
70
0
62
-2
6
CENTER
290
1
370
-3
390
0
0
LAYER
5
15e
100
AcDbSymbolTableRecord
100
AcDbLayerTableRecord
2
SK1
70
0
62
4
6
CONTINUOUS
290
1
370
-3
390
0
0
LAYER
5
15f
100
AcDbSymbolTableRecord
100
AcDbLayerTableRecord
2
SK4
70
0
62
2
6
CENTER
290
1
370
-3
390
0
0
LAYER
5
160
100
AcDbSymbolTableRecord
100
AcDbLayerTableRecord
2
SK6
70
0
62
5
6
CONTINUOUS
290
1
370
-3
390
0
0
LAYER
5
161
100
AcDbSymbolTableRecord
100
AcDbLayerTableRecord
2
SK2
70
0
62
7
6
CONTINUOUS
290
1
370
-3
390
0
0
ENDTAB
0
TABLE
2
STYLE
5
175
100
AcDbSymbolTable
0
STYLE
5
11
100
AcDbSymbolTableRecord
100
AcDbTextStyleTableRecord
2
Standard
3
txt
70
0
71
0
40
0
41
1
42
0
50
0
0
STYLE
5
DA
100
AcDbSymbolTableRecord
100
AcDbTextStyleTableRecord
2
DEFAULT
3
simplex.shx
70
0
71
0
40
0
41
1
42
0
50
0
0
STYLE
5
FD
100
AcDbSymbolTableRecord
100
AcDbTextStyleTableRecord
2
DWGDirectTextStyle
3
SIMPLEX
70
0
71
0
40
0
41
1
42
0
50
0
0
ENDTAB
0
TABLE
2
DIMSTYLE
5
176
100
AcDbSymbolTable
100
AcDbDimStyleTable
0
DIMSTYLE
105
27
100
AcDbSymbolTableRecord
100
AcDbDimStyleTableRecord
2
Standard
70
0
3
<>
41
0.18
42
0.0625
44
0.18
140
0.18
147
0.09
73
0
74
0
77
1
271
2
275
0
278
52
280
0
340
11
0
ENDTAB
0
TABLE
2
VIEW
5
177
100
AcDbSymbolTable
0
ENDTAB
0
TABLE
2
UCS
5
178
100
AcDbSymbolTable
0
ENDTAB
0
TABLE
2
APPID
5
179
100
AcDbSymbolTable
0
APPID
5
12
100
AcDbSymbolTableRecord
100
AcDbRegAppTableRecord
2
ACAD
70
0
0
ENDTAB
0
TABLE
2
BLOCK_RECORD
5
17a
100
AcDbSymbolTable
0
BLOCK_RECORD
5
1F
100
AcDbSymbolTableRecord
100
AcDbBlockTableRecord
2
*Model_Space
340
0
70
0
0
BLOCK_RECORD
5
1B
100
AcDbSymbolTableRecord
100
AcDbBlockTableRecord
2
*Paper_Space
340
0
70
0
0
BLOCK_RECORD
5
23
100
AcDbSymbolTableRecord
100
AcDbBlockTableRecord
2
*Paper_Space0
340
0
70
0
0
BLOCK_RECORD
5
FF
100
AcDbSymbolTableRecord
100
AcDbBlockTableRecord
2
DimnDraft3D1
340
0
70
0
0
BLOCK_RECORD
5
10D
100
AcDbSymbolTableRecord
100
AcDbBlockTableRecord
2
_CLOSED
340
0
70
0
0
BLOCK_RECORD
5
114
100
AcDbSymbolTableRecord
100
AcDbBlockTableRecord
2
DimnDraft3D2
340
0
70
0
0
BLOCK_RECORD
5
123
100
AcDbSymbolTableRecord
100
AcDbBlockTableRecord
2
DimnDraft3D3
340
0
70
0
0
BLOCK_RECORD
5
131
100
AcDbSymbolTableRecord
100
AcDbBlockTableRecord
2
DimnDraft3D4
340
0
70
0
0
ENDTAB
0
ENDSEC
0
SECTION
2
BLOCKS
0
BLOCK
5
20
100
AcDbEntity
8
0
100
AcDbBlockBegin
2
*Model_Space
70
0
10
0
20
0
30
0
3
*Model_Space
0
ENDBLK
5
21
100
AcDbEntity
8
0
100
AcDbBlockEnd
0
BLOCK
5
1C
100
AcDbEntity
8
0
100
AcDbBlockBegin
2
*Paper_Space
70
0
10
0
20
0
30
0
3
*Paper_Space
0
ENDBLK
5
1D
100
AcDbEntity
8
0
100
AcDbBlockEnd
0
BLOCK
5
24
100
AcDbEntity
8
0
100
AcDbBlockBegin
2
*Paper_Space0
70
0
10
0
20
0
30
0
3
*Paper_Space0
0
ENDBLK
5
25
100
AcDbEntity
8
0
100
AcDbBlockEnd
0
BLOCK
5
10A
100
AcDbEntity
8
0
100
AcDbBlockBegin
2
DimnDraft3D1
70
0
10
0
20
0
30
0
3
DimnDraft3D1
0
MTEXT
5
100
100
AcDbEntity
8
2
62
256
6
ByLayer
370
-1
48
1
60
0
100
AcDbMText
10
91.055
20
24.28
30
0
210
0
220
0
230
1
1
\W01.000;\fsimplex.shx,bigfont.shx;13.0 
40
4.5
41
0
44
1.084337
50
90
71
7
72
5
7
DEFAULT
0
LINE
5
101
100
AcDbEntity
8
2
62
256
6
ByLayer
370
-1
48
1
60
0
100
AcDbLine
10
81.93
20
12.9
30
0
11
94.18
21
12.9
31
0
39
0
210
0
220
0
230
1
0
LINE
5
102
100
AcDbEntity
8
2
62
256
6
ByLayer
370
-1
48
1
60
0
100
AcDbLine
10
81.93
20
0
30
0
11
94.18
21
0
31
0
39
0
210
0
220
0
230
1
0
LINE
5
103
100
AcDbEntity
8
2
62
256
6
ByLayer
370
-1
48
1
60
0
100
AcDbLine
10
92.18
20
0
30
0
11
92.18
21
32.356316
31
0
39
0
210
0
220
0
230
1
0
LINE
5
104
100
AcDbEntity
8
2
62
256
6
ByLayer
370
-1
48
1
60
0
100
AcDbLine
10
92.18
20
12.9
30
0
11
92.597997
21
9.725002
31
0
39
0
210
0
220
0
230
1
0
LINE
5
105
100
AcDbEntity
8
2
62
256
6
ByLayer
370
-1
48
1
60
0
100
AcDbLine
10
92.18
20
12.9
30
0
11
91.762003
21
9.724998
31
0
39
0
210
0
220
0
230
1
0
LINE
5
106
100
AcDbEntity
8
2
62
256
6
ByLayer
370
-1
48
1
60
0
100
AcDbLine
10
92.597997
20
9.725002
30
0
11
91.762003
21
9.724998
31
0
39
0
210
0
220
0
230
1
0
LINE
5
107
100
AcDbEntity
8
2
62
256
6
ByLayer
370
-1
48
1
60
0
100
AcDbLine
10
92.18
20
0
30
0
11
91.762003
21
3.174998
31
0
39
0
210
0
220
0
230
1
0
LINE
5
108
100
AcDbEntity
8
2
62
256
6
ByLayer
370
-1
48
1
60
0
100
AcDbLine
10
92.18
20
0
30
0
11
92.597997
21
3.175002
31
0
39
0
210
0
220
0
230
1
0
LINE
5
109
100
AcDbEntity
8
2
62
256
6
ByLayer
370
-1
48
1
60
0
100
AcDbLine
10
91.762003
20
3.174998
30
0
11
92.597997
21
3.175002
31
0
39
0
210
0
220
0
230
1
0
ENDBLK
5
10B
100
AcDbEntity
8
0
100
AcDbBlockEnd
0
BLOCK
5
10E
100
AcDbEntity
8
0
100
AcDbBlockBegin
2
_CLOSED
70
0
10
0
20
0
30
0
3
_CLOSED
0
LINE
5
110
100
AcDbEntity
8
0
62
256
6
ByLayer
370
-2
48
1
60
0
100
AcDbLine
10
-1
20
0.166667
30
0
11
0
21
0
31
0
39
0
210
0
220
0
230
1
0
LINE
5
111
100
AcDbEntity
8
0
62
256
6
ByLayer
370
-2
48
1
60
0
100
AcDbLine
10
0
20
0
30
0
11
-1
21
-0.166667
31
0
39
0
210
0
220
0
230
1
0
LINE
5
112
100
AcDbEntity
8
0
62
256
6
ByLayer
370
-2
48
1
60
0
100
AcDbLine
10
-1
20
0.166667
30
0
11
-1
21
-0.166667
31
0
39
0
210
0
220
0
230
1
0
LINE
5
113
100
AcDbEntity
8
0
62
256
6
ByLayer
370
-2
48
1
60
0
100
AcDbLine
10
0
20
0
30
0
11
-1
21
0
31
0
39
0
210
0
220
0
230
1
0
ENDBLK
5
10F
100
AcDbEntity
8
0
100
AcDbBlockEnd
0
BLOCK
5
120
100
AcDbEntity
8
0
100
AcDbBlockBegin
2
DimnDraft3D2
70
0
10
0
20
0
30
0
3
DimnDraft3D2
0
MTEXT
5
115
100
AcDbEntity
8
SK2
62
256
6
ByLayer
370
-1
48
1
60
0
100
AcDbMText
10
-182.195
20
-3.659211
30
0
210
0
220
0
230
1
1
\W01.000;\fsimplex.shx,bigfont.shx;%%c20 
40
4.5
41
0
44
1.084337
50
90
71
7
72
5
7
DEFAULT
0
LINE
5
117
100
AcDbEntity
8
SK2
62
256
6
ByLayer
370
-1
48
1
60
0
100
AcDbLine
10
-173.32
20
-9.99125
30
0
11
-183.07
21
-9.99125
31
0
39
0
210
0
220
0
230
1
0
LINE
5
118
100
AcDbEntity
8
SK2
62
256
6
ByLayer
370
-1
48
1
60
0
100
AcDbLine
10
-173.32
20
9.99125
30
0
11
-183.07
21
9.99125
31
0
39
0
210
0
220
0
230
1
0
LINE
5
119
100
AcDbEntity
8
SK2
62
256
6
ByLayer
370
-1
48
1
60
0
100
AcDbLine
10
-181.07
20
-9.99125
30
0
11
-181.07
21
9.99125
31
0
39
0
210
0
220
0
230
1
0
LINE
5
11A
100
AcDbEntity
8
SK2
62
256
6
ByLayer
370
-1
48
1
60
0
100
AcDbLine
10
-181.07
20
-9.99125
30
0
11
-181.487997
21
-6.816252
31
0
39
0
210
0
220
0
230
1
0
LINE
5
11B
100
AcDbEntity
8
SK2
62
256
6
ByLayer
370
-1
48
1
60
0
100
AcDbLine
10
-181.07
20
-9.99125
30
0
11
-180.652003
21
-6.816248
31
0
39
0
210
0
220
0
230
1
0
LINE
5
11C
100
AcDbEntity
8
SK2
62
256
6
ByLayer
370
-1
48
1
60
0
100
AcDbLine
10
-181.487997
20
-6.816252
30
0
11
-180.652003
21
-6.816248
31
0
39
0
210
0
220
0
230
1
0
LINE
5
11D
100
AcDbEntity
8
SK2
62
256
6
ByLayer
370
-1
48
1
60
0
100
AcDbLine
10
-181.07
20
9.99125
30
0
11
-180.652003
21
6.816252
31
0
39
0
210
0
220
0
230
1
0
LINE
5
11E
100
AcDbEntity
8
SK2
62
256
6
ByLayer
370
-1
48
1
60
0
100
AcDbLine
10
-181.07
20
9.99125
30
0
11
-181.487997
21
6.816248
31
0
39
0
210
0
220
0
230
1
0
LINE
5
11F
100
AcDbEntity
8
SK2
62
256
6
ByLayer
370
-1
48
1
60
0
100
AcDbLine
10
-180.652003
20
6.816252
30
0
11
-181.487997
21
6.816248
31
0
39
0
210
0
220
0
230
1
0
ENDBLK
5
121
100
AcDbEntity
8
0
100
AcDbBlockEnd
0
BLOCK
5
12E
100
AcDbEntity
8
0
100
AcDbBlockBegin
2
DimnDraft3D3
70
0
10
0
20
0
30
0
3
DimnDraft3D3
0
MTEXT
5
124
100
AcDbEntity
8
SK2
62
256
6
ByLayer
370
-1
48
1
60
0
100
AcDbMText
10
-51.385132
20
26.775
30
0
210
0
220
0
230
1
1
\W01.000;\fsimplex.shx,bigfont.shx;250.0 
40
4.5
41
0
44
1.084337
50
0
71
7
72
5
7
DEFAULT
0
LINE
5
125
100
AcDbEntity
8
SK2
62
256
6
ByLayer
370
-1
48
1
60
0
100
AcDbLine
10
79.93
20
14.9
30
0
11
79.93
21
27.65
31
0
39
0
210
0
220
0
230
1
0
LINE
5
126
100
AcDbEntity
8
SK2
62
256
6
ByLayer
370
-1
48
1
60
0
100
AcDbLine
10
-171.32
20
11.99125
30
0
11
-171.32
21
27.65
31
0
39
0
210
0
220
0
230
1
0
LINE
5
127
100
AcDbEntity
8
SK2
62
256
6
ByLayer
370
-1
48
1
60
0
100
AcDbLine
10
79.93
20
25.65
30
0
11
-171.32
21
25.65
31
0
39
0
210
0
220
0
230
1
0
LINE
5
128
100
AcDbEntity
8
SK2
62
256
6
ByLayer
370
-1
48
1
60
0
100
AcDbLine
10
79.93
20
25.65
30
0
11
76.755002
21
25.232003
31
0
39
0
210
0
220
0
230
1
0
LINE
5
129
100
AcDbEntity
8
SK2
62
256
6
ByLayer
370
-1
48
1
60
0
100
AcDbLine
10
79.93
20
25.65
30
0
11
76.754998
21
26.067997
31
0
39
0
210
0
220
0
230
1
0
LINE
5
12A
100
AcDbEntity
8
SK2
62
256
6
ByLayer
370
-1
48
1
60
0
100
AcDbLine
10
76.755002
20
25.232003
30
0
11
76.754998
21
26.067997
31
0
39
0
210
0
220
0
230
1
0
LINE
5
12B
100
AcDbEntity
8
SK2
62
256
6
ByLayer
370
-1
48
1
60
0
100
AcDbLine
10
-171.32
20
25.65
30
0
11
-168.145002
21
26.067997
31
0
39
0
210
0
220
0
230
1
0
LINE
5
12C
100
AcDbEntity
8
SK2
62
256
6
ByLayer
370
-1
48
1
60
0
100
AcDbLine
10
-171.32
20
25.65
30
0
11
-168.144998
21
25.232003
31
0
39
0
210
0
220
0
230
1
0
LINE
5
12D
100
AcDbEntity
8
SK2
62
256
6
ByLayer
370
-1
48
1
60
0
100
AcDbLine
10
-168.145002
20
26.067997
30
0
11
-168.144998
21
25.232003
31
0
39
0
210
0
220
0
230
1
0
ENDBLK
5
12F
100
AcDbEntity
8
0
100
AcDbBlockEnd
0
BLOCK
5
13C
100
AcDbEntity
8
0
100
AcDbBlockBegin
2
DimnDraft3D4
70
0
10
0
20
0
30
0
3
DimnDraft3D4
0
MTEXT
5
132
100
AcDbEntity
8
2
62
256
6
ByLayer
370
-1
48
1
60
0
100
AcDbMText
10
106.976196
20
-36.834311
30
0
210
0
220
0
230
1
1
\W01.000;\fsimplex.shx,bigfont.shx;93%%d0' 
40
4.5
41
0
44
1.084337
50
43.5000000000001
71
7
72
5
7
DEFAULT
0
LINE
5
133
100
AcDbEntity
8
2
62
256
6
ByLayer
370
-1
48
1
60
0
100
AcDbLine
10
79.249633
20
-0.082184
30
0
11
76.693329
21
-48.859355
31
0
39
0
210
0
220
0
230
1
0
LINE
5
134
100
AcDbEntity
8
2
62
256
6
ByLayer
370
-1
48
1
60
0
100
AcDbLine
10
81.93
20
0
30
0
11
128.180347
21
0
31
0
39
0
210
0
220
0
230
1
0
ARC
5
135
100
AcDbEntity
8
2
62
256
6
ByLayer
370
-1
48
1
60
0
100
AcDbCircle
39
0
10
79.25394
20
0
30
0
40
46.9264068782928
210
0
220
0
230
1
100
AcDbArc
50
267
51
0
0
LINE
5
136
100
AcDbEntity
8
2
62
256
6
ByLayer
370
-1
48
1
60
0
100
AcDbLine
10
76.798001
20
-46.862096
30
0
11
79.98582
21
-46.556897
31
0
39
0
210
0
220
0
230
1
0
LINE
5
137
100
AcDbEntity
8
2
62
256
6
ByLayer
370
-1
48
1
60
0
100
AcDbLine
10
76.798001
20
-46.862096
30
0
11
79.956192
21
-47.392365
31
0
39
0
210
0
220
0
230
1
0
LINE
5
138
100
AcDbEntity
8
2
62
256
6
ByLayer
370
-1
48
1
60
0
100
AcDbLine
10
79.98582
20
-46.556897
30
0
11
79.956192
21
-47.392365
31
0
39
0
210
0
220
0
230
1
0
LINE
5
139
100
AcDbEntity
8
2
62
256
6
ByLayer
370
-1
48
1
60
0
100
AcDbLine
10
126.180347
20
0
30
0
11
126.544602
21
-3.181612
31
0
39
0
210
0
220
0
230
1
0
LINE
5
13A
100
AcDbEntity
8
2
62
256
6
ByLayer
370
-1
48
1
60
0
100
AcDbLine
10
126.180347
20
0
30
0
11
125.708728
21
-3.16748
31
0
39
0
210
0
220
0
230
1
0
LINE
5
13B
100
AcDbEntity
8
2
62
256
6
ByLayer
370
-1
48
1
60
0
100
AcDbLine
10
126.544602
20
-3.181612
30
0
11
125.708728
21
-3.16748
31
0
39
0
210
0
220
0
230
1
0
ENDBLK
5
13D
100
AcDbEntity
8
0
100
AcDbBlockEnd
0
ENDSEC
0
SECTION
2
ENTITIES
0
ELLIPSE
5
8A
100
AcDbEntity
8
1
62
256
6
ByLayer
370
-1
48
1
60
0
100
AcDbEllipse
10
70.198641
20
-3.241279
30
0
11
0.18172288746836
21
1.48895157482376
31
0
210
0
220
0
230
1
40
0.994496
41
-1.55907842487487
42
-1.2194823479825
0
ELLIPSE
5
8B
100
AcDbEntity
8
1
62
256
6
ByLayer
370
-1
48
1
60
0
100
AcDbEllipse
10
81.880623
20
3.485904
30
0
11
3.00000023166679
21
-0.00020038446478172
31
0
210
0
220
0
230
-1
40
0.999973
41
2.43872733902821
42
2.56974833954422
0
ELLIPSE
5
8C
100
AcDbEntity
8
1
62
256
6
ByLayer
370
-1
48
1
60
0
100
AcDbEllipse
10
70.567855
20
-3.286341
30
0
11
-0.181722887468356
21
-1.48895157482376
31
0
210
0
220
0
230
1
40
0.994496
41
-2.40069254592987
42
-2.16354754047999
0
ELLIPSE
5
8D
100
AcDbEntity
8
1
62
256
6
ByLayer
370
-1
48
1
60
0
100
AcDbEllipse
10
70.618257
20
-1.366365
30
0
11
-0.181722887468356
21
-1.48895157482376
31
0
210
0
220
0
230
1
40
0.994496
41
-2.46125923521918
42
-0.890462908424252
0
ELLIPSE
5
8E
100
AcDbEntity
8
1
62
256
6
ByLayer
370
-1
48
1
60
0
100
AcDbEllipse
10
70.939955
20
9.941568
30
0
11
3.00000018833025
21
-0.000420928856732052
31
0
210
0
220
0
230
-1
40
0.999973
41
2.00845526072432
42
2.35346957297909
0
ELLIPSE
5
8F
100
AcDbEntity
8
1
62
256
6
ByLayer
370
-1
48
1
60
0
100
AcDbEllipse
10
70.939603
20
9.934853
30
0
11
2.26427114189146
21
1.96970155700068
31
0
210
0
220
0
230
-1
40
0.999235
41
2.54240333091857
42
2.68551842772535
0
ELLIPSE
5
90
100
AcDbEntity
8
1
62
256
6
ByLayer
370
-1
48
1
60
0
100
AcDbEllipse
10
70.599056
20
-3.290149
30
0
11
0.18172288746836
21
1.48895157482376
31
0
210
0
220
0
230
1
40
0.994496
41
0.768109867846923
42
2.97331123210957
0
ELLIPSE
5
91
100
AcDbEntity
8
1
62
256
6
ByLayer
370
-1
48
1
60
0
100
AcDbEllipse
10
70.935913
20
9.864465
30
0
11
2.0334124916639
21
-2.34787266090214
31
0
210
0
220
0
230
-1
40
0.933164
41
1.14749458739629
42
1.18612817023132
0
ELLIPSE
5
92
100
AcDbEntity
8
1
62
256
6
ByLayer
370
-1
48
1
60
0
100
AcDbEllipse
10
70.101403
20
-3.229411
30
0
11
1.50615465614207
21
-0.0785500980739391
31
0
210
0
220
0
230
-1
40
0.994536
41
0.102124558083439
42
-2.47912030931807
0
ELLIPSE
5
93
100
AcDbEntity
8
1
62
256
6
ByLayer
370
-1
48
1
60
0
100
AcDbEllipse
10
70.151256
20
-1.309369
30
0
11
1.50615465614322
21
-0.0785500980960177
31
0
210
0
220
0
230
-1
40
0.994536
41
2.53098036579178
42
-2.26165706834701
0
ELLIPSE
5
94
100
AcDbEntity
8
1
62
256
6
ByLayer
370
-1
48
1
60
0
100
AcDbEllipse
10
81.881019
20
3.493488
30
0
11
2.90946919691261
21
0.800382527953908
31
0
210
0
220
0
230
-1
40
0.939861
41
2.86274466629092
42
2.86707937043955
0
ELLIPSE
5
95
100
AcDbEntity
8
1
62
256
6
ByLayer
370
-1
48
1
60
0
100
AcDbEllipse
10
75.445621
20
1.268566
30
0
11
-0.188520795945641
21
-1.54465042857725
31
0
210
0
220
0
230
1
40
0.994496
41
0.680333418370614
42
0.924602006398467
0
ELLIPSE
5
96
100
AcDbEntity
8
1
62
256
6
ByLayer
370
-1
48
1
60
0
100
AcDbEllipse
10
81.88072
20
3.487755
30
0
11
2.26430221602352
21
1.96966645838941
31
0
210
0
220
0
230
-1
40
0.999235
41
-2.99782936347619
42
-2.95525346556237
0
ELLIPSE
5
97
100
AcDbEntity
8
1
62
256
6
ByLayer
370
-1
48
1
60
0
100
AcDbEllipse
10
70.249043
20
-1.321304
30
0
11
-0.181722887468356
21
-1.48895157482376
31
0
210
0
220
0
230
1
40
0.994496
41
-2.46125923521918
42
-2.38101078146628
0
ELLIPSE
5
98
100
AcDbEntity
8
1
62
256
6
ByLayer
370
-1
48
1
60
0
100
AcDbEllipse
10
73.758423
20
0.207044
30
0
11
-0.188520795945641
21
-1.54465042857725
31
0
210
0
220
0
230
1
40
0.994496
41
0.436064693721535
42
0.680333418370615
0
ELLIPSE
5
99
100
AcDbEntity
8
1
62
256
6
ByLayer
370
-1
48
1
60
0
100
AcDbEllipse
10
70.459051
20
-2.713067
30
0
11
0.0961616946186775
21
0.787903541677603
31
0
210
0
220
0
230
1
40
0.994496
41
1.64026450696757
42
-2.46125923521902
0
ELLIPSE
5
9A
100
AcDbEntity
8
1
62
256
6
ByLayer
370
-1
48
1
60
0
100
AcDbEllipse
10
79.140555
20
12.106314
30
0
11
0.0961616946186775
21
0.787903541677603
31
0
210
0
220
0
230
1
40
0.994496
41
-1.50132814662224
42
0.68033341837072
0
ELLIPSE
5
9B
100
AcDbEntity
8
1
62
256
6
ByLayer
370
-1
48
1
60
0
100
AcDbEllipse
10
78.633438
20
2.429951
30
0
11
0.0961616946186709
21
0.787903541677549
31
0
210
0
220
0
230
1
40
0.994496
41
-2.46125923521913
42
-1.50132814662231
0
ELLIPSE
5
9C
100
AcDbEntity
8
1
62
256
6
ByLayer
370
-1
48
1
60
0
100
AcDbEllipse
10
74.799803
20
4.696623
30
0
11
-0.368841025914863
21
-3.02210928984484
31
0
210
0
220
0
230
1
40
0.994496
41
0
42
6.28318530717959
0
ELLIPSE
5
9D
100
AcDbEntity
8
1
62
256
6
ByLayer
370
-1
48
1
60
0
100
AcDbEllipse
10
74.917781
20
4.682224
30
0
11
-0.353431306942275
21
-2.89584932528302
31
0
210
0
220
0
230
1
40
0.994496
41
0
42
6.28318530717959
0
ELLIPSE
5
9E
100
AcDbEntity
8
1
62
256
6
ByLayer
370
-1
48
1
60
0
100
AcDbEllipse
10
74.890335
20
4.685574
30
0
11
0.364236704300077
21
2.98438365156751
31
0
210
0
220
0
230
1
40
0.994496
41
-0.413482067211327
42
-2.97051560524825E-16
0
ELLIPSE
5
9F
100
AcDbEntity
8
1
62
256
6
ByLayer
370
-1
48
1
60
0
100
AcDbEllipse
10
74.890335
20
4.685574
30
0
11
0.364236704300077
21
2.98438365156751
31
0
210
0
220
0
230
1
40
0.994496
41
0
42
-2.72805046150334
0
ELLIPSE
5
A0
100
AcDbEntity
8
1
62
256
6
ByLayer
370
-1
48
1
60
0
100
AcDbEllipse
10
70.966167
20
6.963296
30
0
11
0.0961616946186709
21
0.787903541677549
31
0
210
0
220
0
230
1
40
0.994496
41
0.68033341837069
42
1.6402645069675
0
ELLIPSE
5
A1
100
AcDbEntity
8
1
62
256
6
ByLayer
370
-1
48
1
60
0
100
AcDbEllipse
10
74.950479
20
2.783574
30
0
11
-0.0831079338688616
21
-0.680947186886068
31
0
210
0
220
0
230
1
40
0.994496
41
2.46930814760083
42
-3.14159234138483
0
ELLIPSE
5
A2
100
AcDbEntity
8
1
62
256
6
ByLayer
370
-1
48
1
60
0
100
AcDbEllipse
10
74.270852
20
3.482282
30
0
11
-0.0353753887605067
21
-0.289849239899026
31
0
210
0
220
0
230
1
40
0.994496
41
-1.71669150950413
42
-0.228120446783637
0
ELLIPSE
5
A3
100
AcDbEntity
8
1
62
256
6
ByLayer
370
-1
48
1
60
0
100
AcDbEllipse
10
73.332881
20
3.739994
30
0
11
-0.0831079338688616
21
-0.680947186886068
31
0
210
0
220
0
230
1
40
0.994496
41
1.42490114408548
42
2.20889178770627
0
ELLIPSE
5
A4
100
AcDbEntity
8
1
62
256
6
ByLayer
370
-1
48
1
60
0
100
AcDbEllipse
10
73.5931
20
4.682617
30
0
11
-0.0353753887605067
21
-0.289849239899026
31
0
210
0
220
0
230
1
40
0.994496
41
-2.77255502584173
42
-0.148710222263
0
ELLIPSE
5
A5
100
AcDbEntity
8
1
62
256
6
ByLayer
370
-1
48
1
60
0
100
AcDbEllipse
10
73.355351
20
5.630558
30
0
11
-0.0831079338688616
21
-0.680947186886068
31
0
210
0
220
0
230
1
40
0.994496
41
0.369037627747823
42
1.03868492145235
0
ELLIPSE
5
A6
100
AcDbEntity
8
1
62
256
6
ByLayer
370
-1
48
1
60
0
100
AcDbEllipse
10
74.295691
20
5.881943
30
0
11
-0.0353753887605067
21
-0.289849239899026
31
0
210
0
220
0
230
1
40
0.994496
41
-2.90680497297473
42
-1.19003235599947
0
ELLIPSE
5
A7
100
AcDbEntity
8
1
62
256
6
ByLayer
370
-1
48
1
60
0
100
AcDbEllipse
10
74.989652
20
6.568113
30
0
11
-0.0831079338688616
21
-0.680947186886068
31
0
210
0
220
0
230
1
40
0.994496
41
-9.05385445860954E-07
42
0.111706137631749
0
ELLIPSE
5
A8
100
AcDbEntity
8
1
62
256
6
ByLayer
370
-1
48
1
60
0
100
AcDbEllipse
10
75.669279
20
5.869405
30
0
11
-0.0353753887605067
21
-0.289849239899026
31
0
210
0
220
0
230
1
40
0.994496
41
-2.86250283509854
42
-2.24589587233695
0
ELLIPSE
5
A9
100
AcDbEntity
8
1
62
256
6
ByLayer
370
-1
48
1
60
0
100
AcDbEllipse
10
75.64444
20
3.469743
30
0
11
-0.0353753887605067
21
-0.289849239899026
31
0
210
0
220
0
230
1
40
0.994496
41
-0.672284505988719
42
-0.282027373058635
0
ELLIPSE
5
AA
100
AcDbEntity
8
1
62
256
6
ByLayer
370
-1
48
1
60
0
100
AcDbEllipse
10
74.970066
20
4.675843
30
0
11
-0.146165775820381
21
-1.19761338334991
31
0
210
0
220
0
230
1
40
0.994496
41
0.139959993854857
42
0.876451726543645
0
ELLIPSE
5
AB
100
AcDbEntity
8
1
62
256
6
ByLayer
370
-1
48
1
60
0
100
AcDbEllipse
10
74.850082
20
4.690487
30
0
11
0.146165775820384
21
1.19761338334991
31
0
210
0
220
0
230
1
40
0.994496
41
1.0912663292572
42
1.22933159608086
0
ELLIPSE
5
AC
100
AcDbEntity
8
1
62
256
6
ByLayer
370
-1
48
1
60
0
100
AcDbEllipse
10
74.82186
20
4.693931
30
0
11
0.203105613893803
21
1.66415154346135
31
0
210
0
220
0
230
1
40
0.994496
41
2.73109528946399
42
-2.50768301420029
0
ELLIPSE
5
AD
100
AcDbEntity
8
1
62
256
6
ByLayer
370
-1
48
1
60
0
100
AcDbEllipse
10
74.82186
20
4.693931
30
0
11
0.203105613893803
21
1.66415154346135
31
0
210
0
220
0
230
1
40
0.994496
41
1.68668828594866
42
2.73109528946399
0
ELLIPSE
5
AE
100
AcDbEntity
8
1
62
256
6
ByLayer
370
-1
48
1
60
0
100
AcDbEllipse
10
74.970066
20
4.675843
30
0
11
-0.146165775820381
21
-1.19761338334991
31
0
210
0
220
0
230
1
40
0.994496
41
-0.932700865883532
42
0.111706137631781
0
ELLIPSE
5
AF
100
AcDbEntity
8
1
62
256
6
ByLayer
370
-1
48
1
60
0
100
AcDbEllipse
10
74.850082
20
4.690487
30
0
11
0.146165775820384
21
1.19761338334991
31
0
210
0
220
0
230
1
40
0.994496
41
-2.05032632433275
42
-1.91226105750864
0
ELLIPSE
5
B0
100
AcDbEntity
8
1
62
256
6
ByLayer
370
-1
48
1
60
0
100
AcDbEllipse
10
74.970066
20
4.675843
30
0
11
-0.146165775820381
21
-1.19761338334991
31
0
210
0
220
0
230
1
40
0.994496
41
2.45613886559338
42
-3.02988651595797
0
ELLIPSE
5
B1
100
AcDbEntity
8
1
62
256
6
ByLayer
370
-1
48
1
60
0
100
AcDbEllipse
10
74.970066
20
4.675843
30
0
11
-0.146165775820381
21
-1.19761338334991
31
0
210
0
220
0
230
1
40
0.994496
41
1.37995424629842
42
2.01934724086832
0
ELLIPSE
5
B2
100
AcDbEntity
8
1
62
256
6
ByLayer
370
-1
48
1
60
0
100
AcDbEllipse
10
74.82186
20
4.693931
30
0
11
0.203105613893803
21
1.66415154346135
31
0
210
0
220
0
230
1
40
0.994496
41
-2.50768301420029
42
-1.45490436764101
0
ELLIPSE
5
B3
100
AcDbEntity
8
1
62
256
6
ByLayer
370
-1
48
1
60
0
100
AcDbEllipse
10
74.989652
20
6.568113
30
0
11
-0.0831079338688616
21
-0.680947186886068
31
0
210
0
220
0
230
1
40
0.994496
41
0.111706137631749
42
0.89569678125256
0
ELLIPSE
5
B4
100
AcDbEntity
8
1
62
256
6
ByLayer
370
-1
48
1
60
0
100
AcDbEllipse
10
74.82186
20
4.693931
30
0
11
0.203105613893803
21
1.66415154346135
31
0
210
0
220
0
230
1
40
0.994496
41
0.633909639389393
42
1.68668828594866
0
ELLIPSE
5
B5
100
AcDbEntity
8
1
62
256
6
ByLayer
370
-1
48
1
60
0
100
AcDbEllipse
10
74.970066
20
4.675843
30
0
11
0.146165775820384
21
1.19761338334991
31
0
210
0
220
0
230
1
40
0.994496
41
1.09126632925723
42
1.22933159608085
0
ELLIPSE
5
B6
100
AcDbEntity
8
1
62
256
6
ByLayer
370
-1
48
1
60
0
100
AcDbEllipse
10
73.332881
20
3.739994
30
0
11
-0.0831079338688616
21
-0.680947186886068
31
0
210
0
220
0
230
1
40
0.994496
41
2.20889178770627
42
2.99288243132717
0
ELLIPSE
5
B7
100
AcDbEntity
8
1
62
256
6
ByLayer
370
-1
48
1
60
0
100
AcDbEllipse
10
74.82186
20
4.693931
30
0
11
0.203105613893803
21
1.66415154346135
31
0
210
0
220
0
230
1
40
0.994496
41
-1.45490436764101
42
-0.410497364125857
0
ELLIPSE
5
B8
100
AcDbEntity
8
1
62
256
6
ByLayer
370
-1
48
1
60
0
100
AcDbEllipse
10
73.355351
20
5.630558
30
0
11
-0.0831079338688616
21
-0.680947186886068
31
0
210
0
220
0
230
1
40
0.994496
41
1.28191300388585
42
1.95156029759034
0
ELLIPSE
5
B9
100
AcDbEntity
8
1
62
256
6
ByLayer
370
-1
48
1
60
0
100
AcDbEllipse
10
74.970066
20
4.675843
30
0
11
-0.146165775820381
21
-1.19761338334991
31
0
210
0
220
0
230
1
40
0.994496
41
-1.91226105750891
42
-0.932700865883532
0
ELLIPSE
5
BA
100
AcDbEntity
8
1
62
256
6
ByLayer
370
-1
48
1
60
0
100
AcDbEllipse
10
74.82186
20
4.693931
30
0
11
0.203105613893803
21
1.66415154346135
31
0
210
0
220
0
230
1
40
0.994496
41
-0.410497364125857
42
0.633909639389393
0
ELLIPSE
5
BB
100
AcDbEntity
8
1
62
256
6
ByLayer
370
-1
48
1
60
0
100
AcDbEllipse
10
74.970066
20
4.675843
30
0
11
-0.146165775820378
21
-1.19761338334989
31
0
210
0
220
0
230
1
40
0.994496
41
-3.02988651595801
42
-2.05032632433256
0
ELLIPSE
5
BC
100
AcDbEntity
8
1
62
256
6
ByLayer
370
-1
48
1
60
0
100
AcDbEllipse
10
74.967465
20
4.676161
30
0
11
0.318015053069631
21
2.60566525594158
31
0
210
0
220
0
230
1
40
0.994496
41
-3.14156276812048
42
-1.45001158487645
0
ELLIPSE
5
BD
100
AcDbEntity
8
1
62
256
6
ByLayer
370
-1
48
1
60
0
100
AcDbEllipse
10
74.967465
20
4.676161
30
0
11
0.318015053069631
21
2.60566525594158
31
0
210
0
220
0
230
1
40
0.994496
41
-1.45001120389371
42
-3.40226289190993E-16
0
ELLIPSE
5
BE
100
AcDbEntity
8
1
62
256
6
ByLayer
370
-1
48
1
60
0
100
AcDbEllipse
10
74.82186
20
4.693931
30
0
11
0.21806746496203
21
1.78674188978849
31
0
210
0
220
0
230
1
40
0.994496
41
0
42
6.28318530717959
0
ELLIPSE
5
BF
100
AcDbEntity
8
1
62
256
6
ByLayer
370
-1
48
1
60
0
100
AcDbEllipse
10
74.850507
20
4.690435
30
0
11
0.318015053069629
21
2.60566525594157
31
0
210
0
220
0
230
1
40
0.994496
41
0
42
6.28318530717959
0
POINT
5
41
100
AcDbEntity
8
80
62
256
6
ByLayer
370
-1
48
1
60
0
100
AcDbPoint
10
0
20
0
30
0
39
0
210
0
220
0
230
1
50
360
0
POINT
5
43
100
AcDbEntity
8
81
62
256
6
ByLayer
370
-1
48
1
60
0
100
AcDbPoint
10
79.93
20
12.9
30
0
39
0
210
0
220
0
230
1
50
360
0
POINT
5
45
100
AcDbEntity
8
1
62
256
6
ByLayer
370
-1
48
1
60
0
100
AcDbPoint
10
-171.32
20
0
30
0
39
0
210
0
220
0
230
1
50
360
0
POINT
5
47
100
AcDbEntity
8
2
62
256
6
ByLayer
370
-1
48
1
60
0
100
AcDbPoint
10
79.93
20
12.9
30
0
39
0
210
0
220
0
230
1
50
360
0
POINT
5
49
100
AcDbEntity
8
2
62
256
6
ByLayer
370
-1
48
1
60
0
100
AcDbPoint
10
80.119943
20
11.629933
30
0
39
0
210
0
220
0
230
1
50
360
0
SPLINE
5
C0
100
AcDbEntity
8
1
62
256
6
ByLayer
370
-1
48
1
60
0
100
AcDbSpline
70
4
71
3
72
12
73
8
40
0
40
0
40
0
40
0
40
0.364620612095711
40
0.364620612095711
40
0.760366531388563
40
0.760366531388563
40
1
40
1
40
1
40
1
41
1
10
53.0175283177978
20
-0.233436164322711
30
0
41
1
10
53.0097755792495
20
-0.178483252999968
30
0
41
1
10
52.9985241384895
20
-0.119785612031421
30
0
41
1
10
52.9695853235463
20
0.0016447307095007
30
0
41
1
10
52.9510693253464
20
0.0658410562364793
30
0
41
1
10
52.9182709993223
20
0.163261286407021
30
0
41
1
10
52.9050599257001
20
0.199185007248445
30
0
41
1
10
52.8913880114886
20
0.233436164323621
30
0
0
SPLINE
5
C1
100
AcDbEntity
8
1
62
256
6
ByLayer
370
-1
48
1
60
0
100
AcDbSpline
70
4
71
3
72
14
73
10
40
0
40
0
40
0
40
0
40
0.25
40
0.25
40
0.5
40
0.5
40
0.75
40
0.75
40
1
40
1
40
1
40
1
41
1
10
52.8913880114886
20
0.233436164323621
30
0
41
1
10
52.3937035461638
20
2.12546333115219
30
0
41
1
10
52.013214113103
20
4.07412177480637
30
0
41
1
10
52.1626933823985
20
7.32126297079159
30
0
41
1
10
52.8148406966548
20
8.52163928434993
30
0
41
1
10
55.2804891599422
20
9.76548399320677
30
0
41
1
10
56.9891747103487
20
9.91127838461904
30
0
41
1
10
60.6178419112049
20
10.0188920282228
30
0
41
1
10
62.5888509443139
20
9.98322260633995
30
0
41
1
10
64.5725690582783
20
9.98322260633995
30
0
0
SPLINE
5
C2
100
AcDbEntity
8
1
62
256
6
ByLayer
370
-1
48
1
60
0
100
AcDbSpline
70
4
71
3
72
14
73
10
40
0
40
0
40
0
40
0
40
0.25
40
0.25
40
0.5
40
0.5
40
0.75
40
0.75
40
1
40
1
40
1
40
1
41
1
10
69.08932449047
20
-9.98854645756643
30
0
41
1
10
67.0715708465047
20
-9.99108765050093
30
0
41
1
10
65.0890515031635
20
-10.0206476783702
30
0
41
1
10
61.4639103797287
20
-9.80622746810405
30
0
41
1
10
59.8090221857083
20
-9.53673682925518
30
0
41
1
10
57.0806883584771
20
-8.19349614096456
30
0
41
1
10
55.9781936768328
20
-7.07978566860564
30
0
41
1
10
54.2366310313109
20
-4.06904271742121
30
0
41
1
10
53.5548875782147
20
-2.17107622787327
30
0
41
1
10
53.0175283177978
20
-0.233436164322711
30
0
0
SPLINE
5
C3
100
AcDbEntity
8
1
62
256
6
ByLayer
370
-1
48
1
60
0
100
AcDbSpline
70
4
71
3
72
26
73
22
40
-0.124999999999999
40
-0.124999999999999
40
0
40
0
40
0.125000000000001
40
0.125000000000001
40
0.187500000000002
40
0.187500000000002
40
0.250000000000003
40
0.250000000000003
40
0.375000000000004
40
0.375000000000004
40
0.500000000000005
40
0.500000000000005
40
0.625000000000007
40
0.625000000000007
40
0.687500000000005
40
0.687500000000005
40
0.750000000000003
40
0.750000000000003
40
0.875000000000001
40
0.875000000000001
40
1
40
1
40
1.125
40
1.125
41
1
10
59.5396907181075
20
2.64509496131851
30
0
41
1
10
58.5526834676366
20
2.22682563605687
30
0
41
1
10
58.035403485889
20
2.10182454228149
30
0
41
1
10
57.2873089872894
20
2.33386650759377
30
0
41
1
10
57.045365330097
20
2.49658059862728
30
0
41
1
10
56.7235694857918
20
3.00520624341428
30
0
41
1
10
56.6614371834295
20
3.33698498303045
30
0
41
1
10
56.7610677181861
20
4.22696431744347
30
0
41
1
10
57.1232933044107
20
4.65980156706493
30
0
41
1
10
57.9594157119794
20
5.27148046803038
30
0
41
1
10
58.463381211118
20
5.4689045905177
30
0
41
1
10
59.524713226647
20
5.71514067441134
30
0
41
1
10
60.1014865034746
20
5.77676730071408
30
0
41
1
10
60.9751255048153
20
5.68672927058944
30
0
41
1
10
61.2850779455966
20
5.63945821977597
30
0
41
1
10
61.7683783109245
20
5.25800302203308
30
0
41
1
10
61.7429508054315
20
4.87907602902121
30
0
41
1
10
61.3337546169058
20
4.07006943081376
30
0
41
1
10
60.885369880897
20
3.66483046680301
30
0
41
1
10
60.0002694338018
20
2.94278599117089
30
0
41
1
10
59.5396907181075
20
2.64509496131851
30
0
41
1
10
58.5526834676366
20
2.22682563605687
30
0
0
SPLINE
5
C4
100
AcDbEntity
8
SK1
62
256
6
ByLayer
370
-1
48
1
60
0
100
AcDbSpline
70
4
71
3
72
34
73
30
40
0
40
0
40
0
40
0
40
0.217457722716224
40
0.217457722716224
40
0.435205736046568
40
0.435205736046568
40
0.489804543994878
40
0.489804543994878
40
0.496549308752554
40
0.496549308752554
40
0.499955506609483
40
0.499955506609483
40
0.501333585706673
40
0.501333585706673
40
0.502727669322812
40
0.502727669322812
40
0.503969738093622
40
0.503969738093622
40
0.506084034866097
40
0.506084034866097
40
0.511582108692614
40
0.511582108692614
40
0.532968432685216
40
0.532968432685216
40
0.617843090853689
40
0.617843090853689
40
0.991279786412478
40
0.991279786412478
40
1
40
1
40
1
40
1
41
1
10
-60.07
20
-0.233436164322711
30
0
41
1
10
-60.4700057987322
20
-0.233436164322711
30
0
41
1
10
-60.8701208961381
20
-0.226764338557643
30
0
41
1
10
-61.669788890028
20
-0.194439129841101
30
0
41
1
10
-62.0713188507156
20
-0.175922319090432
30
0
41
1
10
-62.5660317074295
20
-0.0991142584228157
30
0
41
1
10
-62.6682903311479
20
-0.0860601938297805
30
0
41
1
10
-62.7710652211984
20
-0.0393601932101433
30
0
41
1
10
-62.7824106913997
20
-0.0334791827027914
30
0
41
1
10
-62.7971573166669
20
-0.0216662685330675
30
0
41
1
10
-62.8018552013267
20
-0.0170508851722104
30
0
41
1
10
-62.8062097532358
20
-0.0092514148736598
30
0
41
1
10
-62.8072008706596
20
-0.006780393331411
30
0
41
1
10
-62.8082484512515
20
-0.0016667993909607
30
0
41
1
10
-62.8082910029577
20
0.0010442320272261
30
0
41
1
10
-62.8074328101159
20
0.0059371585597034
30
0
41
1
10
-62.8066364740706
20
0.0081988054900819
30
0
41
1
10
-62.8038120270865
20
0.0138593692916515
30
0
41
1
10
-62.8012989095358
20
0.0170658976253719
30
0
41
1
10
-62.7913933262466
20
0.027298602384235
30
0
41
1
10
-62.7824578935857
20
0.032876467013665
30
0
41
1
10
-62.7384762058085
20
0.0566035527719464
30
0
41
1
10
-62.6993830440455
20
0.0670885454558174
30
0
41
1
10
-62.5081904081079
20
0.115383286102372
30
0
41
1
10
-62.3506046797186
20
0.13266514094309
30
0
41
1
10
-61.505331047694
20
0.220917708457137
30
0
41
1
10
-60.8109209829838
20
0.232394670085569
30
0
41
1
10
-60.1023607472352
20
0.233424410073695
30
0
41
1
10
-60.0861803714794
20
0.233436164322683
30
0
41
1
10
-60.07
20
0.233436164322683
30
0
0
SPLINE
5
C5
100
AcDbEntity
8
1
62
256
6
ByLayer
370
-1
48
1
60
0
100
AcDbSpline
70
4
71
3
72
18
73
14
40
0
40
0
40
0
40
0
40
0.211008076659716
40
0.211008076659716
40
0.385385501012121
40
0.385385501012121
40
0.561461660160813
40
0.561461660160813
40
0.714468544826448
40
0.714468544826448
40
0.917058201696475
40
0.917058201696475
40
1
40
1
40
1
40
1
41
1
10
74.3660108115637
20
6.10351700250251
30
0
41
1
10
74.4189308779227
20
6.05283909417639
30
0
41
1
10
74.4811041896928
20
6.00824719391105
30
0
41
1
10
74.6064458629913
20
5.94535303074005
30
0
41
1
10
74.6690401730799
20
5.92326571794649
30
0
41
1
10
74.7979599808402
20
5.89741207485966
30
0
41
1
10
74.8662373187387
20
5.89363427367286
30
0
41
1
10
74.9872209862768
20
5.90504329486404
30
0
41
1
10
75.042262299223
20
5.91785785293501
30
0
41
1
10
75.1588958596848
20
5.96119458416479
30
0
41
1
10
75.2189688789499
20
5.99662407143336
30
0
41
1
10
75.2912614090773
20
6.05624161182257
30
0
41
1
10
75.3110848302827
20
6.07495878188902
30
0
41
1
10
75.3294888513539
20
6.09472241631244
30
0
0
SPLINE
5
C6
100
AcDbEntity
8
1
62
256
6
ByLayer
370
-1
48
1
60
0
100
AcDbSpline
70
4
71
3
72
18
73
14
40
0
40
0
40
0
40
0
40
0.0347065244430579
40
0.0347065244430579
40
0.258163498274009
40
0.258163498274009
40
0.482790256886037
40
0.482790256886037
40
0.720553162981465
40
0.720553162981465
40
0.980917705915157
40
0.980917705915157
40
1
40
1
40
1
40
1
41
1
10
76.4892358116262
20
4.68572899029823
30
0
41
1
10
76.4892646241033
20
4.69038572640781
30
0
41
1
10
76.4891880728338
20
4.69504396612115
30
0
41
1
10
76.4878481512313
20
4.72934013295364
30
0
41
1
10
76.4822643187895
20
4.75909502640073
30
0
41
1
10
76.4634329287956
20
4.8142090791296
30
0
41
1
10
76.4499250915753
20
4.84025599691182
30
0
41
1
10
76.4164501023818
20
4.88702117666756
30
0
41
1
10
76.3957558577964
20
4.90794384345566
30
0
41
1
10
76.3488277574353
20
4.94295235977424
30
0
41
1
10
76.3216850012828
20
4.95666815445895
30
0
41
1
10
76.2919635722373
20
4.96600361199603
30
0
41
1
10
76.2899083052443
20
4.966621257757
30
0
41
1
10
76.2878489939479
20
4.96721246289843
30
0
0
SPLINE
5
C7
100
AcDbEntity
8
1
62
256
6
ByLayer
370
-1
48
1
60
0
100
AcDbSpline
70
4
71
3
72
12
73
8
40
0
40
0
40
0
40
0
40
0.31062068876312
40
0.31062068876312
40
0.776624826848164
40
0.776624826848164
40
1
40
1
40
1
40
1
41
1
10
73.8608287715139
20
5.37198681118161
30
0
41
1
10
73.8802122438709
20
5.41811656477782
30
0
41
1
10
73.8938783705728
20
5.46641178709629
30
0
41
1
10
73.9134896401117
20
5.5857668166573
30
0
41
1
10
73.9126489585237
20
5.65809616390831
30
0
41
1
10
73.8960835532612
20
5.75951801502677
30
0
41
1
10
73.8882508598611
20
5.79201089037511
30
0
41
1
10
73.8782406746828
20
5.82357069408837
30
0
0
SPLINE
5
C8
100
AcDbEntity
8
1
62
256
6
ByLayer
370
-1
48
1
60
0
100
AcDbSpline
70
4
71
3
72
18
73
14
40
0
40
0
40
0
40
0
40
0.21137957790636
40
0.21137957790636
40
0.385642816054595
40
0.385642816054595
40
0.561599464133068
40
0.561599464133068
40
0.71455605590682
40
0.71455605590682
40
0.917173433810616
40
0.917173433810616
40
1
40
1
40
1
40
1
41
1
10
75.8124526924817
20
5.8091655935952
30
0
41
1
10
75.797661705175
20
5.74058164402842
30
0
41
1
10
75.7926552358489
20
5.66682504595516
30
0
41
1
10
75.8046774057971
20
5.53033126595369
30
0
41
1
10
75.8182675953378
20
5.46640052842767
30
0
41
1
10
75.8620713006085
20
5.34321498304652
30
0
41
1
10
75.8932436301995
20
5.28224823385446
30
0
41
1
10
75.9630172288836
20
5.18195106246472
30
0
41
1
10
76.0008924657195
20
5.1395855622302
30
0
41
1
10
76.094289237685
20
5.05687407212881
30
0
41
1
10
76.1530432082459
20
5.02002371350341
30
0
41
1
10
76.2375894319693
20
4.9834031136765
30
0
41
1
10
76.2626375928471
20
4.97445037295731
30
0
41
1
10
76.2878489939475
20
4.96721246289547
30
0
0
SPLINE
5
C9
100
AcDbEntity
8
1
62
256
6
ByLayer
370
-1
48
1
60
0
100
AcDbSpline
70
4
71
3
72
14
73
10
40
0
40
0
40
0
40
0
40
0.280375768527957
40
0.280375768527957
40
0.567149565784407
40
0.567149565784407
40
0.826677626228649
40
0.826677626228649
40
1
40
1
40
1
40
1
41
1
10
73.8539283282885
20
3.57593148192908
30
0
41
1
10
73.8434241245664
20
3.54421795903045
30
0
41
1
10
73.8382665375267
20
3.50998730592906
30
0
41
1
10
73.8407860636944
20
3.44104570566364
30
0
41
1
10
73.8488645690985
20
3.40527340738842
30
0
41
1
10
73.8772537461085
20
3.34257834119143
30
0
41
1
10
73.896814376351
20
3.31421676166548
30
0
41
1
10
73.9369830269931
20
3.27453281794072
30
0
41
1
10
73.9553872640544
20
3.26034113218046
30
0
41
1
10
73.9751778023767
20
3.24863979398094
30
0
0
SPLINE
5
CA
100
AcDbEntity
8
1
62
256
6
ByLayer
370
-1
48
1
60
0
100
AcDbSpline
70
4
71
3
72
18
73
14
40
0
40
0
40
0
40
0
40
0.0448975517152441
40
0.0448975517152441
40
0.268095686143811
40
0.268095686143811
40
0.493054654847842
40
0.493054654847842
40
0.731628990383997
40
0.731628990383997
40
0.993159809937058
40
0.993159809937058
40
1
40
1
40
1
40
1
41
1
10
73.1544840347261
20
4.70213382598408
30
0
41
1
10
73.1544468012738
20
4.69611607327391
30
0
41
1
10
73.1546040903459
20
4.69009276171201
30
0
41
1
10
73.1566851387149
20
4.6544749718378
30
0
41
1
10
73.1632919792499
20
4.62478247190063
30
0
41
1
10
73.1849159202538
20
4.56973095771616
30
0
41
1
10
73.2002529452946
20
4.54369777582315
30
0
41
1
10
73.2380905455015
20
4.49692128296874
30
0
41
1
10
73.2614171244036
20
4.47598814103819
30
0
41
1
10
73.3142896301261
20
4.44095600783947
30
0
41
1
10
73.3448616856016
20
4.42723869190385
30
0
41
1
10
73.3768808704973
20
4.41833315617171
30
0
41
1
10
73.3777061195058
20
4.41810719639651
30
0
41
1
10
73.3785320268246
20
4.41788461263127
30
0
0
SPLINE
5
CB
100
AcDbEntity
8
1
62
256
6
ByLayer
370
-1
48
1
60
0
100
AcDbSpline
70
4
71
3
72
18
73
14
40
0
40
0
40
0
40
0
40
0.195079106909313
40
0.195079106909313
40
0.372325596387581
40
0.372325596387581
40
0.551456146862958
40
0.551456146862958
40
0.705129414977018
40
0.705129414977018
40
0.904978813637291
40
0.904978813637291
40
1
40
1
40
1
40
1
41
1
10
75.3003702092087
20
3.2815800730275
30
0
41
1
10
75.2584735136253
20
3.32757456142409
30
0
41
1
10
75.2083842755628
20
3.36836596261696
30
0
41
1
10
75.0997502149858
20
3.43042806376761
30
0
41
1
10
75.0410272604856
20
3.45371683611148
30
0
41
1
10
74.9157725494638
20
3.4820936973164
30
0
41
1
10
74.847164575008
20
3.487213537012
30
0
41
1
10
74.7223613939849
20
3.47800566335115
30
0
41
1
10
74.6643019583383
20
3.46630358279634
30
0
41
1
10
74.5396629470071
20
3.42584494587359
30
0
41
1
10
74.4735913059699
20
3.39255377148973
30
0
41
1
10
74.3877256090947
20
3.33344482792393
30
0
41
1
10
74.3614258709828
20
3.31258629974917
30
0
41
1
10
74.3368921694181
20
3.29037465921726
30
0
0
SPLINE
5
CC
100
AcDbEntity
8
1
62
256
6
ByLayer
370
-1
48
1
60
0
100
AcDbSpline
70
4
71
3
72
18
73
14
40
0
40
0
40
0
40
0
40
0.19946670155588
40
0.19946670155588
40
0.375918134847277
40
0.375918134847277
40
0.554203073690969
40
0.554203073690969
40
0.707680095069326
40
0.707680095069326
40
0.90827454777607
40
0.90827454777607
40
1
40
1
40
1
40
1
41
1
10
73.8539283282885
20
3.57593148192902
30
0
41
1
10
73.8750679394745
20
3.63975464845211
30
0
41
1
10
73.887121204505
20
3.70815290395669
30
0
41
1
10
73.8883020373893
20
3.83951027750308
30
0
41
1
10
73.8797389927533
20
3.90370425346305
30
0
41
1
10
73.8422347015377
20
4.02823648439596
30
0
41
1
10
73.8122801466793
20
4.09035809774088
30
0
41
1
10
73.7409351802717
20
4.19274843574067
30
0
41
1
10
73.7009433534793
20
4.23612396069217
30
0
41
1
10
73.6009425485905
20
4.3207119081334
30
0
41
1
10
73.5370348140636
20
4.35880411503501
30
0
41
1
10
73.4409076433495
20
4.39889028753484
30
0
41
1
10
73.4098656191233
20
4.40944014338712
30
0
41
1
10
73.3785320268246
20
4.41788461263127
30
0
0
SPLINE
5
CD
100
AcDbEntity
8
1
62
256
6
ByLayer
370
-1
48
1
60
0
100
AcDbSpline
70
4
71
3
72
12
73
8
40
0
40
0
40
0
40
0
40
0.315638811495885
40
0.315638811495885
40
0.783032948281676
40
0.783032948281676
40
1
40
1
40
1
40
1
41
1
10
75.8393349755681
20
4.00898716546712
30
0
41
1
10
75.8184736374917
20
3.96224624287245
30
0
41
1
10
75.8024484157742
20
3.91339495631485
30
0
41
1
10
75.7757748123733
20
3.79393265853153
30
0
41
1
10
75.7708392269905
20
3.7221671840509
30
0
41
1
10
75.7778491167456
20
3.62281875779217
30
0
41
1
10
75.7821977362698
20
3.59170604169296
30
0
41
1
10
75.7885021068768
20
3.56148222941846
30
0
0
SPLINE
5
CE
100
AcDbEntity
8
1
62
256
6
ByLayer
370
-1
48
1
60
0
100
AcDbSpline
70
4
71
3
72
16
73
12
40
0
40
0
40
0
40
0
40
0.0303373264857776
40
0.0303373264857776
40
0.348311919205176
40
0.348311919205176
40
0.634849683181542
40
0.634849683181542
40
0.886991132412935
40
0.886991132412935
40
1
40
1
40
1
40
1
41
1
10
74.3660108115637
20
6.10351700250257
30
0
41
1
10
74.3632926356318
20
6.10612001266816
30
0
41
1
10
74.3605231163949
20
6.10868054631041
30
0
41
1
10
74.3285735213319
20
6.13718838479306
30
0
41
1
10
74.2933802824689
20
6.15872891213235
30
0
41
1
10
74.220786938104
20
6.18537099410418
30
0
41
1
10
74.1827737957983
20
6.19222977170094
30
0
41
1
10
74.1118054754493
20
6.19133702483953
30
0
41
1
10
74.0777390908355
20
6.18517305066959
30
0
41
1
10
74.0321573162822
20
6.16823534280709
30
0
41
1
10
74.0183646409047
20
6.16182633247669
30
0
41
1
10
74.0052551818646
20
6.15440543338235
30
0
0
SPLINE
5
CF
100
AcDbEntity
8
1
62
256
6
ByLayer
370
-1
48
1
60
0
100
AcDbSpline
70
4
71
3
72
14
73
10
40
0
40
0
40
0
40
0
40
0.265471405035018
40
0.265471405035018
40
0.552293784058221
40
0.552293784058221
40
0.811629462722375
40
0.811629462722375
40
1
40
1
40
1
40
1
41
1
10
73.3854217053109
20
4.98232566690052
30
0
41
1
10
73.3532235556302
20
4.97476857822744
30
0
41
1
10
73.3215103811733
20
4.96189784221556
30
0
41
1
10
73.2617650254326
20
4.92492692948352
30
0
41
1
10
73.233327774487
20
4.89935284548523
30
0
41
1
10
73.1906527658014
20
4.84216312194988
30
0
41
1
10
73.1747204191975
20
4.8104559041831
30
0
41
1
10
73.1583227894596
20
4.75300044037903
30
0
41
1
10
73.1546407371437
20
4.72746041646755
30
0
41
1
10
73.1544840347261
20
4.70213382598408
30
0
0
SPLINE
5
D0
100
AcDbEntity
8
1
62
256
6
ByLayer
370
-1
48
1
60
0
100
AcDbSpline
70
4
71
3
72
18
73
14
40
0
40
0
40
0
40
0
40
0.0300362165216526
40
0.0300362165216526
40
0.251540721216152
40
0.251540721216152
40
0.473950494568832
40
0.473950494568832
40
0.70916875907237
40
0.70916875907237
40
0.966625676799185
40
0.966625676799185
40
1
40
1
40
1
40
1
41
1
10
75.6384646644877
20
3.23345738289993
30
0
41
1
10
75.6419940295269
20
3.23545525800239
30
0
41
1
10
75.645487085256
20
3.23752733391021
30
0
41
1
10
75.6741269433185
20
3.25531048283415
30
0
41
1
10
75.6973937629198
20
3.27508040042267
30
0
41
1
10
75.7365938516852
20
3.31950275982047
30
0
41
1
10
75.7530136828872
20
3.34472822653942
30
0
41
1
10
75.7782964347995
20
3.39850694315987
30
0
41
1
10
75.7870142548456
20
3.42783005794848
30
0
41
1
10
75.796049588696
20
3.48825335927936
30
0
41
1
10
75.7956431842388
20
3.52001445163626
30
0
41
1
10
75.7900335891694
20
3.5537461826373
30
0
41
1
10
75.789305846337
20
3.55762901835627
30
0
41
1
10
75.7885021068768
20
3.56148222941849
30
0
0
SPLINE
5
D1
100
AcDbEntity
8
1
62
256
6
ByLayer
370
-1
48
1
60
0
100
AcDbSpline
70
4
71
3
72
14
73
10
40
0
40
0
40
0
40
0
40
0.24069069896084
40
0.24069069896084
40
0.53243800893501
40
0.53243800893501
40
0.796082357263218
40
0.796082357263218
40
1
40
1
40
1
40
1
41
1
10
75.8124526924821
20
5.80916559359508
30
0
41
1
10
75.8184078327756
20
5.83677883083828
30
0
41
1
10
75.8205583864462
20
5.86616748602611
30
0
41
1
10
75.8157147960517
20
5.93138665177904
30
0
41
1
10
75.8065092354748
20
5.96833930357624
30
0
41
1
10
75.7766112058804
20
6.03362098779584
30
0
41
1
10
75.7565964481343
20
6.06340694495782
30
0
41
1
10
75.7135678854837
20
6.10817246448252
30
0
41
1
10
75.6918106039383
20
6.12546527174868
30
0
41
1
10
75.6685420439756
20
6.13922302230131
30
0
0
SPLINE
5
D2
100
AcDbEntity
8
1
62
256
6
ByLayer
370
-1
48
1
60
0
100
AcDbSpline
70
4
71
3
72
12
73
8
40
0
40
0
40
0
40
0
40
0.484730941351611
40
0.484730941351611
40
0.891528974580917
40
0.891528974580917
40
1
40
1
40
1
40
1
41
1
10
76.2813210762474
20
4.40272725661268
30
0
41
1
10
76.2177997624099
20
4.38511928161708
30
0
41
1
10
76.1545340489064
20
4.35651179857075
30
0
41
1
10
76.0458986065689
20
4.28373028635767
30
0
41
1
10
75.9981168221048
20
4.24183247900598
30
0
41
1
10
75.9447879584667
20
4.18009570945014
30
0
41
1
10
75.9338661701342
20
4.16650686343505
30
0
41
1
10
75.9233938558201
20
4.15247619368608
30
0
0
SPLINE
5
D3
100
AcDbEntity
8
1
62
256
6
ByLayer
370
-1
48
1
60
0
100
AcDbSpline
70
4
71
3
72
14
73
10
40
0
40
0
40
0
40
0
40
0.238020266121697
40
0.238020266121697
40
0.530100715742829
40
0.530100715742829
40
0.794028772010387
40
0.794028772010387
40
1
40
1
40
1
40
1
41
1
10
75.3003702092081
20
3.28158007302696
30
0
41
1
10
75.3184503004604
20
3.26173162112076
30
0
41
1
10
75.339995779711
20
3.24429235671451
30
0
41
1
10
75.3934479911708
20
3.21375875293228
30
0
41
1
10
75.427536914848
20
3.20212902175143
30
0
41
1
10
75.4953125146274
20
3.19370658556545
30
0
41
1
10
75.5297648700668
20
3.19552859145716
30
0
41
1
10
75.5888821028144
20
3.20981239985028
30
0
41
1
10
75.6146795952585
20
3.2199933186574
30
0
41
1
10
75.6384646644877
20
3.23345738289993
30
0
0
SPLINE
5
D4
100
AcDbEntity
8
1
62
256
6
ByLayer
370
-1
48
1
60
0
100
AcDbSpline
70
4
71
3
72
16
73
12
40
0
40
0
40
0
40
0
40
0.115534552879726
40
0.115534552879726
40
0.335731956281685
40
0.335731956281685
40
0.561665937135459
40
0.561665937135459
40
0.804309574435551
40
0.804309574435551
40
1
40
1
40
1
40
1
41
1
10
74.0052551818646
20
6.15440543338235
30
0
41
1
10
73.9917781759944
20
6.14677647627974
30
0
41
1
10
73.9789214373237
20
6.13801975255308
30
0
41
1
10
73.9442626901131
20
6.1099529123062
30
0
41
1
10
73.9244640977627
20
6.08781208793118
30
0
41
1
10
73.8930032940099
20
6.03920654059996
30
0
41
1
10
73.8811461126502
20
6.01204384489915
30
0
41
1
10
73.865976985757
20
5.95484328257001
30
0
41
1
10
73.863139745583
20
5.9240354286797
30
0
41
1
10
73.866492864575
20
5.87011847024732
30
0
41
1
10
73.8710376290946
20
5.84628023450591
30
0
41
1
10
73.8782406746827
20
5.82357069408835
30
0
0
SPLINE
5
D5
100
AcDbEntity
8
1
62
256
6
ByLayer
370
-1
48
1
60
0
100
AcDbSpline
70
4
71
3
72
14
73
10
40
0
40
0
40
0
40
0
40
0.251254383602179
40
0.251254383602179
40
0.539852109824172
40
0.539852109824172
40
0.800674640248387
40
0.800674640248387
40
1
40
1
40
1
40
1
41
1
10
76.2813210762474
20
4.40272725661259
30
0
41
1
10
76.3085563685054
20
4.41027682251581
30
0
41
1
10
76.3354739809949
20
4.4225539071447
30
0
41
1
10
76.3884654978332
20
4.45832106586025
30
0
41
1
10
76.4146362607605
20
4.48386404530689
30
0
41
1
10
76.4542432122536
20
4.54111206590079
30
0
41
1
10
76.4692153380309
20
4.57289799601861
30
0
41
1
10
76.4853225159349
20
4.63184272820217
30
0
41
1
10
76.4890700321225
20
4.65893534112934
30
0
41
1
10
76.4892358116262
20
4.68572899029823
30
0
0
SPLINE
5
D6
100
AcDbEntity
8
1
62
256
6
ByLayer
370
-1
48
1
60
0
100
AcDbSpline
70
4
71
3
72
16
73
12
40
0
40
0
40
0
40
0
40
0.0604497228451281
40
0.0604497228451281
40
0.283305128283561
40
0.283305128283561
40
0.508814237106695
40
0.508814237106695
40
0.748661220366321
40
0.748661220366321
40
1
40
1
40
1
40
1
41
1
10
73.9751778023767
20
3.24863979398094
30
0
41
1
10
73.9821104426304
20
3.24454080653032
30
0
41
1
10
73.9892373801067
20
3.240726107542
30
0
41
1
10
74.0231508961891
20
3.22437956848791
30
0
41
1
10
74.0522880539547
20
3.21556921611889
30
0
41
1
10
74.1111225356948
20
3.20698689131859
30
0
41
1
10
74.1415674118358
20
3.20719127056958
30
0
41
1
10
74.2015571758266
20
3.21611804858043
30
0
41
1
10
74.2316772210011
20
3.22546155772366
30
0
41
1
10
74.2877901842417
20
3.25199663061179
30
0
41
1
10
74.3141823780871
20
3.26981429981652
30
0
41
1
10
74.3368921694181
20
3.29037465921726
30
0
0
SPLINE
5
D7
100
AcDbEntity
8
1
62
256
6
ByLayer
370
-1
48
1
60
0
100
AcDbSpline
70
4
71
3
72
12
73
8
40
0
40
0
40
0
40
0
40
0.476065511100111
40
0.476065511100111
40
0.884389800556702
40
0.884389800556702
40
1
40
1
40
1
40
1
41
1
10
73.3854217053109
20
4.98232566690047
30
0
41
1
10
73.4552438158303
20
4.99871331295364
30
0
41
1
10
73.5244111496211
20
5.02574732868416
30
0
41
1
10
73.6431370301648
20
5.09590911366502
30
0
41
1
10
73.6953402263983
20
5.1371491207781
30
0
41
1
10
73.75294728899
20
5.19922287093365
30
0
41
1
10
73.7651849032908
20
5.21360138093834
30
0
41
1
10
73.7767698912622
20
5.22849778296313
30
0
0
SPLINE
5
D8
100
AcDbEntity
8
1
62
256
6
ByLayer
370
-1
48
1
60
0
100
AcDbSpline
70
4
71
3
72
18
73
14
40
0
40
0
40
0
40
0
40
0.0322035807759263
40
0.0322035807759263
40
0.255726466182379
40
0.255726466182379
40
0.480273245750791
40
0.480273245750791
40
0.71783767610856
40
0.71783767610856
40
0.977915378777616
40
0.977915378777616
40
1
40
1
40
1
40
1
41
1
10
75.6685420439756
20
6.13922302230131
30
0
41
1
10
75.6648384582464
20
6.14141280150096
30
0
41
1
10
75.6610900085677
20
6.14351985836618
30
0
41
1
10
75.6312863501407
20
6.15942388566089
30
0
41
1
10
75.6030190413816
20
6.16930707669988
30
0
41
1
10
75.5465501368117
20
6.1798141761376
30
0
41
1
10
75.5176313697557
20
6.18055153350116
30
0
41
1
10
75.4612541542698
20
6.17338992138761
30
0
41
1
10
75.4332664838527
20
6.16492903695374
30
0
41
1
10
75.3805001471009
20
6.13942642662497
30
0
41
1
10
75.3555992095315
20
6.12135988766488
30
0
41
1
10
75.3329818169825
20
6.09842031159911
30
0
41
1
10
75.3312213363549
20
6.0965828901769
30
0
41
1
10
75.3294888513539
20
6.09472241631244
30
0
0
LINE
5
4A
100
AcDbEntity
8
80
62
256
6
ByLayer
370
-1
48
1
60
0
100
AcDbLine
10
0
20
0
30
0
11
-10
21
0
31
0
39
0
210
0
220
0
230
1
0
LINE
5
4B
100
AcDbEntity
8
1
62
256
6
ByLayer
370
-1
48
1
60
0
100
AcDbLine
10
79.928906
20
12.065602
30
0
11
79.42179
21
2.38924
31
0
39
0
210
0
220
0
230
1
0
LINE
5
4C
100
AcDbEntity
8
1
62
256
6
ByLayer
370
-1
48
1
60
0
100
AcDbLine
10
79.05159
20
1.757306
30
0
11
70.877203
21
-3.385712
31
0
39
0
210
0
220
0
230
1
0
LINE
5
4D
100
AcDbEntity
8
1
62
256
6
ByLayer
370
-1
48
1
60
0
100
AcDbLine
10
69.670699
20
-2.672356
30
0
11
70.177816
21
7.004007
31
0
39
0
210
0
220
0
230
1
0
LINE
5
4E
100
AcDbEntity
8
1
62
256
6
ByLayer
370
-1
48
1
60
0
100
AcDbLine
10
75.28548
20
7.281826
30
0
11
75.168522
21
7.2961
31
0
39
0
210
0
220
0
230
1
0
LINE
5
4F
100
AcDbEntity
8
1
62
256
6
ByLayer
370
-1
48
1
60
0
100
AcDbLine
10
74.532492
20
2.08477
30
0
11
74.64945
21
2.070495
31
0
39
0
210
0
220
0
230
1
0
LINE
5
50
100
AcDbEntity
8
1
62
256
6
ByLayer
370
-1
48
1
60
0
100
AcDbLine
10
75.033587
20
3.464521
30
0
11
74.912588
21
3.479289
31
0
39
0
210
0
220
0
230
1
0
LINE
5
51
100
AcDbEntity
8
1
62
256
6
ByLayer
370
-1
48
1
60
0
100
AcDbLine
10
74.785636
20
5.901922
30
0
11
74.906544
21
5.887166
31
0
39
0
210
0
220
0
230
1
0
LINE
5
52
100
AcDbEntity
8
SK1
62
256
6
ByLayer
370
-1
48
1
60
0
100
AcDbLine
10
-170.82
20
-9.99125
30
0
11
0
21
-9.99125
31
0
39
0
210
0
220
0
230
1
0
LINE
5
54
100
AcDbEntity
8
SK1
62
256
6
ByLayer
370
-1
48
1
60
0
100
AcDbLine
10
0
20
9.99125
30
0
11
-170.82
21
9.99125
31
0
39
0
210
0
220
0
230
1
0
LINE
5
55
100
AcDbEntity
8
SK1
62
256
6
ByLayer
370
-1
48
1
60
0
100
AcDbLine
10
-170.82
20
9.99125
30
0
11
-171.32
21
9.49125
31
0
39
0
210
0
220
0
230
1
0
LINE
5
56
100
AcDbEntity
8
SK1
62
256
6
ByLayer
370
-1
48
1
60
0
100
AcDbLine
10
-171.32
20
-9.49125
30
0
11
-170.82
21
-9.99125
31
0
39
0
210
0
220
0
230
1
0
LINE
5
57
100
AcDbEntity
8
1
62
256
6
ByLayer
370
-1
48
1
60
0
100
AcDbLine
10
0
20
-9.99125
30
0
11
67.212922
21
-9.99125
31
0
39
0
210
0
220
0
230
1
0
LINE
5
58
100
AcDbEntity
8
1
62
256
6
ByLayer
370
-1
48
1
60
0
100
AcDbLine
10
61.164541
20
9.99125
30
0
11
0
21
9.99125
31
0
39
0
210
0
220
0
230
1
0
LINE
5
59
100
AcDbEntity
8
81
62
256
6
ByLayer
370
-1
48
1
60
0
100
AcDbLine
10
79.93
20
12.9
30
0
11
89.93
21
12.9
31
0
39
0
210
0
220
0
230
1
0
LINE
5
5A
100
AcDbEntity
8
SK4
62
256
6
ByLayer
370
-1
48
0.05
60
0
100
AcDbLine
10
-176.32
20
0
30
0
11
85.119943
21
0
31
0
39
0
210
0
220
0
230
1
0
LINE
5
5C
100
AcDbEntity
8
4
62
256
6
ByLayer
370
-1
48
0.05
60
0
100
AcDbLine
10
0
20
0
30
0
11
85.119943
21
0
31
0
39
0
210
0
220
0
230
1
0
LINE
5
5E
100
AcDbEntity
8
1
62
256
6
ByLayer
370
-1
48
1
60
0
100
AcDbLine
10
0
20
-0.233436
30
0
11
0
21
0.233436
31
0
39
0
210
0
220
0
230
1
0
LINE
5
5F
100
AcDbEntity
8
1
62
256
6
ByLayer
370
-1
48
1
60
0
100
AcDbLine
10
79.330836
20
1.348046
30
0
11
71.591746
21
-3.460261
31
0
39
0
210
0
220
0
230
1
0
LINE
5
60
100
AcDbEntity
8
1
62
256
6
ByLayer
370
-1
48
1
60
0
100
AcDbLine
10
69.089324
20
-9.988546
30
0
11
69.808995
21
-9.558867
31
0
39
0
210
0
220
0
230
1
0
LINE
5
61
100
AcDbEntity
8
1
62
256
6
ByLayer
370
-1
48
1
60
0
100
AcDbLine
10
69.25174
20
-0.104869
30
0
11
69.668113
21
7.224579
31
0
39
0
210
0
220
0
230
1
0
LINE
5
62
100
AcDbEntity
8
1
62
256
6
ByLayer
370
-1
48
1
60
0
100
AcDbLine
10
64.572569
20
9.983223
30
0
11
69.808995
21
-9.558867
31
0
39
0
210
0
220
0
230
1
0
LINE
5
63
100
AcDbEntity
8
1
62
256
6
ByLayer
370
-1
48
1
60
0
100
AcDbLine
10
74.578192
20
-1.111647
30
0
11
74.581357
21
-1.055195
31
0
39
0
210
0
220
0
230
1
0
LINE
5
64
100
AcDbEntity
8
1
62
256
6
ByLayer
370
-1
48
1
60
0
100
AcDbLine
10
69.441224
20
-2.304653
30
0
11
69.352859
21
-2.162506
31
0
39
0
210
0
220
0
230
1
0
LINE
5
65
100
AcDbEntity
8
1
62
256
6
ByLayer
370
-1
48
1
60
0
100
AcDbLine
10
69.458835
20
-0.050164
30
0
11
69.820027
21
0.177085
31
0
39
0
210
0
220
0
230
1
0
LINE
5
66
100
AcDbEntity
8
1
62
256
6
ByLayer
370
-1
48
1
60
0
100
AcDbLine
10
0
20
-0.233436
30
0
11
53.017528
21
-0.233436
31
0
39
0
210
0
220
0
230
1
0
LINE
5
67
100
AcDbEntity
8
1
62
256
6
ByLayer
370
-1
48
1
60
0
100
AcDbLine
10
68.872475
20
-2.103877
30
0
11
68.961889
21
-2.246151
31
0
39
0
210
0
220
0
230
1
0
LINE
5
68
100
AcDbEntity
8
1
62
256
6
ByLayer
370
-1
48
1
60
0
100
AcDbLine
10
79.330836
20
1.348046
30
0
11
79.357801
21
1.862564
31
0
39
0
210
0
220
0
230
1
0
LINE
5
69
100
AcDbEntity
8
1
62
256
6
ByLayer
370
-1
48
1
60
0
100
AcDbLine
10
76.26539
20
-0.050125
30
0
11
74.578192
21
-1.111647
31
0
39
0
210
0
220
0
230
1
0
LINE
5
6A
100
AcDbEntity
8
1
62
256
6
ByLayer
370
-1
48
1
60
0
100
AcDbLine
10
79.591513
20
1.546888
30
0
11
79.306668
21
-3.888278
31
0
39
0
210
0
220
0
230
1
0
LINE
5
6B
100
AcDbEntity
8
1
62
256
6
ByLayer
370
-1
48
1
60
0
100
AcDbLine
10
68.872475
20
-2.103877
30
0
11
69.352859
21
-2.162506
31
0
39
0
210
0
220
0
230
1
0
LINE
5
6C
100
AcDbEntity
8
1
62
256
6
ByLayer
370
-1
48
1
60
0
100
AcDbLine
10
69.458835
20
-0.050164
30
0
11
69.805901
21
-0.092522
31
0
39
0
210
0
220
0
230
1
0
LINE
5
6D
100
AcDbEntity
8
1
62
256
6
ByLayer
370
-1
48
1
60
0
100
AcDbLine
10
69.25174
20
-0.104869
30
0
11
69.35994
21
-0.118075
31
0
39
0
210
0
220
0
230
1
0
LINE
5
6E
100
AcDbEntity
8
1
62
256
6
ByLayer
370
-1
48
1
60
0
100
AcDbLine
10
76.26539
20
-0.050125
30
0
11
76.268554
21
0.006326
31
0
39
0
210
0
220
0
230
1
0
LINE
5
6F
100
AcDbEntity
8
1
62
256
6
ByLayer
370
-1
48
1
60
0
100
AcDbLine
10
68.824124
20
7.814828
30
0
11
66.644434
21
9.983223
31
0
39
0
210
0
220
0
230
1
0
LINE
5
70
100
AcDbEntity
8
1
62
256
6
ByLayer
370
-1
48
1
60
0
100
AcDbLine
10
52.891388
20
0.233436
30
0
11
0
21
0.233436
31
0
39
0
210
0
220
0
230
1
0
LINE
5
71
100
AcDbEntity
8
1
62
256
6
ByLayer
370
-1
48
1
60
0
100
AcDbLine
10
0
20
-9.99125
30
0
11
0
21
-0.233436
31
0
39
0
210
0
220
0
230
1
0
LINE
5
72
100
AcDbEntity
8
1
62
256
6
ByLayer
370
-1
48
1
60
0
100
AcDbLine
10
0
20
0.233436
30
0
11
0
21
9.99125
31
0
39
0
210
0
220
0
230
1
0
LINE
5
73
100
AcDbEntity
8
1
62
256
6
ByLayer
370
-1
48
1
60
0
100
AcDbLine
10
64.572569
20
9.983223
30
0
11
66.644434
21
9.983223
31
0
39
0
210
0
220
0
230
1
0
LINE
5
74
100
AcDbEntity
8
1
62
256
6
ByLayer
370
-1
48
1
60
0
100
AcDbLine
10
68.961889
20
-2.246151
30
0
11
69.441224
21
-2.304653
31
0
39
0
210
0
220
0
230
1
0
LINE
5
75
100
AcDbEntity
8
1
62
256
6
ByLayer
370
-1
48
1
60
0
100
AcDbLine
10
79.265571
20
1.955364
30
0
11
79.290988
21
1.971356
31
0
39
0
210
0
220
0
230
1
0
LINE
5
76
100
AcDbEntity
8
1
62
256
6
ByLayer
370
-1
48
1
60
0
100
AcDbLine
10
69.808995
20
-9.558867
30
0
11
79.306668
21
-3.888278
31
0
39
0
210
0
220
0
230
1
0
LINE
5
77
100
AcDbEntity
8
1
62
256
6
ByLayer
370
-1
48
1
60
0
100
AcDbLine
10
69.773613
20
7.169994
30
0
11
69.35994
21
-0.118075
31
0
39
0
210
0
220
0
230
1
0
LINE
5
78
100
AcDbEntity
8
SK1
62
256
6
ByLayer
370
-1
48
1
60
0
100
AcDbLine
10
0
20
0.233436
30
0
11
-60.07
21
0.233436
31
0
39
0
210
0
220
0
230
1
0
LINE
5
79
100
AcDbEntity
8
SK1
62
256
6
ByLayer
370
-1
48
1
60
0
100
AcDbLine
10
-60.07
20
-0.233436
30
0
11
0
21
-0.233436
31
0
39
0
210
0
220
0
230
1
0
LINE
5
7A
100
AcDbEntity
8
SK1
62
256
6
ByLayer
370
-1
48
1
60
0
100
AcDbLine
10
-60.07
20
-0.233436
30
0
11
-60.07
21
0.233436
31
0
39
0
210
0
220
0
230
1
0
LINE
5
7B
100
AcDbEntity
8
SK1
62
256
6
ByLayer
370
-1
48
1
60
0
100
AcDbLine
10
0
20
-9.99125
30
0
11
0
21
-0.233436
31
0
39
0
210
0
220
0
230
1
0
LINE
5
7C
100
AcDbEntity
8
SK1
62
256
6
ByLayer
370
-1
48
1
60
0
100
AcDbLine
10
0
20
0.233436
30
0
11
0
21
9.99125
31
0
39
0
210
0
220
0
230
1
0
LINE
5
7D
100
AcDbEntity
8
SK1
62
256
6
ByLayer
370
-1
48
1
60
0
100
AcDbLine
10
0
20
-0.233436
30
0
11
0
21
0.233436
31
0
39
0
210
0
220
0
230
1
0
LINE
5
7E
100
AcDbEntity
8
SK1
62
256
6
ByLayer
370
-1
48
1
60
0
100
AcDbLine
10
-170.82
20
-9.99125
30
0
11
-170.82
21
9.99125
31
0
39
0
210
0
220
0
230
1
0
LINE
5
7F
100
AcDbEntity
8
SK1
62
256
6
ByLayer
370
-1
48
1
60
0
100
AcDbLine
10
-171.32
20
-9.49125
30
0
11
-171.32
21
9.49125
31
0
39
0
210
0
220
0
230
1
0
LINE
5
80
100
AcDbEntity
8
1
62
256
6
ByLayer
370
-1
48
1
60
0
100
AcDbLine
10
75.466364
20
6.078017
30
0
11
75.329489
21
6.094722
31
0
39
0
210
0
220
0
230
1
0
LINE
5
81
100
AcDbEntity
8
1
62
256
6
ByLayer
370
-1
48
1
60
0
100
AcDbLine
10
74.014935
20
5.806888
30
0
11
73.878241
21
5.823571
31
0
39
0
210
0
220
0
230
1
0
LINE
5
82
100
AcDbEntity
8
1
62
256
6
ByLayer
370
-1
48
1
60
0
100
AcDbLine
10
73.522116
20
4.965642
30
0
11
73.385422
21
4.982326
31
0
39
0
210
0
220
0
230
1
0
LINE
5
83
100
AcDbEntity
8
1
62
256
6
ByLayer
370
-1
48
1
60
0
100
AcDbLine
10
73.515407
20
4.401179
30
0
11
73.378532
21
4.417885
31
0
39
0
210
0
220
0
230
1
0
LINE
5
84
100
AcDbEntity
8
1
62
256
6
ByLayer
370
-1
48
1
60
0
100
AcDbLine
10
73.990803
20
3.559226
30
0
11
73.853928
21
3.575931
31
0
39
0
210
0
220
0
230
1
0
LINE
5
85
100
AcDbEntity
8
1
62
256
6
ByLayer
370
-1
48
1
60
0
100
AcDbLine
10
75.437245
20
3.264875
30
0
11
75.30037
21
3.28158
31
0
39
0
210
0
220
0
230
1
0
LINE
5
86
100
AcDbEntity
8
1
62
256
6
ByLayer
370
-1
48
1
60
0
100
AcDbLine
10
73.77677
20
5.228498
30
0
11
73.896754
21
5.213854
31
0
39
0
210
0
220
0
230
1
0
LINE
5
87
100
AcDbEntity
8
1
62
256
6
ByLayer
370
-1
48
1
60
0
100
AcDbLine
10
73.980812
20
5.357343
30
0
11
73.860829
21
5.371987
31
0
39
0
210
0
220
0
230
1
0
LINE
5
88
100
AcDbEntity
8
1
62
256
6
ByLayer
370
-1
48
1
60
0
100
AcDbLine
10
70.548015
20
7.635941
30
0
11
78.722403
21
12.778959
31
0
39
0
210
0
220
0
230
1
0
LINE
5
89
100
AcDbEntity
8
2
62
256
6
ByLayer
370
-1
48
1
60
1
100
AcDbLine
10
79.93
20
0
30
0
11
79.931
21
0.001
31
0
39
0
210
0
220
0
230
1
0
MTEXT
5
D9
100
AcDbEntity
8
SK6
62
256
6
ByLayer
370
-1
48
1
60
0
100
AcDbMText
10
-42.32
20
-22.320625
30
0
210
0
220
0
230
1
1
\W00.737;\fsimplex.shx,bigfont.shx;A20S-SDUPR 11-R 
40
3.5
41
0
44
1.084337
50
0
71
7
72
5
7
DEFAULT
0
DIMENSION
5
10C
100
AcDbEntity
8
2
62
256
6
ByLayer
370
-3
48
1
60
0
100
AcDbDimension
2
DimnDraft3D1
10
92.18
20
0
30
0
11
92.18
21
23.155
31
0
70
32
71
5
72
1
41
1
210
0
220
0
230
1
3
Standard
100
AcDbAlignedDimension
13
81.93
23
12.9
33
0
14
81.93
24
0
34
0
50
90
100
AcDbRotatedDimension
1001
ACAD
1000
DSTYLE
1002
{
1070
    74
1070
     0
1070
   279
1070
     0
1070
   172
1070
     1
1070
   173
1070
     1
1070
   340
1005
DA
1070
    77
1070
     1
1070
    73
1070
     0
1070
   171
1070
     4
1070
   274
1070
     4
1070
   177
1070
     2
1070
   176
1070
     2
1070
   178
1070
     7
1070
    78
1070
     8
1070
    41
1041
3.175
1070
   147
1041
2.25
1070
    42
1041
2.0
1070
    44
1041
2.0
1070
   140
1041
4.5
1070
   343
1005
10D
1070
   344
1005
10D
1002
}
0
DIMENSION
5
122
100
AcDbEntity
8
SK2
62
256
6
ByLayer
370
-3
48
1
60
0
100
AcDbDimension
2
DimnDraft3D2
10
-181.07
20
9.99125
30
0
11
-181.07
21
-4.784211
31
0
70
32
71
5
72
1
41
1
210
0
220
0
230
1
3
Standard
100
AcDbAlignedDimension
13
-173.32
23
-9.99125
33
0
14
-173.32
24
9.99125
34
0
50
90
100
AcDbRotatedDimension
1001
ACAD
1000
DSTYLE
1002
{
1070
    74
1070
     0
1070
   279
1070
     0
1070
   172
1070
     1
1070
   173
1070
     1
1070
   340
1005
DA
1070
    77
1070
     1
1070
    73
1070
     0
1070
   171
1070
     4
1070
   274
1070
     4
1070
   177
1070
     2
1070
   176
1070
     2
1070
   178
1070
     7
1070
    78
1070
     8
1070
    41
1041
3.175
1070
   147
1041
2.25
1070
    42
1041
2.0
1070
    44
1041
2.0
1070
   140
1041
4.5
1070
   343
1005
10D
1070
   344
1005
10D
1002
}
0
DIMENSION
5
130
100
AcDbEntity
8
SK2
62
256
6
ByLayer
370
-3
48
1
60
0
100
AcDbDimension
2
DimnDraft3D3
10
-171.32
20
25.65
30
0
11
-52.510132
21
25.65
31
0
70
32
71
5
72
1
41
1
210
0
220
0
230
1
3
Standard
100
AcDbAlignedDimension
13
79.93
23
14.9
33
0
14
-171.32
24
11.99125
34
0
50
0
100
AcDbRotatedDimension
1001
ACAD
1000
DSTYLE
1002
{
1070
   279
1070
     0
1070
   172
1070
     1
1070
   173
1070
     1
1070
   340
1005
DA
1070
    77
1070
     1
1070
    73
1070
     0
1070
   171
1070
     4
1070
   274
1070
     4
1070
   177
1070
     2
1070
   176
1070
     2
1070
   178
1070
     7
1070
    78
1070
     8
1070
    41
1041
3.175
1070
   147
1041
2.25
1070
    42
1041
2.0
1070
    44
1041
2.0
1070
   140
1041
4.5
1070
   343
1005
10D
1070
   344
1005
10D
1002
}
0
DIMENSION
5
13E
100
AcDbEntity
8
2
62
256
6
ByLayer
370
-3
48
1
60
0
100
AcDbDimension
2
DimnDraft3D4
10
128.180347
20
0
30
0
11
105.38575
21
-36.792664
31
0
70
34
71
5
72
1
41
1
210
0
220
0
230
1
3
Standard
100
AcDb2LineAngularDimension
13
79.249633
23
-0.082184
33
0
14
76.693329
24
-48.859355
34
0
15
81.93
25
0
35
0
16
108.458351
26
-30.775028
36
0
40
0
0
ENDSEC
0
SECTION
2
OBJECTS
0
DICTIONARY
5
16f
330
0
100
AcDbDictionary
280
0
281
1
3
ACAD_GROUP
350
170
3
ACAD_MLINESTYLE
350
171
0
DICTIONARY
5
170
330
0
100
AcDbDictionary
280
0
281
1
0
DICTIONARY
5
171
330
0
100
AcDbDictionary
280
0
281
1
3
Standard
350
18
0
MLINESTYLE
5
18
330
171
100
AcDbMlineStyle
2
Standard
70
0
3

62
256
51
90
52
90
71
2
49
-0.5
62
256
6
ByLayer
49
0.5
62
256
6
ByLayer
0
RASTERVARIABLES
5
15d
330

100
AcDbRasterVariables
90
0
70
1
71
1
72
1
0
ENDSEC
0
EOF
